0
SECTION
2
HEADER
9
$ACADVER
1
AC1015
9
$DWGCODEPAGE
3
ANSI_1252
9
$HANDSEED
5
1f8
9
$ANGBASE
50
0
9
$ANGDIR
70
0
9
$ATTMODE
70
1
9
$AUNITS
70
0
9
$AUPREC
70
0
9
$CECOLOR
62
256
9
$CELTSCALE
40
1
9
$CELTYPE
6
ByLayer
9
$CELWEIGHT
370
-1
9
$CLAYER
8
0
9
$CMLJUST
70
0
9
$CMLSCALE
40
1
9
$CMLSTYLE
2
Standard
9
$DIMSTYLE
2
Standard
9
$TEXTSIZE
40
0.2
9
$TEXTSTYLE
7
Standard
9
$LUNITS
70
2
9
$LUPREC
70
4
9
$EXTNAMES
290
1
9
$INSUNITS
70
4
9
$LTSCALE
40
1
9
$LWDISPLAY
290
0
9
$PDMODE
70
0
9
$PDSIZE
40
0
9
$PLINEGEN
70
0
0
ENDSEC
0
SECTION
2
CLASSES
0
CLASS
1
RASTERVARIABLES
2
AcDbRasterVariables
3
ISM
90
0
280
0
281
0
0
ENDSEC
0
SECTION
2
TABLES
0
TABLE
2
VPORT
5
1ee
100
AcDbSymbolTable
0
VPORT
5
1
100
AcDbSymbolTableRecord
100
AcDbViewportTableRecord
2
*Active
70
0
10
0
20
0
11
1
21
1
12
-1
22
1
13
0
23
0
14
0.5
24
0.5
15
10
25
10
16
0
26
0
36
1
17
0
27
0
37
0
0
ENDTAB
0
TABLE
2
LTYPE
5
1ef
100
AcDbSymbolTable
0
LTYPE
5
14
100
AcDbSymbolTableRecord
100
AcDbLinetypeTableRecord
70
0
2
ByBlock
3

72
65
73
0
40
0
0
LTYPE
5
15
100
AcDbSymbolTableRecord
100
AcDbLinetypeTableRecord
70
0
2
ByLayer
3

72
65
73
0
40
0
0
LTYPE
5
16
100
AcDbSymbolTableRecord
100
AcDbLinetypeTableRecord
70
0
2
CONTINUOUS
3
Solid line
72
65
73
0
40
0
0
LTYPE
5
3B
100
AcDbSymbolTableRecord
100
AcDbLinetypeTableRecord
70
0
2
DASHED
3
__ __ __ __ __ __ __ __ __
72
65
73
2
40
25.72
49
12.86
74
0
49
-12.86
74
0
0
LTYPE
5
3C
100
AcDbSymbolTableRecord
100
AcDbLinetypeTableRecord
70
0
2
HIDDEN
3
_ _ _ _ _ _ _ _ _ _ _ _ _ _ _
72
65
73
2
40
0.5
49
0.25
74
0
49
-0.25
74
0
0
LTYPE
5
3D
100
AcDbSymbolTableRecord
100
AcDbLinetypeTableRecord
70
0
2
PHANTOM
3
____ _ _ ____ _ _ _____ _ _ ____
72
65
73
6
40
50.5
49
18
74
0
49
-6.5
74
0
49
6.5
74
0
49
-6.5
74
0
49
6.5
74
0
49
-6.5
74
0
0
LTYPE
5
3E
100
AcDbSymbolTableRecord
100
AcDbLinetypeTableRecord
70
0
2
CENTER
3
____ _ ____ _ ____ _ ____
72
65
73
4
40
47.5
49
22
74
0
49
-8.5
74
0
49
8.5
74
0
49
-8.5
74
0
0
LTYPE
5
3F
100
AcDbSymbolTableRecord
100
AcDbLinetypeTableRecord
70
0
2
DOT
3
.........................
72
65
73
2
40
10
49
0
74
0
49
-10
74
0
0
LTYPE
5
40
100
AcDbSymbolTableRecord
100
AcDbLinetypeTableRecord
70
0
2
DASHDOT
3
_._._._._._._._._._._._._._._._.
72
65
73
4
40
70
49
31
74
0
49
-13
74
0
49
13
74
0
49
-13
74
0
0
ENDTAB
0
TABLE
2
LAYER
5
1f0
100
AcDbSymbolTable
0
LAYER
5
10
100
AcDbSymbolTableRecord
100
AcDbLayerTableRecord
2
0
70
0
62
7
6
CONTINUOUS
290
1
370
-3
390
0
0
LAYER
5
42
100
AcDbSymbolTableRecord
100
AcDbLayerTableRecord
2
80
70
0
62
-6
6
CONTINUOUS
290
1
370
-3
390
0
0
LAYER
5
44
100
AcDbSymbolTableRecord
100
AcDbLayerTableRecord
2
81
70
0
62
-3
6
CONTINUOUS
290
1
370
-3
390
0
0
LAYER
5
46
100
AcDbSymbolTableRecord
100
AcDbLayerTableRecord
2
1
70
0
62
4
6
CONTINUOUS
290
1
370
-3
390
0
0
LAYER
5
48
100
AcDbSymbolTableRecord
100
AcDbLayerTableRecord
2
2
70
0
62
7
6
CONTINUOUS
290
1
370
-3
390
0
0
LAYER
5
4E
100
AcDbSymbolTableRecord
100
AcDbLayerTableRecord
2
4
70
0
62
-2
6
CENTER
290
1
370
-3
390
0
0
LAYER
5
1da
100
AcDbSymbolTableRecord
100
AcDbLayerTableRecord
2
SK4
70
0
62
2
6
CENTER
290
1
370
-3
390
0
0
LAYER
5
1db
100
AcDbSymbolTableRecord
100
AcDbLayerTableRecord
2
SK1
70
0
62
4
6
CONTINUOUS
290
1
370
-3
390
0
0
LAYER
5
1dc
100
AcDbSymbolTableRecord
100
AcDbLayerTableRecord
2
SK6
70
0
62
5
6
CONTINUOUS
290
1
370
-3
390
0
0
LAYER
5
1dd
100
AcDbSymbolTableRecord
100
AcDbLayerTableRecord
2
SK2
70
0
62
7
6
CONTINUOUS
290
1
370
-3
390
0
0
ENDTAB
0
TABLE
2
STYLE
5
1f1
100
AcDbSymbolTable
0
STYLE
5
11
100
AcDbSymbolTableRecord
100
AcDbTextStyleTableRecord
2
Standard
3
txt
70
0
71
0
40
0
41
1
42
0
50
0
0
STYLE
5
13C
100
AcDbSymbolTableRecord
100
AcDbTextStyleTableRecord
2
DEFAULT
3
simplex.shx
70
0
71
0
40
0
41
1
42
0
50
0
0
STYLE
5
15F
100
AcDbSymbolTableRecord
100
AcDbTextStyleTableRecord
2
DWGDirectTextStyle
3
SIMPLEX
70
0
71
0
40
0
41
1
42
0
50
0
0
ENDTAB
0
TABLE
2
DIMSTYLE
5
1f2
100
AcDbSymbolTable
100
AcDbDimStyleTable
0
DIMSTYLE
105
27
100
AcDbSymbolTableRecord
100
AcDbDimStyleTableRecord
2
Standard
70
0
3
<>
41
0.18
42
0.0625
44
0.18
140
0.18
147
0.09
73
0
74
0
77
1
271
2
275
0
278
52
280
0
340
11
0
ENDTAB
0
TABLE
2
VIEW
5
1f3
100
AcDbSymbolTable
0
ENDTAB
0
TABLE
2
UCS
5
1f4
100
AcDbSymbolTable
0
ENDTAB
0
TABLE
2
APPID
5
1f5
100
AcDbSymbolTable
0
APPID
5
12
100
AcDbSymbolTableRecord
100
AcDbRegAppTableRecord
2
ACAD
70
0
0
ENDTAB
0
TABLE
2
BLOCK_RECORD
5
1f6
100
AcDbSymbolTable
0
BLOCK_RECORD
5
1F
100
AcDbSymbolTableRecord
100
AcDbBlockTableRecord
2
*Model_Space
340
0
70
0
0
BLOCK_RECORD
5
1B
100
AcDbSymbolTableRecord
100
AcDbBlockTableRecord
2
*Paper_Space
340
0
70
0
0
BLOCK_RECORD
5
23
100
AcDbSymbolTableRecord
100
AcDbBlockTableRecord
2
*Paper_Space0
340
0
70
0
0
BLOCK_RECORD
5
161
100
AcDbSymbolTableRecord
100
AcDbBlockTableRecord
2
DimnDraft3D1
340
0
70
0
0
BLOCK_RECORD
5
170
100
AcDbSymbolTableRecord
100
AcDbBlockTableRecord
2
_CLOSED
340
0
70
0
0
BLOCK_RECORD
5
177
100
AcDbSymbolTableRecord
100
AcDbBlockTableRecord
2
DimnDraft3D2
340
0
70
0
0
BLOCK_RECORD
5
183
100
AcDbSymbolTableRecord
100
AcDbBlockTableRecord
2
DimnDraft3D3
340
0
70
0
0
BLOCK_RECORD
5
191
100
AcDbSymbolTableRecord
100
AcDbBlockTableRecord
2
DimnDraft3D4
340
0
70
0
0
BLOCK_RECORD
5
19F
100
AcDbSymbolTableRecord
100
AcDbBlockTableRecord
2
DimnDraft3D5
340
0
70
0
0
BLOCK_RECORD
5
1AD
100
AcDbSymbolTableRecord
100
AcDbBlockTableRecord
2
DimnDraft3D6
340
0
70
0
0
ENDTAB
0
ENDSEC
0
SECTION
2
BLOCKS
0
BLOCK
5
20
100
AcDbEntity
8
0
100
AcDbBlockBegin
2
*Model_Space
70
0
10
0
20
0
30
0
3
*Model_Space
0
ENDBLK
5
21
100
AcDbEntity
8
0
100
AcDbBlockEnd
0
BLOCK
5
1C
100
AcDbEntity
8
0
100
AcDbBlockBegin
2
*Paper_Space
70
0
10
0
20
0
30
0
3
*Paper_Space
0
ENDBLK
5
1D
100
AcDbEntity
8
0
100
AcDbBlockEnd
0
BLOCK
5
24
100
AcDbEntity
8
0
100
AcDbBlockBegin
2
*Paper_Space0
70
0
10
0
20
0
30
0
3
*Paper_Space0
0
ENDBLK
5
25
100
AcDbEntity
8
0
100
AcDbBlockEnd
0
BLOCK
5
16D
100
AcDbEntity
8
0
100
AcDbBlockBegin
2
DimnDraft3D1
70
0
10
0
20
0
30
0
3
DimnDraft3D1
0
MTEXT
5
162
100
AcDbEntity
8
SK2
62
256
6
ByLayer
370
-1
48
1
60
0
100
AcDbMText
10
-43.875
20
-3.659211
30
0
210
0
220
0
230
1
1
\W01.000;\fsimplex.shx,bigfont.shx;%%c50 
40
4.5
41
0
44
1.084337
50
90
71
7
72
5
7
DEFAULT
0
LINE
5
164
100
AcDbEntity
8
SK2
62
256
6
ByLayer
370
-1
48
1
60
0
100
AcDbLine
10
-2
20
-25
30
0
11
-44.75
21
-25
31
0
39
0
210
0
220
0
230
1
0
LINE
5
165
100
AcDbEntity
8
SK2
62
256
6
ByLayer
370
-1
48
1
60
0
100
AcDbLine
10
-2
20
25
30
0
11
-44.75
21
25
31
0
39
0
210
0
220
0
230
1
0
LINE
5
166
100
AcDbEntity
8
SK2
62
256
6
ByLayer
370
-1
48
1
60
0
100
AcDbLine
10
-42.75
20
-25
30
0
11
-42.75
21
25
31
0
39
0
210
0
220
0
230
1
0
LINE
5
167
100
AcDbEntity
8
SK2
62
256
6
ByLayer
370
-1
48
1
60
0
100
AcDbLine
10
-42.75
20
-25
30
0
11
-43.167997
21
-21.825002
31
0
39
0
210
0
220
0
230
1
0
LINE
5
168
100
AcDbEntity
8
SK2
62
256
6
ByLayer
370
-1
48
1
60
0
100
AcDbLine
10
-42.75
20
-25
30
0
11
-42.332003
21
-21.824998
31
0
39
0
210
0
220
0
230
1
0
LINE
5
169
100
AcDbEntity
8
SK2
62
256
6
ByLayer
370
-1
48
1
60
0
100
AcDbLine
10
-43.167997
20
-21.825002
30
0
11
-42.332003
21
-21.824998
31
0
39
0
210
0
220
0
230
1
0
LINE
5
16A
100
AcDbEntity
8
SK2
62
256
6
ByLayer
370
-1
48
1
60
0
100
AcDbLine
10
-42.75
20
25
30
0
11
-42.332003
21
21.825002
31
0
39
0
210
0
220
0
230
1
0
LINE
5
16B
100
AcDbEntity
8
SK2
62
256
6
ByLayer
370
-1
48
1
60
0
100
AcDbLine
10
-42.75
20
25
30
0
11
-43.167997
21
21.824998
31
0
39
0
210
0
220
0
230
1
0
LINE
5
16C
100
AcDbEntity
8
SK2
62
256
6
ByLayer
370
-1
48
1
60
0
100
AcDbLine
10
-42.332003
20
21.825002
30
0
11
-43.167997
21
21.824998
31
0
39
0
210
0
220
0
230
1
0
ENDBLK
5
16E
100
AcDbEntity
8
0
100
AcDbBlockEnd
0
BLOCK
5
171
100
AcDbEntity
8
0
100
AcDbBlockBegin
2
_CLOSED
70
0
10
0
20
0
30
0
3
_CLOSED
0
LINE
5
173
100
AcDbEntity
8
0
62
256
6
ByLayer
370
-2
48
1
60
0
100
AcDbLine
10
-1
20
0.166667
30
0
11
0
21
0
31
0
39
0
210
0
220
0
230
1
0
LINE
5
174
100
AcDbEntity
8
0
62
256
6
ByLayer
370
-2
48
1
60
0
100
AcDbLine
10
0
20
0
30
0
11
-1
21
-0.166667
31
0
39
0
210
0
220
0
230
1
0
LINE
5
175
100
AcDbEntity
8
0
62
256
6
ByLayer
370
-2
48
1
60
0
100
AcDbLine
10
-1
20
0.166667
30
0
11
-1
21
-0.166667
31
0
39
0
210
0
220
0
230
1
0
LINE
5
176
100
AcDbEntity
8
0
62
256
6
ByLayer
370
-2
48
1
60
0
100
AcDbLine
10
0
20
0
30
0
11
-1
21
0
31
0
39
0
210
0
220
0
230
1
0
ENDBLK
5
172
100
AcDbEntity
8
0
100
AcDbBlockEnd
0
BLOCK
5
180
100
AcDbEntity
8
0
100
AcDbBlockBegin
2
DimnDraft3D2
70
0
10
0
20
0
30
0
3
DimnDraft3D2
0
MTEXT
5
178
100
AcDbEntity
8
2
62
256
6
ByLayer
370
-1
48
1
60
0
100
AcDbMText
10
38.125
20
-5.630921
30
0
210
0
220
0
230
1
1
\W01.000;\fsimplex.shx,bigfont.shx;%%c16.0 
40
4.5
41
0
44
1.084337
50
90
71
7
72
5
7
DEFAULT
0
LINE
5
179
100
AcDbEntity
8
2
62
256
6
ByLayer
370
-1
48
1
60
0
100
AcDbLine
10
39.25
20
-8
30
0
11
39.25
21
8
31
0
39
0
210
0
220
0
230
1
0
LINE
5
17A
100
AcDbEntity
8
2
62
256
6
ByLayer
370
-1
48
1
60
0
100
AcDbLine
10
39.25
20
-8
30
0
11
38.832003
21
-4.825002
31
0
39
0
210
0
220
0
230
1
0
LINE
5
17B
100
AcDbEntity
8
2
62
256
6
ByLayer
370
-1
48
1
60
0
100
AcDbLine
10
39.25
20
-8
30
0
11
39.667997
21
-4.824998
31
0
39
0
210
0
220
0
230
1
0
LINE
5
17C
100
AcDbEntity
8
2
62
256
6
ByLayer
370
-1
48
1
60
0
100
AcDbLine
10
38.832003
20
-4.825002
30
0
11
39.667997
21
-4.824998
31
0
39
0
210
0
220
0
230
1
0
LINE
5
17D
100
AcDbEntity
8
2
62
256
6
ByLayer
370
-1
48
1
60
0
100
AcDbLine
10
39.25
20
8
30
0
11
39.667997
21
4.825002
31
0
39
0
210
0
220
0
230
1
0
LINE
5
17E
100
AcDbEntity
8
2
62
256
6
ByLayer
370
-1
48
1
60
0
100
AcDbLine
10
39.25
20
8
30
0
11
38.832003
21
4.824998
31
0
39
0
210
0
220
0
230
1
0
LINE
5
17F
100
AcDbEntity
8
2
62
256
6
ByLayer
370
-1
48
1
60
0
100
AcDbLine
10
39.667997
20
4.825002
30
0
11
38.832003
21
4.824998
31
0
39
0
210
0
220
0
230
1
0
ENDBLK
5
181
100
AcDbEntity
8
0
100
AcDbBlockEnd
0
BLOCK
5
18E
100
AcDbEntity
8
0
100
AcDbBlockBegin
2
DimnDraft3D3
70
0
10
0
20
0
30
0
3
DimnDraft3D3
0
MTEXT
5
184
100
AcDbEntity
8
2
62
256
6
ByLayer
370
-1
48
1
60
0
100
AcDbMText
10
81.125
20
22.28
30
0
210
0
220
0
230
1
1
\W01.000;\fsimplex.shx,bigfont.shx;11.0 
40
4.5
41
0
44
1.084337
50
90
71
7
72
5
7
DEFAULT
0
LINE
5
185
100
AcDbEntity
8
2
62
256
6
ByLayer
370
-1
48
1
60
0
100
AcDbLine
10
72
20
10.9
30
0
11
84.25
21
10.9
31
0
39
0
210
0
220
0
230
1
0
LINE
5
186
100
AcDbEntity
8
2
62
256
6
ByLayer
370
-1
48
1
60
0
100
AcDbLine
10
72
20
0
30
0
11
84.25
21
0
31
0
39
0
210
0
220
0
230
1
0
LINE
5
187
100
AcDbEntity
8
2
62
256
6
ByLayer
370
-1
48
1
60
0
100
AcDbLine
10
82.25
20
0
30
0
11
82.25
21
29.231316
31
0
39
0
210
0
220
0
230
1
0
LINE
5
188
100
AcDbEntity
8
2
62
256
6
ByLayer
370
-1
48
1
60
0
100
AcDbLine
10
82.25
20
10.9
30
0
11
82.667997
21
7.725002
31
0
39
0
210
0
220
0
230
1
0
LINE
5
189
100
AcDbEntity
8
2
62
256
6
ByLayer
370
-1
48
1
60
0
100
AcDbLine
10
82.25
20
10.9
30
0
11
81.832003
21
7.724998
31
0
39
0
210
0
220
0
230
1
0
LINE
5
18A
100
AcDbEntity
8
2
62
256
6
ByLayer
370
-1
48
1
60
0
100
AcDbLine
10
82.667997
20
7.725002
30
0
11
81.832003
21
7.724998
31
0
39
0
210
0
220
0
230
1
0
LINE
5
18B
100
AcDbEntity
8
2
62
256
6
ByLayer
370
-1
48
1
60
0
100
AcDbLine
10
82.25
20
0
30
0
11
81.832003
21
3.174998
31
0
39
0
210
0
220
0
230
1
0
LINE
5
18C
100
AcDbEntity
8
2
62
256
6
ByLayer
370
-1
48
1
60
0
100
AcDbLine
10
82.25
20
0
30
0
11
82.667997
21
3.175002
31
0
39
0
210
0
220
0
230
1
0
LINE
5
18D
100
AcDbEntity
8
2
62
256
6
ByLayer
370
-1
48
1
60
0
100
AcDbLine
10
81.832003
20
3.174998
30
0
11
82.667997
21
3.175002
31
0
39
0
210
0
220
0
230
1
0
ENDBLK
5
18F
100
AcDbEntity
8
0
100
AcDbBlockEnd
0
BLOCK
5
19C
100
AcDbEntity
8
0
100
AcDbBlockBegin
2
DimnDraft3D4
70
0
10
0
20
0
30
0
3
DimnDraft3D4
0
MTEXT
5
192
100
AcDbEntity
8
2
62
256
6
ByLayer
370
-1
48
1
60
0
100
AcDbMText
10
30.961842
20
38.875
30
0
210
0
220
0
230
1
1
\W01.000;\fsimplex.shx,bigfont.shx;70.0 
40
4.5
41
0
44
1.084337
50
0
71
7
72
5
7
DEFAULT
0
LINE
5
193
100
AcDbEntity
8
2
62
256
6
ByLayer
370
-1
48
1
60
0
100
AcDbLine
10
0
20
27
30
0
11
0
21
39.75
31
0
39
0
210
0
220
0
230
1
0
LINE
5
194
100
AcDbEntity
8
2
62
256
6
ByLayer
370
-1
48
1
60
0
100
AcDbLine
10
70
20
12.9
30
0
11
70
21
39.75
31
0
39
0
210
0
220
0
230
1
0
LINE
5
195
100
AcDbEntity
8
2
62
256
6
ByLayer
370
-1
48
1
60
0
100
AcDbLine
10
0
20
37.75
30
0
11
70
21
37.75
31
0
39
0
210
0
220
0
230
1
0
LINE
5
196
100
AcDbEntity
8
2
62
256
6
ByLayer
370
-1
48
1
60
0
100
AcDbLine
10
0
20
37.75
30
0
11
3.174998
21
38.167997
31
0
39
0
210
0
220
0
230
1
0
LINE
5
197
100
AcDbEntity
8
2
62
256
6
ByLayer
370
-1
48
1
60
0
100
AcDbLine
10
0
20
37.75
30
0
11
3.175002
21
37.332003
31
0
39
0
210
0
220
0
230
1
0
LINE
5
198
100
AcDbEntity
8
2
62
256
6
ByLayer
370
-1
48
1
60
0
100
AcDbLine
10
3.174998
20
38.167997
30
0
11
3.175002
21
37.332003
31
0
39
0
210
0
220
0
230
1
0
LINE
5
199
100
AcDbEntity
8
2
62
256
6
ByLayer
370
-1
48
1
60
0
100
AcDbLine
10
70
20
37.75
30
0
11
66.825002
21
37.332003
31
0
39
0
210
0
220
0
230
1
0
LINE
5
19A
100
AcDbEntity
8
2
62
256
6
ByLayer
370
-1
48
1
60
0
100
AcDbLine
10
70
20
37.75
30
0
11
66.824998
21
38.167997
31
0
39
0
210
0
220
0
230
1
0
LINE
5
19B
100
AcDbEntity
8
2
62
256
6
ByLayer
370
-1
48
1
60
0
100
AcDbLine
10
66.825002
20
37.332003
30
0
11
66.824998
21
38.167997
31
0
39
0
210
0
220
0
230
1
0
ENDBLK
5
19D
100
AcDbEntity
8
0
100
AcDbBlockEnd
0
BLOCK
5
1AA
100
AcDbEntity
8
0
100
AcDbBlockBegin
2
DimnDraft3D5
70
0
10
0
20
0
30
0
3
DimnDraft3D5
0
MTEXT
5
1A0
100
AcDbEntity
8
2
62
256
6
ByLayer
370
-1
48
1
60
0
100
AcDbMText
10
42.725
20
24.775
30
0
210
0
220
0
230
1
1
\W01.000;\fsimplex.shx,bigfont.shx;46.0 
40
4.5
41
0
44
1.084337
50
0
71
7
72
5
7
DEFAULT
0
LINE
5
1A1
100
AcDbEntity
8
2
62
256
6
ByLayer
370
-1
48
1
60
0
100
AcDbLine
10
24
20
10
30
0
11
24
21
25.65
31
0
39
0
210
0
220
0
230
1
0
LINE
5
1A2
100
AcDbEntity
8
2
62
256
6
ByLayer
370
-1
48
1
60
0
100
AcDbLine
10
70
20
12.9
30
0
11
70
21
25.65
31
0
39
0
210
0
220
0
230
1
0
LINE
5
1A3
100
AcDbEntity
8
2
62
256
6
ByLayer
370
-1
48
1
60
0
100
AcDbLine
10
24
20
23.65
30
0
11
70
21
23.65
31
0
39
0
210
0
220
0
230
1
0
LINE
5
1A4
100
AcDbEntity
8
2
62
256
6
ByLayer
370
-1
48
1
60
0
100
AcDbLine
10
24
20
23.65
30
0
11
27.174998
21
24.067997
31
0
39
0
210
0
220
0
230
1
0
LINE
5
1A5
100
AcDbEntity
8
2
62
256
6
ByLayer
370
-1
48
1
60
0
100
AcDbLine
10
24
20
23.65
30
0
11
27.175002
21
23.232003
31
0
39
0
210
0
220
0
230
1
0
LINE
5
1A6
100
AcDbEntity
8
2
62
256
6
ByLayer
370
-1
48
1
60
0
100
AcDbLine
10
27.174998
20
24.067997
30
0
11
27.175002
21
23.232003
31
0
39
0
210
0
220
0
230
1
0
LINE
5
1A7
100
AcDbEntity
8
2
62
256
6
ByLayer
370
-1
48
1
60
0
100
AcDbLine
10
70
20
23.65
30
0
11
66.825002
21
23.232003
31
0
39
0
210
0
220
0
230
1
0
LINE
5
1A8
100
AcDbEntity
8
2
62
256
6
ByLayer
370
-1
48
1
60
0
100
AcDbLine
10
70
20
23.65
30
0
11
66.824998
21
24.067997
31
0
39
0
210
0
220
0
230
1
0
LINE
5
1A9
100
AcDbEntity
8
2
62
256
6
ByLayer
370
-1
48
1
60
0
100
AcDbLine
10
66.825002
20
23.232003
30
0
11
66.824998
21
24.067997
31
0
39
0
210
0
220
0
230
1
0
ENDBLK
5
1AB
100
AcDbEntity
8
0
100
AcDbBlockEnd
0
BLOCK
5
1B8
100
AcDbEntity
8
0
100
AcDbBlockBegin
2
DimnDraft3D6
70
0
10
0
20
0
30
0
3
DimnDraft3D6
0
MTEXT
5
1AE
100
AcDbEntity
8
2
62
256
6
ByLayer
370
-1
48
1
60
0
100
AcDbMText
10
96.12156
20
-37.312521
30
0
210
0
220
0
230
1
1
\W01.000;\fsimplex.shx,bigfont.shx;95%%d0' 
40
4.5
41
0
44
1.084337
50
42.4999999999999
71
7
72
5
7
DEFAULT
0
LINE
5
1AF
100
AcDbEntity
8
2
62
256
6
ByLayer
370
-1
48
1
60
0
100
AcDbLine
10
69.041287
20
-0.058142
30
0
11
64.782156
21
-48.740227
31
0
39
0
210
0
220
0
230
1
0
LINE
5
1B0
100
AcDbEntity
8
2
62
256
6
ByLayer
370
-1
48
1
60
0
100
AcDbLine
10
72
20
0
30
0
11
117.97278
21
0
31
0
39
0
210
0
220
0
230
1
0
ARC
5
1B1
100
AcDbEntity
8
2
62
256
6
ByLayer
370
-1
48
1
60
0
100
AcDbCircle
39
0
10
69.046374
20
0
30
0
40
46.9264068782929
210
0
220
0
230
1
100
AcDbArc
50
265
51
0
0
LINE
5
1B2
100
AcDbEntity
8
2
62
256
6
ByLayer
370
-1
48
1
60
0
100
AcDbLine
10
64.956468
20
-46.747838
30
0
11
68.152996
21
-46.554078
31
0
39
0
210
0
220
0
230
1
0
LINE
5
1B3
100
AcDbEntity
8
2
62
256
6
ByLayer
370
-1
48
1
60
0
100
AcDbLine
10
64.956468
20
-46.747838
30
0
11
68.094229
21
-47.388003
31
0
39
0
210
0
220
0
230
1
0
LINE
5
1B4
100
AcDbEntity
8
2
62
256
6
ByLayer
370
-1
48
1
60
0
100
AcDbLine
10
68.152996
20
-46.554078
30
0
11
68.094229
21
-47.388003
31
0
39
0
210
0
220
0
230
1
0
LINE
5
1B5
100
AcDbEntity
8
2
62
256
6
ByLayer
370
-1
48
1
60
0
100
AcDbLine
10
115.97278
20
0
30
0
11
116.337036
21
-3.181612
31
0
39
0
210
0
220
0
230
1
0
LINE
5
1B6
100
AcDbEntity
8
2
62
256
6
ByLayer
370
-1
48
1
60
0
100
AcDbLine
10
115.97278
20
0
30
0
11
115.501162
21
-3.16748
31
0
39
0
210
0
220
0
230
1
0
LINE
5
1B7
100
AcDbEntity
8
2
62
256
6
ByLayer
370
-1
48
1
60
0
100
AcDbLine
10
116.337036
20
-3.181612
30
0
11
115.501162
21
-3.16748
31
0
39
0
210
0
220
0
230
1
0
ENDBLK
5
1B9
100
AcDbEntity
8
0
100
AcDbBlockEnd
0
ENDSEC
0
SECTION
2
ENTITIES
0
ARC
5
AB
100
AcDbEntity
8
1
62
256
6
ByLayer
370
-1
48
1
60
0
100
AcDbCircle
39
0
10
-28.618414
20
-14
30
0
40
6
210
0
220
0
230
-1
100
AcDbArc
50
14.82648
51
90
0
ARC
5
AC
100
AcDbEntity
8
1
62
256
6
ByLayer
370
-1
48
1
60
0
100
AcDbCircle
39
0
10
-28.618414
20
14
30
0
40
6
210
0
220
0
230
-1
100
AcDbArc
50
270
51
345.17352
0
ARC
5
AD
100
AcDbEntity
8
SK1
62
256
6
ByLayer
370
-1
48
1
60
0
100
AcDbCircle
39
0
10
0.6
20
18.75
30
0
40
1
210
0
220
0
230
-1
100
AcDbArc
50
233.130102
51
246.421822
0
ARC
5
AE
100
AcDbEntity
8
SK1
62
256
6
ByLayer
370
-1
48
1
60
0
100
AcDbCircle
39
0
10
0.6
20
-18.75
30
0
40
1
210
0
220
0
230
-1
100
AcDbArc
50
113.578178
51
126.869898
0
ELLIPSE
5
AF
100
AcDbEntity
8
1
62
256
6
ByLayer
370
-1
48
1
60
0
100
AcDbEllipse
10
39.816242
20
8.382956
30
0
11
0.911916664547887
21
1.3146893157396
31
0
210
0
220
0
230
1
40
0.06492
41
-2.60094066697774
42
-1.68391424839625
0
ELLIPSE
5
B0
100
AcDbEntity
8
1
62
256
6
ByLayer
370
-1
48
1
60
0
100
AcDbEllipse
10
59.152969
20
0.067793
30
0
11
-1.30677731848777
21
-0.923218847232833
31
0
210
0
220
0
230
1
40
0.099592
41
0.581049371313024
42
1.48671204567215
0
ELLIPSE
5
B1
100
AcDbEntity
8
1
62
256
6
ByLayer
370
-1
48
1
60
0
100
AcDbEllipse
10
60.20643
20
0.718786
30
0
11
1.49429204713762
21
-0.130733614121488
31
0
210
0
220
0
230
1
40
0.991513
41
1.97097640817189
42
2.56419691126069
0
ELLIPSE
5
B2
100
AcDbEntity
8
1
62
256
6
ByLayer
370
-1
48
1
60
0
100
AcDbEllipse
10
59.255792
20
-3.421334
30
0
11
-1.35786384003045
21
0.846289425632724
31
0
210
0
220
0
230
1
40
0.116108
41
0.0589215991915491
42
1.62971792598644
0
ELLIPSE
5
B3
100
AcDbEntity
8
1
62
256
6
ByLayer
370
-1
48
1
60
0
100
AcDbEllipse
10
77.815654
20
0
30
0
11
31.2432620058035
21
-2.81260641155524
31
0
210
0
220
0
230
-1
40
0.317915
41
2.45491634294324
42
2.62554446263596
0
ELLIPSE
5
B4
100
AcDbEntity
8
1
62
256
6
ByLayer
370
-1
48
1
60
0
100
AcDbEllipse
10
21.056258
20
0
30
0
11
11.7092723497262
21
-24.6771864409363
31
0
210
0
220
0
230
-1
40
0.341999
41
2.05975995310048
42
2.97437958168081
0
ELLIPSE
5
B5
100
AcDbEntity
8
1
62
256
6
ByLayer
370
-1
48
1
60
0
100
AcDbEllipse
10
48.551012
20
0
30
0
11
11.4507403070565
21
-7.96558258696906
31
0
210
0
220
0
230
-1
40
0.064736
41
-2.80031854002408
42
-2.6142069573644
0
ELLIPSE
5
B6
100
AcDbEntity
8
1
62
256
6
ByLayer
370
-1
48
1
60
0
100
AcDbEllipse
10
-1.056258
20
0
30
0
11
11.709272349728
21
-24.6771864409383
31
0
210
0
220
0
230
-1
40
0.341999
41
-1.08183270048925
42
-0.167213071908975
0
ELLIPSE
5
B7
100
AcDbEntity
8
1
62
256
6
ByLayer
370
-1
48
1
60
0
100
AcDbEllipse
10
60.533059
20
2.142515
30
0
11
-1.49429204713762
21
0.130733614121485
31
0
210
0
220
0
230
1
40
0.991513
41
-0.00436332312998845
42
0.236828448521988
0
ELLIPSE
5
B8
100
AcDbEntity
8
1
62
256
6
ByLayer
370
-1
48
1
60
0
100
AcDbEllipse
10
-1.056258
20
0
30
0
11
11.7092723497275
21
24.6771864409378
31
0
210
0
220
0
230
-1
40
0.341999
41
0.167213071908977
42
1.08183270048927
0
ELLIPSE
5
B9
100
AcDbEntity
8
1
62
256
6
ByLayer
370
-1
48
1
60
0
100
AcDbEllipse
10
52.700749
20
6.840763
30
0
11
-2.93905524917371E-16
21
-1.6
31
0
210
0
220
0
230
1
40
0.011427
41
-1.44091797026677
42
-0.799125088904418
0
ELLIPSE
5
BA
100
AcDbEntity
8
1
62
256
6
ByLayer
370
-1
48
1
60
0
100
AcDbEllipse
10
60.246655
20
1.178559
30
0
11
1.49429204713762
21
-0.130733614121488
31
0
210
0
220
0
230
1
40
0.991513
41
2.70463844860425
42
-0.187939431112649
0
ELLIPSE
5
BB
100
AcDbEntity
8
1
62
256
6
ByLayer
370
-1
48
1
60
0
100
AcDbEllipse
10
21.056258
20
0
30
0
11
11.7092723497262
21
24.6771864409362
31
0
210
0
220
0
230
-1
40
0.341999
41
-2.97437958168081
42
-2.05975995310048
0
ELLIPSE
5
BC
100
AcDbEntity
8
1
62
256
6
ByLayer
370
-1
48
1
60
0
100
AcDbEllipse
10
25.302108
20
9.905506
30
0
11
30.8702891362003
21
-2.77903034442303
31
0
210
0
220
0
230
-1
40
0.317915
41
0.296021450479519
42
0.536024835566775
0
ELLIPSE
5
BD
100
AcDbEntity
8
1
62
256
6
ByLayer
370
-1
48
1
60
0
100
AcDbEllipse
10
57.338776
20
19.182696
30
0
11
10.1611859205413
21
-0.888988576026605
31
0
210
0
220
0
230
1
40
0.991513
41
-1.48426679518759
42
-1.39626340159545
0
ELLIPSE
5
BE
100
AcDbEntity
8
1
62
256
6
ByLayer
370
-1
48
1
60
0
100
AcDbEllipse
10
55.32525
20
5.485768
30
0
11
-1.30677731848777
21
-0.923218847232833
31
0
210
0
220
0
230
1
40
0.099592
41
0.69768151006936
42
1.48671204567216
0
ELLIPSE
5
BF
100
AcDbEntity
8
1
62
256
6
ByLayer
370
-1
48
1
60
0
100
AcDbEllipse
10
65.619103
20
-1.532417
30
0
11
16.8348478657833
21
-1.51552040408539
31
0
210
0
220
0
230
-1
40
0.317915
41
2.15549114481874
42
2.38142407500996
0
ELLIPSE
5
C0
100
AcDbEntity
8
1
62
256
6
ByLayer
370
-1
48
1
60
0
100
AcDbEllipse
10
56.533204
20
-1.750261
30
0
11
1.59391151694679
21
-0.139449188396253
31
0
210
0
220
0
230
1
40
0.991513
41
-0.466640611139687
42
1.43208710007631E-05
0
ELLIPSE
5
C1
100
AcDbEntity
8
1
62
256
6
ByLayer
370
-1
48
1
60
0
100
AcDbEllipse
10
44.720121
20
15.161109
30
0
11
8.56727440358901
21
-0.749539387629862
31
0
210
0
220
0
230
1
40
0.991513
41
-2.09365195970504
42
-1.48278672150702
0
ELLIPSE
5
C2
100
AcDbEntity
8
1
62
256
6
ByLayer
370
-1
48
1
60
0
100
AcDbEllipse
10
56.584954
20
-1.158761
30
0
11
1.34919442108258
21
-0.891837360929973
31
0
210
0
220
0
230
-1
40
0.951979
41
-1.17460453664279
42
-0.00983222470589923
0
ELLIPSE
5
C3
100
AcDbEntity
8
1
62
256
6
ByLayer
370
-1
48
1
60
0
100
AcDbEllipse
10
52.687355
20
3.460493
30
0
11
-3.18782303389359
21
0.278898376792502
31
0
210
0
220
0
230
1
40
0.991513
41
-2.44346095279206
42
-1.48278672150702
0
ELLIPSE
5
C4
100
AcDbEntity
8
1
62
256
6
ByLayer
370
-1
48
1
60
0
100
AcDbEllipse
10
60.570529
20
2.558569
30
0
11
1.64355828396664
21
-0.143792717691203
31
0
210
0
220
0
230
1
40
0.991513
41
2.06789001896219
42
3.13722933045981
0
ELLIPSE
5
C5
100
AcDbEntity
8
1
62
256
6
ByLayer
370
-1
48
1
60
0
100
AcDbEllipse
10
60.530304
20
2.098796
30
0
11
-1.49429204713762
21
0.130733614121485
31
0
210
0
220
0
230
1
40
0.991513
41
-1.0186605362107
42
-0.00436332312998577
0
ELLIPSE
5
C6
100
AcDbEntity
8
1
62
256
6
ByLayer
370
-1
48
1
60
0
100
AcDbEllipse
10
56.515075
20
-1.957482
30
0
11
-3.18782303389359
21
0.278898376792502
31
0
210
0
220
0
230
1
40
0.991513
41
2.6749520424501
42
-2.44346095279206
0
ELLIPSE
5
C7
100
AcDbEntity
8
1
62
256
6
ByLayer
370
-1
48
1
60
0
100
AcDbEllipse
10
65.619103
20
-1.532417
30
0
11
16.8348478662211
21
-1.51552040401724
31
0
210
0
220
0
230
-1
40
0.317915
41
2.69903673048415
42
-2.60556781802224
0
ELLIPSE
5
C8
100
AcDbEntity
8
1
62
256
6
ByLayer
370
-1
48
1
60
0
100
AcDbEllipse
10
60.555232
20
2.383725
30
0
11
-1.49429204713762
21
0.130733614121485
31
0
210
0
220
0
230
1
40
0.991513
41
-1.0186605362107
42
-0.00436332312998666
0
ELLIPSE
5
C9
100
AcDbEntity
8
1
62
256
6
ByLayer
370
-1
48
1
60
0
100
AcDbEllipse
10
77.815151
20
9.5E-05
30
0
11
24.5141380579177
21
-2.20677919867888
31
0
210
0
220
0
230
-1
40
0.317918
41
-2.84556750625222
42
-2.84190988396608
0
ELLIPSE
5
CA
100
AcDbEntity
8
1
62
256
6
ByLayer
370
-1
48
1
60
0
100
AcDbEllipse
10
60.548356
20
2.317359
30
0
11
1.64355828396664
21
-0.143792717691203
31
0
210
0
220
0
230
1
40
0.991513
41
3.13722933045981
42
-2.81075575176748
0
ELLIPSE
5
CB
100
AcDbEntity
8
1
62
256
6
ByLayer
370
-1
48
1
60
0
100
AcDbEllipse
10
44.750979
20
6.840763
30
0
11
-2.93905524917371E-16
21
-1.6
31
0
210
0
220
0
230
1
40
0.011427
41
-1.44091797026677
42
-0.775317844377223
0
ELLIPSE
5
CC
100
AcDbEntity
8
1
62
256
6
ByLayer
370
-1
48
1
60
0
100
AcDbEllipse
10
56.967077
20
0
30
0
11
5.65440396450271
21
-8.0906694914655
31
0
210
0
220
0
230
-1
40
0.068738
41
-2.20552681302761
42
-2.09841511673131
0
ELLIPSE
5
CD
100
AcDbEntity
8
1
62
256
6
ByLayer
370
-1
48
1
60
0
100
AcDbEllipse
10
60.199065
20
0.634602
30
0
11
-1.49429204713762
21
0.130733614121485
31
0
210
0
220
0
230
1
40
0.991513
41
-1.17063308967959
42
-0.184566021392693
0
ELLIPSE
5
CE
100
AcDbEntity
8
1
62
256
6
ByLayer
370
-1
48
1
60
0
100
AcDbEllipse
10
58.441248
20
-1.532417
30
0
11
3.42428083615201
21
5.55985894914195
31
0
210
0
220
0
230
-1
40
0.049887
41
-2.40253425724697
42
-2.31167068650395
0
ELLIPSE
5
CF
100
AcDbEntity
8
1
62
256
6
ByLayer
370
-1
48
1
60
0
100
AcDbEllipse
10
64.831603
20
5.646209
30
0
11
-2.93926815525671
21
0.257152642647714
31
0
210
0
220
0
230
1
40
0.991513
41
0.0880096549699972
42
0.998391678457737
0
ELLIPSE
5
D0
100
AcDbEntity
8
1
62
256
6
ByLayer
370
-1
48
1
60
0
100
AcDbEllipse
10
64.831603
20
5.646209
30
0
11
-2.93926815525671
21
0.257152642647714
31
0
210
0
220
0
230
1
40
0.991513
41
2.14320774640983
42
-3.03603532699771E-16
0
ELLIPSE
5
D1
100
AcDbEntity
8
1
62
256
6
ByLayer
370
-1
48
1
60
0
100
AcDbEllipse
10
64.831603
20
5.646209
30
0
11
-2.93926815525671
21
0.257152642647714
31
0
210
0
220
0
230
1
40
0.991513
41
0
42
0.0880096711424762
0
ELLIPSE
5
D2
100
AcDbEntity
8
1
62
256
6
ByLayer
370
-1
48
1
60
0
100
AcDbEllipse
10
64.833348
20
5.666155
30
0
11
2.99461313765103
21
-0.261994701190263
31
0
210
0
220
0
230
1
40
0.991513
41
-0.545308366967085
42
-2.97992479986196E-16
0
ELLIPSE
5
D3
100
AcDbEntity
8
1
62
256
6
ByLayer
370
-1
48
1
60
0
100
AcDbEllipse
10
64.833348
20
5.666155
30
0
11
2.99461313765103
21
-0.261994701190263
31
0
210
0
220
0
230
1
40
0.991513
41
0
42
0.08800963439171
0
ELLIPSE
5
D4
100
AcDbEntity
8
1
62
256
6
ByLayer
370
-1
48
1
60
0
100
AcDbEllipse
10
64.833348
20
5.666155
30
0
11
2.99461313765103
21
-0.261994701190263
31
0
210
0
220
0
230
1
40
0.991513
41
0.0880097462973923
42
-2.5962773686973
0
ELLIPSE
5
D5
100
AcDbEntity
8
1
62
256
6
ByLayer
370
-1
48
1
60
0
100
AcDbEllipse
10
60.43684
20
0.947268
30
0
11
0.305378795826241
21
-0.0267171827159939
31
0
210
0
220
0
230
1
40
0.991513
41
-1.92932447322006
42
-1.39626340159549
0
ELLIPSE
5
D6
100
AcDbEntity
8
1
62
256
6
ByLayer
370
-1
48
1
60
0
100
AcDbEllipse
10
69.206026
20
10.112663
30
0
11
0.790978590284859
21
-0.0692016597416418
31
0
210
0
220
0
230
1
40
0.991513
41
0
42
1.74532925199432
0
ELLIPSE
5
D7
100
AcDbEntity
8
1
62
256
6
ByLayer
370
-1
48
1
60
0
100
AcDbEllipse
10
68.509561
20
2.152031
30
0
11
0.790978590284848
21
-0.0692016597416409
31
0
210
0
220
0
230
1
40
0.991513
41
-1.39626340159549
42
-4.11788454648032E-14
0
ELLIPSE
5
D8
100
AcDbEntity
8
1
62
256
6
ByLayer
370
-1
48
1
60
0
100
AcDbEllipse
10
60.481824
20
1.461437
30
0
11
0.790978590284848
21
-0.0692016597416409
31
0
210
0
220
0
230
1
40
0.991513
41
3.14159265358978
42
-1.39626340159547
0
ELLIPSE
5
D9
100
AcDbEntity
8
1
62
256
6
ByLayer
370
-1
48
1
60
0
100
AcDbEllipse
10
61.178289
20
9.422069
30
0
11
0.790978590284854
21
-0.0692016597416414
31
0
210
0
220
0
230
1
40
0.991513
41
1.74532925199432
42
3.14159265358978
0
ELLIPSE
5
DA
100
AcDbEntity
8
1
62
256
6
ByLayer
370
-1
48
1
60
0
100
AcDbEllipse
10
64.843925
20
5.78705
30
0
11
3.05963802797409
21
-0.267683641940547
31
0
210
0
220
0
230
1
40
0.991513
41
0
42
6.28318530717959
0
ELLIPSE
5
DB
100
AcDbEntity
8
1
62
256
6
ByLayer
370
-1
48
1
60
0
100
AcDbEllipse
10
62.999081
20
5.094492
30
0
11
-0.683389562890938
21
0.0597888395248927
31
0
210
0
220
0
230
1
40
0.991513
41
2.70806313420854
42
3.14158522342683
0
ELLIPSE
5
DC
100
AcDbEntity
8
1
62
256
6
ByLayer
370
-1
48
1
60
0
100
AcDbEllipse
10
63.487436
20
5.933965
30
0
11
-0.29088885184279
21
0.0254494768823158
31
0
210
0
220
0
230
1
40
0.991513
41
-1.48939303571907
42
-0.329736143557014
0
ELLIPSE
5
DD
100
AcDbEntity
8
1
62
256
6
ByLayer
370
-1
48
1
60
0
100
AcDbEllipse
10
63.492449
20
6.903707
30
0
11
-0.683389562890938
21
0.0597888395248927
31
0
210
0
220
0
230
1
40
0.991513
41
1.65219961787082
42
2.32184691157507
0
ELLIPSE
5
DE
100
AcDbEntity
8
1
62
256
6
ByLayer
370
-1
48
1
60
0
100
AcDbEllipse
10
64.470365
20
6.908672
30
0
11
-0.29088885184279
21
0.0254494768823158
31
0
210
0
220
0
230
1
40
0.991513
41
-2.53071516945584
42
-0.383181636481283
0
ELLIPSE
5
DF
100
AcDbEntity
8
1
62
256
6
ByLayer
370
-1
48
1
60
0
100
AcDbEllipse
10
65.316917
20
7.39294
30
0
11
-0.683389562890938
21
0.0597888395248927
31
0
210
0
220
0
230
1
40
0.991513
41
0.610877484133994
42
1.3948681277548
0
ELLIPSE
5
E0
100
AcDbEntity
8
1
62
256
6
ByLayer
370
-1
48
1
60
0
100
AcDbEllipse
10
65.804135
20
6.551386
30
0
11
-0.29088885184279
21
0.0254494768823158
31
0
210
0
220
0
230
1
40
0.991513
41
-2.84193766871501
42
-0.962733882214248
0
ELLIPSE
5
E1
100
AcDbEntity
8
1
62
256
6
ByLayer
370
-1
48
1
60
0
100
AcDbEllipse
10
66.652779
20
6.068236
30
0
11
-0.683389562890938
21
0.0597888395248927
31
0
210
0
220
0
230
1
40
0.991513
41
-7.7481861514944E-06
42
0.350461124239521
0
ELLIPSE
5
E2
100
AcDbEntity
8
1
62
256
6
ByLayer
370
-1
48
1
60
0
100
AcDbEllipse
10
66.164424
20
5.228763
30
0
11
-0.29088885184279
21
0.0254494768823158
31
0
210
0
220
0
230
1
40
0.991513
41
-2.64420238563762
42
-2.00714088572948
0
ELLIPSE
5
E3
100
AcDbEntity
8
1
62
256
6
ByLayer
370
-1
48
1
60
0
100
AcDbEllipse
10
64.82593
20
5.581364
30
0
11
-1.20190890324769
21
0.105153403625048
31
0
210
0
220
0
230
1
40
0.991513
41
-0.629099067385781
42
0.12369264983953
0
ELLIPSE
5
E4
100
AcDbEntity
8
1
62
256
6
ByLayer
370
-1
48
1
60
0
100
AcDbEllipse
10
64.839002
20
5.730777
30
0
11
1.20190890324769
21
-0.105153403625051
31
0
210
0
220
0
230
1
40
0.991513
41
2.3744283193801
42
2.512493586204
0
ELLIPSE
5
E5
100
AcDbEntity
8
1
62
256
6
ByLayer
370
-1
48
1
60
0
100
AcDbEllipse
10
64.842076
20
5.765921
30
0
11
1.67012041135081
21
-0.146116602716449
31
0
210
0
220
0
230
1
40
0.991513
41
2.9698502760717
42
-2.26892802759263
0
ELLIPSE
5
E6
100
AcDbEntity
8
1
62
256
6
ByLayer
370
-1
48
1
60
0
100
AcDbEllipse
10
64.842076
20
5.765921
30
0
11
1.67012041135081
21
-0.146116602716449
31
0
210
0
220
0
230
1
40
0.991513
41
-2.26892802759263
42
-1.22452102407738
0
ELLIPSE
5
E7
100
AcDbEntity
8
1
62
256
6
ByLayer
370
-1
48
1
60
0
100
AcDbEllipse
10
64.82593
20
5.581364
30
0
11
-1.20190890324769
21
0.105153403625048
31
0
210
0
220
0
230
1
40
0.991513
41
0.440247746036017
42
1.09154935836443
0
ELLIPSE
5
E8
100
AcDbEntity
8
1
62
256
6
ByLayer
370
-1
48
1
60
0
100
AcDbEllipse
10
64.839002
20
5.730777
30
0
11
1.20190890324769
21
-0.105153403625051
31
0
210
0
220
0
230
1
40
0.991513
41
-0.767164334209631
42
-0.629099067385858
0
ELLIPSE
5
E9
100
AcDbEntity
8
1
62
256
6
ByLayer
370
-1
48
1
60
0
100
AcDbEllipse
10
64.82593
20
5.581364
30
0
11
1.20190890324769
21
-0.105153403625051
31
0
210
0
220
0
230
1
40
0.991513
41
0.350461124239525
42
1.3948681277548
0
ELLIPSE
5
EA
100
AcDbEntity
8
1
62
256
6
ByLayer
370
-1
48
1
60
0
100
AcDbEllipse
10
64.82593
20
5.581364
30
0
11
-1.20190890324769
21
0.105153403625048
31
0
210
0
220
0
230
1
40
0.991513
41
-1.74672452583499
42
-0.767164334209685
0
ELLIPSE
5
EB
100
AcDbEntity
8
1
62
256
6
ByLayer
370
-1
48
1
60
0
100
AcDbEllipse
10
64.842076
20
5.765921
30
0
11
1.67012041135081
21
-0.146116602716449
31
0
210
0
220
0
230
1
40
0.991513
41
-1.22452102407738
42
-0.171742377518121
0
ELLIPSE
5
EC
100
AcDbEntity
8
1
62
256
6
ByLayer
370
-1
48
1
60
0
100
AcDbEllipse
10
65.316917
20
7.39294
30
0
11
-0.683389562890938
21
0.0597888395248927
31
0
210
0
220
0
230
1
40
0.991513
41
1.3948681277548
42
2.17885877137562
0
ELLIPSE
5
ED
100
AcDbEntity
8
1
62
256
6
ByLayer
370
-1
48
1
60
0
100
AcDbEllipse
10
64.842076
20
5.765921
30
0
11
1.67012041135081
21
-0.146116602716449
31
0
210
0
220
0
230
1
40
0.991513
41
1.91707162951241
42
2.9698502760717
0
ELLIPSE
5
EE
100
AcDbEntity
8
1
62
256
6
ByLayer
370
-1
48
1
60
0
100
AcDbEllipse
10
64.82593
20
5.581364
30
0
11
1.20190890324769
21
-0.105153403625051
31
0
210
0
220
0
230
1
40
0.991513
41
2.3744283193801
42
2.51249358620401
0
ELLIPSE
5
EF
100
AcDbEntity
8
1
62
256
6
ByLayer
370
-1
48
1
60
0
100
AcDbEllipse
10
64.842076
20
5.765921
30
0
11
1.67012041135081
21
-0.146116602716449
31
0
210
0
220
0
230
1
40
0.991513
41
0.872664625997163
42
1.91707162951241
0
ELLIPSE
5
F0
100
AcDbEntity
8
1
62
256
6
ByLayer
370
-1
48
1
60
0
100
AcDbEllipse
10
63.492449
20
6.903707
30
0
11
-0.683389562890938
21
0.0597888395248927
31
0
210
0
220
0
230
1
40
0.991513
41
2.56507499400906
42
3.14158870140479
0
ELLIPSE
5
F1
100
AcDbEntity
8
1
62
256
6
ByLayer
370
-1
48
1
60
0
100
AcDbEllipse
10
64.82593
20
5.581364
30
0
11
-1.20190890324769
21
0.105153403625048
31
0
210
0
220
0
230
1
40
0.991513
41
1.66045125580256
42
2.27688508310627
0
ELLIPSE
5
F2
100
AcDbEntity
8
1
62
256
6
ByLayer
370
-1
48
1
60
0
100
AcDbEllipse
10
64.842076
20
5.765921
30
0
11
1.67012041135081
21
-0.146116602716449
31
0
210
0
220
0
230
1
40
0.991513
41
-0.171742377518121
42
0.872664625997163
0
ELLIPSE
5
F3
100
AcDbEntity
8
1
62
256
6
ByLayer
370
-1
48
1
60
0
100
AcDbEllipse
10
64.82593
20
5.581364
30
0
11
-1.20190890324769
21
0.105153403625048
31
0
210
0
220
0
230
1
40
0.991513
41
2.72109434934484
42
-2.79113152935026
0
ELLIPSE
5
F4
100
AcDbEntity
8
1
62
256
6
ByLayer
370
-1
48
1
60
0
100
AcDbEllipse
10
66.652779
20
6.068236
30
0
11
-0.683389562890938
21
0.0597888395248927
31
0
210
0
220
0
230
1
40
0.991513
41
0.350461124239521
42
1.1344517678603
0
ELLIPSE
5
F5
100
AcDbEntity
8
1
62
256
6
ByLayer
370
-1
48
1
60
0
100
AcDbEllipse
10
64.838955
20
5.730248
30
0
11
2.61501108249084
21
-0.228783824712604
31
0
210
0
220
0
230
1
40
0.991513
41
0
42
6.28318530717959
0
ELLIPSE
5
F6
100
AcDbEntity
8
1
62
256
6
ByLayer
370
-1
48
1
60
0
100
AcDbEllipse
10
64.842076
20
5.765921
30
0
11
1.79315045656516
21
-0.156880336945788
31
0
210
0
220
0
230
1
40
0.991513
41
0
42
6.28318530717959
0
ELLIPSE
5
F7
100
AcDbEntity
8
1
62
256
6
ByLayer
370
-1
48
1
60
0
100
AcDbEllipse
10
64.826213
20
5.584602
30
0
11
2.61501108249084
21
-0.228783824712604
31
0
210
0
220
0
230
1
40
0.991513
41
3.14154687475532
42
-3.41249871353461E-16
0
POINT
5
41
100
AcDbEntity
8
80
62
256
6
ByLayer
370
-1
48
1
60
0
100
AcDbPoint
10
0
20
0
30
0
39
0
210
0
220
0
230
1
50
360
0
POINT
5
43
100
AcDbEntity
8
81
62
256
6
ByLayer
370
-1
48
1
60
0
100
AcDbPoint
10
70
20
10.9
30
0
39
0
210
0
220
0
230
1
50
360
0
POINT
5
45
100
AcDbEntity
8
1
62
256
6
ByLayer
370
-1
48
1
60
0
100
AcDbPoint
10
0
20
0
30
0
39
0
210
0
220
0
230
1
50
360
0
POINT
5
47
100
AcDbEntity
8
2
62
256
6
ByLayer
370
-1
48
1
60
0
100
AcDbPoint
10
70
20
10.9
30
0
39
0
210
0
220
0
230
1
50
360
0
SPLINE
5
F8
100
AcDbEntity
8
SK1
62
256
6
ByLayer
370
-1
48
1
60
0
100
AcDbSpline
70
4
71
2
72
6
73
3
40
0
40
0
40
0
40
1
40
1
40
1
41
1
10
-2.19492113517947
20
17.5202263833814
30
0
41
1
10
-2.59746056758974
20
17.510113191717
30
0
41
1
10
-3
20
17.5000000000527
30
0
0
SPLINE
5
F9
100
AcDbEntity
8
SK1
62
256
6
ByLayer
370
-1
48
1
60
0
100
AcDbSpline
70
4
71
2
72
6
73
3
40
0
40
0
40
0
40
1
40
1
40
1
41
1
10
-3
20
-17.5000000000204
30
0
41
1
10
-2.59746056758974
20
-17.5101131916847
30
0
41
1
10
-2.19492113517947
20
-17.5202263833491
30
0
0
SPLINE
5
FA
100
AcDbEntity
8
SK1
62
256
6
ByLayer
370
-1
48
1
60
0
100
AcDbSpline
70
4
71
2
72
6
73
3
40
0
40
0
40
0
40
1
40
1
40
1
41
1
10
-3
20
17.5000000000527
30
0
41
1
10
-15.7502365839533
20
17.1796696772131
30
0
41
1
10
-28.5004731679065
20
16.8593393543735
30
0
0
SPLINE
5
FB
100
AcDbEntity
8
SK1
62
256
6
ByLayer
370
-1
48
1
60
0
100
AcDbSpline
70
4
71
2
72
6
73
3
40
0
40
0
40
0
40
1
40
1
40
1
41
1
10
-28.5004731679065
20
-16.8593393543424
30
0
41
1
10
-15.7502365839533
20
-17.1796696771814
30
0
41
1
10
-3
20
-17.5000000000204
30
0
0
SPLINE
5
FC
100
AcDbEntity
8
SK1
62
256
6
ByLayer
370
-1
48
1
60
0
100
AcDbSpline
70
4
71
2
72
6
73
3
40
0
40
0
40
0
40
1
40
1
40
1
41
1
10
-0.400000000000034
20
17.3251501409626
30
0
41
1
10
-1.19999999999999
20
17.3251501409626
30
0
41
1
10
-2
20
17.3251501409626
30
0
0
SPLINE
5
FD
100
AcDbEntity
8
SK1
62
256
6
ByLayer
370
-1
48
1
60
0
100
AcDbSpline
70
4
71
2
72
6
73
3
40
0
40
0
40
0
40
1
40
1
40
1
41
1
10
-2
20
-17.3251501414068
30
0
41
1
10
-1.19999999999999
20
-17.3251501414068
30
0
41
1
10
-0.400000000000034
20
-17.3251501414068
30
0
0
SPLINE
5
FE
100
AcDbEntity
8
SK1
62
256
6
ByLayer
370
-1
48
1
60
0
100
AcDbSpline
70
4
71
2
72
6
73
3
40
0
40
0
40
0
40
1
40
1
40
1
41
1
10
-28.5003904504266
20
16.8597456617469
30
0
41
1
10
-29.2501952787077
20
16.4010253845871
30
0
41
1
10
-30
20
15.9423013487186
30
0
0
SPLINE
5
FF
100
AcDbEntity
8
SK1
62
256
6
ByLayer
370
-1
48
1
60
0
100
AcDbSpline
70
4
71
2
72
6
73
3
40
0
40
0
40
0
40
1
40
1
40
1
41
1
10
-30
20
-15.9408160639395
30
0
41
1
10
-29.250201613525
20
-16.3993636736336
30
0
41
1
10
-28.5004032853135
20
-16.8579102610954
30
0
0
SPLINE
5
100
100
AcDbEntity
8
SK1
62
256
6
ByLayer
370
-1
48
1
60
0
100
AcDbSpline
70
4
71
3
72
11
73
7
40
0
40
0
40
0
40
0
40
0.245755007744093
40
0.50179419821101
40
0.756953870258399
40
1
40
1
40
1
40
1
41
1
10
-0.199999999999989
20
17.5191731511753
30
0
41
1
10
-0.199994647676419
20
17.493844966999
30
0
41
1
10
-0.20935024226452
20
17.445622853432
30
0
41
1
10
-0.254178184246655
20
17.3766360753193
30
0
41
1
10
-0.324420736760771
20
17.33275982811
30
0
41
1
10
-0.373991067023667
20
17.3239685556464
30
0
41
1
10
-0.400000000000034
20
17.3241476526065
30
0
0
SPLINE
5
101
100
AcDbEntity
8
SK1
62
256
6
ByLayer
370
-1
48
1
60
0
100
AcDbSpline
70
4
71
3
72
11
73
7
40
0
40
0
40
0
40
0
40
0.243046950855206
40
0.49820466819262
40
0.754242469704742
40
1
40
1
40
1
40
1
41
1
10
-0.400000000000034
20
-17.3241468641747
30
0
41
1
10
-0.373991174653781
20
-17.323967489369
30
0
41
1
10
-0.324421202647557
20
-17.332758304075
30
0
41
1
10
-0.254178044541106
20
-17.3766339294131
30
0
41
1
10
-0.209350044376038
20
-17.4456203921356
30
0
41
1
10
-0.199994500672233
20
-17.4938412312525
30
0
41
1
10
-0.199999999999989
20
-17.5191688355708
30
0
0
SPLINE
5
102
100
AcDbEntity
8
1
62
256
6
ByLayer
370
-1
48
1
60
0
100
AcDbSpline
70
4
71
3
72
18
73
14
40
0
40
0
40
0
40
0
40
0.0809805960320918
40
0.0809805960320918
40
0.544227292214085
40
0.544227292214085
40
0.699318265621671
40
0.699318265621671
40
0.856346274356483
40
0.856346274356483
40
0.966571999538831
40
0.966571999538831
40
1
40
1
40
1
40
1
41
1
10
8.10566243270262
20
8.05584836782774
30
0
41
1
10
8.11065289887438
20
8.03731605051118
30
0
41
1
10
8.11597900857612
20
8.01885383673363
30
0
41
1
10
8.15400172089505
20
7.89611164850155
30
0
41
1
10
8.1977744361825
20
7.7921939727409
30
0
41
1
10
8.28487257800725
20
7.67169814060125
30
0
41
1
10
8.30967508046024
20
7.64266520230268
30
0
41
1
10
8.36604668219428
20
7.59122859579529
30
0
41
1
10
8.3983775068167
20
7.56839473241365
30
0
41
1
10
8.45889576423616
20
7.54154007085771
30
0
41
1
10
8.48604318765894
20
7.53384342094336
30
0
41
1
10
8.52183069664625
20
7.53010833377257
30
0
41
1
10
8.53025906116034
20
7.52966679426501
30
0
41
1
10
8.53867513459483
20
7.52966679426501
30
0
0
SPLINE
5
103
100
AcDbEntity
8
1
62
256
6
ByLayer
370
-1
48
1
60
0
100
AcDbSpline
70
4
71
3
72
10
73
6
40
0
40
0
40
0
40
0
40
0.540745733005244
40
0.540745733005244
40
1
40
1
40
1
40
1
41
1
10
40.0014143222359
20
-7.06249754307348
30
0
41
1
10
39.7410760719787
20
-7.1049585684124
30
0
41
1
10
39.5138374796981
20
-7.17354366329397
30
0
41
1
10
39.2326312493715
20
-7.36336669277708
30
0
41
1
10
39.1579674007211
20
-7.47806730131541
30
0
41
1
10
39.1579674007211
20
-7.61447822561647
30
0
0
SPLINE
5
104
100
AcDbEntity
8
1
62
256
6
ByLayer
370
-1
48
1
60
0
100
AcDbSpline
70
4
71
3
72
8
73
4
40
0
40
0
40
0
40
0
40
1
40
1
40
1
40
1
41
1
10
58.9476141686525
20
1.92399990168349
30
0
41
1
10
58.9784427047589
20
1.92742009116554
30
0
41
1
10
59.0128250574752
20
1.92669146065407
30
0
41
1
10
59.0500649323023
20
1.92198322720918
30
0
0
SPLINE
5
105
100
AcDbEntity
8
1
62
256
6
ByLayer
370
-1
48
1
60
0
100
AcDbSpline
70
4
71
3
72
8
73
4
40
0
40
0
40
0
40
0
40
1
40
1
40
1
40
1
41
1
10
39.1579674007211
20
-8.09899999999999
30
0
41
1
10
39.1570912715928
20
-8.09899999999999
30
0
41
1
10
39.1566488929157
20
-8.09899999999999
30
0
41
1
10
39.1566388919157
20
-8.09899999999999
30
0
0
SPLINE
5
106
100
AcDbEntity
8
1
62
256
6
ByLayer
370
-1
48
1
60
0
100
AcDbSpline
70
4
71
3
72
16
73
12
40
0
40
0
40
0
40
0
40
0.077343676657827
40
0.077343676657827
40
0.181588290672556
40
0.181588290672556
40
0.353924998169922
40
0.353924998169922
40
0.659870482235914
40
0.659870482235914
40
1
40
1
40
1
40
1
41
1
10
8.53867513459483
20
23.8391299750503
30
0
41
1
10
8.51930872656192
20
23.8391299750503
30
0
41
1
10
8.49980795201657
20
23.8383766644784
30
0
41
1
10
8.45563565444411
20
23.8350242537625
30
0
41
1
10
8.43110003395827
20
23.8318379431383
30
0
41
1
10
8.37136994789256
20
23.8212426939765
30
0
41
1
10
8.33841285720996
20
23.812328084785
30
0
41
1
10
8.25926399475679
20
23.7850663392819
30
0
41
1
10
8.22011072567562
20
23.7642694363116
30
0
41
1
10
8.15317557860794
20
23.7185457490814
30
0
41
1
10
8.12652521949877
20
23.692873493267
30
0
41
1
10
8.10566243270262
20
23.6665017920809
30
0
0
SPLINE
5
107
100
AcDbEntity
8
1
62
256
6
ByLayer
370
-1
48
1
60
0
100
AcDbSpline
70
4
71
3
72
10
73
6
40
0
40
0
40
0
40
0
40
0.361486764764272
40
0.361486764764272
40
1
40
1
40
1
40
1
41
1
10
39.5198115689948
20
8.36877392939036
30
0
41
1
10
39.4575087133914
20
8.32159373100359
30
0
41
1
10
39.3955114567457
20
8.27447526974703
30
0
41
1
10
39.2272036885346
20
8.14585783999073
30
0
41
1
10
39.1221962061437
20
8.06482929383171
30
0
41
1
10
39.0252629185591
20
7.98824531462492
30
0
0
SPLINE
5
108
100
AcDbEntity
8
1
62
256
6
ByLayer
370
-1
48
1
60
0
100
AcDbSpline
70
4
71
3
72
14
73
10
40
0
40
0
40
0
40
0
40
0.288979649064911
40
0.288979649064911
40
0.575875151648415
40
0.575875151648415
40
0.890898219392168
40
0.890898219392168
40
1
40
1
40
1
40
1
41
1
10
52.7443121808976
20
5.72510466316066
30
0
41
1
10
52.8999420766154
20
5.72531013567547
30
0
41
1
10
53.0577836519117
20
5.70446095789242
30
0
41
1
10
53.3489656149891
20
5.62717348875762
30
0
41
1
10
53.4864228206469
20
5.57025333136838
30
0
41
1
10
53.7432448631453
20
5.42372953886144
30
0
41
1
10
53.8628033318293
20
5.32987228937569
30
0
41
1
10
53.998392451667
20
5.18814264789424
30
0
41
1
10
54.0313559412266
20
5.1499340587439
30
0
41
1
10
54.0620580311291
20
5.11041960238356
30
0
0
SPLINE
5
109
100
AcDbEntity
8
1
62
256
6
ByLayer
370
-1
48
1
60
0
100
AcDbSpline
70
4
71
3
72
18
73
14
40
0
40
0
40
0
40
0
40
0.132326453119229
40
0.132326453119229
40
0.266496698309661
40
0.266496698309661
40
0.387106311396627
40
0.387106311396627
40
0.536971481436918
40
0.536971481436918
40
0.773384963846131
40
0.773384963846131
40
1
40
1
40
1
40
1
41
1
10
37.9332330027798
20
7.75429653603896
30
0
41
1
10
37.8863632766833
20
7.77565056501766
30
0
41
1
10
37.848865649235
20
7.79720085495444
30
0
41
1
10
37.8058899793131
20
7.83826471005608
30
0
41
1
10
37.8009284404311
20
7.85824503429996
30
0
41
1
10
37.8301119556019
20
7.89109289786563
30
0
41
1
10
37.860677342077
20
7.90488664122043
30
0
41
1
10
37.9565095881713
20
7.93039934793674
30
0
41
1
10
38.0292081349063
20
7.94134482462789
30
0
41
1
10
38.2386397745727
20
7.9632182045271
30
0
41
1
10
38.3912297159824
20
7.97128152322756
30
0
41
1
10
38.701745811228
20
7.98250149622424
30
0
41
1
10
38.8623245204588
20
7.9858571979421
30
0
41
1
10
39.0252629185591
20
7.98824531462495
30
0
0
SPLINE
5
10A
100
AcDbEntity
8
1
62
256
6
ByLayer
370
-1
48
1
60
0
100
AcDbSpline
70
4
71
3
72
8
73
4
40
0
40
0
40
0
40
0
40
1
40
1
40
1
40
1
41
1
10
40.4778396335203
20
9.09336177901505
30
0
41
1
10
40.468187482247
20
9.08690190470577
30
0
41
1
10
40.4591054606601
20
9.08042694113124
30
0
41
1
10
40.4505908946982
20
9.07393853194748
30
0
0
SPLINE
5
10B
100
AcDbEntity
8
1
62
256
6
ByLayer
370
-1
48
1
60
0
100
AcDbSpline
70
4
71
3
72
18
73
14
40
0
40
0
40
0
40
0
40
0.0809805960320801
40
0.0809805960320801
40
0.544227292214068
40
0.544227292214068
40
0.699318265621658
40
0.699318265621658
40
0.856346274356475
40
0.856346274356475
40
0.966571999538822
40
0.966571999538822
40
1
40
1
40
1
40
1
41
1
10
8.10566243270262
20
-23.6665017920809
30
0
41
1
10
8.11065289887438
20
-23.672810013698
30
0
41
1
10
8.11597900857612
20
-23.6790700603507
30
0
41
1
10
8.15400172089505
20
-23.7205303134149
30
0
41
1
10
8.1977744361825
20
-23.7548029562659
30
0
41
1
10
8.28487257800725
20
-23.7938243006291
30
0
41
1
10
8.30967508046024
20
-23.8031592998669
30
0
41
1
10
8.36604668219428
20
-23.8196134016841
30
0
41
1
10
8.3983775068167
20
-23.8268687494612
30
0
41
1
10
8.45889576423616
20
-23.8353793525422
30
0
41
1
10
8.48604318765894
20
-23.8378105604685
30
0
41
1
10
8.52183069664625
20
-23.8389905264494
30
0
41
1
10
8.53025906116034
20
-23.8391299750503
30
0
41
1
10
8.53867513459483
20
-23.8391299750503
30
0
0
SPLINE
5
10C
100
AcDbEntity
8
1
62
256
6
ByLayer
370
-1
48
1
60
0
100
AcDbSpline
70
4
71
2
72
6
73
3
40
0
40
0
40
0
40
1
40
1
40
1
41
0.500002710672376
10
44.7936234088843
20
5.71460544014693
30
0
41
0.499997289327624
10
48.7717580633505
20
5.71985984383459
30
0
41
0.500002710672376
10
52.7443121808952
20
5.72510466316066
30
0
0
SPLINE
5
10D
100
AcDbEntity
8
1
62
256
6
ByLayer
370
-1
48
1
60
0
100
AcDbSpline
70
4
71
3
72
8
73
4
40
0
40
0
40
0
40
0
40
1
40
1
40
1
40
1
41
1
10
39.5198115689948
20
8.36877392939036
30
0
41
1
10
39.8390083400974
20
8.61049265703448
30
0
41
1
10
40.1583628853752
20
8.85200675297042
30
0
41
1
10
40.4778396335203
20
9.09336177901505
30
0
0
SPLINE
5
10E
100
AcDbEntity
8
1
62
256
6
ByLayer
370
-1
48
1
60
0
100
AcDbSpline
70
4
71
3
72
8
73
4
40
0
40
0
40
0
40
0
40
1
40
1
40
1
40
1
41
1
10
40.0014143222359
20
2.50395514429667
30
0
41
1
10
41.0934106484155
20
1.36692920993502
30
0
41
1
10
41.9153516706396
20
-0.502151289066802
30
0
41
1
10
42.10830089
20
-2.45491948169254
30
0
0
SPLINE
5
10F
100
AcDbEntity
8
1
62
256
6
ByLayer
370
-1
48
1
60
0
100
AcDbSpline
70
4
71
3
72
16
73
12
40
0
40
0
40
0
40
0
40
0.0773436766578125
40
0.0773436766578125
40
0.181588290672542
40
0.181588290672542
40
0.353924998169895
40
0.353924998169895
40
0.659870482235859
40
0.659870482235859
40
1
40
1
40
1
40
1
41
1
10
8.53867513459483
20
-7.52966679426501
30
0
41
1
10
8.51930872656192
20
-7.52966679426501
30
0
41
1
10
8.49980795201662
20
-7.53205286469702
30
0
41
1
10
8.45563565444411
20
-7.54265601007379
30
0
41
1
10
8.43110003395827
20
-7.55272636772355
30
0
41
1
10
8.37136994789256
20
-7.58609718460599
30
0
41
1
10
8.33841285721002
20
-7.61407037421819
30
0
41
1
10
8.25926399475679
20
-7.69895209889248
30
0
41
1
10
8.22011072567562
20
-7.76300791758402
30
0
41
1
10
8.15317557860794
20
-7.90167589305835
30
0
41
1
10
8.12652521949877
20
-7.97837348437849
30
0
41
1
10
8.10566243270262
20
-8.05584836782774
30
0
0
SPLINE
5
110
100
AcDbEntity
8
1
62
256
6
ByLayer
370
-1
48
1
60
0
100
AcDbSpline
70
4
71
3
72
8
73
4
40
0
40
0
40
0
40
0
40
1
40
1
40
1
40
1
41
1
10
42.10830089
20
-4.12188389745774
30
0
41
1
10
41.9159440415533
20
-5.8690416852541
30
0
41
1
10
41.0916201429846
20
-6.88468557370774
30
0
41
1
10
40.0014143222359
20
-7.06249754307348
30
0
0
SPLINE
5
111
100
AcDbEntity
8
1
62
256
6
ByLayer
370
-1
48
1
60
0
100
AcDbSpline
70
4
71
3
72
8
73
4
40
0
40
0
40
0
40
0
40
1
40
1
40
1
40
1
41
1
10
44.7936234088864
20
5.71460544014695
30
0
41
1
10
42.6710157452843
20
5.71180185542602
30
0
41
1
10
40.5745033999533
20
6.40535736255822
30
0
41
1
10
39.1579674007171
20
7.15102299511108
30
0
0
SPLINE
5
112
100
AcDbEntity
8
1
62
256
6
ByLayer
370
-1
48
1
60
0
100
AcDbSpline
70
4
71
3
72
8
73
4
40
0
40
0
40
0
40
0
40
1
40
1
40
1
40
1
41
1
10
39.1579674007211
20
4.38440449397953
30
0
41
1
10
39.1579674007211
20
3.63883646177527
30
0
41
1
10
39.5153875709632
20
3.01002371590434
30
0
41
1
10
40.0014143222359
20
2.50395514429667
30
0
0
SPLINE
5
113
100
AcDbEntity
8
1
62
256
6
ByLayer
370
-1
48
1
60
0
100
AcDbSpline
70
4
71
3
72
16
73
12
40
0
40
0
40
0
40
0
40
0.0773436766578767
40
0.0773436766578767
40
0.181588290672618
40
0.181588290672618
40
0.353924998170011
40
0.353924998170011
40
0.659870482236094
40
0.659870482236094
40
1
40
1
40
1
40
1
41
1
10
11.4613248654052
20
-23.8391299750503
30
0
41
1
10
11.4806912734381
20
-23.8391299750503
30
0
41
1
10
11.5001920479834
20
-23.8383766644784
30
0
41
1
10
11.5443643455559
20
-23.8350242537625
30
0
41
1
10
11.5688999660418
20
-23.8318379431383
30
0
41
1
10
11.6286300521075
20
-23.8212426939765
30
0
41
1
10
11.66158714279
20
-23.812328084785
30
0
41
1
10
11.7407360052433
20
-23.7850663392819
30
0
41
1
10
11.7798892743244
20
-23.7642694363116
30
0
41
1
10
11.8468244213921
20
-23.7185457490814
30
0
41
1
10
11.8734747805012
20
-23.692873493267
30
0
41
1
10
11.8943375672974
20
-23.6665017920809
30
0
0
SPLINE
5
114
100
AcDbEntity
8
1
62
256
6
ByLayer
370
-1
48
1
60
0
100
AcDbSpline
70
4
71
3
72
8
73
4
40
0
40
0
40
0
40
0
40
1
40
1
40
1
40
1
41
1
10
39.0252629185605
20
7.19736868620458
30
0
41
1
10
39.0681923274763
20
7.18245802621621
30
0
41
1
10
39.1124381109639
20
7.16697602193494
30
0
41
1
10
39.1579674007181
20
7.15102299511005
30
0
0
SPLINE
5
115
100
AcDbEntity
8
1
62
256
6
ByLayer
370
-1
48
1
60
0
100
AcDbSpline
70
4
71
3
72
18
73
14
40
0
40
0
40
0
40
0
40
0.0809805960320615
40
0.0809805960320615
40
0.544227292213941
40
0.544227292213941
40
0.699318265621571
40
0.699318265621571
40
0.856346274356429
40
0.856346274356429
40
0.966571999538782
40
0.966571999538782
40
1
40
1
40
1
40
1
41
1
10
11.8943375672974
20
-8.05584836782771
30
0
41
1
10
11.8893471011256
20
-8.03731605051115
30
0
41
1
10
11.8840209914239
20
-8.01885383673363
30
0
41
1
10
11.845998279105
20
-7.89611164850155
30
0
41
1
10
11.8022255638175
20
-7.79219397274093
30
0
41
1
10
11.7151274219928
20
-7.67169814060131
30
0
41
1
10
11.6903249195398
20
-7.64266520230271
30
0
41
1
10
11.6339533178058
20
-7.59122859579532
30
0
41
1
10
11.6016224931834
20
-7.56839473241365
30
0
41
1
10
11.5411042357638
20
-7.54154007085771
30
0
41
1
10
11.5139568123411
20
-7.53384342094336
30
0
41
1
10
11.4781693033538
20
-7.53010833377257
30
0
41
1
10
11.4697409388397
20
-7.52966679426501
30
0
41
1
10
11.4613248654052
20
-7.52966679426501
30
0
0
SPLINE
5
116
100
AcDbEntity
8
1
62
256
6
ByLayer
370
-1
48
1
60
0
100
AcDbSpline
70
4
71
3
72
16
73
12
40
0
40
0
40
0
40
0
40
0.0773436766578803
40
0.0773436766578803
40
0.181588290672623
40
0.181588290672623
40
0.353924998170025
40
0.353924998170025
40
0.659870482236126
40
0.659870482236126
40
1
40
1
40
1
40
1
41
1
10
11.4613248654052
20
7.52966679426498
30
0
41
1
10
11.4806912734381
20
7.52966679426498
30
0
41
1
10
11.5001920479834
20
7.53205286469702
30
0
41
1
10
11.5443643455559
20
7.54265601007381
30
0
41
1
10
11.5688999660418
20
7.55272636772358
30
0
41
1
10
11.6286300521075
20
7.58609718460602
30
0
41
1
10
11.66158714279
20
7.61407037421822
30
0
41
1
10
11.7407360052433
20
7.69895209889256
30
0
41
1
10
11.7798892743244
20
7.76300791758413
30
0
41
1
10
11.8468244213921
20
7.90167589305847
30
0
41
1
10
11.8734747805012
20
7.97837348437852
30
0
41
1
10
11.8943375672974
20
8.05584836782771
30
0
0
SPLINE
5
117
100
AcDbEntity
8
1
62
256
6
ByLayer
370
-1
48
1
60
0
100
AcDbSpline
70
4
71
3
72
18
73
14
40
0
40
0
40
0
40
0
40
0.0809805960321051
40
0.0809805960321051
40
0.544227292214096
40
0.544227292214096
40
0.69931826562168
40
0.69931826562168
40
0.856346274356486
40
0.856346274356486
40
0.966571999538835
40
0.966571999538835
40
1
40
1
40
1
40
1
41
1
10
11.8943375672974
20
23.6665017920809
30
0
41
1
10
11.8893471011256
20
23.672810013698
30
0
41
1
10
11.8840209914239
20
23.6790700603507
30
0
41
1
10
11.845998279105
20
23.7205303134149
30
0
41
1
10
11.8022255638174
20
23.7548029562659
30
0
41
1
10
11.7151274219928
20
23.7938243006291
30
0
41
1
10
11.6903249195398
20
23.8031592998669
30
0
41
1
10
11.6339533178057
20
23.8196134016841
30
0
41
1
10
11.6016224931833
20
23.8268687494612
30
0
41
1
10
11.5411042357638
20
23.8353793525422
30
0
41
1
10
11.5139568123411
20
23.8378105604685
30
0
41
1
10
11.4781693033538
20
23.8389905264494
30
0
41
1
10
11.4697409388397
20
23.8391299750503
30
0
41
1
10
11.4613248654052
20
23.8391299750503
30
0
0
SPLINE
5
118
100
AcDbEntity
8
1
62
256
6
ByLayer
370
-1
48
1
60
0
100
AcDbSpline
70
4
71
3
72
8
73
4
40
0
40
0
40
0
40
0
40
1
40
1
40
1
40
1
41
1
10
39.0252629185591
20
7.19736868620319
30
0
41
1
10
38.9881323874277
20
7.2171690365638
30
0
41
1
10
38.9515892220557
20
7.23683579078656
30
0
41
1
10
38.915652724277
20
7.25633266172565
30
0
0
SPLINE
5
119
100
AcDbEntity
8
SK1
62
256
6
ByLayer
370
-1
48
1
60
0
100
AcDbSpline
70
4
71
3
72
24
73
20
40
0
40
0
40
0
40
0
40
0.0299003298961631
40
0.0299003298961631
40
0.0528622635029669
40
0.0528622635029669
40
0.0709275158044995
40
0.0709275158044995
40
0.0890039000876294
40
0.0890039000876294
40
0.11362248491787
40
0.11362248491787
40
0.157577258657195
40
0.157577258657195
40
0.29602514002948
40
0.29602514002948
40
0.878150828056824
40
0.878150828056824
40
1
40
1
40
1
40
1
41
1
10
-0.400000000000034
20
5.16866682996297
30
0
41
1
10
-0.394094307655564
20
5.16300784544387
30
0
41
1
10
-0.38760623850834
20
5.15782429554133
30
0
41
1
10
-0.374945775641891
20
5.1507540726119
30
0
41
1
10
-0.368929355824321
20
5.14835070696066
30
0
41
1
10
-0.35770867701234
20
5.14629827954846
30
0
41
1
10
-0.352495529695602
20
5.14618209741417
30
0
41
1
10
-0.342356257615734
20
5.14777530545462
30
0
41
1
10
-0.337316914191888
20
5.1495007928761
30
0
41
1
10
-0.32635373840418
20
5.15512166080455
30
0
41
1
10
-0.320571087776045
20
5.15961290941803
30
0
41
1
10
-0.306345382412019
20
5.17348963231112
30
0
41
1
10
-0.298929389281341
20
5.1841444040335
30
0
41
1
10
-0.27264918279883
20
5.22929437458617
30
0
41
1
10
-0.260939846150848
20
5.26761390191822
30
0
41
1
10
-0.210796530798689
20
5.46289223314824
30
0
41
1
10
-0.204366482898251
20
5.62478131775705
30
0
41
1
10
-0.200325121553306
20
5.8154278903541
30
0
41
1
10
-0.200000000000046
20
5.8484679854401
30
0
41
1
10
-0.200000000000046
20
5.88142452370542
30
0
0
SPLINE
5
11A
100
AcDbEntity
8
SK1
62
256
6
ByLayer
370
-1
48
1
60
0
100
AcDbSpline
70
4
71
3
72
73
73
69
40
0
40
0
40
0
40
0
40
0.0018466561169312
40
0.0173088925234934
40
0.0327711289300555
40
0.0482333653366177
40
0.0636956017431799
40
0.0791578381497421
40
0.0946200745563043
40
0.110082310962866
40
0.125544547369429
40
0.141006783775991
40
0.156469020182553
40
0.171931256589115
40
0.187393492995678
40
0.20285572940224
40
0.218317965808802
40
0.233780202215364
40
0.249242438621926
40
0.264704675028488
40
0.280166911435051
40
0.295629147841613
40
0.311091384248175
40
0.326553620654737
40
0.3420158570613
40
0.357478093467862
40
0.372940329874424
40
0.388402566280986
40
0.403864802687548
40
0.41932703909411
40
0.434789275500673
40
0.450251511907235
40
0.465713748313797
40
0.481175984720359
40
0.496638221126921
40
0.512100457533484
40
0.527562693940046
40
0.543024930346608
40
0.55848716675317
40
0.573949403159732
40
0.589411639566295
40
0.604873875972857
40
0.620336112379419
40
0.635798348785981
40
0.651260585192543
40
0.666722821599105
40
0.682185058005668
40
0.69764729441223
40
0.713109530818792
40
0.728571767225354
40
0.744034003631916
40
0.759496240038479
40
0.774958476445041
40
0.790420712851603
40
0.805882949258165
40
0.821345185664727
40
0.83680742207129
40
0.852269658477852
40
0.867731894884414
40
0.883194131290976
40
0.898656367697538
40
0.9141186041041
40
0.929580840510663
40
0.945043076917225
40
0.960505313323787
40
0.975967549730349
40
0.991429786136912
40
1
40
1
40
1
40
1
41
1
10
-28.5004731679065
20
16.5843275748057
30
0
41
1
10
-28.5004731679065
20
16.5890126478705
30
0
41
1
10
-28.5004731679065
20
16.6325284262555
30
0
41
1
10
-28.5004731679065
20
16.7076779742402
30
0
41
1
10
-28.5004731679065
20
16.7910009100058
30
0
41
1
10
-28.5004731679065
20
16.845797358011
30
0
41
1
10
-28.5004731679065
20
16.866111367971
30
0
41
1
10
-28.5004731679065
20
16.8457932960415
30
0
41
1
10
-28.5004731679065
20
16.7787920295583
30
0
41
1
10
-28.5004731679065
20
16.6594441325878
30
0
41
1
10
-28.5004731679065
20
16.4827618905288
30
0
41
1
10
-28.5004731679065
20
16.2446845781523
30
0
41
1
10
-28.5004731679065
20
15.9423067030317
30
0
41
1
10
-28.5004731679065
20
15.5740550609708
30
0
41
1
10
-28.5004731679065
20
15.1398218356871
30
0
41
1
10
-28.5004731679065
20
14.6410360299331
30
0
41
1
10
-28.5004731679065
20
14.0806798361698
30
0
41
1
10
-28.5004731679065
20
13.4632415716312
30
0
41
1
10
-28.5004731679065
20
12.7946107775085
30
0
41
1
10
-28.5004731679065
20
12.0819181856553
30
0
41
1
10
-28.5004731679065
20
11.3333237326368
30
0
41
1
10
-28.5004731679065
20
10.557766572068
30
0
41
1
10
-28.5004731679065
20
9.76467681695499
30
0
41
1
10
-28.5004731679065
20
8.96367263859332
30
0
41
1
10
-28.5004731679065
20
8.1642385298471
30
0
41
1
10
-28.5004731679065
20
7.37541494914308
30
0
41
1
10
-28.5004731679065
20
6.60549138939064
30
0
41
1
10
-28.5004731679065
20
5.86173553761287
30
0
41
1
10
-28.5004731679065
20
5.15014758540383
30
0
41
1
10
-28.5004731679065
20
4.47527023543958
30
0
41
1
10
-28.5004731679065
20
3.84004176429178
30
0
41
1
10
-28.5004731679065
20
3.2457162593208
30
0
41
1
10
-28.5004731679065
20
2.69183828529165
30
0
41
1
10
-28.5004731679065
20
2.17628628328657
30
0
41
1
10
-28.5004731679065
20
1.69537351492636
30
0
41
1
10
-28.5004731679065
20
1.2440090901581
30
0
41
1
10
-28.5004731679065
20
0.815910920503399
30
0
41
1
10
-28.5004731679065
20
0.403861164287008
30
0
41
1
10
-28.5004731679065
20
8.53071072E-08
30
0
41
1
10
-28.5004731679065
20
-0.403861505515522
30
0
41
1
10
-28.5004731679065
20
-0.815910763441792
30
0
41
1
10
-28.5004731679065
20
-1.24400937717621
30
0
41
1
10
-28.5004731679065
20
-1.69537339652362
30
0
41
1
10
-28.5004731679065
20
-2.17628646987961
30
0
41
1
10
-28.5004731679065
20
-2.69183822496621
30
0
41
1
10
-28.5004731679065
20
-3.24571631402981
30
0
41
1
10
-28.5004731679065
20
-3.84004177292727
30
0
41
1
10
-28.5004731679065
20
-4.47527014618885
30
0
41
1
10
-28.5004731679065
20
-5.15014766379647
30
0
41
1
10
-28.5004731679065
20
-5.86173531329331
30
0
41
1
10
-28.5004731679065
20
-6.60549152820974
30
0
41
1
10
-28.5004731679065
20
-7.37541461818648
30
0
41
1
10
-28.5004731679065
20
-8.16423871111451
30
0
41
1
10
-28.5004731679065
20
-8.96367224448036
30
0
41
1
10
-28.5004731679065
20
-9.76467701679073
30
0
41
1
10
-28.5004731679065
20
-10.5577661668381
30
0
41
1
10
-28.5004731679065
20
-11.3333239249003
30
0
41
1
10
-28.5004731679065
20
-12.0819178218315
30
0
41
1
10
-28.5004731679065
20
-12.7946109377403
30
0
41
1
10
-28.5004731679065
20
-13.4632412945279
30
0
41
1
10
-28.5004731679065
20
-14.0806799452206
30
0
41
1
10
-28.5004731679065
20
-14.6410358708333
30
0
41
1
10
-28.5004731679065
20
-15.1398218825485
30
0
41
1
10
-28.5004731679065
20
-15.5740550326248
30
0
41
1
10
-28.5004731679065
20
-15.942306686368
30
0
41
1
10
-28.5004731679065
20
-16.2446846731531
30
0
41
1
10
-28.5004731679065
20
-16.4473889051978
30
0
41
1
10
-28.5004731679065
20
-16.546015100524
30
0
41
1
10
-28.5004731679065
20
-16.5781578665788
30
0
0
SPLINE
5
11B
100
AcDbEntity
8
SK1
62
256
6
ByLayer
370
-1
48
1
60
0
100
AcDbSpline
70
4
71
3
72
14
73
10
40
0
40
0
40
0
40
0
40
0.10357574079845
40
0.255914577449822
40
0.408253414101195
40
0.560592250752568
40
0.712931087403941
40
0.865269924055314
40
1
40
1
40
1
40
1
41
1
10
-2.20000000000005
20
-15.0247808645648
30
0
41
1
10
-2.20000000000005
20
-14.8954704310019
30
0
41
1
10
-2.20000000000005
20
-14.5640748657279
30
0
41
1
10
-2.20000000000005
20
-13.9908991973699
30
0
41
1
10
-2.20000000000005
20
-13.2960635543425
30
0
41
1
10
-2.20000000000005
20
-12.5554382231013
30
0
41
1
10
-2.20000000000005
20
-11.7775050699617
30
0
41
1
10
-2.20000000000005
20
-11.0026045240078
30
0
41
1
10
-2.20000000000005
20
-10.4855729233102
30
0
41
1
10
-2.20000000000005
20
-10.2416915120114
30
0
0
SPLINE
5
11C
100
AcDbEntity
8
SK1
62
256
6
ByLayer
370
-1
48
1
60
0
100
AcDbSpline
70
4
71
3
72
30
73
26
40
0
40
0
40
0
40
0
40
0.0056618333773669
40
0.0508667583908923
40
0.0960716834044178
40
0.141276608417943
40
0.186481533431469
40
0.231686458444994
40
0.276891383458519
40
0.322096308472045
40
0.36730123348557
40
0.412506158499096
40
0.457711083512621
40
0.502916008526146
40
0.548120933539672
40
0.593325858553197
40
0.638530783566723
40
0.683735708580248
40
0.728940633593774
40
0.774145558607299
40
0.819350483620824
40
0.86455540863435
40
0.909760333647875
40
0.954965258661401
40
1
40
1
40
1
40
1
41
1
10
-0.400000000000034
20
-5.16866679574528
30
0
41
1
10
-0.400000000000034
20
-5.1981823917107
30
0
41
1
10
-0.400000000000034
20
-5.46426938707833
30
0
41
1
10
-0.400000000000034
20
-5.98219146197602
30
0
41
1
10
-0.400000000000034
20
-6.74713361247495
30
0
41
1
10
-0.400000000000034
20
-7.53968849279406
30
0
41
1
10
-0.400000000000034
20
-8.35230648563555
30
0
41
1
10
-0.400000000000034
20
-9.17636769820604
30
0
41
1
10
-0.400000000000034
20
-10.0024728331477
30
0
41
1
10
-0.400000000000034
20
-10.8207538150476
30
0
41
1
10
-0.400000000000034
20
-11.6212070931939
30
0
41
1
10
-0.400000000000034
20
-12.3940190774915
30
0
41
1
10
-0.400000000000034
20
-13.1298916243886
30
0
41
1
10
-0.400000000000034
20
-13.8203332490725
30
0
41
1
10
-0.400000000000034
20
-14.4579281585871
30
0
41
1
10
-0.400000000000034
20
-15.0365497976464
30
0
41
1
10
-0.400000000000034
20
-15.5515337877379
30
0
41
1
10
-0.400000000000034
20
-15.9997825456108
30
0
41
1
10
-0.400000000000034
20
-16.379817481596
30
0
41
1
10
-0.400000000000034
20
-16.6917603323907
30
0
41
1
10
-0.400000000000034
20
-16.9372586651848
30
0
41
1
10
-0.400000000000034
20
-17.1193485969266
30
0
41
1
10
-0.400000000000034
20
-17.2422669751987
30
0
41
1
10
-0.400000000000091
20
-17.311133444229
30
0
41
1
10
-0.400000000000034
20
-17.3250933704586
30
0
41
1
10
-0.400000000000034
20
-17.3251497957884
30
0
0
SPLINE
5
11D
100
AcDbEntity
8
SK1
62
256
6
ByLayer
370
-1
48
1
60
0
100
AcDbSpline
70
4
71
3
72
26
73
22
40
0
40
0
40
0
40
0
40
0.466011607458034
40
0.466011607458034
40
0.67024046630168
40
0.67024046630168
40
0.77456727018221
40
0.77456727018221
40
0.857070717706419
40
0.857070717706419
40
0.898538406950324
40
0.898538406950324
40
0.918045307993239
40
0.918045307993239
40
0.937772855809251
40
0.937772855809251
40
0.955553297254221
40
0.955553297254221
40
0.984230712729842
40
0.984230712729842
40
1
40
1
40
1
40
1
41
1
10
-0.200000000000046
20
-5.88142397393347
30
0
41
1
10
-0.200000000000046
20
-5.75538988127934
30
0
41
1
10
-0.204053336884726
20
-5.62782146467677
30
0
41
1
10
-0.224291300237951
20
-5.44372978251536
30
0
41
1
10
-0.232375898168357
20
-5.3873284499669
30
0
41
1
10
-0.251389677244674
20
-5.30297629006839
30
0
41
1
10
-0.259003952916999
20
-5.27447755328694
30
0
41
1
10
-0.277073232762461
20
-5.22483382882945
30
0
41
1
10
-0.286541211569727
20
-5.20296176881411
30
0
41
1
10
-0.306529791401147
20
-5.17375294403038
30
0
41
1
10
-0.314426911926432
20
-5.1643717298173
30
0
41
1
10
-0.328481919155991
20
-5.15398148698225
30
0
41
1
10
-0.333472930985636
20
-5.15114386616668
30
0
41
1
10
-0.343977733072507
20
-5.14732547572157
30
0
41
1
10
-0.349636276202261
20
-5.14634920679938
30
0
41
1
10
-0.360093315739675
20
-5.1465317925306
30
0
41
1
10
-0.365036235354125
20
-5.14747094480913
30
0
41
1
10
-0.377122372198698
20
-5.15149960910935
30
0
41
1
10
-0.384002450469666
20
-5.1555505154767
30
0
41
1
10
-0.393629001799525
20
-5.16285427826699
30
0
41
1
10
-0.39689046960973
20
-5.16568716298278
30
0
41
1
10
-0.400000000000034
20
-5.16866679574503
30
0
0
SPLINE
5
11E
100
AcDbEntity
8
SK1
62
256
6
ByLayer
370
-1
48
1
60
0
100
AcDbSpline
70
4
71
3
72
79
73
75
40
0
40
0
40
0
40
0
40
0.0067087497327157
40
0.0208027855950757
40
0.0348968214574358
40
0.0489908573197958
40
0.0630848931821558
40
0.0771789290445158
40
0.0912729649068758
40
0.105367000769236
40
0.119461036631596
40
0.133555072493956
40
0.147649108356316
40
0.161743144218676
40
0.175837180081036
40
0.189931215943396
40
0.204025251805756
40
0.218119287668116
40
0.232213323530476
40
0.246307359392836
40
0.260401395255196
40
0.274495431117556
40
0.288589466979916
40
0.302683502842276
40
0.316777538704636
40
0.330871574566996
40
0.344965610429356
40
0.359059646291716
40
0.373153682154076
40
0.387247718016436
40
0.401341753878796
40
0.415435789741156
40
0.429529825603516
40
0.443623861465876
40
0.457717897328236
40
0.471811933190596
40
0.485905969052956
40
0.500000004915316
40
0.514094040777676
40
0.528188076640036
40
0.542282112502396
40
0.556376148364756
40
0.570470184227116
40
0.584564220089477
40
0.598658255951837
40
0.612752291814197
40
0.626846327676556
40
0.640940363538917
40
0.655034399401277
40
0.669128435263637
40
0.683222471125997
40
0.697316506988357
40
0.711410542850717
40
0.725504578713077
40
0.739598614575437
40
0.753692650437797
40
0.767786686300157
40
0.781880722162517
40
0.795974758024877
40
0.810068793887237
40
0.824162829749597
40
0.838256865611957
40
0.852350901474317
40
0.866444937336677
40
0.880538973199037
40
0.894633009061397
40
0.908727044923757
40
0.922821080786117
40
0.936915116648477
40
0.951009152510837
40
0.965103188373197
40
0.979197224235557
40
0.993291260097917
40
1
40
1
40
1
40
1
41
1
10
-3
20
-17.2891029998204
30
0
41
1
10
-3
20
-17.3064425230017
30
0
41
1
10
-3
20
-17.3576824669623
30
0
41
1
10
-3
20
-17.4290648746259
30
0
41
1
10
-3
20
-17.4859427971309
30
0
41
1
10
-3
20
-17.5070292572437
30
0
41
1
10
-3
20
-17.4859401738945
30
0
41
1
10
-3
20
-17.4163913620312
30
0
41
1
10
-3
20
-17.2925088911448
30
0
41
1
10
-3
20
-17.1091123896189
30
0
41
1
10
-3
20
-16.8619882313057
30
0
41
1
10
-3
20
-16.5481197778907
30
0
41
1
10
-3
20
-16.1658744357057
30
0
41
1
10
-3
20
-15.7151402778227
30
0
41
1
10
-3
20
-15.1974002275414
30
0
41
1
10
-3
20
-14.6157505856349
30
0
41
1
10
-3
20
-13.9748490556261
30
0
41
1
10
-3
20
-13.2808105172309
30
0
41
1
10
-3
20
-12.5410348198394
30
0
41
1
10
-3
20
-11.763994099502
30
0
41
1
10
-3
20
-10.9589648821141
30
0
41
1
10
-3
20
-10.1357380738661
30
0
41
1
10
-3
20
-9.30429484700929
30
0
41
1
10
-3
20
-8.47448256671282
30
0
41
1
10
-3
20
-7.6556828892094
30
0
41
1
10
-3
20
-6.85650245921596
30
0
41
1
10
-3
20
-6.08448325445985
30
0
41
1
10
-3
20
-5.34585503158101
30
0
41
1
10
-3
20
-4.64533193812392
30
0
41
1
10
-3
20
-3.9859646700211
30
0
41
1
10
-3
20
-3.36905464097902
30
0
41
1
10
-3
20
-2.79412899561987
30
0
41
1
10
-3
20
-2.25898609800083
30
0
41
1
10
-3
20
-1.75979816383233
30
0
41
1
10
-3
20
-1.29128215780307
30
0
41
1
10
-3
20
-0.846915650735156
30
0
41
1
10
-3
20
-0.41920838047011
30
0
41
1
10
-3
20
8.85488021E-08
30
0
41
1
10
-3
20
0.419208026274788
30
0
41
1
10
-3
20
0.84691581376515
30
0
41
1
10
-3
20
1.29128185987813
30
0
41
1
10
-3
20
1.75979828673439
30
0
41
1
10
-3
20
2.25898590431717
30
0
41
1
10
-3
20
2.79412905823773
30
0
41
1
10
-3
20
3.36905458419105
30
0
41
1
10
-3
20
3.98596466105747
30
0
41
1
10
-3
20
4.64533203076618
30
0
41
1
10
-3
20
5.34585495020943
30
0
41
1
10
-3
20
6.08448348730366
30
0
41
1
10
-3
20
6.85650231512167
30
0
41
1
10
-3
20
7.65568323274246
30
0
41
1
10
-3
20
8.47448237855718
30
0
41
1
10
-3
20
9.30429525609867
30
0
41
1
10
-3
20
10.1357378664365
30
0
41
1
10
-3
20
10.9589653027428
30
0
41
1
10
-3
20
11.7639938999324
30
0
41
1
10
-3
20
12.5410351974886
30
0
41
1
10
-3
20
13.2808103509102
30
0
41
1
10
-3
20
13.9748493432595
30
0
41
1
10
-3
20
14.6157504724401
30
0
41
1
10
-3
20
15.197400392687
30
0
41
1
10
-3
20
15.7151402291805
30
0
41
1
10
-3
20
16.1658744651289
30
0
41
1
10
-3
20
16.5481197951877
30
0
41
1
10
-3
20
16.8619881326948
30
0
41
1
10
-3
20
17.1091124641426
30
0
41
1
10
-3
20
17.2925086916609
30
0
41
1
10
-3
20
17.4163918494222
30
0
41
1
10
-3
20
17.4859391868839
30
0
41
1
10
-3
20
17.5070293524766
30
0
41
1
10
-3
20
17.4859434032096
30
0
41
1
10
-3
20
17.4290646714908
30
0
41
1
10
-3
20
17.3576822655576
30
0
41
1
10
-3
20
17.3064424621938
30
0
41
1
10
-3
20
17.2891029998414
30
0
0
SPLINE
5
11F
100
AcDbEntity
8
SK1
62
256
6
ByLayer
370
-1
48
1
60
0
100
AcDbSpline
70
4
71
3
72
41
73
37
40
0
40
0
40
0
40
0
40
0.003586261541826
40
0.0346121196535795
40
0.065637977765333
40
0.0966638358770865
40
0.12768969398884
40
0.158715552100593
40
0.189741410212347
40
0.220767268324101
40
0.251793126435854
40
0.282818984547608
40
0.313844842659361
40
0.344870700771115
40
0.375896558882868
40
0.406922416994622
40
0.437948275106375
40
0.468974133218129
40
0.499999991329882
40
0.531025849441636
40
0.562051707553389
40
0.593077565665143
40
0.624103423776896
40
0.65512928188865
40
0.686155140000403
40
0.717180998112157
40
0.74820685622391
40
0.779232714335664
40
0.810258572447417
40
0.841284430559171
40
0.872310288670924
40
0.903336146782678
40
0.934362004894431
40
0.965387863006185
40
0.996413721117938
40
1
40
1
40
1
40
1
41
1
10
-2.20000000000005
20
-10.2416915120114
30
0
41
1
10
-2.20000000000005
20
-10.2098170446198
30
0
41
1
10
-2.20000000000005
20
-9.90198508683847
30
0
41
1
10
-2.20000000000005
20
-9.3149808480191
30
0
41
1
10
-2.20000000000005
20
-8.48421552667966
30
0
41
1
10
-2.20000000000005
20
-7.66447545612931
30
0
41
1
10
-2.20000000000005
20
-6.86437716583347
30
0
41
1
10
-2.20000000000005
20
-6.09147129549578
30
0
41
1
10
-2.20000000000005
20
-5.35199475664402
30
0
41
1
10
-2.20000000000005
20
-4.6506671110304
30
0
41
1
10
-2.20000000000005
20
-3.99054255831777
30
0
41
1
10
-2.20000000000005
20
-3.37292400688881
30
0
41
1
10
-2.20000000000005
20
-2.79733805829036
30
0
41
1
10
-2.20000000000005
20
-2.26158054799637
30
0
41
1
10
-2.20000000000005
20
-1.76181929549949
30
0
41
1
10
-2.20000000000005
20
-1.29276519791185
30
0
41
1
10
-2.20000000000005
20
-0.847888335032877
30
0
41
1
10
-2.20000000000005
20
-0.419689842123091
30
0
41
1
10
-2.20000000000005
20
8.86504949E-08
30
0
41
1
10
-2.20000000000005
20
0.419689487520998
30
0
41
1
10
-2.20000000000005
20
0.847888498250114
30
0
41
1
10
-2.20000000000005
20
1.29276489964477
30
0
41
1
10
-2.20000000000005
20
1.7618194185427
30
0
41
1
10
-2.20000000000005
20
2.26158035409029
30
0
41
1
10
-2.20000000000005
20
2.79733812098013
30
0
41
1
10
-2.20000000000005
20
3.37292395003561
30
0
41
1
10
-2.20000000000005
20
3.99054254934384
30
0
41
1
10
-2.20000000000005
20
4.65066720377908
30
0
41
1
10
-2.20000000000005
20
5.35199467517899
30
0
41
1
10
-2.20000000000005
20
6.091471528607
30
0
41
1
10
-2.20000000000005
20
6.86437702157369
30
0
41
1
10
-2.20000000000005
20
7.66447580005692
30
0
41
1
10
-2.20000000000005
20
8.48421533830793
30
0
41
1
10
-2.20000000000005
20
9.31498125757835
30
0
41
1
10
-2.20000000000005
20
9.90198521620599
30
0
41
1
10
-2.20000000000005
20
10.2098173562794
30
0
41
1
10
-2.20000000000005
20
10.2416919827174
30
0
0
SPLINE
5
120
100
AcDbEntity
8
SK1
62
256
6
ByLayer
370
-1
48
1
60
0
100
AcDbSpline
70
4
71
3
72
10
73
6
40
0
40
0
40
0
40
0
40
0.5
40
0.5
40
1
40
1
40
1
40
1
41
1
10
-1.30710678118658
20
3.80474436172742
30
0
41
1
10
-1.52921682270318
20
2.59907728352434
30
0
41
1
10
-1.70909405340865
20
1.31281235086666
30
0
41
1
10
-1.70963179300867
20
-1.30649832374493
30
0
41
1
10
-1.52966155970608
20
-2.5966617696443
30
0
41
1
10
-1.30710678118663
20
-3.80474664113297
30
0
0
SPLINE
5
121
100
AcDbEntity
8
SK1
62
256
6
ByLayer
370
-1
48
1
60
0
100
AcDbSpline
70
4
71
3
72
14
73
10
40
0
40
0
40
0
40
0
40
0.134730002443746
40
0.287068852257179
40
0.439407702070613
40
0.591746551884047
40
0.744085401697481
40
0.896424251510915
40
1
40
1
40
1
40
1
41
1
10
-2.20000000000005
20
10.2416919827174
30
0
41
1
10
-2.20000000000005
20
10.4855732775987
30
0
41
1
10
-2.20000000000005
20
11.0026050713442
30
0
41
1
10
-2.20000000000005
20
11.777504870163
30
0
41
1
10
-2.20000000000005
20
12.5554386011843
30
0
41
1
10
-2.20000000000005
20
13.2960633878308
30
0
41
1
10
-2.20000000000005
20
13.9908994853336
30
0
41
1
10
-2.20000000000005
20
14.5640747934535
30
0
41
1
10
-2.20000000000005
20
14.8954704523378
30
0
41
1
10
-2.20000000000005
20
15.0247809138972
30
0
0
SPLINE
5
122
100
AcDbEntity
8
SK1
62
256
6
ByLayer
370
-1
48
1
60
0
100
AcDbSpline
70
4
71
3
72
20
73
16
40
0
40
0
40
0
40
0
40
0.0482625705630821
40
0.0482625705630821
40
0.325220898600871
40
0.325220898600871
40
0.463381471375242
40
0.463381471375242
40
0.601551524429024
40
0.601551524429024
40
0.739735425197376
40
0.739735425197376
40
0.87793960350904
40
0.87793960350904
40
1
40
1
40
1
40
1
41
1
10
-2.19999999999999
20
15.024780913897
30
0
41
1
10
-2.19999999999999
20
15.0987632316058
30
0
41
1
10
-2.19999999163144
20
15.1713153633957
30
0
41
1
10
-2.19999985652709
20
15.6498272161843
30
0
41
1
10
-2.19999939887509
20
16.0101821224506
30
0
41
1
10
-2.19999683011554
20
16.4712024133173
30
0
41
1
10
-2.19999564996834
20
16.6117543332689
30
0
41
1
10
-2.19999230715831
20
16.8650200442632
30
0
41
1
10
-2.19999013861343
20
16.9778482087754
30
0
41
1
10
-2.19998437020206
20
17.1737303581388
30
0
41
1
10
-2.19998076728285
20
17.2568757984567
30
0
41
1
10
-2.19997155592222
20
17.390896629152
30
0
41
1
10
-2.19996594630391
20
17.4418577268988
30
0
41
1
10
-2.19995283284749
20
17.5043876537375
30
0
41
1
10
-2.19994561248382
20
17.5199107584762
30
0
41
1
10
-2.19993704319944
20
17.5200998959624
30
0
0
SPLINE
5
123
100
AcDbEntity
8
SK1
62
256
6
ByLayer
370
-1
48
1
60
0
100
AcDbSpline
70
4
71
3
72
20
73
16
40
0
40
0
40
0
40
0
40
0.107709859730122
40
0.107709859730122
40
0.254805889945515
40
0.254805889945515
40
0.401872722914623
40
0.401872722914623
40
0.548920274148804
40
0.548920274148804
40
0.6959550767156
40
0.6959550767156
40
0.842981467919629
40
0.842981467919629
40
1
40
1
40
1
40
1
41
1
10
-2.19993655780451
20
-17.5200998571235
30
0
41
1
10
-2.19994418187713
20
-17.5204461970879
30
0
41
1
10
-2.19995074650438
20
-17.5087568436285
30
0
41
1
10
-2.19996422500265
20
-17.4552443316022
30
0
41
1
10
-2.19997041029711
20
-17.4038992989506
30
0
41
1
10
-2.19998045819511
20
-17.2645372816575
30
0
41
1
10
-2.19998432672412
20
-17.1764163911093
30
0
41
1
10
-2.19999043378135
20
-16.9665639550929
30
0
41
1
10
-2.19999267824221
20
-16.8447172876608
30
0
41
1
10
-2.19999607391787
20
-16.569798663462
30
0
41
1
10
-2.1999972302832
20
-16.4165791409565
30
0
41
1
10
-2.19999885859687
20
-16.0808080953317
30
0
41
1
10
-2.19999933084273
20
-15.8980848535623
30
0
41
1
10
-2.19999991533382
20
-15.4916218225697
30
0
41
1
10
-2.19999999999999
20
-15.2657541717873
30
0
41
1
10
-2.19999999999999
20
-15.0247808645654
30
0
0
SPLINE
5
124
100
AcDbEntity
8
SK1
62
256
6
ByLayer
370
-1
48
1
60
0
100
AcDbSpline
70
4
71
3
72
22
73
18
40
0
40
0
40
0
40
0
40
0.352684316750051
40
0.352684316750051
40
0.750046292484899
40
0.750046292484899
40
0.835479263400861
40
0.835479263400861
40
0.86935277413835
40
0.86935277413835
40
0.903637365464604
40
0.903637365464604
40
0.934112944215775
40
0.934112944215775
40
0.983611230456553
40
0.983611230456553
40
1
40
1
40
1
40
1
41
1
10
-1.30710678118658
20
3.80474436172742
30
0
41
1
10
-1.26637440296071
20
4.02584957204775
30
0
41
1
10
-1.21786346361694
20
4.24386265362048
30
0
41
1
10
-1.08311917044625
20
4.69265802851214
30
0
41
1
10
-1.00360006874376
20
4.93633956823067
30
0
41
1
10
-0.8033447497628
20
5.16879396055813
30
0
41
1
10
-0.761021311877812
20
5.20853400127967
30
0
41
1
10
-0.689167148695731
20
5.24561851051851
30
0
41
1
10
-0.666676206231386
20
5.25408214518689
30
0
41
1
10
-0.619919785859736
20
5.26355270960357
30
0
41
1
10
-0.595012690956537
20
5.26445496143654
30
0
41
1
10
-0.549926195162811
20
5.25839930645884
30
0
41
1
10
-0.529028206588009
20
5.25231844804927
30
0
41
1
10
-0.478237300450644
20
5.2307965704984
30
0
41
1
10
-0.449806665426422
20
5.21177878736736
30
0
41
1
10
-0.416050679082105
20
5.18357602352128
30
0
41
1
10
-0.407890864165267
20
5.17622805658175
30
0
41
1
10
-0.400000000000034
20
5.16866682996363
30
0
0
SPLINE
5
125
100
AcDbEntity
8
SK1
62
256
6
ByLayer
370
-1
48
1
60
0
100
AcDbSpline
70
4
71
3
72
79
73
75
40
0
40
0
40
0
40
0
40
0.0074030719680451
40
0.0214772709933054
40
0.0355514700185658
40
0.0496256690438261
40
0.0636998680690865
40
0.0777740670943468
40
0.0918482661196071
40
0.105922465144868
40
0.119996664170128
40
0.134070863195388
40
0.148145062220648
40
0.162219261245909
40
0.176293460271169
40
0.190367659296429
40
0.20444185832169
40
0.21851605734695
40
0.232590256372211
40
0.246664455397471
40
0.260738654422731
40
0.274812853447992
40
0.288887052473252
40
0.302961251498512
40
0.317035450523773
40
0.331109649549033
40
0.345183848574293
40
0.359258047599553
40
0.373332246624814
40
0.387406445650074
40
0.401480644675335
40
0.415554843700595
40
0.429629042725855
40
0.443703241751115
40
0.457777440776376
40
0.471851639801636
40
0.485925838826897
40
0.500000037852157
40
0.514074236877417
40
0.528148435902678
40
0.542222634927938
40
0.556296833953198
40
0.570371032978459
40
0.584445232003719
40
0.598519431028979
40
0.61259363005424
40
0.6266678290795
40
0.64074202810476
40
0.654816227130021
40
0.668890426155281
40
0.682964625180541
40
0.697038824205802
40
0.711113023231062
40
0.725187222256322
40
0.739261421281583
40
0.753335620306843
40
0.767409819332103
40
0.781484018357364
40
0.795558217382624
40
0.809632416407884
40
0.823706615433145
40
0.837780814458405
40
0.851855013483665
40
0.865929212508926
40
0.880003411534186
40
0.894077610559446
40
0.908151809584707
40
0.922226008609967
40
0.936300207635227
40
0.950374406660488
40
0.964448605685748
40
0.978522804711008
40
0.992597003736269
40
1
40
1
40
1
40
1
41
1
10
-2
20
17.1116144542389
30
0
41
1
10
-2
20
17.1306737735355
30
0
41
1
10
-2
20
17.1831798973923
30
0
41
1
10
-2
20
17.2550395308993
30
0
41
1
10
-2
20
17.3112459497451
30
0
41
1
10
-2
20
17.3321089735132
30
0
41
1
10
-2
20
17.3112189889209
30
0
41
1
10
-2
20
17.2422674474922
30
0
41
1
10
-2
20
17.1193484069474
30
0
41
1
10
-2
20
16.9372587367204
30
0
41
1
10
-2
20
16.6917602356259
30
0
41
1
10
-2
20
16.3798174953022
30
0
41
1
10
-2
20
15.9997825770269
30
0
41
1
10
-2
20
15.5515337348698
30
0
41
1
10
-2
20
15.0365499649754
30
0
41
1
10
-2
20
14.4579280405673
30
0
41
1
10
-2
20
13.8203335391023
30
0
41
1
10
-2
20
13.1298914527523
30
0
41
1
10
-2
20
12.39401945775
30
0
41
1
10
-2
20
11.6212068879994
30
0
41
1
10
-2
20
10.8207542384819
30
0
41
1
10
-2
20
10.00247262006
30
0
41
1
10
-2
20
9.17636811026827
30
0
41
1
10
-2
20
8.35230629219913
30
0
41
1
10
-2
20
7.53968883941312
30
0
41
1
10
-2
20
6.74713346409783
30
0
41
1
10
-2
20
5.98219169787032
30
0
41
1
10
-2
20
5.25109264883253
30
0
41
1
10
-2
20
4.55854550233684
30
0
41
1
10
-2
20
3.90758262960779
30
0
41
1
10
-2
20
3.29948777527221
30
0
41
1
10
-2
20
2.73375387844547
30
0
41
1
10
-2
20
2.20813463136872
30
0
41
1
10
-2
20
1.71876156390923
30
0
41
1
10
-2
20
1.26029526086333
30
0
41
1
10
-2
20
0.826158476850765
30
0
41
1
10
-2
20
0.408799134273892
30
0
41
1
10
-2
20
2.402494488E-07
30
0
41
1
10
-2
20
-0.408799553455736
30
0
41
1
10
-2
20
-0.82615842677356
30
0
41
1
10
-2
20
-1.26029551010325
30
0
41
1
10
-2
20
-1.71876142586774
30
0
41
1
10
-2
20
-2.20813448047156
30
0
41
1
10
-2
20
-2.7337537633878
30
0
41
1
10
-2
20
-3.29948825001514
30
0
41
1
10
-2
20
-3.90758266192117
30
0
41
1
10
-2
20
-4.55854530449344
30
0
41
1
10
-2
20
-5.25109273249788
30
0
41
1
10
-2
20
-5.98219146197602
30
0
41
1
10
-2
20
-6.74713361247495
30
0
41
1
10
-2
20
-7.53968849279406
30
0
41
1
10
-2
20
-8.35230648563552
30
0
41
1
10
-2
20
-9.17636769820604
30
0
41
1
10
-2
20
-10.0024728331477
30
0
41
1
10
-2
20
-10.8207538150476
30
0
41
1
10
-2
20
-11.6212070931939
30
0
41
1
10
-2
20
-12.3940190774915
30
0
41
1
10
-2
20
-13.1298916243886
30
0
41
1
10
-2
20
-13.8203332490725
30
0
41
1
10
-2
20
-14.4579281585871
30
0
41
1
10
-2
20
-15.0365497976464
30
0
41
1
10
-2
20
-15.5515337877379
30
0
41
1
10
-2
20
-15.9997825456108
30
0
41
1
10
-2
20
-16.379817481596
30
0
41
1
10
-2
20
-16.6917603323907
30
0
41
1
10
-2
20
-16.9372586651848
30
0
41
1
10
-2
20
-17.1193485969266
30
0
41
1
10
-2
20
-17.2422669751987
30
0
41
1
10
-2
20
-17.3112199736996
30
0
41
1
10
-2
20
-17.3321088799281
30
0
41
1
10
-2
20
-17.3112453434672
30
0
41
1
10
-2
20
-17.2550397180126
30
0
41
1
10
-2
20
-17.1831802766266
30
0
41
1
10
-2
20
-17.1306742506466
30
0
41
1
10
-2
20
-17.1116151100673
30
0
0
SPLINE
5
126
100
AcDbEntity
8
SK1
62
256
6
ByLayer
370
-1
48
1
60
0
100
AcDbSpline
70
4
71
3
72
22
73
18
40
0
40
0
40
0
40
0
40
0.0434921783994969
40
0.0434921783994969
40
0.0876860403067026
40
0.0876860403067026
40
0.118952127699588
40
0.118952127699588
40
0.1501558424283
40
0.1501558424283
40
0.196307791916001
40
0.196307791916001
40
0.283435745194102
40
0.283435745194102
40
0.579041181948967
40
0.579041181948967
40
1
40
1
40
1
40
1
41
1
10
-0.400000000000034
20
-5.16866679574528
30
0
41
1
10
-0.420550053748514
20
-5.18835839085108
30
0
41
1
10
-0.443027188827387
20
-5.20675192843447
30
0
41
1
10
-0.492732016073376
20
-5.23775963373393
30
0
41
1
10
-0.520750465867991
20
-5.25056923469424
30
0
41
1
10
-0.57132317141145
20
-5.26230651341535
30
0
41
1
10
-0.593569294960218
20
-5.26418855716773
30
0
41
1
10
-0.636876257397887
20
-5.26111275520464
30
0
41
1
10
-0.658413974519078
20
-5.25617334660447
30
0
41
1
10
-0.708019059178241
20
-5.23795018495881
30
0
41
1
10
-0.73522293133459
20
-5.22174262348992
30
0
41
1
10
-0.805307091704549
20
-5.16870577827882
30
0
41
1
10
-0.843008552736933
20
-5.12565182749091
30
0
41
1
10
-0.98697835479976
20
-4.93030734845306
30
0
41
1
10
-1.05565821402411
20
-4.75512394253201
30
0
41
1
10
-1.19912511806342
20
-4.32976589005261
30
0
41
1
10
-1.25838015422249
20
-4.06924736884375
30
0
41
1
10
-1.30710678118658
20
-3.80474664113271
30
0
0
SPLINE
5
127
100
AcDbEntity
8
1
62
256
6
ByLayer
370
-1
48
1
60
0
100
AcDbSpline
70
4
71
3
72
18
73
14
40
0
40
0
40
0
40
0
40
0.201235156851784
40
0.201235156851784
40
0.37736892925704
40
0.37736892925704
40
0.55531575764942
40
0.55531575764942
40
0.708717697305654
40
0.708717697305654
40
0.9096159101365
40
0.9096159101365
40
1
40
1
40
1
40
1
41
1
10
64.738030760015
20
7.22370633319002
30
0
41
1
10
64.7712829205033
20
7.16145156287485
30
0
41
1
10
64.8142616763524
20
7.10260955302573
30
0
41
1
10
64.9112442610065
20
7.00675673753392
30
0
41
1
10
64.9644406968249
20
6.96697976545653
30
0
41
1
10
65.0812778283996
20
6.90555158705226
30
0
41
1
10
65.1468847565931
20
6.88338771168605
30
0
41
1
10
65.2693907154885
20
6.86340944906866
30
0
41
1
10
65.3276919673011
20
6.86232067161714
30
0
41
1
10
65.4560185026307
20
6.87673383478159
30
0
41
1
10
65.5263062963745
20
6.89743971301485
30
0
41
1
10
65.6190327679529
20
6.94058848646696
30
0
41
1
10
65.6469494311694
20
6.95601339157082
30
0
41
1
10
65.6735789425065
20
6.97309474053353
30
0
0
SPLINE
5
128
100
AcDbEntity
8
1
62
256
6
ByLayer
370
-1
48
1
60
0
100
AcDbSpline
70
4
71
3
72
18
73
14
40
0
40
0
40
0
40
0
40
0.0307872049324674
40
0.0307872049324674
40
0.254346214077831
40
0.254346214077831
40
0.47884643825576
40
0.47884643825576
40
0.716297036456396
40
0.716297036456396
40
0.976210541784127
40
0.976210541784127
40
1
40
1
40
1
40
1
41
1
10
66.4628676146846
20
5.33895370866321
30
0
41
1
10
66.4639231826814
20
5.34291451599421
30
0
41
1
10
66.4648936756329
20
5.34689335883465
30
0
41
1
10
66.4721299039467
20
5.37956195262487
30
0
41
1
10
66.4739620533242
20
5.40928536108322
30
0
41
1
10
66.4686139141525
20
5.46609789462954
30
0
41
1
10
66.4613493295396
20
5.49390406305801
30
0
41
1
10
66.4388003398763
20
5.5457197995016
30
0
41
1
10
66.4228236529528
20
5.57007999276792
30
0
41
1
10
66.3833810187309
20
5.61334616977933
30
0
41
1
10
66.3588817910641
20
5.63208476391478
30
0
41
1
10
66.3300746419583
20
5.64737611013374
30
0
41
1
10
66.3276176119273
20
5.64863233239194
30
0
41
1
10
66.3251434668742
20
5.64985003751116
30
0
0
SPLINE
5
129
100
AcDbEntity
8
1
62
256
6
ByLayer
370
-1
48
1
60
0
100
AcDbSpline
70
4
71
3
72
12
73
8
40
0
40
0
40
0
40
0
40
0.306837185055339
40
0.306837185055339
40
0.771700852503451
40
0.771700852503451
40
1
40
1
40
1
40
1
41
1
10
64.0461366394916
20
6.63363544519453
30
0
41
1
10
64.0767346192399
20
6.67306600669346
30
0
41
1
10
64.1029608787582
20
6.71636808973989
30
0
41
1
10
64.1555995903902
20
6.82838120021549
30
0
41
1
10
64.1761508562094
20
6.90047039279531
30
0
41
1
10
64.190930310721
20
7.00690837086603
30
0
41
1
10
64.1933054141716
20
7.04231932788107
30
0
41
1
10
64.1932824188052
20
7.07741161019683
30
0
0
SPLINE
5
12A
100
AcDbEntity
8
1
62
256
6
ByLayer
370
-1
48
1
60
0
100
AcDbSpline
70
4
71
3
72
18
73
14
40
0
40
0
40
0
40
0
40
0.201104904538128
40
0.201104904538128
40
0.377262294672761
40
0.377262294672761
40
0.555234253757408
40
0.555234253757408
40
0.708641854357827
40
0.708641854357827
40
0.909517842320575
40
0.909517842320575
40
1
40
1
40
1
40
1
41
1
10
66.0724252430094
20
6.57757981689883
30
0
41
1
10
66.0386549371742
20
6.51532119872687
30
0
41
1
10
66.0125485803079
20
6.44658184336336
30
0
41
1
10
65.9832537209705
20
6.31166722959239
30
0
41
1
10
65.9774538029379
20
6.24466144607965
30
0
41
1
10
65.98523419214
20
6.11194240937678
30
0
41
1
10
65.9993428661193
20
6.04429604873019
30
0
41
1
10
66.0425330297486
20
5.92997939913082
30
0
41
1
10
66.0697177637805
20
5.88028861623619
30
0
41
1
10
66.1429496215296
20
5.78021775026528
30
0
41
1
10
66.193284859699
20
5.73248066254439
30
0
41
1
10
66.2726165342895
20
5.67804259314514
30
0
41
1
10
66.2985055536209
20
5.66296047470786
30
0
41
1
10
66.3251434668742
20
5.64985003751116
30
0
0
SPLINE
5
12B
100
AcDbEntity
8
1
62
256
6
ByLayer
370
-1
48
1
60
0
100
AcDbSpline
70
4
71
3
72
16
73
12
40
0
40
0
40
0
40
0
40
0.0305977758793378
40
0.0305977758793378
40
0.25399982791115
40
0.25399982791115
40
0.478332648530214
40
0.478332648530214
40
0.715598553031361
40
0.715598553031361
40
1
40
1
40
1
40
1
41
1
10
63.6575619500952
20
4.59131455223206
30
0
41
1
10
63.6604706207538
20
4.58843017634103
30
0
41
1
10
63.6634409878954
20
4.58560050624487
30
0
41
1
10
63.6883433694649
20
4.56281061122041
30
0
41
1
10
63.7136100234025
20
4.54568358683201
30
0
41
1
10
63.7667446281502
20
4.51967313705902
30
0
41
1
10
63.7952927134927
20
4.51047294936882
30
0
41
1
10
63.8534435441671
20
4.50012583675331
30
0
41
1
10
63.883737037105
20
4.4993144329045
30
0
41
1
10
63.9465434440392
20
4.5064722847377
30
0
41
1
10
63.9792584366151
20
4.51627102898075
30
0
41
1
10
64.008105167496
20
4.53052747435538
30
0
0
SPLINE
5
12C
100
AcDbEntity
8
1
62
256
6
ByLayer
370
-1
48
1
60
0
100
AcDbSpline
70
4
71
3
72
16
73
12
40
0
40
0
40
0
40
0
40
0.0548413596877517
40
0.0548413596877517
40
0.27781270504603
40
0.27781270504603
40
0.503117027284584
40
0.503117027284584
40
0.742499876538566
40
0.742499876538566
40
1
40
1
40
1
40
1
41
1
10
63.2212853727247
20
6.19288790410755
30
0
41
1
10
63.2194097008656
20
6.18584982141465
30
0
41
1
10
63.2177993220609
20
6.17871776378669
30
0
41
1
10
63.211066091979
20
6.14252046666664
30
0
41
1
10
63.2101612946708
20
6.11208473957026
30
0
41
1
10
63.2171300117305
20
6.05295726935898
30
0
41
1
10
63.2251611977112
20
6.0235318452616
30
0
41
1
10
63.2490962348172
20
5.96769286777246
30
0
41
1
10
63.2657315632233
20
5.94087105443356
30
0
41
1
10
63.3059330668982
20
5.89250467032335
30
0
41
1
10
63.3303881921201
20
5.87090202387122
30
0
41
1
10
63.3565406431283
20
5.8537721773784
30
0
0
SPLINE
5
12D
100
AcDbEntity
8
1
62
256
6
ByLayer
370
-1
48
1
60
0
100
AcDbSpline
70
4
71
3
72
18
73
14
40
0
40
0
40
0
40
0
40
0.210528595311072
40
0.210528595311072
40
0.384988270557528
40
0.384988270557528
40
0.561152262666595
40
0.561152262666595
40
0.714174713231836
40
0.714174713231836
40
0.916677781058688
40
0.916677781058688
40
1
40
1
40
1
40
1
41
1
10
64.943653349988
20
4.2799158816992
30
0
41
1
10
64.9080363825117
20
4.33560524030781
30
0
41
1
10
64.861770984063
20
4.38812991835016
30
0
41
1
10
64.760050707293
20
4.47146098739188
30
0
41
1
10
64.7062694473408
20
4.50529594839799
30
0
41
1
10
64.5891182089844
20
4.55895113509322
30
0
41
1
10
64.5238366062067
20
4.57929765122137
30
0
41
1
10
64.402236813229
20
4.60069003149331
30
0
41
1
10
64.3444294125349
20
4.60424002005317
30
0
41
1
10
64.2168288130074
20
4.59835665962564
30
0
41
1
10
64.1469686440146
20
4.58445114619141
30
0
41
1
10
64.0576174580424
20
4.55314655524879
30
0
41
1
10
64.0323127491262
20
4.54249118929371
30
0
41
1
10
64.008105167496
20
4.53052747435538
30
0
0
SPLINE
5
12E
100
AcDbEntity
8
1
62
256
6
ByLayer
370
-1
48
1
60
0
100
AcDbSpline
70
4
71
3
72
20
73
16
40
0
40
0
40
0
40
0
40
0.0816652481132153
40
0.0816652481132153
40
0.282609525168968
40
0.282609525168968
40
0.444994215109797
40
0.444994215109797
40
0.60822757482527
40
0.60822757482527
40
0.760563859297225
40
0.760563859297225
40
0.97641045005928
40
0.97641045005928
40
1
40
1
40
1
40
1
41
1
10
63.6092588669937
20
4.9260423979905
30
0
41
1
10
63.6227077619168
20
4.94775103795953
30
0
41
1
10
63.6348597752409
20
4.97053483102539
30
0
41
1
10
63.6717173633921
20
5.05241854249803
30
0
41
1
10
63.689411608957
20
5.11749335029296
30
0
41
1
10
63.7008281468949
20
5.24185388032163
30
0
41
1
10
63.6984630533286
20
5.30127489872962
30
0
41
1
10
63.6773444780439
20
5.41934179835189
30
0
41
1
10
63.65815001187
20
5.47952578304273
30
0
41
1
10
63.6081214042764
20
5.58730749434795
30
0
41
1
10
63.5776606755243
20
5.63676764127115
30
0
41
1
10
63.4950923060496
20
5.74333034420809
30
0
41
1
10
63.4379425708431
20
5.79708594646144
30
0
41
1
10
63.3702062369414
20
5.84466228304609
30
0
41
1
10
63.3633999857743
20
5.84927931028423
30
0
41
1
10
63.3565406431283
20
5.8537721773784
30
0
0
SPLINE
5
12F
100
AcDbEntity
8
1
62
256
6
ByLayer
370
-1
48
1
60
0
100
AcDbSpline
70
4
71
3
72
12
73
8
40
0
40
0
40
0
40
0
40
0.320361798432079
40
0.320361798432079
40
0.788625062732644
40
0.788625062732644
40
1
40
1
40
1
40
1
41
1
10
65.6318669282696
20
4.82791797936625
30
0
41
1
10
65.6000051166681
20
4.78816300799022
30
0
41
1
10
65.5730442996936
20
4.74554088577531
30
0
41
1
10
65.521156502559
20
4.63983575430217
30
0
41
1
10
65.5018795927753
20
4.57463793222445
30
0
41
1
10
65.489643958091
20
4.48256548502914
30
0
41
1
10
65.4879804641445
20
4.45397383004916
30
0
41
1
10
65.4883622782789
20
4.42576011296697
30
0
0
SPLINE
5
130
100
AcDbEntity
8
1
62
256
6
ByLayer
370
-1
48
1
60
0
100
AcDbSpline
70
4
71
3
72
14
73
10
40
0
40
0
40
0
40
0
40
0.277220362785292
40
0.277220362785292
40
0.564390440061468
40
0.564390440061468
40
0.82423857860044
40
0.82423857860044
40
1
40
1
40
1
40
1
41
1
10
64.7380307600151
20
7.22370633319008
30
0
41
1
10
64.7218365362076
20
7.25402519574706
30
0
41
1
10
64.7002577333742
20
7.28230407400938
30
0
41
1
10
64.6477893332494
20
7.33043810374582
30
0
41
1
10
64.6157277587122
20
7.35065376117157
30
0
41
1
10
64.5496925589064
20
7.37578307778071
30
0
41
1
10
64.5151724265414
20
7.38229023627889
30
0
41
1
10
64.4577053977735
20
7.38214580767064
30
0
41
1
10
64.434155009321
20
7.3790984863092
30
0
41
1
10
64.4115204943987
20
7.37316688453362
30
0
0
SPLINE
5
131
100
AcDbEntity
8
1
62
256
6
ByLayer
370
-1
48
1
60
0
100
AcDbSpline
70
4
71
3
72
14
73
10
40
0
40
0
40
0
40
0
40
0.27927247595073
40
0.27927247595073
40
0.564367643029503
40
0.564367643029503
40
0.822284161088617
40
0.822284161088617
40
1
40
1
40
1
40
1
41
1
10
63.5038250389339
20
6.39372143962535
30
0
41
1
10
63.4707759218495
20
6.39618353785062
30
0
41
1
10
63.436665193245
20
6.39278047204604
30
0
41
1
10
63.3713302507542
20
6.37331216671919
30
0
41
1
10
63.3391851790004
20
6.35661831125503
30
0
41
1
10
63.2865069950428
20
6.31350537834459
30
0
41
1
10
63.2644020454087
20
6.2874642489287
30
0
41
1
10
63.2364299443191
20
6.23795236721253
30
0
41
1
10
63.2273896270887
20
6.2157928950756
30
0
41
1
10
63.2212853727247
20
6.19288790410755
30
0
0
SPLINE
5
132
100
AcDbEntity
8
1
62
256
6
ByLayer
370
-1
48
1
60
0
100
AcDbSpline
70
4
71
3
72
18
73
14
40
0
40
0
40
0
40
0
40
0.0046140450533463
40
0.0046140450533463
40
0.226878537630411
40
0.226878537630411
40
0.448547402321868
40
0.448547402321868
40
0.681802019403313
40
0.681802019403313
40
0.936370324173695
40
0.936370324173695
40
1
40
1
40
1
40
1
41
1
10
65.2726324930106
20
4.15867472823717
30
0
41
1
10
65.2732386967568
20
4.15883359001219
30
0
41
1
10
65.2738443743219
20
4.15899426584215
30
0
41
1
10
65.3031998580066
20
4.16687654231248
30
0
41
1
10
65.3310633025924
20
4.17891885517085
30
0
41
1
10
65.3804771296744
20
4.20937634508621
30
0
41
1
10
65.4026891174314
20
4.22814848389652
30
0
41
1
10
65.4402858858292
20
4.2705946625436
30
0
41
1
10
65.4557483518379
20
4.29498792571749
30
0
41
1
10
65.478727371501
20
4.34743562023391
30
0
41
1
10
65.4857096248375
20
4.37626583007096
30
0
41
1
10
65.4882525741942
20
4.41158970198464
30
0
41
1
10
65.4884578849396
20
4.41869536854426
30
0
41
1
10
65.4883622782789
20
4.42576011296697
30
0
0
SPLINE
5
133
100
AcDbEntity
8
1
62
256
6
ByLayer
370
-1
48
1
60
0
100
AcDbSpline
70
4
71
3
72
14
73
10
40
0
40
0
40
0
40
0
40
0.196218360874688
40
0.196218360874688
40
0.499608327413831
40
0.499608327413831
40
0.767611950409796
40
0.767611950409796
40
1
40
1
40
1
40
1
41
1
10
66.0724252430154
20
6.57757981689511
30
0
41
1
10
66.0840734734746
20
6.59905438499868
30
0
41
1
10
66.0935056444096
20
6.62221015073462
30
0
41
1
10
66.11043205665
20
6.68334864313789
30
0
41
1
10
66.114227478073
20
6.72370381311927
30
0
41
1
10
66.1065588442427
20
6.79803005814108
30
0
41
1
10
66.0966325053922
20
6.83332944201408
30
0
41
1
10
66.0670756085379
20
6.89289930762163
30
0
41
1
10
66.0484895974089
20
6.91881140888853
30
0
41
1
10
66.026591037314
20
6.9405270605387
30
0
0
SPLINE
5
134
100
AcDbEntity
8
1
62
256
6
ByLayer
370
-1
48
1
60
0
100
AcDbSpline
70
4
71
3
72
12
73
8
40
0
40
0
40
0
40
0
40
0.493436785433685
40
0.493436785433685
40
0.898719236025135
40
0.898719236025135
40
1
40
1
40
1
40
1
41
1
10
66.1778196581469
20
5.10945028353874
30
0
41
1
10
66.1063695913214
20
5.10512055253818
30
0
41
1
10
66.0325272684147
20
5.08995639662362
30
0
41
1
10
65.9020727756471
20
5.04157607702422
30
0
41
1
10
65.8433168663433
20
5.01139497814188
30
0
41
1
10
65.7757797850996
20
4.96468462920552
30
0
41
1
10
65.7624520264811
20
4.95481971505529
30
0
41
1
10
65.7494659229003
20
4.94453327575121
30
0
0
SPLINE
5
135
100
AcDbEntity
8
1
62
256
6
ByLayer
370
-1
48
1
60
0
100
AcDbSpline
70
4
71
3
72
14
73
10
40
0
40
0
40
0
40
0
40
0.201474544881132
40
0.201474544881132
40
0.498076983106111
40
0.498076983106111
40
0.765964110024294
40
0.765964110024294
40
1
40
1
40
1
40
1
41
1
10
64.9436533499862
20
4.27991588169832
30
0
41
1
10
64.9557169315682
20
4.26105371660049
30
0
41
1
10
64.9705517435699
20
4.24320810660419
30
0
41
1
10
65.0129895282642
20
4.2038159833659
30
0
41
1
10
65.0441589738575
20
4.18386754578003
30
0
41
1
10
65.1097934772178
20
4.15779964245067
30
0
41
1
10
65.1446844676069
20
4.15018885413656
30
0
41
1
10
65.2106350850565
20
4.1474156599939
30
0
41
1
10
65.2425301001048
20
4.15078609409494
30
0
41
1
10
65.2726324930106
20
4.15867472823717
30
0
0
SPLINE
5
136
100
AcDbEntity
8
1
62
256
6
ByLayer
370
-1
48
1
60
0
100
AcDbSpline
70
4
71
3
72
18
73
14
40
0
40
0
40
0
40
0
40
0.0576494227811308
40
0.0576494227811308
40
0.278484710855624
40
0.278484710855624
40
0.501821173106736
40
0.501821173106736
40
0.739259201908603
40
0.739259201908603
40
0.999889133767827
40
0.999889133767827
40
1
40
1
40
1
40
1
41
1
10
64.4115204943987
20
7.37316688453362
30
0
41
1
10
64.4039921663662
20
7.37119401062498
30
0
41
1
10
64.3965350345068
20
7.36890035528825
30
0
41
1
10
64.3612672444027
20
7.35641016523837
30
0
41
1
10
64.3345849620373
20
7.34179021569972
30
0
41
1
10
64.2875328625208
20
7.30558127296911
30
0
41
1
10
64.266624734158
20
7.28347353571755
30
0
41
1
10
64.2317550333315
20
7.2337113856575
30
0
41
1
10
64.2178529836547
20
7.20519112089698
30
0
41
1
10
64.198279899373
20
7.14393667687884
30
0
41
1
10
64.1932651081042
20
7.11030441102321
30
0
41
1
10
64.1932824011982
20
7.0774398714166
30
0
41
1
10
64.1932824095456
20
7.07742574077272
30
0
41
1
10
64.1932824188052
20
7.07741161019683
30
0
0
SPLINE
5
137
100
AcDbEntity
8
1
62
256
6
ByLayer
370
-1
48
1
60
0
100
AcDbSpline
70
4
71
3
72
14
73
10
40
0
40
0
40
0
40
0
40
0.245768594774793
40
0.245768594774793
40
0.535049699413335
40
0.535049699413335
40
0.796452411563394
40
0.796452411563394
40
1
40
1
40
1
40
1
41
1
10
66.1778196581469
20
5.10945028353854
30
0
41
1
10
66.2072613575593
20
5.11123439157817
30
0
41
1
10
66.237457109637
20
5.11737537492471
30
0
41
1
10
66.3006151048918
20
5.14036342067254
30
0
41
1
10
66.3341294637276
20
5.15937658682057
30
0
41
1
10
66.389562308988
20
5.20598538609747
30
0
41
1
10
66.4130910829662
20
5.23333717655561
30
0
41
1
10
66.4449681436166
20
5.28697547052028
30
0
41
1
10
66.4558796667409
20
5.31273283466433
30
0
41
1
10
66.4628676146846
20
5.33895370866321
30
0
0
SPLINE
5
138
100
AcDbEntity
8
1
62
256
6
ByLayer
370
-1
48
1
60
0
100
AcDbSpline
70
4
71
3
72
14
73
10
40
0
40
0
40
0
40
0
40
0.238449780276999
40
0.238449780276999
40
0.530476666951697
40
0.530476666951697
40
0.794359037438381
40
0.794359037438381
40
1
40
1
40
1
40
1
41
1
10
63.6092588669933
20
4.9260423979907
30
0
41
1
10
63.5954268997983
20
4.903715418888
30
0
41
1
10
63.5848483739185
20
4.87867749965977
30
0
41
1
10
63.5707357773641
20
4.8198607895776
30
0
41
1
10
63.5691798337124
20
4.78437775205444
30
0
41
1
10
63.5800424788383
20
4.71758451643313
30
0
41
1
10
63.5913593431227
20
4.68519065240719
30
0
41
1
10
63.6213619813046
20
4.63249732066623
30
0
41
1
10
63.638184373238
20
4.61053027724009
30
0
41
1
10
63.6575619500952
20
4.59131455223206
30
0
0
SPLINE
5
139
100
AcDbEntity
8
1
62
256
6
ByLayer
370
-1
48
1
60
0
100
AcDbSpline
70
4
71
3
72
12
73
8
40
0
40
0
40
0
40
0
40
0.469603578477374
40
0.469603578477374
40
0.879077396682314
40
0.879077396682314
40
1
40
1
40
1
40
1
41
1
10
63.5038250389339
20
6.39372143962527
30
0
41
1
10
63.5710404826609
20
6.38871401312352
30
0
41
1
10
63.6404020663882
20
6.39397506100039
30
0
41
1
10
63.7671211548608
20
6.42597727928981
30
0
41
1
10
63.8262923419055
20
6.45043535468284
30
0
41
1
10
63.8971845141146
20
6.49438631276371
30
0
41
1
10
63.9130975917624
20
6.50530806182402
30
0
41
1
10
63.9285376448607
20
6.51702014880945
30
0
0
SPLINE
5
13A
100
AcDbEntity
8
1
62
256
6
ByLayer
370
-1
48
1
60
0
100
AcDbSpline
70
4
71
3
72
18
73
14
40
0
40
0
40
0
40
0
40
0.0060585890289173
40
0.0060585890289173
40
0.23036022680323
40
0.23036022680323
40
0.454143716267381
40
0.454143716267381
40
0.689689745976217
40
0.689689745976217
40
0.946801282535491
40
0.946801282535491
40
1
40
1
40
1
40
1
41
1
10
66.026591037314
20
6.9405270605387
30
0
41
1
10
66.0260137439137
20
6.94109953207686
30
0
41
1
10
66.0254340098243
20
6.94166940284683
30
0
41
1
10
66.0035910012368
20
6.96295318131345
30
0
41
1
10
65.9787258915939
20
6.98032189683624
30
0
41
1
10
65.9261052711813
20
7.00571073964556
30
0
41
1
10
65.8976913224065
20
7.01409685629488
30
0
41
1
10
65.839567229113
20
7.02189076973849
30
0
41
1
10
65.8091431993635
20
7.02093188808658
30
0
41
1
10
65.7486609873705
20
7.00971452925225
30
0
41
1
10
65.7181281668608
20
6.99850748275531
30
0
41
1
10
65.6847710242586
20
6.98002405057619
30
0
41
1
10
65.6791139641639
20
6.97664514877229
30
0
41
1
10
65.6735789425065
20
6.9730947405335
30
0
0
LINE
5
49
100
AcDbEntity
8
80
62
256
6
ByLayer
370
-1
48
1
60
0
100
AcDbLine
10
0
20
0
30
0
11
-10
21
0
31
0
39
0
210
0
220
0
230
1
0
LINE
5
4A
100
AcDbEntity
8
81
62
256
6
ByLayer
370
-1
48
1
60
0
100
AcDbLine
10
70
20
10.9
30
0
11
80
21
10.9
31
0
39
0
210
0
220
0
230
1
0
LINE
5
4B
100
AcDbEntity
8
SK4
62
256
6
ByLayer
370
-1
48
0.05
60
0
100
AcDbLine
10
-35
20
0
30
0
11
75.401699
21
0
31
0
39
0
210
0
220
0
230
1
0
LINE
5
4D
100
AcDbEntity
8
4
62
256
6
ByLayer
370
-1
48
0.05
60
0
100
AcDbLine
10
0
20
0
30
0
11
105.401699
21
0
31
0
39
0
210
0
220
0
230
1
0
LINE
5
4F
100
AcDbEntity
8
1
62
256
6
ByLayer
370
-1
48
1
60
0
100
AcDbLine
10
0.3
20
25
30
0
11
0
21
24.7
31
0
39
0
210
0
220
0
230
1
0
LINE
5
50
100
AcDbEntity
8
1
62
256
6
ByLayer
370
-1
48
1
60
0
100
AcDbLine
10
0
20
-24.7
30
0
11
0.3
21
-25
31
0
39
0
210
0
220
0
230
1
0
LINE
5
51
100
AcDbEntity
8
1
62
256
6
ByLayer
370
-1
48
1
60
0
100
AcDbLine
10
19.5
20
-25
30
0
11
22.818182
21
-12.464645
31
0
39
0
210
0
220
0
230
1
0
LINE
5
52
100
AcDbEntity
8
1
62
256
6
ByLayer
370
-1
48
1
60
0
100
AcDbLine
10
22.818182
20
12.464645
30
0
11
19.5
21
25
31
0
39
0
210
0
220
0
230
1
0
LINE
5
53
100
AcDbEntity
8
1
62
256
6
ByLayer
370
-1
48
1
60
0
100
AcDbLine
10
19.5
20
25
30
0
11
0.3
21
25
31
0
39
0
210
0
220
0
230
1
0
LINE
5
54
100
AcDbEntity
8
1
62
256
6
ByLayer
370
-1
48
1
60
0
100
AcDbLine
10
0.3
20
-25
30
0
11
19.5
21
-25
31
0
39
0
210
0
220
0
230
1
0
LINE
5
55
100
AcDbEntity
8
1
62
256
6
ByLayer
370
-1
48
1
60
0
100
AcDbLine
10
40.45468
20
9.077143
30
0
11
39.025263
21
8
31
0
39
0
210
0
220
0
230
1
0
LINE
5
56
100
AcDbEntity
8
1
62
256
6
ByLayer
370
-1
48
1
60
0
100
AcDbLine
10
39.025263
20
-8
30
0
11
39.156637
21
-8.098997
31
0
39
0
210
0
220
0
230
1
0
LINE
5
57
100
AcDbEntity
8
1
62
256
6
ByLayer
370
-1
48
1
60
0
100
AcDbLine
10
39.025263
20
8
30
0
11
28.618414
21
8
31
0
39
0
210
0
220
0
230
1
0
LINE
5
58
100
AcDbEntity
8
1
62
256
6
ByLayer
370
-1
48
1
60
0
100
AcDbLine
10
28.618414
20
-8
30
0
11
39.025263
21
-8
31
0
39
0
210
0
220
0
230
1
0
LINE
5
59
100
AcDbEntity
8
1
62
256
6
ByLayer
370
-1
48
1
60
0
100
AcDbLine
10
58.127116
20
-1.88971
30
0
11
58.173269
21
-1.362174
31
0
39
0
210
0
220
0
230
1
0
LINE
5
5A
100
AcDbEntity
8
1
62
256
6
ByLayer
370
-1
48
1
60
0
100
AcDbLine
10
65.490553
20
4.484908
30
0
11
65.481225
21
4.378291
31
0
39
0
210
0
220
0
230
1
0
LINE
5
5B
100
AcDbEntity
8
1
62
256
6
ByLayer
370
-1
48
1
60
0
100
AcDbLine
10
67.441224
20
5.355818
30
0
11
67.453967
21
5.501464
31
0
39
0
210
0
220
0
230
1
0
LINE
5
5C
100
AcDbEntity
8
1
62
256
6
ByLayer
370
-1
48
1
60
0
100
AcDbLine
10
62.223944
20
5.959031
30
0
11
62.211202
21
5.813386
31
0
39
0
210
0
220
0
230
1
0
LINE
5
5D
100
AcDbEntity
8
1
62
256
6
ByLayer
370
-1
48
1
60
0
100
AcDbLine
10
63.682471
20
5.034704
30
0
11
63.695963
21
5.188919
31
0
39
0
210
0
220
0
230
1
0
LINE
5
5E
100
AcDbEntity
8
1
62
256
6
ByLayer
370
-1
48
1
60
0
100
AcDbLine
10
65.982933
20
6.282834
30
0
11
65.969389
21
6.128024
31
0
39
0
210
0
220
0
230
1
0
LINE
5
5F
100
AcDbEntity
8
1
62
256
6
ByLayer
370
-1
48
1
60
0
100
AcDbLine
10
64.175838
20
6.843918
30
0
11
64.190372
21
7.010034
31
0
39
0
210
0
220
0
230
1
0
LINE
5
60
100
AcDbEntity
8
1
62
256
6
ByLayer
370
-1
48
1
60
0
100
AcDbLine
10
60.140035
20
0.751316
30
0
11
60.304883
21
0.673107
31
0
39
0
210
0
220
0
230
1
0
LINE
5
61
100
AcDbEntity
8
1
62
256
6
ByLayer
370
-1
48
1
60
0
100
AcDbLine
10
68.643166
20
1.371428
30
0
11
68.722846
21
1.393347
31
0
39
0
210
0
220
0
230
1
0
LINE
5
62
100
AcDbEntity
8
1
62
256
6
ByLayer
370
-1
48
1
60
0
100
AcDbLine
10
52.682619
20
6.633541
30
0
11
44.732849
21
6.633541
31
0
39
0
210
0
220
0
230
1
0
LINE
5
63
100
AcDbEntity
8
1
62
256
6
ByLayer
370
-1
48
1
60
0
100
AcDbLine
10
51.391485
20
2.503955
30
0
11
40.001414
21
2.503955
31
0
39
0
210
0
220
0
230
1
0
LINE
5
64
100
AcDbEntity
8
1
62
256
6
ByLayer
370
-1
48
1
60
0
100
AcDbLine
10
39.798112
20
8.175735
30
0
11
39.519812
21
8.368774
31
0
39
0
210
0
220
0
230
1
0
LINE
5
65
100
AcDbEntity
8
1
62
256
6
ByLayer
370
-1
48
1
60
0
100
AcDbLine
10
47.187333
20
-7.614478
30
0
11
39.157967
21
-7.614478
31
0
39
0
210
0
220
0
230
1
0
LINE
5
66
100
AcDbEntity
8
1
62
256
6
ByLayer
370
-1
48
1
60
0
100
AcDbLine
10
8.105662
20
-23.666502
30
0
11
8.105662
21
-8.055848
31
0
39
0
210
0
220
0
230
1
0
LINE
5
67
100
AcDbEntity
8
1
62
256
6
ByLayer
370
-1
48
1
60
0
100
AcDbLine
10
57.94243
20
-2.037927
30
0
11
55.925426
21
-5.158902
31
0
39
0
210
0
220
0
230
1
0
LINE
5
68
100
AcDbEntity
8
1
62
256
6
ByLayer
370
-1
48
1
60
0
100
AcDbLine
10
8.538675
20
-7.529667
30
0
11
11.461325
21
-7.529667
31
0
39
0
210
0
220
0
230
1
0
LINE
5
69
100
AcDbEntity
8
1
62
256
6
ByLayer
370
-1
48
1
60
0
100
AcDbLine
10
0
20
-24.7
30
0
11
0
21
24.7
31
0
39
0
210
0
220
0
230
1
0
LINE
5
6A
100
AcDbEntity
8
1
62
256
6
ByLayer
370
-1
48
1
60
0
100
AcDbLine
10
11.461325
20
-23.83913
30
0
11
11.461325
21
-7.529667
31
0
39
0
210
0
220
0
230
1
0
LINE
5
6B
100
AcDbEntity
8
1
62
256
6
ByLayer
370
-1
48
1
60
0
100
AcDbLine
10
50.19979
20
-2.454919
30
0
11
42.108301
21
-2.454919
31
0
39
0
210
0
220
0
230
1
0
LINE
5
6C
100
AcDbEntity
8
1
62
256
6
ByLayer
370
-1
48
1
60
0
100
AcDbLine
10
39.157967
20
-8.099
30
0
11
45.206333
21
-8.099
31
0
39
0
210
0
220
0
230
1
0
LINE
5
6D
100
AcDbEntity
8
1
62
256
6
ByLayer
370
-1
48
1
60
0
100
AcDbLine
10
59.13484
20
-0.139429
30
0
11
55.30712
21
5.278547
31
0
39
0
210
0
220
0
230
1
0
LINE
5
6E
100
AcDbEntity
8
1
62
256
6
ByLayer
370
-1
48
1
60
0
100
AcDbLine
10
58.473934
20
-4.85395
30
0
11
68.541055
21
-2.391689
31
0
39
0
210
0
220
0
230
1
0
LINE
5
6F
100
AcDbEntity
8
1
62
256
6
ByLayer
370
-1
48
1
60
0
100
AcDbLine
10
59.036592
20
2.235993
30
0
11
59.035024
21
2.218935
31
0
39
0
210
0
220
0
230
1
0
LINE
5
70
100
AcDbEntity
8
1
62
256
6
ByLayer
370
-1
48
1
60
0
100
AcDbLine
10
57.894498
20
-2.585797
30
0
11
56.12241
21
-5.429097
31
0
39
0
210
0
220
0
230
1
0
LINE
5
71
100
AcDbEntity
8
1
62
256
6
ByLayer
370
-1
48
1
60
0
100
AcDbLine
10
39.157967
20
7.151023
30
0
11
39.157967
21
4.384404
31
0
39
0
210
0
220
0
230
1
0
LINE
5
72
100
AcDbEntity
8
1
62
256
6
ByLayer
370
-1
48
1
60
0
100
AcDbLine
10
42.108301
20
-4.121884
30
0
11
53.086569
21
-4.121884
31
0
39
0
210
0
220
0
230
1
0
LINE
5
73
100
AcDbEntity
8
1
62
256
6
ByLayer
370
-1
48
1
60
0
100
AcDbLine
10
8.538675
20
23.83913
30
0
11
11.461325
21
23.83913
31
0
39
0
210
0
220
0
230
1
0
LINE
5
74
100
AcDbEntity
8
1
62
256
6
ByLayer
370
-1
48
1
60
0
100
AcDbLine
10
58.905436
20
2.46826
30
0
11
58.927609
21
2.70947
31
0
39
0
210
0
220
0
230
1
0
LINE
5
75
100
AcDbEntity
8
1
62
256
6
ByLayer
370
-1
48
1
60
0
100
AcDbLine
10
11.461325
20
-23.83913
30
0
11
8.538675
21
-23.83913
31
0
39
0
210
0
220
0
230
1
0
LINE
5
76
100
AcDbEntity
8
1
62
256
6
ByLayer
370
-1
48
1
60
0
100
AcDbLine
10
47.187333
20
-7.614478
30
0
11
45.206333
21
-8.099
31
0
39
0
210
0
220
0
230
1
0
LINE
5
77
100
AcDbEntity
8
1
62
256
6
ByLayer
370
-1
48
1
60
0
100
AcDbLine
10
39.157967
20
-7.614478
30
0
11
39.157967
21
-8.099
31
0
39
0
210
0
220
0
230
1
0
LINE
5
78
100
AcDbEntity
8
1
62
256
6
ByLayer
370
-1
48
1
60
0
100
AcDbLine
10
11.461325
20
7.529667
30
0
11
8.538675
21
7.529667
31
0
39
0
210
0
220
0
230
1
0
LINE
5
79
100
AcDbEntity
8
1
62
256
6
ByLayer
370
-1
48
1
60
0
100
AcDbLine
10
8.538675
20
7.529667
30
0
11
8.538675
21
23.83913
31
0
39
0
210
0
220
0
230
1
0
LINE
5
7A
100
AcDbEntity
8
1
62
256
6
ByLayer
370
-1
48
1
60
0
100
AcDbLine
10
8.538675
20
-23.83913
30
0
11
8.538675
21
-7.529667
31
0
39
0
210
0
220
0
230
1
0
LINE
5
7B
100
AcDbEntity
8
1
62
256
6
ByLayer
370
-1
48
1
60
0
100
AcDbLine
10
39.025263
20
7.197369
30
0
11
39.025263
21
-8
31
0
39
0
210
0
220
0
230
1
0
LINE
5
7C
100
AcDbEntity
8
1
62
256
6
ByLayer
370
-1
48
1
60
0
100
AcDbLine
10
39.025263
20
8
30
0
11
39.025263
21
7.988245
31
0
39
0
210
0
220
0
230
1
0
LINE
5
7D
100
AcDbEntity
8
1
62
256
6
ByLayer
370
-1
48
1
60
0
100
AcDbLine
10
28.618414
20
8
30
0
11
28.618414
21
-8
31
0
39
0
210
0
220
0
230
1
0
LINE
5
7E
100
AcDbEntity
8
1
62
256
6
ByLayer
370
-1
48
1
60
0
100
AcDbLine
10
49.444142
20
-7.062498
30
0
11
47.187333
21
-7.614478
31
0
39
0
210
0
220
0
230
1
0
LINE
5
7F
100
AcDbEntity
8
1
62
256
6
ByLayer
370
-1
48
1
60
0
100
AcDbLine
10
57.338776
20
9.068615
30
0
11
40.47784
21
9.093362
31
0
39
0
210
0
220
0
230
1
0
LINE
5
80
100
AcDbEntity
8
1
62
256
6
ByLayer
370
-1
48
1
60
0
100
AcDbLine
10
8.105662
20
8.055848
30
0
11
8.105662
21
23.666502
31
0
39
0
210
0
220
0
230
1
0
LINE
5
81
100
AcDbEntity
8
1
62
256
6
ByLayer
370
-1
48
1
60
0
100
AcDbLine
10
59.06152
20
2.520922
30
0
11
59.039347
21
2.279712
31
0
39
0
210
0
220
0
230
1
0
LINE
5
82
100
AcDbEntity
8
1
62
256
6
ByLayer
370
-1
48
1
60
0
100
AcDbLine
10
0.3
20
-25
30
0
11
0.3
21
25
31
0
39
0
210
0
220
0
230
1
0
LINE
5
83
100
AcDbEntity
8
1
62
256
6
ByLayer
370
-1
48
1
60
0
100
AcDbLine
10
54.60072
20
4.409286
30
0
11
57.888862
21
-0.318017
31
0
39
0
210
0
220
0
230
1
0
LINE
5
84
100
AcDbEntity
8
1
62
256
6
ByLayer
370
-1
48
1
60
0
100
AcDbLine
10
55.723521
20
-5.526659
30
0
11
56.12241
21
-5.429097
31
0
39
0
210
0
220
0
230
1
0
LINE
5
85
100
AcDbEntity
8
1
62
256
6
ByLayer
370
-1
48
1
60
0
100
AcDbLine
10
11.461325
20
7.529667
30
0
11
11.461325
21
23.83913
31
0
39
0
210
0
220
0
230
1
0
LINE
5
86
100
AcDbEntity
8
1
62
256
6
ByLayer
370
-1
48
1
60
0
100
AcDbLine
10
11.894338
20
8.055848
30
0
11
11.894338
21
23.666502
31
0
39
0
210
0
220
0
230
1
0
LINE
5
87
100
AcDbEntity
8
1
62
256
6
ByLayer
370
-1
48
1
60
0
100
AcDbLine
10
57.94243
20
-2.037927
30
0
11
57.894498
21
-2.585797
31
0
39
0
210
0
220
0
230
1
0
LINE
5
88
100
AcDbEntity
8
1
62
256
6
ByLayer
370
-1
48
1
60
0
100
AcDbLine
10
54.571953
20
4.384404
30
0
11
39.157967
21
4.384404
31
0
39
0
210
0
220
0
230
1
0
LINE
5
89
100
AcDbEntity
8
1
62
256
6
ByLayer
370
-1
48
1
60
0
100
AcDbLine
10
11.894338
20
-23.666502
30
0
11
11.894338
21
-8.055848
31
0
39
0
210
0
220
0
230
1
0
LINE
5
8A
100
AcDbEntity
8
1
62
256
6
ByLayer
370
-1
48
1
60
0
100
AcDbLine
10
22.818182
20
-12.464645
30
0
11
22.818182
21
12.464645
31
0
39
0
210
0
220
0
230
1
0
LINE
5
8B
100
AcDbEntity
8
1
62
256
6
ByLayer
370
-1
48
1
60
0
100
AcDbLine
10
55.723521
20
-5.526659
30
0
11
49.444142
21
-7.062498
31
0
39
0
210
0
220
0
230
1
0
LINE
5
8C
100
AcDbEntity
8
1
62
256
6
ByLayer
370
-1
48
1
60
0
100
AcDbLine
10
59.025137
20
1.637053
30
0
11
59.050065
21
1.921983
31
0
39
0
210
0
220
0
230
1
0
LINE
5
8D
100
AcDbEntity
8
1
62
256
6
ByLayer
370
-1
48
1
60
0
100
AcDbLine
10
60.369703
20
9.290062
30
0
11
58.235195
21
9.106439
31
0
39
0
210
0
220
0
230
1
0
LINE
5
8E
100
AcDbEntity
8
1
62
256
6
ByLayer
370
-1
48
1
60
0
100
AcDbLine
10
58.473934
20
-4.85395
30
0
11
56.12241
21
-5.429097
31
0
39
0
210
0
220
0
230
1
0
LINE
5
8F
100
AcDbEntity
8
1
62
256
6
ByLayer
370
-1
48
1
60
0
100
AcDbLine
10
58.927609
20
2.70947
30
0
11
59.06152
21
2.520922
31
0
39
0
210
0
220
0
230
1
0
LINE
5
90
100
AcDbEntity
8
1
62
256
6
ByLayer
370
-1
48
1
60
0
100
AcDbLine
10
58.473934
20
-4.85395
30
0
11
59.237662
21
-3.628556
31
0
39
0
210
0
220
0
230
1
0
LINE
5
91
100
AcDbEntity
8
1
62
256
6
ByLayer
370
-1
48
1
60
0
100
AcDbLine
10
49.444142
20
-7.062498
30
0
11
40.001414
21
-7.062498
31
0
39
0
210
0
220
0
230
1
0
LINE
5
92
100
AcDbEntity
8
1
62
256
6
ByLayer
370
-1
48
1
60
0
100
AcDbLine
10
58.905436
20
2.46826
30
0
11
59.039347
21
2.279712
31
0
39
0
210
0
220
0
230
1
0
LINE
5
93
100
AcDbEntity
8
1
62
256
6
ByLayer
370
-1
48
1
60
0
100
AcDbLine
10
19.5
20
-25
30
0
11
19.5
21
25
31
0
39
0
210
0
220
0
230
1
0
LINE
5
94
100
AcDbEntity
8
1
62
256
6
ByLayer
370
-1
48
1
60
0
100
AcDbLine
10
42.108301
20
-2.454919
30
0
11
42.108301
21
-4.121884
31
0
39
0
210
0
220
0
230
1
0
LINE
5
95
100
AcDbEntity
8
1
62
256
6
ByLayer
370
-1
48
1
60
0
100
AcDbLine
10
59.036592
20
2.235993
30
0
11
59.06152
21
2.520922
31
0
39
0
210
0
220
0
230
1
0
LINE
5
96
100
AcDbEntity
8
SK1
62
256
6
ByLayer
370
-1
48
1
60
0
100
AcDbLine
10
-1.307107
20
3.804744
30
0
11
-1.307107
21
-3.804747
31
0
39
0
210
0
220
0
230
1
0
LINE
5
98
100
AcDbEntity
8
SK1
62
256
6
ByLayer
370
-1
48
1
60
0
100
AcDbLine
10
-0.2
20
-5.881424
30
0
11
-0.2
21
-17.833485
31
0
39
0
210
0
220
0
230
1
0
LINE
5
99
100
AcDbEntity
8
SK1
62
256
6
ByLayer
370
-1
48
1
60
0
100
AcDbLine
10
-0.4
20
17.32515
30
0
11
-0.4
21
5.168667
31
0
39
0
210
0
220
0
230
1
0
LINE
5
9A
100
AcDbEntity
8
SK1
62
256
6
ByLayer
370
-1
48
1
60
0
100
AcDbLine
10
-30
20
-15.939791
30
0
11
-30
21
15.941288
31
0
39
0
210
0
220
0
230
1
0
LINE
5
9B
100
AcDbEntity
8
SK1
62
256
6
ByLayer
370
-1
48
1
60
0
100
AcDbLine
10
-0.2
20
17.833485
30
0
11
-0.2
21
5.881425
31
0
39
0
210
0
220
0
230
1
0
LINE
5
9C
100
AcDbEntity
8
1
62
256
6
ByLayer
370
-1
48
1
60
0
100
AcDbLine
10
60.463781
20
0.644442
30
0
11
61.683495
21
0.749369
31
0
39
0
210
0
220
0
230
1
0
LINE
5
9D
100
AcDbEntity
8
1
62
256
6
ByLayer
370
-1
48
1
60
0
100
AcDbLine
10
60.38731
20
9.49127
30
0
11
59.690845
21
1.530639
31
0
39
0
210
0
220
0
230
1
0
LINE
5
9E
100
AcDbEntity
8
1
62
256
6
ByLayer
370
-1
48
1
60
0
100
AcDbLine
10
69.136246
20
10.89703
30
0
11
61.108509
21
10.206436
31
0
39
0
210
0
220
0
230
1
0
LINE
5
9F
100
AcDbEntity
8
1
62
256
6
ByLayer
370
-1
48
1
60
0
100
AcDbLine
10
69.30054
20
2.08283
30
0
11
69.997005
21
10.043461
31
0
39
0
210
0
220
0
230
1
0
LINE
5
A0
100
AcDbEntity
8
1
62
256
6
ByLayer
370
-1
48
1
60
0
100
AcDbLine
10
60.551604
20
0.67707
30
0
11
68.579341
21
1.367664
31
0
39
0
210
0
220
0
230
1
0
LINE
5
A1
100
AcDbEntity
8
1
62
256
6
ByLayer
370
-1
48
1
60
0
100
AcDbLine
10
60.551604
20
0.67707
30
0
11
60.463781
21
0.644442
31
0
39
0
210
0
220
0
230
1
0
LINE
5
A2
100
AcDbEntity
8
1
62
256
6
ByLayer
370
-1
48
1
60
0
100
AcDbLine
10
65.485827
20
4.396783
30
0
11
65.488362
21
4.42576
31
0
39
0
210
0
220
0
230
1
0
LINE
5
A3
100
AcDbEntity
8
1
62
256
6
ByLayer
370
-1
48
1
60
0
100
AcDbLine
10
66.310231
20
5.479403
30
0
11
66.325143
21
5.64985
31
0
39
0
210
0
220
0
230
1
0
LINE
5
A4
100
AcDbEntity
8
1
62
256
6
ByLayer
370
-1
48
1
60
0
100
AcDbLine
10
65.658667
20
6.802648
30
0
11
65.673579
21
6.973095
31
0
39
0
210
0
220
0
230
1
0
LINE
5
A5
100
AcDbEntity
8
1
62
256
6
ByLayer
370
-1
48
1
60
0
100
AcDbLine
10
64.723119
20
7.053259
30
0
11
64.738031
21
7.223706
31
0
39
0
210
0
220
0
230
1
0
LINE
5
A6
100
AcDbEntity
8
1
62
256
6
ByLayer
370
-1
48
1
60
0
100
AcDbLine
10
63.488933
20
6.2235
30
0
11
63.503825
21
6.393721
31
0
39
0
210
0
220
0
230
1
0
LINE
5
A7
100
AcDbEntity
8
1
62
256
6
ByLayer
370
-1
48
1
60
0
100
AcDbLine
10
63.594347
20
4.755595
30
0
11
63.609259
21
4.926042
31
0
39
0
210
0
220
0
230
1
0
LINE
5
A8
100
AcDbEntity
8
1
62
256
6
ByLayer
370
-1
48
1
60
0
100
AcDbLine
10
63.928538
20
6.51702
30
0
11
63.915466
21
6.367607
31
0
39
0
210
0
220
0
230
1
0
LINE
5
A9
100
AcDbEntity
8
1
62
256
6
ByLayer
370
-1
48
1
60
0
100
AcDbLine
10
64.033065
20
6.484223
30
0
11
64.046137
21
6.633635
31
0
39
0
210
0
220
0
230
1
0
LINE
5
AA
100
AcDbEntity
8
2
62
256
6
ByLayer
370
-1
48
1
60
1
100
AcDbLine
10
70
20
0
30
0
11
70.001
21
0.001
31
0
39
0
210
0
220
0
230
1
0
MTEXT
5
13B
100
AcDbEntity
8
SK6
62
256
6
ByLayer
370
-1
48
1
60
0
100
AcDbMText
10
-3.92415
20
-35.875
30
0
210
0
220
0
230
1
1
\W00.714;\fsimplex.shx,bigfont.shx;C5-SCLCR-11070-09HP 
40
3.5
41
0
44
1.084337
50
0
71
7
72
5
7
DEFAULT
0
DIMENSION
5
16F
100
AcDbEntity
8
SK2
62
256
6
ByLayer
370
-3
48
1
60
0
100
AcDbDimension
2
DimnDraft3D1
10
-42.75
20
25
30
0
11
-42.75
21
-4.784211
31
0
70
32
71
5
72
1
41
1
210
0
220
0
230
1
3
Standard
100
AcDbAlignedDimension
13
-2
23
-25
33
0
14
-2
24
25
34
0
50
90
100
AcDbRotatedDimension
1001
ACAD
1000
DSTYLE
1002
{
1070
    74
1070
     0
1070
   279
1070
     0
1070
   172
1070
     1
1070
   173
1070
     1
1070
   340
1005
13C
1070
    77
1070
     1
1070
    73
1070
     0
1070
   171
1070
     4
1070
   274
1070
     4
1070
   177
1070
     2
1070
   176
1070
     2
1070
   178
1070
     7
1070
    78
1070
     8
1070
    41
1041
3.175
1070
   147
1041
2.25
1070
    42
1041
2.0
1070
    44
1041
2.0
1070
   140
1041
4.5
1070
   343
1005
170
1070
   344
1005
170
1002
}
0
DIMENSION
5
182
100
AcDbEntity
8
2
62
256
6
ByLayer
370
-3
48
1
60
0
100
AcDbDimension
2
DimnDraft3D2
10
39.25
20
8
30
0
11
39.25
21
0
31
0
70
32
71
5
72
1
41
1
210
0
220
0
230
1
3
Standard
100
AcDbAlignedDimension
13
24
23
8
33
0
14
0
24
0
34
0
50
90
100
AcDbRotatedDimension
1001
ACAD
1000
DSTYLE
1002
{
1070
    74
1070
     0
1070
   279
1070
     0
1070
   172
1070
     1
1070
   173
1070
     1
1070
   340
1005
13C
1070
    75
1070
     1
1070
    76
1070
     1
1070
    77
1070
     1
1070
    73
1070
     0
1070
   171
1070
     4
1070
   274
1070
     4
1070
   177
1070
     2
1070
   176
1070
     2
1070
   178
1070
     7
1070
    78
1070
     8
1070
    41
1041
3.175
1070
   147
1041
2.25
1070
    42
1041
2.0
1070
    44
1041
2.0
1070
   140
1041
4.5
1070
   343
1005
170
1070
   344
1005
170
1002
}
0
DIMENSION
5
190
100
AcDbEntity
8
2
62
256
6
ByLayer
370
-3
48
1
60
0
100
AcDbDimension
2
DimnDraft3D3
10
82.25
20
0
30
0
11
82.25
21
21.155
31
0
70
32
71
5
72
1
41
1
210
0
220
0
230
1
3
Standard
100
AcDbAlignedDimension
13
72
23
10.9
33
0
14
72
24
0
34
0
50
90
100
AcDbRotatedDimension
1001
ACAD
1000
DSTYLE
1002
{
1070
    74
1070
     0
1070
   279
1070
     0
1070
   172
1070
     1
1070
   173
1070
     1
1070
   340
1005
13C
1070
    77
1070
     1
1070
    73
1070
     0
1070
   171
1070
     4
1070
   274
1070
     4
1070
   177
1070
     2
1070
   176
1070
     2
1070
   178
1070
     7
1070
    78
1070
     8
1070
    41
1041
3.175
1070
   147
1041
2.25
1070
    42
1041
2.0
1070
    44
1041
2.0
1070
   140
1041
4.5
1070
   343
1005
170
1070
   344
1005
170
1002
}
0
DIMENSION
5
19E
100
AcDbEntity
8
2
62
256
6
ByLayer
370
-3
48
1
60
0
100
AcDbDimension
2
DimnDraft3D4
10
70
20
37.75
30
0
11
29.836842
21
37.75
31
0
70
32
71
5
72
1
41
1
210
0
220
0
230
1
3
Standard
100
AcDbAlignedDimension
13
0
23
27
33
0
14
70
24
12.9
34
0
50
0
100
AcDbRotatedDimension
1001
ACAD
1000
DSTYLE
1002
{
1070
   279
1070
     0
1070
   172
1070
     1
1070
   173
1070
     1
1070
   340
1005
13C
1070
    77
1070
     1
1070
    73
1070
     0
1070
   171
1070
     4
1070
   274
1070
     4
1070
   177
1070
     2
1070
   176
1070
     2
1070
   178
1070
     7
1070
    78
1070
     8
1070
    41
1041
3.175
1070
   147
1041
2.25
1070
    42
1041
2.0
1070
    44
1041
2.0
1070
   140
1041
4.5
1070
   343
1005
170
1070
   344
1005
170
1002
}
0
DIMENSION
5
1AC
100
AcDbEntity
8
2
62
256
6
ByLayer
370
-3
48
1
60
0
100
AcDbDimension
2
DimnDraft3D5
10
70
20
23.65
30
0
11
41.6
21
23.65
31
0
70
32
71
5
72
1
41
1
210
0
220
0
230
1
3
Standard
100
AcDbAlignedDimension
13
24
23
10
33
0
14
70
24
12.9
34
0
50
0
100
AcDbRotatedDimension
1001
ACAD
1000
DSTYLE
1002
{
1070
   279
1070
     0
1070
   172
1070
     1
1070
   173
1070
     1
1070
   340
1005
13C
1070
    77
1070
     1
1070
    73
1070
     0
1070
   171
1070
     4
1070
   274
1070
     4
1070
   177
1070
     2
1070
   176
1070
     2
1070
   178
1070
     7
1070
    78
1070
     8
1070
    41
1041
3.175
1070
   147
1041
2.25
1070
    42
1041
2.0
1070
    44
1041
2.0
1070
   140
1041
4.5
1070
   343
1005
170
1070
   344
1005
170
1002
}
0
DIMENSION
5
1BA
100
AcDbEntity
8
2
62
256
6
ByLayer
370
-3
48
1
60
0
100
AcDbDimension
2
DimnDraft3D6
10
117.97278
20
0
30
0
11
94.532084
21
-37.243123
31
0
70
34
71
5
72
1
41
1
210
0
220
0
230
1
3
Standard
100
AcDb2LineAngularDimension
13
69.041287
23
-0.058142
33
0
14
64.782156
24
-48.740227
34
0
15
72
25
0
35
0
16
97.709239
26
-31.280028
36
0
40
0
0
ENDSEC
0
SECTION
2
OBJECTS
0
DICTIONARY
5
1eb
330
0
100
AcDbDictionary
280
0
281
1
3
ACAD_GROUP
350
1ec
3
ACAD_MLINESTYLE
350
1ed
0
DICTIONARY
5
1ec
330
0
100
AcDbDictionary
280
0
281
1
0
DICTIONARY
5
1ed
330
0
100
AcDbDictionary
280
0
281
1
3
Standard
350
18
0
MLINESTYLE
5
18
330
1ed
100
AcDbMlineStyle
2
Standard
70
0
3

62
256
51
90
52
90
71
2
49
-0.5
62
256
6
ByLayer
49
0.5
62
256
6
ByLayer
0
RASTERVARIABLES
5
1d9
330

100
AcDbRasterVariables
90
0
70
1
71
1
72
1
0
ENDSEC
0
EOF
