0
SECTION
2
HEADER
9
$ACADVER
1
AC1015
9
$DWGCODEPAGE
3
ANSI_1252
9
$HANDSEED
5
1c9
9
$ANGBASE
50
0
9
$ANGDIR
70
0
9
$ATTMODE
70
1
9
$AUNITS
70
0
9
$AUPREC
70
0
9
$CECOLOR
62
256
9
$CELTSCALE
40
1
9
$CELTYPE
6
ByLayer
9
$CELWEIGHT
370
-1
9
$CLAYER
8
0
9
$CMLJUST
70
0
9
$CMLSCALE
40
1
9
$CMLSTYLE
2
Standard
9
$DIMSTYLE
2
Standard
9
$TEXTSIZE
40
0.2
9
$TEXTSTYLE
7
Standard
9
$LUNITS
70
2
9
$LUPREC
70
4
9
$EXTNAMES
290
1
9
$INSUNITS
70
4
9
$LTSCALE
40
1
9
$LWDISPLAY
290
0
9
$PDMODE
70
0
9
$PDSIZE
40
0
9
$PLINEGEN
70
0
0
ENDSEC
0
SECTION
2
CLASSES
0
CLASS
1
RASTERVARIABLES
2
AcDbRasterVariables
3
ISM
90
0
280
0
281
0
0
ENDSEC
0
SECTION
2
TABLES
0
TABLE
2
VPORT
5
1bf
100
AcDbSymbolTable
0
VPORT
5
1
100
AcDbSymbolTableRecord
100
AcDbViewportTableRecord
2
*Active
70
0
10
0
20
0
11
1
21
1
12
-1
22
1
13
0
23
0
14
0.5
24
0.5
15
10
25
10
16
0
26
0
36
1
17
0
27
0
37
0
0
ENDTAB
0
TABLE
2
LTYPE
5
1c0
100
AcDbSymbolTable
0
LTYPE
5
14
100
AcDbSymbolTableRecord
100
AcDbLinetypeTableRecord
70
0
2
ByBlock
3

72
65
73
0
40
0
0
LTYPE
5
15
100
AcDbSymbolTableRecord
100
AcDbLinetypeTableRecord
70
0
2
ByLayer
3

72
65
73
0
40
0
0
LTYPE
5
16
100
AcDbSymbolTableRecord
100
AcDbLinetypeTableRecord
70
0
2
CONTINUOUS
3
Solid line
72
65
73
0
40
0
0
LTYPE
5
3B
100
AcDbSymbolTableRecord
100
AcDbLinetypeTableRecord
70
0
2
DASHED
3
__ __ __ __ __ __ __ __ __
72
65
73
2
40
25.72
49
12.86
74
0
49
-12.86
74
0
0
LTYPE
5
3C
100
AcDbSymbolTableRecord
100
AcDbLinetypeTableRecord
70
0
2
HIDDEN
3
_ _ _ _ _ _ _ _ _ _ _ _ _ _ _
72
65
73
2
40
0.5
49
0.25
74
0
49
-0.25
74
0
0
LTYPE
5
3D
100
AcDbSymbolTableRecord
100
AcDbLinetypeTableRecord
70
0
2
PHANTOM
3
____ _ _ ____ _ _ _____ _ _ ____
72
65
73
6
40
50.5
49
18
74
0
49
-6.5
74
0
49
6.5
74
0
49
-6.5
74
0
49
6.5
74
0
49
-6.5
74
0
0
LTYPE
5
3E
100
AcDbSymbolTableRecord
100
AcDbLinetypeTableRecord
70
0
2
CENTER
3
____ _ ____ _ ____ _ ____
72
65
73
4
40
47.5
49
22
74
0
49
-8.5
74
0
49
8.5
74
0
49
-8.5
74
0
0
LTYPE
5
3F
100
AcDbSymbolTableRecord
100
AcDbLinetypeTableRecord
70
0
2
DOT
3
.........................
72
65
73
2
40
10
49
0
74
0
49
-10
74
0
0
LTYPE
5
40
100
AcDbSymbolTableRecord
100
AcDbLinetypeTableRecord
70
0
2
DASHDOT
3
_._._._._._._._._._._._._._._._.
72
65
73
4
40
70
49
31
74
0
49
-13
74
0
49
13
74
0
49
-13
74
0
0
ENDTAB
0
TABLE
2
LAYER
5
1c1
100
AcDbSymbolTable
0
LAYER
5
10
100
AcDbSymbolTableRecord
100
AcDbLayerTableRecord
2
0
70
0
62
7
6
CONTINUOUS
290
1
370
-3
390
0
0
LAYER
5
42
100
AcDbSymbolTableRecord
100
AcDbLayerTableRecord
2
80
70
0
62
-6
6
CONTINUOUS
290
1
370
-3
390
0
0
LAYER
5
44
100
AcDbSymbolTableRecord
100
AcDbLayerTableRecord
2
81
70
0
62
-3
6
CONTINUOUS
290
1
370
-3
390
0
0
LAYER
5
46
100
AcDbSymbolTableRecord
100
AcDbLayerTableRecord
2
1
70
0
62
4
6
CONTINUOUS
290
1
370
-3
390
0
0
LAYER
5
48
100
AcDbSymbolTableRecord
100
AcDbLayerTableRecord
2
2
70
0
62
7
6
CONTINUOUS
290
1
370
-3
390
0
0
LAYER
5
4E
100
AcDbSymbolTableRecord
100
AcDbLayerTableRecord
2
4
70
0
62
-2
6
CENTER
290
1
370
-3
390
0
0
LAYER
5
1ab
100
AcDbSymbolTableRecord
100
AcDbLayerTableRecord
2
SK4
70
0
62
2
6
CENTER
290
1
370
-3
390
0
0
LAYER
5
1ac
100
AcDbSymbolTableRecord
100
AcDbLayerTableRecord
2
SK1
70
0
62
4
6
CONTINUOUS
290
1
370
-3
390
0
0
LAYER
5
1ad
100
AcDbSymbolTableRecord
100
AcDbLayerTableRecord
2
SK6
70
0
62
5
6
CONTINUOUS
290
1
370
-3
390
0
0
LAYER
5
1ae
100
AcDbSymbolTableRecord
100
AcDbLayerTableRecord
2
SK2
70
0
62
7
6
CONTINUOUS
290
1
370
-3
390
0
0
ENDTAB
0
TABLE
2
STYLE
5
1c2
100
AcDbSymbolTable
0
STYLE
5
11
100
AcDbSymbolTableRecord
100
AcDbTextStyleTableRecord
2
Standard
3
txt
70
0
71
0
40
0
41
1
42
0
50
0
0
STYLE
5
10D
100
AcDbSymbolTableRecord
100
AcDbTextStyleTableRecord
2
DEFAULT
3
simplex.shx
70
0
71
0
40
0
41
1
42
0
50
0
0
STYLE
5
130
100
AcDbSymbolTableRecord
100
AcDbTextStyleTableRecord
2
DWGDirectTextStyle
3
SIMPLEX
70
0
71
0
40
0
41
1
42
0
50
0
0
ENDTAB
0
TABLE
2
DIMSTYLE
5
1c3
100
AcDbSymbolTable
100
AcDbDimStyleTable
0
DIMSTYLE
105
27
100
AcDbSymbolTableRecord
100
AcDbDimStyleTableRecord
2
Standard
70
0
3
<>
41
0.18
42
0.0625
44
0.18
140
0.18
147
0.09
73
0
74
0
77
1
271
2
275
0
278
52
280
0
340
11
0
ENDTAB
0
TABLE
2
VIEW
5
1c4
100
AcDbSymbolTable
0
ENDTAB
0
TABLE
2
UCS
5
1c5
100
AcDbSymbolTable
0
ENDTAB
0
TABLE
2
APPID
5
1c6
100
AcDbSymbolTable
0
APPID
5
12
100
AcDbSymbolTableRecord
100
AcDbRegAppTableRecord
2
ACAD
70
0
0
ENDTAB
0
TABLE
2
BLOCK_RECORD
5
1c7
100
AcDbSymbolTable
0
BLOCK_RECORD
5
1F
100
AcDbSymbolTableRecord
100
AcDbBlockTableRecord
2
*Model_Space
340
0
70
0
0
BLOCK_RECORD
5
1B
100
AcDbSymbolTableRecord
100
AcDbBlockTableRecord
2
*Paper_Space
340
0
70
0
0
BLOCK_RECORD
5
23
100
AcDbSymbolTableRecord
100
AcDbBlockTableRecord
2
*Paper_Space0
340
0
70
0
0
BLOCK_RECORD
5
132
100
AcDbSymbolTableRecord
100
AcDbBlockTableRecord
2
DimnDraft3D1
340
0
70
0
0
BLOCK_RECORD
5
141
100
AcDbSymbolTableRecord
100
AcDbBlockTableRecord
2
_CLOSED
340
0
70
0
0
BLOCK_RECORD
5
148
100
AcDbSymbolTableRecord
100
AcDbBlockTableRecord
2
DimnDraft3D2
340
0
70
0
0
BLOCK_RECORD
5
154
100
AcDbSymbolTableRecord
100
AcDbBlockTableRecord
2
DimnDraft3D3
340
0
70
0
0
BLOCK_RECORD
5
162
100
AcDbSymbolTableRecord
100
AcDbBlockTableRecord
2
DimnDraft3D4
340
0
70
0
0
BLOCK_RECORD
5
170
100
AcDbSymbolTableRecord
100
AcDbBlockTableRecord
2
DimnDraft3D5
340
0
70
0
0
BLOCK_RECORD
5
17E
100
AcDbSymbolTableRecord
100
AcDbBlockTableRecord
2
DimnDraft3D6
340
0
70
0
0
ENDTAB
0
ENDSEC
0
SECTION
2
BLOCKS
0
BLOCK
5
20
100
AcDbEntity
8
0
100
AcDbBlockBegin
2
*Model_Space
70
0
10
0
20
0
30
0
3
*Model_Space
0
ENDBLK
5
21
100
AcDbEntity
8
0
100
AcDbBlockEnd
0
BLOCK
5
1C
100
AcDbEntity
8
0
100
AcDbBlockBegin
2
*Paper_Space
70
0
10
0
20
0
30
0
3
*Paper_Space
0
ENDBLK
5
1D
100
AcDbEntity
8
0
100
AcDbBlockEnd
0
BLOCK
5
24
100
AcDbEntity
8
0
100
AcDbBlockBegin
2
*Paper_Space0
70
0
10
0
20
0
30
0
3
*Paper_Space0
0
ENDBLK
5
25
100
AcDbEntity
8
0
100
AcDbBlockEnd
0
BLOCK
5
13E
100
AcDbEntity
8
0
100
AcDbBlockBegin
2
DimnDraft3D1
70
0
10
0
20
0
30
0
3
DimnDraft3D1
0
MTEXT
5
133
100
AcDbEntity
8
SK2
62
256
6
ByLayer
370
-1
48
1
60
0
100
AcDbMText
10
-43.875
20
-3.659211
30
0
210
0
220
0
230
1
1
\W01.000;\fsimplex.shx,bigfont.shx;%%c50 
40
4.5
41
0
44
1.084337
50
90
71
7
72
5
7
DEFAULT
0
LINE
5
135
100
AcDbEntity
8
SK2
62
256
6
ByLayer
370
-1
48
1
60
0
100
AcDbLine
10
-2
20
25
30
0
11
-44.75
21
25
31
0
39
0
210
0
220
0
230
1
0
LINE
5
136
100
AcDbEntity
8
SK2
62
256
6
ByLayer
370
-1
48
1
60
0
100
AcDbLine
10
-2
20
-25
30
0
11
-44.75
21
-25
31
0
39
0
210
0
220
0
230
1
0
LINE
5
137
100
AcDbEntity
8
SK2
62
256
6
ByLayer
370
-1
48
1
60
0
100
AcDbLine
10
-42.75
20
25
30
0
11
-42.75
21
-25
31
0
39
0
210
0
220
0
230
1
0
LINE
5
138
100
AcDbEntity
8
SK2
62
256
6
ByLayer
370
-1
48
1
60
0
100
AcDbLine
10
-42.75
20
25
30
0
11
-42.332003
21
21.825002
31
0
39
0
210
0
220
0
230
1
0
LINE
5
139
100
AcDbEntity
8
SK2
62
256
6
ByLayer
370
-1
48
1
60
0
100
AcDbLine
10
-42.75
20
25
30
0
11
-43.167997
21
21.824998
31
0
39
0
210
0
220
0
230
1
0
LINE
5
13A
100
AcDbEntity
8
SK2
62
256
6
ByLayer
370
-1
48
1
60
0
100
AcDbLine
10
-42.332003
20
21.825002
30
0
11
-43.167997
21
21.824998
31
0
39
0
210
0
220
0
230
1
0
LINE
5
13B
100
AcDbEntity
8
SK2
62
256
6
ByLayer
370
-1
48
1
60
0
100
AcDbLine
10
-42.75
20
-25
30
0
11
-43.167997
21
-21.825002
31
0
39
0
210
0
220
0
230
1
0
LINE
5
13C
100
AcDbEntity
8
SK2
62
256
6
ByLayer
370
-1
48
1
60
0
100
AcDbLine
10
-42.75
20
-25
30
0
11
-42.332003
21
-21.824998
31
0
39
0
210
0
220
0
230
1
0
LINE
5
13D
100
AcDbEntity
8
SK2
62
256
6
ByLayer
370
-1
48
1
60
0
100
AcDbLine
10
-43.167997
20
-21.825002
30
0
11
-42.332003
21
-21.824998
31
0
39
0
210
0
220
0
230
1
0
ENDBLK
5
13F
100
AcDbEntity
8
0
100
AcDbBlockEnd
0
BLOCK
5
142
100
AcDbEntity
8
0
100
AcDbBlockBegin
2
_CLOSED
70
0
10
0
20
0
30
0
3
_CLOSED
0
LINE
5
144
100
AcDbEntity
8
0
62
256
6
ByLayer
370
-2
48
1
60
0
100
AcDbLine
10
-1
20
0.166667
30
0
11
0
21
0
31
0
39
0
210
0
220
0
230
1
0
LINE
5
145
100
AcDbEntity
8
0
62
256
6
ByLayer
370
-2
48
1
60
0
100
AcDbLine
10
0
20
0
30
0
11
-1
21
-0.166667
31
0
39
0
210
0
220
0
230
1
0
LINE
5
146
100
AcDbEntity
8
0
62
256
6
ByLayer
370
-2
48
1
60
0
100
AcDbLine
10
-1
20
0.166667
30
0
11
-1
21
-0.166667
31
0
39
0
210
0
220
0
230
1
0
LINE
5
147
100
AcDbEntity
8
0
62
256
6
ByLayer
370
-2
48
1
60
0
100
AcDbLine
10
0
20
0
30
0
11
-1
21
0
31
0
39
0
210
0
220
0
230
1
0
ENDBLK
5
143
100
AcDbEntity
8
0
100
AcDbBlockEnd
0
BLOCK
5
151
100
AcDbEntity
8
0
100
AcDbBlockBegin
2
DimnDraft3D2
70
0
10
0
20
0
30
0
3
DimnDraft3D2
0
MTEXT
5
149
100
AcDbEntity
8
2
62
256
6
ByLayer
370
-1
48
1
60
0
100
AcDbMText
10
34.925
20
-6.430263
30
0
210
0
220
0
230
1
1
\W01.000;\fsimplex.shx,bigfont.shx;%%c40.0 
40
4.5
41
0
44
1.084337
50
90
71
7
72
5
7
DEFAULT
0
LINE
5
14A
100
AcDbEntity
8
2
62
256
6
ByLayer
370
-1
48
1
60
0
100
AcDbLine
10
36.05
20
-20
30
0
11
36.05
21
20
31
0
39
0
210
0
220
0
230
1
0
LINE
5
14B
100
AcDbEntity
8
2
62
256
6
ByLayer
370
-1
48
1
60
0
100
AcDbLine
10
36.05
20
-20
30
0
11
35.632003
21
-16.825002
31
0
39
0
210
0
220
0
230
1
0
LINE
5
14C
100
AcDbEntity
8
2
62
256
6
ByLayer
370
-1
48
1
60
0
100
AcDbLine
10
36.05
20
-20
30
0
11
36.467997
21
-16.824998
31
0
39
0
210
0
220
0
230
1
0
LINE
5
14D
100
AcDbEntity
8
2
62
256
6
ByLayer
370
-1
48
1
60
0
100
AcDbLine
10
35.632003
20
-16.825002
30
0
11
36.467997
21
-16.824998
31
0
39
0
210
0
220
0
230
1
0
LINE
5
14E
100
AcDbEntity
8
2
62
256
6
ByLayer
370
-1
48
1
60
0
100
AcDbLine
10
36.05
20
20
30
0
11
36.467997
21
16.825002
31
0
39
0
210
0
220
0
230
1
0
LINE
5
14F
100
AcDbEntity
8
2
62
256
6
ByLayer
370
-1
48
1
60
0
100
AcDbLine
10
36.05
20
20
30
0
11
35.632003
21
16.824998
31
0
39
0
210
0
220
0
230
1
0
LINE
5
150
100
AcDbEntity
8
2
62
256
6
ByLayer
370
-1
48
1
60
0
100
AcDbLine
10
36.467997
20
16.825002
30
0
11
35.632003
21
16.824998
31
0
39
0
210
0
220
0
230
1
0
ENDBLK
5
152
100
AcDbEntity
8
0
100
AcDbBlockEnd
0
BLOCK
5
15F
100
AcDbEntity
8
0
100
AcDbBlockBegin
2
DimnDraft3D3
70
0
10
0
20
0
30
0
3
DimnDraft3D3
0
MTEXT
5
155
100
AcDbEntity
8
2
62
256
6
ByLayer
370
-1
48
1
60
0
100
AcDbMText
10
151.125
20
-17.488158
30
0
210
0
220
0
230
1
1
\W01.000;\fsimplex.shx,bigfont.shx;27.0 
40
4.5
41
0
44
1.084337
50
90
71
7
72
5
7
DEFAULT
0
LINE
5
156
100
AcDbEntity
8
2
62
256
6
ByLayer
370
-1
48
1
60
0
100
AcDbLine
10
142
20
0
30
0
11
154.25
21
0
31
0
39
0
210
0
220
0
230
1
0
LINE
5
157
100
AcDbEntity
8
2
62
256
6
ByLayer
370
-1
48
1
60
0
100
AcDbLine
10
142
20
-26.9
30
0
11
154.25
21
-26.9
31
0
39
0
210
0
220
0
230
1
0
LINE
5
158
100
AcDbEntity
8
2
62
256
6
ByLayer
370
-1
48
1
60
0
100
AcDbLine
10
152.25
20
0
30
0
11
152.25
21
-26.9
31
0
39
0
210
0
220
0
230
1
0
LINE
5
159
100
AcDbEntity
8
2
62
256
6
ByLayer
370
-1
48
1
60
0
100
AcDbLine
10
152.25
20
0
30
0
11
152.667997
21
-3.174998
31
0
39
0
210
0
220
0
230
1
0
LINE
5
15A
100
AcDbEntity
8
2
62
256
6
ByLayer
370
-1
48
1
60
0
100
AcDbLine
10
152.25
20
0
30
0
11
151.832003
21
-3.175002
31
0
39
0
210
0
220
0
230
1
0
LINE
5
15B
100
AcDbEntity
8
2
62
256
6
ByLayer
370
-1
48
1
60
0
100
AcDbLine
10
152.667997
20
-3.174998
30
0
11
151.832003
21
-3.175002
31
0
39
0
210
0
220
0
230
1
0
LINE
5
15C
100
AcDbEntity
8
2
62
256
6
ByLayer
370
-1
48
1
60
0
100
AcDbLine
10
152.25
20
-26.9
30
0
11
151.832003
21
-23.725002
31
0
39
0
210
0
220
0
230
1
0
LINE
5
15D
100
AcDbEntity
8
2
62
256
6
ByLayer
370
-1
48
1
60
0
100
AcDbLine
10
152.25
20
-26.9
30
0
11
152.667997
21
-23.724998
31
0
39
0
210
0
220
0
230
1
0
LINE
5
15E
100
AcDbEntity
8
2
62
256
6
ByLayer
370
-1
48
1
60
0
100
AcDbLine
10
151.832003
20
-23.725002
30
0
11
152.667997
21
-23.724998
31
0
39
0
210
0
220
0
230
1
0
ENDBLK
5
160
100
AcDbEntity
8
0
100
AcDbBlockEnd
0
BLOCK
5
16D
100
AcDbEntity
8
0
100
AcDbBlockBegin
2
DimnDraft3D4
70
0
10
0
20
0
30
0
3
DimnDraft3D4
0
MTEXT
5
163
100
AcDbEntity
8
2
62
256
6
ByLayer
370
-1
48
1
60
0
100
AcDbMText
10
64.635526
20
-58.025
30
0
210
0
220
0
230
1
1
\W01.000;\fsimplex.shx,bigfont.shx;140.0 
40
4.5
41
0
44
1.084337
50
0
71
7
72
5
7
DEFAULT
0
LINE
5
164
100
AcDbEntity
8
2
62
256
6
ByLayer
370
-1
48
1
60
0
100
AcDbLine
10
0
20
-27
30
0
11
0
21
-61.15
31
0
39
0
210
0
220
0
230
1
0
LINE
5
165
100
AcDbEntity
8
2
62
256
6
ByLayer
370
-1
48
1
60
0
100
AcDbLine
10
140
20
-28.9
30
0
11
140
21
-61.15
31
0
39
0
210
0
220
0
230
1
0
LINE
5
166
100
AcDbEntity
8
2
62
256
6
ByLayer
370
-1
48
1
60
0
100
AcDbLine
10
0
20
-59.15
30
0
11
140
21
-59.15
31
0
39
0
210
0
220
0
230
1
0
LINE
5
167
100
AcDbEntity
8
2
62
256
6
ByLayer
370
-1
48
1
60
0
100
AcDbLine
10
0
20
-59.15
30
0
11
3.174998
21
-58.732003
31
0
39
0
210
0
220
0
230
1
0
LINE
5
168
100
AcDbEntity
8
2
62
256
6
ByLayer
370
-1
48
1
60
0
100
AcDbLine
10
0
20
-59.15
30
0
11
3.175002
21
-59.567997
31
0
39
0
210
0
220
0
230
1
0
LINE
5
169
100
AcDbEntity
8
2
62
256
6
ByLayer
370
-1
48
1
60
0
100
AcDbLine
10
3.174998
20
-58.732003
30
0
11
3.175002
21
-59.567997
31
0
39
0
210
0
220
0
230
1
0
LINE
5
16A
100
AcDbEntity
8
2
62
256
6
ByLayer
370
-1
48
1
60
0
100
AcDbLine
10
140
20
-59.15
30
0
11
136.825002
21
-59.567997
31
0
39
0
210
0
220
0
230
1
0
LINE
5
16B
100
AcDbEntity
8
2
62
256
6
ByLayer
370
-1
48
1
60
0
100
AcDbLine
10
140
20
-59.15
30
0
11
136.824998
21
-58.732003
31
0
39
0
210
0
220
0
230
1
0
LINE
5
16C
100
AcDbEntity
8
2
62
256
6
ByLayer
370
-1
48
1
60
0
100
AcDbLine
10
136.825002
20
-59.567997
30
0
11
136.824998
21
-58.732003
31
0
39
0
210
0
220
0
230
1
0
ENDBLK
5
16E
100
AcDbEntity
8
0
100
AcDbBlockEnd
0
BLOCK
5
17B
100
AcDbEntity
8
0
100
AcDbBlockBegin
2
DimnDraft3D5
70
0
10
0
20
0
30
0
3
DimnDraft3D5
0
MTEXT
5
171
100
AcDbEntity
8
2
62
256
6
ByLayer
370
-1
48
1
60
0
100
AcDbMText
10
75.834868
20
-43.025
30
0
210
0
220
0
230
1
1
\W01.000;\fsimplex.shx,bigfont.shx;119.2 
40
4.5
41
0
44
1.084337
50
0
71
7
72
5
7
DEFAULT
0
LINE
5
172
100
AcDbEntity
8
2
62
256
6
ByLayer
370
-1
48
1
60
0
100
AcDbLine
10
20.8
20
-22
30
0
11
20.8
21
-46.15
31
0
39
0
210
0
220
0
230
1
0
LINE
5
173
100
AcDbEntity
8
2
62
256
6
ByLayer
370
-1
48
1
60
0
100
AcDbLine
10
140
20
-28.9
30
0
11
140
21
-46.15
31
0
39
0
210
0
220
0
230
1
0
LINE
5
174
100
AcDbEntity
8
2
62
256
6
ByLayer
370
-1
48
1
60
0
100
AcDbLine
10
20.8
20
-44.15
30
0
11
140
21
-44.15
31
0
39
0
210
0
220
0
230
1
0
LINE
5
175
100
AcDbEntity
8
2
62
256
6
ByLayer
370
-1
48
1
60
0
100
AcDbLine
10
20.8
20
-44.15
30
0
11
23.974998
21
-43.732003
31
0
39
0
210
0
220
0
230
1
0
LINE
5
176
100
AcDbEntity
8
2
62
256
6
ByLayer
370
-1
48
1
60
0
100
AcDbLine
10
20.8
20
-44.15
30
0
11
23.975002
21
-44.567997
31
0
39
0
210
0
220
0
230
1
0
LINE
5
177
100
AcDbEntity
8
2
62
256
6
ByLayer
370
-1
48
1
60
0
100
AcDbLine
10
23.974998
20
-43.732003
30
0
11
23.975002
21
-44.567997
31
0
39
0
210
0
220
0
230
1
0
LINE
5
178
100
AcDbEntity
8
2
62
256
6
ByLayer
370
-1
48
1
60
0
100
AcDbLine
10
140
20
-44.15
30
0
11
136.825002
21
-44.567997
31
0
39
0
210
0
220
0
230
1
0
LINE
5
179
100
AcDbEntity
8
2
62
256
6
ByLayer
370
-1
48
1
60
0
100
AcDbLine
10
140
20
-44.15
30
0
11
136.824998
21
-43.732003
31
0
39
0
210
0
220
0
230
1
0
LINE
5
17A
100
AcDbEntity
8
2
62
256
6
ByLayer
370
-1
48
1
60
0
100
AcDbLine
10
136.825002
20
-44.567997
30
0
11
136.824998
21
-43.732003
31
0
39
0
210
0
220
0
230
1
0
ENDBLK
5
17C
100
AcDbEntity
8
0
100
AcDbBlockEnd
0
BLOCK
5
189
100
AcDbEntity
8
0
100
AcDbBlockBegin
2
DimnDraft3D6
70
0
10
0
20
0
30
0
3
DimnDraft3D6
0
MTEXT
5
17F
100
AcDbEntity
8
2
62
256
6
ByLayer
370
-1
48
1
60
0
100
AcDbMText
10
160.161507
20
32.335899
30
0
210
0
220
0
230
1
1
\W01.000;\fsimplex.shx,bigfont.shx;95%%d0' 
40
4.5
41
0
44
1.084337
50
317.5
71
7
72
5
7
DEFAULT
0
LINE
5
180
100
AcDbEntity
8
2
62
256
6
ByLayer
370
-1
48
1
60
0
100
AcDbLine
10
138.77982
20
-12.953274
30
0
11
134.166739
21
39.774475
31
0
39
0
210
0
220
0
230
1
0
LINE
5
181
100
AcDbEntity
8
2
62
256
6
ByLayer
370
-1
48
1
60
0
100
AcDbLine
10
142
20
0
30
0
11
177.572962
21
0
31
0
39
0
210
0
220
0
230
1
0
ARC
5
182
100
AcDbEntity
8
2
62
256
6
ByLayer
370
-1
48
1
60
0
100
AcDbCircle
39
0
10
137.646555
20
0
30
0
40
37.926406864093
210
0
220
0
230
1
100
AcDbArc
50
0
51
95
0
LINE
5
183
100
AcDbEntity
8
2
62
256
6
ByLayer
370
-1
48
1
60
0
100
AcDbLine
10
134.341051
20
37.782085
30
0
11
137.481349
21
38.409669
31
0
39
0
210
0
220
0
230
1
0
LINE
5
184
100
AcDbEntity
8
2
62
256
6
ByLayer
370
-1
48
1
60
0
100
AcDbLine
10
134.341051
20
37.782085
30
0
11
137.53678
21
37.575515
31
0
39
0
210
0
220
0
230
1
0
LINE
5
185
100
AcDbEntity
8
2
62
256
6
ByLayer
370
-1
48
1
60
0
100
AcDbLine
10
137.481349
20
38.409669
30
0
11
137.53678
21
37.575515
31
0
39
0
210
0
220
0
230
1
0
LINE
5
186
100
AcDbEntity
8
2
62
256
6
ByLayer
370
-1
48
1
60
0
100
AcDbLine
10
175.572962
20
0
30
0
11
175.088652
21
3.165562
31
0
39
0
210
0
220
0
230
1
0
LINE
5
187
100
AcDbEntity
8
2
62
256
6
ByLayer
370
-1
48
1
60
0
100
AcDbLine
10
175.572962
20
0
30
0
11
175.924462
21
3.183049
31
0
39
0
210
0
220
0
230
1
0
LINE
5
188
100
AcDbEntity
8
2
62
256
6
ByLayer
370
-1
48
1
60
0
100
AcDbLine
10
175.088652
20
3.165562
30
0
11
175.924462
21
3.183049
31
0
39
0
210
0
220
0
230
1
0
ENDBLK
5
18A
100
AcDbEntity
8
0
100
AcDbBlockEnd
0
ENDSEC
0
SECTION
2
ENTITIES
0
ARC
5
92
100
AcDbEntity
8
SK1
62
256
6
ByLayer
370
-1
48
1
60
0
100
AcDbCircle
39
0
10
0.6
20
18.75
30
0
40
1
210
0
220
0
230
-1
100
AcDbArc
50
233.130102
51
246.421822
0
ARC
5
93
100
AcDbEntity
8
SK1
62
256
6
ByLayer
370
-1
48
1
60
0
100
AcDbCircle
39
0
10
0.6
20
-18.75
30
0
40
1
210
0
220
0
230
-1
100
AcDbArc
50
113.578178
51
126.869898
0
ARC
5
94
100
AcDbEntity
8
1
62
256
6
ByLayer
370
-1
48
1
60
0
100
AcDbCircle
39
0
10
-21.727897
20
-21.2
30
0
40
1.2
210
0
220
0
230
-1
100
AcDbArc
50
14.574216
51
90
0
ARC
5
95
100
AcDbEntity
8
1
62
256
6
ByLayer
370
-1
48
1
60
0
100
AcDbCircle
39
0
10
-21.727897
20
21.2
30
0
40
1.2
210
0
220
0
230
-1
100
AcDbArc
50
270
51
345.425784
0
ELLIPSE
5
96
100
AcDbEntity
8
1
62
256
6
ByLayer
370
-1
48
1
60
0
100
AcDbEllipse
10
126.939225
20
-14.171252
30
0
11
-1.49429204713762
21
-0.130733614121486
31
0
210
0
220
0
230
1
40
0.992214
41
0.125282355819395
42
1.06511548040657
0
ELLIPSE
5
97
100
AcDbEntity
8
1
62
256
6
ByLayer
370
-1
48
1
60
0
100
AcDbEllipse
10
-1.056258
20
0
30
0
11
11.709272349728
21
24.6771864409383
31
0
210
0
220
0
230
-1
40
0.341999
41
0.167213071908973
42
1.08183270048925
0
ELLIPSE
5
98
100
AcDbEntity
8
1
62
256
6
ByLayer
370
-1
48
1
60
0
100
AcDbEllipse
10
21.056258
20
0
30
0
11
11.7092723497262
21
24.6771864409363
31
0
210
0
220
0
230
-1
40
0.341999
41
-2.97437958168081
42
-2.05975995310048
0
ELLIPSE
5
99
100
AcDbEntity
8
1
62
256
6
ByLayer
370
-1
48
1
60
0
100
AcDbEllipse
10
127.027693
20
-15.182453
30
0
11
1.77523000875776
21
0.155312500917325
31
0
210
0
220
0
230
1
40
0.992214
41
-3.13722933045983
42
-1.99077648309965
0
ELLIPSE
5
9A
100
AcDbEntity
8
1
62
256
6
ByLayer
370
-1
48
1
60
0
100
AcDbEllipse
10
127.000112
20
-14.867202
30
0
11
-1.49429204713762
21
-0.130733614121486
31
0
210
0
220
0
230
1
40
0.992214
41
0.00436332312998163
42
1.06511617319814
0
ELLIPSE
5
9B
100
AcDbEntity
8
1
62
256
6
ByLayer
370
-1
48
1
60
0
100
AcDbEllipse
10
127.008661
20
-14.975402
30
0
11
1.77523000875776
21
0.155312500917325
31
0
210
0
220
0
230
1
40
0.992214
41
2.82972345804643
42
-3.13722933045974
0
ELLIPSE
5
9C
100
AcDbEntity
8
1
62
256
6
ByLayer
370
-1
48
1
60
0
100
AcDbEllipse
10
21.056258
20
0
30
0
11
11.7092723497262
21
-24.6771864409362
31
0
210
0
220
0
230
-1
40
0.341999
41
2.05975995310048
42
2.9743795816808
0
ELLIPSE
5
9D
100
AcDbEntity
8
1
62
256
6
ByLayer
370
-1
48
1
60
0
100
AcDbEllipse
10
-1.056258
20
0
30
0
11
11.7092723497276
21
-24.6771864409378
31
0
210
0
220
0
230
-1
40
0.341999
41
-1.08183270048927
42
-0.167213071908978
0
ELLIPSE
5
9E
100
AcDbEntity
8
1
62
256
6
ByLayer
370
-1
48
1
60
0
100
AcDbEllipse
10
126.98108
20
-14.660151
30
0
11
-1.49429204713762
21
-0.130733614121486
31
0
210
0
220
0
230
1
40
0.992214
41
-0.130067207292123
42
0.00436332312998048
0
ELLIPSE
5
9F
100
AcDbEntity
8
1
62
256
6
ByLayer
370
-1
48
1
60
0
100
AcDbEllipse
10
126.70834
20
-12.649837
30
0
11
-1.74334072166055
21
-0.1525225498084
31
0
210
0
220
0
230
1
40
0.992214
41
0.321048054578966
42
1.2029521879948
0
ELLIPSE
5
A0
100
AcDbEntity
8
1
62
256
6
ByLayer
370
-1
48
1
60
0
100
AcDbEllipse
10
126.715396
20
-12.730483
30
0
11
1.74334072166055
21
0.152522549808396
31
0
210
0
220
0
230
1
40
0.992214
41
-2.48941641776591
42
-1.93855059250305
0
ELLIPSE
5
A1
100
AcDbEntity
8
1
62
256
6
ByLayer
370
-1
48
1
60
0
100
AcDbEllipse
10
126.803865
20
-13.741685
30
0
11
1.74334072166055
21
0.152522549808396
31
0
210
0
220
0
230
1
40
0.992214
41
0.151921250830876
42
-2.72391523167023
0
ELLIPSE
5
A2
100
AcDbEntity
8
1
62
256
6
ByLayer
370
-1
48
1
60
0
100
AcDbEllipse
10
133.098566
20
-20.05152
30
0
11
4.05583272606582
21
0.354839384688191
31
0
210
0
220
0
230
1
40
0.992214
41
0
42
6.28318530717959
0
ELLIPSE
5
A3
100
AcDbEntity
8
1
62
256
6
ByLayer
370
-1
48
1
60
0
100
AcDbEllipse
10
133.088576
20
-19.937335
30
0
11
3.9917229443672
21
0.34923050556844
31
0
210
0
220
0
230
1
40
0.992214
41
3.0536447753896
42
0
0
ELLIPSE
5
A4
100
AcDbEntity
8
1
62
256
6
ByLayer
370
-1
48
1
60
0
100
AcDbEllipse
10
133.088576
20
-19.937335
30
0
11
3.9917229443672
21
0.34923050556844
31
0
210
0
220
0
230
1
40
0.992214
41
0
42
0.578953489236567
0
ELLIPSE
5
A5
100
AcDbEntity
8
1
62
256
6
ByLayer
370
-1
48
1
60
0
100
AcDbEllipse
10
133.088576
20
-19.937335
30
0
11
3.9917229443672
21
0.34923050556844
31
0
210
0
220
0
230
1
40
0.992214
41
2.56257473172285
42
3.05364502689782
0
ELLIPSE
5
A6
100
AcDbEntity
8
1
62
256
6
ByLayer
370
-1
48
1
60
0
100
AcDbEllipse
10
139.206022
20
-26.11211
30
0
11
0.790978590284855
21
0.0692016597416389
31
0
210
0
220
0
230
1
40
0.992214
41
-1.74532925199432
42
-4.50956192623633E-14
0
ELLIPSE
5
A7
100
AcDbEntity
8
1
62
256
6
ByLayer
370
-1
48
1
60
0
100
AcDbEllipse
10
126.99111
20
-13.99093
30
0
11
0.790978590284843
21
0.0692016597416379
31
0
210
0
220
0
230
1
40
0.992214
41
1.39626340159549
42
-3.14159265358977
0
ELLIPSE
5
A8
100
AcDbEntity
8
1
62
256
6
ByLayer
370
-1
48
1
60
0
100
AcDbEllipse
10
126.939441
20
-13.400346
30
0
11
0.2399349891281
21
0.0209915915319238
31
0
210
0
220
0
230
1
40
0.992214
41
1.91181796696607
42
2.23183172841252
0
ELLIPSE
5
A9
100
AcDbEntity
8
1
62
256
6
ByLayer
370
-1
48
1
60
0
100
AcDbEllipse
10
133.086697
20
-19.915858
30
0
11
-3.9215312015256
21
-0.343089523796683
31
0
210
0
220
0
230
1
40
0.992214
41
-1.37894601687192
42
0
0
ELLIPSE
5
AA
100
AcDbEntity
8
1
62
256
6
ByLayer
370
-1
48
1
60
0
100
AcDbEllipse
10
133.086697
20
-19.915858
30
0
11
-3.9215312015256
21
-0.343089523796683
31
0
210
0
220
0
230
1
40
0.992214
41
0
42
3.05364481319948
0
ELLIPSE
5
AB
100
AcDbEntity
8
1
62
256
6
ByLayer
370
-1
48
1
60
0
100
AcDbEllipse
10
133.086697
20
-19.915858
30
0
11
-3.9215312015256
21
-0.343089523796683
31
0
210
0
220
0
230
1
40
0.992214
41
3.05364478986723
42
-1.76261310660573
0
ELLIPSE
5
AC
100
AcDbEntity
8
1
62
256
6
ByLayer
370
-1
48
1
60
0
100
AcDbEllipse
10
127.966868
20
-25.143893
30
0
11
0.790978590284848
21
0.0692016597416383
31
0
210
0
220
0
230
1
40
0.992214
41
-3.14159265358978
42
-1.7453292519943
0
ELLIPSE
5
AD
100
AcDbEntity
8
1
62
256
6
ByLayer
370
-1
48
1
60
0
100
AcDbEllipse
10
138.230264
20
-14.959147
30
0
11
0.790978590284816
21
0.0692016597416355
31
0
210
0
220
0
230
1
40
0.992214
41
0
42
1.39626340159539
0
ELLIPSE
5
AE
100
AcDbEntity
8
1
62
256
6
ByLayer
370
-1
48
1
60
0
100
AcDbEllipse
10
133.096454
20
-20.027379
30
0
11
1.6701204113508
21
0.146116602716442
31
0
210
0
220
0
230
1
40
0.992214
41
-1.91707162951243
42
-0.872664625997157
0
ELLIPSE
5
AF
100
AcDbEntity
8
1
62
256
6
ByLayer
370
-1
48
1
60
0
100
AcDbEllipse
10
133.565302
20
-21.585908
30
0
11
-0.683389562890938
21
-0.0597888395248931
31
0
210
0
220
0
230
1
40
0.992214
41
-2.17885877137557
42
-1.3948681277548
0
ELLIPSE
5
B0
100
AcDbEntity
8
1
62
256
6
ByLayer
370
-1
48
1
60
0
100
AcDbEllipse
10
134.90109
20
-20.260357
30
0
11
-0.683389562890938
21
-0.0597888395248931
31
0
210
0
220
0
230
1
40
0.992214
41
-1.13445176786033
42
-0.350461124239552
0
ELLIPSE
5
B1
100
AcDbEntity
8
1
62
256
6
ByLayer
370
-1
48
1
60
0
100
AcDbEllipse
10
132.718716
20
-21.101249
30
0
11
-0.29088885184279
21
-0.025449476882316
31
0
210
0
220
0
230
1
40
0.992214
41
0.519783099161265
42
2.5307151694558
0
ELLIPSE
5
B2
100
AcDbEntity
8
1
62
256
6
ByLayer
370
-1
48
1
60
0
100
AcDbEllipse
10
133.096454
20
-20.027379
30
0
11
1.6701204113508
21
0.146116602716442
31
0
210
0
220
0
230
1
40
0.992214
41
2.26892802759264
42
-2.96985027607169
0
ELLIPSE
5
B3
100
AcDbEntity
8
1
62
256
6
ByLayer
370
-1
48
1
60
0
100
AcDbEllipse
10
133.096454
20
-20.027379
30
0
11
1.6701204113508
21
0.146116602716442
31
0
210
0
220
0
230
1
40
0.992214
41
0.171742377518109
42
1.22452102407738
0
ELLIPSE
5
B4
100
AcDbEntity
8
1
62
256
6
ByLayer
370
-1
48
1
60
0
100
AcDbEllipse
10
133.074201
20
-19.773031
30
0
11
-1.20190890324768
21
-0.105153403625048
31
0
210
0
220
0
230
1
40
0.992214
41
-0.0659602724887371
42
0.629099067386003
0
ELLIPSE
5
B5
100
AcDbEntity
8
1
62
256
6
ByLayer
370
-1
48
1
60
0
100
AcDbEllipse
10
133.093508
20
-19.993712
30
0
11
1.20190890324768
21
0.105153403625044
31
0
210
0
220
0
230
1
40
0.992214
41
0.629099067385835
42
0.76716433420957
0
ELLIPSE
5
B6
100
AcDbEntity
8
1
62
256
6
ByLayer
370
-1
48
1
60
0
100
AcDbEllipse
10
133.074201
20
-19.773031
30
0
11
1.20190890324767
21
0.105153403625044
31
0
210
0
220
0
230
1
40
0.992214
41
-2.5124935862038
42
-2.37442831938029
0
ELLIPSE
5
B7
100
AcDbEntity
8
1
62
256
6
ByLayer
370
-1
48
1
60
0
100
AcDbEllipse
10
133.092093
20
-19.977533
30
0
11
3.41196684096423
21
0.298508418910719
31
0
210
0
220
0
230
1
40
0.992214
41
0
42
6.28318530717959
0
ELLIPSE
5
B8
100
AcDbEntity
8
1
62
256
6
ByLayer
370
-1
48
1
60
0
100
AcDbEllipse
10
134.052471
20
-20.743794
30
0
11
-0.29088885184279
21
-0.025449476882316
31
0
210
0
220
0
230
1
40
0.992214
41
0.96273388221378
42
2.70462509739068
0
ELLIPSE
5
B9
100
AcDbEntity
8
1
62
256
6
ByLayer
370
-1
48
1
60
0
100
AcDbEllipse
10
134.412681
20
-19.420265
30
0
11
-0.29088885184279
21
-0.025449476882316
31
0
210
0
220
0
230
1
40
0.992214
41
2.00714088572948
42
2.69655567657815
0
ELLIPSE
5
BA
100
AcDbEntity
8
1
62
256
6
ByLayer
370
-1
48
1
60
0
100
AcDbEllipse
10
133.096454
20
-20.027379
30
0
11
1.6701204113508
21
0.146116602716442
31
0
210
0
220
0
230
1
40
0.992214
41
-2.96985027607169
42
-1.91707162951243
0
ELLIPSE
5
BB
100
AcDbEntity
8
1
62
256
6
ByLayer
370
-1
48
1
60
0
100
AcDbEllipse
10
133.074201
20
-19.773031
30
0
11
1.20190890324767
21
0.105153403625044
31
0
210
0
220
0
230
1
40
0.992214
41
-1.39486812775479
42
-0.35046112423953
0
ELLIPSE
5
BC
100
AcDbEntity
8
1
62
256
6
ByLayer
370
-1
48
1
60
0
100
AcDbEllipse
10
133.074201
20
-19.773031
30
0
11
-1.20190890324768
21
-0.105153403625048
31
0
210
0
220
0
230
1
40
0.992214
41
-2.24345804750986
42
-1.72168913779363
0
ELLIPSE
5
BD
100
AcDbEntity
8
1
62
256
6
ByLayer
370
-1
48
1
60
0
100
AcDbEllipse
10
131.740794
20
-21.09622
30
0
11
-0.683389562890938
21
-0.0597888395248931
31
0
210
0
220
0
230
1
40
0.992214
41
-3.14158830158436
42
-2.56507499400869
0
ELLIPSE
5
BE
100
AcDbEntity
8
1
62
256
6
ByLayer
370
-1
48
1
60
0
100
AcDbEllipse
10
133.096454
20
-20.027379
30
0
11
1.6701204113508
21
0.146116602716442
31
0
210
0
220
0
230
1
40
0.992214
41
1.22452102407738
42
2.26892802759264
0
ELLIPSE
5
BF
100
AcDbEntity
8
1
62
256
6
ByLayer
370
-1
48
1
60
0
100
AcDbEllipse
10
133.074201
20
-19.773031
30
0
11
-1.20190890324768
21
-0.105153403625048
31
0
210
0
220
0
230
1
40
0.992214
41
0.767164334209466
42
1.74672452583503
0
ELLIPSE
5
C0
100
AcDbEntity
8
1
62
256
6
ByLayer
370
-1
48
1
60
0
100
AcDbEllipse
10
133.074201
20
-19.773031
30
0
11
-1.20190890324768
21
-0.105153403625048
31
0
210
0
220
0
230
1
40
0.992214
41
-1.01832643102725
42
-0.440246890029904
0
ELLIPSE
5
C1
100
AcDbEntity
8
1
62
256
6
ByLayer
370
-1
48
1
60
0
100
AcDbEllipse
10
131.740794
20
-21.09622
30
0
11
-0.683389562890938
21
-0.0597888395248931
31
0
210
0
220
0
230
1
40
0.992214
41
-2.32184691157547
42
-1.65219961787092
0
ELLIPSE
5
C2
100
AcDbEntity
8
1
62
256
6
ByLayer
370
-1
48
1
60
0
100
AcDbEllipse
10
133.096454
20
-20.027379
30
0
11
2.39086727542018
21
0.209173782594372
31
0
210
0
220
0
230
1
40
0.992214
41
0
42
6.28318530717959
0
ELLIPSE
5
C3
100
AcDbEntity
8
1
62
256
6
ByLayer
370
-1
48
1
60
0
100
AcDbEllipse
10
131.247313
20
-19.285706
30
0
11
-0.683389562890938
21
-0.0597888395248931
31
0
210
0
220
0
230
1
40
0.992214
41
-3.14158555232035
42
-2.70806313420847
0
ELLIPSE
5
C4
100
AcDbEntity
8
1
62
256
6
ByLayer
370
-1
48
1
60
0
100
AcDbEllipse
10
133.565302
20
-21.585908
30
0
11
-0.683389562890938
21
-0.0597888395248931
31
0
210
0
220
0
230
1
40
0.992214
41
-1.3948681277548
42
-0.610877484133978
0
ELLIPSE
5
C5
100
AcDbEntity
8
1
62
256
6
ByLayer
370
-1
48
1
60
0
100
AcDbEllipse
10
133.079086
20
-19.828864
30
0
11
3.41196684096423
21
0.298508418910718
31
0
210
0
220
0
230
1
40
0.992214
41
3.05364490604682
42
-3.14157580230013
0
ELLIPSE
5
C6
100
AcDbEntity
8
1
62
256
6
ByLayer
370
-1
48
1
60
0
100
AcDbEllipse
10
133.079086
20
-19.828864
30
0
11
3.41196684096423
21
0.298508418910718
31
0
210
0
220
0
230
1
40
0.992214
41
0
42
3.05364504358698
0
ELLIPSE
5
C7
100
AcDbEntity
8
1
62
256
6
ByLayer
370
-1
48
1
60
0
100
AcDbEllipse
10
131.735722
20
-20.125798
30
0
11
-0.29088885184279
21
-0.025449476882316
31
0
210
0
220
0
230
1
40
0.992214
41
0.441455539748128
42
1.4893930357192
0
ELLIPSE
5
C8
100
AcDbEntity
8
1
62
256
6
ByLayer
370
-1
48
1
60
0
100
AcDbEllipse
10
133.093508
20
-19.993712
30
0
11
1.20190890324768
21
0.105153403625044
31
0
210
0
220
0
230
1
40
0.992214
41
-2.51249358620378
42
-2.37442831938032
0
ELLIPSE
5
C9
100
AcDbEntity
8
1
62
256
6
ByLayer
370
-1
48
1
60
0
100
AcDbEllipse
10
133.096454
20
-20.027379
30
0
11
1.6701204113508
21
0.146116602716442
31
0
210
0
220
0
230
1
40
0.992214
41
-0.872664625997157
42
0.171742377518109
0
ELLIPSE
5
CA
100
AcDbEntity
8
1
62
256
6
ByLayer
370
-1
48
1
60
0
100
AcDbEllipse
10
134.90109
20
-20.260357
30
0
11
-0.683389562890938
21
-0.0597888395248931
31
0
210
0
220
0
230
1
40
0.992214
41
-0.350461124239552
42
6.67697622490504E-06
0
ELLIPSE
5
CB
100
AcDbEntity
8
1
62
256
6
ByLayer
370
-1
48
1
60
0
100
AcDbEllipse
10
133.074201
20
-19.773031
30
0
11
-1.20190890324768
21
-0.105153403625048
31
0
210
0
220
0
230
1
40
0.992214
41
2.79113152935025
42
-2.81430495550069
0
ELLIPSE
5
CC
100
AcDbEntity
8
1
62
256
6
ByLayer
370
-1
48
1
60
0
100
AcDbEllipse
10
127.293005
20
-13.848927
30
0
11
-0.796955758473397
21
-0.0697245941981261
31
0
210
0
220
0
230
1
40
0.992214
41
-1.74532925199423
42
-1.07984016014381
0
ELLIPSE
5
CD
100
AcDbEntity
8
1
62
256
6
ByLayer
370
-1
48
1
60
0
100
AcDbEllipse
10
127.253439
20
-13.396684
30
0
11
0.796955758473397
21
0.0697245941981241
31
0
210
0
220
0
230
1
40
0.992214
41
1.39626340159553
42
3.07265166016606
0
POINT
5
41
100
AcDbEntity
8
80
62
256
6
ByLayer
370
-1
48
1
60
0
100
AcDbPoint
10
0
20
0
30
0
39
0
210
0
220
0
230
1
50
360
0
POINT
5
43
100
AcDbEntity
8
81
62
256
6
ByLayer
370
-1
48
1
60
0
100
AcDbPoint
10
140
20
-26.9
30
0
39
0
210
0
220
0
230
1
50
360
0
POINT
5
45
100
AcDbEntity
8
1
62
256
6
ByLayer
370
-1
48
1
60
0
100
AcDbPoint
10
0
20
0
30
0
39
0
210
0
220
0
230
1
50
360
0
POINT
5
47
100
AcDbEntity
8
2
62
256
6
ByLayer
370
-1
48
1
60
0
100
AcDbPoint
10
140
20
26.9
30
0
39
0
210
0
220
0
230
1
50
360
0
SPLINE
5
CE
100
AcDbEntity
8
SK1
62
256
6
ByLayer
370
-1
48
1
60
0
100
AcDbSpline
70
4
71
2
72
6
73
3
40
0
40
0
40
0
40
1
40
1
40
1
41
1
10
-2.19492113517947
20
17.5202263833491
30
0
41
1
10
-2.59746056758974
20
17.5101131916847
30
0
41
1
10
-3
20
17.5000000000204
30
0
0
SPLINE
5
CF
100
AcDbEntity
8
SK1
62
256
6
ByLayer
370
-1
48
1
60
0
100
AcDbSpline
70
4
71
2
72
6
73
3
40
0
40
0
40
0
40
1
40
1
40
1
41
1
10
-3
20
-17.5000000000527
30
0
41
1
10
-2.59746056758974
20
-17.510113191717
30
0
41
1
10
-2.19492113517947
20
-17.5202263833814
30
0
0
SPLINE
5
D0
100
AcDbEntity
8
SK1
62
256
6
ByLayer
370
-1
48
1
60
0
100
AcDbSpline
70
4
71
2
72
6
73
3
40
0
40
0
40
0
40
1
40
1
40
1
41
1
10
-3
20
17.5000000000204
30
0
41
1
10
-15.7502365839532
20
17.1796696771814
30
0
41
1
10
-28.5004731679065
20
16.8593393543424
30
0
0
SPLINE
5
D1
100
AcDbEntity
8
SK1
62
256
6
ByLayer
370
-1
48
1
60
0
100
AcDbSpline
70
4
71
2
72
6
73
3
40
0
40
0
40
0
40
1
40
1
40
1
41
1
10
-28.5004731679065
20
-16.8593393543735
30
0
41
1
10
-15.7502365839533
20
-17.1796696772131
30
0
41
1
10
-3
20
-17.5000000000527
30
0
0
SPLINE
5
D2
100
AcDbEntity
8
SK1
62
256
6
ByLayer
370
-1
48
1
60
0
100
AcDbSpline
70
4
71
2
72
6
73
3
40
0
40
0
40
0
40
1
40
1
40
1
41
1
10
-30
20
-15.9423013487186
30
0
41
1
10
-29.2501952787077
20
-16.4010253845871
30
0
41
1
10
-28.5003904504266
20
-16.8597456617469
30
0
0
SPLINE
5
D3
100
AcDbEntity
8
SK1
62
256
6
ByLayer
370
-1
48
1
60
0
100
AcDbSpline
70
4
71
2
72
6
73
3
40
0
40
0
40
0
40
1
40
1
40
1
41
1
10
-28.5004032853135
20
16.8579102610954
30
0
41
1
10
-29.250201613525
20
16.3993636736336
30
0
41
1
10
-30
20
15.9408160639395
30
0
0
SPLINE
5
D4
100
AcDbEntity
8
SK1
62
256
6
ByLayer
370
-1
48
1
60
0
100
AcDbSpline
70
4
71
2
72
6
73
3
40
0
40
0
40
0
40
1
40
1
40
1
41
1
10
-0.400000000000006
20
17.3251501414068
30
0
41
1
10
-1.20000000000002
20
17.3251501414068
30
0
41
1
10
-2
20
17.3251501414068
30
0
0
SPLINE
5
D5
100
AcDbEntity
8
SK1
62
256
6
ByLayer
370
-1
48
1
60
0
100
AcDbSpline
70
4
71
2
72
6
73
3
40
0
40
0
40
0
40
1
40
1
40
1
41
1
10
-2
20
-17.3251501409626
30
0
41
1
10
-1.20000000000002
20
-17.3251501409626
30
0
41
1
10
-0.400000000000006
20
-17.3251501409626
30
0
0
SPLINE
5
D6
100
AcDbEntity
8
SK1
62
256
6
ByLayer
370
-1
48
1
60
0
100
AcDbSpline
70
4
71
3
72
11
73
7
40
0
40
0
40
0
40
0
40
0.243046129741601
40
0.498205801788989
40
0.754244992255907
40
1
40
1
40
1
40
1
41
1
10
-0.400000000000006
20
-17.3241476526065
30
0
41
1
10
-0.373991067023667
20
-17.3239685556465
30
0
41
1
10
-0.3244207367608
20
-17.33275982811
30
0
41
1
10
-0.254178184246655
20
-17.3766360753193
30
0
41
1
10
-0.20935024226452
20
-17.445622853432
30
0
41
1
10
-0.199994647676391
20
-17.493844966999
30
0
41
1
10
-0.200000000000017
20
-17.5191731511753
30
0
0
SPLINE
5
D7
100
AcDbEntity
8
SK1
62
256
6
ByLayer
370
-1
48
1
60
0
100
AcDbSpline
70
4
71
3
72
11
73
7
40
0
40
0
40
0
40
0
40
0.245757530295202
40
0.501795331807361
40
0.756953049144814
40
1
40
1
40
1
40
1
41
1
10
-0.200000000000017
20
17.5191688355708
30
0
41
1
10
-0.199994500672233
20
17.4938412312526
30
0
41
1
10
-0.209350044376066
20
17.4456203921356
30
0
41
1
10
-0.254178044541106
20
17.3766339294131
30
0
41
1
10
-0.324421202647557
20
17.332758304075
30
0
41
1
10
-0.373991174653753
20
17.323967489369
30
0
41
1
10
-0.400000000000006
20
17.3241468641747
30
0
0
SPLINE
5
D8
100
AcDbEntity
8
1
62
256
6
ByLayer
370
-1
48
1
60
0
100
AcDbSpline
70
4
71
1
72
4
73
2
40
0
40
0
40
1
40
1
41
1
10
138.376402108074
20
-14.184547427566
30
0
41
1
10
138.372200828446
20
-14.183399197381
30
0
0
SPLINE
5
D9
100
AcDbEntity
8
1
62
256
6
ByLayer
370
-1
48
1
60
0
100
AcDbSpline
70
4
71
3
72
8
73
4
40
0
40
0
40
0
40
0
40
1
40
1
40
1
40
1
41
1
10
121.235560583779
20
-23.941806238026
30
0
41
1
10
121.473439603286
20
-24.1210723465193
30
0
41
1
10
121.711337783725
20
-24.300313438971
30
0
41
1
10
121.94925387
20
-24.4795311390916
30
0
0
SPLINE
5
DA
100
AcDbEntity
8
1
62
256
6
ByLayer
370
-1
48
1
60
0
100
AcDbSpline
70
4
71
3
72
16
73
12
40
0
40
0
40
0
40
0
40
0.0773436766578767
40
0.0773436766578767
40
0.181588290672618
40
0.181588290672618
40
0.353924998170011
40
0.353924998170011
40
0.659870482236094
40
0.659870482236094
40
1
40
1
40
1
40
1
41
1
10
11.4613248654052
20
23.8391299750503
30
0
41
1
10
11.480691273438
20
23.8391299750503
30
0
41
1
10
11.5001920479834
20
23.8383766644784
30
0
41
1
10
11.5443643455559
20
23.8350242537625
30
0
41
1
10
11.5688999660418
20
23.8318379431383
30
0
41
1
10
11.6286300521075
20
23.8212426939765
30
0
41
1
10
11.66158714279
20
23.812328084785
30
0
41
1
10
11.7407360052433
20
23.7850663392819
30
0
41
1
10
11.7798892743244
20
23.7642694363116
30
0
41
1
10
11.8468244213921
20
23.7185457490814
30
0
41
1
10
11.8734747805012
20
23.692873493267
30
0
41
1
10
11.8943375672974
20
23.6665017920809
30
0
0
SPLINE
5
DB
100
AcDbEntity
8
1
62
256
6
ByLayer
370
-1
48
1
60
0
100
AcDbSpline
70
4
71
3
72
34
73
30
40
-0.125000000000004
40
-0.125000000000004
40
0
40
0
40
0.124999999999996
40
0.124999999999996
40
0.187499999999994
40
0.187499999999994
40
0.218749999999994
40
0.218749999999994
40
0.249999999999993
40
0.249999999999993
40
0.312499999999993
40
0.312499999999993
40
0.374999999999993
40
0.374999999999993
40
0.499999999999992
40
0.499999999999992
40
0.624999999999991
40
0.624999999999991
40
0.687499999999991
40
0.687499999999991
40
0.703124999999992
40
0.703124999999992
40
0.718749999999992
40
0.718749999999992
40
0.749999999999993
40
0.749999999999993
40
0.874999999999996
40
0.874999999999996
40
1
40
1
40
1.125
40
1.125
41
1
10
110.975315127883
20
-10.7564487760015
30
0
41
1
10
108.191396010057
20
-9.43425250492129
30
0
41
1
10
106.784302600287
20
-8.87954686889756
30
0
41
1
10
104.522598896207
20
-8.57472229419133
30
0
41
1
10
103.72906363774
20
-8.53379046637397
30
0
41
1
10
102.652769783993
20
-9.04864700456
30
0
41
1
10
102.331666979345
20
-9.37392590297097
30
0
41
1
10
102.162373451644
20
-10.1741845328693
30
0
41
1
10
102.278266354904
20
-10.570853267994
30
0
41
1
10
102.793299165363
20
-11.6054338764788
30
0
41
1
10
103.347587957363
20
-12.1333366224264
30
0
41
1
10
104.514423407922
20
-13.0629147945002
30
0
41
1
10
105.150981310876
20
-13.4588487010259
30
0
41
1
10
107.157494261684
20
-14.537210795896
30
0
41
1
10
108.592454655311
20
-15.0938418413567
30
0
41
1
10
111.543881279661
20
-16.033345063507
30
0
41
1
10
113.074988801197
20
-16.4258923324511
30
0
41
1
10
115.439460963097
20
-16.8244690747917
30
0
41
1
10
116.24205012854
20
-16.9534807304084
30
0
41
1
10
117.251184522632
20
-16.8814732613205
30
0
41
1
10
117.455646210966
20
-16.8563228157208
30
0
41
1
10
117.827197120558
20
-16.6900456356768
30
0
41
1
10
117.953881705619
20
-16.4882437652849
30
0
41
1
10
117.841203981715
20
-15.8967280641795
30
0
41
1
10
117.540265842509
20
-15.5938303284859
30
0
41
1
10
116.190609287856
20
-14.1534765083832
30
0
41
1
10
114.890268961305
20
-13.2512474210994
30
0
41
1
10
112.299350955424
20
-11.529018914598
30
0
41
1
10
110.975315127883
20
-10.7564487760015
30
0
41
1
10
108.191396010057
20
-9.43425250492129
30
0
0
SPLINE
5
DC
100
AcDbEntity
8
1
62
256
6
ByLayer
370
-1
48
1
60
0
100
AcDbSpline
70
4
71
3
72
16
73
12
40
0
40
0
40
0
40
0
40
0.0773436766578125
40
0.0773436766578125
40
0.181588290672542
40
0.181588290672542
40
0.353924998169895
40
0.353924998169895
40
0.659870482235859
40
0.659870482235859
40
1
40
1
40
1
40
1
41
1
10
8.5386751345948
20
7.52966679426501
30
0
41
1
10
8.51930872656195
20
7.52966679426501
30
0
41
1
10
8.4998079520166
20
7.53205286469702
30
0
41
1
10
8.45563565444414
20
7.54265601007379
30
0
41
1
10
8.43110003395827
20
7.55272636772355
30
0
41
1
10
8.37136994789256
20
7.58609718460599
30
0
41
1
10
8.33841285720999
20
7.61407037421819
30
0
41
1
10
8.25926399475679
20
7.69895209889248
30
0
41
1
10
8.22011072567562
20
7.76300791758402
30
0
41
1
10
8.15317557860797
20
7.90167589305835
30
0
41
1
10
8.12652521949877
20
7.97837348437849
30
0
41
1
10
8.10566243270259
20
8.05584836782774
30
0
0
SPLINE
5
DD
100
AcDbEntity
8
1
62
256
6
ByLayer
370
-1
48
1
60
0
100
AcDbSpline
70
4
71
3
72
18
73
14
40
0
40
0
40
0
40
0
40
0.0809805960320615
40
0.0809805960320615
40
0.544227292213941
40
0.544227292213941
40
0.699318265621571
40
0.699318265621571
40
0.856346274356429
40
0.856346274356429
40
0.966571999538782
40
0.966571999538782
40
1
40
1
40
1
40
1
41
1
10
11.8943375672974
20
8.05584836782771
30
0
41
1
10
11.8893471011257
20
8.03731605051115
30
0
41
1
10
11.8840209914239
20
8.01885383673363
30
0
41
1
10
11.845998279105
20
7.89611164850155
30
0
41
1
10
11.8022255638175
20
7.79219397274093
30
0
41
1
10
11.7151274219928
20
7.67169814060131
30
0
41
1
10
11.6903249195398
20
7.64266520230271
30
0
41
1
10
11.6339533178057
20
7.59122859579532
30
0
41
1
10
11.6016224931833
20
7.56839473241365
30
0
41
1
10
11.5411042357638
20
7.54154007085771
30
0
41
1
10
11.5139568123411
20
7.53384342094336
30
0
41
1
10
11.4781693033538
20
7.53010833377257
30
0
41
1
10
11.4697409388397
20
7.52966679426501
30
0
41
1
10
11.4613248654052
20
7.52966679426501
30
0
0
SPLINE
5
DE
100
AcDbEntity
8
1
62
256
6
ByLayer
370
-1
48
1
60
0
100
AcDbSpline
70
4
71
3
72
8
73
4
40
0
40
0
40
0
40
0
40
1
40
1
40
1
40
1
41
1
10
125.271780049072
20
-14.5827554629055
30
0
41
1
10
125.330674773563
20
-14.6000901147313
30
0
41
1
10
125.40193507652
20
-14.6048540997829
30
0
41
1
10
125.482585526659
20
-14.597478170328
30
0
0
SPLINE
5
DF
100
AcDbEntity
8
1
62
256
6
ByLayer
370
-1
48
1
60
0
100
AcDbSpline
70
4
71
3
72
18
73
14
40
0
40
0
40
0
40
0
40
0.0809805960320918
40
0.0809805960320918
40
0.544227292214085
40
0.544227292214085
40
0.699318265621671
40
0.699318265621671
40
0.856346274356483
40
0.856346274356483
40
0.966571999538831
40
0.966571999538831
40
1
40
1
40
1
40
1
41
1
10
8.10566243270259
20
-8.05584836782774
30
0
41
1
10
8.11065289887435
20
-8.03731605051118
30
0
41
1
10
8.11597900857612
20
-8.01885383673363
30
0
41
1
10
8.15400172089508
20
-7.89611164850155
30
0
41
1
10
8.19777443618253
20
-7.7921939727409
30
0
41
1
10
8.28487257800725
20
-7.67169814060125
30
0
41
1
10
8.30967508046024
20
-7.64266520230268
30
0
41
1
10
8.36604668219428
20
-7.59122859579529
30
0
41
1
10
8.3983775068167
20
-7.56839473241365
30
0
41
1
10
8.45889576423619
20
-7.54154007085771
30
0
41
1
10
8.48604318765894
20
-7.53384342094336
30
0
41
1
10
8.52183069664622
20
-7.53010833377257
30
0
41
1
10
8.53025906116031
20
-7.52966679426501
30
0
41
1
10
8.5386751345948
20
-7.52966679426501
30
0
0
SPLINE
5
E0
100
AcDbEntity
8
1
62
256
6
ByLayer
370
-1
48
1
60
0
100
AcDbSpline
70
4
71
3
72
8
73
4
40
0
40
0
40
0
40
0
40
1
40
1
40
1
40
1
41
1
10
116.004603734525
20
-19.9805869591861
30
0
41
1
10
117.731804083801
20
-21.3008085104656
30
0
41
1
10
119.478244808688
20
-22.6174895284324
30
0
41
1
10
121.235560583779
20
-23.941806238026
30
0
0
SPLINE
5
E1
100
AcDbEntity
8
1
62
256
6
ByLayer
370
-1
48
1
60
0
100
AcDbSpline
70
4
71
3
72
18
73
14
40
0
40
0
40
0
40
0
40
0.0809805960321051
40
0.0809805960321051
40
0.544227292214096
40
0.544227292214096
40
0.69931826562168
40
0.69931826562168
40
0.856346274356486
40
0.856346274356486
40
0.966571999538835
40
0.966571999538835
40
1
40
1
40
1
40
1
41
1
10
11.8943375672974
20
-23.6665017920809
30
0
41
1
10
11.8893471011257
20
-23.672810013698
30
0
41
1
10
11.8840209914239
20
-23.6790700603507
30
0
41
1
10
11.8459982791049
20
-23.7205303134149
30
0
41
1
10
11.8022255638175
20
-23.7548029562659
30
0
41
1
10
11.7151274219927
20
-23.7938243006291
30
0
41
1
10
11.6903249195398
20
-23.8031592998669
30
0
41
1
10
11.6339533178057
20
-23.8196134016841
30
0
41
1
10
11.6016224931833
20
-23.8268687494612
30
0
41
1
10
11.5411042357638
20
-23.8353793525422
30
0
41
1
10
11.5139568123411
20
-23.8378105604685
30
0
41
1
10
11.4781693033538
20
-23.8389905264494
30
0
41
1
10
11.4697409388397
20
-23.8391299750503
30
0
41
1
10
11.4613248654052
20
-23.8391299750503
30
0
0
SPLINE
5
E2
100
AcDbEntity
8
1
62
256
6
ByLayer
370
-1
48
1
60
0
100
AcDbSpline
70
4
71
3
72
18
73
14
40
0
40
0
40
0
40
0
40
0.0809805960320801
40
0.0809805960320801
40
0.544227292214068
40
0.544227292214068
40
0.699318265621658
40
0.699318265621658
40
0.856346274356475
40
0.856346274356475
40
0.966571999538822
40
0.966571999538822
40
1
40
1
40
1
40
1
41
1
10
8.10566243270259
20
23.6665017920809
30
0
41
1
10
8.11065289887435
20
23.672810013698
30
0
41
1
10
8.11597900857612
20
23.6790700603507
30
0
41
1
10
8.15400172089508
20
23.7205303134149
30
0
41
1
10
8.19777443618253
20
23.7548029562659
30
0
41
1
10
8.28487257800725
20
23.7938243006291
30
0
41
1
10
8.30967508046024
20
23.8031592998669
30
0
41
1
10
8.36604668219428
20
23.8196134016841
30
0
41
1
10
8.3983775068167
20
23.8268687494612
30
0
41
1
10
8.45889576423616
20
23.8353793525422
30
0
41
1
10
8.48604318765894
20
23.8378105604685
30
0
41
1
10
8.52183069664622
20
23.8389905264494
30
0
41
1
10
8.53025906116031
20
23.8391299750503
30
0
41
1
10
8.5386751345948
20
23.8391299750503
30
0
0
SPLINE
5
E3
100
AcDbEntity
8
1
62
256
6
ByLayer
370
-1
48
1
60
0
100
AcDbSpline
70
4
71
3
72
8
73
4
40
0
40
0
40
0
40
0
40
1
40
1
40
1
40
1
41
1
10
127.15193738806
20
-24.9393995099502
30
0
41
1
10
125.417701957253
20
-24.7861933888351
30
0
41
1
10
123.683473966887
20
-24.6329055433996
30
0
41
1
10
121.94925387
20
-24.4795311390916
30
0
0
SPLINE
5
E4
100
AcDbEntity
8
1
62
256
6
ByLayer
370
-1
48
1
60
0
100
AcDbSpline
70
4
71
3
72
28
73
24
40
0
40
0
40
0
40
0
40
0.125
40
0.125
40
0.25
40
0.25
40
0.375
40
0.375
40
0.4375
40
0.4375
40
0.5
40
0.5
40
0.5625
40
0.5625
40
0.625
40
0.625
40
0.6875
40
0.6875
40
0.75
40
0.75
40
0.875
40
0.875
40
1
40
1
40
1
40
1
41
1
10
116.004603734525
20
-19.9805869591861
30
0
41
1
10
112.306469189253
20
-19.9621621371549
30
0
41
1
10
108.703124944882
20
-19.9258912512243
30
0
41
1
10
101.709242438429
20
-19.5822211331993
30
0
41
1
10
98.2648476663598
20
-19.2822735540863
30
0
41
1
10
91.9501214862331
20
-17.798469031554
30
0
41
1
10
89.08377370913
20
-16.6205406929916
30
0
41
1
10
86.0864913428673
20
-13.297527709463
30
0
41
1
10
85.3479084171006
20
-11.9463505831815
30
0
41
1
10
84.5199838212855
20
-8.83739258323803
30
0
41
1
10
84.4343186167445
20
-7.07992928524098
30
0
41
1
10
84.8443634105873
20
-3.50572131385513
30
0
41
1
10
85.3353275552076
20
-1.67253135689066
30
0
41
1
10
86.7173960312548
20
1.80580004689372
30
0
41
1
10
87.6062265176309
20
3.45467733337296
30
0
41
1
10
89.649451031057
20
6.46670083832441
30
0
41
1
10
90.8223004137983
20
7.85189651240049
30
0
41
1
10
93.3277374048187
20
10.2861506166721
30
0
41
1
10
94.6770932353424
20
11.3580850254637
30
0
41
1
10
98.9914028067912
20
14.1932520327522
30
0
41
1
10
102.084966408223
20
15.5006182357833
30
0
41
1
10
108.692334880416
20
17.4332955311646
30
0
41
1
10
112.169170558356
20
18.039771065461
30
0
41
1
10
115.746599389715
20
18.4487439033503
30
0
0
SPLINE
5
E5
100
AcDbEntity
8
1
62
256
6
ByLayer
370
-1
48
1
60
0
100
AcDbSpline
70
4
71
3
72
16
73
12
40
0
40
0
40
0
40
0
40
0.0773436766578803
40
0.0773436766578803
40
0.181588290672623
40
0.181588290672623
40
0.353924998170025
40
0.353924998170025
40
0.659870482236126
40
0.659870482236126
40
1
40
1
40
1
40
1
41
1
10
11.4613248654052
20
-7.52966679426498
30
0
41
1
10
11.480691273438
20
-7.52966679426498
30
0
41
1
10
11.5001920479834
20
-7.53205286469702
30
0
41
1
10
11.5443643455559
20
-7.54265601007381
30
0
41
1
10
11.5688999660418
20
-7.55272636772358
30
0
41
1
10
11.6286300521075
20
-7.58609718460602
30
0
41
1
10
11.6615871427901
20
-7.61407037421822
30
0
41
1
10
11.7407360052433
20
-7.69895209889256
30
0
41
1
10
11.7798892743245
20
-7.76300791758413
30
0
41
1
10
11.8468244213921
20
-7.90167589305847
30
0
41
1
10
11.8734747805012
20
-7.97837348437852
30
0
41
1
10
11.8943375672974
20
-8.05584836782771
30
0
0
SPLINE
5
E6
100
AcDbEntity
8
1
62
256
6
ByLayer
370
-1
48
1
60
0
100
AcDbSpline
70
4
71
3
72
16
73
12
40
0
40
0
40
0
40
0
40
0.077343676657827
40
0.077343676657827
40
0.181588290672556
40
0.181588290672556
40
0.353924998169922
40
0.353924998169922
40
0.659870482235914
40
0.659870482235914
40
1
40
1
40
1
40
1
41
1
10
8.5386751345948
20
-23.8391299750503
30
0
41
1
10
8.51930872656195
20
-23.8391299750503
30
0
41
1
10
8.4998079520166
20
-23.8383766644784
30
0
41
1
10
8.45563565444411
20
-23.8350242537625
30
0
41
1
10
8.43110003395827
20
-23.8318379431383
30
0
41
1
10
8.37136994789253
20
-23.8212426939765
30
0
41
1
10
8.33841285720999
20
-23.812328084785
30
0
41
1
10
8.25926399475676
20
-23.7850663392819
30
0
41
1
10
8.2201107256756
20
-23.7642694363116
30
0
41
1
10
8.15317557860794
20
-23.7185457490814
30
0
41
1
10
8.12652521949875
20
-23.692873493267
30
0
41
1
10
8.10566243270259
20
-23.6665017920809
30
0
0
SPLINE
5
E7
100
AcDbEntity
8
SK1
62
256
6
ByLayer
370
-1
48
1
60
0
100
AcDbSpline
70
4
71
3
72
79
73
75
40
0
40
0
40
0
40
0
40
0.0067087497326022
40
0.0208027855944679
40
0.0348968214563336
40
0.0489908573181993
40
0.063084893180065
40
0.0771789290419307
40
0.0912729649037964
40
0.105367000765662
40
0.119461036627528
40
0.133555072489393
40
0.147649108351259
40
0.161743144213125
40
0.175837180074991
40
0.189931215936856
40
0.204025251798722
40
0.218119287660588
40
0.232213323522453
40
0.246307359384319
40
0.260401395246185
40
0.274495431108051
40
0.288589466969916
40
0.302683502831782
40
0.316777538693648
40
0.330871574555513
40
0.344965610417379
40
0.359059646279245
40
0.37315368214111
40
0.387247718002976
40
0.401341753864842
40
0.415435789726707
40
0.429529825588573
40
0.443623861450439
40
0.457717897312305
40
0.47181193317417
40
0.485905969036036
40
0.500000004897902
40
0.514094040759767
40
0.528188076621633
40
0.542282112483499
40
0.556376148345364
40
0.57047018420723
40
0.584564220069096
40
0.598658255930961
40
0.612752291792827
40
0.626846327654693
40
0.640940363516559
40
0.655034399378424
40
0.66912843524029
40
0.683222471102156
40
0.697316506964021
40
0.711410542825887
40
0.725504578687753
40
0.739598614549619
40
0.753692650411484
40
0.76778668627335
40
0.781880722135216
40
0.795974757997081
40
0.810068793858947
40
0.824162829720813
40
0.838256865582678
40
0.852350901444544
40
0.86644493730641
40
0.880538973168275
40
0.894633009030141
40
0.908727044892007
40
0.922821080753872
40
0.936915116615738
40
0.951009152477604
40
0.96510318833947
40
0.979197224201335
40
0.993291260063201
40
1
40
1
40
1
40
1
41
1
10
-3
20
17.2891029998195
30
0
41
1
10
-3
20
17.3064425230012
30
0
41
1
10
-3
20
17.3576824669621
30
0
41
1
10
-2.99999999999997
20
17.4290648746259
30
0
41
1
10
-2.99999999999997
20
17.4859427971309
30
0
41
1
10
-3
20
17.5070292572437
30
0
41
1
10
-3
20
17.4859401738945
30
0
41
1
10
-3
20
17.4163913620312
30
0
41
1
10
-3
20
17.2925088911448
30
0
41
1
10
-3
20
17.1091123896189
30
0
41
1
10
-3
20
16.8619882313057
30
0
41
1
10
-3
20
16.5481197778907
30
0
41
1
10
-3
20
16.1658744357057
30
0
41
1
10
-3
20
15.7151402778227
30
0
41
1
10
-3
20
15.1974002275414
30
0
41
1
10
-3
20
14.6157505856349
30
0
41
1
10
-3
20
13.9748490556261
30
0
41
1
10
-3
20
13.2808105172309
30
0
41
1
10
-3
20
12.5410348198394
30
0
41
1
10
-3
20
11.763994099502
30
0
41
1
10
-3
20
10.9589648821141
30
0
41
1
10
-3
20
10.1357380738661
30
0
41
1
10
-3
20
9.30429484700929
30
0
41
1
10
-3
20
8.47448256671282
30
0
41
1
10
-3
20
7.6556828892094
30
0
41
1
10
-3
20
6.85650245921596
30
0
41
1
10
-3
20
6.08448325445985
30
0
41
1
10
-3
20
5.34585503158101
30
0
41
1
10
-3
20
4.64533193812392
30
0
41
1
10
-3
20
3.9859646700211
30
0
41
1
10
-3
20
3.36905464097902
30
0
41
1
10
-3
20
2.79412899561987
30
0
41
1
10
-3
20
2.25898609800083
30
0
41
1
10
-3
20
1.75979816383233
30
0
41
1
10
-3
20
1.29128215780307
30
0
41
1
10
-3
20
0.846915650735156
30
0
41
1
10
-3
20
0.41920838047011
30
0
41
1
10
-3
20
-8.85488021E-08
30
0
41
1
10
-3
20
-0.419208026274788
30
0
41
1
10
-3
20
-0.84691581376515
30
0
41
1
10
-3
20
-1.29128185987813
30
0
41
1
10
-3
20
-1.75979828673439
30
0
41
1
10
-3
20
-2.25898590431717
30
0
41
1
10
-3
20
-2.79412905823773
30
0
41
1
10
-3
20
-3.36905458419105
30
0
41
1
10
-3
20
-3.98596466105747
30
0
41
1
10
-3
20
-4.64533203076618
30
0
41
1
10
-3
20
-5.34585495020943
30
0
41
1
10
-3
20
-6.08448348730366
30
0
41
1
10
-3
20
-6.85650231512167
30
0
41
1
10
-3
20
-7.65568323274246
30
0
41
1
10
-3
20
-8.47448237855718
30
0
41
1
10
-3
20
-9.30429525609867
30
0
41
1
10
-3
20
-10.1357378664365
30
0
41
1
10
-3
20
-10.9589653027428
30
0
41
1
10
-3
20
-11.7639938999324
30
0
41
1
10
-3
20
-12.5410351974886
30
0
41
1
10
-3
20
-13.2808103509102
30
0
41
1
10
-3
20
-13.9748493432595
30
0
41
1
10
-3
20
-14.6157504724401
30
0
41
1
10
-3
20
-15.197400392687
30
0
41
1
10
-3
20
-15.7151402291805
30
0
41
1
10
-3
20
-16.1658744651289
30
0
41
1
10
-3
20
-16.5481197951877
30
0
41
1
10
-3
20
-16.8619881326948
30
0
41
1
10
-3
20
-17.1091124641426
30
0
41
1
10
-3
20
-17.2925086916609
30
0
41
1
10
-3
20
-17.4163918494222
30
0
41
1
10
-3
20
-17.4859391868839
30
0
41
1
10
-3
20
-17.5070293524766
30
0
41
1
10
-2.99999999999997
20
-17.4859434032096
30
0
41
1
10
-2.99999999999997
20
-17.4290646714908
30
0
41
1
10
-2.99999999999997
20
-17.3576822654861
30
0
41
1
10
-3
20
-17.3064424620216
30
0
41
1
10
-3
20
-17.2891029995703
30
0
0
SPLINE
5
E8
100
AcDbEntity
8
1
62
256
6
ByLayer
370
-1
48
1
60
0
100
AcDbSpline
70
4
71
3
72
22
73
18
40
0
40
0
40
0
40
0
40
0.0003170853085956
40
0.0003170853085956
40
0.0007363142433888
40
0.0007363142433888
40
0.0015136262051031
40
0.0015136262051031
40
0.0048654620846824
40
0.0048654620846824
40
0.0181030085646537
40
0.0181030085646537
40
0.0708112990384931
40
0.0708112990384931
40
0.281410825933476
40
0.281410825933476
40
1
40
1
40
1
40
1
41
1
10
138.299996397433
20
-14.1742338021822
30
0
41
1
10
138.300174775521
20
-14.1742491688831
30
0
41
1
10
138.300354490981
20
-14.1742646224307
30
0
41
1
10
138.30074104952
20
-14.1742978074949
30
0
41
1
10
138.300945041807
20
-14.17431527737
30
0
41
1
10
138.301465660579
20
-14.174359786287
30
0
41
1
10
138.301746712779
20
-14.1743837181957
30
0
41
1
10
138.303048416407
20
-14.174494321201
30
0
41
1
10
138.303654380133
20
-14.1745450391756
30
0
41
1
10
138.306396126259
20
-14.1747740427286
30
0
41
1
10
138.307425382318
20
-14.1748566826724
30
0
41
1
10
138.31248215388
20
-14.1752625435621
30
0
41
1
10
138.314174531246
20
-14.1753842609876
30
0
41
1
10
138.322636630915
20
-14.1759932364225
30
0
41
1
10
138.324745882276
20
-14.1760786763158
30
0
41
1
10
138.334074911823
20
-14.1764578354946
30
0
41
1
10
138.334540790389
20
-14.1761694739041
30
0
41
1
10
138.334019473926
20
-14.1757960704158
30
0
0
SPLINE
5
E9
100
AcDbEntity
8
1
62
256
6
ByLayer
370
-1
48
1
60
0
100
AcDbSpline
70
4
71
3
72
54
73
50
40
0
40
0
40
0
40
0
40
0.0232750130865503
40
0.0232750130865503
40
0.184402048760212
40
0.184402048760212
40
0.35886271140551
40
0.35886271140551
40
0.533256259707031
40
0.533256259707031
40
0.707650276089697
40
0.707650276089697
40
0.804270262241037
40
0.804270262241037
40
0.868918654523454
40
0.868918654523454
40
0.912178233080729
40
0.912178233080729
40
0.94112882077884
40
0.94112882077884
40
0.960506782264686
40
0.960506782264686
40
0.97348072337109
40
0.97348072337109
40
0.982170430211452
40
0.982170430211452
40
0.987994037574827
40
0.987994037574827
40
0.991900284402753
40
0.991900284402753
40
0.994523893955256
40
0.994523893955256
40
0.996289526246363
40
0.996289526246363
40
0.997481328077764
40
0.997481328077764
40
0.998289471982062
40
0.998289471982062
40
0.998841308041286
40
0.998841308041286
40
0.999222234950827
40
0.999222234950827
40
0.999620656196059
40
0.999620656196059
40
0.999780284876587
40
0.999780284876587
40
0.999915025915061
40
0.999915025915061
40
1
40
1
40
1
40
1
41
1
10
126.839565662087
20
-13.183009609583
30
0
41
1
10
126.840824558153
20
-13.1831486882762
30
0
41
1
10
126.842086126548
20
-13.1832879971547
30
0
41
1
10
126.852103146841
20
-13.1843935953715
30
0
41
1
10
126.860987082786
20
-13.1853709519164
30
0
41
1
10
126.879848947965
20
-13.1874374511571
30
0
41
1
10
126.889854439915
20
-13.1885289681265
30
0
41
1
10
126.91043710216
20
-13.1907611544699
30
0
41
1
10
126.92100842005
20
-13.191901320105
30
0
41
1
10
126.943066844167
20
-13.194260530026
30
0
41
1
10
126.954528301112
20
-13.1954773662862
30
0
41
1
10
126.973733761656
20
-13.197488430138
30
0
41
1
10
126.980855406876
20
-13.1982290561539
30
0
41
1
10
126.993594179365
20
-13.199538615038
30
0
41
1
10
126.998925528589
20
-13.2000829364647
30
0
41
1
10
127.008521423465
20
-13.2010515213505
30
0
41
1
10
127.012552217351
20
-13.2014556552696
30
0
41
1
10
127.019850904251
20
-13.2021793627899
30
0
41
1
10
127.022927589427
20
-13.2024824718806
30
0
41
1
10
127.0285304501
20
-13.203028659848
30
0
41
1
10
127.030900203897
20
-13.2032582709378
30
0
41
1
10
127.035238748295
20
-13.203674515871
30
0
41
1
10
127.037079555761
20
-13.2038501318328
30
0
41
1
10
127.040466389574
20
-13.2041703234528
30
0
41
1
10
127.041907676893
20
-13.2043058836557
30
0
41
1
10
127.044571569198
20
-13.2045543856845
30
0
41
1
10
127.045708427705
20
-13.2046599482333
30
0
41
1
10
127.047818568471
20
-13.2048544506363
30
0
41
1
10
127.048721616434
20
-13.2049373475849
30
0
41
1
10
127.05040450175
20
-13.2050908313041
30
0
41
1
10
127.051126767927
20
-13.2051564661265
30
0
41
1
10
127.052478040432
20
-13.205278564353
30
0
41
1
10
127.053059807735
20
-13.2053309659956
30
0
41
1
10
127.054152633044
20
-13.2054289140492
30
0
41
1
10
127.054624881334
20
-13.2054711250144
30
0
41
1
10
127.055515939114
20
-13.2055504291358
30
0
41
1
10
127.055902825609
20
-13.2055847803524
30
0
41
1
10
127.056636656192
20
-13.205649694228
30
0
41
1
10
127.056957338995
20
-13.2056780030417
30
0
41
1
10
127.057569557436
20
-13.2057318728569
30
0
41
1
10
127.057839580619
20
-13.2057555896378
30
0
41
1
10
127.058463150026
20
-13.2058102037128
30
0
41
1
10
127.058819955731
20
-13.2058413894616
30
0
41
1
10
127.059440792822
20
-13.2058954071404
30
0
41
1
10
127.059635627756
20
-13.2059123348268
30
0
41
1
10
127.060030490137
20
-13.2059465671868
30
0
41
1
10
127.060229101701
20
-13.2059637586211
30
0
41
1
10
127.060568808427
20
-13.2059931002503
30
0
41
1
10
127.060706321722
20
-13.2060049627652
30
0
41
1
10
127.06084234066
20
-13.206016680361
30
0
0
SPLINE
5
EA
100
AcDbEntity
8
1
62
256
6
ByLayer
370
-1
48
1
60
0
100
AcDbSpline
70
4
71
3
72
16
73
12
40
0
40
0
40
0
40
0
40
0.0578393202969881
40
0.0578393202969881
40
0.278670644866262
40
0.278670644866262
40
0.502013998126001
40
0.502013998126001
40
0.739467690487545
40
0.739467690487545
40
1
40
1
40
1
40
1
41
1
10
132.6659942895
20
-21.6357266776437
30
0
41
1
10
132.658441128782
20
-21.6337454864026
30
0
41
1
10
132.650959661911
20
-21.6314420041105
30
0
41
1
10
132.615671345538
20
-21.6189306924292
30
0
41
1
10
132.588994154529
20
-21.6043104635507
30
0
41
1
10
132.541954073432
20
-21.5681195152376
30
0
41
1
10
132.521053388119
20
-21.5460301577613
30
0
41
1
10
132.48620079242
20
-21.496322126261
30
0
41
1
10
132.47230907866
20
-21.4678391717251
30
0
41
1
10
132.452764208256
20
-21.4066922619059
30
0
41
1
10
132.447763141809
20
-21.3731343788351
30
0
41
1
10
132.44779046716
20
-21.3403629197779
30
0
0
SPLINE
5
EB
100
AcDbEntity
8
1
62
256
6
ByLayer
370
-1
48
1
60
0
100
AcDbSpline
70
4
71
3
72
18
73
14
40
0
40
0
40
0
40
0
40
0.201680670277968
40
0.201680670277968
40
0.377733778500752
40
0.377733778500752
40
0.555594767110639
40
0.555594767110639
40
0.708977479491478
40
0.708977479491478
40
0.909951832494169
40
0.909951832494169
40
1
40
1
40
1
40
1
41
1
10
132.99254987064
20
-21.4867840851004
30
0
41
1
10
133.025888898135
20
-21.4245430444306
30
0
41
1
10
133.068998977102
20
-21.3657203573466
30
0
41
1
10
133.166170787891
20
-21.2700555184532
30
0
41
1
10
133.219382228986
20
-21.2304136666278
30
0
41
1
10
133.336219041284
20
-21.1691800470666
30
0
41
1
10
133.401808070837
20
-21.1470757331478
30
0
41
1
10
133.524276847763
20
-21.1271049416798
30
0
41
1
10
133.582561660557
20
-21.125984486445
30
0
41
1
10
133.710877710426
20
-21.1402706044772
30
0
41
1
10
133.781164727545
20
-21.1608752940921
30
0
41
1
10
133.873761451862
20
-21.2038081982669
30
0
41
1
10
133.901563322317
20
-21.2191096992039
30
0
41
1
10
133.9280876952
20
-21.2360541007426
30
0
0
SPLINE
5
EC
100
AcDbEntity
8
1
62
256
6
ByLayer
370
-1
48
1
60
0
100
AcDbSpline
70
4
71
3
72
18
73
14
40
0
40
0
40
0
40
0
40
0.21059866407232
40
0.21059866407232
40
0.385040829141542
40
0.385040829141542
40
0.561186387333754
40
0.561186387333754
40
0.71420238925293
40
0.71420238925293
40
0.916713818293931
40
0.916713818293931
40
1
40
1
40
1
40
1
41
1
10
133.197992886461
20
-18.5409410916635
30
0
41
1
10
133.162384069475
20
-18.5968890903761
30
0
41
1
10
133.116117581469
20
-18.6496564350011
30
0
41
1
10
133.014397150232
20
-18.733325404948
30
0
41
1
10
132.960625639664
20
-18.7672776543621
30
0
41
1
10
132.843489420858
20
-18.821070353065
30
0
41
1
10
132.778213453332
20
-18.8414363902012
30
0
41
1
10
132.656614340553
20
-18.8627650559365
30
0
41
1
10
132.598802947986
20
-18.8662443810035
30
0
41
1
10
132.47118204841
20
-18.8601315633462
30
0
41
1
10
132.401304481717
20
-18.846042501583
30
0
41
1
10
132.311947489054
20
-18.814453190993
30
0
41
1
10
132.28665362785
20
-18.803716894876
30
0
41
1
10
132.262455061901
20
-18.791671076021
30
0
0
SPLINE
5
ED
100
AcDbEntity
8
1
62
256
6
ByLayer
370
-1
48
1
60
0
100
AcDbSpline
70
4
71
3
72
14
73
10
40
0
40
0
40
0
40
0
40
0.230473089177085
40
0.230473089177085
40
0.521652927780367
40
0.521652927780367
40
0.78469142826877
40
0.78469142826877
40
1
40
1
40
1
40
1
41
1
10
134.432217577162
20
-19.3711428090037
30
0
41
1
10
134.459826663736
20
-19.3727399638443
30
0
41
1
10
134.488078425326
20
-19.3781658874208
30
0
41
1
10
134.549862343875
20
-19.3992586175019
30
0
41
1
10
134.583838125968
20
-19.4176968955174
30
0
41
1
10
134.64029656305
20
-19.4635035148203
30
0
41
1
10
134.664395042327
20
-19.4905886786217
30
0
41
1
10
134.698038973701
20
-19.5452293926765
30
0
41
1
10
134.709835804321
20
-19.5724628386583
30
0
41
1
10
134.717227572918
20
-19.6002123404147
30
0
0
SPLINE
5
EE
100
AcDbEntity
8
1
62
256
6
ByLayer
370
-1
48
1
60
0
100
AcDbSpline
70
4
71
3
72
16
73
12
40
0
40
0
40
0
40
0
40
0.160006035090671
40
0.160006035090671
40
0.461565591835826
40
0.461565591835826
40
0.734052348055505
40
0.734052348055505
40
0.975813926840163
40
0.975813926840163
40
1
40
1
40
1
40
1
41
1
10
133.197992886457
20
-18.5409410916618
30
0
41
1
10
133.207578981697
20
-18.5258795734905
30
0
41
1
10
133.218897215862
20
-18.5114788096996
30
0
41
1
10
133.255871428328
20
-18.473217247714
30
0
41
1
10
133.286206799651
20
-18.4515402681861
30
0
41
1
10
133.351066974521
20
-18.4221325366538
30
0
41
1
10
133.385944081257
20
-18.4128665001816
30
0
41
1
10
133.453033702099
20
-18.4072539801292
30
0
41
1
10
133.486075435656
20
-18.4095231866313
30
0
41
1
10
133.520594303842
20
-18.4174277261014
30
0
41
1
10
133.52376139358
20
-18.4182054773534
30
0
41
1
10
133.526913619143
20
-18.4190323049434
30
0
0
SPLINE
5
EF
100
AcDbEntity
8
1
62
256
6
ByLayer
370
-1
48
1
60
0
100
AcDbSpline
70
4
71
3
72
14
73
10
40
0
40
0
40
0
40
0
40
0.277488032739474
40
0.277488032739474
40
0.564624494874871
40
0.564624494874871
40
0.824445430789915
40
0.824445430789915
40
1
40
1
40
1
40
1
41
1
10
132.99254987064
20
-21.4867840851004
30
0
41
1
10
132.976333609376
20
-21.5170584227977
30
0
41
1
10
132.954722107211
20
-21.5452918675467
30
0
41
1
10
132.902203173149
20
-21.5932995312514
30
0
41
1
10
132.870132769932
20
-21.6134426887674
30
0
41
1
10
132.804087572306
20
-21.6384564750513
30
0
41
1
10
132.769565474642
20
-21.644916621994
30
0
41
1
10
132.712125194719
20
-21.6447152138298
30
0
41
1
10
132.68860275374
20
-21.6416568693865
30
0
41
1
10
132.6659942895
20
-21.6357266776437
30
0
0
SPLINE
5
F0
100
AcDbEntity
8
1
62
256
6
ByLayer
370
-1
48
1
60
0
100
AcDbSpline
70
4
71
3
72
18
73
14
40
0
40
0
40
0
40
0
40
0.0198987056837635
40
0.0198987056837635
40
0.243764811707581
40
0.243764811707581
40
0.467933342331629
40
0.467933342331629
40
0.70453264484074
40
0.70453264484074
40
0.963204488955743
40
0.963204488955743
40
1
40
1
40
1
40
1
41
1
10
134.717227572918
20
-19.6002123404147
30
0
41
1
10
134.71791086705
20
-19.6027775007629
30
0
41
1
10
134.718558508472
20
-19.6053501506487
30
0
41
1
10
134.725970164739
20
-19.6365984670094
30
0
41
1
10
134.728262177527
20
-19.6664144610286
30
0
41
1
10
134.723765950002
20
-19.7234875288658
30
0
41
1
10
134.716929348983
20
-19.7514737255633
30
0
41
1
10
134.69520620914
20
-19.8037286899906
30
0
41
1
10
134.679650572591
20
-19.8283726701242
30
0
41
1
10
134.641025347646
20
-19.8723194402428
30
0
41
1
10
134.616933169533
20
-19.8914837751862
30
0
41
1
10
134.587181338748
20
-19.9080365255273
30
0
41
1
10
134.583398229198
20
-19.9100249021371
30
0
41
1
10
134.579574502722
20
-19.9119210901137
30
0
0
SPLINE
5
F1
100
AcDbEntity
8
1
62
256
6
ByLayer
370
-1
48
1
60
0
100
AcDbSpline
70
4
71
3
72
20
73
16
40
0
40
0
40
0
40
0
40
0.0806624971537144
40
0.0806624971537144
40
0.281835264769318
40
0.281835264769318
40
0.444321515070884
40
0.444321515070884
40
0.607665212766339
40
0.607665212766339
40
0.759985524908216
40
0.759985524908216
40
0.975669862008755
40
0.975669862008755
40
1
40
1
40
1
40
1
41
1
10
131.863630894861
20
-19.1874389862857
30
0
41
1
10
131.876923751842
20
-19.2089760380557
30
0
41
1
10
131.888950844754
20
-19.2315602946026
30
0
41
1
10
131.925856733232
20
-19.3134484757165
30
0
41
1
10
131.943678746225
20
-19.3787571957046
30
0
41
1
10
131.955287968782
20
-19.5034745997138
30
0
41
1
10
131.953004127049
20
-19.5630262513122
30
0
41
1
10
131.932017896999
20
-19.6813033608645
30
0
41
1
10
131.912873786278
20
-19.7415704668815
30
0
41
1
10
131.862919537499
20
-19.8493993329416
30
0
41
1
10
131.832495503307
20
-19.8988360057106
30
0
41
1
10
131.75002765977
20
-20.0052508835506
30
0
41
1
10
131.692946164656
20
-20.058872963854
30
0
41
1
10
131.625063488316
20
-20.1064462897783
30
0
41
1
10
131.618044102207
20
-20.1111913706201
30
0
41
1
10
131.610968254379
20
-20.1158040866505
30
0
0
SPLINE
5
F2
100
AcDbEntity
8
1
62
256
6
ByLayer
370
-1
48
1
60
0
100
AcDbSpline
70
4
71
3
72
18
73
14
40
0
40
0
40
0
40
0
40
0.201561115510581
40
0.201561115510581
40
0.377635874451266
40
0.377635874451266
40
0.555519903200794
40
0.555519903200794
40
0.708907771576649
40
0.708907771576649
40
0.909861690872974
40
0.909861690872974
40
1
40
1
40
1
40
1
41
1
10
134.326911862239
20
-20.840286190476
30
0
41
1
10
134.293077843774
20
-20.7780336521249
30
0
41
1
10
134.266940620078
20
-20.7092534884229
30
0
41
1
10
134.237721351474
20
-20.5743576875223
30
0
41
1
10
134.231972647334
20
-20.5074353365925
30
0
41
1
10
134.239834077271
20
-20.374818078765
30
0
41
1
10
134.253972126535
20
-20.307190735342
30
0
41
1
10
134.297191542345
20
-20.1928079635447
30
0
41
1
10
134.324385711921
20
-20.1430467421337
30
0
41
1
10
134.39764518327
20
-20.0427344426795
30
0
41
1
10
134.448002836321
20
-19.9948191138267
30
0
41
1
10
134.52726052487
20
-19.9401877960933
30
0
41
1
10
134.553045833312
20
-19.9250766712711
30
0
41
1
10
134.579574502722
20
-19.9119210901137
30
0
0
SPLINE
5
F3
100
AcDbEntity
8
1
62
256
6
ByLayer
370
-1
48
1
60
0
100
AcDbSpline
70
4
71
3
72
16
73
12
40
0
40
0
40
0
40
0
40
0.0321274410031425
40
0.0321274410031425
40
0.255500433608444
40
0.255500433608444
40
0.479893456801889
40
0.479893456801889
40
0.717292741348296
40
0.717292741348296
40
1
40
1
40
1
40
1
41
1
10
131.911860957498
20
-18.8518765127987
30
0
41
1
10
131.914914177062
20
-18.8488466905707
30
0
41
1
10
131.918035459195
20
-18.8458774131659
30
0
41
1
10
131.943131224919
20
-18.8229907592257
30
0
41
1
10
131.968425962018
20
-18.8059222225418
30
0
41
1
10
132.021607200123
20
-18.7800531591405
30
0
41
1
10
132.050175207313
20
-18.7709410743605
30
0
41
1
10
132.108358114869
20
-18.7607967310058
30
0
41
1
10
132.138662957394
20
-18.7601065071424
30
0
41
1
10
132.201259310822
20
-18.7675227657177
30
0
41
1
10
132.233766575962
20
-18.7773902171644
30
0
41
1
10
132.262455061901
20
-18.791671076021
30
0
0
SPLINE
5
F4
100
AcDbEntity
8
1
62
256
6
ByLayer
370
-1
48
1
60
0
100
AcDbSpline
70
4
71
3
72
12
73
8
40
0
40
0
40
0
40
0
40
0.320411720799341
40
0.320411720799341
40
0.788685385884013
40
0.788685385884013
40
1
40
1
40
1
40
1
41
1
10
133.88632241135
20
-19.0902684651153
30
0
41
1
10
133.854449927277
20
-19.050445609948
30
0
41
1
10
133.827477352854
20
-19.0077234208961
30
0
41
1
10
133.775565362915
20
-18.9017318896133
30
0
41
1
10
133.756272499845
20
-18.8363221020448
30
0
41
1
10
133.744013802713
20
-18.7439308626251
30
0
41
1
10
133.742342273087
20
-18.715242965853
30
0
41
1
10
133.742714532892
20
-18.6869306919369
30
0
0
SPLINE
5
F5
100
AcDbEntity
8
1
62
256
6
ByLayer
370
-1
48
1
60
0
100
AcDbSpline
70
4
71
3
72
14
73
10
40
0
40
0
40
0
40
0
40
0.279403770898612
40
0.279403770898612
40
0.56448249689614
40
0.56448249689614
40
0.822385632681368
40
0.822385632681368
40
1
40
1
40
1
40
1
41
1
10
131.758287422888
20
-20.6561508027109
30
0
41
1
10
131.725214393053
20
-20.6585178317287
30
0
41
1
10
131.691078494938
20
-20.6550142953331
30
0
41
1
10
131.625717156189
20
-20.6353503592545
30
0
41
1
10
131.593568802602
20
-20.618565395323
30
0
41
1
10
131.540887477798
20
-20.5753054380183
30
0
41
1
10
131.518782379008
20
-20.549203662339
30
0
41
1
10
131.490818060656
20
-20.4996262148245
30
0
41
1
10
131.481782554808
20
-20.4774550350621
30
0
41
1
10
131.475680335725
20
-20.4545466421724
30
0
0
SPLINE
5
F6
100
AcDbEntity
8
1
62
256
6
ByLayer
370
-1
48
1
60
0
100
AcDbSpline
70
4
71
3
72
12
73
8
40
0
40
0
40
0
40
0
40
0.300642231369059
40
0.300642231369059
40
0.763722395763151
40
0.763722395763151
40
1
40
1
40
1
40
1
41
1
10
132.300694435499
20
-20.897155373054
30
0
41
1
10
132.330674717024
20
-20.9357895000399
30
0
41
1
10
132.356456424318
20
-20.9781111840511
30
0
41
1
10
132.409040583385
20
-21.0886844872574
30
0
41
1
10
132.429848703959
20
-21.1603410456712
30
0
41
1
10
132.445282206959
20
-21.2675343420133
30
0
41
1
10
132.447820684652
20
-21.3041228974241
30
0
41
1
10
132.44779046716
20
-21.3403629197779
30
0
0
SPLINE
5
F7
100
AcDbEntity
8
1
62
256
6
ByLayer
370
-1
48
1
60
0
100
AcDbSpline
70
4
71
3
72
12
73
8
40
0
40
0
40
0
40
0
40
0.493526690353307
40
0.493526690353307
40
0.898793583340749
40
0.898793583340749
40
1
40
1
40
1
40
1
41
1
10
134.432217577162
20
-19.3711428090043
30
0
41
1
10
134.360771821118
20
-19.367009751766
30
0
41
1
10
134.286931037053
20
-19.3520195449206
30
0
41
1
10
134.156488163677
20
-19.3038705277129
30
0
41
1
10
134.097742565729
20
-19.2737678495643
30
0
41
1
10
134.030222965399
20
-19.2271026622352
30
0
41
1
10
134.016905645217
20
-19.2172497612808
30
0
41
1
10
134.003929194842
20
-19.2069727885886
30
0
0
SPLINE
5
F8
100
AcDbEntity
8
1
62
256
6
ByLayer
370
-1
48
1
60
0
100
AcDbSpline
70
4
71
3
72
14
73
10
40
0
40
0
40
0
40
0
40
0.240613777611978
40
0.240613777611978
40
0.532370687579142
40
0.532370687579142
40
0.796023196836753
40
0.796023196836753
40
1
40
1
40
1
40
1
41
1
10
131.863630894861
20
-19.1874389862859
30
0
41
1
10
131.84966528656
20
-19.1648119446054
30
0
41
1
10
131.839012029972
20
-19.1394231511568
30
0
41
1
10
131.824999165678
20
-19.0801322488089
30
0
41
1
10
131.823533730524
20
-19.044559906682
30
0
41
1
10
131.834550154461
20
-18.9776642172109
30
0
41
1
10
131.845934740492
20
-18.9452497055456
30
0
41
1
10
131.875935846255
20
-18.8927395202634
30
0
41
1
10
131.892640585389
20
-18.8709495959588
30
0
41
1
10
131.911860957498
20
-18.8518765127987
30
0
0
SPLINE
5
F9
100
AcDbEntity
8
1
62
256
6
ByLayer
370
-1
48
1
60
0
100
AcDbSpline
70
4
71
3
72
12
73
8
40
0
40
0
40
0
40
0
40
0.458791363527276
40
0.458791363527276
40
0.870210079934947
40
0.870210079934947
40
1
40
1
40
1
40
1
41
1
10
131.758287422888
20
-20.6561508027106
30
0
41
1
10
131.823979663604
20
-20.6514492243904
30
0
41
1
10
131.891694507979
20
-20.6565431124888
30
0
41
1
10
132.017268074679
20
-20.6875220470043
30
0
41
1
10
132.07683576151
20
-20.7117520932227
30
0
41
1
10
132.14940736235
20
-20.7561801892564
30
0
41
1
10
132.166520887404
20
-20.7678632023883
30
0
41
1
10
132.183087652008
20
-20.7804510495809
30
0
0
SPLINE
5
FA
100
AcDbEntity
8
1
62
256
6
ByLayer
370
-1
48
1
60
0
100
AcDbSpline
70
4
71
3
72
16
73
12
40
0
40
0
40
0
40
0
40
0.0549362092332719
40
0.0549362092332719
40
0.277905515981072
40
0.277905515981072
40
0.503213235525847
40
0.503213235525847
40
0.742603879124135
40
0.742603879124135
40
1
40
1
40
1
40
1
41
1
10
131.475680335725
20
-20.4545466421724
30
0
41
1
10
131.473800993427
20
-20.447491387168
30
0
41
1
10
131.472187917034
20
-20.4403425074351
30
0
41
1
10
131.465455523406
20
-20.4041135272341
30
0
41
1
10
131.46455433514
20
-20.3736746848578
30
0
41
1
10
131.471531765736
20
-20.3145648711333
30
0
41
1
10
131.479568389199
20
-20.2851607213236
30
0
41
1
10
131.503516011231
20
-20.2293872818461
30
0
41
1
10
131.520158852115
20
-20.2026119795695
30
0
41
1
10
131.560367697846
20
-20.1543725894502
30
0
41
1
10
131.58481962991
20
-20.1328502671486
30
0
41
1
10
131.610968254379
20
-20.1158040866505
30
0
0
SPLINE
5
FB
100
AcDbEntity
8
1
62
256
6
ByLayer
370
-1
48
1
60
0
100
AcDbSpline
70
4
71
3
72
18
73
14
40
0
40
0
40
0
40
0
40
0.0310161612423731
40
0.0310161612423731
40
0.254570877073654
40
0.254570877073654
40
0.479079761069724
40
0.479079761069724
40
0.716549985038244
40
0.716549985038244
40
0.976491391062439
40
0.976491391062439
40
1
40
1
40
1
40
1
41
1
10
134.281046951145
20
-21.2028824697884
30
0
41
1
10
134.278100954887
20
-21.2058058903813
30
0
41
1
10
134.275090703247
20
-21.2086623741023
30
0
41
1
10
134.250123933884
20
-21.2313140050602
30
0
41
1
10
134.224788057024
20
-21.2477185265472
30
0
41
1
10
134.171429627151
20
-21.271272920111
30
0
41
1
10
134.142723638047
20
-21.2787045225557
30
0
41
1
10
134.084179297547
20
-21.2845964403573
30
0
41
1
10
134.053641642126
20
-21.2826193710145
30
0
41
1
10
133.993156692893
20
-21.2693178423778
30
0
41
1
10
133.96277327763
20
-21.2569951391663
30
0
41
1
10
133.933005093695
20
-21.2391467196875
30
0
41
1
10
133.930534608299
20
-21.2376172471461
30
0
41
1
10
133.9280876952
20
-21.2360541007427
30
0
0
SPLINE
5
FC
100
AcDbEntity
8
1
62
256
6
ByLayer
370
-1
48
1
60
0
100
AcDbSpline
70
4
71
3
72
14
73
10
40
0
40
0
40
0
40
0
40
0.231135245891342
40
0.231135245891342
40
0.530798120007259
40
0.530798120007259
40
0.794936088055112
40
0.794936088055112
40
1
40
1
40
1
40
1
41
1
10
134.326911862242
20
-20.8402861904745
30
0
41
1
10
134.340612671815
20
-20.865494847678
30
0
41
1
10
134.351252727731
20
-20.893086364117
30
0
41
1
10
134.366585557702
20
-20.958859799687
30
0
41
1
10
134.368707669052
20
-20.9989381813662
30
0
41
1
10
134.358161733442
20
-21.0720579013624
30
0
41
1
10
134.346987794639
20
-21.1064739184883
30
0
41
1
10
134.317136684571
20
-21.1612842276272
30
0
41
1
10
134.300385345759
20
-21.1836922685505
30
0
41
1
10
134.281046951145
20
-21.2028824697884
30
0
0
SPLINE
5
FD
100
AcDbEntity
8
1
62
256
6
ByLayer
370
-1
48
1
60
0
100
AcDbSpline
70
4
71
3
72
16
73
12
40
0
40
0
40
0
40
0
40
0.199266651060303
40
0.199266651060303
40
0.420264269044486
40
0.420264269044486
40
0.651440113501
40
0.651440113501
40
0.902843738045672
40
0.902843738045672
40
1
40
1
40
1
40
1
41
1
10
133.526913619143
20
-18.4190323049434
30
0
41
1
10
133.552737339705
20
-18.4258058572212
30
0
41
1
10
133.577857071684
20
-18.4360443508674
30
0
41
1
10
133.625890882531
20
-18.4633399936941
30
0
41
1
10
133.648871954272
20
-18.4813757134773
30
0
41
1
10
133.688101367049
20
-18.5225281473682
30
0
41
1
10
133.704505909113
20
-18.5463392017836
30
0
41
1
10
133.729551430395
20
-18.5978177885915
30
0
41
1
10
133.737732978485
20
-18.6262714369987
30
0
41
1
10
133.742298046449
20
-18.6651971363612
30
0
41
1
10
133.742856749899
20
-18.6761143566432
30
0
41
1
10
133.742714532892
20
-18.6869306919369
30
0
0
SPLINE
5
FE
100
AcDbEntity
8
SK1
62
256
6
ByLayer
370
-1
48
1
60
0
100
AcDbSpline
70
4
71
3
72
24
73
20
40
0
40
0
40
0
40
0
40
0.0299003298961631
40
0.0299003298961631
40
0.0528622635029669
40
0.0528622635029669
40
0.0709275158044995
40
0.0709275158044995
40
0.0890039000876294
40
0.0890039000876294
40
0.11362248491787
40
0.11362248491787
40
0.157577258657195
40
0.157577258657195
40
0.29602514002948
40
0.29602514002948
40
0.878150828056824
40
0.878150828056824
40
1
40
1
40
1
40
1
41
1
10
-0.400000000000034
20
-5.16866682996297
30
0
41
1
10
-0.394094307655593
20
-5.16300784544387
30
0
41
1
10
-0.38760623850834
20
-5.15782429554133
30
0
41
1
10
-0.374945775641891
20
-5.1507540726119
30
0
41
1
10
-0.368929355824321
20
-5.14835070696066
30
0
41
1
10
-0.35770867701234
20
-5.14629827954846
30
0
41
1
10
-0.352495529695631
20
-5.14618209741417
30
0
41
1
10
-0.342356257615734
20
-5.14777530545462
30
0
41
1
10
-0.337316914191916
20
-5.1495007928761
30
0
41
1
10
-0.326353738404208
20
-5.15512166080455
30
0
41
1
10
-0.320571087776045
20
-5.15961290941803
30
0
41
1
10
-0.306345382412019
20
-5.17348963231112
30
0
41
1
10
-0.298929389281341
20
-5.1841444040335
30
0
41
1
10
-0.272649182798801
20
-5.22929437458617
30
0
41
1
10
-0.260939846150848
20
-5.26761390191822
30
0
41
1
10
-0.21079653079866
20
-5.46289223314824
30
0
41
1
10
-0.20436648289828
20
-5.62478131775705
30
0
41
1
10
-0.200325121553277
20
-5.8154278903541
30
0
41
1
10
-0.200000000000046
20
-5.8484679854401
30
0
41
1
10
-0.200000000000046
20
-5.88142452370542
30
0
0
SPLINE
5
FF
100
AcDbEntity
8
SK1
62
256
6
ByLayer
370
-1
48
1
60
0
100
AcDbSpline
70
4
71
3
72
26
73
22
40
0
40
0
40
0
40
0
40
0.466011607458034
40
0.466011607458034
40
0.67024046630168
40
0.67024046630168
40
0.77456727018221
40
0.77456727018221
40
0.857070717706419
40
0.857070717706419
40
0.898538406950324
40
0.898538406950324
40
0.918045307993239
40
0.918045307993239
40
0.937772855809251
40
0.937772855809251
40
0.955553297254221
40
0.955553297254221
40
0.984230712729842
40
0.984230712729842
40
1
40
1
40
1
40
1
41
1
10
-0.200000000000046
20
5.88142397393347
30
0
41
1
10
-0.200000000000046
20
5.75538988127934
30
0
41
1
10
-0.204053336884698
20
5.62782146467677
30
0
41
1
10
-0.224291300237979
20
5.44372978251536
30
0
41
1
10
-0.232375898168357
20
5.3873284499669
30
0
41
1
10
-0.251389677244674
20
5.30297629006839
30
0
41
1
10
-0.25900395291697
20
5.27447755328694
30
0
41
1
10
-0.277073232762461
20
5.22483382882945
30
0
41
1
10
-0.286541211569755
20
5.20296176881411
30
0
41
1
10
-0.306529791401147
20
5.17375294403038
30
0
41
1
10
-0.314426911926432
20
5.1643717298173
30
0
41
1
10
-0.328481919155991
20
5.15398148698225
30
0
41
1
10
-0.333472930985607
20
5.15114386616668
30
0
41
1
10
-0.343977733072507
20
5.14732547572157
30
0
41
1
10
-0.349636276202261
20
5.14634920679938
30
0
41
1
10
-0.360093315739704
20
5.1465317925306
30
0
41
1
10
-0.365036235354097
20
5.14747094480913
30
0
41
1
10
-0.377122372198727
20
5.15149960910935
30
0
41
1
10
-0.384002450469694
20
5.1555505154767
30
0
41
1
10
-0.393629001799496
20
5.16285427826699
30
0
41
1
10
-0.396890469609758
20
5.16568716298278
30
0
41
1
10
-0.400000000000063
20
5.16866679574503
30
0
0
SPLINE
5
100
100
AcDbEntity
8
SK1
62
256
6
ByLayer
370
-1
48
1
60
0
100
AcDbSpline
70
4
71
3
72
10
73
6
40
0
40
0
40
0
40
0
40
0.5
40
0.5
40
1
40
1
40
1
40
1
41
1
10
-1.30710678118655
20
-3.80474436172742
30
0
41
1
10
-1.52921682270321
20
-2.59907728352434
30
0
41
1
10
-1.70909405340865
20
-1.31281235086666
30
0
41
1
10
-1.7096317930087
20
1.30649832374493
30
0
41
1
10
-1.52966155970611
20
2.5966617696443
30
0
41
1
10
-1.30710678118663
20
3.80474664113297
30
0
0
SPLINE
5
101
100
AcDbEntity
8
SK1
62
256
6
ByLayer
370
-1
48
1
60
0
100
AcDbSpline
70
4
71
3
72
14
73
10
40
0
40
0
40
0
40
0
40
0.103084720937158
40
0.255613416256898
40
0.408142111576637
40
0.560670806896377
40
0.713199502216117
40
0.865728197535857
40
1
40
1
40
1
40
1
41
1
10
-2.20000000000002
20
15.0247808648858
30
0
41
1
10
-2.20000000000002
20
14.8960266306386
30
0
41
1
10
-2.20000000000002
20
14.564952857959
30
0
41
1
10
-2.20000000000002
20
13.9919277482646
30
0
41
1
10
-2.20000000000002
20
13.2962224496515
30
0
41
1
10
-2.20000000000002
20
12.5546840468425
30
0
41
1
10
-2.20000000000002
20
11.7758177229786
30
0
41
1
10
-2.20000000000002
20
11.0011294486509
30
0
41
1
10
-2.20000000000002
20
10.4846854347648
30
0
41
1
10
-2.20000000000002
20
10.2416915117918
30
0
0
SPLINE
5
102
100
AcDbEntity
8
SK1
62
256
6
ByLayer
370
-1
48
1
60
0
100
AcDbSpline
70
4
71
3
72
17
73
13
40
0
40
0
40
0
40
0
40
0.110194179073642
40
0.207159350519493
40
0.289521354065322
40
0.357566577979378
40
0.413195246897405
40
0.459692315386429
40
0.501341811377897
40
0.74942055556068
40
0.882505839912813
40
1
40
1
40
1
40
1
41
1
10
-2.20000000000002
20
10.2416915117918
30
0
41
1
10
-2.19999987208661
20
9.61581012386935
30
0
41
1
10
-2.19999963161601
20
8.43918552432854
30
0
41
1
10
-2.19999709569768
20
6.58740471337407
30
0
41
1
10
-2.19999227726785
20
4.89775372844778
30
0
41
1
10
-2.1999848960788
20
3.4082650609613
30
0
41
1
10
-2.19997337349054
20
2.12754037920914
30
0
41
1
10
-2.19995947696654
20
1.01624689806425
30
0
41
1
10
-2.19989354341638
20
-1.61912962424546
30
0
41
1
10
-2.20000234091825
20
-4.9046933627387
30
0
41
1
10
-2.19999748284147
20
-8.14219717433133
30
0
41
1
10
-2.19999919648836
20
-9.5715043461004
30
0
41
1
10
-2.20000000000002
20
-10.2416919827174
30
0
0
SPLINE
5
103
100
AcDbEntity
8
SK1
62
256
6
ByLayer
370
-1
48
1
60
0
100
AcDbSpline
70
4
71
3
72
20
73
16
40
0
40
0
40
0
40
0
40
0.0482625705635243
40
0.0482625705635243
40
0.325220898603851
40
0.325220898603851
40
0.463381471379487
40
0.463381471379487
40
0.601551524434535
40
0.601551524434535
40
0.739735425204153
40
0.739735425204153
40
0.877939603517083
40
0.877939603517083
40
1
40
1
40
1
40
1
41
1
10
-2.20000000000002
20
-15.024780913897
30
0
41
1
10
-2.20000000000002
20
-15.0987632316058
30
0
41
1
10
-2.19999999163144
20
-15.1713153633957
30
0
41
1
10
-2.19999985652709
20
-15.6498272161843
30
0
41
1
10
-2.19999939887509
20
-16.0101821224506
30
0
41
1
10
-2.19999683011551
20
-16.4712024133173
30
0
41
1
10
-2.19999564996832
20
-16.6117543332689
30
0
41
1
10
-2.19999230715834
20
-16.8650200442632
30
0
41
1
10
-2.19999013861343
20
-16.9778482087754
30
0
41
1
10
-2.19998437020209
20
-17.1737303581388
30
0
41
1
10
-2.19998076728288
20
-17.2568757984567
30
0
41
1
10
-2.19997155592219
20
-17.390896629152
30
0
41
1
10
-2.19996594630393
20
-17.4418577268988
30
0
41
1
10
-2.19995283284752
20
-17.5043876537354
30
0
41
1
10
-2.19994561248385
20
-17.5199107584739
30
0
41
1
10
-2.19993704319947
20
-17.5200998959623
30
0
0
SPLINE
5
104
100
AcDbEntity
8
SK1
62
256
6
ByLayer
370
-1
48
1
60
0
100
AcDbSpline
70
4
71
3
72
20
73
16
40
0
40
0
40
0
40
0
40
0.107709859728762
40
0.107709859728762
40
0.25480588994438
40
0.25480588994438
40
0.401872722913712
40
0.401872722913712
40
0.548920274148116
40
0.548920274148116
40
0.695955076715137
40
0.695955076715137
40
0.84298146791939
40
0.84298146791939
40
1
40
1
40
1
40
1
41
1
10
-2.19993655780445
20
17.5200998571235
30
0
41
1
10
-2.19994418187716
20
17.5204461970876
30
0
41
1
10
-2.19995074650438
20
17.5087568436282
30
0
41
1
10
-2.19996422500265
20
17.4552443316022
30
0
41
1
10
-2.19997041029708
20
17.4038992989506
30
0
41
1
10
-2.19998045819511
20
17.2645372816575
30
0
41
1
10
-2.19998432672412
20
17.1764163911093
30
0
41
1
10
-2.19999043378135
20
16.9665639550929
30
0
41
1
10
-2.19999267824221
20
16.8447172876608
30
0
41
1
10
-2.19999607391784
20
16.569798663462
30
0
41
1
10
-2.1999972302832
20
16.4165791409565
30
0
41
1
10
-2.1999988585969
20
16.0808080953317
30
0
41
1
10
-2.1999993308427
20
15.8980848535623
30
0
41
1
10
-2.19999991533382
20
15.4916218225697
30
0
41
1
10
-2.20000000000002
20
15.2657541717873
30
0
41
1
10
-2.20000000000002
20
15.0247808645654
30
0
0
SPLINE
5
105
100
AcDbEntity
8
SK1
62
256
6
ByLayer
370
-1
48
1
60
0
100
AcDbSpline
70
4
71
3
72
14
73
10
40
0
40
0
40
0
40
0
40
0.134271728867906
40
0.286800437365241
40
0.439329145862575
40
0.591857854359909
40
0.744386562857243
40
0.896915271354578
40
1
40
1
40
1
40
1
41
1
10
-2.20000000000002
20
-10.2416919827174
30
0
41
1
10
-2.20000000000002
20
-10.4846857903794
30
0
41
1
10
-2.20000000000002
20
-11.0011299966239
30
0
41
1
10
-2.20000000000002
20
-11.7758175215927
30
0
41
1
10
-2.20000000000002
20
-12.5546844263156
30
0
41
1
10
-2.20000000000002
20
-13.296222281691
30
0
41
1
10
-2.20000000000002
20
-13.9919280373692
30
0
41
1
10
-2.20000000000002
20
-14.5649527853411
30
0
41
1
10
-2.20000000000002
20
-14.896026651443
30
0
41
1
10
-2.20000000000002
20
-15.0247809138965
30
0
0
SPLINE
5
106
100
AcDbEntity
8
SK1
62
256
6
ByLayer
370
-1
48
1
60
0
100
AcDbSpline
70
4
71
3
72
30
73
26
40
0
40
0
40
0
40
0
40
0.0497715340902711
40
0.0497715340902711
40
0.162164722193033
40
0.162164722193033
40
0.274557910295796
40
0.274557910295796
40
0.386951098398558
40
0.386951098398558
40
0.443147692449939
40
0.443147692449939
40
0.49934428650132
40
0.49934428650132
40
0.555540880552702
40
0.555540880552702
40
0.611737474604083
40
0.611737474604083
40
0.724130662706845
40
0.724130662706845
40
0.836523850809607
40
0.836523850809607
40
0.948917038912369
40
0.948917038912369
40
1
40
1
40
1
40
1
41
1
10
-29.9999999999999
20
15.9403409245149
30
0
41
1
10
-29.9999999999999
20
15.9313679701587
30
0
41
1
10
-29.9999999999999
20
15.8412125766712
30
0
41
1
10
-30
20
15.3551226444405
30
0
41
1
10
-30
20
14.7035612713569
30
0
41
1
10
-30
20
12.913904143316
30
0
41
1
10
-30
20
11.8006404644985
30
0
41
1
10
-30
20
9.09737074779505
30
0
41
1
10
-30
20
7.56524038449703
30
0
41
1
10
-30
20
4.91120745530117
30
0
41
1
10
-30
20
3.98120598160401
30
0
41
1
10
-30
20
2.00408086722498
30
0
41
1
10
-30
20
0.965918145527041
30
0
41
1
10
-30
20
-1.14866982454436
30
0
41
1
10
-30
20
-2.16166354374221
30
0
41
1
10
-30
20
-4.13146551345224
30
0
41
1
10
-30
20
-5.04792648915179
30
0
41
1
10
-30
20
-7.66128536670072
30
0
41
1
10
-30
20
-9.21076433484396
30
0
41
1
10
-30
20
-11.849267368353
30
0
41
1
10
-30
20
-12.9852614660311
30
0
41
1
10
-30
20
-14.7262518878428
30
0
41
1
10
-30
20
-15.3817060642258
30
0
41
1
10
-30
20
-15.8557907486787
30
0
41
1
10
-30
20
-15.9426683708173
30
0
41
1
10
-30
20
-15.9428910754468
30
0
0
SPLINE
5
107
100
AcDbEntity
8
SK1
62
256
6
ByLayer
370
-1
48
1
60
0
100
AcDbSpline
70
4
71
3
72
30
73
26
40
0
40
0
40
0
40
0
40
0.0455741139584743
40
0.0455741139584743
40
0.159049671983374
40
0.159049671983374
40
0.272525230008274
40
0.272525230008274
40
0.386000788033174
40
0.386000788033174
40
0.442738567045623
40
0.442738567045623
40
0.499476346058073
40
0.499476346058073
40
0.556214125070523
40
0.556214125070523
40
0.612951904082973
40
0.612951904082973
40
0.726427462107873
40
0.726427462107873
40
0.839903020132773
40
0.839903020132773
40
0.953378578157672
40
0.953378578157672
40
1
40
1
40
1
40
1
41
1
10
-28.5003225413364
20
-16.8565967864844
30
0
41
1
10
-28.5000340669845
20
-16.8376459230257
30
0
41
1
10
-28.4997859155408
20
-16.7493118011703
30
0
41
1
10
-28.4990096724341
20
-16.2729938374631
30
0
41
1
10
-28.4986372996478
20
-15.5898791582816
30
0
41
1
10
-28.4982166150499
20
-13.7831948847497
30
0
41
1
10
-28.4981553816128
20
-12.6061661210532
30
0
41
1
10
-28.4983351299001
20
-9.86418151693283
30
0
41
1
10
-28.4986074380835
20
-8.25375111866762
30
0
41
1
10
-28.4992036819074
20
-5.50138802951523
30
0
41
1
10
-28.4994883437258
20
-4.53085409634477
30
0
41
1
10
-28.5000751939889
20
-2.41173377014363
30
0
41
1
10
-28.5004477674112
20
-1.29663162177331
30
0
41
1
10
-28.5004967455741
20
1.09102073027188
30
0
41
1
10
-28.5001241479799
20
2.2401723307652
30
0
41
1
10
-28.4995330545162
20
4.37057072068765
30
0
41
1
10
-28.4992388617691
20
5.35704789398332
30
0
41
1
10
-28.4986284127516
20
8.15325541572716
30
0
41
1
10
-28.4983486589648
20
9.7461643015493
30
0
41
1
10
-28.4981532155241
20
12.5558253675992
30
0
41
1
10
-28.4982075437695
20
13.7091738077836
30
0
41
1
10
-28.4986240668147
20
15.5662992382396
30
0
41
1
10
-28.4989853639464
20
16.2452515155336
30
0
41
1
10
-28.4997641660732
20
16.7407877220616
30
0
41
1
10
-28.5000170119366
20
16.8337365667853
30
0
41
1
10
-28.5003124431517
20
16.8540125121383
30
0
0
SPLINE
5
108
100
AcDbEntity
8
SK1
62
256
6
ByLayer
370
-1
48
1
60
0
100
AcDbSpline
70
4
71
3
72
22
73
18
40
0
40
0
40
0
40
0
40
0.352684316750051
40
0.352684316750051
40
0.750046292484899
40
0.750046292484899
40
0.835479263400861
40
0.835479263400861
40
0.86935277413835
40
0.86935277413835
40
0.903637365464604
40
0.903637365464604
40
0.934112944215775
40
0.934112944215775
40
0.983611230456553
40
0.983611230456553
40
1
40
1
40
1
40
1
41
1
10
-1.30710678118655
20
-3.80474436172742
30
0
41
1
10
-1.26637440296074
20
-4.02584957204775
30
0
41
1
10
-1.21786346361694
20
-4.24386265362048
30
0
41
1
10
-1.08311917044625
20
-4.69265802851214
30
0
41
1
10
-1.00360006874376
20
-4.93633956823067
30
0
41
1
10
-0.8033447497628
20
-5.16879396055813
30
0
41
1
10
-0.76102131187784
20
-5.20853400127967
30
0
41
1
10
-0.689167148695731
20
-5.24561851051851
30
0
41
1
10
-0.666676206231415
20
-5.25408214518689
30
0
41
1
10
-0.619919785859764
20
-5.26355270960357
30
0
41
1
10
-0.595012690956537
20
-5.26445496143654
30
0
41
1
10
-0.54992619516284
20
-5.25839930645884
30
0
41
1
10
-0.529028206588009
20
-5.25231844804927
30
0
41
1
10
-0.478237300450644
20
-5.2307965704984
30
0
41
1
10
-0.449806665426394
20
-5.21177878736736
30
0
41
1
10
-0.416050679082105
20
-5.18357602352128
30
0
41
1
10
-0.407890864165267
20
-5.17622805658175
30
0
41
1
10
-0.400000000000006
20
-5.16866682996363
30
0
0
SPLINE
5
109
100
AcDbEntity
8
SK1
62
256
6
ByLayer
370
-1
48
1
60
0
100
AcDbSpline
70
4
71
3
72
22
73
18
40
0
40
0
40
0
40
0
40
0.0434921783994969
40
0.0434921783994969
40
0.0876860403067026
40
0.0876860403067026
40
0.118952127699588
40
0.118952127699588
40
0.1501558424283
40
0.1501558424283
40
0.196307791916001
40
0.196307791916001
40
0.283435745194102
40
0.283435745194102
40
0.579041181948967
40
0.579041181948967
40
1
40
1
40
1
40
1
41
1
10
-0.400000000000034
20
5.16866679574528
30
0
41
1
10
-0.420550053748514
20
5.18835839085108
30
0
41
1
10
-0.443027188827415
20
5.20675192843447
30
0
41
1
10
-0.492732016073376
20
5.23775963373393
30
0
41
1
10
-0.520750465867962
20
5.25056923469424
30
0
41
1
10
-0.571323171411422
20
5.26230651341535
30
0
41
1
10
-0.593569294960218
20
5.26418855716773
30
0
41
1
10
-0.636876257397915
20
5.26111275520464
30
0
41
1
10
-0.658413974519078
20
5.25617334660447
30
0
41
1
10
-0.70801905917827
20
5.23795018495881
30
0
41
1
10
-0.735222931334562
20
5.22174262348992
30
0
41
1
10
-0.805307091704577
20
5.16870577827882
30
0
41
1
10
-0.843008552736933
20
5.12565182749091
30
0
41
1
10
-0.98697835479976
20
4.93030734845306
30
0
41
1
10
-1.05565821402414
20
4.75512394253201
30
0
41
1
10
-1.19912511806339
20
4.32976589005261
30
0
41
1
10
-1.25838015422249
20
4.06924736884375
30
0
41
1
10
-1.30710678118655
20
3.80474664113271
30
0
0
SPLINE
5
10A
100
AcDbEntity
8
SK1
62
256
6
ByLayer
370
-1
48
1
60
0
100
AcDbSpline
70
4
71
3
72
30
73
26
40
0
40
0
40
0
40
0
40
0.0056618333513576
40
0.0508667581572205
40
0.0960716829630835
40
0.141276607768946
40
0.186481532574809
40
0.231686457380672
40
0.276891382186535
40
0.322096306992398
40
0.367301231798261
40
0.412506156604124
40
0.457711081409987
40
0.50291600621585
40
0.548120931021713
40
0.593325855827576
40
0.638530780633439
40
0.683735705439302
40
0.728940630245165
40
0.774145555051028
40
0.81935047985689
40
0.864555404662753
40
0.909760329468616
40
0.954965254274479
40
1
40
1
40
1
40
1
41
1
10
-0.400000000000034
20
5.16866679574528
30
0
41
1
10
-0.400000000000034
20
5.1981823917107
30
0
41
1
10
-0.400000000000034
20
5.46426938707833
30
0
41
1
10
-0.400000000000034
20
5.98219146197602
30
0
41
1
10
-0.400000000000034
20
6.74713361247495
30
0
41
1
10
-0.400000000000034
20
7.53968849279406
30
0
41
1
10
-0.400000000000034
20
8.35230648563555
30
0
41
1
10
-0.400000000000034
20
9.17636769820604
30
0
41
1
10
-0.400000000000034
20
10.0024728331477
30
0
41
1
10
-0.400000000000034
20
10.8207538150476
30
0
41
1
10
-0.400000000000034
20
11.6212070931939
30
0
41
1
10
-0.400000000000034
20
12.3940190774915
30
0
41
1
10
-0.400000000000034
20
13.1298916243886
30
0
41
1
10
-0.400000000000034
20
13.8203332490725
30
0
41
1
10
-0.400000000000034
20
14.4579281585871
30
0
41
1
10
-0.400000000000034
20
15.0365497976464
30
0
41
1
10
-0.400000000000034
20
15.5515337877379
30
0
41
1
10
-0.400000000000034
20
15.9997825456108
30
0
41
1
10
-0.400000000000034
20
16.379817481596
30
0
41
1
10
-0.400000000000034
20
16.6917603323907
30
0
41
1
10
-0.400000000000034
20
16.9372586651848
30
0
41
1
10
-0.400000000000034
20
17.1193485969266
30
0
41
1
10
-0.400000000000006
20
17.2422669751987
30
0
41
1
10
-0.400000000000006
20
17.3111334465647
30
0
41
1
10
-0.399999999999977
20
17.32509337188
30
0
41
1
10
-0.400000000000063
20
17.3251497958057
30
0
0
SPLINE
5
10B
100
AcDbEntity
8
SK1
62
256
6
ByLayer
370
-1
48
1
60
0
100
AcDbSpline
70
4
71
3
72
79
73
75
40
0
40
0
40
0
40
0
40
0.0074030719467464
40
0.0214772709715952
40
0.035551469996444
40
0.0496256690212928
40
0.0636998680461416
40
0.0777740670709904
40
0.0918482660958392
40
0.105922465120688
40
0.119996664145537
40
0.134070863170386
40
0.148145062195234
40
0.162219261220083
40
0.176293460244932
40
0.190367659269781
40
0.20444185829463
40
0.218516057319479
40
0.232590256344327
40
0.246664455369176
40
0.260738654394025
40
0.274812853418874
40
0.288887052443722
40
0.302961251468571
40
0.31703545049342
40
0.331109649518269
40
0.345183848543118
40
0.359258047567967
40
0.373332246592815
40
0.387406445617664
40
0.401480644642513
40
0.415554843667362
40
0.429629042692211
40
0.443703241717059
40
0.457777440741908
40
0.471851639766757
40
0.485925838791606
40
0.500000037816455
40
0.514074236841303
40
0.528148435866152
40
0.542222634891001
40
0.55629683391585
40
0.570371032940699
40
0.584445231965548
40
0.598519430990396
40
0.612593630015245
40
0.626667829040094
40
0.640742028064943
40
0.654816227089792
40
0.66889042611464
40
0.682964625139489
40
0.697038824164338
40
0.711113023189187
40
0.725187222214036
40
0.739261421238884
40
0.753335620263733
40
0.767409819288582
40
0.781484018313431
40
0.79555821733828
40
0.809632416363128
40
0.823706615387977
40
0.837780814412826
40
0.851855013437675
40
0.865929212462524
40
0.880003411487372
40
0.894077610512221
40
0.90815180953707
40
0.922226008561919
40
0.936300207586768
40
0.950374406611616
40
0.964448605636465
40
0.978522804661314
40
0.992597003686163
40
1
40
1
40
1
40
1
41
1
10
-2
20
-17.1116144544017
30
0
41
1
10
-2
20
-17.1306737736387
30
0
41
1
10
-2
20
-17.1831798974349
30
0
41
1
10
-2
20
-17.2550395308993
30
0
41
1
10
-2
20
-17.3112459497451
30
0
41
1
10
-2
20
-17.3321089735132
30
0
41
1
10
-2
20
-17.3112189889209
30
0
41
1
10
-2
20
-17.2422674474922
30
0
41
1
10
-2
20
-17.1193484069474
30
0
41
1
10
-2
20
-16.9372587367204
30
0
41
1
10
-2
20
-16.6917602356259
30
0
41
1
10
-2
20
-16.3798174953022
30
0
41
1
10
-2
20
-15.9997825770269
30
0
41
1
10
-2
20
-15.5515337348698
30
0
41
1
10
-2
20
-15.0365499649754
30
0
41
1
10
-2
20
-14.4579280405673
30
0
41
1
10
-2
20
-13.8203335391023
30
0
41
1
10
-2.00000000000003
20
-13.1298914527523
30
0
41
1
10
-2.00000000000003
20
-12.39401945775
30
0
41
1
10
-2.00000000000003
20
-11.6212068879994
30
0
41
1
10
-2.00000000000003
20
-10.8207542384819
30
0
41
1
10
-2.00000000000003
20
-10.00247262006
30
0
41
1
10
-2.00000000000003
20
-9.17636811026827
30
0
41
1
10
-2.00000000000003
20
-8.35230629219913
30
0
41
1
10
-2.00000000000003
20
-7.53968883941312
30
0
41
1
10
-2.00000000000003
20
-6.74713346409783
30
0
41
1
10
-2.00000000000003
20
-5.98219169787032
30
0
41
1
10
-2.00000000000003
20
-5.25109264883253
30
0
41
1
10
-2.00000000000003
20
-4.55854550233684
30
0
41
1
10
-2.00000000000003
20
-3.90758262960779
30
0
41
1
10
-2.00000000000003
20
-3.29948777527221
30
0
41
1
10
-2.00000000000003
20
-2.73375387844547
30
0
41
1
10
-2.00000000000003
20
-2.20813463136872
30
0
41
1
10
-2.00000000000003
20
-1.71876156390923
30
0
41
1
10
-2.00000000000003
20
-1.26029526086333
30
0
41
1
10
-2.00000000000003
20
-0.826158476850765
30
0
41
1
10
-2.00000000000003
20
-0.408799134273892
30
0
41
1
10
-2.00000000000003
20
-2.402494488E-07
30
0
41
1
10
-2.00000000000003
20
0.408799553455736
30
0
41
1
10
-2.00000000000003
20
0.82615842677356
30
0
41
1
10
-2.00000000000003
20
1.26029551010325
30
0
41
1
10
-2.00000000000003
20
1.71876142586774
30
0
41
1
10
-2.00000000000003
20
2.20813448047156
30
0
41
1
10
-2.00000000000003
20
2.7337537633878
30
0
41
1
10
-2.00000000000003
20
3.29948825001514
30
0
41
1
10
-2.00000000000003
20
3.90758266192117
30
0
41
1
10
-2.00000000000003
20
4.55854530449344
30
0
41
1
10
-2.00000000000003
20
5.25109273249788
30
0
41
1
10
-2.00000000000003
20
5.98219146197602
30
0
41
1
10
-2.00000000000003
20
6.74713361247495
30
0
41
1
10
-2.00000000000003
20
7.53968849279406
30
0
41
1
10
-2.00000000000003
20
8.35230648563552
30
0
41
1
10
-2.00000000000003
20
9.17636769820604
30
0
41
1
10
-2.00000000000003
20
10.0024728331477
30
0
41
1
10
-2.00000000000003
20
10.8207538150476
30
0
41
1
10
-2.00000000000003
20
11.6212070931939
30
0
41
1
10
-2.00000000000003
20
12.3940190774915
30
0
41
1
10
-2.00000000000003
20
13.1298916243886
30
0
41
1
10
-2
20
13.8203332490725
30
0
41
1
10
-2
20
14.4579281585871
30
0
41
1
10
-2
20
15.0365497976464
30
0
41
1
10
-2
20
15.5515337877379
30
0
41
1
10
-2
20
15.9997825456108
30
0
41
1
10
-2
20
16.379817481596
30
0
41
1
10
-2
20
16.6917603323907
30
0
41
1
10
-2
20
16.9372586651848
30
0
41
1
10
-2
20
17.1193485969266
30
0
41
1
10
-2
20
17.2422669751987
30
0
41
1
10
-2
20
17.3112199736996
30
0
41
1
10
-2
20
17.3321088799281
30
0
41
1
10
-2
20
17.3112453434672
30
0
41
1
10
-2
20
17.2550397180126
30
0
41
1
10
-2
20
17.1831802765248
30
0
41
1
10
-2
20
17.1306742504005
30
0
41
1
10
-2.00000000000003
20
17.1116151096787
30
0
0
LINE
5
49
100
AcDbEntity
8
80
62
256
6
ByLayer
370
-1
48
1
60
0
100
AcDbLine
10
0
20
0
30
0
11
-10
21
0
31
0
39
0
210
0
220
0
230
1
0
LINE
5
4A
100
AcDbEntity
8
81
62
256
6
ByLayer
370
-1
48
1
60
0
100
AcDbLine
10
140
20
-26.9
30
0
11
150
21
-26.9
31
0
39
0
210
0
220
0
230
1
0
LINE
5
4B
100
AcDbEntity
8
SK4
62
256
6
ByLayer
370
-1
48
0.05
60
0
100
AcDbLine
10
-35
20
0
30
0
11
144.860216
21
0
31
0
39
0
210
0
220
0
230
1
0
LINE
5
4D
100
AcDbEntity
8
4
62
256
6
ByLayer
370
-1
48
0.05
60
0
100
AcDbLine
10
0
20
0
30
0
11
174.860216
21
0
31
0
39
0
210
0
220
0
230
1
0
LINE
5
4F
100
AcDbEntity
8
1
62
256
6
ByLayer
370
-1
48
1
60
0
100
AcDbLine
10
133.735121
20
-18.634246
30
0
11
133.744924
21
-18.746296
31
0
39
0
210
0
220
0
230
1
0
LINE
5
50
100
AcDbEntity
8
1
62
256
6
ByLayer
370
-1
48
1
60
0
100
AcDbLine
10
131.950413
20
-19.451209
30
0
11
131.930702
21
-19.225917
31
0
39
0
210
0
220
0
230
1
0
LINE
5
51
100
AcDbEntity
8
1
62
256
6
ByLayer
370
-1
48
1
60
0
100
AcDbLine
10
129.667119
20
-20.127372
30
0
11
129.680126
21
-20.276041
31
0
39
0
210
0
220
0
230
1
0
LINE
5
52
100
AcDbEntity
8
1
62
256
6
ByLayer
370
-1
48
1
60
0
100
AcDbLine
10
136.50406
20
-19.679024
30
0
11
136.491053
21
-19.530356
31
0
39
0
210
0
220
0
230
1
0
LINE
5
53
100
AcDbEntity
8
1
62
256
6
ByLayer
370
-1
48
1
60
0
100
AcDbLine
10
134.2177
20
-20.320146
30
0
11
134.23746
21
-20.545996
31
0
39
0
210
0
220
0
230
1
0
LINE
5
54
100
AcDbEntity
8
1
62
256
6
ByLayer
370
-1
48
1
60
0
100
AcDbLine
10
132.444892
20
-21.273122
30
0
11
132.424184
21
-21.036431
31
0
39
0
210
0
220
0
230
1
0
LINE
5
55
100
AcDbEntity
8
1
62
256
6
ByLayer
370
-1
48
1
60
0
100
AcDbLine
10
19.5
20
-25
30
0
11
20.56651
21
-20.898039
31
0
39
0
210
0
220
0
230
1
0
LINE
5
56
100
AcDbEntity
8
1
62
256
6
ByLayer
370
-1
48
1
60
0
100
AcDbLine
10
20.56651
20
20.898039
30
0
11
19.5
21
25
31
0
39
0
210
0
220
0
230
1
0
LINE
5
57
100
AcDbEntity
8
1
62
256
6
ByLayer
370
-1
48
1
60
0
100
AcDbLine
10
0.3
20
25
30
0
11
0
21
24.7
31
0
39
0
210
0
220
0
230
1
0
LINE
5
58
100
AcDbEntity
8
1
62
256
6
ByLayer
370
-1
48
1
60
0
100
AcDbLine
10
0
20
-24.7
30
0
11
0.3
21
-25
31
0
39
0
210
0
220
0
230
1
0
LINE
5
59
100
AcDbEntity
8
1
62
256
6
ByLayer
370
-1
48
1
60
0
100
AcDbLine
10
19.5
20
25
30
0
11
0.3
21
25
31
0
39
0
210
0
220
0
230
1
0
LINE
5
5A
100
AcDbEntity
8
1
62
256
6
ByLayer
370
-1
48
1
60
0
100
AcDbLine
10
0.3
20
-25
30
0
11
19.5
21
-25
31
0
39
0
210
0
220
0
230
1
0
LINE
5
5B
100
AcDbEntity
8
1
62
256
6
ByLayer
370
-1
48
1
60
0
100
AcDbLine
10
114.004604
20
20
30
0
11
21.727897
21
20
31
0
39
0
210
0
220
0
230
1
0
LINE
5
5C
100
AcDbEntity
8
1
62
256
6
ByLayer
370
-1
48
1
60
0
100
AcDbLine
10
21.727897
20
-20
30
0
11
116.004604
21
-20
31
0
39
0
210
0
220
0
230
1
0
LINE
5
5D
100
AcDbEntity
8
1
62
256
6
ByLayer
370
-1
48
1
60
0
100
AcDbLine
10
116.004604
20
-20
30
0
11
121.339219
21
-24.019921
31
0
39
0
210
0
220
0
230
1
0
LINE
5
5E
100
AcDbEntity
8
1
62
256
6
ByLayer
370
-1
48
1
60
0
100
AcDbLine
10
125.253152
20
-15.34545
30
0
11
125.5064
21
-15.004404
31
0
39
0
210
0
220
0
230
1
0
LINE
5
5F
100
AcDbEntity
8
1
62
256
6
ByLayer
370
-1
48
1
60
0
100
AcDbLine
10
125.23412
20
-15.138399
30
0
11
125.487368
21
-14.797352
31
0
39
0
210
0
220
0
230
1
0
LINE
5
60
100
AcDbEntity
8
1
62
256
6
ByLayer
370
-1
48
1
60
0
100
AcDbLine
10
138.711374
20
-14.208453
30
0
11
128.504223
21
-13.32914
31
0
39
0
210
0
220
0
230
1
0
LINE
5
61
100
AcDbEntity
8
1
62
256
6
ByLayer
370
-1
48
1
60
0
100
AcDbLine
10
11.894338
20
23.666502
30
0
11
11.894338
21
8.055848
31
0
39
0
210
0
220
0
230
1
0
LINE
5
62
100
AcDbEntity
8
1
62
256
6
ByLayer
370
-1
48
1
60
0
100
AcDbLine
10
114.004604
20
20
30
0
11
115.746599
21
18.448744
31
0
39
0
210
0
220
0
230
1
0
LINE
5
63
100
AcDbEntity
8
1
62
256
6
ByLayer
370
-1
48
1
60
0
100
AcDbLine
10
125.23412
20
-15.138399
30
0
11
125.253152
21
-15.34545
31
0
39
0
210
0
220
0
230
1
0
LINE
5
64
100
AcDbEntity
8
1
62
256
6
ByLayer
370
-1
48
1
60
0
100
AcDbLine
10
11.894338
20
-8.055848
30
0
11
11.894338
21
-23.666502
31
0
39
0
210
0
220
0
230
1
0
LINE
5
65
100
AcDbEntity
8
1
62
256
6
ByLayer
370
-1
48
1
60
0
100
AcDbLine
10
8.105662
20
23.666502
30
0
11
8.105662
21
8.055848
31
0
39
0
210
0
220
0
230
1
0
LINE
5
66
100
AcDbEntity
8
1
62
256
6
ByLayer
370
-1
48
1
60
0
100
AcDbLine
10
125.483149
20
-14.738638
30
0
11
125.5064
21
-15.004404
31
0
39
0
210
0
220
0
230
1
0
LINE
5
67
100
AcDbEntity
8
1
62
256
6
ByLayer
370
-1
48
1
60
0
100
AcDbLine
10
8.538675
20
-23.83913
30
0
11
11.461325
21
-23.83913
31
0
39
0
210
0
220
0
230
1
0
LINE
5
68
100
AcDbEntity
8
1
62
256
6
ByLayer
370
-1
48
1
60
0
100
AcDbLine
10
8.538675
20
-7.529667
30
0
11
8.538675
21
-23.83913
31
0
39
0
210
0
220
0
230
1
0
LINE
5
69
100
AcDbEntity
8
1
62
256
6
ByLayer
370
-1
48
1
60
0
100
AcDbLine
10
8.105662
20
-8.055848
30
0
11
8.105662
21
-23.666502
31
0
39
0
210
0
220
0
230
1
0
LINE
5
6A
100
AcDbEntity
8
1
62
256
6
ByLayer
370
-1
48
1
60
0
100
AcDbLine
10
115.746599
20
18.448744
30
0
11
129.396673
21
6.293283
31
0
39
0
210
0
220
0
230
1
0
LINE
5
6B
100
AcDbEntity
8
1
62
256
6
ByLayer
370
-1
48
1
60
0
100
AcDbLine
10
0
20
24.7
30
0
11
0
21
-24.7
31
0
39
0
210
0
220
0
230
1
0
LINE
5
6C
100
AcDbEntity
8
1
62
256
6
ByLayer
370
-1
48
1
60
0
100
AcDbLine
10
8.538675
20
23.83913
30
0
11
8.538675
21
7.529667
31
0
39
0
210
0
220
0
230
1
0
LINE
5
6D
100
AcDbEntity
8
1
62
256
6
ByLayer
370
-1
48
1
60
0
100
AcDbLine
10
8.538675
20
7.529667
30
0
11
11.461325
21
7.529667
31
0
39
0
210
0
220
0
230
1
0
LINE
5
6E
100
AcDbEntity
8
1
62
256
6
ByLayer
370
-1
48
1
60
0
100
AcDbLine
10
125.5064
20
-15.004404
30
0
11
125.487368
21
-14.797352
31
0
39
0
210
0
220
0
230
1
0
LINE
5
6F
100
AcDbEntity
8
1
62
256
6
ByLayer
370
-1
48
1
60
0
100
AcDbLine
10
129.396673
20
6.293283
30
0
11
137.55317
21
-0.970119
31
0
39
0
210
0
220
0
230
1
0
LINE
5
70
100
AcDbEntity
8
1
62
256
6
ByLayer
370
-1
48
1
60
0
100
AcDbLine
10
20.56651
20
20.898039
30
0
11
20.56651
21
-20.898039
31
0
39
0
210
0
220
0
230
1
0
LINE
5
71
100
AcDbEntity
8
1
62
256
6
ByLayer
370
-1
48
1
60
0
100
AcDbLine
10
11.461325
20
-7.529667
30
0
11
8.538675
21
-7.529667
31
0
39
0
210
0
220
0
230
1
0
LINE
5
72
100
AcDbEntity
8
1
62
256
6
ByLayer
370
-1
48
1
60
0
100
AcDbLine
10
116.004604
20
-20
30
0
11
116.004604
21
-19.980587
31
0
39
0
210
0
220
0
230
1
0
LINE
5
73
100
AcDbEntity
8
1
62
256
6
ByLayer
370
-1
48
1
60
0
100
AcDbLine
10
21.727897
20
-20
30
0
11
21.727897
21
20
31
0
39
0
210
0
220
0
230
1
0
LINE
5
74
100
AcDbEntity
8
1
62
256
6
ByLayer
370
-1
48
1
60
0
100
AcDbLine
10
19.5
20
25
30
0
11
19.5
21
-25
31
0
39
0
210
0
220
0
230
1
0
LINE
5
75
100
AcDbEntity
8
1
62
256
6
ByLayer
370
-1
48
1
60
0
100
AcDbLine
10
11.461325
20
23.83913
30
0
11
11.461325
21
7.529667
31
0
39
0
210
0
220
0
230
1
0
LINE
5
76
100
AcDbEntity
8
1
62
256
6
ByLayer
370
-1
48
1
60
0
100
AcDbLine
10
0.3
20
25
30
0
11
0.3
21
-25
31
0
39
0
210
0
220
0
230
1
0
LINE
5
77
100
AcDbEntity
8
1
62
256
6
ByLayer
370
-1
48
1
60
0
100
AcDbLine
10
121.235561
20
-23.941806
30
0
11
129.396673
21
6.293283
31
0
39
0
210
0
220
0
230
1
0
LINE
5
78
100
AcDbEntity
8
1
62
256
6
ByLayer
370
-1
48
1
60
0
100
AcDbLine
10
11.461325
20
-7.529667
30
0
11
11.461325
21
-23.83913
31
0
39
0
210
0
220
0
230
1
0
LINE
5
79
100
AcDbEntity
8
1
62
256
6
ByLayer
370
-1
48
1
60
0
100
AcDbLine
10
11.461325
20
23.83913
30
0
11
8.538675
21
23.83913
31
0
39
0
210
0
220
0
230
1
0
LINE
5
7A
100
AcDbEntity
8
1
62
256
6
ByLayer
370
-1
48
1
60
0
100
AcDbLine
10
125.421698
20
-13.901529
30
0
11
125.482586
21
-14.597478
31
0
39
0
210
0
220
0
230
1
0
LINE
5
7B
100
AcDbEntity
8
1
62
256
6
ByLayer
370
-1
48
1
60
0
100
AcDbLine
10
138.711374
20
-14.208453
30
0
11
137.55317
21
-0.970119
31
0
39
0
210
0
220
0
230
1
0
LINE
5
7C
100
AcDbEntity
8
SK1
62
256
6
ByLayer
370
-1
48
1
60
0
100
AcDbLine
10
-0.2
20
5.881424
30
0
11
-0.2
21
17.833485
31
0
39
0
210
0
220
0
230
1
0
LINE
5
7E
100
AcDbEntity
8
SK1
62
256
6
ByLayer
370
-1
48
1
60
0
100
AcDbLine
10
-0.2
20
-17.833485
30
0
11
-0.2
21
-5.881425
31
0
39
0
210
0
220
0
230
1
0
LINE
5
7F
100
AcDbEntity
8
1
62
256
6
ByLayer
370
-1
48
1
60
0
100
AcDbLine
10
126.839566
20
-13.18301
30
0
11
128.503544
21
-13.326356
31
0
39
0
210
0
220
0
230
1
0
LINE
5
80
100
AcDbEntity
8
1
62
256
6
ByLayer
370
-1
48
1
60
0
100
AcDbLine
10
127.060842
20
-13.206017
30
0
11
138.299996
21
-14.174234
31
0
39
0
210
0
220
0
230
1
0
LINE
5
81
100
AcDbEntity
8
1
62
256
6
ByLayer
370
-1
48
1
60
0
100
AcDbLine
10
139.13629
20
-26.897024
30
0
11
127.897136
21
-25.928807
31
0
39
0
210
0
220
0
230
1
0
LINE
5
82
100
AcDbEntity
8
1
62
256
6
ByLayer
370
-1
48
1
60
0
100
AcDbLine
10
139.021243
20
-14.889946
30
0
11
139.997001
21
-26.042909
31
0
39
0
210
0
220
0
230
1
0
LINE
5
83
100
AcDbEntity
8
1
62
256
6
ByLayer
370
-1
48
1
60
0
100
AcDbLine
10
127.175889
20
-25.213095
30
0
11
126.200131
21
-14.060132
31
0
39
0
210
0
220
0
230
1
0
LINE
5
84
100
AcDbEntity
8
1
62
256
6
ByLayer
370
-1
48
1
60
0
100
AcDbLine
10
132.281387
20
-20.676475
30
0
11
132.300694
21
-20.897155
31
0
39
0
210
0
220
0
230
1
0
LINE
5
85
100
AcDbEntity
8
1
62
256
6
ByLayer
370
-1
48
1
60
0
100
AcDbLine
10
131.737236
20
-20.415535
30
0
11
131.758287
21
-20.656151
31
0
39
0
210
0
220
0
230
1
0
LINE
5
86
100
AcDbEntity
8
1
62
256
6
ByLayer
370
-1
48
1
60
0
100
AcDbLine
10
132.97148
20
-21.245953
30
0
11
132.99255
21
-21.486784
31
0
39
0
210
0
220
0
230
1
0
LINE
5
87
100
AcDbEntity
8
1
62
256
6
ByLayer
370
-1
48
1
60
0
100
AcDbLine
10
133.907018
20
-20.995223
30
0
11
133.928088
21
-21.236054
31
0
39
0
210
0
220
0
230
1
0
LINE
5
88
100
AcDbEntity
8
1
62
256
6
ByLayer
370
-1
48
1
60
0
100
AcDbLine
10
133.740189
20
-18.658064
30
0
11
133.742715
21
-18.686931
31
0
39
0
210
0
220
0
230
1
0
LINE
5
89
100
AcDbEntity
8
1
62
256
6
ByLayer
370
-1
48
1
60
0
100
AcDbLine
10
132.183088
20
-20.780451
30
0
11
132.163781
21
-20.559771
31
0
39
0
210
0
220
0
230
1
0
LINE
5
8A
100
AcDbEntity
8
1
62
256
6
ByLayer
370
-1
48
1
60
0
100
AcDbLine
10
134.558505
20
-19.67109
30
0
11
134.579575
21
-19.911921
31
0
39
0
210
0
220
0
230
1
0
LINE
5
8B
100
AcDbEntity
8
1
62
256
6
ByLayer
370
-1
48
1
60
0
100
AcDbLine
10
131.842561
20
-18.946608
30
0
11
131.863631
21
-19.187439
31
0
39
0
210
0
220
0
230
1
0
LINE
5
8C
100
AcDbEntity
8
1
62
256
6
ByLayer
370
-1
48
1
60
0
100
AcDbLine
10
127.363264
20
-13.058083
30
0
11
128.450502
21
-13.151745
31
0
39
0
210
0
220
0
230
1
0
LINE
5
8D
100
AcDbEntity
8
1
62
256
6
ByLayer
370
-1
48
1
60
0
100
AcDbLine
10
127.363264
20
-13.058083
30
0
11
127.323698
21
-12.605839
31
0
39
0
210
0
220
0
230
1
0
LINE
5
8E
100
AcDbEntity
8
1
62
256
6
ByLayer
370
-1
48
1
60
0
100
AcDbLine
10
128.190546
20
-12.680516
30
0
11
127.323698
21
-12.605839
31
0
39
0
210
0
220
0
230
1
0
LINE
5
8F
100
AcDbEntity
8
SK1
62
256
6
ByLayer
370
-1
48
1
60
0
100
AcDbLine
10
-1.307107
20
-3.804744
30
0
11
-1.307107
21
3.804747
31
0
39
0
210
0
220
0
230
1
0
LINE
5
90
100
AcDbEntity
8
SK1
62
256
6
ByLayer
370
-1
48
1
60
0
100
AcDbLine
10
-0.4
20
-17.32515
30
0
11
-0.4
21
-5.168667
31
0
39
0
210
0
220
0
230
1
0
LINE
5
91
100
AcDbEntity
8
2
62
256
6
ByLayer
370
-1
48
1
60
1
100
AcDbLine
10
140
20
0
30
0
11
140.001
21
0.001
31
0
39
0
210
0
220
0
230
1
0
MTEXT
5
10C
100
AcDbEntity
8
SK6
62
256
6
ByLayer
370
-1
48
1
60
0
100
AcDbMText
10
2.805108
20
33.174824
30
0
210
0
220
0
230
1
1
\W00.709;\fsimplex.shx,bigfont.shx;C5-SCLCL-27140-12 
40
3.5
41
0
44
1.084337
50
0
71
7
72
5
7
DEFAULT
0
DIMENSION
5
140
100
AcDbEntity
8
SK2
62
256
6
ByLayer
370
-3
48
1
60
0
100
AcDbDimension
2
DimnDraft3D1
10
-42.75
20
-25
30
0
11
-42.75
21
-4.784211
31
0
70
32
71
5
72
1
41
1
210
0
220
0
230
1
3
Standard
100
AcDbAlignedDimension
13
-2
23
25
33
0
14
-2
24
-25
34
0
50
90
100
AcDbRotatedDimension
1001
ACAD
1000
DSTYLE
1002
{
1070
    74
1070
     0
1070
   279
1070
     0
1070
   172
1070
     1
1070
   173
1070
     1
1070
   340
1005
10D
1070
    77
1070
     1
1070
    73
1070
     0
1070
   171
1070
     4
1070
   274
1070
     4
1070
   177
1070
     2
1070
   176
1070
     2
1070
   178
1070
     7
1070
    78
1070
     8
1070
    41
1041
3.175
1070
   147
1041
2.25
1070
    42
1041
2.0
1070
    44
1041
2.0
1070
   140
1041
4.5
1070
   343
1005
141
1070
   344
1005
141
1002
}
0
DIMENSION
5
153
100
AcDbEntity
8
2
62
256
6
ByLayer
370
-3
48
1
60
0
100
AcDbDimension
2
DimnDraft3D2
10
36.05
20
20
30
0
11
36.05
21
-7.555263
31
0
70
32
71
5
72
1
41
1
210
0
220
0
230
1
3
Standard
100
AcDbAlignedDimension
13
20.8
23
20
33
0
14
0
24
0
34
0
50
90
100
AcDbRotatedDimension
1001
ACAD
1000
DSTYLE
1002
{
1070
    74
1070
     0
1070
   279
1070
     0
1070
   172
1070
     1
1070
   173
1070
     1
1070
   340
1005
10D
1070
    75
1070
     1
1070
    76
1070
     1
1070
    77
1070
     1
1070
    73
1070
     0
1070
   171
1070
     4
1070
   274
1070
     4
1070
   177
1070
     2
1070
   176
1070
     2
1070
   178
1070
     7
1070
    78
1070
     8
1070
    41
1041
3.175
1070
   147
1041
2.25
1070
    42
1041
2.0
1070
    44
1041
2.0
1070
   140
1041
4.5
1070
   343
1005
141
1070
   344
1005
141
1002
}
0
DIMENSION
5
161
100
AcDbEntity
8
2
62
256
6
ByLayer
370
-3
48
1
60
0
100
AcDbDimension
2
DimnDraft3D3
10
152.25
20
-26.9
30
0
11
152.25
21
-18.613158
31
0
70
32
71
5
72
1
41
1
210
0
220
0
230
1
3
Standard
100
AcDbAlignedDimension
13
142
23
0
33
0
14
142
24
-26.9
34
0
50
90
100
AcDbRotatedDimension
1001
ACAD
1000
DSTYLE
1002
{
1070
    74
1070
     0
1070
   279
1070
     0
1070
   172
1070
     1
1070
   173
1070
     1
1070
   340
1005
10D
1070
    77
1070
     1
1070
    73
1070
     0
1070
   171
1070
     4
1070
   274
1070
     4
1070
   177
1070
     2
1070
   176
1070
     2
1070
   178
1070
     7
1070
    78
1070
     8
1070
    41
1041
3.175
1070
   147
1041
2.25
1070
    42
1041
2.0
1070
    44
1041
2.0
1070
   140
1041
4.5
1070
   343
1005
141
1070
   344
1005
141
1002
}
0
DIMENSION
5
16F
100
AcDbEntity
8
2
62
256
6
ByLayer
370
-3
48
1
60
0
100
AcDbDimension
2
DimnDraft3D4
10
140
20
-59.15
30
0
11
63.510526
21
-59.15
31
0
70
32
71
5
72
1
41
1
210
0
220
0
230
1
3
Standard
100
AcDbAlignedDimension
13
0
23
-27
33
0
14
140
24
-28.9
34
0
50
0
100
AcDbRotatedDimension
1001
ACAD
1000
DSTYLE
1002
{
1070
   279
1070
     0
1070
   172
1070
     1
1070
   173
1070
     1
1070
   340
1005
10D
1070
    77
1070
     1
1070
    73
1070
     0
1070
   171
1070
     4
1070
   274
1070
     4
1070
   177
1070
     2
1070
   176
1070
     2
1070
   178
1070
     7
1070
    78
1070
     8
1070
    41
1041
3.175
1070
   147
1041
2.25
1070
    42
1041
2.0
1070
    44
1041
2.0
1070
   140
1041
4.5
1070
   343
1005
141
1070
   344
1005
141
1002
}
0
DIMENSION
5
17D
100
AcDbEntity
8
2
62
256
6
ByLayer
370
-3
48
1
60
0
100
AcDbDimension
2
DimnDraft3D5
10
140
20
-44.15
30
0
11
74.709868
21
-44.15
31
0
70
32
71
5
72
1
41
1
210
0
220
0
230
1
3
Standard
100
AcDbAlignedDimension
13
20.8
23
-22
33
0
14
140
24
-28.9
34
0
50
0
100
AcDbRotatedDimension
1001
ACAD
1000
DSTYLE
1002
{
1070
   279
1070
     0
1070
   172
1070
     1
1070
   173
1070
     1
1070
   340
1005
10D
1070
    77
1070
     1
1070
    73
1070
     0
1070
   171
1070
     4
1070
   274
1070
     4
1070
   177
1070
     2
1070
   176
1070
     2
1070
   178
1070
     7
1070
    78
1070
     8
1070
    41
1041
3.175
1070
   147
1041
2.25
1070
    42
1041
2.0
1070
    44
1041
2.0
1070
   140
1041
4.5
1070
   343
1005
141
1070
   344
1005
141
1002
}
0
DIMENSION
5
18B
100
AcDbEntity
8
2
62
256
6
ByLayer
370
-3
48
1
60
0
100
AcDbDimension
2
DimnDraft3D6
10
177.572962
20
0
30
0
11
160.092109
21
33.925375
31
0
70
34
71
5
72
1
41
1
210
0
220
0
230
1
3
Standard
100
AcDb2LineAngularDimension
13
138.77982
23
-12.953274
33
0
14
134.166739
24
39.774475
34
0
15
142
25
0
35
0
16
166.30942
26
31.280028
36
0
40
0
0
ENDSEC
0
SECTION
2
OBJECTS
0
DICTIONARY
5
1bc
330
0
100
AcDbDictionary
280
0
281
1
3
ACAD_GROUP
350
1bd
3
ACAD_MLINESTYLE
350
1be
0
DICTIONARY
5
1bd
330
0
100
AcDbDictionary
280
0
281
1
0
DICTIONARY
5
1be
330
0
100
AcDbDictionary
280
0
281
1
3
Standard
350
18
0
MLINESTYLE
5
18
330
1be
100
AcDbMlineStyle
2
Standard
70
0
3

62
256
51
90
52
90
71
2
49
-0.5
62
256
6
ByLayer
49
0.5
62
256
6
ByLayer
0
RASTERVARIABLES
5
1aa
330

100
AcDbRasterVariables
90
0
70
1
71
1
72
1
0
ENDSEC
0
EOF
