0
SECTION
2
HEADER
9
$ACADVER
1
AC1015
9
$DWGCODEPAGE
3
ANSI_1252
9
$HANDSEED
5
1ca
9
$ANGBASE
50
0
9
$ANGDIR
70
0
9
$ATTMODE
70
1
9
$AUNITS
70
0
9
$AUPREC
70
0
9
$CECOLOR
62
256
9
$CELTSCALE
40
1
9
$CELTYPE
6
ByLayer
9
$CELWEIGHT
370
-1
9
$CLAYER
8
0
9
$CMLJUST
70
0
9
$CMLSCALE
40
1
9
$CMLSTYLE
2
Standard
9
$DIMSTYLE
2
Standard
9
$TEXTSIZE
40
0.2
9
$TEXTSTYLE
7
Standard
9
$LUNITS
70
2
9
$LUPREC
70
4
9
$EXTNAMES
290
1
9
$INSUNITS
70
4
9
$LTSCALE
40
1
9
$LWDISPLAY
290
0
9
$PDMODE
70
0
9
$PDSIZE
40
0
9
$PLINEGEN
70
0
0
ENDSEC
0
SECTION
2
CLASSES
0
CLASS
1
RASTERVARIABLES
2
AcDbRasterVariables
3
ISM
90
0
280
0
281
0
0
ENDSEC
0
SECTION
2
TABLES
0
TABLE
2
VPORT
5
1c0
100
AcDbSymbolTable
0
VPORT
5
1
100
AcDbSymbolTableRecord
100
AcDbViewportTableRecord
2
*Active
70
0
10
0
20
0
11
1
21
1
12
-1
22
1
13
0
23
0
14
0.5
24
0.5
15
10
25
10
16
0
26
0
36
1
17
0
27
0
37
0
0
ENDTAB
0
TABLE
2
LTYPE
5
1c1
100
AcDbSymbolTable
0
LTYPE
5
14
100
AcDbSymbolTableRecord
100
AcDbLinetypeTableRecord
70
0
2
ByBlock
3

72
65
73
0
40
0
0
LTYPE
5
15
100
AcDbSymbolTableRecord
100
AcDbLinetypeTableRecord
70
0
2
ByLayer
3

72
65
73
0
40
0
0
LTYPE
5
16
100
AcDbSymbolTableRecord
100
AcDbLinetypeTableRecord
70
0
2
CONTINUOUS
3
Solid line
72
65
73
0
40
0
0
LTYPE
5
3B
100
AcDbSymbolTableRecord
100
AcDbLinetypeTableRecord
70
0
2
DASHED
3
__ __ __ __ __ __ __ __ __
72
65
73
2
40
25.72
49
12.86
74
0
49
-12.86
74
0
0
LTYPE
5
3C
100
AcDbSymbolTableRecord
100
AcDbLinetypeTableRecord
70
0
2
HIDDEN
3
_ _ _ _ _ _ _ _ _ _ _ _ _ _ _
72
65
73
2
40
0.5
49
0.25
74
0
49
-0.25
74
0
0
LTYPE
5
3D
100
AcDbSymbolTableRecord
100
AcDbLinetypeTableRecord
70
0
2
PHANTOM
3
____ _ _ ____ _ _ _____ _ _ ____
72
65
73
6
40
50.5
49
18
74
0
49
-6.5
74
0
49
6.5
74
0
49
-6.5
74
0
49
6.5
74
0
49
-6.5
74
0
0
LTYPE
5
3E
100
AcDbSymbolTableRecord
100
AcDbLinetypeTableRecord
70
0
2
CENTER
3
____ _ ____ _ ____ _ ____
72
65
73
4
40
47.5
49
22
74
0
49
-8.5
74
0
49
8.5
74
0
49
-8.5
74
0
0
LTYPE
5
3F
100
AcDbSymbolTableRecord
100
AcDbLinetypeTableRecord
70
0
2
DOT
3
.........................
72
65
73
2
40
10
49
0
74
0
49
-10
74
0
0
LTYPE
5
40
100
AcDbSymbolTableRecord
100
AcDbLinetypeTableRecord
70
0
2
DASHDOT
3
_._._._._._._._._._._._._._._._.
72
65
73
4
40
70
49
31
74
0
49
-13
74
0
49
13
74
0
49
-13
74
0
0
ENDTAB
0
TABLE
2
LAYER
5
1c2
100
AcDbSymbolTable
0
LAYER
5
10
100
AcDbSymbolTableRecord
100
AcDbLayerTableRecord
2
0
70
0
62
7
6
CONTINUOUS
290
1
370
-3
390
0
0
LAYER
5
42
100
AcDbSymbolTableRecord
100
AcDbLayerTableRecord
2
80
70
0
62
-6
6
CONTINUOUS
290
1
370
-3
390
0
0
LAYER
5
44
100
AcDbSymbolTableRecord
100
AcDbLayerTableRecord
2
81
70
0
62
-3
6
CONTINUOUS
290
1
370
-3
390
0
0
LAYER
5
46
100
AcDbSymbolTableRecord
100
AcDbLayerTableRecord
2
1
70
0
62
4
6
CONTINUOUS
290
1
370
-3
390
0
0
LAYER
5
48
100
AcDbSymbolTableRecord
100
AcDbLayerTableRecord
2
2
70
0
62
7
6
CONTINUOUS
290
1
370
-3
390
0
0
LAYER
5
4E
100
AcDbSymbolTableRecord
100
AcDbLayerTableRecord
2
4
70
0
62
-2
6
CENTER
290
1
370
-3
390
0
0
LAYER
5
1ac
100
AcDbSymbolTableRecord
100
AcDbLayerTableRecord
2
SK4
70
0
62
2
6
CENTER
290
1
370
-3
390
0
0
LAYER
5
1ad
100
AcDbSymbolTableRecord
100
AcDbLayerTableRecord
2
SK1
70
0
62
4
6
CONTINUOUS
290
1
370
-3
390
0
0
LAYER
5
1ae
100
AcDbSymbolTableRecord
100
AcDbLayerTableRecord
2
SK6
70
0
62
5
6
CONTINUOUS
290
1
370
-3
390
0
0
LAYER
5
1af
100
AcDbSymbolTableRecord
100
AcDbLayerTableRecord
2
SK2
70
0
62
7
6
CONTINUOUS
290
1
370
-3
390
0
0
ENDTAB
0
TABLE
2
STYLE
5
1c3
100
AcDbSymbolTable
0
STYLE
5
11
100
AcDbSymbolTableRecord
100
AcDbTextStyleTableRecord
2
Standard
3
txt
70
0
71
0
40
0
41
1
42
0
50
0
0
STYLE
5
10E
100
AcDbSymbolTableRecord
100
AcDbTextStyleTableRecord
2
DEFAULT
3
simplex.shx
70
0
71
0
40
0
41
1
42
0
50
0
0
STYLE
5
131
100
AcDbSymbolTableRecord
100
AcDbTextStyleTableRecord
2
DWGDirectTextStyle
3
SIMPLEX
70
0
71
0
40
0
41
1
42
0
50
0
0
ENDTAB
0
TABLE
2
DIMSTYLE
5
1c4
100
AcDbSymbolTable
100
AcDbDimStyleTable
0
DIMSTYLE
105
27
100
AcDbSymbolTableRecord
100
AcDbDimStyleTableRecord
2
Standard
70
0
3
<>
41
0.18
42
0.0625
44
0.18
140
0.18
147
0.09
73
0
74
0
77
1
271
2
275
0
278
52
280
0
340
11
0
ENDTAB
0
TABLE
2
VIEW
5
1c5
100
AcDbSymbolTable
0
ENDTAB
0
TABLE
2
UCS
5
1c6
100
AcDbSymbolTable
0
ENDTAB
0
TABLE
2
APPID
5
1c7
100
AcDbSymbolTable
0
APPID
5
12
100
AcDbSymbolTableRecord
100
AcDbRegAppTableRecord
2
ACAD
70
0
0
ENDTAB
0
TABLE
2
BLOCK_RECORD
5
1c8
100
AcDbSymbolTable
0
BLOCK_RECORD
5
1F
100
AcDbSymbolTableRecord
100
AcDbBlockTableRecord
2
*Model_Space
340
0
70
0
0
BLOCK_RECORD
5
1B
100
AcDbSymbolTableRecord
100
AcDbBlockTableRecord
2
*Paper_Space
340
0
70
0
0
BLOCK_RECORD
5
23
100
AcDbSymbolTableRecord
100
AcDbBlockTableRecord
2
*Paper_Space0
340
0
70
0
0
BLOCK_RECORD
5
133
100
AcDbSymbolTableRecord
100
AcDbBlockTableRecord
2
DimnDraft3D1
340
0
70
0
0
BLOCK_RECORD
5
142
100
AcDbSymbolTableRecord
100
AcDbBlockTableRecord
2
_CLOSED
340
0
70
0
0
BLOCK_RECORD
5
149
100
AcDbSymbolTableRecord
100
AcDbBlockTableRecord
2
DimnDraft3D2
340
0
70
0
0
BLOCK_RECORD
5
155
100
AcDbSymbolTableRecord
100
AcDbBlockTableRecord
2
DimnDraft3D3
340
0
70
0
0
BLOCK_RECORD
5
163
100
AcDbSymbolTableRecord
100
AcDbBlockTableRecord
2
DimnDraft3D4
340
0
70
0
0
BLOCK_RECORD
5
171
100
AcDbSymbolTableRecord
100
AcDbBlockTableRecord
2
DimnDraft3D5
340
0
70
0
0
BLOCK_RECORD
5
17F
100
AcDbSymbolTableRecord
100
AcDbBlockTableRecord
2
DimnDraft3D6
340
0
70
0
0
ENDTAB
0
ENDSEC
0
SECTION
2
BLOCKS
0
BLOCK
5
20
100
AcDbEntity
8
0
100
AcDbBlockBegin
2
*Model_Space
70
0
10
0
20
0
30
0
3
*Model_Space
0
ENDBLK
5
21
100
AcDbEntity
8
0
100
AcDbBlockEnd
0
BLOCK
5
1C
100
AcDbEntity
8
0
100
AcDbBlockBegin
2
*Paper_Space
70
0
10
0
20
0
30
0
3
*Paper_Space
0
ENDBLK
5
1D
100
AcDbEntity
8
0
100
AcDbBlockEnd
0
BLOCK
5
24
100
AcDbEntity
8
0
100
AcDbBlockBegin
2
*Paper_Space0
70
0
10
0
20
0
30
0
3
*Paper_Space0
0
ENDBLK
5
25
100
AcDbEntity
8
0
100
AcDbBlockEnd
0
BLOCK
5
13F
100
AcDbEntity
8
0
100
AcDbBlockBegin
2
DimnDraft3D1
70
0
10
0
20
0
30
0
3
DimnDraft3D1
0
MTEXT
5
134
100
AcDbEntity
8
SK2
62
256
6
ByLayer
370
-1
48
1
60
0
100
AcDbMText
10
-43.875
20
-3.659211
30
0
210
0
220
0
230
1
1
\W01.000;\fsimplex.shx,bigfont.shx;%%c50 
40
4.5
41
0
44
1.084337
50
90
71
7
72
5
7
DEFAULT
0
LINE
5
136
100
AcDbEntity
8
SK2
62
256
6
ByLayer
370
-1
48
1
60
0
100
AcDbLine
10
-2
20
25
30
0
11
-44.75
21
25
31
0
39
0
210
0
220
0
230
1
0
LINE
5
137
100
AcDbEntity
8
SK2
62
256
6
ByLayer
370
-1
48
1
60
0
100
AcDbLine
10
-2
20
-25
30
0
11
-44.75
21
-25
31
0
39
0
210
0
220
0
230
1
0
LINE
5
138
100
AcDbEntity
8
SK2
62
256
6
ByLayer
370
-1
48
1
60
0
100
AcDbLine
10
-42.75
20
25
30
0
11
-42.75
21
-25
31
0
39
0
210
0
220
0
230
1
0
LINE
5
139
100
AcDbEntity
8
SK2
62
256
6
ByLayer
370
-1
48
1
60
0
100
AcDbLine
10
-42.75
20
25
30
0
11
-42.332003
21
21.825002
31
0
39
0
210
0
220
0
230
1
0
LINE
5
13A
100
AcDbEntity
8
SK2
62
256
6
ByLayer
370
-1
48
1
60
0
100
AcDbLine
10
-42.75
20
25
30
0
11
-43.167997
21
21.824998
31
0
39
0
210
0
220
0
230
1
0
LINE
5
13B
100
AcDbEntity
8
SK2
62
256
6
ByLayer
370
-1
48
1
60
0
100
AcDbLine
10
-42.332003
20
21.825002
30
0
11
-43.167997
21
21.824998
31
0
39
0
210
0
220
0
230
1
0
LINE
5
13C
100
AcDbEntity
8
SK2
62
256
6
ByLayer
370
-1
48
1
60
0
100
AcDbLine
10
-42.75
20
-25
30
0
11
-43.167997
21
-21.825002
31
0
39
0
210
0
220
0
230
1
0
LINE
5
13D
100
AcDbEntity
8
SK2
62
256
6
ByLayer
370
-1
48
1
60
0
100
AcDbLine
10
-42.75
20
-25
30
0
11
-42.332003
21
-21.824998
31
0
39
0
210
0
220
0
230
1
0
LINE
5
13E
100
AcDbEntity
8
SK2
62
256
6
ByLayer
370
-1
48
1
60
0
100
AcDbLine
10
-43.167997
20
-21.825002
30
0
11
-42.332003
21
-21.824998
31
0
39
0
210
0
220
0
230
1
0
ENDBLK
5
140
100
AcDbEntity
8
0
100
AcDbBlockEnd
0
BLOCK
5
143
100
AcDbEntity
8
0
100
AcDbBlockBegin
2
_CLOSED
70
0
10
0
20
0
30
0
3
_CLOSED
0
LINE
5
145
100
AcDbEntity
8
0
62
256
6
ByLayer
370
-2
48
1
60
0
100
AcDbLine
10
-1
20
0.166667
30
0
11
0
21
0
31
0
39
0
210
0
220
0
230
1
0
LINE
5
146
100
AcDbEntity
8
0
62
256
6
ByLayer
370
-2
48
1
60
0
100
AcDbLine
10
0
20
0
30
0
11
-1
21
-0.166667
31
0
39
0
210
0
220
0
230
1
0
LINE
5
147
100
AcDbEntity
8
0
62
256
6
ByLayer
370
-2
48
1
60
0
100
AcDbLine
10
-1
20
0.166667
30
0
11
-1
21
-0.166667
31
0
39
0
210
0
220
0
230
1
0
LINE
5
148
100
AcDbEntity
8
0
62
256
6
ByLayer
370
-2
48
1
60
0
100
AcDbLine
10
0
20
0
30
0
11
-1
21
0
31
0
39
0
210
0
220
0
230
1
0
ENDBLK
5
144
100
AcDbEntity
8
0
100
AcDbBlockEnd
0
BLOCK
5
152
100
AcDbEntity
8
0
100
AcDbBlockBegin
2
DimnDraft3D2
70
0
10
0
20
0
30
0
3
DimnDraft3D2
0
MTEXT
5
14A
100
AcDbEntity
8
2
62
256
6
ByLayer
370
-1
48
1
60
0
100
AcDbMText
10
38.125
20
19.38
30
0
210
0
220
0
230
1
1
\W01.000;\fsimplex.shx,bigfont.shx;%%c16.0 
40
4.5
41
0
44
1.084337
50
90
71
7
72
5
7
DEFAULT
0
LINE
5
14B
100
AcDbEntity
8
2
62
256
6
ByLayer
370
-1
48
1
60
0
100
AcDbLine
10
39.25
20
-8
30
0
11
39.25
21
31.766842
31
0
39
0
210
0
220
0
230
1
0
LINE
5
14C
100
AcDbEntity
8
2
62
256
6
ByLayer
370
-1
48
1
60
0
100
AcDbLine
10
39.25
20
-8
30
0
11
38.832003
21
-4.825002
31
0
39
0
210
0
220
0
230
1
0
LINE
5
14D
100
AcDbEntity
8
2
62
256
6
ByLayer
370
-1
48
1
60
0
100
AcDbLine
10
39.25
20
-8
30
0
11
39.667997
21
-4.824998
31
0
39
0
210
0
220
0
230
1
0
LINE
5
14E
100
AcDbEntity
8
2
62
256
6
ByLayer
370
-1
48
1
60
0
100
AcDbLine
10
38.832003
20
-4.825002
30
0
11
39.667997
21
-4.824998
31
0
39
0
210
0
220
0
230
1
0
LINE
5
14F
100
AcDbEntity
8
2
62
256
6
ByLayer
370
-1
48
1
60
0
100
AcDbLine
10
39.25
20
8
30
0
11
39.667997
21
4.825002
31
0
39
0
210
0
220
0
230
1
0
LINE
5
150
100
AcDbEntity
8
2
62
256
6
ByLayer
370
-1
48
1
60
0
100
AcDbLine
10
39.25
20
8
30
0
11
38.832003
21
4.824998
31
0
39
0
210
0
220
0
230
1
0
LINE
5
151
100
AcDbEntity
8
2
62
256
6
ByLayer
370
-1
48
1
60
0
100
AcDbLine
10
39.667997
20
4.825002
30
0
11
38.832003
21
4.824998
31
0
39
0
210
0
220
0
230
1
0
ENDBLK
5
153
100
AcDbEntity
8
0
100
AcDbBlockEnd
0
BLOCK
5
160
100
AcDbEntity
8
0
100
AcDbBlockBegin
2
DimnDraft3D3
70
0
10
0
20
0
30
0
3
DimnDraft3D3
0
MTEXT
5
156
100
AcDbEntity
8
2
62
256
6
ByLayer
370
-1
48
1
60
0
100
AcDbMText
10
81.125
20
-28.106316
30
0
210
0
220
0
230
1
1
\W01.000;\fsimplex.shx,bigfont.shx;11.0 
40
4.5
41
0
44
1.084337
50
90
71
7
72
5
7
DEFAULT
0
LINE
5
157
100
AcDbEntity
8
2
62
256
6
ByLayer
370
-1
48
1
60
0
100
AcDbLine
10
72
20
0
30
0
11
84.25
21
0
31
0
39
0
210
0
220
0
230
1
0
LINE
5
158
100
AcDbEntity
8
2
62
256
6
ByLayer
370
-1
48
1
60
0
100
AcDbLine
10
72
20
-10.9
30
0
11
84.25
21
-10.9
31
0
39
0
210
0
220
0
230
1
0
LINE
5
159
100
AcDbEntity
8
2
62
256
6
ByLayer
370
-1
48
1
60
0
100
AcDbLine
10
82.25
20
0
30
0
11
82.25
21
-29.231316
31
0
39
0
210
0
220
0
230
1
0
LINE
5
15A
100
AcDbEntity
8
2
62
256
6
ByLayer
370
-1
48
1
60
0
100
AcDbLine
10
82.25
20
0
30
0
11
82.667997
21
-3.174998
31
0
39
0
210
0
220
0
230
1
0
LINE
5
15B
100
AcDbEntity
8
2
62
256
6
ByLayer
370
-1
48
1
60
0
100
AcDbLine
10
82.25
20
0
30
0
11
81.832003
21
-3.175002
31
0
39
0
210
0
220
0
230
1
0
LINE
5
15C
100
AcDbEntity
8
2
62
256
6
ByLayer
370
-1
48
1
60
0
100
AcDbLine
10
82.667997
20
-3.174998
30
0
11
81.832003
21
-3.175002
31
0
39
0
210
0
220
0
230
1
0
LINE
5
15D
100
AcDbEntity
8
2
62
256
6
ByLayer
370
-1
48
1
60
0
100
AcDbLine
10
82.25
20
-10.9
30
0
11
81.832003
21
-7.725002
31
0
39
0
210
0
220
0
230
1
0
LINE
5
15E
100
AcDbEntity
8
2
62
256
6
ByLayer
370
-1
48
1
60
0
100
AcDbLine
10
82.25
20
-10.9
30
0
11
82.667997
21
-7.724998
31
0
39
0
210
0
220
0
230
1
0
LINE
5
15F
100
AcDbEntity
8
2
62
256
6
ByLayer
370
-1
48
1
60
0
100
AcDbLine
10
81.832003
20
-7.725002
30
0
11
82.667997
21
-7.724998
31
0
39
0
210
0
220
0
230
1
0
ENDBLK
5
161
100
AcDbEntity
8
0
100
AcDbBlockEnd
0
BLOCK
5
16E
100
AcDbEntity
8
0
100
AcDbBlockBegin
2
DimnDraft3D4
70
0
10
0
20
0
30
0
3
DimnDraft3D4
0
MTEXT
5
164
100
AcDbEntity
8
2
62
256
6
ByLayer
370
-1
48
1
60
0
100
AcDbMText
10
91.561326
20
32.335899
30
0
210
0
220
0
230
1
1
\W01.000;\fsimplex.shx,bigfont.shx;95%%d0' 
40
4.5
41
0
44
1.084337
50
317.5
71
7
72
5
7
DEFAULT
0
LINE
5
165
100
AcDbEntity
8
2
62
256
6
ByLayer
370
-1
48
1
60
0
100
AcDbLine
10
69.041287
20
0.058142
30
0
11
65.566558
21
39.774475
31
0
39
0
210
0
220
0
230
1
0
LINE
5
166
100
AcDbEntity
8
2
62
256
6
ByLayer
370
-1
48
1
60
0
100
AcDbLine
10
72
20
0
30
0
11
108.97278
21
0
31
0
39
0
210
0
220
0
230
1
0
ARC
5
167
100
AcDbEntity
8
2
62
256
6
ByLayer
370
-1
48
1
60
0
100
AcDbCircle
39
0
10
69.046374
20
0
30
0
40
37.9264068640928
210
0
220
0
230
1
100
AcDbArc
50
0
51
95
0
LINE
5
168
100
AcDbEntity
8
2
62
256
6
ByLayer
370
-1
48
1
60
0
100
AcDbLine
10
65.740869
20
37.782085
30
0
11
68.881168
21
38.409669
31
0
39
0
210
0
220
0
230
1
0
LINE
5
169
100
AcDbEntity
8
2
62
256
6
ByLayer
370
-1
48
1
60
0
100
AcDbLine
10
65.740869
20
37.782085
30
0
11
68.936599
21
37.575515
31
0
39
0
210
0
220
0
230
1
0
LINE
5
16A
100
AcDbEntity
8
2
62
256
6
ByLayer
370
-1
48
1
60
0
100
AcDbLine
10
68.881168
20
38.409669
30
0
11
68.936599
21
37.575515
31
0
39
0
210
0
220
0
230
1
0
LINE
5
16B
100
AcDbEntity
8
2
62
256
6
ByLayer
370
-1
48
1
60
0
100
AcDbLine
10
106.97278
20
0
30
0
11
106.48847
21
3.165562
31
0
39
0
210
0
220
0
230
1
0
LINE
5
16C
100
AcDbEntity
8
2
62
256
6
ByLayer
370
-1
48
1
60
0
100
AcDbLine
10
106.97278
20
0
30
0
11
107.324281
21
3.183049
31
0
39
0
210
0
220
0
230
1
0
LINE
5
16D
100
AcDbEntity
8
2
62
256
6
ByLayer
370
-1
48
1
60
0
100
AcDbLine
10
106.48847
20
3.165562
30
0
11
107.324281
21
3.183049
31
0
39
0
210
0
220
0
230
1
0
ENDBLK
5
16F
100
AcDbEntity
8
0
100
AcDbBlockEnd
0
BLOCK
5
17C
100
AcDbEntity
8
0
100
AcDbBlockBegin
2
DimnDraft3D5
70
0
10
0
20
0
30
0
3
DimnDraft3D5
0
MTEXT
5
172
100
AcDbEntity
8
2
62
256
6
ByLayer
370
-1
48
1
60
0
100
AcDbMText
10
30.961842
20
-41.125
30
0
210
0
220
0
230
1
1
\W01.000;\fsimplex.shx,bigfont.shx;70.0 
40
4.5
41
0
44
1.084337
50
0
71
7
72
5
7
DEFAULT
0
LINE
5
173
100
AcDbEntity
8
2
62
256
6
ByLayer
370
-1
48
1
60
0
100
AcDbLine
10
0
20
-27
30
0
11
0
21
-44.25
31
0
39
0
210
0
220
0
230
1
0
LINE
5
174
100
AcDbEntity
8
2
62
256
6
ByLayer
370
-1
48
1
60
0
100
AcDbLine
10
70
20
-12.9
30
0
11
70
21
-44.25
31
0
39
0
210
0
220
0
230
1
0
LINE
5
175
100
AcDbEntity
8
2
62
256
6
ByLayer
370
-1
48
1
60
0
100
AcDbLine
10
0
20
-42.25
30
0
11
70
21
-42.25
31
0
39
0
210
0
220
0
230
1
0
LINE
5
176
100
AcDbEntity
8
2
62
256
6
ByLayer
370
-1
48
1
60
0
100
AcDbLine
10
0
20
-42.25
30
0
11
3.174998
21
-41.832003
31
0
39
0
210
0
220
0
230
1
0
LINE
5
177
100
AcDbEntity
8
2
62
256
6
ByLayer
370
-1
48
1
60
0
100
AcDbLine
10
0
20
-42.25
30
0
11
3.175002
21
-42.667997
31
0
39
0
210
0
220
0
230
1
0
LINE
5
178
100
AcDbEntity
8
2
62
256
6
ByLayer
370
-1
48
1
60
0
100
AcDbLine
10
3.174998
20
-41.832003
30
0
11
3.175002
21
-42.667997
31
0
39
0
210
0
220
0
230
1
0
LINE
5
179
100
AcDbEntity
8
2
62
256
6
ByLayer
370
-1
48
1
60
0
100
AcDbLine
10
70
20
-42.25
30
0
11
66.825002
21
-42.667997
31
0
39
0
210
0
220
0
230
1
0
LINE
5
17A
100
AcDbEntity
8
2
62
256
6
ByLayer
370
-1
48
1
60
0
100
AcDbLine
10
70
20
-42.25
30
0
11
66.824998
21
-41.832003
31
0
39
0
210
0
220
0
230
1
0
LINE
5
17B
100
AcDbEntity
8
2
62
256
6
ByLayer
370
-1
48
1
60
0
100
AcDbLine
10
66.825002
20
-42.667997
30
0
11
66.824998
21
-41.832003
31
0
39
0
210
0
220
0
230
1
0
ENDBLK
5
17D
100
AcDbEntity
8
0
100
AcDbBlockEnd
0
BLOCK
5
18A
100
AcDbEntity
8
0
100
AcDbBlockBegin
2
DimnDraft3D6
70
0
10
0
20
0
30
0
3
DimnDraft3D6
0
MTEXT
5
180
100
AcDbEntity
8
2
62
256
6
ByLayer
370
-1
48
1
60
0
100
AcDbMText
10
42.725
20
-27.025
30
0
210
0
220
0
230
1
1
\W01.000;\fsimplex.shx,bigfont.shx;46.0 
40
4.5
41
0
44
1.084337
50
0
71
7
72
5
7
DEFAULT
0
LINE
5
181
100
AcDbEntity
8
2
62
256
6
ByLayer
370
-1
48
1
60
0
100
AcDbLine
10
24
20
-10
30
0
11
24
21
-30.15
31
0
39
0
210
0
220
0
230
1
0
LINE
5
182
100
AcDbEntity
8
2
62
256
6
ByLayer
370
-1
48
1
60
0
100
AcDbLine
10
70
20
-12.9
30
0
11
70
21
-30.15
31
0
39
0
210
0
220
0
230
1
0
LINE
5
183
100
AcDbEntity
8
2
62
256
6
ByLayer
370
-1
48
1
60
0
100
AcDbLine
10
24
20
-28.15
30
0
11
70
21
-28.15
31
0
39
0
210
0
220
0
230
1
0
LINE
5
184
100
AcDbEntity
8
2
62
256
6
ByLayer
370
-1
48
1
60
0
100
AcDbLine
10
24
20
-28.15
30
0
11
27.174998
21
-27.732003
31
0
39
0
210
0
220
0
230
1
0
LINE
5
185
100
AcDbEntity
8
2
62
256
6
ByLayer
370
-1
48
1
60
0
100
AcDbLine
10
24
20
-28.15
30
0
11
27.175002
21
-28.567997
31
0
39
0
210
0
220
0
230
1
0
LINE
5
186
100
AcDbEntity
8
2
62
256
6
ByLayer
370
-1
48
1
60
0
100
AcDbLine
10
27.174998
20
-27.732003
30
0
11
27.175002
21
-28.567997
31
0
39
0
210
0
220
0
230
1
0
LINE
5
187
100
AcDbEntity
8
2
62
256
6
ByLayer
370
-1
48
1
60
0
100
AcDbLine
10
70
20
-28.15
30
0
11
66.825002
21
-28.567997
31
0
39
0
210
0
220
0
230
1
0
LINE
5
188
100
AcDbEntity
8
2
62
256
6
ByLayer
370
-1
48
1
60
0
100
AcDbLine
10
70
20
-28.15
30
0
11
66.824998
21
-27.732003
31
0
39
0
210
0
220
0
230
1
0
LINE
5
189
100
AcDbEntity
8
2
62
256
6
ByLayer
370
-1
48
1
60
0
100
AcDbLine
10
66.825002
20
-28.567997
30
0
11
66.824998
21
-27.732003
31
0
39
0
210
0
220
0
230
1
0
ENDBLK
5
18B
100
AcDbEntity
8
0
100
AcDbBlockEnd
0
ENDSEC
0
SECTION
2
ENTITIES
0
ARC
5
94
100
AcDbEntity
8
1
62
256
6
ByLayer
370
-1
48
1
60
0
100
AcDbCircle
39
0
10
-28.618414
20
-14
30
0
40
6
210
0
220
0
230
-1
100
AcDbArc
50
14.82648
51
90
0
ARC
5
95
100
AcDbEntity
8
1
62
256
6
ByLayer
370
-1
48
1
60
0
100
AcDbCircle
39
0
10
-28.618414
20
14
30
0
40
6
210
0
220
0
230
-1
100
AcDbArc
50
270
51
345.17352
0
ARC
5
96
100
AcDbEntity
8
SK1
62
256
6
ByLayer
370
-1
48
1
60
0
100
AcDbCircle
39
0
10
0.6
20
18.75
30
0
40
1
210
0
220
0
230
-1
100
AcDbArc
50
233.130102
51
246.421822
0
ARC
5
97
100
AcDbEntity
8
SK1
62
256
6
ByLayer
370
-1
48
1
60
0
100
AcDbCircle
39
0
10
0.6
20
-18.75
30
0
40
1
210
0
220
0
230
-1
100
AcDbArc
50
113.578178
51
126.869898
0
ELLIPSE
5
98
100
AcDbEntity
8
1
62
256
6
ByLayer
370
-1
48
1
60
0
100
AcDbEllipse
10
60.194518
20
-0.58423
30
0
11
-1.49429204713762
21
-0.130733614121486
31
0
210
0
220
0
230
1
40
0.989281
41
0.208084269403696
42
1.17058998737846
0
ELLIPSE
5
99
100
AcDbEntity
8
1
62
256
6
ByLayer
370
-1
48
1
60
0
100
AcDbEllipse
10
60.526389
20
-2.055649
30
0
11
-1.49429204713762
21
-0.130733614121486
31
0
210
0
220
0
230
1
40
0.989281
41
0.00436332312998646
42
1.01866014149074
0
ELLIPSE
5
9A
100
AcDbEntity
8
1
62
256
6
ByLayer
370
-1
48
1
60
0
100
AcDbEllipse
10
-1.056258
20
0
30
0
11
11.709272349728
21
24.6771864409383
31
0
210
0
220
0
230
-1
40
0.341999
41
0.167213071908973
42
1.08183270048925
0
ELLIPSE
5
9B
100
AcDbEntity
8
1
62
256
6
ByLayer
370
-1
48
1
60
0
100
AcDbEllipse
10
-1.056258
20
0
30
0
11
11.7092723497276
21
-24.6771864409378
31
0
210
0
220
0
230
-1
40
0.341999
41
-1.08183270048927
42
-0.167213071908978
0
ELLIPSE
5
9C
100
AcDbEntity
8
1
62
256
6
ByLayer
370
-1
48
1
60
0
100
AcDbEllipse
10
21.056258
20
0
30
0
11
11.7092723497262
21
-24.6771864409362
31
0
210
0
220
0
230
-1
40
0.341999
41
2.05975995310048
42
2.9743795816808
0
ELLIPSE
5
9D
100
AcDbEntity
8
1
62
256
6
ByLayer
370
-1
48
1
60
0
100
AcDbEllipse
10
21.056258
20
0
30
0
11
11.7092723497262
21
24.6771864409363
31
0
210
0
220
0
230
-1
40
0.341999
41
-2.97437958168081
42
-2.05975995310048
0
ELLIPSE
5
9E
100
AcDbEntity
8
1
62
256
6
ByLayer
370
-1
48
1
60
0
100
AcDbEllipse
10
60.532263
20
-2.135016
30
0
11
-1.49429204713762
21
-0.130733614121486
31
0
210
0
220
0
230
1
40
0.989281
41
-0.236828448521988
42
0.00436332312998975
0
ELLIPSE
5
9F
100
AcDbEntity
8
1
62
256
6
ByLayer
370
-1
48
1
60
0
100
AcDbEllipse
10
60.549445
20
-2.331416
30
0
11
1.64356934072491
21
0.143793685032241
31
0
210
0
220
0
230
1
40
0.989281
41
2.8107487832675
42
-3.13722933045981
0
ELLIPSE
5
A0
100
AcDbEntity
8
1
62
256
6
ByLayer
370
-1
48
1
60
0
100
AcDbEllipse
10
60.247972
20
-1.19522
30
0
11
1.49429204713762
21
0.130733614121518
31
0
210
0
220
0
230
1
40
0.989281
41
0.187947344650404
42
-2.7046491020733
0
ELLIPSE
5
A1
100
AcDbEntity
8
1
62
256
6
ByLayer
370
-1
48
1
60
0
100
AcDbEllipse
10
60.554388
20
-2.375683
30
0
11
-1.49429204713762
21
-0.130733614121486
31
0
210
0
220
0
230
1
40
0.989281
41
0.00436332312998766
42
1.01866014149074
0
ELLIPSE
5
A2
100
AcDbEntity
8
1
62
256
6
ByLayer
370
-1
48
1
60
0
100
AcDbEllipse
10
60.571571
20
-2.572083
30
0
11
1.64356934072491
21
0.143793685032241
31
0
210
0
220
0
230
1
40
0.989281
41
-3.13722933045977
42
-2.0678765197387
0
ELLIPSE
5
A3
100
AcDbEntity
8
1
62
256
6
ByLayer
370
-1
48
1
60
0
100
AcDbEllipse
10
60.20279
20
-0.678786
30
0
11
1.49429204713762
21
0.130733614121518
31
0
210
0
220
0
230
1
40
0.989281
41
-2.5641969112607
42
-1.97097642485137
0
ELLIPSE
5
A4
100
AcDbEntity
8
1
62
256
6
ByLayer
370
-1
48
1
60
0
100
AcDbEllipse
10
60.433151
20
-0.906712
30
0
11
-0.30537879582624
21
-0.0267171827159935
31
0
210
0
220
0
230
1
40
0.989281
41
-1.74532925199421
42
-0.98237494903363
0
ELLIPSE
5
A5
100
AcDbEntity
8
1
62
256
6
ByLayer
370
-1
48
1
60
0
100
AcDbEllipse
10
60.483678
20
-1.48423
30
0
11
0.79097859028484
21
0.0692016597416566
31
0
210
0
220
0
230
1
40
0.989281
41
1.39626340159543
42
-3.14159265358977
0
ELLIPSE
5
A6
100
AcDbEntity
8
1
62
256
6
ByLayer
370
-1
48
1
60
0
100
AcDbEllipse
10
64.832979
20
-5.663536
30
0
11
2.99461313765098
21
0.261994701190321
31
0
210
0
220
0
230
1
40
0.989281
41
3.05338536120872
42
-2.98664805862599E-16
0
ELLIPSE
5
A7
100
AcDbEntity
8
1
62
256
6
ByLayer
370
-1
48
1
60
0
100
AcDbEllipse
10
64.832979
20
-5.663536
30
0
11
2.99461313765098
21
0.261994701190321
31
0
210
0
220
0
230
1
40
0.989281
41
0
42
0.473352508905944
0
ELLIPSE
5
A8
100
AcDbEntity
8
1
62
256
6
ByLayer
370
-1
48
1
60
0
100
AcDbEllipse
10
64.832979
20
-5.663536
30
0
11
2.99461313765098
21
0.261994701190321
31
0
210
0
220
0
230
1
40
0.989281
41
2.66804962809407
42
3.05338569744706
0
ELLIPSE
5
A9
100
AcDbEntity
8
1
62
256
6
ByLayer
370
-1
48
1
60
0
100
AcDbEllipse
10
61.178575
20
-9.42694
30
0
11
0.790978590284822
21
0.069201659741655
31
0
210
0
220
0
230
1
40
0.989281
41
-3.14159265358977
42
-1.7453292519943
0
ELLIPSE
5
AA
100
AcDbEntity
8
1
62
256
6
ByLayer
370
-1
48
1
60
0
100
AcDbEllipse
10
64.831018
20
-5.641132
30
0
11
-2.93926815525667
21
-0.257152642647711
31
0
210
0
220
0
230
1
40
0.989281
41
-0.834433443003427
42
-3.04288518143735E-16
0
ELLIPSE
5
AB
100
AcDbEntity
8
1
62
256
6
ByLayer
370
-1
48
1
60
0
100
AcDbEllipse
10
64.831018
20
-5.641132
30
0
11
-2.93926815525667
21
-0.257152642647711
31
0
210
0
220
0
230
1
40
0.989281
41
0
42
3.05338535138407
0
ELLIPSE
5
AC
100
AcDbEntity
8
1
62
256
6
ByLayer
370
-1
48
1
60
0
100
AcDbEllipse
10
64.831018
20
-5.641132
30
0
11
-2.93926815525667
21
-0.257152642647711
31
0
210
0
220
0
230
1
40
0.989281
41
3.05338554875765
42
-2.30705506906366
0
ELLIPSE
5
AD
100
AcDbEntity
8
1
62
256
6
ByLayer
370
-1
48
1
60
0
100
AcDbEllipse
10
69.20604
20
-10.114422
30
0
11
0.790978590284812
21
0.0692016597416541
31
0
210
0
220
0
230
1
40
0.989281
41
-1.74532925199431
42
-9.04586356571873E-15
0
ELLIPSE
5
AE
100
AcDbEntity
8
1
62
256
6
ByLayer
370
-1
48
1
60
0
100
AcDbEllipse
10
68.511142
20
-2.171712
30
0
11
0.790978590284833
21
0.069201659741656
31
0
210
0
220
0
230
1
40
0.989281
41
0
42
1.39626340159547
0
ELLIPSE
5
AF
100
AcDbEntity
8
1
62
256
6
ByLayer
370
-1
48
1
60
0
100
AcDbEllipse
10
64.844859
20
-5.799326
30
0
11
3.05963802797407
21
0.267683641940609
31
0
210
0
220
0
230
1
40
0.989281
41
0
42
6.28318530717959
0
ELLIPSE
5
B0
100
AcDbEntity
8
1
62
256
6
ByLayer
370
-1
48
1
60
0
100
AcDbEllipse
10
64.842782
20
-5.775593
30
0
11
1.67012041135081
21
0.146116602716483
31
0
210
0
220
0
230
1
40
0.989281
41
1.22452102407736
42
2.26892802759261
0
ELLIPSE
5
B1
100
AcDbEntity
8
1
62
256
6
ByLayer
370
-1
48
1
60
0
100
AcDbEllipse
10
64.839277
20
-5.735525
30
0
11
2.61501108249082
21
0.228783824712656
31
0
210
0
220
0
230
1
40
0.989281
41
0
42
6.28318530717959
0
ELLIPSE
5
B2
100
AcDbEntity
8
1
62
256
6
ByLayer
370
-1
48
1
60
0
100
AcDbEllipse
10
63.49093
20
-6.887947
30
0
11
-0.683389562890938
21
-0.0597888395248928
31
0
210
0
220
0
230
1
40
0.989281
41
-2.32184691157498
42
-1.65219961787083
0
ELLIPSE
5
B3
100
AcDbEntity
8
1
62
256
6
ByLayer
370
-1
48
1
60
0
100
AcDbEllipse
10
65.802645
20
-6.535962
30
0
11
-0.29088885184279
21
-0.0254494768823159
31
0
210
0
220
0
230
1
40
0.989281
41
0.962733882214188
42
2.80610206025288
0
ELLIPSE
5
B4
100
AcDbEntity
8
1
62
256
6
ByLayer
370
-1
48
1
60
0
100
AcDbEllipse
10
63.49093
20
-6.887947
30
0
11
-0.683389562890938
21
-0.0597888395248928
31
0
210
0
220
0
230
1
40
0.989281
41
-3.14158952269328
42
-2.56507499400913
0
ELLIPSE
5
B5
100
AcDbEntity
8
1
62
256
6
ByLayer
370
-1
48
1
60
0
100
AcDbEllipse
10
64.824646
20
-5.568298
30
0
11
-1.20190890324769
21
-0.105153403625049
31
0
210
0
220
0
230
1
40
0.989281
41
-1.070563357228
42
-0.440247787840733
0
ELLIPSE
5
B6
100
AcDbEntity
8
1
62
256
6
ByLayer
370
-1
48
1
60
0
100
AcDbEllipse
10
64.839329
20
-5.736119
30
0
11
1.20190890324769
21
0.105153403625074
31
0
210
0
220
0
230
1
40
0.989281
41
-2.51249358620405
42
-2.37442831938006
0
ELLIPSE
5
B7
100
AcDbEntity
8
1
62
256
6
ByLayer
370
-1
48
1
60
0
100
AcDbEllipse
10
64.842782
20
-5.775593
30
0
11
1.67012041135081
21
0.146116602716483
31
0
210
0
220
0
230
1
40
0.989281
41
-2.96985027607169
42
-1.91707162951241
0
ELLIPSE
5
B8
100
AcDbEntity
8
1
62
256
6
ByLayer
370
-1
48
1
60
0
100
AcDbEllipse
10
64.842782
20
-5.775593
30
0
11
1.67012041135081
21
0.146116602716483
31
0
210
0
220
0
230
1
40
0.989281
41
2.26892802759261
42
-2.96985027607169
0
ELLIPSE
5
B9
100
AcDbEntity
8
1
62
256
6
ByLayer
370
-1
48
1
60
0
100
AcDbEllipse
10
64.839329
20
-5.736119
30
0
11
1.20190890324769
21
0.105153403625074
31
0
210
0
220
0
230
1
40
0.989281
41
0.629099067385837
42
0.7671643342096
0
ELLIPSE
5
BA
100
AcDbEntity
8
1
62
256
6
ByLayer
370
-1
48
1
60
0
100
AcDbEllipse
10
64.824964
20
-5.571935
30
0
11
2.61501108249082
21
0.228783824712656
31
0
210
0
220
0
230
1
40
0.989281
41
3.05338566977189
42
-3.14154060043686
0
ELLIPSE
5
BB
100
AcDbEntity
8
1
62
256
6
ByLayer
370
-1
48
1
60
0
100
AcDbEllipse
10
64.824964
20
-5.571935
30
0
11
2.61501108249082
21
0.228783824712656
31
0
210
0
220
0
230
1
40
0.989281
41
0
42
3.05338553511742
0
ELLIPSE
5
BC
100
AcDbEntity
8
1
62
256
6
ByLayer
370
-1
48
1
60
0
100
AcDbEllipse
10
65.315271
20
-7.37573
30
0
11
-0.683389562890938
21
-0.0597888395248928
31
0
210
0
220
0
230
1
40
0.989281
41
-2.17885877137557
42
-1.3948681277548
0
ELLIPSE
5
BD
100
AcDbEntity
8
1
62
256
6
ByLayer
370
-1
48
1
60
0
100
AcDbEllipse
10
66.651369
20
-6.053725
30
0
11
-0.683389562890938
21
-0.0597888395248928
31
0
210
0
220
0
230
1
40
0.989281
41
-1.13445176786032
42
-0.35046112423954
0
ELLIPSE
5
BE
100
AcDbEntity
8
1
62
256
6
ByLayer
370
-1
48
1
60
0
100
AcDbEllipse
10
64.824646
20
-5.568298
30
0
11
-1.20190890324769
21
-0.105153403625049
31
0
210
0
220
0
230
1
40
0.989281
41
0.767164334209736
42
1.74672452583503
0
ELLIPSE
5
BF
100
AcDbEntity
8
1
62
256
6
ByLayer
370
-1
48
1
60
0
100
AcDbEllipse
10
64.824646
20
-5.568298
30
0
11
-1.20190890324769
21
-0.105153403625049
31
0
210
0
220
0
230
1
40
0.989281
41
-0.107989567642857
42
0.629099067385741
0
ELLIPSE
5
C0
100
AcDbEntity
8
1
62
256
6
ByLayer
370
-1
48
1
60
0
100
AcDbEllipse
10
63.486106
20
-5.920373
30
0
11
-0.29088885184279
21
-0.0254494768823159
31
0
210
0
220
0
230
1
40
0.989281
41
0.366303743175209
42
1.48939303571903
0
ELLIPSE
5
C1
100
AcDbEntity
8
1
62
256
6
ByLayer
370
-1
48
1
60
0
100
AcDbEllipse
10
66.163186
20
-5.216223
30
0
11
-0.29088885184279
21
-0.0254494768823159
31
0
210
0
220
0
230
1
40
0.989281
41
2.00714088572942
42
2.61808512793952
0
ELLIPSE
5
C2
100
AcDbEntity
8
1
62
256
6
ByLayer
370
-1
48
1
60
0
100
AcDbEllipse
10
64.468828
20
-6.89271
30
0
11
-0.29088885184279
21
-0.0254494768823159
31
0
210
0
220
0
230
1
40
0.989281
41
0.433236852286494
42
2.53071516945583
0
ELLIPSE
5
C3
100
AcDbEntity
8
1
62
256
6
ByLayer
370
-1
48
1
60
0
100
AcDbEllipse
10
64.824646
20
-5.568298
30
0
11
-1.20190890324769
21
-0.105153403625049
31
0
210
0
220
0
230
1
40
0.989281
41
-2.27110003695552
42
-1.67817563093156
0
ELLIPSE
5
C4
100
AcDbEntity
8
1
62
256
6
ByLayer
370
-1
48
1
60
0
100
AcDbEllipse
10
64.824646
20
-5.568298
30
0
11
1.20190890324769
21
0.105153403625075
31
0
210
0
220
0
230
1
40
0.989281
41
-1.39486812775477
42
-0.350461124239534
0
ELLIPSE
5
C5
100
AcDbEntity
8
1
62
256
6
ByLayer
370
-1
48
1
60
0
100
AcDbEllipse
10
65.315271
20
-7.37573
30
0
11
-0.683389562890938
21
-0.0597888395248928
31
0
210
0
220
0
230
1
40
0.989281
41
-1.3948681277548
42
-0.610877484133987
0
ELLIPSE
5
C6
100
AcDbEntity
8
1
62
256
6
ByLayer
370
-1
48
1
60
0
100
AcDbEllipse
10
64.824646
20
-5.568298
30
0
11
-1.20190890324769
21
-0.105153403625049
31
0
210
0
220
0
230
1
40
0.989281
41
2.79113152935026
42
-2.74650124504817
0
ELLIPSE
5
C7
100
AcDbEntity
8
1
62
256
6
ByLayer
370
-1
48
1
60
0
100
AcDbEllipse
10
64.842782
20
-5.775593
30
0
11
1.67012041135081
21
0.146116602716483
31
0
210
0
220
0
230
1
40
0.989281
41
0.171742377518092
42
1.22452102407736
0
ELLIPSE
5
C8
100
AcDbEntity
8
1
62
256
6
ByLayer
370
-1
48
1
60
0
100
AcDbEllipse
10
64.824646
20
-5.568298
30
0
11
1.20190890324769
21
0.105153403625075
31
0
210
0
220
0
230
1
40
0.989281
41
-2.51249358620405
42
-2.37442831938005
0
ELLIPSE
5
C9
100
AcDbEntity
8
1
62
256
6
ByLayer
370
-1
48
1
60
0
100
AcDbEllipse
10
64.842782
20
-5.775593
30
0
11
1.67012041135081
21
0.146116602716483
31
0
210
0
220
0
230
1
40
0.989281
41
-0.872664625997155
42
0.171742377518092
0
ELLIPSE
5
CA
100
AcDbEntity
8
1
62
256
6
ByLayer
370
-1
48
1
60
0
100
AcDbEllipse
10
62.997924
20
-5.082871
30
0
11
-0.683389562890938
21
-0.0597888395248928
31
0
210
0
220
0
230
1
40
0.989281
41
-3.14158586061494
42
-2.70806313420856
0
ELLIPSE
5
CB
100
AcDbEntity
8
1
62
256
6
ByLayer
370
-1
48
1
60
0
100
AcDbEllipse
10
66.651369
20
-6.053725
30
0
11
-0.683389562890938
21
-0.0597888395248928
31
0
210
0
220
0
230
1
40
0.989281
41
-0.35046112423954
42
7.78808958807625E-06
0
ELLIPSE
5
CC
100
AcDbEntity
8
1
62
256
6
ByLayer
370
-1
48
1
60
0
100
AcDbEllipse
10
64.842782
20
-5.775593
30
0
11
1.67012041135081
21
0.146116602716483
31
0
210
0
220
0
230
1
40
0.989281
41
-1.91707162951241
42
-0.872664625997155
0
ELLIPSE
5
CD
100
AcDbEntity
8
1
62
256
6
ByLayer
370
-1
48
1
60
0
100
AcDbEllipse
10
64.842782
20
-5.775593
30
0
11
1.79315045656513
21
0.156880336945821
31
0
210
0
220
0
230
1
40
0.989281
41
0
42
6.28318530717959
0
POINT
5
41
100
AcDbEntity
8
80
62
256
6
ByLayer
370
-1
48
1
60
0
100
AcDbPoint
10
0
20
0
30
0
39
0
210
0
220
0
230
1
50
360
0
POINT
5
43
100
AcDbEntity
8
81
62
256
6
ByLayer
370
-1
48
1
60
0
100
AcDbPoint
10
70
20
-10.9
30
0
39
0
210
0
220
0
230
1
50
360
0
POINT
5
45
100
AcDbEntity
8
1
62
256
6
ByLayer
370
-1
48
1
60
0
100
AcDbPoint
10
0
20
0
30
0
39
0
210
0
220
0
230
1
50
360
0
POINT
5
47
100
AcDbEntity
8
2
62
256
6
ByLayer
370
-1
48
1
60
0
100
AcDbPoint
10
70
20
10.9
30
0
39
0
210
0
220
0
230
1
50
360
0
SPLINE
5
CE
100
AcDbEntity
8
SK1
62
256
6
ByLayer
370
-1
48
1
60
0
100
AcDbSpline
70
4
71
2
72
6
73
3
40
0
40
0
40
0
40
1
40
1
40
1
41
1
10
-2.19492113517947
20
17.5202263833491
30
0
41
1
10
-2.59746056758974
20
17.5101131916847
30
0
41
1
10
-3
20
17.5000000000204
30
0
0
SPLINE
5
CF
100
AcDbEntity
8
SK1
62
256
6
ByLayer
370
-1
48
1
60
0
100
AcDbSpline
70
4
71
2
72
6
73
3
40
0
40
0
40
0
40
1
40
1
40
1
41
1
10
-3
20
-17.5000000000527
30
0
41
1
10
-2.59746056758974
20
-17.510113191717
30
0
41
1
10
-2.19492113517947
20
-17.5202263833814
30
0
0
SPLINE
5
D0
100
AcDbEntity
8
SK1
62
256
6
ByLayer
370
-1
48
1
60
0
100
AcDbSpline
70
4
71
2
72
6
73
3
40
0
40
0
40
0
40
1
40
1
40
1
41
1
10
-3
20
17.5000000000204
30
0
41
1
10
-15.7502365839533
20
17.1796696771814
30
0
41
1
10
-28.5004731679065
20
16.8593393543424
30
0
0
SPLINE
5
D1
100
AcDbEntity
8
SK1
62
256
6
ByLayer
370
-1
48
1
60
0
100
AcDbSpline
70
4
71
2
72
6
73
3
40
0
40
0
40
0
40
1
40
1
40
1
41
1
10
-28.5004731679065
20
-16.8593393543735
30
0
41
1
10
-15.7502365839533
20
-17.1796696772131
30
0
41
1
10
-3
20
-17.5000000000527
30
0
0
SPLINE
5
D2
100
AcDbEntity
8
SK1
62
256
6
ByLayer
370
-1
48
1
60
0
100
AcDbSpline
70
4
71
2
72
6
73
3
40
0
40
0
40
0
40
1
40
1
40
1
41
1
10
-30
20
-15.9423013487186
30
0
41
1
10
-29.2501952787077
20
-16.4010253845871
30
0
41
1
10
-28.5003904504266
20
-16.8597456617469
30
0
0
SPLINE
5
D3
100
AcDbEntity
8
SK1
62
256
6
ByLayer
370
-1
48
1
60
0
100
AcDbSpline
70
4
71
2
72
6
73
3
40
0
40
0
40
0
40
1
40
1
40
1
41
1
10
-28.5004032853135
20
16.8579102610954
30
0
41
1
10
-29.250201613525
20
16.3993636736336
30
0
41
1
10
-30
20
15.9408160639395
30
0
0
SPLINE
5
D4
100
AcDbEntity
8
SK1
62
256
6
ByLayer
370
-1
48
1
60
0
100
AcDbSpline
70
4
71
2
72
6
73
3
40
0
40
0
40
0
40
1
40
1
40
1
41
1
10
-0.400000000000034
20
17.3251501414068
30
0
41
1
10
-1.19999999999999
20
17.3251501414068
30
0
41
1
10
-2
20
17.3251501414068
30
0
0
SPLINE
5
D5
100
AcDbEntity
8
SK1
62
256
6
ByLayer
370
-1
48
1
60
0
100
AcDbSpline
70
4
71
2
72
6
73
3
40
0
40
0
40
0
40
1
40
1
40
1
41
1
10
-2
20
-17.3251501409626
30
0
41
1
10
-1.19999999999999
20
-17.3251501409626
30
0
41
1
10
-0.400000000000034
20
-17.3251501409626
30
0
0
SPLINE
5
D6
100
AcDbEntity
8
SK1
62
256
6
ByLayer
370
-1
48
1
60
0
100
AcDbSpline
70
4
71
3
72
11
73
7
40
0
40
0
40
0
40
0
40
0.243046129741601
40
0.498205801788989
40
0.754244992255907
40
1
40
1
40
1
40
1
41
1
10
-0.400000000000034
20
-17.3241476526065
30
0
41
1
10
-0.373991067023667
20
-17.3239685556465
30
0
41
1
10
-0.324420736760771
20
-17.33275982811
30
0
41
1
10
-0.254178184246655
20
-17.3766360753193
30
0
41
1
10
-0.20935024226452
20
-17.445622853432
30
0
41
1
10
-0.199994647676419
20
-17.493844966999
30
0
41
1
10
-0.199999999999989
20
-17.5191731511753
30
0
0
SPLINE
5
D7
100
AcDbEntity
8
SK1
62
256
6
ByLayer
370
-1
48
1
60
0
100
AcDbSpline
70
4
71
3
72
11
73
7
40
0
40
0
40
0
40
0
40
0.245757530295202
40
0.501795331807361
40
0.756953049144814
40
1
40
1
40
1
40
1
41
1
10
-0.199999999999989
20
17.5191688355708
30
0
41
1
10
-0.199994500672233
20
17.4938412312526
30
0
41
1
10
-0.209350044376038
20
17.4456203921356
30
0
41
1
10
-0.254178044541106
20
17.3766339294131
30
0
41
1
10
-0.324421202647557
20
17.332758304075
30
0
41
1
10
-0.373991174653781
20
17.323967489369
30
0
41
1
10
-0.400000000000034
20
17.3241468641747
30
0
0
SPLINE
5
D8
100
AcDbEntity
8
1
62
256
6
ByLayer
370
-1
48
1
60
0
100
AcDbSpline
70
4
71
3
72
30
73
26
40
-0.124999999999998
40
-0.124999999999998
40
0
40
0
40
0.125000000000001
40
0.125000000000001
40
0.187500000000002
40
0.187500000000002
40
0.250000000000002
40
0.250000000000002
40
0.375000000000002
40
0.375000000000002
40
0.500000000000003
40
0.500000000000003
40
0.625000000000003
40
0.625000000000003
40
0.687500000000004
40
0.687500000000004
40
0.718750000000004
40
0.718750000000004
40
0.750000000000004
40
0.750000000000004
40
0.812500000000003
40
0.812500000000003
40
0.875000000000002
40
0.875000000000002
40
1
40
1
40
1.125
40
1.125
41
1
10
53.3473090601268
20
-1.18987547955379
30
0
41
1
10
52.3512338392389
20
-0.863439241990648
30
0
41
1
10
51.8419390273269
20
-0.792785819874211
30
0
41
1
10
51.1041890445686
20
-1.03467603239716
30
0
41
1
10
50.8634543325725
20
-1.18059169783891
30
0
41
1
10
50.4788074330518
20
-1.62574967763459
30
0
41
1
10
50.3425382526554
20
-1.92958514275324
30
0
41
1
10
50.2447029618169
20
-2.81649239072624
30
0
41
1
10
50.5612879362508
20
-3.25417851837349
30
0
41
1
10
51.3718358298923
20
-3.75406009392802
30
0
41
1
10
51.8804053874225
20
-3.86478397354091
30
0
41
1
10
52.950257488622
20
-3.95845962224067
30
0
41
1
10
53.5274935577858
20
-3.94259347607206
30
0
41
1
10
54.3958021033686
20
-3.8217161804713
30
0
41
1
10
54.6924467248817
20
-3.76804034907158
30
0
41
1
10
55.1207323479482
20
-3.60807756688888
30
0
41
1
10
55.2657683304461
20
-3.54162255243096
30
0
41
1
10
55.4824294681593
20
-3.31933685483054
30
0
41
1
10
55.513850826633
20
-3.1492795451546
30
0
41
1
10
55.3834670434986
20
-2.71901135355736
30
0
41
1
10
55.1624126578855
20
-2.50211246569191
30
0
41
1
10
54.741771886039
20
-2.10342686055395
30
0
41
1
10
54.5184397355057
20
-1.9286093138449
30
0
41
1
10
53.8317378294724
20
-1.450106109671
30
0
41
1
10
53.3473090601268
20
-1.18987547955379
30
0
41
1
10
52.3512338392389
20
-0.863439241990648
30
0
0
SPLINE
5
D9
100
AcDbEntity
8
1
62
256
6
ByLayer
370
-1
48
1
60
0
100
AcDbSpline
70
4
71
3
72
8
73
4
40
0
40
0
40
0
40
0
40
1
40
1
40
1
40
1
41
1
10
54.949283608858
20
7.14168391872943
30
0
41
1
10
54.8664359092729
20
7.11995649668137
30
0
41
1
10
54.7841569408208
20
7.09742686457025
30
0
41
1
10
54.7024428670086
20
7.0740544633382
30
0
0
SPLINE
5
DA
100
AcDbEntity
8
1
62
256
6
ByLayer
370
-1
48
1
60
0
100
AcDbSpline
70
4
71
3
72
18
73
14
40
0
40
0
40
0
40
0
40
0.0809805960320615
40
0.0809805960320615
40
0.544227292213941
40
0.544227292213941
40
0.699318265621571
40
0.699318265621571
40
0.856346274356429
40
0.856346274356429
40
0.966571999538782
40
0.966571999538782
40
1
40
1
40
1
40
1
41
1
10
11.8943375672974
20
8.05584836782771
30
0
41
1
10
11.8893471011257
20
8.03731605051115
30
0
41
1
10
11.8840209914239
20
8.01885383673363
30
0
41
1
10
11.845998279105
20
7.89611164850155
30
0
41
1
10
11.8022255638175
20
7.79219397274093
30
0
41
1
10
11.7151274219928
20
7.67169814060131
30
0
41
1
10
11.6903249195398
20
7.64266520230271
30
0
41
1
10
11.6339533178058
20
7.59122859579532
30
0
41
1
10
11.6016224931834
20
7.56839473241365
30
0
41
1
10
11.5411042357638
20
7.54154007085771
30
0
41
1
10
11.5139568123411
20
7.53384342094336
30
0
41
1
10
11.4781693033538
20
7.53010833377257
30
0
41
1
10
11.4697409388397
20
7.52966679426501
30
0
41
1
10
11.4613248654052
20
7.52966679426501
30
0
0
SPLINE
5
DB
100
AcDbEntity
8
1
62
256
6
ByLayer
370
-1
48
1
60
0
100
AcDbSpline
70
4
71
3
72
8
73
4
40
0
40
0
40
0
40
0
40
1
40
1
40
1
40
1
41
1
10
58.9487998097183
20
-1.93923524921004
30
0
41
1
10
58.9789895457868
20
-1.93533471995301
30
0
41
1
10
59.0127339838693
20
-1.92728819784654
30
0
41
1
10
59.0493368422538
20
-1.91526693754432
30
0
0
SPLINE
5
DC
100
AcDbEntity
8
1
62
256
6
ByLayer
370
-1
48
1
60
0
100
AcDbSpline
70
4
71
3
72
16
73
12
40
0
40
0
40
0
40
0
40
0.0773436766578803
40
0.0773436766578803
40
0.181588290672623
40
0.181588290672623
40
0.353924998170025
40
0.353924998170025
40
0.659870482236126
40
0.659870482236126
40
1
40
1
40
1
40
1
41
1
10
11.4613248654052
20
-7.52966679426498
30
0
41
1
10
11.4806912734381
20
-7.52966679426498
30
0
41
1
10
11.5001920479834
20
-7.53205286469702
30
0
41
1
10
11.5443643455559
20
-7.54265601007381
30
0
41
1
10
11.5688999660418
20
-7.55272636772358
30
0
41
1
10
11.6286300521075
20
-7.58609718460602
30
0
41
1
10
11.66158714279
20
-7.61407037421822
30
0
41
1
10
11.7407360052433
20
-7.69895209889256
30
0
41
1
10
11.7798892743244
20
-7.76300791758413
30
0
41
1
10
11.8468244213921
20
-7.90167589305847
30
0
41
1
10
11.8734747805012
20
-7.97837348437852
30
0
41
1
10
11.8943375672974
20
-8.05584836782771
30
0
0
SPLINE
5
DD
100
AcDbEntity
8
1
62
256
6
ByLayer
370
-1
48
1
60
0
100
AcDbSpline
70
4
71
3
72
8
73
4
40
0
40
0
40
0
40
0
40
1
40
1
40
1
40
1
41
1
10
54.5299071540334
20
-7.99268138871099
30
0
41
1
10
55.0386438656521
20
-8.29280779998493
30
0
41
1
10
55.5610344701133
20
-8.59490009145583
30
0
41
1
10
56.0854248203805
20
-8.89794387185788
30
0
0
SPLINE
5
DE
100
AcDbEntity
8
1
62
256
6
ByLayer
370
-1
48
1
60
0
100
AcDbSpline
70
4
71
3
72
8
73
4
40
0
40
0
40
0
40
0
40
1
40
1
40
1
40
1
41
1
10
54.5299071540334
20
7.29046504560384
30
0
41
1
10
54.5851055149259
20
7.27088246236454
30
0
41
1
10
54.6426648699524
20
7.25046227519263
30
0
41
1
10
54.702347147504
20
7.22928894415224
30
0
0
SPLINE
5
DF
100
AcDbEntity
8
1
62
256
6
ByLayer
370
-1
48
1
60
0
100
AcDbSpline
70
4
71
3
72
16
73
12
40
0
40
0
40
0
40
0
40
0.0773436766578767
40
0.0773436766578767
40
0.181588290672618
40
0.181588290672618
40
0.353924998170011
40
0.353924998170011
40
0.659870482236094
40
0.659870482236094
40
1
40
1
40
1
40
1
41
1
10
11.4613248654052
20
23.8391299750503
30
0
41
1
10
11.4806912734381
20
23.8391299750503
30
0
41
1
10
11.5001920479834
20
23.8383766644784
30
0
41
1
10
11.5443643455559
20
23.8350242537625
30
0
41
1
10
11.5688999660418
20
23.8318379431383
30
0
41
1
10
11.6286300521075
20
23.8212426939765
30
0
41
1
10
11.66158714279
20
23.812328084785
30
0
41
1
10
11.7407360052433
20
23.7850663392819
30
0
41
1
10
11.7798892743244
20
23.7642694363116
30
0
41
1
10
11.8468244213921
20
23.7185457490814
30
0
41
1
10
11.8734747805012
20
23.692873493267
30
0
41
1
10
11.8943375672974
20
23.6665017920809
30
0
0
SPLINE
5
E0
100
AcDbEntity
8
1
62
256
6
ByLayer
370
-1
48
1
60
0
100
AcDbSpline
70
4
71
3
72
18
73
14
40
0
40
0
40
0
40
0
40
0.0809805960320801
40
0.0809805960320801
40
0.544227292214068
40
0.544227292214068
40
0.699318265621658
40
0.699318265621658
40
0.856346274356475
40
0.856346274356475
40
0.966571999538822
40
0.966571999538822
40
1
40
1
40
1
40
1
41
1
10
8.10566243270262
20
23.6665017920809
30
0
41
1
10
8.11065289887432
20
23.672810013698
30
0
41
1
10
8.11597900857612
20
23.6790700603507
30
0
41
1
10
8.15400172089505
20
23.7205303134149
30
0
41
1
10
8.1977744361825
20
23.7548029562659
30
0
41
1
10
8.28487257800725
20
23.7938243006291
30
0
41
1
10
8.30967508046024
20
23.8031592998669
30
0
41
1
10
8.36604668219428
20
23.8196134016841
30
0
41
1
10
8.3983775068167
20
23.8268687494612
30
0
41
1
10
8.45889576423616
20
23.8353793525422
30
0
41
1
10
8.48604318765894
20
23.8378105604685
30
0
41
1
10
8.52183069664625
20
23.8389905264494
30
0
41
1
10
8.53025906116034
20
23.8391299750503
30
0
41
1
10
8.53867513459483
20
23.8391299750503
30
0
0
SPLINE
5
E1
100
AcDbEntity
8
1
62
256
6
ByLayer
370
-1
48
1
60
0
100
AcDbSpline
70
4
71
3
72
16
73
12
40
0
40
0
40
0
40
0
40
0.077343676657827
40
0.077343676657827
40
0.181588290672556
40
0.181588290672556
40
0.353924998169922
40
0.353924998169922
40
0.659870482235914
40
0.659870482235914
40
1
40
1
40
1
40
1
41
1
10
8.53867513459483
20
-23.8391299750503
30
0
41
1
10
8.51930872656192
20
-23.8391299750503
30
0
41
1
10
8.49980795201657
20
-23.8383766644784
30
0
41
1
10
8.45563565444411
20
-23.8350242537625
30
0
41
1
10
8.43110003395827
20
-23.8318379431383
30
0
41
1
10
8.37136994789256
20
-23.8212426939765
30
0
41
1
10
8.33841285720996
20
-23.812328084785
30
0
41
1
10
8.25926399475679
20
-23.7850663392819
30
0
41
1
10
8.22011072567562
20
-23.7642694363116
30
0
41
1
10
8.15317557860794
20
-23.7185457490814
30
0
41
1
10
8.12652521949877
20
-23.692873493267
30
0
41
1
10
8.10566243270262
20
-23.6665017920809
30
0
0
SPLINE
5
E2
100
AcDbEntity
8
1
62
256
6
ByLayer
370
-1
48
1
60
0
100
AcDbSpline
70
4
71
3
72
16
73
12
40
0
40
0
40
0
40
0
40
0.0773436766578125
40
0.0773436766578125
40
0.181588290672542
40
0.181588290672542
40
0.353924998169895
40
0.353924998169895
40
0.659870482235859
40
0.659870482235859
40
1
40
1
40
1
40
1
41
1
10
8.53867513459483
20
7.52966679426501
30
0
41
1
10
8.51930872656197
20
7.52966679426501
30
0
41
1
10
8.49980795201662
20
7.53205286469702
30
0
41
1
10
8.45563565444411
20
7.54265601007379
30
0
41
1
10
8.43110003395827
20
7.55272636772355
30
0
41
1
10
8.37136994789256
20
7.58609718460599
30
0
41
1
10
8.33841285721002
20
7.61407037421819
30
0
41
1
10
8.25926399475679
20
7.69895209889248
30
0
41
1
10
8.22011072567562
20
7.76300791758402
30
0
41
1
10
8.15317557860794
20
7.90167589305835
30
0
41
1
10
8.12652521949877
20
7.97837348437849
30
0
41
1
10
8.10566243270262
20
8.05584836782774
30
0
0
SPLINE
5
E3
100
AcDbEntity
8
1
62
256
6
ByLayer
370
-1
48
1
60
0
100
AcDbSpline
70
4
71
3
72
18
73
14
40
0
40
0
40
0
40
0
40
0.125
40
0.125
40
0.25
40
0.25
40
0.375
40
0.375
40
0.5
40
0.5
40
0.75
40
0.75
40
1
40
1
40
1
40
1
41
1
10
54.5299071540334
20
-7.99268138871099
30
0
41
1
10
53.4285513750295
20
-7.98460003518673
30
0
41
1
10
52.3788273982465
20
-7.96978630184054
30
0
41
1
10
50.4048812581872
20
-7.78568177998395
30
0
41
1
10
49.5178840737438
20
-7.61396907243207
30
0
41
1
10
48.1858853493122
20
-6.85826310266097
30
0
41
1
10
47.7632004051285
20
-6.24904883750318
30
0
41
1
10
47.4479030112865
20
-4.63040126662779
30
0
41
1
10
47.5265960127973
20
-3.65018377380426
30
0
41
1
10
48.1088687844639
20
-0.517169412434441
30
0
41
1
10
48.8797179631511
20
1.74081808422807
30
0
41
1
10
51.0823577631172
20
5.2026400959183
30
0
41
1
10
52.6173634319148
20
6.34462969303556
30
0
41
1
10
54.5299071540334
20
6.92571303521419
30
0
0
SPLINE
5
E4
100
AcDbEntity
8
1
62
256
6
ByLayer
370
-1
48
1
60
0
100
AcDbSpline
70
4
71
3
72
8
73
4
40
0
40
0
40
0
40
0
40
1
40
1
40
1
40
1
41
1
10
54.7024428670084
20
7.0740544633382
30
0
41
1
10
54.7024106673902
20
7.12794757248011
30
0
41
1
10
54.7023787625834
20
7.17967996943622
30
0
41
1
10
54.7023471475039
20
7.22928894415216
30
0
0
SPLINE
5
E5
100
AcDbEntity
8
1
62
256
6
ByLayer
370
-1
48
1
60
0
100
AcDbSpline
70
4
71
3
72
8
73
4
40
0
40
0
40
0
40
0
40
1
40
1
40
1
40
1
41
1
10
56.0854248203805
20
-8.89794387185788
30
0
41
1
10
56.2205228304325
20
-8.97601665040938
30
0
41
1
10
56.355634686038
20
-9.05406602701049
30
0
41
1
10
56.49075932
20
-9.1320937804374
30
0
0
SPLINE
5
E6
100
AcDbEntity
8
1
62
256
6
ByLayer
370
-1
48
1
60
0
100
AcDbSpline
70
4
71
3
72
18
73
14
40
0
40
0
40
0
40
0
40
0.0809805960320918
40
0.0809805960320918
40
0.544227292214085
40
0.544227292214085
40
0.699318265621671
40
0.699318265621671
40
0.856346274356483
40
0.856346274356483
40
0.966571999538831
40
0.966571999538831
40
1
40
1
40
1
40
1
41
1
10
8.10566243270262
20
-8.05584836782774
30
0
41
1
10
8.11065289887432
20
-8.03731605051118
30
0
41
1
10
8.11597900857612
20
-8.01885383673363
30
0
41
1
10
8.15400172089505
20
-7.89611164850155
30
0
41
1
10
8.1977744361825
20
-7.7921939727409
30
0
41
1
10
8.28487257800725
20
-7.67169814060125
30
0
41
1
10
8.30967508046024
20
-7.64266520230268
30
0
41
1
10
8.36604668219428
20
-7.59122859579529
30
0
41
1
10
8.3983775068167
20
-7.56839473241365
30
0
41
1
10
8.45889576423616
20
-7.54154007085771
30
0
41
1
10
8.48604318765894
20
-7.53384342094336
30
0
41
1
10
8.52183069664625
20
-7.53010833377257
30
0
41
1
10
8.53025906116034
20
-7.52966679426501
30
0
41
1
10
8.53867513459483
20
-7.52966679426501
30
0
0
SPLINE
5
E7
100
AcDbEntity
8
1
62
256
6
ByLayer
370
-1
48
1
60
0
100
AcDbSpline
70
4
71
3
72
18
73
14
40
0
40
0
40
0
40
0
40
0.0809805960321051
40
0.0809805960321051
40
0.544227292214096
40
0.544227292214096
40
0.69931826562168
40
0.69931826562168
40
0.856346274356486
40
0.856346274356486
40
0.966571999538835
40
0.966571999538835
40
1
40
1
40
1
40
1
41
1
10
11.8943375672974
20
-23.6665017920809
30
0
41
1
10
11.8893471011256
20
-23.672810013698
30
0
41
1
10
11.8840209914239
20
-23.6790700603507
30
0
41
1
10
11.845998279105
20
-23.7205303134149
30
0
41
1
10
11.8022255638174
20
-23.7548029562659
30
0
41
1
10
11.7151274219928
20
-23.7938243006291
30
0
41
1
10
11.6903249195398
20
-23.8031592998669
30
0
41
1
10
11.6339533178057
20
-23.8196134016841
30
0
41
1
10
11.6016224931833
20
-23.8268687494612
30
0
41
1
10
11.5411042357638
20
-23.8353793525422
30
0
41
1
10
11.5139568123411
20
-23.8378105604685
30
0
41
1
10
11.4781693033538
20
-23.8389905264494
30
0
41
1
10
11.4697409388397
20
-23.8391299750503
30
0
41
1
10
11.4613248654052
20
-23.8391299750503
30
0
0
SPLINE
5
E8
100
AcDbEntity
8
1
62
256
6
ByLayer
370
-1
48
1
60
0
100
AcDbSpline
70
4
71
3
72
8
73
4
40
0
40
0
40
0
40
0
40
1
40
1
40
1
40
1
41
1
10
60.3859595752792
20
-9.4780690165984
30
0
41
1
10
59.0875435429568
20
-9.36291627411083
30
0
41
1
10
57.789142804285
20
-9.24759798948097
30
0
41
1
10
56.49075932
20
-9.1320937804374
30
0
0
SPLINE
5
E9
100
AcDbEntity
8
1
62
256
6
ByLayer
370
-1
48
1
60
0
100
AcDbSpline
70
4
71
3
72
8
73
4
40
0
40
0
40
0
40
0
40
1
40
1
40
1
40
1
41
1
10
54.7024428670084
20
7.0740544633384
30
0
41
1
10
54.6446567318179
20
7.02489151021177
30
0
41
1
10
54.5871426045641
20
6.97544938135812
30
0
41
1
10
54.5299071540334
20
6.92571303521419
30
0
0
SPLINE
5
EA
100
AcDbEntity
8
1
62
256
6
ByLayer
370
-1
48
1
60
0
100
AcDbSpline
70
4
71
3
72
16
73
12
40
0
40
0
40
0
40
0
40
0.0791206103491718
40
0.0791206103491718
40
0.393479139297229
40
0.393479139297229
40
0.674655022702647
40
0.674655022702647
40
0.922503393319254
40
0.922503393319254
40
1
40
1
40
1
40
1
41
1
10
66.0727964160487
20
-6.58342816179956
30
0
41
1
10
66.0775283880488
20
-6.59220131508442
30
0
41
1
10
66.0818908209616
20
-6.6012324688154
30
0
41
1
10
66.101398665138
20
-6.64681782313681
30
0
41
1
10
66.1108012884289
20
-6.68737464790493
30
0
41
1
10
66.1132146734538
20
-6.76466592895383
30
0
41
1
10
66.1078068391554
20
-6.80256537554485
30
0
41
1
10
66.0849107663681
20
-6.86878285713675
30
0
41
1
10
66.0685491289187
20
-6.89865903665179
30
0
41
1
10
66.0413748994658
20
-6.93234576194828
30
0
41
1
10
66.0344030552562
20
-6.94006509040105
30
0
41
1
10
66.0270469196896
20
-6.94734363760628
30
0
0
SPLINE
5
EB
100
AcDbEntity
8
1
62
256
6
ByLayer
370
-1
48
1
60
0
100
AcDbSpline
70
4
71
3
72
12
73
8
40
0
40
0
40
0
40
0
40
0.493173368464625
40
0.493173368464625
40
0.898501413143167
40
0.898501413143167
40
1
40
1
40
1
40
1
41
1
10
66.1784735225878
20
-5.11852980596868
30
0
41
1
10
66.1070109057468
20
-5.11362475090934
30
0
41
1
10
66.0331643250847
20
-5.09795382472103
30
0
41
1
10
65.9026765465088
20
-5.04890443450324
30
0
41
1
10
65.8438908954893
20
-5.01849894169072
30
0
41
1
10
65.7763033434184
20
-4.97166483328064
30
0
41
1
10
65.7629451594438
20
-4.96176654341659
30
0
41
1
10
65.7499309458983
20
-4.95145433061188
30
0
0
SPLINE
5
EC
100
AcDbEntity
8
1
62
256
6
ByLayer
370
-1
48
1
60
0
100
AcDbSpline
70
4
71
3
72
14
73
10
40
0
40
0
40
0
40
0
40
0.278887026449055
40
0.278887026449055
40
0.564030459898206
40
0.564030459898206
40
0.821986278162879
40
0.821986278162879
40
1
40
1
40
1
40
1
41
1
10
63.5042736025729
20
-6.40045436317081
30
0
41
1
10
63.4712946561604
20
-6.40319520572538
30
0
41
1
10
63.437257871636
20
-6.40008775217467
30
0
41
1
10
63.3720008123719
20
-6.38119798914155
30
0
41
1
10
63.3398656976041
20
-6.36477523047319
30
0
41
1
10
63.2871975041621
20
-6.32210266037251
30
0
41
1
10
63.2650934377807
20
-6.29624465068164
30
0
41
1
10
63.2370993087016
20
-6.24693482159171
30
0
41
1
10
63.2280452253131
20
-6.22481395602449
30
0
41
1
10
63.2219353645592
20
-6.20192316244325
30
0
0
SPLINE
5
ED
100
AcDbEntity
8
1
62
256
6
ByLayer
370
-1
48
1
60
0
100
AcDbSpline
70
4
71
3
72
14
73
10
40
0
40
0
40
0
40
0
40
0.231937944841608
40
0.231937944841608
40
0.524776041240617
40
0.524776041240617
40
0.789353246835702
40
0.789353246835702
40
1
40
1
40
1
40
1
41
1
10
63.6099949779216
20
-4.93606200207347
30
0
41
1
10
63.5965639795172
20
-4.91462446869915
30
0
41
1
10
63.5862124128177
20
-4.89062620752992
30
0
41
1
10
63.5718079192072
20
-4.83322645894791
30
0
41
1
10
63.5699794427183
20
-4.79801624032604
30
0
41
1
10
63.5803783347098
20
-4.73154055032165
30
0
41
1
10
63.5914908090939
20
-4.69921398291962
30
0
41
1
10
63.6214920995779
20
-4.64598093145804
30
0
41
1
10
63.6386668311655
20
-4.62348403169804
30
0
41
1
10
63.6585175306944
20
-4.6038427061311
30
0
0
SPLINE
5
EE
100
AcDbEntity
8
1
62
256
6
ByLayer
370
-1
48
1
60
0
100
AcDbSpline
70
4
71
3
72
18
73
14
40
0
40
0
40
0
40
0
40
0.199939268061775
40
0.199939268061775
40
0.376308237303658
40
0.376308237303658
40
0.554505301874284
40
0.554505301874284
40
0.707963999878664
40
0.707963999878664
40
0.908641448836622
40
0.908641448836622
40
1
40
1
40
1
40
1
41
1
10
64.7382984580581
20
-7.22837195349547
30
0
41
1
10
64.7712988308302
20
-7.16608706692904
30
0
41
1
10
64.8138971024271
20
-7.10719792760807
30
0
41
1
10
64.9103310525622
20
-7.01080827625472
30
0
41
1
10
64.9634839547128
20
-6.9706400527229
30
0
41
1
10
65.0803221157518
20
-6.90864828197653
30
0
41
1
10
65.1459811150975
20
-6.88631177256988
30
0
41
1
10
65.2685955136038
20
-6.86631265322268
30
0
41
1
10
65.3269447776758
20
-6.86531610811124
30
0
41
1
10
65.4553019307191
20
-6.88009789981078
30
0
41
1
10
65.5255918001085
20
-6.90109638974519
30
0
41
1
10
65.6186948849896
20
-6.94487134909457
30
0
41
1
10
65.6469449500915
20
-6.96065644450229
30
0
41
1
10
65.6738796273436
20
-6.97813740162289
30
0
0
SPLINE
5
EF
100
AcDbEntity
8
1
62
256
6
ByLayer
370
-1
48
1
60
0
100
AcDbSpline
70
4
71
3
72
16
73
12
40
0
40
0
40
0
40
0
40
0.0545629330448914
40
0.0545629330448914
40
0.277540278121359
40
0.277540278121359
40
0.502834640844647
40
0.502834640844647
40
0.742194621100355
40
0.742194621100355
40
1
40
1
40
1
40
1
41
1
10
63.2219353645592
20
-6.20192316244325
30
0
41
1
10
63.2200705682058
20
-6.19493664178145
30
0
41
1
10
63.218468221493
20
-6.18785515294036
30
0
41
1
10
63.2117331218041
20
-6.15175734437472
30
0
41
1
10
63.2108182046057
20
-6.12133619370499
30
0
41
1
10
63.2177622512612
20
-6.06216727960958
30
0
41
1
10
63.2257779207295
20
-6.03268449439975
30
0
41
1
10
63.2496768470223
20
-5.97666264022104
30
0
41
1
10
63.2662905149393
20
-5.94970877864699
30
0
41
1
10
63.3064711150901
20
-5.90097722289147
30
0
41
1
10
63.3309358716958
20
-5.87914179167706
30
0
41
1
10
63.357099738251
20
-5.86176848154381
30
0
0
SPLINE
5
F0
100
AcDbEntity
8
1
62
256
6
ByLayer
370
-1
48
1
60
0
100
AcDbSpline
70
4
71
3
72
12
73
8
40
0
40
0
40
0
40
0
40
0.320215318422001
40
0.320215318422001
40
0.78844776993987
40
0.78844776993987
40
1
40
1
40
1
40
1
41
1
10
65.6323567563699
20
-4.83512255784288
30
0
41
1
10
65.6005268840564
20
-4.7955741713395
30
0
41
1
10
65.5736012327985
20
-4.75325343836235
30
0
41
1
10
65.5217861230023
20
-4.64840800204911
30
0
41
1
10
65.502557084911
20
-4.58384410750006
30
0
41
1
10
65.4903906502206
20
-4.4927243299625
30
0
41
1
10
65.4887512333297
20
-4.46442077519748
30
0
41
1
10
65.4891615696502
20
-4.43650187281665
30
0
0
SPLINE
5
F1
100
AcDbEntity
8
1
62
256
6
ByLayer
370
-1
48
1
60
0
100
AcDbSpline
70
4
71
3
72
18
73
14
40
0
40
0
40
0
40
0
40
0.210306937090031
40
0.210306937090031
40
0.384804138150244
40
0.384804138150244
40
0.561008225059901
40
0.561008225059901
40
0.714037523284472
40
0.714037523284472
40
0.916500192036253
40
0.916500192036253
40
1
40
1
40
1
40
1
41
1
10
64.9444929359107
20
-4.29111821037867
30
0
41
1
10
64.9088511921798
20
-4.34604006697566
30
0
41
1
10
64.8625881066064
20
-4.39784474873335
30
0
41
1
10
64.7608668303947
20
-4.48017057339459
30
0
41
1
10
64.7070564448296
20
-4.51365548499268
30
0
41
1
10
64.5898603779549
20
-4.56689823090386
30
0
41
1
10
64.5245619982583
20
-4.58718435469319
30
0
41
1
10
64.4029600389851
20
-4.60876127907429
30
0
41
1
10
64.3451643751102
20
-4.61251875931103
30
0
41
1
10
64.2176235866612
20
-4.60731157448305
30
0
41
1
10
64.1478147651169
20
-4.59394814651503
30
0
41
1
10
64.0584814597742
20
-4.56348677326895
30
0
41
1
10
64.0331453537062
20
-4.55307208279407
30
0
41
1
10
64.0089117666243
20
-4.54135276225071
30
0
0
SPLINE
5
F2
100
AcDbEntity
8
1
62
256
6
ByLayer
370
-1
48
1
60
0
100
AcDbSpline
70
4
71
3
72
16
73
12
40
0
40
0
40
0
40
0
40
0.219201089498135
40
0.219201089498135
40
0.440659231384236
40
0.440659231384236
40
0.673314705305931
40
0.673314705305931
40
0.926985879288897
40
0.926985879288897
40
1
40
1
40
1
40
1
41
1
10
65.2736450199016
20
-4.17185378122974
30
0
41
1
10
65.3020474260028
20
-4.17927524303633
30
0
41
1
10
65.3296162822053
20
-4.19085917646044
30
0
41
1
10
65.3790191957898
20
-4.22041903968778
30
0
41
1
10
65.4014328902025
20
-4.23882599186612
30
0
41
1
10
65.4394538396099
20
-4.28051613595312
30
0
41
1
10
65.4551599791864
20
-4.30450392010587
30
0
41
1
10
65.4786721046887
20
-4.35612608122085
30
0
41
1
10
65.4859635163594
20
-4.38452828155383
30
0
41
1
10
65.4890009489505
20
-4.42042411113189
30
0
41
1
10
65.4892793113517
20
-4.42849083673366
30
0
41
1
10
65.4891615696502
20
-4.43650187281665
30
0
0
SPLINE
5
F3
100
AcDbEntity
8
1
62
256
6
ByLayer
370
-1
48
1
60
0
100
AcDbSpline
70
4
71
3
72
18
73
14
40
0
40
0
40
0
40
0
40
0.0260260582874307
40
0.0260260582874307
40
0.249722339332976
40
0.249722339332976
40
0.474081175857695
40
0.474081175857695
40
0.711164189720864
40
0.711164189720864
40
0.970541000968836
40
0.970541000968836
40
1
40
1
40
1
40
1
41
1
10
63.6585175306944
20
-4.6038427061311
30
0
41
1
10
63.6609915120276
20
-4.60139481895513
30
0
41
1
10
63.6635099666198
20
-4.59898598830375
30
0
41
1
10
63.6878342179153
20
-4.57649547824957
30
0
41
1
10
63.7130164568881
20
-4.5591980504222
30
0
41
1
10
63.7660111099523
20
-4.53277370366649
30
0
41
1
10
63.7944994445184
20
-4.52331464959764
30
0
41
1
10
63.8525540753756
20
-4.51237041003782
30
0
41
1
10
63.8828134832847
20
-4.51120136341353
30
0
41
1
10
63.9427026234912
20
-4.51722773327461
30
0
41
1
10
63.9727631991803
20
-4.52526163391585
30
0
41
1
10
64.0028264399348
20
-4.53847766823455
30
0
41
1
10
64.0058878100714
20
-4.53989038212379
30
0
41
1
10
64.0089117666244
20
-4.54135276225071
30
0
0
SPLINE
5
F4
100
AcDbEntity
8
1
62
256
6
ByLayer
370
-1
48
1
60
0
100
AcDbSpline
70
4
71
3
72
14
73
10
40
0
40
0
40
0
40
0
40
0.241255098579258
40
0.241255098579258
40
0.531097591785549
40
0.531097591785549
40
0.792980266575902
40
0.792980266575902
40
1
40
1
40
1
40
1
41
1
10
66.1784735225878
20
-5.11852980596842
30
0
41
1
10
66.2073968629384
20
-5.120515047808
30
0
41
1
10
66.2370382719651
20
-5.12667615643281
30
0
41
1
10
66.2998334459773
20
-5.1495393130437
30
0
41
1
10
66.3335026523396
20
-5.16858052384407
30
0
41
1
10
66.3892615316676
20
-5.21520294222825
30
0
41
1
10
66.4129646877709
20
-5.24254415319129
30
0
41
1
10
66.4453607442668
20
-5.29649603358854
30
0
41
1
10
66.4565277527525
20
-5.32265780417345
30
0
41
1
10
66.4636290858248
20
-5.34926318129411
30
0
0
SPLINE
5
F5
100
AcDbEntity
8
1
62
256
6
ByLayer
370
-1
48
1
60
0
100
AcDbSpline
70
4
71
3
72
18
73
14
40
0
40
0
40
0
40
0
40
0.199775277185364
40
0.199775277185364
40
0.37617409041352
40
0.37617409041352
40
0.55440290093593
40
0.55440290093593
40
0.707868885210277
40
0.707868885210277
40
0.9085184884909
40
0.9085184884909
40
1
40
1
40
1
40
1
41
1
10
66.0727964160468
20
-6.58342816180109
30
0
41
1
10
66.03921281044
20
-6.52116360912859
30
0
41
1
10
66.0131979094364
20
-6.45255503956182
30
0
41
1
10
65.9836856598486
20
-6.31760380243361
30
0
41
1
10
65.9777371285542
20
-6.25036303515913
30
0
41
1
10
65.9852827545566
20
-6.11736532524242
30
0
41
1
10
65.999306612434
20
-6.04967368693312
30
0
41
1
10
66.0424133469344
20
-5.93556922994378
30
0
41
1
10
66.0695715733913
20
-5.88609296596786
30
0
41
1
10
66.142725240362
20
-5.78674565881528
30
0
41
1
10
66.1929963673252
20
-5.73953839412781
30
0
41
1
10
66.272544381257
20
-5.68568096145953
30
0
41
1
10
66.2987354921796
20
-5.67069198849009
30
0
41
1
10
66.325691655717
20
-5.65772168233084
30
0
0
SPLINE
5
F6
100
AcDbEntity
8
1
62
256
6
ByLayer
370
-1
48
1
60
0
100
AcDbSpline
70
4
71
3
72
14
73
10
40
0
40
0
40
0
40
0
40
0.276433213190559
40
0.276433213190559
40
0.563702142575163
40
0.563702142575163
40
0.82363033134794
40
0.82363033134794
40
1
40
1
40
1
40
1
41
1
10
64.7382984580582
20
-7.22837195349553
30
0
41
1
10
64.7221685040017
20
-7.25881562047093
30
0
41
1
10
64.7006852957969
20
-7.28722245474424
30
0
41
1
10
64.6483647041105
20
-7.33571954509336
30
0
41
1
10
64.6163288582656
20
-7.35614538438838
30
0
41
1
10
64.5503228241611
20
-7.38161119606244
30
0
41
1
10
64.5158084467221
20
-7.38825609935776
30
0
41
1
10
64.4582629131476
20
-7.38828065505373
30
0
41
1
10
64.4346304202735
20
-7.38526687464739
30
0
41
1
10
64.4119194304824
20
-7.37933256250764
30
0
0
SPLINE
5
F7
100
AcDbEntity
8
1
62
256
6
ByLayer
370
-1
48
1
60
0
100
AcDbSpline
70
4
71
3
72
16
73
12
40
0
40
0
40
0
40
0
40
0.189977737277203
40
0.189977737277203
40
0.487983209072344
40
0.487983209072344
40
0.757142327199436
40
0.757142327199436
40
0.996653710982028
40
0.996653710982028
40
1
40
1
40
1
40
1
41
1
10
64.9444929359082
20
-4.2911182103775
30
0
41
1
10
64.9558908830869
20
-4.27355463590212
30
0
41
1
10
64.9697450779057
20
-4.25689244422958
30
0
41
1
10
65.010687070175
20
-4.21833403878315
30
0
41
1
10
65.0416646699038
20
-4.19820897067945
30
0
41
1
10
65.1071465190383
20
-4.17166775449291
30
0
41
1
10
65.1420575606502
20
-4.16376576475804
30
0
41
1
10
65.2087936996658
20
-4.16037480129012
30
0
41
1
10
65.2414942232809
20
-4.16359755508006
30
0
41
1
10
65.2727701564351
20
-4.17162618775524
30
0
41
1
10
65.2732077272654
20
-4.17173951800197
30
0
41
1
10
65.2736450199016
20
-4.17185378122974
30
0
0
SPLINE
5
F8
100
AcDbEntity
8
1
62
256
6
ByLayer
370
-1
48
1
60
0
100
AcDbSpline
70
4
71
3
72
18
73
14
40
0
40
0
40
0
40
0
40
0.0570910905889278
40
0.0570910905889278
40
0.277938073630186
40
0.277938073630186
40
0.501254307292977
40
0.501254307292977
40
0.738646304776729
40
0.738646304776729
40
0.999211456974296
40
0.999211456974296
40
1
40
1
40
1
40
1
41
1
10
64.4119194304824
20
-7.37933256250764
30
0
41
1
10
64.4044641511099
20
-7.37738452081979
30
0
41
1
10
64.3970786206482
20
-7.37512019712253
30
0
41
1
10
64.3618714727832
20
-7.36269492638058
30
0
41
1
10
64.3351745001726
20
-7.34807894939655
30
0
41
1
10
64.2880877253176
20
-7.31182455704285
30
0
41
1
10
64.2671581054124
20
-7.28966720114809
30
0
41
1
10
64.2322389804813
20
-7.23975569308001
30
0
41
1
10
64.2183070315387
20
-7.21113123500376
30
0
41
1
10
64.1986658395606
20
-7.14961549609416
30
0
41
1
10
64.1936108298657
20
-7.11581870426824
30
0
41
1
10
64.1935855712517
20
-7.08268445411983
30
0
41
1
10
64.1935855403248
20
-7.08258337357285
30
0
41
1
10
64.1935855555156
20
-7.08248229632241
30
0
0
SPLINE
5
F9
100
AcDbEntity
8
1
62
256
6
ByLayer
370
-1
48
1
60
0
100
AcDbSpline
70
4
71
3
72
18
73
14
40
0
40
0
40
0
40
0
40
0.0275682011938811
40
0.0275682011938811
40
0.251214202801681
40
0.251214202801681
40
0.475613154395162
40
0.475613154395162
40
0.712809395986911
40
0.712809395986911
40
0.972353877797718
40
0.972353877797718
40
1
40
1
40
1
40
1
41
1
10
66.4636290858248
20
-5.34926318129411
30
0
41
1
10
66.4645739339943
20
-5.35280308593113
30
0
41
1
10
66.4654504510577
20
-5.35635680502662
30
0
41
1
10
66.4727350247072
20
-5.38851509966858
30
0
41
1
10
66.4746921830616
20
-5.41814388802948
30
0
41
1
10
66.4695687560335
20
-5.47472656996837
30
0
41
1
10
66.4624140862422
20
-5.50239712137463
30
0
41
1
10
66.4400714658477
20
-5.5539117329613
30
0
41
1
10
66.4241973463248
20
-5.57810597414687
30
0
41
1
10
66.3849482846603
20
-5.6210260416992
30
0
41
1
10
66.3605423634719
20
-5.63958389705394
30
0
41
1
10
66.331422482689
20
-5.65490107628469
30
0
41
1
10
66.3285685965516
20
-5.65633740509958
30
0
41
1
10
66.325691655717
20
-5.65772168233084
30
0
0
SPLINE
5
FA
100
AcDbEntity
8
1
62
256
6
ByLayer
370
-1
48
1
60
0
100
AcDbSpline
70
4
71
3
72
20
73
16
40
0
40
0
40
0
40
0
40
0.084538450144187
40
0.084538450144187
40
0.284827840938707
40
0.284827840938707
40
0.446922705580946
40
0.446922705580946
40
0.609841095574672
40
0.609841095574672
40
0.762225400861837
40
0.762225400861837
40
0.9785373992789
40
0.9785373992789
40
1
40
1
40
1
40
1
41
1
10
63.609994977922
20
-4.93606200207319
30
0
41
1
10
63.6238888829714
20
-4.95823839166306
30
0
41
1
10
63.636394694588
20
-4.98157221786673
30
0
41
1
10
63.6731055647929
20
-5.06340123142539
30
0
41
1
10
63.6904324070551
20
-5.12778408924561
30
0
41
1
10
63.7012945050365
20
-5.25108764816619
30
0
41
1
10
63.698695389799
20
-5.31012064472642
30
0
41
1
10
63.6771957499346
20
-5.42756401400922
30
0
41
1
10
63.6578563241006
20
-5.48750209565893
30
0
41
1
10
63.6076128500191
20
-5.59513965836948
30
0
41
1
10
63.5770459347969
20
-5.64466565442063
30
0
41
1
10
63.4941875650938
20
-5.75165310277472
30
0
41
1
10
63.4368418087605
20
-5.80579666915889
30
0
41
1
10
63.3695285299816
20
-5.85338427866677
30
0
41
1
10
63.3633361140797
20
-5.85762740816108
30
0
41
1
10
63.357099738251
20
-5.86176848154381
30
0
0
SPLINE
5
FB
100
AcDbEntity
8
1
62
256
6
ByLayer
370
-1
48
1
60
0
100
AcDbSpline
70
4
71
3
72
12
73
8
40
0
40
0
40
0
40
0
40
0.304965134777224
40
0.304965134777224
40
0.769282002291696
40
0.769282002291696
40
1
40
1
40
1
40
1
41
1
10
64.0463006327068
20
-6.63711571389391
30
0
41
1
10
64.0767120269075
20
-6.6763006442639
30
0
41
1
10
64.1028110230571
20
-6.71937868501351
30
0
41
1
10
64.1554630061576
20
-6.83128510618835
30
0
41
1
10
64.1761210536479
20
-6.9035777139697
30
0
41
1
10
64.1911483301405
20
-7.01083632557871
30
0
41
1
10
64.1935909155054
20
-7.04681769309275
30
0
41
1
10
64.1935855555156
20
-7.08248229632241
30
0
0
SPLINE
5
FC
100
AcDbEntity
8
1
62
256
6
ByLayer
370
-1
48
1
60
0
100
AcDbSpline
70
4
71
3
72
16
73
12
40
0
40
0
40
0
40
0
40
0.150191393605943
40
0.150191393605943
40
0.372569250429992
40
0.372569250429992
40
0.602550781398681
40
0.602550781398681
40
0.850848966429944
40
0.850848966429944
40
1
40
1
40
1
40
1
41
1
10
66.0270469196896
20
-6.94734363760628
30
0
41
1
10
66.0129079419842
20
-6.96133348536409
30
0
41
1
10
65.9971974582454
20
-6.97381209448812
30
0
41
1
10
65.9558655345267
20
-6.99988971324532
30
0
41
1
10
65.9285426259997
20
-7.011429738797
30
0
41
1
10
65.8720622003926
20
-7.02544885490693
30
0
41
1
10
65.8421688888446
20
-7.02780872385398
30
0
41
1
10
65.7820798671949
20
-7.02336664143516
30
0
41
1
10
65.7512971028414
20
-7.01579900717113
30
0
41
1
10
65.7057899351545
20
-6.99688242119612
30
0
41
1
10
65.6893377207707
20
-6.9881699060349
30
0
41
1
10
65.6738796273436
20
-6.97813740162297
30
0
0
SPLINE
5
FD
100
AcDbEntity
8
1
62
256
6
ByLayer
370
-1
48
1
60
0
100
AcDbSpline
70
4
71
3
72
12
73
8
40
0
40
0
40
0
40
0
40
0.466362150661569
40
0.466362150661569
40
0.876416225176088
40
0.876416225176088
40
1
40
1
40
1
40
1
41
1
10
63.5042736025728
20
-6.40045436317067
30
0
41
1
10
63.5709774309837
20
-6.39491068420551
30
0
41
1
10
63.6397904398857
20
-6.39949963742527
30
0
41
1
10
63.7660768177726
20
-6.43016621654053
30
0
41
1
10
63.8253290865497
20
-6.45412474327426
30
0
41
1
10
63.8966889938951
20
-6.49781450564907
30
0
41
1
10
63.9129544785892
20
-6.50888124405611
30
0
41
1
10
63.9287264431783
20
-6.52078394112476
30
0
0
SPLINE
5
FE
100
AcDbEntity
8
SK1
62
256
6
ByLayer
370
-1
48
1
60
0
100
AcDbSpline
70
4
71
3
72
79
73
75
40
0
40
0
40
0
40
0
40
0.0067087492537887
40
0.0208027851155881
40
0.0348968209773875
40
0.0489908568391869
40
0.0630848927009864
40
0.0771789285627858
40
0.0912729644245852
40
0.105367000286385
40
0.119461036148184
40
0.133555072009984
40
0.147649107871783
40
0.161743143733582
40
0.175837179595382
40
0.189931215457181
40
0.204025251318981
40
0.21811928718078
40
0.232213323042579
40
0.246307358904379
40
0.260401394766178
40
0.274495430627978
40
0.288589466489777
40
0.302683502351576
40
0.316777538213376
40
0.330871574075175
40
0.344965609936975
40
0.359059645798774
40
0.373153681660574
40
0.387247717522373
40
0.401341753384172
40
0.415435789245972
40
0.429529825107771
40
0.443623860969571
40
0.45771789683137
40
0.47181193269317
40
0.485905968554969
40
0.500000004416768
40
0.514094040278568
40
0.528188076140367
40
0.542282112002167
40
0.556376147863966
40
0.570470183725766
40
0.584564219587565
40
0.598658255449364
40
0.612752291311164
40
0.626846327172963
40
0.640940363034763
40
0.655034398896562
40
0.669128434758361
40
0.683222470620161
40
0.69731650648196
40
0.71141054234376
40
0.725504578205559
40
0.739598614067359
40
0.753692649929158
40
0.767786685790957
40
0.781880721652757
40
0.795974757514556
40
0.810068793376356
40
0.824162829238155
40
0.838256865099955
40
0.852350900961754
40
0.866444936823553
40
0.880538972685353
40
0.894633008547152
40
0.908727044408952
40
0.922821080270751
40
0.936915116132551
40
0.95100915199435
40
0.965103187856149
40
0.979197223717949
40
0.993291259579748
40
1
40
1
40
1
40
1
41
1
10
-3
20
17.2891030035319
30
0
41
1
10
-3
20
17.3064425253598
30
0
41
1
10
-3
20
17.3576824679414
30
0
41
1
10
-3
20
17.4290648746259
30
0
41
1
10
-3
20
17.4859427971309
30
0
41
1
10
-3
20
17.5070292572437
30
0
41
1
10
-3
20
17.4859401738945
30
0
41
1
10
-3
20
17.4163913620312
30
0
41
1
10
-3
20
17.2925088911448
30
0
41
1
10
-3
20
17.1091123896189
30
0
41
1
10
-3
20
16.8619882313057
30
0
41
1
10
-3
20
16.5481197778907
30
0
41
1
10
-3
20
16.1658744357057
30
0
41
1
10
-3
20
15.7151402778227
30
0
41
1
10
-3
20
15.1974002275414
30
0
41
1
10
-3
20
14.6157505856349
30
0
41
1
10
-3
20
13.9748490556261
30
0
41
1
10
-3
20
13.2808105172309
30
0
41
1
10
-3
20
12.5410348198394
30
0
41
1
10
-3
20
11.763994099502
30
0
41
1
10
-3
20
10.9589648821141
30
0
41
1
10
-3
20
10.1357380738661
30
0
41
1
10
-3
20
9.30429484700929
30
0
41
1
10
-3
20
8.47448256671282
30
0
41
1
10
-3
20
7.6556828892094
30
0
41
1
10
-3
20
6.85650245921596
30
0
41
1
10
-3
20
6.08448325445985
30
0
41
1
10
-3
20
5.34585503158101
30
0
41
1
10
-3
20
4.64533193812392
30
0
41
1
10
-3
20
3.9859646700211
30
0
41
1
10
-3
20
3.36905464097902
30
0
41
1
10
-3
20
2.79412899561987
30
0
41
1
10
-3
20
2.25898609800083
30
0
41
1
10
-3
20
1.75979816383233
30
0
41
1
10
-3
20
1.29128215780307
30
0
41
1
10
-3
20
0.846915650735156
30
0
41
1
10
-3
20
0.41920838047011
30
0
41
1
10
-3
20
-8.85488021E-08
30
0
41
1
10
-3
20
-0.419208026274788
30
0
41
1
10
-3
20
-0.84691581376515
30
0
41
1
10
-3
20
-1.29128185987813
30
0
41
1
10
-3
20
-1.75979828673439
30
0
41
1
10
-3
20
-2.25898590431717
30
0
41
1
10
-3
20
-2.79412905823773
30
0
41
1
10
-3
20
-3.36905458419105
30
0
41
1
10
-3
20
-3.98596466105747
30
0
41
1
10
-3
20
-4.64533203076618
30
0
41
1
10
-3
20
-5.34585495020943
30
0
41
1
10
-3
20
-6.08448348730366
30
0
41
1
10
-3
20
-6.85650231512167
30
0
41
1
10
-3
20
-7.65568323274246
30
0
41
1
10
-3
20
-8.47448237855718
30
0
41
1
10
-3
20
-9.30429525609867
30
0
41
1
10
-3
20
-10.1357378664365
30
0
41
1
10
-3
20
-10.9589653027428
30
0
41
1
10
-3
20
-11.7639938999324
30
0
41
1
10
-3
20
-12.5410351974886
30
0
41
1
10
-3
20
-13.2808103509102
30
0
41
1
10
-3
20
-13.9748493432595
30
0
41
1
10
-3
20
-14.6157504724401
30
0
41
1
10
-3
20
-15.197400392687
30
0
41
1
10
-3
20
-15.7151402291805
30
0
41
1
10
-3
20
-16.1658744651289
30
0
41
1
10
-3
20
-16.5481197951877
30
0
41
1
10
-3
20
-16.8619881326948
30
0
41
1
10
-3
20
-17.1091124641426
30
0
41
1
10
-3
20
-17.2925086916609
30
0
41
1
10
-3
20
-17.4163918494222
30
0
41
1
10
-3
20
-17.4859391868839
30
0
41
1
10
-3
20
-17.5070293524766
30
0
41
1
10
-3
20
-17.4859434032096
30
0
41
1
10
-3
20
-17.4290646714908
30
0
41
1
10
-3
20
-17.3576822644971
30
0
41
1
10
-3
20
-17.3064424596398
30
0
41
1
10
-3
20
-17.2891029958214
30
0
0
SPLINE
5
FF
100
AcDbEntity
8
SK1
62
256
6
ByLayer
370
-1
48
1
60
0
100
AcDbSpline
70
4
71
3
72
22
73
18
40
0
40
0
40
0
40
0
40
0.352684316750051
40
0.352684316750051
40
0.750046292484899
40
0.750046292484899
40
0.835479263400861
40
0.835479263400861
40
0.86935277413835
40
0.86935277413835
40
0.903637365464604
40
0.903637365464604
40
0.934112944215775
40
0.934112944215775
40
0.983611230456553
40
0.983611230456553
40
1
40
1
40
1
40
1
41
1
10
-1.30710678118658
20
-3.80474436172742
30
0
41
1
10
-1.26637440296071
20
-4.02584957204775
30
0
41
1
10
-1.21786346361694
20
-4.24386265362048
30
0
41
1
10
-1.08311917044625
20
-4.69265802851214
30
0
41
1
10
-1.00360006874376
20
-4.93633956823067
30
0
41
1
10
-0.8033447497628
20
-5.16879396055813
30
0
41
1
10
-0.761021311877812
20
-5.20853400127967
30
0
41
1
10
-0.689167148695731
20
-5.24561851051851
30
0
41
1
10
-0.666676206231386
20
-5.25408214518689
30
0
41
1
10
-0.619919785859736
20
-5.26355270960357
30
0
41
1
10
-0.595012690956537
20
-5.26445496143654
30
0
41
1
10
-0.549926195162811
20
-5.25839930645884
30
0
41
1
10
-0.529028206588009
20
-5.25231844804927
30
0
41
1
10
-0.478237300450644
20
-5.2307965704984
30
0
41
1
10
-0.449806665426422
20
-5.21177878736736
30
0
41
1
10
-0.416050679082105
20
-5.18357602352128
30
0
41
1
10
-0.407890864165267
20
-5.17622805658175
30
0
41
1
10
-0.400000000000034
20
-5.16866682996363
30
0
0
SPLINE
5
100
100
AcDbEntity
8
SK1
62
256
6
ByLayer
370
-1
48
1
60
0
100
AcDbSpline
70
4
71
3
72
22
73
18
40
0
40
0
40
0
40
0
40
0.0434921783994969
40
0.0434921783994969
40
0.0876860403067026
40
0.0876860403067026
40
0.118952127699588
40
0.118952127699588
40
0.1501558424283
40
0.1501558424283
40
0.196307791916001
40
0.196307791916001
40
0.283435745194102
40
0.283435745194102
40
0.579041181948967
40
0.579041181948967
40
1
40
1
40
1
40
1
41
1
10
-0.400000000000034
20
5.16866679574528
30
0
41
1
10
-0.420550053748514
20
5.18835839085108
30
0
41
1
10
-0.443027188827387
20
5.20675192843447
30
0
41
1
10
-0.492732016073376
20
5.23775963373393
30
0
41
1
10
-0.520750465867991
20
5.25056923469424
30
0
41
1
10
-0.57132317141145
20
5.26230651341535
30
0
41
1
10
-0.593569294960218
20
5.26418855716773
30
0
41
1
10
-0.636876257397887
20
5.26111275520464
30
0
41
1
10
-0.658413974519078
20
5.25617334660447
30
0
41
1
10
-0.708019059178241
20
5.23795018495881
30
0
41
1
10
-0.73522293133459
20
5.22174262348992
30
0
41
1
10
-0.805307091704549
20
5.16870577827882
30
0
41
1
10
-0.843008552736933
20
5.12565182749091
30
0
41
1
10
-0.98697835479976
20
4.93030734845306
30
0
41
1
10
-1.05565821402411
20
4.75512394253201
30
0
41
1
10
-1.19912511806342
20
4.32976589005261
30
0
41
1
10
-1.25838015422249
20
4.06924736884375
30
0
41
1
10
-1.30710678118658
20
3.80474664113271
30
0
0
SPLINE
5
101
100
AcDbEntity
8
SK1
62
256
6
ByLayer
370
-1
48
1
60
0
100
AcDbSpline
70
4
71
3
72
30
73
26
40
0
40
0
40
0
40
0
40
0.0056618333711474
40
0.0508667583350147
40
0.0960716832988821
40
0.141276608262749
40
0.186481533226617
40
0.231686458190484
40
0.276891383154352
40
0.322096308118219
40
0.367301233082087
40
0.412506158045954
40
0.457711083009821
40
0.502916007973689
40
0.548120932937556
40
0.593325857901423
40
0.638530782865291
40
0.683735707829158
40
0.728940632793026
40
0.774145557756893
40
0.81935048272076
40
0.864555407684628
40
0.909760332648495
40
0.954965257612362
40
1
40
1
40
1
40
1
41
1
10
-0.400000000000034
20
5.16866679574528
30
0
41
1
10
-0.400000000000034
20
5.1981823917107
30
0
41
1
10
-0.400000000000034
20
5.46426938707833
30
0
41
1
10
-0.400000000000034
20
5.98219146197602
30
0
41
1
10
-0.400000000000034
20
6.74713361247495
30
0
41
1
10
-0.400000000000034
20
7.53968849279406
30
0
41
1
10
-0.400000000000034
20
8.35230648563555
30
0
41
1
10
-0.400000000000034
20
9.17636769820604
30
0
41
1
10
-0.400000000000034
20
10.0024728331477
30
0
41
1
10
-0.400000000000034
20
10.8207538150476
30
0
41
1
10
-0.400000000000034
20
11.6212070931939
30
0
41
1
10
-0.400000000000034
20
12.3940190774915
30
0
41
1
10
-0.400000000000034
20
13.1298916243886
30
0
41
1
10
-0.400000000000034
20
13.8203332490725
30
0
41
1
10
-0.400000000000034
20
14.4579281585871
30
0
41
1
10
-0.400000000000034
20
15.0365497976464
30
0
41
1
10
-0.400000000000034
20
15.5515337877379
30
0
41
1
10
-0.400000000000034
20
15.9997825456108
30
0
41
1
10
-0.400000000000034
20
16.379817481596
30
0
41
1
10
-0.400000000000034
20
16.6917603323907
30
0
41
1
10
-0.400000000000034
20
16.9372586651848
30
0
41
1
10
-0.400000000000034
20
17.1193485969266
30
0
41
1
10
-0.400000000000034
20
17.2422669751987
30
0
41
1
10
-0.400000000000034
20
17.3111334447875
30
0
41
1
10
-0.400000000000034
20
17.3250933707986
30
0
41
1
10
-0.400000000000034
20
17.3251497957926
30
0
0
SPLINE
5
102
100
AcDbEntity
8
SK1
62
256
6
ByLayer
370
-1
48
1
60
0
100
AcDbSpline
70
4
71
3
72
79
73
75
40
0
40
0
40
0
40
0
40
0.0074030720038205
40
0.0214772710298318
40
0.0355514700558431
40
0.0496256690818545
40
0.0636998681078658
40
0.0777740671338771
40
0.0918482661598885
40
0.1059224651859
40
0.119996664211911
40
0.134070863237923
40
0.148145062263934
40
0.162219261289945
40
0.176293460315956
40
0.190367659341968
40
0.204441858367979
40
0.21851605739399
40
0.232590256420002
40
0.246664455446013
40
0.260738654472024
40
0.274812853498036
40
0.288887052524047
40
0.302961251550058
40
0.31703545057607
40
0.331109649602081
40
0.345183848628092
40
0.359258047654104
40
0.373332246680115
40
0.387406445706126
40
0.401480644732138
40
0.415554843758149
40
0.42962904278416
40
0.443703241810172
40
0.457777440836183
40
0.471851639862195
40
0.485925838888206
40
0.500000037914217
40
0.514074236940228
40
0.52814843596624
40
0.542222634992251
40
0.556296834018262
40
0.570371033044274
40
0.584445232070285
40
0.598519431096296
40
0.612593630122308
40
0.626667829148319
40
0.64074202817433
40
0.654816227200342
40
0.668890426226353
40
0.682964625252364
40
0.697038824278376
40
0.711113023304387
40
0.725187222330398
40
0.73926142135641
40
0.753335620382421
40
0.767409819408432
40
0.781484018434444
40
0.795558217460455
40
0.809632416486467
40
0.823706615512478
40
0.837780814538489
40
0.851855013564501
40
0.865929212590512
40
0.880003411616523
40
0.894077610642535
40
0.908151809668546
40
0.922226008694557
40
0.936300207720569
40
0.95037440674658
40
0.964448605772591
40
0.978522804798603
40
0.992597003824614
40
1
40
1
40
1
40
1
41
1
10
-2
20
-17.1116144539657
30
0
41
1
10
-2
20
-17.1306737733626
30
0
41
1
10
-2
20
-17.1831798973208
30
0
41
1
10
-2
20
-17.2550395308993
30
0
41
1
10
-2
20
-17.3112459497451
30
0
41
1
10
-2
20
-17.3321089735132
30
0
41
1
10
-2
20
-17.3112189889209
30
0
41
1
10
-2
20
-17.2422674474922
30
0
41
1
10
-2
20
-17.1193484069474
30
0
41
1
10
-2
20
-16.9372587367204
30
0
41
1
10
-2
20
-16.6917602356259
30
0
41
1
10
-2
20
-16.3798174953022
30
0
41
1
10
-2
20
-15.9997825770269
30
0
41
1
10
-2
20
-15.5515337348698
30
0
41
1
10
-2
20
-15.0365499649754
30
0
41
1
10
-2
20
-14.4579280405673
30
0
41
1
10
-2
20
-13.8203335391023
30
0
41
1
10
-2
20
-13.1298914527523
30
0
41
1
10
-2
20
-12.39401945775
30
0
41
1
10
-2
20
-11.6212068879994
30
0
41
1
10
-2
20
-10.8207542384819
30
0
41
1
10
-2
20
-10.00247262006
30
0
41
1
10
-2
20
-9.17636811026827
30
0
41
1
10
-2
20
-8.35230629219913
30
0
41
1
10
-2
20
-7.53968883941312
30
0
41
1
10
-2
20
-6.74713346409783
30
0
41
1
10
-2
20
-5.98219169787032
30
0
41
1
10
-2
20
-5.25109264883253
30
0
41
1
10
-2
20
-4.55854550233684
30
0
41
1
10
-2
20
-3.90758262960779
30
0
41
1
10
-2
20
-3.29948777527221
30
0
41
1
10
-2
20
-2.73375387844547
30
0
41
1
10
-2
20
-2.20813463136872
30
0
41
1
10
-2
20
-1.71876156390923
30
0
41
1
10
-2
20
-1.26029526086333
30
0
41
1
10
-2
20
-0.826158476850765
30
0
41
1
10
-2
20
-0.408799134273892
30
0
41
1
10
-2
20
-2.402494488E-07
30
0
41
1
10
-2
20
0.408799553455736
30
0
41
1
10
-2
20
0.82615842677356
30
0
41
1
10
-2
20
1.26029551010325
30
0
41
1
10
-2
20
1.71876142586774
30
0
41
1
10
-2
20
2.20813448047156
30
0
41
1
10
-2
20
2.7337537633878
30
0
41
1
10
-2
20
3.29948825001514
30
0
41
1
10
-2
20
3.90758266192117
30
0
41
1
10
-2
20
4.55854530449344
30
0
41
1
10
-2
20
5.25109273249788
30
0
41
1
10
-2
20
5.98219146197602
30
0
41
1
10
-2
20
6.74713361247495
30
0
41
1
10
-2
20
7.53968849279406
30
0
41
1
10
-2
20
8.35230648563552
30
0
41
1
10
-2
20
9.17636769820604
30
0
41
1
10
-2
20
10.0024728331477
30
0
41
1
10
-2
20
10.8207538150476
30
0
41
1
10
-2
20
11.6212070931939
30
0
41
1
10
-2
20
12.3940190774915
30
0
41
1
10
-2
20
13.1298916243886
30
0
41
1
10
-2
20
13.8203332490725
30
0
41
1
10
-2
20
14.4579281585871
30
0
41
1
10
-2
20
15.0365497976464
30
0
41
1
10
-2
20
15.5515337877379
30
0
41
1
10
-2
20
15.9997825456108
30
0
41
1
10
-2
20
16.379817481596
30
0
41
1
10
-2
20
16.6917603323907
30
0
41
1
10
-2
20
16.9372586651848
30
0
41
1
10
-2
20
17.1193485969266
30
0
41
1
10
-2
20
17.2422669751987
30
0
41
1
10
-2
20
17.3112199736996
30
0
41
1
10
-2
20
17.3321088799281
30
0
41
1
10
-2
20
17.3112453434672
30
0
41
1
10
-2
20
17.2550397180126
30
0
41
1
10
-2
20
17.1831802768059
30
0
41
1
10
-2
20
17.1306742510805
30
0
41
1
10
-2
20
17.1116151107528
30
0
0
SPLINE
5
103
100
AcDbEntity
8
SK1
62
256
6
ByLayer
370
-1
48
1
60
0
100
AcDbSpline
70
4
71
3
72
24
73
20
40
0
40
0
40
0
40
0
40
0.0299003298961631
40
0.0299003298961631
40
0.0528622635029669
40
0.0528622635029669
40
0.0709275158044995
40
0.0709275158044995
40
0.0890039000876294
40
0.0890039000876294
40
0.11362248491787
40
0.11362248491787
40
0.157577258657195
40
0.157577258657195
40
0.29602514002948
40
0.29602514002948
40
0.878150828056824
40
0.878150828056824
40
1
40
1
40
1
40
1
41
1
10
-0.400000000000034
20
-5.16866682996297
30
0
41
1
10
-0.394094307655564
20
-5.16300784544387
30
0
41
1
10
-0.38760623850834
20
-5.15782429554133
30
0
41
1
10
-0.374945775641891
20
-5.1507540726119
30
0
41
1
10
-0.368929355824321
20
-5.14835070696066
30
0
41
1
10
-0.35770867701234
20
-5.14629827954846
30
0
41
1
10
-0.352495529695602
20
-5.14618209741417
30
0
41
1
10
-0.342356257615734
20
-5.14777530545462
30
0
41
1
10
-0.337316914191888
20
-5.1495007928761
30
0
41
1
10
-0.32635373840418
20
-5.15512166080455
30
0
41
1
10
-0.320571087776045
20
-5.15961290941803
30
0
41
1
10
-0.306345382412019
20
-5.17348963231112
30
0
41
1
10
-0.298929389281341
20
-5.1841444040335
30
0
41
1
10
-0.27264918279883
20
-5.22929437458617
30
0
41
1
10
-0.260939846150848
20
-5.26761390191822
30
0
41
1
10
-0.210796530798689
20
-5.46289223314824
30
0
41
1
10
-0.204366482898251
20
-5.62478131775705
30
0
41
1
10
-0.200325121553306
20
-5.8154278903541
30
0
41
1
10
-0.200000000000046
20
-5.8484679854401
30
0
41
1
10
-0.200000000000046
20
-5.88142452370542
30
0
0
SPLINE
5
104
100
AcDbEntity
8
SK1
62
256
6
ByLayer
370
-1
48
1
60
0
100
AcDbSpline
70
4
71
3
72
26
73
22
40
0
40
0
40
0
40
0
40
0.466011607458034
40
0.466011607458034
40
0.67024046630168
40
0.67024046630168
40
0.77456727018221
40
0.77456727018221
40
0.857070717706419
40
0.857070717706419
40
0.898538406950324
40
0.898538406950324
40
0.918045307993239
40
0.918045307993239
40
0.937772855809251
40
0.937772855809251
40
0.955553297254221
40
0.955553297254221
40
0.984230712729842
40
0.984230712729842
40
1
40
1
40
1
40
1
41
1
10
-0.200000000000046
20
5.88142397393347
30
0
41
1
10
-0.200000000000046
20
5.75538988127934
30
0
41
1
10
-0.204053336884726
20
5.62782146467677
30
0
41
1
10
-0.224291300237951
20
5.44372978251536
30
0
41
1
10
-0.232375898168357
20
5.3873284499669
30
0
41
1
10
-0.251389677244674
20
5.30297629006839
30
0
41
1
10
-0.259003952916999
20
5.27447755328694
30
0
41
1
10
-0.277073232762461
20
5.22483382882945
30
0
41
1
10
-0.286541211569727
20
5.20296176881411
30
0
41
1
10
-0.306529791401147
20
5.17375294403038
30
0
41
1
10
-0.314426911926432
20
5.1643717298173
30
0
41
1
10
-0.328481919155991
20
5.15398148698225
30
0
41
1
10
-0.333472930985636
20
5.15114386616668
30
0
41
1
10
-0.343977733072507
20
5.14732547572157
30
0
41
1
10
-0.349636276202261
20
5.14634920679938
30
0
41
1
10
-0.360093315739675
20
5.1465317925306
30
0
41
1
10
-0.365036235354125
20
5.14747094480913
30
0
41
1
10
-0.377122372198698
20
5.15149960910935
30
0
41
1
10
-0.384002450469666
20
5.1555505154767
30
0
41
1
10
-0.393629001799525
20
5.16285427826699
30
0
41
1
10
-0.39689046960973
20
5.16568716298278
30
0
41
1
10
-0.400000000000034
20
5.16866679574503
30
0
0
SPLINE
5
105
100
AcDbEntity
8
SK1
62
256
6
ByLayer
370
-1
48
1
60
0
100
AcDbSpline
70
4
71
3
72
10
73
6
40
0
40
0
40
0
40
0
40
0.5
40
0.5
40
1
40
1
40
1
40
1
41
1
10
-1.30710678118658
20
-3.80474436172742
30
0
41
1
10
-1.52921682270318
20
-2.59907728352434
30
0
41
1
10
-1.70909405340865
20
-1.31281235086666
30
0
41
1
10
-1.70963179300867
20
1.30649832374493
30
0
41
1
10
-1.52966155970608
20
2.5966617696443
30
0
41
1
10
-1.30710678118663
20
3.80474664113297
30
0
0
SPLINE
5
106
100
AcDbEntity
8
SK1
62
256
6
ByLayer
370
-1
48
1
60
0
100
AcDbSpline
70
4
71
3
72
14
73
10
40
0
40
0
40
0
40
0
40
0.103084720937158
40
0.255613416256898
40
0.408142111576637
40
0.560670806896377
40
0.713199502216117
40
0.865728197535857
40
1
40
1
40
1
40
1
41
1
10
-2.19999999999999
20
15.0247808648858
30
0
41
1
10
-2.19999999999999
20
14.8960266306386
30
0
41
1
10
-2.19999999999999
20
14.564952857959
30
0
41
1
10
-2.19999999999999
20
13.9919277482646
30
0
41
1
10
-2.20000000000005
20
13.2962224496515
30
0
41
1
10
-2.20000000000005
20
12.5546840468425
30
0
41
1
10
-2.20000000000005
20
11.7758177229786
30
0
41
1
10
-2.20000000000005
20
11.0011294486509
30
0
41
1
10
-2.20000000000005
20
10.4846854347648
30
0
41
1
10
-2.20000000000005
20
10.2416915117918
30
0
0
SPLINE
5
107
100
AcDbEntity
8
SK1
62
256
6
ByLayer
370
-1
48
1
60
0
100
AcDbSpline
70
4
71
3
72
17
73
13
40
0
40
0
40
0
40
0
40
0.110194179073642
40
0.207159350519493
40
0.289521354065322
40
0.357566577979378
40
0.413195246897405
40
0.459692315386429
40
0.501341811377897
40
0.74942055556068
40
0.882505839912813
40
1
40
1
40
1
40
1
41
1
10
-2.20000000000005
20
10.2416915117918
30
0
41
1
10
-2.19999987208661
20
9.61581012386935
30
0
41
1
10
-2.19999963161598
20
8.43918552432854
30
0
41
1
10
-2.19999709569765
20
6.58740471337407
30
0
41
1
10
-2.19999227726788
20
4.89775372844778
30
0
41
1
10
-2.19998489607877
20
3.4082650609613
30
0
41
1
10
-2.19997337349054
20
2.12754037920914
30
0
41
1
10
-2.19995947696651
20
1.01624689806425
30
0
41
1
10
-2.19989354341641
20
-1.61912962424546
30
0
41
1
10
-2.20000234091822
20
-4.9046933627387
30
0
41
1
10
-2.19999748284147
20
-8.14219717433133
30
0
41
1
10
-2.19999919648836
20
-9.5715043461004
30
0
41
1
10
-2.20000000000005
20
-10.2416919827174
30
0
0
SPLINE
5
108
100
AcDbEntity
8
SK1
62
256
6
ByLayer
370
-1
48
1
60
0
100
AcDbSpline
70
4
71
3
72
20
73
16
40
0
40
0
40
0
40
0
40
0.0482625705635243
40
0.0482625705635243
40
0.325220898603851
40
0.325220898603851
40
0.463381471379487
40
0.463381471379487
40
0.601551524434535
40
0.601551524434535
40
0.739735425204153
40
0.739735425204153
40
0.877939603517083
40
0.877939603517083
40
1
40
1
40
1
40
1
41
1
10
-2.19999999999999
20
-15.024780913897
30
0
41
1
10
-2.19999999999999
20
-15.0987632316058
30
0
41
1
10
-2.19999999163144
20
-15.1713153633957
30
0
41
1
10
-2.19999985652709
20
-15.6498272161843
30
0
41
1
10
-2.19999939887509
20
-16.0101821224506
30
0
41
1
10
-2.19999683011554
20
-16.4712024133173
30
0
41
1
10
-2.19999564996834
20
-16.6117543332689
30
0
41
1
10
-2.19999230715831
20
-16.8650200442632
30
0
41
1
10
-2.19999013861343
20
-16.9778482087754
30
0
41
1
10
-2.19998437020206
20
-17.1737303581388
30
0
41
1
10
-2.19998076728285
20
-17.2568757984567
30
0
41
1
10
-2.19997155592222
20
-17.390896629152
30
0
41
1
10
-2.19996594630391
20
-17.4418577268988
30
0
41
1
10
-2.19995283284743
20
-17.5043876537353
30
0
41
1
10
-2.19994561248376
20
-17.5199107584738
30
0
41
1
10
-2.19993704319938
20
-17.5200998959623
30
0
0
SPLINE
5
109
100
AcDbEntity
8
SK1
62
256
6
ByLayer
370
-1
48
1
60
0
100
AcDbSpline
70
4
71
3
72
20
73
16
40
0
40
0
40
0
40
0
40
0.107709859712448
40
0.107709859712448
40
0.254805889930755
40
0.254805889930755
40
0.401872722902776
40
0.401872722902776
40
0.548920274139869
40
0.548920274139869
40
0.695955076709578
40
0.695955076709578
40
0.842981467916519
40
0.842981467916519
40
1
40
1
40
1
40
1
41
1
10
-2.19993655780451
20
17.5200998571237
30
0
41
1
10
-2.19994418187719
20
17.5204461970836
30
0
41
1
10
-2.19995074650438
20
17.5087568436244
30
0
41
1
10
-2.19996422500265
20
17.4552443316022
30
0
41
1
10
-2.19997041029711
20
17.4038992989506
30
0
41
1
10
-2.19998045819511
20
17.2645372816575
30
0
41
1
10
-2.19998432672412
20
17.1764163911093
30
0
41
1
10
-2.19999043378135
20
16.9665639550929
30
0
41
1
10
-2.19999267824221
20
16.8447172876608
30
0
41
1
10
-2.19999607391787
20
16.569798663462
30
0
41
1
10
-2.1999972302832
20
16.4165791409565
30
0
41
1
10
-2.19999885859687
20
16.0808080953317
30
0
41
1
10
-2.19999933084273
20
15.8980848535623
30
0
41
1
10
-2.19999991533382
20
15.4916218225697
30
0
41
1
10
-2.19999999999999
20
15.2657541717873
30
0
41
1
10
-2.19999999999999
20
15.0247808645654
30
0
0
SPLINE
5
10A
100
AcDbEntity
8
SK1
62
256
6
ByLayer
370
-1
48
1
60
0
100
AcDbSpline
70
4
71
3
72
14
73
10
40
0
40
0
40
0
40
0
40
0.134271728867906
40
0.286800437365241
40
0.439329145862575
40
0.591857854359909
40
0.744386562857243
40
0.896915271354578
40
1
40
1
40
1
40
1
41
1
10
-2.20000000000005
20
-10.2416919827174
30
0
41
1
10
-2.20000000000005
20
-10.4846857903794
30
0
41
1
10
-2.20000000000005
20
-11.0011299966239
30
0
41
1
10
-2.20000000000005
20
-11.7758175215927
30
0
41
1
10
-2.20000000000005
20
-12.5546844263156
30
0
41
1
10
-2.20000000000005
20
-13.296222281691
30
0
41
1
10
-2.19999999999999
20
-13.9919280373692
30
0
41
1
10
-2.19999999999999
20
-14.5649527853411
30
0
41
1
10
-2.19999999999999
20
-14.896026651443
30
0
41
1
10
-2.19999999999999
20
-15.0247809138965
30
0
0
SPLINE
5
10B
100
AcDbEntity
8
SK1
62
256
6
ByLayer
370
-1
48
1
60
0
100
AcDbSpline
70
4
71
3
72
30
73
26
40
0
40
0
40
0
40
0
40
0.0497716373189241
40
0.0497716373189241
40
0.162165060350991
40
0.162165060350991
40
0.274558483383058
40
0.274558483383058
40
0.386951906415125
40
0.386951906415125
40
0.443148617931158
40
0.443148617931158
40
0.499345329447191
40
0.499345329447191
40
0.555542040963225
40
0.555542040963225
40
0.611738752479258
40
0.611738752479258
40
0.724132175511325
40
0.724132175511325
40
0.836525598543391
40
0.836525598543391
40
0.948919021575458
40
0.948919021575458
40
1
40
1
40
1
40
1
41
1
10
-30.0000000000001
20
15.9403409240788
30
0
41
1
10
-30
20
15.9313679672385
30
0
41
1
10
-30
20
15.841212574255
30
0
41
1
10
-30
20
15.3551226444405
30
0
41
1
10
-30
20
14.7035612713569
30
0
41
1
10
-30
20
12.913904143316
30
0
41
1
10
-30
20
11.8006404644985
30
0
41
1
10
-30
20
9.09737074779505
30
0
41
1
10
-30
20
7.56524038449703
30
0
41
1
10
-30
20
4.91120745530117
30
0
41
1
10
-30
20
3.98120598160401
30
0
41
1
10
-30
20
2.00408086722498
30
0
41
1
10
-30
20
0.965918145527041
30
0
41
1
10
-30
20
-1.14866982454436
30
0
41
1
10
-30
20
-2.16166354374221
30
0
41
1
10
-30
20
-4.13146551345224
30
0
41
1
10
-30
20
-5.04792648915179
30
0
41
1
10
-30
20
-7.66128536670072
30
0
41
1
10
-30
20
-9.21076433484396
30
0
41
1
10
-30
20
-11.849267368353
30
0
41
1
10
-30
20
-12.9852614660311
30
0
41
1
10
-30
20
-14.7262518878428
30
0
41
1
10
-30
20
-15.3817060642258
30
0
41
1
10
-30
20
-15.855784689269
30
0
41
1
10
-30
20
-15.9426612636439
30
0
41
1
10
-30
20
-15.9428910476841
30
0
0
SPLINE
5
10C
100
AcDbEntity
8
SK1
62
256
6
ByLayer
370
-1
48
1
60
0
100
AcDbSpline
70
4
71
3
72
30
73
26
40
0
40
0
40
0
40
0
40
0.0455741141106767
40
0.0455741141106767
40
0.159049672148228
40
0.159049672148228
40
0.272525230185779
40
0.272525230185779
40
0.38600078822333
40
0.38600078822333
40
0.442738567242106
40
0.442738567242106
40
0.499476346260881
40
0.499476346260881
40
0.556214125279657
40
0.556214125279657
40
0.612951904298432
40
0.612951904298432
40
0.726427462335984
40
0.726427462335984
40
0.839903020373535
40
0.839903020373535
40
0.953378578411086
40
0.953378578411086
40
1
40
1
40
1
40
1
41
1
10
-28.5003225413392
20
-16.856596786668
30
0
41
1
10
-28.5000340669861
20
-16.837645923596
30
0
41
1
10
-28.4997859155416
20
-16.7493118016108
30
0
41
1
10
-28.4990096724341
20
-16.2729938374631
30
0
41
1
10
-28.4986372996478
20
-15.5898791582816
30
0
41
1
10
-28.4982166150499
20
-13.7831948847497
30
0
41
1
10
-28.4981553816128
20
-12.6061661210532
30
0
41
1
10
-28.4983351299001
20
-9.86418151693283
30
0
41
1
10
-28.4986074380835
20
-8.25375111866762
30
0
41
1
10
-28.4992036819074
20
-5.50138802951523
30
0
41
1
10
-28.4994883437258
20
-4.53085409634477
30
0
41
1
10
-28.5000751939889
20
-2.41173377014363
30
0
41
1
10
-28.5004477674112
20
-1.29663162177331
30
0
41
1
10
-28.5004967455741
20
1.09102073027188
30
0
41
1
10
-28.5001241479799
20
2.2401723307652
30
0
41
1
10
-28.4995330545162
20
4.37057072068765
30
0
41
1
10
-28.4992388617691
20
5.35704789398332
30
0
41
1
10
-28.4986284127516
20
8.15325541572716
30
0
41
1
10
-28.4983486589648
20
9.7461643015493
30
0
41
1
10
-28.4981532155241
20
12.5558253675992
30
0
41
1
10
-28.4982075437695
20
13.7091738077836
30
0
41
1
10
-28.4986240668147
20
15.5662992382396
30
0
41
1
10
-28.4989853639464
20
16.2452515155336
30
0
41
1
10
-28.499764166072
20
16.7407877212611
30
0
41
1
10
-28.5000170119339
20
16.8337365657541
30
0
41
1
10
-28.5003124431468
20
16.8540125118009
30
0
0
LINE
5
49
100
AcDbEntity
8
80
62
256
6
ByLayer
370
-1
48
1
60
0
100
AcDbLine
10
0
20
0
30
0
11
-10
21
0
31
0
39
0
210
0
220
0
230
1
0
LINE
5
4A
100
AcDbEntity
8
81
62
256
6
ByLayer
370
-1
48
1
60
0
100
AcDbLine
10
70
20
-10.9
30
0
11
80
21
-10.9
31
0
39
0
210
0
220
0
230
1
0
LINE
5
4B
100
AcDbEntity
8
SK4
62
256
6
ByLayer
370
-1
48
0.05
60
0
100
AcDbLine
10
-35
20
0
30
0
11
75.396172
21
0
31
0
39
0
210
0
220
0
230
1
0
LINE
5
4D
100
AcDbEntity
8
4
62
256
6
ByLayer
370
-1
48
0.05
60
0
100
AcDbLine
10
0
20
0
30
0
11
105.396172
21
0
31
0
39
0
210
0
220
0
230
1
0
LINE
5
4F
100
AcDbEntity
8
1
62
256
6
ByLayer
370
-1
48
1
60
0
100
AcDbLine
10
0.3
20
25
30
0
11
0
21
24.7
31
0
39
0
210
0
220
0
230
1
0
LINE
5
50
100
AcDbEntity
8
1
62
256
6
ByLayer
370
-1
48
1
60
0
100
AcDbLine
10
0
20
-24.7
30
0
11
0.3
21
-25
31
0
39
0
210
0
220
0
230
1
0
LINE
5
51
100
AcDbEntity
8
1
62
256
6
ByLayer
370
-1
48
1
60
0
100
AcDbLine
10
19.5
20
-25
30
0
11
22.818182
21
-12.464645
31
0
39
0
210
0
220
0
230
1
0
LINE
5
52
100
AcDbEntity
8
1
62
256
6
ByLayer
370
-1
48
1
60
0
100
AcDbLine
10
22.818182
20
12.464645
30
0
11
19.5
21
25
31
0
39
0
210
0
220
0
230
1
0
LINE
5
53
100
AcDbEntity
8
1
62
256
6
ByLayer
370
-1
48
1
60
0
100
AcDbLine
10
19.5
20
25
30
0
11
0.3
21
25
31
0
39
0
210
0
220
0
230
1
0
LINE
5
54
100
AcDbEntity
8
1
62
256
6
ByLayer
370
-1
48
1
60
0
100
AcDbLine
10
0.3
20
-25
30
0
11
19.5
21
-25
31
0
39
0
210
0
220
0
230
1
0
LINE
5
55
100
AcDbEntity
8
1
62
256
6
ByLayer
370
-1
48
1
60
0
100
AcDbLine
10
52.529907
20
8
30
0
11
28.618414
21
8
31
0
39
0
210
0
220
0
230
1
0
LINE
5
56
100
AcDbEntity
8
1
62
256
6
ByLayer
370
-1
48
1
60
0
100
AcDbLine
10
28.618414
20
-8
30
0
11
54.529907
21
-8
31
0
39
0
210
0
220
0
230
1
0
LINE
5
57
100
AcDbEntity
8
1
62
256
6
ByLayer
370
-1
48
1
60
0
100
AcDbLine
10
54.529907
20
-8
30
0
11
56.490759
21
-9.132099
31
0
39
0
210
0
220
0
230
1
0
LINE
5
58
100
AcDbEntity
8
1
62
256
6
ByLayer
370
-1
48
1
60
0
100
AcDbLine
10
56.490759
20
-9.132099
30
0
11
56.644806
21
-9.145798
31
0
39
0
210
0
220
0
230
1
0
LINE
5
59
100
AcDbEntity
8
1
62
256
6
ByLayer
370
-1
48
1
60
0
100
AcDbLine
10
60.24167
20
-0.670242
30
0
11
59.98771
21
-0.871734
31
0
39
0
210
0
220
0
230
1
0
LINE
5
5A
100
AcDbEntity
8
1
62
256
6
ByLayer
370
-1
48
1
60
0
100
AcDbLine
10
68.893216
20
-1.482397
30
0
11
68.728474
21
-1.393216
31
0
39
0
210
0
220
0
230
1
0
LINE
5
5B
100
AcDbEntity
8
1
62
256
6
ByLayer
370
-1
48
1
60
0
100
AcDbLine
10
65.48195
20
-4.388181
30
0
11
65.491295
21
-4.495
31
0
39
0
210
0
220
0
230
1
0
LINE
5
5C
100
AcDbEntity
8
1
62
256
6
ByLayer
370
-1
48
1
60
0
100
AcDbLine
10
62.209953
20
-5.800719
30
0
11
62.224266
21
-5.964309
31
0
39
0
210
0
220
0
230
1
0
LINE
5
5D
100
AcDbEntity
8
1
62
256
6
ByLayer
370
-1
48
1
60
0
100
AcDbLine
10
67.454288
20
-5.506741
30
0
11
67.439976
21
-5.343151
31
0
39
0
210
0
220
0
230
1
0
LINE
5
5E
100
AcDbEntity
8
1
62
256
6
ByLayer
370
-1
48
1
60
0
100
AcDbLine
10
63.696465
20
-5.196262
30
0
11
63.681313
21
-5.023082
31
0
39
0
210
0
220
0
230
1
0
LINE
5
5F
100
AcDbEntity
8
1
62
256
6
ByLayer
370
-1
48
1
60
0
100
AcDbLine
10
65.967979
20
-6.113514
30
0
11
65.983192
21
-6.287398
31
0
39
0
210
0
220
0
230
1
0
LINE
5
60
100
AcDbEntity
8
1
62
256
6
ByLayer
370
-1
48
1
60
0
100
AcDbLine
10
64.190643
20
-7.014744
30
0
11
64.174319
21
-6.828158
31
0
39
0
210
0
220
0
230
1
0
LINE
5
61
100
AcDbEntity
8
1
62
256
6
ByLayer
370
-1
48
1
60
0
100
AcDbLine
10
59.060675
20
-2.512866
30
0
11
59.038549
21
-2.272199
31
0
39
0
210
0
220
0
230
1
0
LINE
5
62
100
AcDbEntity
8
1
62
256
6
ByLayer
370
-1
48
1
60
0
100
AcDbLine
10
52.529907
20
8
30
0
11
54.529907
21
7.290465
31
0
39
0
210
0
220
0
230
1
0
LINE
5
63
100
AcDbEntity
8
1
62
256
6
ByLayer
370
-1
48
1
60
0
100
AcDbLine
10
8.538675
20
23.83913
30
0
11
8.538675
21
7.529667
31
0
39
0
210
0
220
0
230
1
0
LINE
5
64
100
AcDbEntity
8
1
62
256
6
ByLayer
370
-1
48
1
60
0
100
AcDbLine
10
11.894338
20
-8.055848
30
0
11
11.894338
21
-23.666502
31
0
39
0
210
0
220
0
230
1
0
LINE
5
65
100
AcDbEntity
8
1
62
256
6
ByLayer
370
-1
48
1
60
0
100
AcDbLine
10
8.538675
20
-7.529667
30
0
11
8.538675
21
-23.83913
31
0
39
0
210
0
220
0
230
1
0
LINE
5
66
100
AcDbEntity
8
1
62
256
6
ByLayer
370
-1
48
1
60
0
100
AcDbLine
10
11.461325
20
23.83913
30
0
11
11.461325
21
7.529667
31
0
39
0
210
0
220
0
230
1
0
LINE
5
67
100
AcDbEntity
8
1
62
256
6
ByLayer
370
-1
48
1
60
0
100
AcDbLine
10
59.021337
20
-1.595232
30
0
11
59.049337
21
-1.915267
31
0
39
0
210
0
220
0
230
1
0
LINE
5
68
100
AcDbEntity
8
1
62
256
6
ByLayer
370
-1
48
1
60
0
100
AcDbLine
10
8.538675
20
7.529667
30
0
11
11.461325
21
7.529667
31
0
39
0
210
0
220
0
230
1
0
LINE
5
69
100
AcDbEntity
8
1
62
256
6
ByLayer
370
-1
48
1
60
0
100
AcDbLine
10
68.873147
20
-1.405604
30
0
11
68.547417
21
2.317509
31
0
39
0
210
0
220
0
230
1
0
LINE
5
6A
100
AcDbEntity
8
1
62
256
6
ByLayer
370
-1
48
1
60
0
100
AcDbLine
10
11.461325
20
23.83913
30
0
11
8.538675
21
23.83913
31
0
39
0
210
0
220
0
230
1
0
LINE
5
6B
100
AcDbEntity
8
1
62
256
6
ByLayer
370
-1
48
1
60
0
100
AcDbLine
10
56.085425
20
-8.897944
30
0
11
59.947007
21
5.368654
31
0
39
0
210
0
220
0
230
1
0
LINE
5
6C
100
AcDbEntity
8
1
62
256
6
ByLayer
370
-1
48
1
60
0
100
AcDbLine
10
8.538675
20
-23.83913
30
0
11
11.461325
21
-23.83913
31
0
39
0
210
0
220
0
230
1
0
LINE
5
6D
100
AcDbEntity
8
1
62
256
6
ByLayer
370
-1
48
1
60
0
100
AcDbLine
10
54.529907
20
6.925713
30
0
11
54.529907
21
7.290465
31
0
39
0
210
0
220
0
230
1
0
LINE
5
6E
100
AcDbEntity
8
1
62
256
6
ByLayer
370
-1
48
1
60
0
100
AcDbLine
10
58.906512
20
-2.482303
30
0
11
59.038549
21
-2.272199
31
0
39
0
210
0
220
0
230
1
0
LINE
5
6F
100
AcDbEntity
8
1
62
256
6
ByLayer
370
-1
48
1
60
0
100
AcDbLine
10
28.618414
20
-8
30
0
11
28.618414
21
8
31
0
39
0
210
0
220
0
230
1
0
LINE
5
70
100
AcDbEntity
8
1
62
256
6
ByLayer
370
-1
48
1
60
0
100
AcDbLine
10
59.03414
20
-2.209568
30
0
11
59.060675
21
-2.512866
31
0
39
0
210
0
220
0
230
1
0
LINE
5
71
100
AcDbEntity
8
1
62
256
6
ByLayer
370
-1
48
1
60
0
100
AcDbLine
10
59.947007
20
5.368654
30
0
11
68.547417
21
2.317509
31
0
39
0
210
0
220
0
230
1
0
LINE
5
72
100
AcDbEntity
8
1
62
256
6
ByLayer
370
-1
48
1
60
0
100
AcDbLine
10
0.3
20
25
30
0
11
0.3
21
-25
31
0
39
0
210
0
220
0
230
1
0
LINE
5
73
100
AcDbEntity
8
1
62
256
6
ByLayer
370
-1
48
1
60
0
100
AcDbLine
10
11.894338
20
23.666502
30
0
11
11.894338
21
8.055848
31
0
39
0
210
0
220
0
230
1
0
LINE
5
74
100
AcDbEntity
8
1
62
256
6
ByLayer
370
-1
48
1
60
0
100
AcDbLine
10
22.818182
20
12.464645
30
0
11
22.818182
21
-12.464645
31
0
39
0
210
0
220
0
230
1
0
LINE
5
75
100
AcDbEntity
8
1
62
256
6
ByLayer
370
-1
48
1
60
0
100
AcDbLine
10
8.105662
20
23.666502
30
0
11
8.105662
21
8.055848
31
0
39
0
210
0
220
0
230
1
0
LINE
5
76
100
AcDbEntity
8
1
62
256
6
ByLayer
370
-1
48
1
60
0
100
AcDbLine
10
11.461325
20
-7.529667
30
0
11
11.461325
21
-23.83913
31
0
39
0
210
0
220
0
230
1
0
LINE
5
77
100
AcDbEntity
8
1
62
256
6
ByLayer
370
-1
48
1
60
0
100
AcDbLine
10
58.928638
20
-2.72297
30
0
11
59.060675
21
-2.512866
31
0
39
0
210
0
220
0
230
1
0
LINE
5
78
100
AcDbEntity
8
1
62
256
6
ByLayer
370
-1
48
1
60
0
100
AcDbLine
10
54.529907
20
-8
30
0
11
54.529907
21
-7.992681
31
0
39
0
210
0
220
0
230
1
0
LINE
5
79
100
AcDbEntity
8
1
62
256
6
ByLayer
370
-1
48
1
60
0
100
AcDbLine
10
19.5
20
25
30
0
11
19.5
21
-25
31
0
39
0
210
0
220
0
230
1
0
LINE
5
7A
100
AcDbEntity
8
1
62
256
6
ByLayer
370
-1
48
1
60
0
100
AcDbLine
10
11.461325
20
-7.529667
30
0
11
8.538675
21
-7.529667
31
0
39
0
210
0
220
0
230
1
0
LINE
5
7B
100
AcDbEntity
8
1
62
256
6
ByLayer
370
-1
48
1
60
0
100
AcDbLine
10
54.949284
20
7.141684
30
0
11
59.947007
21
5.368654
31
0
39
0
210
0
220
0
230
1
0
LINE
5
7C
100
AcDbEntity
8
1
62
256
6
ByLayer
370
-1
48
1
60
0
100
AcDbLine
10
0
20
24.7
30
0
11
0
21
-24.7
31
0
39
0
210
0
220
0
230
1
0
LINE
5
7D
100
AcDbEntity
8
1
62
256
6
ByLayer
370
-1
48
1
60
0
100
AcDbLine
10
54.949284
20
7.141684
30
0
11
54.702347
21
7.229289
31
0
39
0
210
0
220
0
230
1
0
LINE
5
7E
100
AcDbEntity
8
1
62
256
6
ByLayer
370
-1
48
1
60
0
100
AcDbLine
10
58.906512
20
-2.482303
30
0
11
58.928638
21
-2.72297
31
0
39
0
210
0
220
0
230
1
0
LINE
5
7F
100
AcDbEntity
8
1
62
256
6
ByLayer
370
-1
48
1
60
0
100
AcDbLine
10
8.105662
20
-8.055848
30
0
11
8.105662
21
-23.666502
31
0
39
0
210
0
220
0
230
1
0
LINE
5
80
100
AcDbEntity
8
1
62
256
6
ByLayer
370
-1
48
1
60
0
100
AcDbLine
10
60.387596
20
-9.496141
30
0
11
59.692699
21
-1.553431
31
0
39
0
210
0
220
0
230
1
0
LINE
5
81
100
AcDbEntity
8
1
62
256
6
ByLayer
370
-1
48
1
60
0
100
AcDbLine
10
60.55361
20
-0.701601
30
0
11
68.581075
21
-1.389083
31
0
39
0
210
0
220
0
230
1
0
LINE
5
82
100
AcDbEntity
8
1
62
256
6
ByLayer
370
-1
48
1
60
0
100
AcDbLine
10
69.136107
20
-10.89705
30
0
11
61.108642
21
-10.209568
31
0
39
0
210
0
220
0
230
1
0
LINE
5
83
100
AcDbEntity
8
1
62
256
6
ByLayer
370
-1
48
1
60
0
100
AcDbLine
10
69.302121
20
-2.10251
30
0
11
69.997018
21
-10.04522
31
0
39
0
210
0
220
0
230
1
0
LINE
5
84
100
AcDbEntity
8
1
62
256
6
ByLayer
370
-1
48
1
60
0
100
AcDbLine
10
60.460151
20
-0.604557
30
0
11
61.66565
21
-0.707798
31
0
39
0
210
0
220
0
230
1
0
LINE
5
85
100
AcDbEntity
8
1
62
256
6
ByLayer
370
-1
48
1
60
0
100
AcDbLine
10
60.55361
20
-0.701601
30
0
11
60.460151
21
-0.604557
31
0
39
0
210
0
220
0
230
1
0
LINE
5
86
100
AcDbEntity
8
1
62
256
6
ByLayer
370
-1
48
1
60
0
100
AcDbLine
10
63.928726
20
-6.520784
30
0
11
63.914044
21
-6.352963
31
0
39
0
210
0
220
0
230
1
0
LINE
5
87
100
AcDbEntity
8
1
62
256
6
ByLayer
370
-1
48
1
60
0
100
AcDbLine
10
64.721549
20
-7.036925
30
0
11
64.738298
21
-7.228372
31
0
39
0
210
0
220
0
230
1
0
LINE
5
88
100
AcDbEntity
8
1
62
256
6
ByLayer
370
-1
48
1
60
0
100
AcDbLine
10
63.593246
20
-4.744615
30
0
11
63.609995
21
-4.936062
31
0
39
0
210
0
220
0
230
1
0
LINE
5
89
100
AcDbEntity
8
1
62
256
6
ByLayer
370
-1
48
1
60
0
100
AcDbLine
10
63.487546
20
-6.20926
30
0
11
63.504274
21
-6.400454
31
0
39
0
210
0
220
0
230
1
0
LINE
5
8A
100
AcDbEntity
8
1
62
256
6
ByLayer
370
-1
48
1
60
0
100
AcDbLine
10
64.031618
20
-6.469295
30
0
11
64.046301
21
-6.637116
31
0
39
0
210
0
220
0
230
1
0
LINE
5
8B
100
AcDbEntity
8
1
62
256
6
ByLayer
370
-1
48
1
60
0
100
AcDbLine
10
65.65713
20
-6.78669
30
0
11
65.67388
21
-6.978137
31
0
39
0
210
0
220
0
230
1
0
LINE
5
8C
100
AcDbEntity
8
1
62
256
6
ByLayer
370
-1
48
1
60
0
100
AcDbLine
10
65.486417
20
-4.405131
30
0
11
65.489162
21
-4.436502
31
0
39
0
210
0
220
0
230
1
0
LINE
5
8D
100
AcDbEntity
8
1
62
256
6
ByLayer
370
-1
48
1
60
0
100
AcDbLine
10
66.308942
20
-5.466275
30
0
11
66.325692
21
-5.657722
31
0
39
0
210
0
220
0
230
1
0
LINE
5
8E
100
AcDbEntity
8
SK1
62
256
6
ByLayer
370
-1
48
1
60
0
100
AcDbLine
10
-0.4
20
-17.32515
30
0
11
-0.4
21
-5.168667
31
0
39
0
210
0
220
0
230
1
0
LINE
5
90
100
AcDbEntity
8
SK1
62
256
6
ByLayer
370
-1
48
1
60
0
100
AcDbLine
10
-0.2
20
5.881424
30
0
11
-0.2
21
17.833485
31
0
39
0
210
0
220
0
230
1
0
LINE
5
91
100
AcDbEntity
8
SK1
62
256
6
ByLayer
370
-1
48
1
60
0
100
AcDbLine
10
-0.2
20
-17.833485
30
0
11
-0.2
21
-5.881425
31
0
39
0
210
0
220
0
230
1
0
LINE
5
92
100
AcDbEntity
8
SK1
62
256
6
ByLayer
370
-1
48
1
60
0
100
AcDbLine
10
-1.307107
20
-3.804744
30
0
11
-1.307107
21
3.804747
31
0
39
0
210
0
220
0
230
1
0
LINE
5
93
100
AcDbEntity
8
2
62
256
6
ByLayer
370
-1
48
1
60
1
100
AcDbLine
10
70
20
0
30
0
11
70.001
21
0.001
31
0
39
0
210
0
220
0
230
1
0
MTEXT
5
10D
100
AcDbEntity
8
SK6
62
256
6
ByLayer
370
-1
48
1
60
0
100
AcDbMText
10
-3.926914
20
34.125
30
0
210
0
220
0
230
1
1
\W00.705;\fsimplex.shx,bigfont.shx;C5-SCLCL-11070-09 
40
3.5
41
0
44
1.084337
50
0
71
7
72
5
7
DEFAULT
0
DIMENSION
5
141
100
AcDbEntity
8
SK2
62
256
6
ByLayer
370
-3
48
1
60
0
100
AcDbDimension
2
DimnDraft3D1
10
-42.75
20
-25
30
0
11
-42.75
21
-4.784211
31
0
70
32
71
5
72
1
41
1
210
0
220
0
230
1
3
Standard
100
AcDbAlignedDimension
13
-2
23
25
33
0
14
-2
24
-25
34
0
50
90
100
AcDbRotatedDimension
1001
ACAD
1000
DSTYLE
1002
{
1070
    74
1070
     0
1070
   279
1070
     0
1070
   172
1070
     1
1070
   173
1070
     1
1070
   340
1005
10E
1070
    77
1070
     1
1070
    73
1070
     0
1070
   171
1070
     4
1070
   274
1070
     4
1070
   177
1070
     2
1070
   176
1070
     2
1070
   178
1070
     7
1070
    78
1070
     8
1070
    41
1041
3.175
1070
   147
1041
2.25
1070
    42
1041
2.0
1070
    44
1041
2.0
1070
   140
1041
4.5
1070
   343
1005
142
1070
   344
1005
142
1002
}
0
DIMENSION
5
154
100
AcDbEntity
8
2
62
256
6
ByLayer
370
-3
48
1
60
0
100
AcDbDimension
2
DimnDraft3D2
10
39.25
20
8
30
0
11
39.25
21
18.255
31
0
70
32
71
5
72
1
41
1
210
0
220
0
230
1
3
Standard
100
AcDbAlignedDimension
13
24
23
8
33
0
14
0
24
0
34
0
50
90
100
AcDbRotatedDimension
1001
ACAD
1000
DSTYLE
1002
{
1070
    74
1070
     0
1070
   279
1070
     0
1070
   172
1070
     1
1070
   173
1070
     1
1070
   340
1005
10E
1070
    75
1070
     1
1070
    76
1070
     1
1070
    77
1070
     1
1070
    73
1070
     0
1070
   171
1070
     4
1070
   274
1070
     4
1070
   177
1070
     2
1070
   176
1070
     2
1070
   178
1070
     7
1070
    78
1070
     8
1070
    41
1041
3.175
1070
   147
1041
2.25
1070
    42
1041
2.0
1070
    44
1041
2.0
1070
   140
1041
4.5
1070
   343
1005
142
1070
   344
1005
142
1002
}
0
DIMENSION
5
162
100
AcDbEntity
8
2
62
256
6
ByLayer
370
-3
48
1
60
0
100
AcDbDimension
2
DimnDraft3D3
10
82.25
20
-10.9
30
0
11
82.25
21
-29.231316
31
0
70
32
71
5
72
1
41
1
210
0
220
0
230
1
3
Standard
100
AcDbAlignedDimension
13
72
23
0
33
0
14
72
24
-10.9
34
0
50
90
100
AcDbRotatedDimension
1001
ACAD
1000
DSTYLE
1002
{
1070
    74
1070
     0
1070
   279
1070
     0
1070
   172
1070
     1
1070
   173
1070
     1
1070
   340
1005
10E
1070
    77
1070
     1
1070
    73
1070
     0
1070
   171
1070
     4
1070
   274
1070
     4
1070
   177
1070
     2
1070
   176
1070
     2
1070
   178
1070
     7
1070
    78
1070
     8
1070
    41
1041
3.175
1070
   147
1041
2.25
1070
    42
1041
2.0
1070
    44
1041
2.0
1070
   140
1041
4.5
1070
   343
1005
142
1070
   344
1005
142
1002
}
0
DIMENSION
5
170
100
AcDbEntity
8
2
62
256
6
ByLayer
370
-3
48
1
60
0
100
AcDbDimension
2
DimnDraft3D4
10
108.97278
20
0
30
0
11
91.491928
21
33.925375
31
0
70
34
71
5
72
1
41
1
210
0
220
0
230
1
3
Standard
100
AcDb2LineAngularDimension
13
69.041287
23
0.058142
33
0
14
65.566558
24
39.774475
34
0
15
72
25
0
35
0
16
97.709239
26
31.280028
36
0
40
0
0
DIMENSION
5
17E
100
AcDbEntity
8
2
62
256
6
ByLayer
370
-3
48
1
60
0
100
AcDbDimension
2
DimnDraft3D5
10
70
20
-42.25
30
0
11
29.836842
21
-42.25
31
0
70
32
71
5
72
1
41
1
210
0
220
0
230
1
3
Standard
100
AcDbAlignedDimension
13
0
23
-27
33
0
14
70
24
-12.9
34
0
50
0
100
AcDbRotatedDimension
1001
ACAD
1000
DSTYLE
1002
{
1070
   279
1070
     0
1070
   172
1070
     1
1070
   173
1070
     1
1070
   340
1005
10E
1070
    77
1070
     1
1070
    73
1070
     0
1070
   171
1070
     4
1070
   274
1070
     4
1070
   177
1070
     2
1070
   176
1070
     2
1070
   178
1070
     7
1070
    78
1070
     8
1070
    41
1041
3.175
1070
   147
1041
2.25
1070
    42
1041
2.0
1070
    44
1041
2.0
1070
   140
1041
4.5
1070
   343
1005
142
1070
   344
1005
142
1002
}
0
DIMENSION
5
18C
100
AcDbEntity
8
2
62
256
6
ByLayer
370
-3
48
1
60
0
100
AcDbDimension
2
DimnDraft3D6
10
70
20
-28.15
30
0
11
41.6
21
-28.15
31
0
70
32
71
5
72
1
41
1
210
0
220
0
230
1
3
Standard
100
AcDbAlignedDimension
13
24
23
-10
33
0
14
70
24
-12.9
34
0
50
0
100
AcDbRotatedDimension
1001
ACAD
1000
DSTYLE
1002
{
1070
   279
1070
     0
1070
   172
1070
     1
1070
   173
1070
     1
1070
   340
1005
10E
1070
    77
1070
     1
1070
    73
1070
     0
1070
   171
1070
     4
1070
   274
1070
     4
1070
   177
1070
     2
1070
   176
1070
     2
1070
   178
1070
     7
1070
    78
1070
     8
1070
    41
1041
3.175
1070
   147
1041
2.25
1070
    42
1041
2.0
1070
    44
1041
2.0
1070
   140
1041
4.5
1070
   343
1005
142
1070
   344
1005
142
1002
}
0
ENDSEC
0
SECTION
2
OBJECTS
0
DICTIONARY
5
1bd
330
0
100
AcDbDictionary
280
0
281
1
3
ACAD_GROUP
350
1be
3
ACAD_MLINESTYLE
350
1bf
0
DICTIONARY
5
1be
330
0
100
AcDbDictionary
280
0
281
1
0
DICTIONARY
5
1bf
330
0
100
AcDbDictionary
280
0
281
1
3
Standard
350
18
0
MLINESTYLE
5
18
330
1bf
100
AcDbMlineStyle
2
Standard
70
0
3

62
256
51
90
52
90
71
2
49
-0.5
62
256
6
ByLayer
49
0.5
62
256
6
ByLayer
0
RASTERVARIABLES
5
1ab
330

100
AcDbRasterVariables
90
0
70
1
71
1
72
1
0
ENDSEC
0
EOF
