0
SECTION
2
HEADER
9
$ACADVER
1
AC1015
9
$DWGCODEPAGE
3
ANSI_1252
9
$HANDSEED
5
216
9
$ANGBASE
50
0
9
$ANGDIR
70
0
9
$ATTMODE
70
1
9
$AUNITS
70
0
9
$AUPREC
70
0
9
$CECOLOR
62
256
9
$CELTSCALE
40
1
9
$CELTYPE
6
ByLayer
9
$CELWEIGHT
370
18
9
$CLAYER
8
0
9
$CMLJUST
70
0
9
$CMLSCALE
40
1
9
$CMLSTYLE
2
Standard
9
$DIMSTYLE
2
Standard
9
$TEXTSIZE
40
0.2
9
$TEXTSTYLE
7
Standard
9
$LUNITS
70
2
9
$LUPREC
70
4
9
$EXTNAMES
290
1
9
$INSUNITS
70
4
9
$LTSCALE
40
1
9
$LWDISPLAY
290
1
9
$PDMODE
70
0
9
$PDSIZE
40
0
9
$PLINEGEN
70
0
0
ENDSEC
0
SECTION
2
CLASSES
0
CLASS
1
RASTERVARIABLES
2
AcDbRasterVariables
3
ISM
90
0
280
0
281
0
0
ENDSEC
0
SECTION
2
TABLES
0
TABLE
2
VPORT
5
20c
100
AcDbSymbolTable
0
VPORT
5
1
100
AcDbSymbolTableRecord
100
AcDbViewportTableRecord
2
*Active
70
0
10
0
20
0
11
1
21
1
12
-1
22
1
13
0
23
0
14
0.5
24
0.5
15
10
25
10
16
0
26
0
36
1
17
0
27
0
37
0
0
ENDTAB
0
TABLE
2
LTYPE
5
20d
100
AcDbSymbolTable
0
LTYPE
5
14
100
AcDbSymbolTableRecord
100
AcDbLinetypeTableRecord
70
0
2
ByBlock
3

72
65
73
0
40
0
0
LTYPE
5
15
100
AcDbSymbolTableRecord
100
AcDbLinetypeTableRecord
70
0
2
ByLayer
3

72
65
73
0
40
0
0
LTYPE
5
16
100
AcDbSymbolTableRecord
100
AcDbLinetypeTableRecord
70
0
2
CONTINUOUS
3
Solid line
72
65
73
0
40
0
0
LTYPE
5
6A
100
AcDbSymbolTableRecord
100
AcDbLinetypeTableRecord
70
0
2
CENTER
3
____ _ ____ _ ____ _ ____
72
65
73
4
40
47.5
49
22
74
0
49
-8.5
74
0
49
8.5
74
0
49
-8.5
74
0
0
LTYPE
5
6B
100
AcDbSymbolTableRecord
100
AcDbLinetypeTableRecord
70
0
2
DASHED
3
__ __ __ __ __ __ __ __ __
72
65
73
2
40
25.72
49
12.86
74
0
49
-12.86
74
0
0
ENDTAB
0
TABLE
2
LAYER
5
20e
100
AcDbSymbolTable
0
LAYER
5
10
100
AcDbSymbolTableRecord
100
AcDbLayerTableRecord
2
0
70
0
62
7
6
CONTINUOUS
290
1
370
-3
390
0
0
LAYER
5
6D
100
AcDbSymbolTableRecord
100
AcDbLayerTableRecord
2
2
70
0
62
7
6
CONTINUOUS
290
1
370
-3
390
0
0
LAYER
5
72
100
AcDbSymbolTableRecord
100
AcDbLayerTableRecord
2
80
70
0
62
-6
6
CONTINUOUS
290
1
370
-3
390
0
0
LAYER
5
74
100
AcDbSymbolTableRecord
100
AcDbLayerTableRecord
2
81
70
0
62
-3
6
CONTINUOUS
290
1
370
-3
390
0
0
LAYER
5
77
100
AcDbSymbolTableRecord
100
AcDbLayerTableRecord
2
1
70
0
62
4
6
CONTINUOUS
290
1
370
-3
390
0
0
LAYER
5
7D
100
AcDbSymbolTableRecord
100
AcDbLayerTableRecord
2
4
70
0
62
-2
6
CENTER
290
1
370
-3
390
0
0
LAYER
5
E2
100
AcDbSymbolTableRecord
100
AcDbLayerTableRecord
2
62
70
0
62
-5
6
CONTINUOUS
290
1
370
-3
390
0
0
LAYER
5
1f7
100
AcDbSymbolTableRecord
100
AcDbLayerTableRecord
2
CUT
70
0
62
-1
6
CONTINUOUS
290
1
370
-3
390
0
0
LAYER
5
1f8
100
AcDbSymbolTableRecord
100
AcDbLayerTableRecord
2
SK4
70
0
62
2
6
CENTER
290
1
370
-3
390
0
0
LAYER
5
1f9
100
AcDbSymbolTableRecord
100
AcDbLayerTableRecord
2
SK1
70
0
62
4
6
CONTINUOUS
290
1
370
-3
390
0
0
LAYER
5
1fa
100
AcDbSymbolTableRecord
100
AcDbLayerTableRecord
2
SK6
70
0
62
5
6
CONTINUOUS
290
1
370
-3
390
0
0
LAYER
5
1fb
100
AcDbSymbolTableRecord
100
AcDbLayerTableRecord
2
SK2
70
0
62
7
6
CONTINUOUS
290
1
370
-3
390
0
0
ENDTAB
0
TABLE
2
STYLE
5
20f
100
AcDbSymbolTable
0
STYLE
5
11
100
AcDbSymbolTableRecord
100
AcDbTextStyleTableRecord
2
Standard
3
txt
70
0
71
0
40
0
41
1
42
0
50
0
0
STYLE
5
14D
100
AcDbSymbolTableRecord
100
AcDbTextStyleTableRecord
2
iso_b_vert
3
simplex.shx
70
0
71
0
40
0
41
1
42
0
50
0
0
STYLE
5
14E
100
AcDbSymbolTableRecord
100
AcDbTextStyleTableRecord
2
DWGDirectTextStyle
3
simplex
70
0
71
0
40
0
41
1
42
0
50
0
0
ENDTAB
0
TABLE
2
DIMSTYLE
5
210
100
AcDbSymbolTable
100
AcDbDimStyleTable
0
DIMSTYLE
105
27
100
AcDbSymbolTableRecord
100
AcDbDimStyleTableRecord
2
Standard
70
0
3
<>
41
0.18
42
0.0625
44
0.18
140
0.18
147
0.09
73
0
74
0
77
1
271
2
275
0
278
52
280
0
340
11
0
ENDTAB
0
TABLE
2
VIEW
5
211
100
AcDbSymbolTable
0
ENDTAB
0
TABLE
2
UCS
5
212
100
AcDbSymbolTable
0
ENDTAB
0
TABLE
2
APPID
5
213
100
AcDbSymbolTable
0
APPID
5
12
100
AcDbSymbolTableRecord
100
AcDbRegAppTableRecord
2
ACAD
70
0
0
ENDTAB
0
TABLE
2
BLOCK_RECORD
5
214
100
AcDbSymbolTable
0
BLOCK_RECORD
5
1F
100
AcDbSymbolTableRecord
100
AcDbBlockTableRecord
2
*Model_Space
340
0
70
0
0
BLOCK_RECORD
5
1B
100
AcDbSymbolTableRecord
100
AcDbBlockTableRecord
2
*Paper_Space
340
0
70
0
0
BLOCK_RECORD
5
23
100
AcDbSymbolTableRecord
100
AcDbBlockTableRecord
2
*Paper_Space0
340
0
70
0
0
BLOCK_RECORD
5
150
100
AcDbSymbolTableRecord
100
AcDbBlockTableRecord
2
DimnDraft3D1
340
0
70
0
0
BLOCK_RECORD
5
15F
100
AcDbSymbolTableRecord
100
AcDbBlockTableRecord
2
_CLOSED
340
0
70
0
0
BLOCK_RECORD
5
166
100
AcDbSymbolTableRecord
100
AcDbBlockTableRecord
2
DimnDraft3D2
340
0
70
0
0
BLOCK_RECORD
5
174
100
AcDbSymbolTableRecord
100
AcDbBlockTableRecord
2
DimnDraft3D3
340
0
70
0
0
BLOCK_RECORD
5
182
100
AcDbSymbolTableRecord
100
AcDbBlockTableRecord
2
DimnDraft3D4
340
0
70
0
0
BLOCK_RECORD
5
190
100
AcDbSymbolTableRecord
100
AcDbBlockTableRecord
2
DimnDraft3D5
340
0
70
0
0
ENDTAB
0
ENDSEC
0
SECTION
2
BLOCKS
0
BLOCK
5
20
100
AcDbEntity
8
0
100
AcDbBlockBegin
2
*Model_Space
70
0
10
0
20
0
30
0
3
*Model_Space
0
ENDBLK
5
21
100
AcDbEntity
8
0
100
AcDbBlockEnd
0
BLOCK
5
1C
100
AcDbEntity
8
0
100
AcDbBlockBegin
2
*Paper_Space
70
0
10
0
20
0
30
0
3
*Paper_Space
0
ENDBLK
5
1D
100
AcDbEntity
8
0
100
AcDbBlockEnd
0
BLOCK
5
24
100
AcDbEntity
8
0
100
AcDbBlockBegin
2
*Paper_Space0
70
0
10
0
20
0
30
0
3
*Paper_Space0
0
ENDBLK
5
25
100
AcDbEntity
8
0
100
AcDbBlockEnd
0
BLOCK
5
15C
100
AcDbEntity
8
0
100
AcDbBlockBegin
2
DimnDraft3D1
70
0
10
0
20
0
30
0
3
DimnDraft3D1
0
MTEXT
5
151
100
AcDbEntity
8
SK2
62
256
6
ByLayer
370
18
48
1
60
0
100
AcDbMText
10
-45.875
20
-1.563158
30
0
210
0
220
0
230
1
1
\W0.6740;50
40
4.5
41
0
44
1.084337
50
90
71
7
72
5
7
iso_b_vert
0
LINE
5
153
100
AcDbEntity
8
SK2
62
256
6
ByLayer
370
13
48
1
60
0
100
AcDbLine
10
-1.5
20
-25
30
0
11
-47.75
21
-25
31
0
39
0
210
0
220
0
230
1
0
LINE
5
154
100
AcDbEntity
8
SK2
62
256
6
ByLayer
370
13
48
1
60
0
100
AcDbLine
10
-1.5
20
25
30
0
11
-47.75
21
25
31
0
39
0
210
0
220
0
230
1
0
LINE
5
155
100
AcDbEntity
8
SK2
62
256
6
ByLayer
370
13
48
1
60
0
100
AcDbLine
10
-44.75
20
-25
30
0
11
-44.75
21
25
31
0
39
0
210
0
220
0
230
1
0
LINE
5
156
100
AcDbEntity
8
SK2
62
256
6
ByLayer
370
13
48
1
60
0
100
AcDbLine
10
-44.75
20
-25
30
0
11
-45.144957
21
-22.000001
31
0
39
0
210
0
220
0
230
1
0
LINE
5
157
100
AcDbEntity
8
SK2
62
256
6
ByLayer
370
13
48
1
60
0
100
AcDbLine
10
-44.75
20
-25
30
0
11
-44.355043
21
-21.999999
31
0
39
0
210
0
220
0
230
1
0
LINE
5
158
100
AcDbEntity
8
SK2
62
256
6
ByLayer
370
13
48
1
60
0
100
AcDbLine
10
-45.144957
20
-22.000001
30
0
11
-44.355043
21
-21.999999
31
0
39
0
210
0
220
0
230
1
0
LINE
5
159
100
AcDbEntity
8
SK2
62
256
6
ByLayer
370
13
48
1
60
0
100
AcDbLine
10
-44.75
20
25
30
0
11
-44.355043
21
22.000001
31
0
39
0
210
0
220
0
230
1
0
LINE
5
15A
100
AcDbEntity
8
SK2
62
256
6
ByLayer
370
13
48
1
60
0
100
AcDbLine
10
-44.75
20
25
30
0
11
-45.144957
21
21.999999
31
0
39
0
210
0
220
0
230
1
0
LINE
5
15B
100
AcDbEntity
8
SK2
62
256
6
ByLayer
370
13
48
1
60
0
100
AcDbLine
10
-44.355043
20
22.000001
30
0
11
-45.144957
21
21.999999
31
0
39
0
210
0
220
0
230
1
0
ENDBLK
5
15D
100
AcDbEntity
8
0
100
AcDbBlockEnd
0
BLOCK
5
160
100
AcDbEntity
8
0
100
AcDbBlockBegin
2
_CLOSED
70
0
10
0
20
0
30
0
3
_CLOSED
0
LINE
5
162
100
AcDbEntity
8
0
62
256
6
ByLayer
370
-2
48
1
60
0
100
AcDbLine
10
-1
20
0.166667
30
0
11
0
21
0
31
0
39
0
210
0
220
0
230
1
0
LINE
5
163
100
AcDbEntity
8
0
62
256
6
ByLayer
370
-2
48
1
60
0
100
AcDbLine
10
0
20
0
30
0
11
-1
21
-0.166667
31
0
39
0
210
0
220
0
230
1
0
LINE
5
164
100
AcDbEntity
8
0
62
256
6
ByLayer
370
-2
48
1
60
0
100
AcDbLine
10
-1
20
0.166667
30
0
11
-1
21
-0.166667
31
0
39
0
210
0
220
0
230
1
0
LINE
5
165
100
AcDbEntity
8
0
62
256
6
ByLayer
370
-2
48
1
60
0
100
AcDbLine
10
0
20
0
30
0
11
-1
21
0
31
0
39
0
210
0
220
0
230
1
0
ENDBLK
5
161
100
AcDbEntity
8
0
100
AcDbBlockEnd
0
BLOCK
5
171
100
AcDbEntity
8
0
100
AcDbBlockBegin
2
DimnDraft3D2
70
0
10
0
20
0
30
0
3
DimnDraft3D2
0
MTEXT
5
167
100
AcDbEntity
8
2
62
256
6
ByLayer
370
18
48
1
60
0
100
AcDbMText
10
73.125
20
40.625
30
0
210
0
220
0
230
1
1
\W0.5404;3
40
4.5
41
0
44
1.084337
50
90
71
7
72
5
7
iso_b_vert
0
LINE
5
168
100
AcDbEntity
8
2
62
256
6
ByLayer
370
13
48
1
60
0
100
AcDbLine
10
61.5
20
32
30
0
11
77.25
21
32
31
0
39
0
210
0
220
0
230
1
0
LINE
5
169
100
AcDbEntity
8
2
62
256
6
ByLayer
370
13
48
1
60
0
100
AcDbLine
10
61.5
20
35
30
0
11
77.25
21
35
31
0
39
0
210
0
220
0
230
1
0
LINE
5
16A
100
AcDbEntity
8
2
62
256
6
ByLayer
370
13
48
1
60
0
100
AcDbLine
10
74.25
20
41.513158
30
0
11
74.25
21
20.75
31
0
39
0
210
0
220
0
230
1
0
LINE
5
16B
100
AcDbEntity
8
2
62
256
6
ByLayer
370
13
48
1
60
0
100
AcDbLine
10
74.25
20
32
30
0
11
74.644957
21
29.000001
31
0
39
0
210
0
220
0
230
1
0
LINE
5
16C
100
AcDbEntity
8
2
62
256
6
ByLayer
370
13
48
1
60
0
100
AcDbLine
10
74.25
20
32
30
0
11
73.855043
21
28.999999
31
0
39
0
210
0
220
0
230
1
0
LINE
5
16D
100
AcDbEntity
8
2
62
256
6
ByLayer
370
13
48
1
60
0
100
AcDbLine
10
74.644957
20
29.000001
30
0
11
73.855043
21
28.999999
31
0
39
0
210
0
220
0
230
1
0
LINE
5
16E
100
AcDbEntity
8
2
62
256
6
ByLayer
370
13
48
1
60
0
100
AcDbLine
10
74.25
20
35
30
0
11
73.855043
21
37.999999
31
0
39
0
210
0
220
0
230
1
0
LINE
5
16F
100
AcDbEntity
8
2
62
256
6
ByLayer
370
13
48
1
60
0
100
AcDbLine
10
74.25
20
35
30
0
11
74.644957
21
38.000001
31
0
39
0
210
0
220
0
230
1
0
LINE
5
170
100
AcDbEntity
8
2
62
256
6
ByLayer
370
13
48
1
60
0
100
AcDbLine
10
73.855043
20
37.999999
30
0
11
74.644957
21
38.000001
31
0
39
0
210
0
220
0
230
1
0
ENDBLK
5
172
100
AcDbEntity
8
0
100
AcDbBlockEnd
0
BLOCK
5
17F
100
AcDbEntity
8
0
100
AcDbBlockBegin
2
DimnDraft3D3
70
0
10
0
20
0
30
0
3
DimnDraft3D3
0
MTEXT
5
175
100
AcDbEntity
8
2
62
256
6
ByLayer
370
18
48
1
60
0
100
AcDbMText
10
83.125
20
15.936842
30
0
210
0
220
0
230
1
1
\W0.6740;35
40
4.5
41
0
44
1.084337
50
90
71
7
72
5
7
iso_b_vert
0
LINE
5
176
100
AcDbEntity
8
2
62
256
6
ByLayer
370
13
48
1
60
0
100
AcDbLine
10
61.5
20
35
30
0
11
87.25
21
35
31
0
39
0
210
0
220
0
230
1
0
LINE
5
177
100
AcDbEntity
8
2
62
256
6
ByLayer
370
13
48
1
60
0
100
AcDbLine
10
16.5
20
0
30
0
11
87.25
21
0
31
0
39
0
210
0
220
0
230
1
0
LINE
5
178
100
AcDbEntity
8
2
62
256
6
ByLayer
370
13
48
1
60
0
100
AcDbLine
10
84.25
20
35
30
0
11
84.25
21
0
31
0
39
0
210
0
220
0
230
1
0
LINE
5
179
100
AcDbEntity
8
2
62
256
6
ByLayer
370
13
48
1
60
0
100
AcDbLine
10
84.25
20
35
30
0
11
84.644957
21
32.000001
31
0
39
0
210
0
220
0
230
1
0
LINE
5
17A
100
AcDbEntity
8
2
62
256
6
ByLayer
370
13
48
1
60
0
100
AcDbLine
10
84.25
20
35
30
0
11
83.855043
21
31.999999
31
0
39
0
210
0
220
0
230
1
0
LINE
5
17B
100
AcDbEntity
8
2
62
256
6
ByLayer
370
13
48
1
60
0
100
AcDbLine
10
84.644957
20
32.000001
30
0
11
83.855043
21
31.999999
31
0
39
0
210
0
220
0
230
1
0
LINE
5
17C
100
AcDbEntity
8
2
62
256
6
ByLayer
370
13
48
1
60
0
100
AcDbLine
10
84.25
20
0
30
0
11
83.855043
21
2.999999
31
0
39
0
210
0
220
0
230
1
0
LINE
5
17D
100
AcDbEntity
8
2
62
256
6
ByLayer
370
13
48
1
60
0
100
AcDbLine
10
84.25
20
0
30
0
11
84.644957
21
3.000001
31
0
39
0
210
0
220
0
230
1
0
LINE
5
17E
100
AcDbEntity
8
2
62
256
6
ByLayer
370
13
48
1
60
0
100
AcDbLine
10
83.855043
20
2.999999
30
0
11
84.644957
21
3.000001
31
0
39
0
210
0
220
0
230
1
0
ENDBLK
5
180
100
AcDbEntity
8
0
100
AcDbBlockEnd
0
BLOCK
5
18D
100
AcDbEntity
8
0
100
AcDbBlockBegin
2
DimnDraft3D4
70
0
10
0
20
0
30
0
3
DimnDraft3D4
0
MTEXT
5
183
100
AcDbEntity
8
2
62
256
6
ByLayer
370
18
48
1
60
0
100
AcDbMText
10
28.436842
20
45.875
30
0
210
0
220
0
230
1
1
\W0.6740;60
40
4.5
41
0
44
1.084337
50
0
71
7
72
5
7
iso_b_vert
0
LINE
5
184
100
AcDbEntity
8
2
62
256
6
ByLayer
370
13
48
1
60
0
100
AcDbLine
10
0
20
1.5
30
0
11
0
21
47.75
31
0
39
0
210
0
220
0
230
1
0
LINE
5
185
100
AcDbEntity
8
2
62
256
6
ByLayer
370
13
48
1
60
0
100
AcDbLine
10
60
20
35
30
0
11
60
21
47.75
31
0
39
0
210
0
220
0
230
1
0
LINE
5
186
100
AcDbEntity
8
2
62
256
6
ByLayer
370
13
48
1
60
0
100
AcDbLine
10
0
20
44.75
30
0
11
60
21
44.75
31
0
39
0
210
0
220
0
230
1
0
LINE
5
187
100
AcDbEntity
8
2
62
256
6
ByLayer
370
13
48
1
60
0
100
AcDbLine
10
0
20
44.75
30
0
11
2.999999
21
45.144957
31
0
39
0
210
0
220
0
230
1
0
LINE
5
188
100
AcDbEntity
8
2
62
256
6
ByLayer
370
13
48
1
60
0
100
AcDbLine
10
0
20
44.75
30
0
11
3.000001
21
44.355043
31
0
39
0
210
0
220
0
230
1
0
LINE
5
189
100
AcDbEntity
8
2
62
256
6
ByLayer
370
13
48
1
60
0
100
AcDbLine
10
2.999999
20
45.144957
30
0
11
3.000001
21
44.355043
31
0
39
0
210
0
220
0
230
1
0
LINE
5
18A
100
AcDbEntity
8
2
62
256
6
ByLayer
370
13
48
1
60
0
100
AcDbLine
10
60
20
44.75
30
0
11
57.000001
21
44.355043
31
0
39
0
210
0
220
0
230
1
0
LINE
5
18B
100
AcDbEntity
8
2
62
256
6
ByLayer
370
13
48
1
60
0
100
AcDbLine
10
60
20
44.75
30
0
11
56.999999
21
45.144957
31
0
39
0
210
0
220
0
230
1
0
LINE
5
18C
100
AcDbEntity
8
2
62
256
6
ByLayer
370
13
48
1
60
0
100
AcDbLine
10
57.000001
20
44.355043
30
0
11
56.999999
21
45.144957
31
0
39
0
210
0
220
0
230
1
0
ENDBLK
5
18E
100
AcDbEntity
8
0
100
AcDbBlockEnd
0
BLOCK
5
19B
100
AcDbEntity
8
0
100
AcDbBlockBegin
2
DimnDraft3D5
70
0
10
0
20
0
30
0
3
DimnDraft3D5
0
MTEXT
5
191
100
AcDbEntity
8
2
62
256
6
ByLayer
370
18
48
1
60
0
100
AcDbMText
10
53.999342
20
-13.125
30
0
210
0
220
0
230
1
1
\W0.5321;10
40
4.5
41
0
44
1.084337
50
0
71
7
72
5
7
iso_b_vert
0
LINE
5
192
100
AcDbEntity
8
2
62
256
6
ByLayer
370
13
48
1
60
0
100
AcDbLine
10
50
20
29.5
30
0
11
50
21
-17.25
31
0
39
0
210
0
220
0
230
1
0
LINE
5
193
100
AcDbEntity
8
2
62
256
6
ByLayer
370
13
48
1
60
0
100
AcDbLine
10
60
20
30.5
30
0
11
60
21
-17.25
31
0
39
0
210
0
220
0
230
1
0
LINE
5
194
100
AcDbEntity
8
2
62
256
6
ByLayer
370
13
48
1
60
0
100
AcDbLine
10
38.75
20
-14.25
30
0
11
71.25
21
-14.25
31
0
39
0
210
0
220
0
230
1
0
LINE
5
195
100
AcDbEntity
8
2
62
256
6
ByLayer
370
13
48
1
60
0
100
AcDbLine
10
50
20
-14.25
30
0
11
47.000001
21
-14.644957
31
0
39
0
210
0
220
0
230
1
0
LINE
5
196
100
AcDbEntity
8
2
62
256
6
ByLayer
370
13
48
1
60
0
100
AcDbLine
10
50
20
-14.25
30
0
11
46.999999
21
-13.855043
31
0
39
0
210
0
220
0
230
1
0
LINE
5
197
100
AcDbEntity
8
2
62
256
6
ByLayer
370
13
48
1
60
0
100
AcDbLine
10
47.000001
20
-14.644957
30
0
11
46.999999
21
-13.855043
31
0
39
0
210
0
220
0
230
1
0
LINE
5
198
100
AcDbEntity
8
2
62
256
6
ByLayer
370
13
48
1
60
0
100
AcDbLine
10
60
20
-14.25
30
0
11
62.999999
21
-13.855043
31
0
39
0
210
0
220
0
230
1
0
LINE
5
199
100
AcDbEntity
8
2
62
256
6
ByLayer
370
13
48
1
60
0
100
AcDbLine
10
60
20
-14.25
30
0
11
63.000001
21
-14.644957
31
0
39
0
210
0
220
0
230
1
0
LINE
5
19A
100
AcDbEntity
8
2
62
256
6
ByLayer
370
13
48
1
60
0
100
AcDbLine
10
62.999999
20
-13.855043
30
0
11
63.000001
21
-14.644957
31
0
39
0
210
0
220
0
230
1
0
ENDBLK
5
19C
100
AcDbEntity
8
0
100
AcDbBlockEnd
0
ENDSEC
0
SECTION
2
ENTITIES
0
ARC
5
DF
100
AcDbEntity
8
SK1
62
256
6
ByLayer
370
18
48
1
60
0
100
AcDbCircle
39
0
10
0.6
20
-18.75
30
0
40
1.00000000000001
210
0
220
0
230
-1
100
AcDbArc
50
113.578178
51
126.869898
0
ARC
5
E0
100
AcDbEntity
8
SK1
62
256
6
ByLayer
370
18
48
1
60
0
100
AcDbCircle
39
0
10
0.6
20
18.75
30
0
40
1.00000000000001
210
0
220
0
230
-1
100
AcDbArc
50
233.130102
51
246.421822
0
ARC
5
E4
100
AcDbEntity
8
1
62
256
6
ByLayer
370
18
48
1
60
0
100
AcDbCircle
39
0
10
26
20
-2.966115
30
0
40
6
210
0
220
0
230
1
100
AcDbArc
50
127.38879
51
144.390507
0
ARC
5
E5
100
AcDbEntity
8
1
62
256
6
ByLayer
370
18
48
1
60
0
100
AcDbCircle
39
0
10
-43
20
24.5
30
0
40
5.5
210
0
220
0
230
-1
100
AcDbArc
50
29.20746
51
90
0
ARC
5
E6
100
AcDbEntity
8
1
62
256
6
ByLayer
370
18
48
1
60
0
100
AcDbCircle
39
0
10
50.1
20
30.725
30
0
40
1.59999999999985
210
0
220
0
230
1
100
AcDbArc
50
90
51
180
0
ARC
5
E7
100
AcDbEntity
8
1
62
256
6
ByLayer
370
18
48
1
60
0
100
AcDbCircle
39
0
10
-43
20
24.5
30
0
40
5
210
0
220
0
230
-1
100
AcDbArc
50
0
51
90
0
ARC
5
E8
100
AcDbEntity
8
1
62
256
6
ByLayer
370
18
48
1
60
0
100
AcDbCircle
39
0
10
43
20
24.5
30
0
40
1.416
210
0
220
0
230
1
100
AcDbArc
50
96.192438
51
150.190711
0
ARC
5
E9
100
AcDbEntity
8
1
62
256
6
ByLayer
370
18
48
1
60
0
100
AcDbCircle
39
0
10
43
20
24.5
30
0
40
1.416
210
0
220
0
230
1
100
AcDbArc
50
263.807562
51
276.192438
0
ARC
5
EA
100
AcDbEntity
8
1
62
256
6
ByLayer
370
18
48
1
60
0
100
AcDbCircle
39
0
10
43
20
24.5
30
0
40
1.9685
210
0
220
0
230
1
100
AcDbArc
50
120.381422
51
180
0
ARC
5
EB
100
AcDbEntity
8
1
62
256
6
ByLayer
370
18
48
1
60
0
100
AcDbCircle
39
0
10
43
20
24.5
30
0
40
1.416
210
0
220
0
230
1
100
AcDbArc
50
29.809289
51
83.807562
0
ARC
5
EC
100
AcDbEntity
8
1
62
256
6
ByLayer
370
18
48
1
60
0
100
AcDbCircle
39
0
10
43
20
24.5
30
0
40
1.416
210
0
220
0
230
1
100
AcDbArc
50
330.190711
51
29.809289
0
ARC
5
ED
100
AcDbEntity
8
1
62
256
6
ByLayer
370
18
48
1
60
0
100
AcDbCircle
39
0
10
43
20
24.5
30
0
40
1.9685
210
0
220
0
230
1
100
AcDbArc
50
239.618578
51
300.381422
0
ARC
5
EE
100
AcDbEntity
8
1
62
256
6
ByLayer
370
18
48
1
60
0
100
AcDbCircle
39
0
10
43
20
24.5
30
0
40
1.9685
210
0
220
0
230
1
100
AcDbArc
50
180
51
239.618578
0
ARC
5
EF
100
AcDbEntity
8
1
62
256
6
ByLayer
370
18
48
1
60
0
100
AcDbCircle
39
0
10
43
20
24.5
30
0
40
1.416
210
0
220
0
230
1
100
AcDbArc
50
83.807562
51
96.192438
0
ARC
5
F0
100
AcDbEntity
8
1
62
256
6
ByLayer
370
18
48
1
60
0
100
AcDbCircle
39
0
10
43
20
24.5
30
0
40
1.416
210
0
220
0
230
1
100
AcDbArc
50
276.192438
51
330.190711
0
ARC
5
F1
100
AcDbEntity
8
1
62
256
6
ByLayer
370
18
48
1
60
0
100
AcDbCircle
39
0
10
43
20
24.5
30
0
40
1.9685
210
0
220
0
230
1
100
AcDbArc
50
59.618578
51
120.381422
0
ARC
5
F2
100
AcDbEntity
8
1
62
256
6
ByLayer
370
18
48
1
60
0
100
AcDbCircle
39
0
10
43
20
24.5
30
0
40
1.9685
210
0
220
0
230
1
100
AcDbArc
50
360
51
59.618578
0
ARC
5
F3
100
AcDbEntity
8
1
62
256
6
ByLayer
370
18
48
1
60
0
100
AcDbCircle
39
0
10
43
20
24.5
30
0
40
1.416
210
0
220
0
230
1
100
AcDbArc
50
209.809289
51
263.807562
0
ARC
5
F4
100
AcDbEntity
8
1
62
256
6
ByLayer
370
18
48
1
60
0
100
AcDbCircle
39
0
10
43
20
24.5
30
0
40
1.416
210
0
220
0
230
1
100
AcDbArc
50
150.190711
51
209.809289
0
ARC
5
F5
100
AcDbEntity
8
1
62
256
6
ByLayer
370
18
48
1
60
0
100
AcDbCircle
39
0
10
43
20
24.5
30
0
40
1.9685
210
0
220
0
230
1
100
AcDbArc
50
300.381422
51
360
0
CIRCLE
5
E1
100
AcDbEntity
8
62
62
256
6
ByLayer
370
18
48
1
60
0
100
AcDbCircle
10
43
20
24.5
30
0
40
5
39
0
210
0
220
0
230
1
0
CIRCLE
5
E3
100
AcDbEntity
8
62
62
256
6
ByLayer
370
18
48
1
60
0
100
AcDbCircle
10
43
20
24.5
30
0
40
5
39
0
210
0
220
0
230
1
0
CIRCLE
5
F6
100
AcDbEntity
8
1
62
256
6
ByLayer
370
18
48
1
60
0
100
AcDbCircle
10
-43
20
24.5
30
0
40
3.75
39
0
210
0
220
0
230
-1
0
CIRCLE
5
F7
100
AcDbEntity
8
1
62
256
6
ByLayer
370
18
48
1
60
0
100
AcDbCircle
10
-43
20
24.5
30
0
40
4.25
39
0
210
0
220
0
230
-1
0
ELLIPSE
5
F8
100
AcDbEntity
8
1
62
256
6
ByLayer
370
18
48
1
60
0
100
AcDbEllipse
10
-1.056258
20
0
30
0
11
-11.709272349727
21
-24.677186440937
31
0
210
0
220
0
230
1
40
0.341999
41
2.0597599531005
42
2.97437958168081
0
ELLIPSE
5
F9
100
AcDbEntity
8
1
62
256
6
ByLayer
370
18
48
1
60
0
100
AcDbEllipse
10
-1.056258
20
0
30
0
11
-11.7092723497277
21
24.677186440938
31
0
210
0
220
0
230
1
40
0.341999
41
-2.97437958168082
42
-2.05975995310053
0
ELLIPSE
5
FA
100
AcDbEntity
8
1
62
256
6
ByLayer
370
18
48
1
60
0
100
AcDbEllipse
10
31.189416
20
32.865093
30
0
11
-1.43430202971745
21
0.815645564904525
31
0
210
0
220
0
230
1
40
0.534796
41
0
42
6.28318530717959
0
ELLIPSE
5
FB
100
AcDbEntity
8
1
62
256
6
ByLayer
370
18
48
1
60
0
100
AcDbEllipse
10
33.672097
20
29.285375
30
0
11
-0.0196372401070753
21
-1.52704555365831
31
0
210
0
220
0
230
1
40
0.108462
41
0
42
6.28318530717959
0
ELLIPSE
5
FC
100
AcDbEntity
8
1
62
256
6
ByLayer
370
18
48
1
60
0
100
AcDbEllipse
10
21.056258
20
0
30
0
11
-11.7092723497275
21
24.6771864409378
31
0
210
0
220
0
230
1
40
0.341999
41
0.167213071908977
42
1.08183270048926
0
ELLIPSE
5
FD
100
AcDbEntity
8
1
62
256
6
ByLayer
370
18
48
1
60
0
100
AcDbEllipse
10
21.056258
20
0
30
0
11
-11.7092723497278
21
-24.6771864409381
31
0
210
0
220
0
230
1
40
0.341999
41
-1.08183270048926
42
-0.167213071908978
0
ELLIPSE
5
FE
100
AcDbEntity
8
1
62
256
6
ByLayer
370
18
48
1
60
0
100
AcDbEllipse
10
54.966964
20
34.476449
30
0
11
-0.60161714010253
21
1.40953281913574E-15
31
0
210
0
220
0
230
1
40
0.249328
41
0
42
0.349057207328302
0
ELLIPSE
5
FF
100
AcDbEntity
8
1
62
256
6
ByLayer
370
18
48
1
60
0
100
AcDbEllipse
10
54.966964
20
32.523551
30
0
11
-0.601617139951147
21
1.40953281878106E-15
31
0
210
0
220
0
230
1
40
0.249328
41
-0.349057207372903
42
0
0
POINT
5
6C
100
AcDbEntity
8
2
62
256
6
ByLayer
370
18
48
1
60
0
100
AcDbPoint
10
60
20
35
30
0
39
0
210
0
220
0
230
1
50
360
0
POINT
5
6E
100
AcDbEntity
8
CUT
62
256
6
ByLayer
370
18
48
1
60
0
100
AcDbPoint
10
12
20
0
30
0
39
0
210
0
220
0
230
1
50
360
0
POINT
5
70
100
AcDbEntity
8
2
62
256
6
ByLayer
370
18
48
1
60
0
100
AcDbPoint
10
60
20
33.5
30
0
39
0
210
0
220
0
230
1
50
360
0
POINT
5
71
100
AcDbEntity
8
80
62
256
6
ByLayer
370
18
48
1
60
0
100
AcDbPoint
10
0
20
0
30
0
39
0
210
0
220
0
230
1
50
360
0
POINT
5
73
100
AcDbEntity
8
81
62
256
6
ByLayer
370
18
48
1
60
0
100
AcDbPoint
10
60
20
35
30
0
39
0
210
0
220
0
230
1
50
360
0
SPLINE
5
100
100
AcDbEntity
8
SK1
62
256
6
ByLayer
370
18
48
1
60
0
100
AcDbSpline
70
4
71
3
72
13
73
9
40
0
40
0
40
0
40
0
40
0.239456135733551
40
0.368359721896995
40
0.499998983985648
40
0.631638415256368
40
0.760542467762615
40
1
40
1
40
1
40
1
41
1
10
-2.20000000000002
20
-17.520098551796
30
0
41
1
10
-2.19909198642202
20
-17.4940410756898
30
0
41
1
10
-2.19103284106865
20
-17.4566684913666
30
0
41
1
10
-2.16563592203258
20
-17.4104493175479
30
0
41
1
10
-2.13886378679177
20
-17.3791677636994
30
0
41
1
10
-2.10627712749803
20
-17.3540003935063
30
0
41
1
10
-2.05884064234169
20
-17.3309565910454
30
0
41
1
10
-2.02111030873064
20
-17.3247843360228
30
0
41
1
10
-1.99503997793931
20
-17.3251859759625
30
0
0
SPLINE
5
101
100
AcDbEntity
8
SK1
62
256
6
ByLayer
370
18
48
1
60
0
100
AcDbSpline
70
4
71
3
72
13
73
9
40
0
40
0
40
0
40
0
40
0.2394575322828
40
0.368361584804615
40
0.500001016081333
40
0.631640278164845
40
0.760543864313148
40
1
40
1
40
1
40
1
41
1
10
-1.99503997793928
20
17.3251861589552
30
0
41
1
10
-2.02111030872962
20
17.324784519015
30
0
41
1
10
-2.05884064233982
20
17.3309567740351
30
0
41
1
10
-2.10627712749661
20
17.3540005764861
30
0
41
1
10
-2.13886378679044
20
17.3791679466684
30
0
41
1
10
-2.16563592203158
20
17.4104495005037
30
0
41
1
10
-2.19103284106788
20
17.4566686743027
30
0
41
1
10
-2.19909198642125
20
17.4940412586114
30
0
41
1
10
-2.19999999999999
20
17.5200987347078
30
0
0
SPLINE
5
102
100
AcDbEntity
8
SK1
62
256
6
ByLayer
370
18
48
1
60
0
100
AcDbSpline
70
4
71
2
72
6
73
3
40
0
40
0
40
0
40
1
40
1
40
1
41
1
10
-28.5
20
-16.8542724489282
30
0
41
1
10
-15.3499999999286
20
-17.1845422635703
30
0
41
1
10
-2.20000000000002
20
-17.5148116792767
30
0
0
SPLINE
5
103
100
AcDbEntity
8
SK1
62
256
6
ByLayer
370
18
48
1
60
0
100
AcDbSpline
70
4
71
2
72
6
73
3
40
0
40
0
40
0
40
1
40
1
40
1
41
1
10
-2.19999999999999
20
17.5148117187522
30
0
41
1
10
-15.3499999999294
20
17.1845422725478
30
0
41
1
10
-28.5
20
16.854272429841
30
0
0
SPLINE
5
104
100
AcDbEntity
8
SK1
62
256
6
ByLayer
370
18
48
1
60
0
100
AcDbSpline
70
4
71
2
72
6
73
3
40
0
40
0
40
0
40
1
40
1
40
1
41
1
10
-1.99503997793931
20
-17.3199593099743
30
0
41
1
10
-1.19500843340705
20
-17.340052552406
30
0
41
1
10
-0.394976888875306
20
-17.3601457933935
30
0
0
SPLINE
5
105
100
AcDbEntity
8
SK1
62
256
6
ByLayer
370
18
48
1
60
0
100
AcDbSpline
70
4
71
2
72
6
73
3
40
0
40
0
40
0
40
1
40
1
40
1
41
1
10
-0.394976888875277
20
17.3601458189993
30
0
41
1
10
-1.19500843340703
20
17.3400525762132
30
0
41
1
10
-1.99503997793928
20
17.3199593319919
30
0
0
SPLINE
5
106
100
AcDbEntity
8
SK1
62
256
6
ByLayer
370
18
48
1
60
0
100
AcDbSpline
70
4
71
2
72
6
73
3
40
0
40
0
40
0
40
1
40
1
40
1
41
1
10
-30
20
-15.9924794145163
30
0
41
1
10
-29.2499999991495
20
-16.4254650261933
30
0
41
1
10
-28.5
20
-16.8584504491481
30
0
0
SPLINE
5
107
100
AcDbEntity
8
SK1
62
256
6
ByLayer
370
18
48
1
60
0
100
AcDbSpline
70
4
71
2
72
6
73
3
40
0
40
0
40
0
40
1
40
1
40
1
41
1
10
-28.5
20
16.8584505716142
30
0
41
1
10
-29.2499999991495
20
16.4254651505507
30
0
41
1
10
-30
20
15.9924795407901
30
0
0
SPLINE
5
108
100
AcDbEntity
8
SK1
62
256
6
ByLayer
370
18
48
1
60
0
100
AcDbSpline
70
4
71
2
72
6
73
3
40
0
40
0
40
0
40
1
40
1
40
1
41
1
10
-0.394976888875306
20
-17.359696795897
30
0
41
1
10
-0.305277226309755
20
-17.3671842624703
30
0
41
1
10
-0.258658740615687
20
-17.4310145299902
30
0
0
SPLINE
5
109
100
AcDbEntity
8
SK1
62
256
6
ByLayer
370
18
48
1
60
0
100
AcDbSpline
70
4
71
2
72
6
73
3
40
0
40
0
40
0
40
1
40
1
40
1
41
1
10
-0.258442643302402
20
17.4312381196178
30
0
41
1
10
-0.305123774552584
20
17.3672404580573
30
0
41
1
10
-0.394976888875277
20
17.3596982935394
30
0
0
SPLINE
5
10A
100
AcDbEntity
8
SK1
62
256
6
ByLayer
370
18
48
1
60
0
100
AcDbSpline
70
4
71
3
72
12
73
8
40
0
40
0
40
0
40
0
40
0.0324391935605631
40
0.0324391935605631
40
0.817810355071608
40
0.817810355071608
40
1
40
1
40
1
40
1
41
1
10
-0.21727743931325
20
17.4836043588627
30
0
41
1
10
-0.217509721176839
20
17.48306881412
30
0
41
1
10
-0.217744863814772
20
17.4825318147638
30
0
41
1
10
-0.223753032740916
20
17.4689405317318
30
0
41
1
10
-0.231245471836814
20
17.4549872015732
30
0
41
1
10
-0.245076166280967
20
17.436263079892
30
0
41
1
10
-0.247766500863207
20
17.4326754789571
30
0
41
1
10
-0.25073416027945
20
17.4289983664889
30
0
0
SPLINE
5
10B
100
AcDbEntity
8
SK1
62
256
6
ByLayer
370
18
48
1
60
0
100
AcDbSpline
70
4
71
3
72
284
73
280
40
0
40
0
40
0
40
0
40
0.0001140897258508
40
0.0036846008037143
40
0.0072551118815778
40
0.0108256229594413
40
0.0143961340373048
40
0.0179666451151683
40
0.0215371561930318
40
0.0251076672708953
40
0.0286781783487588
40
0.0322486894266223
40
0.0358192005044858
40
0.0429602226602128
40
0.0465307337380763
40
0.0501012448159398
40
0.0536717558938033
40
0.0572422669716668
40
0.0643832891273938
40
0.0679538002052573
40
0.0715243112831207
40
0.0786653334388477
40
0.0822358445167112
40
0.0858063555945747
40
0.0929473777503017
40
0.0965178888281652
40
0.100088399906029
40
0.103658910983892
40
0.107229422061756
40
0.110799933139619
40
0.114370444217483
40
0.117940955295346
40
0.12151146637321
40
0.128652488528937
40
0.1322229996068
40
0.135793510684664
40
0.139364021762527
40
0.142934532840391
40
0.150075554996118
40
0.153646066073981
40
0.157216577151845
40
0.160787088229708
40
0.164357599307572
40
0.171498621463299
40
0.175069132541162
40
0.178639643619026
40
0.182210154696889
40
0.185780665774753
40
0.19292168793048
40
0.196492199008343
40
0.200062710086207
40
0.20363322116407
40
0.207203732241934
40
0.214344754397661
40
0.217915265475524
40
0.221485776553388
40
0.225056287631251
40
0.228626798709115
40
0.235767820864842
40
0.239338331942705
40
0.242908843020569
40
0.246479354098432
40
0.250049865176296
40
0.257190887332023
40
0.260761398409886
40
0.264331909487749
40
0.271472931643477
40
0.278613953799204
40
0.282184464877067
40
0.28575497595493
40
0.292895998110657
40
0.296466509188521
40
0.300037020266385
40
0.303607531344248
40
0.307178042422112
40
0.310748553499975
40
0.314319064577838
40
0.321460086733566
40
0.328601108889293
40
0.332171619967156
40
0.335742131045019
40
0.339312642122883
40
0.342883153200747
40
0.34645366427861
40
0.350024175356474
40
0.3571651975122
40
0.364306219667927
40
0.371447241823655
40
0.375017752901518
40
0.378588263979381
40
0.382158775057245
40
0.385729286135108
40
0.389299797212972
40
0.392870308290835
40
0.396440819368699
40
0.400011330446563
40
0.403581841524426
40
0.407152352602289
40
0.410722863680153
40
0.414293374758016
40
0.41786388583588
40
0.421434396913744
40
0.425004907991607
40
0.42857541906947
40
0.432145930147334
40
0.433931185686266
40
0.435716441225197
40
0.437501696764129
40
0.439286952303061
40
0.442857463380924
40
0.446427974458788
40
0.44821322999772
40
0.449998485536651
40
0.451783741075583
40
0.453568996614515
40
0.455354252153447
40
0.457139507692378
40
0.460710018770242
40
0.462495274309174
40
0.464280529848105
40
0.466065785387037
40
0.467851040925969
40
0.469636296464901
40
0.471421552003832
40
0.473206807542764
40
0.474992063081696
40
0.476777318620628
40
0.478562574159559
40
0.480347829698491
40
0.482133085237423
40
0.483918340776355
40
0.485703596315286
40
0.487488851854218
40
0.48927410739315
40
0.491059362932082
40
0.492844618471013
40
0.494629874009945
40
0.496415129548877
40
0.498200385087809
40
0.49998564062674
40
0.501770896165672
40
0.503556151704604
40
0.505341407243536
40
0.507126662782467
40
0.508911918321399
40
0.510697173860331
40
0.512482429399263
40
0.514267684938194
40
0.516052940477126
40
0.517838196016058
40
0.51962345155499
40
0.521408707093921
40
0.523193962632853
40
0.524979218171785
40
0.526764473710717
40
0.528549729249648
40
0.53033498478858
40
0.532120240327512
40
0.533905495866444
40
0.535690751405375
40
0.537476006944307
40
0.539261262483239
40
0.541046518022171
40
0.542831773561102
40
0.544617029100034
40
0.546402284638966
40
0.549972795716829
40
0.551758051255761
40
0.553543306794693
40
0.557113817872556
40
0.56068432895042
40
0.562469584489352
40
0.564254840028283
40
0.566040095567215
40
0.567825351106147
40
0.57139586218401
40
0.574966373261874
40
0.578536884339737
40
0.582107395417601
40
0.585677906495464
40
0.589248417573328
40
0.592818928651191
40
0.596389439729055
40
0.599959950806918
40
0.603530461884782
40
0.607100972962645
40
0.610671484040509
40
0.614241995118372
40
0.617812506196236
40
0.621383017274099
40
0.624953528351963
40
0.628524039429826
40
0.635665061585553
40
0.64280608374128
40
0.649947105897007
40
0.653517616974871
40
0.657088128052734
40
0.660658639130598
40
0.664229150208461
40
0.667799661286325
40
0.671370172364188
40
0.678511194519915
40
0.685652216675642
40
0.689222727753506
40
0.692793238831369
40
0.696363749909233
40
0.699934260987096
40
0.70350477206496
40
0.707075283142823
40
0.71421630529855
40
0.717786816376414
40
0.721357327454277
40
0.728498349610004
40
0.735639371765731
40
0.739209882843595
40
0.742780393921458
40
0.749921416077185
40
0.753491927155049
40
0.757062438232912
40
0.760632949310776
40
0.764203460388639
40
0.771344482544366
40
0.774914993622229
40
0.778485504700093
40
0.782056015777957
40
0.78562652685582
40
0.792767549011547
40
0.796338060089411
40
0.799908571167274
40
0.803479082245138
40
0.807049593323001
40
0.814190615478728
40
0.817761126556592
40
0.821331637634455
40
0.824902148712318
40
0.828472659790182
40
0.835613681945909
40
0.839184193023773
40
0.842754704101636
40
0.844539959640568
40
0.846325215179499
40
0.849895726257363
40
0.85703674841309
40
0.860607259490954
40
0.864177770568817
40
0.867748281646681
40
0.871318792724544
40
0.878459814880271
40
0.882030325958135
40
0.885600837035998
40
0.889171348113861
40
0.892741859191725
40
0.896312370269588
40
0.899882881347452
40
0.903453392425316
40
0.907023903503179
40
0.914164925658906
40
0.917735436736769
40
0.921305947814633
40
0.92844696997036
40
0.932017481048223
40
0.935587992126087
40
0.942729014281814
40
0.946299525359677
40
0.949870036437541
40
0.953440547515404
40
0.957011058593268
40
0.964152080748995
40
0.967722591826858
40
0.971293102904722
40
0.974863613982585
40
0.978434125060449
40
0.982004636138312
40
0.985575147216176
40
0.989145658294039
40
0.992716169371903
40
0.996286680449766
40
0.99985719152763
40
1
40
1
40
1
40
1
41
1
10
-1.99503997793928
20
17.3206502088541
30
0
41
1
10
-1.99503997793928
20
17.3205989713966
30
0
41
1
10
-1.99503997793928
20
17.3189303612346
30
0
41
1
10
-1.99503997793928
20
17.314763700365
30
0
41
1
10
-1.99503997793928
20
17.3061342577567
30
0
41
1
10
-1.99503997793928
20
17.295067771448
30
0
41
1
10
-1.99503997793928
20
17.2816041041457
30
0
41
1
10
-1.99503997793928
20
17.2657805776118
30
0
41
1
10
-1.99503997793928
20
17.2476335117891
30
0
41
1
10
-1.99503997793928
20
17.2271975457697
30
0
41
1
10
-1.99503997793928
20
17.2045053960087
30
0
41
1
10
-1.99503997793928
20
17.1795895960111
30
0
41
1
10
-1.99503997793928
20
17.143423992764
30
0
41
1
10
-1.99503997793928
20
17.1029924242497
30
0
41
1
10
-1.99503997793928
20
17.0582791326422
30
0
41
1
10
-1.99503997793928
20
17.0226787925821
30
0
41
1
10
-1.99503997793928
20
16.9850205529168
30
0
41
1
10
-1.99503997793928
20
16.9320728615657
30
0
41
1
10
-1.99503997793928
20
16.8751872660894
30
0
41
1
10
-1.99503997793928
20
16.8142877036056
30
0
41
1
10
-1.99503997793928
20
16.7507929832779
30
0
41
1
10
-1.99503997793928
20
16.6835453056651
30
0
41
1
10
-1.99503997793928
20
16.6124299551482
30
0
41
1
10
-1.99503997793928
20
16.5388242186582
30
0
41
1
10
-1.99503997793928
20
16.4616240004255
30
0
41
1
10
-1.99503997793928
20
16.3806869939664
30
0
41
1
10
-1.99503997793928
20
16.3182114219941
30
0
41
1
10
-1.99503997793928
20
16.2539521138774
30
0
41
1
10
-1.99503997793928
20
16.1879246249361
30
0
41
1
10
-1.99503997793928
20
16.1201424382026
30
0
41
1
10
-1.99503997793928
20
16.0506207732709
30
0
41
1
10
-1.99503997793928
20
15.979373490825
30
0
41
1
10
-1.99503997793928
20
15.8820499794418
30
0
41
1
10
-1.99503997793928
20
15.7814584486047
30
0
41
1
10
-1.99503997793928
20
15.677384958149
30
0
41
1
10
-1.99503997793928
20
15.5977008436634
30
0
41
1
10
-1.99503997793928
20
15.5163656256123
30
0
41
1
10
-1.99503997793928
20
15.4056838451686
30
0
41
1
10
-1.99503997793928
20
15.2918890118945
30
0
41
1
10
-1.99503997793928
20
15.1747311694574
30
0
41
1
10
-1.99503997793928
20
15.0853020659337
30
0
41
1
10
-1.99503997793928
20
14.9942846604514
30
0
41
1
10
-1.99503997793928
20
14.8707702235387
30
0
41
1
10
-1.99503997793928
20
14.7442755428493
30
0
41
1
10
-1.99503997793928
20
14.6145160455858
30
0
41
1
10
-1.99503997793928
20
14.5156939096276
30
0
41
1
10
-1.99503997793928
20
14.4153366771621
30
0
41
1
10
-1.99503997793928
20
14.2794333721973
30
0
41
1
10
-1.99503997793928
20
14.1406647198644
30
0
41
1
10
-1.99503997793928
20
13.9987118830366
30
0
41
1
10
-1.99503997793928
20
13.8907947247769
30
0
41
1
10
-1.99503997793928
20
13.7813876415877
30
0
41
1
10
-1.99503997793928
20
13.6334713769854
30
0
41
1
10
-1.99503997793928
20
13.482790135872
30
0
41
1
10
-1.99503997793928
20
13.328990109671
30
0
41
1
10
-1.99503997793928
20
13.2122307400427
30
0
41
1
10
-1.99503997793928
20
13.09401974916
30
0
41
1
10
-1.99503997793928
20
12.9344093145834
30
0
41
1
10
-1.99503997793928
20
12.7721223429484
30
0
41
1
10
-1.99503997793928
20
12.606768466692
30
0
41
1
10
-1.99503997793928
20
12.4813812679684
30
0
41
1
10
-1.99503997793928
20
12.3545748152048
30
0
41
1
10
-1.99503997793928
20
12.1835401119863
30
0
41
1
10
-1.99503997793928
20
12.0099077332894
30
0
41
1
10
-1.99503997793928
20
11.8332480165124
30
0
41
1
10
-1.99503997793928
20
11.6547268261542
30
0
41
1
10
-1.99503997793928
20
11.4282697000141
30
0
41
1
10
-1.99503997793928
20
11.1972001365959
30
0
41
1
10
-1.99503997793928
20
11.00944356136
30
0
41
1
10
-1.99503997793928
20
10.8198574498995
30
0
41
1
10
-1.99503997793928
20
10.627787937013
30
0
41
1
10
-1.99503997793928
20
10.4327334855784
30
0
41
1
10
-1.99503997793928
20
10.2851499168301
30
0
41
1
10
-1.99503997793928
20
10.13621047024
30
0
41
1
10
-1.99503997793928
20
9.98591879047714
30
0
41
1
10
-1.99503997793928
20
9.83427692622885
30
0
41
1
10
-1.99503997793928
20
9.63019833168175
30
0
41
1
10
-1.99503997793928
20
9.37195865327328
30
0
41
1
10
-1.99503997793928
20
9.1092571782612
30
0
41
1
10
-1.99503997793928
20
8.89624559944801
30
0
41
1
10
-1.99503997793928
20
8.73523611643316
30
0
41
1
10
-1.99503997793928
20
8.57289871794615
30
0
41
1
10
-1.99503997793928
20
8.40923673354897
30
0
41
1
10
-1.99503997793928
20
8.24425232954013
30
0
41
1
10
-1.99503997793928
20
8.0224014648056
30
0
41
1
10
-1.99503997793928
20
7.7420578132905
30
0
41
1
10
-1.99503997793928
20
7.40025290593451
30
0
41
1
10
-1.99503997793928
20
7.11118461088941
30
0
41
1
10
-1.99503997793928
20
6.87709665618266
30
0
41
1
10
-1.99503997793928
20
6.70033531356589
30
0
41
1
10
-1.99503997793928
20
6.52228078287746
30
0
41
1
10
-1.99503997793928
20
6.3429370741791
30
0
41
1
10
-1.99503997793928
20
6.16230788845579
30
0
41
1
10
-1.99503997793928
20
5.98039789106801
30
0
41
1
10
-1.99503997793928
20
5.79721186805691
30
0
41
1
10
-1.99503997793928
20
5.61275496243289
30
0
41
1
10
-1.99503997793928
20
5.42703270327695
30
0
41
1
10
-1.99503997793928
20
5.24005175731475
30
0
41
1
10
-1.99503997793928
20
5.05181945337139
30
0
41
1
10
-1.99503997793928
20
4.86234332329403
30
0
41
1
10
-1.99503997793928
20
4.67163207713236
30
0
41
1
10
-1.99503997793928
20
4.47969614999016
30
0
41
1
10
-1.99503997793928
20
4.28654656517494
30
0
41
1
10
-1.99503997793928
20
4.09219634432211
30
0
41
1
10
-1.99503997793928
20
3.92934661081907
30
0
41
1
10
-1.99503997793928
20
3.7982972967292
30
0
41
1
10
-1.99503997793928
20
3.69979994526253
30
0
41
1
10
-1.99503997793928
20
3.6010147061962
30
0
41
1
10
-1.99503997793928
20
3.46881385164499
30
0
41
1
10
-1.99503997793928
20
3.30310841087518
30
0
41
1
10
-1.99503997793928
20
3.13647579824178
30
0
41
1
10
-1.99503997793928
20
3.00241852965871
30
0
41
1
10
-1.99503997793928
20
2.90170218623106
30
0
41
1
10
-1.99503997793928
20
2.80072442890969
30
0
41
1
10
-1.99503997793928
20
2.69948931487846
30
0
41
1
10
-1.99503997793928
20
2.5980019734576
30
0
41
1
10
-1.99503997793928
20
2.46222694501739
30
0
41
1
10
-1.99503997793928
20
2.3263670801044
30
0
41
1
10
-1.99503997793928
20
2.18963187963746
30
0
41
1
10
-1.99503997793928
20
2.08696367451518
30
0
41
1
10
-1.99503997793928
20
1.98407765086858
30
0
41
1
10
-1.99503997793928
20
1.88098143773604
30
0
41
1
10
-1.99503997793928
20
1.777682765474
30
0
41
1
10
-1.99503997793928
20
1.67418894734925
30
0
41
1
10
-1.99503997793928
20
1.57050946303122
30
0
41
1
10
-1.99503997793928
20
1.46665209995737
30
0
41
1
10
-1.99503997793928
20
1.36262724011792
30
0
41
1
10
-1.99503997793928
20
1.2584437292094
30
0
41
1
10
-1.99503997793928
20
1.15411255471389
30
0
41
1
10
-1.99503997793928
20
1.04964378000579
30
0
41
1
10
-1.99503997793928
20
0.945048899580655
30
0
41
1
10
-1.99503997793928
20
0.840338961204225
30
0
41
1
10
-1.99503997793928
20
0.735526073032332
30
0
41
1
10
-1.99503997793928
20
0.630622105582688
30
0
41
1
10
-1.99503997793928
20
0.525639721157262
30
0
41
1
10
-1.99503997793928
20
0.420591350928731
30
0
41
1
10
-1.99503997793928
20
0.315490126623814
30
0
41
1
10
-1.99503997793928
20
0.210348939519463
30
0
41
1
10
-1.99503997793928
20
0.105181165306249
30
0
41
1
10
-1.99503997793928
20
-2.6093687E-09
30
0
41
1
10
-1.99503997793928
20
-0.10518117389941
30
0
41
1
10
-1.99503997793928
20
-0.21034895445402
30
0
41
1
10
-1.99503997793928
20
-0.315490140896515
30
0
41
1
10
-1.99503997793928
20
-0.420591355720489
30
0
41
1
10
-1.99503997793928
20
-0.525639723935797
30
0
41
1
10
-1.99503997793928
20
-0.630622120770198
30
0
41
1
10
-1.99503997793928
20
-0.735526093018507
30
0
41
1
10
-1.99503997793928
20
-0.840338966235578
30
0
41
1
10
-1.99503997793928
20
-0.945048896197648
30
0
41
1
10
-1.99503997793928
20
-1.04964379294299
30
0
41
1
10
-1.99503997793928
20
-1.15411258033262
30
0
41
1
10
-1.99503997793928
20
-1.25844373877695
30
0
41
1
10
-1.99503997793928
20
-1.36262723194542
30
0
41
1
10
-1.99503997793928
20
-1.46665210416356
30
0
41
1
10
-1.99503997793928
20
-1.57050948928742
30
0
41
1
10
-1.99503997793928
20
-1.67418896894682
30
0
41
1
10
-1.99503997793928
20
-1.77768276258209
30
0
41
1
10
-1.99503997793928
20
-1.88098142742643
30
0
41
1
10
-1.99503997793928
20
-1.98407766278629
30
0
41
1
10
-1.99503997793928
20
-2.08696370566375
30
0
41
1
10
-1.99503997793928
20
-2.18963189754737
30
0
41
1
10
-1.99503997793928
20
-2.29207637206397
30
0
41
1
10
-1.99503997793928
20
-2.39428973936722
30
0
41
1
10
-1.99503997793928
20
-2.4962670319988
30
0
41
1
10
-1.99503997793928
20
-2.59800197223717
30
0
41
1
10
-1.99503997793928
20
-2.73345090264118
30
0
41
1
10
-1.99503997793928
20
-2.86801083241156
30
0
41
1
10
-1.99503997793928
20
-3.00241855173454
30
0
41
1
10
-1.99503997793928
20
-3.13647582573117
30
0
41
1
10
-1.99503997793928
20
-3.30310842941955
30
0
41
1
10
-1.99503997793928
20
-3.46881383607317
30
0
41
1
10
-1.99503997793928
20
-3.60101470543907
30
0
41
1
10
-1.99503997793928
20
-3.69979996514493
30
0
41
1
10
-1.99503997793928
20
-3.79829732832764
30
0
41
1
10
-1.99503997793928
20
-3.92934662557204
30
0
41
1
10
-1.99503997793928
20
-4.09219631216945
30
0
41
1
10
-1.99503997793928
20
-4.28654650347451
30
0
41
1
10
-1.99503997793928
20
-4.47969611179559
30
0
41
1
10
-1.99503997793928
20
-4.67163198724225
30
0
41
1
10
-1.99503997793928
20
-4.86234315765492
30
0
41
1
10
-1.99503997793928
20
-5.05181944357969
30
0
41
1
10
-1.99503997793928
20
-5.24005183821342
30
0
41
1
10
-1.99503997793928
20
-5.42703263168386
30
0
41
1
10
-1.99503997793928
20
-5.61275497462711
30
0
41
1
10
-1.99503997793931
20
-5.79721217482029
30
0
41
1
10
-1.99503997793931
20
-5.98039819956611
30
0
41
1
10
-1.99503997793931
20
-6.16230794338162
30
0
41
1
10
-1.99503997793931
20
-6.34293700639154
30
0
41
1
10
-1.99503997793931
20
-6.52228076981257
30
0
41
1
10
-1.99503997793931
20
-6.70033533418757
30
0
41
1
10
-1.99503997793931
20
-6.87709665926303
30
0
41
1
10
-1.99503997793931
20
-7.11118459991687
30
0
41
1
10
-1.99503997793931
20
-7.40025292645402
30
0
41
1
10
-1.99503997793931
20
-7.74205781809903
30
0
41
1
10
-1.99503997793931
20
-8.02240145976876
30
0
41
1
10
-1.99503997793931
20
-8.24425235284596
30
0
41
1
10
-1.99503997793931
20
-8.40923674956807
30
0
41
1
10
-1.99503997793931
20
-8.57289871422529
30
0
41
1
10
-1.99503997793931
20
-8.73523610803539
30
0
41
1
10
-1.99503997793931
20
-8.89624560664996
30
0
41
1
10
-1.99503997793931
20
-9.10925720032841
30
0
41
1
10
-1.99503997793931
20
-9.37195865915049
30
0
41
1
10
-1.99503997793931
20
-9.6301983246166
30
0
41
1
10
-1.99503997793931
20
-9.83427694277646
30
0
41
1
10
-1.99503997793931
20
-9.98591881051331
30
0
41
1
10
-1.99503997793931
20
-10.1362104789651
30
0
41
1
10
-1.99503997793931
20
-10.2851499142426
30
0
41
1
10
-1.99503997793931
20
-10.432733482583
30
0
41
1
10
-1.99503997793931
20
-10.6277879483349
30
0
41
1
10
-1.99503997793931
20
-10.8198574709635
30
0
41
1
10
-1.99503997793931
20
-11.0094435667743
30
0
41
1
10
-1.99503997793931
20
-11.1972001338813
30
0
41
1
10
-1.99503997793931
20
-11.4282697094187
30
0
41
1
10
-1.99503997793931
20
-11.6547268446385
30
0
41
1
10
-1.99503997793931
20
-11.8332480225582
30
0
41
1
10
-1.99503997793931
20
-12.0099077334538
30
0
41
1
10
-1.99503997793931
20
-12.1835401209566
30
0
41
1
10
-1.99503997793931
20
-12.3545748313203
30
0
41
1
10
-1.99503997793931
20
-12.4813812819682
30
0
41
1
10
-1.99503997793931
20
-12.6067684751262
30
0
41
1
10
-1.99503997793931
20
-12.7721223466594
30
0
41
1
10
-1.99503997793931
20
-12.9344093235711
30
0
41
1
10
-1.99503997793931
20
-13.0940197637218
30
0
41
1
10
-1.99503997793931
20
-13.2122307543484
30
0
41
1
10
-1.99503997793931
20
-13.3289901210133
30
0
41
1
10
-1.99503997793931
20
-13.4827901435456
30
0
41
1
10
-1.99503997793931
20
-13.6334713858817
30
0
41
1
10
-1.99503997793931
20
-13.7813876543746
30
0
41
1
10
-1.99503997793931
20
-13.8907947392413
30
0
41
1
10
-1.99503997793931
20
-13.99871189727
30
0
41
1
10
-1.99503997793931
20
-14.1406647319193
30
0
41
1
10
-1.99503997793931
20
-14.2794333813788
30
0
41
1
10
-1.99503997793931
20
-14.4153366880849
30
0
41
1
10
-1.99503997793931
20
-14.5156939237825
30
0
41
1
10
-1.99503997793931
20
-14.614516060936
30
0
41
1
10
-1.99503997793931
20
-14.7442755571137
30
0
41
1
10
-1.99503997793931
20
-14.8707702595594
30
0
41
1
10
-1.99503997793931
20
-14.9942845913974
30
0
41
1
10
-1.99503997793931
20
-15.070107125687
30
0
41
1
10
-1.99503997793931
20
-15.130016414734
30
0
41
1
10
-1.99503997793931
20
-15.1893946011098
30
0
41
1
10
-1.99503997793931
20
-15.2918890331241
30
0
41
1
10
-1.99503997793931
20
-15.4056838559475
30
0
41
1
10
-1.99503997793931
20
-15.5163656330196
30
0
41
1
10
-1.99503997793931
20
-15.5977008570348
30
0
41
1
10
-1.99503997793931
20
-15.677384979663
30
0
41
1
10
-1.99503997793931
20
-15.781458474053
30
0
41
1
10
-1.99503997793931
20
-15.8820499896637
30
0
41
1
10
-1.99503997793931
20
-15.9793734967038
30
0
41
1
10
-1.99503997793931
20
-16.0506207879892
30
0
41
1
10
-1.99503997793931
20
-16.1201424632647
30
0
41
1
10
-1.99503997793931
20
-16.1879246525291
30
0
41
1
10
-1.99503997793931
20
-16.2539521307207
30
0
41
1
10
-1.99503997793931
20
-16.3182114280861
30
0
41
1
10
-1.99503997793931
20
-16.3806869997558
30
0
41
1
10
-1.99503997793931
20
-16.4616240235723
30
0
41
1
10
-1.99503997793931
20
-16.538824252381
30
0
41
1
10
-1.99503997793931
20
-16.6124299668847
30
0
41
1
10
-1.99503997793931
20
-16.6835453043615
30
0
41
1
10
-1.99503997793931
20
-16.7507930080793
30
0
41
1
10
-1.99503997793931
20
-16.8142877377232
30
0
41
1
10
-1.99503997793931
20
-16.8751872797734
30
0
41
1
10
-1.99503997793931
20
-16.9320728583858
30
0
41
1
10
-1.99503997793931
20
-16.9850205784631
30
0
41
1
10
-1.99503997793931
20
-17.0226788299273
30
0
41
1
10
-1.99503997793931
20
-17.0582791544303
30
0
41
1
10
-1.99503997793931
20
-17.1029924178939
30
0
41
1
10
-1.99503997793931
20
-17.1434240170936
30
0
41
1
10
-1.99503997793931
20
-17.1795896288677
30
0
41
1
10
-1.99503997793931
20
-17.204505416066
30
0
41
1
10
-1.99503997793931
20
-17.2271975480507
30
0
41
1
10
-1.99503997793931
20
-17.2476335178127
30
0
41
1
10
-1.99503997793931
20
-17.2657806121613
30
0
41
1
10
-1.99503997793931
20
-17.2816041393821
30
0
41
1
10
-1.99503997793931
20
-17.2950677779805
30
0
41
1
10
-1.99503997793931
20
-17.3061342543252
30
0
41
1
10
-1.99503997793931
20
-17.3147637210185
30
0
41
1
10
-1.99503997793931
20
-17.3189468565078
30
0
41
1
10
-1.99503997793931
20
-17.3206249281408
30
0
41
1
10
-1.99503997793931
20
-17.3206887914463
30
0
0
SPLINE
5
10C
100
AcDbEntity
8
SK1
62
256
6
ByLayer
370
18
48
1
60
0
100
AcDbSpline
70
4
71
3
72
282
73
278
40
0
40
0
40
0
40
0
40
0.0031454757038074
40
0.0067198649455089
40
0.0102942541872105
40
0.0138686434289121
40
0.0174430326706136
40
0.0210174219123152
40
0.0245918111540168
40
0.0281662003957183
40
0.0317405896374199
40
0.0353149788791215
40
0.0424637573625246
40
0.0460381466042262
40
0.0496125358459277
40
0.0531869250876293
40
0.0567613143293309
40
0.063910092812734
40
0.0674844820544356
40
0.0710588712961371
40
0.0782076497795403
40
0.0817820390212418
40
0.0853564282629434
40
0.0925052067463465
40
0.0960795959880481
40
0.0996539852297497
40
0.103228374471451
40
0.106802763713153
40
0.110377152954854
40
0.113951542196556
40
0.117525931438258
40
0.121100320679959
40
0.128249099163362
40
0.131823488405064
40
0.135397877646765
40
0.138972266888467
40
0.142546656130169
40
0.149695434613572
40
0.153269823855273
40
0.156844213096975
40
0.160418602338676
40
0.163992991580378
40
0.171141770063781
40
0.174716159305483
40
0.178290548547184
40
0.181864937788886
40
0.185439327030587
40
0.19258810551399
40
0.196162494755692
40
0.199736883997394
40
0.203311273239095
40
0.206885662480797
40
0.2140344409642
40
0.217608830205901
40
0.221183219447603
40
0.224757608689305
40
0.228331997931006
40
0.235480776414409
40
0.239055165656111
40
0.242629554897812
40
0.246203944139514
40
0.249778333381215
40
0.256927111864619
40
0.26050150110632
40
0.264075890348022
40
0.271224668831425
40
0.278373447314828
40
0.28194783655653
40
0.285522225798231
40
0.292671004281634
40
0.296245393523336
40
0.299819782765038
40
0.303394172006739
40
0.306968561248441
40
0.310542950490142
40
0.314117339731844
40
0.321266118215247
40
0.32841489669865
40
0.331989285940352
40
0.335563675182053
40
0.339138064423755
40
0.342712453665456
40
0.346286842907158
40
0.349861232148859
40
0.357010010632263
40
0.364158789115666
40
0.371307567599069
40
0.37488195684077
40
0.378456346082472
40
0.382030735324173
40
0.385605124565875
40
0.389179513807577
40
0.392753903049278
40
0.39632829229098
40
0.399902681532681
40
0.403477070774383
40
0.407051460016085
40
0.410625849257786
40
0.414200238499488
40
0.417774627741189
40
0.421349016982891
40
0.424923406224592
40
0.428497795466294
40
0.432072184707996
40
0.433859379328846
40
0.435646573949697
40
0.437433768570548
40
0.439220963191399
40
0.4427953524331
40
0.446369741674802
40
0.448156936295653
40
0.449944130916503
40
0.451731325537354
40
0.453518520158205
40
0.455305714779056
40
0.457092909399906
40
0.460667298641608
40
0.462454493262459
40
0.46424168788331
40
0.46602888250416
40
0.467816077125011
40
0.469603271745862
40
0.471390466366713
40
0.473177660987563
40
0.474964855608414
40
0.476752050229265
40
0.478539244850116
40
0.480326439470967
40
0.482113634091818
40
0.483900828712668
40
0.485688023333519
40
0.48747521795437
40
0.489262412575221
40
0.491049607196071
40
0.492836801816922
40
0.494623996437773
40
0.496411191058624
40
0.498198385679475
40
0.499985580300325
40
0.501772774921176
40
0.503559969542027
40
0.505347164162878
40
0.507134358783728
40
0.508921553404579
40
0.51070874802543
40
0.512495942646281
40
0.514283137267132
40
0.516070331887982
40
0.517857526508833
40
0.519644721129684
40
0.521431915750535
40
0.523219110371385
40
0.525006304992236
40
0.526793499613087
40
0.528580694233938
40
0.530367888854789
40
0.532155083475639
40
0.53394227809649
40
0.535729472717341
40
0.537516667338192
40
0.539303861959043
40
0.541091056579893
40
0.542878251200744
40
0.544665445821595
40
0.546452640442446
40
0.550027029684147
40
0.551814224304998
40
0.553601418925849
40
0.55717580816755
40
0.560750197409252
40
0.562537392030103
40
0.564324586650954
40
0.566111781271804
40
0.567898975892655
40
0.571473365134357
40
0.575047754376058
40
0.57862214361776
40
0.582196532859461
40
0.585770922101163
40
0.589345311342865
40
0.592919700584566
40
0.596494089826268
40
0.600068479067969
40
0.603642868309671
40
0.607217257551372
40
0.610791646793074
40
0.614366036034775
40
0.617940425276477
40
0.621514814518179
40
0.62508920375988
40
0.628663593001582
40
0.635812371484985
40
0.642961149968388
40
0.650109928451791
40
0.653684317693493
40
0.657258706935194
40
0.660833096176896
40
0.664407485418597
40
0.667981874660299
40
0.671556263902001
40
0.678705042385404
40
0.685853820868807
40
0.689428210110508
40
0.69300259935221
40
0.696576988593911
40
0.700151377835613
40
0.703725767077315
40
0.707300156319016
40
0.714448934802419
40
0.718023324044121
40
0.721597713285823
40
0.728746491769226
40
0.735895270252629
40
0.73946965949433
40
0.743044048736032
40
0.750192827219435
40
0.753767216461137
40
0.757341605702838
40
0.76091599494454
40
0.764490384186241
40
0.771639162669644
40
0.775213551911346
40
0.778787941153048
40
0.782362330394749
40
0.785936719636451
40
0.793085498119854
40
0.796659887361555
40
0.800234276603257
40
0.803808665844959
40
0.80738305508666
40
0.814531833570063
40
0.818106222811765
40
0.821680612053466
40
0.825255001295168
40
0.82882939053687
40
0.835978169020273
40
0.839552558261974
40
0.843126947503676
40
0.844914142124527
40
0.846701336745377
40
0.850275725987079
40
0.857424504470482
40
0.860998893712184
40
0.864573282953885
40
0.868147672195587
40
0.871722061437288
40
0.878870839920691
40
0.882445229162393
40
0.886019618404095
40
0.889594007645796
40
0.893168396887498
40
0.896742786129199
40
0.900317175370901
40
0.903891564612602
40
0.907465953854304
40
0.914614732337707
40
0.918189121579409
40
0.92176351082111
40
0.928912289304514
40
0.932486678546215
40
0.936061067787917
40
0.94320984627132
40
0.946784235513021
40
0.950358624754723
40
0.953933013996424
40
0.957507403238126
40
0.964656181721529
40
0.968230570963231
40
0.971804960204932
40
0.975379349446634
40
0.978953738688335
40
0.982528127930037
40
0.986102517171738
40
0.98967690641344
40
0.993251295655142
40
0.996825684896843
40
1
40
1
40
1
40
1
41
1
10
-2.19999999999999
20
17.5147448705954
30
0
41
1
10
-2.19999999999999
20
17.5132050066065
30
0
41
1
10
-2.19999999999999
20
17.5092143119679
30
0
41
1
10
-2.19999999999999
20
17.5008423359265
30
0
41
1
10
-2.19999999999999
20
17.4896606050755
30
0
41
1
10
-2.19999999999999
20
17.4760589345483
30
0
41
1
10
-2.19999999999999
20
17.4600756660116
30
0
41
1
10
-2.19999999999999
20
17.4417480829298
30
0
41
1
10
-2.19999999999999
20
17.4211116708093
30
0
41
1
10
-2.19999999999999
20
17.3981999720817
30
0
41
1
10
-2.19999999999999
20
17.373046254225
30
0
41
1
10
-2.19999999999999
20
17.3365615480365
30
0
41
1
10
-2.19999999999999
20
17.2957083393221
30
0
41
1
10
-2.19999999999999
20
17.2506132986913
30
0
41
1
10
-2.19999999999999
20
17.2146924230801
30
0
41
1
10
-2.19999999999999
20
17.1766986759847
30
0
41
1
10
-2.19999999999999
20
17.1233138560685
30
0
41
1
10
-2.19999999999999
20
17.0658713749173
30
0
41
1
10
-2.19999999999999
20
17.0044820563696
30
0
41
1
10
-2.19999999999999
20
16.9404819965209
30
0
41
1
10
-2.19999999999999
20
16.8725984751516
30
0
41
1
10
-2.19999999999999
20
16.8009296734765
30
0
41
1
10
-2.19999999999999
20
16.72675615712
30
0
41
1
10
-2.19999999999999
20
16.6488472996884
30
0
41
1
10
-2.19999999999999
20
16.5672977573629
30
0
41
1
10
-2.19999999999999
20
16.5043209819811
30
0
41
1
10
-2.19999999999999
20
16.4395493732765
30
0
41
1
10
-2.19999999999999
20
16.3729983406747
30
0
41
1
10
-2.19999999999999
20
16.3046816133433
30
0
41
1
10
-2.19999999999999
20
16.2346146587631
30
0
41
1
10
-2.19999999999999
20
16.1628111167189
30
0
41
1
10
-2.19999999999999
20
16.0647793469533
30
0
41
1
10
-2.19999999999999
20
15.9633134995801
30
0
41
1
10
-2.19999999999999
20
15.8584913887799
30
0
41
1
10
-2.19999999999999
20
15.7781982427732
30
0
41
1
10
-2.19999999999999
20
15.6962433497342
30
0
41
1
10
-2.19999999999999
20
15.5847743861311
30
0
41
1
10
-2.19999999999999
20
15.4700110710185
30
0
41
1
10
-2.19999999999999
20
15.3520264687641
30
0
41
1
10
-2.19999999999999
20
15.2619258251736
30
0
41
1
10
-2.19999999999999
20
15.1702262286607
30
0
41
1
10
-2.19999999999999
20
15.0458463802595
30
0
41
1
10
-2.19999999999999
20
14.9182892137509
30
0
41
1
10
-2.19999999999999
20
14.7876243835494
30
0
41
1
10
-2.19999999999999
20
14.6880675684927
30
0
41
1
10
-2.19999999999999
20
14.5869647024964
30
0
41
1
10
-2.19999999999999
20
14.4501162009323
30
0
41
1
10
-2.19999999999999
20
14.310188578504
30
0
41
1
10
-2.19999999999999
20
14.1672492498436
30
0
41
1
10
-2.19999999999999
20
14.0585319196999
30
0
41
1
10
-2.19999999999999
20
13.9483131149779
30
0
41
1
10
-2.19999999999999
20
13.7993681823229
30
0
41
1
10
-2.19999999999999
20
13.6474264445926
30
0
41
1
10
-2.19999999999999
20
13.4925540283558
30
0
41
1
10
-2.19999999999999
20
13.3749248852381
30
0
41
1
10
-2.19999999999999
20
13.2558316845062
30
0
41
1
10
-2.19999999999999
20
13.0951031858018
30
0
41
1
10
-2.19999999999999
20
12.9314463879873
30
0
41
1
10
-2.19999999999999
20
12.7649271524075
30
0
41
1
10
-2.19999999999999
20
12.6385945304865
30
0
41
1
10
-2.19999999999999
20
12.510828990928
30
0
41
1
10
-2.19999999999999
20
12.3385783725546
30
0
41
1
10
-2.19999999999999
20
12.1634558634281
30
0
41
1
10
-2.19999999999999
20
11.9855279960913
30
0
41
1
10
-2.19999999999999
20
11.8057193844339
30
0
41
1
10
-2.19999999999999
20
11.5774197426994
30
0
41
1
10
-2.19999999999999
20
11.3444552561941
30
0
41
1
10
-2.19999999999999
20
11.1553144466797
30
0
41
1
10
-2.19999999999999
20
10.96432157968
30
0
41
1
10
-2.19999999999999
20
10.7705258372791
30
0
41
1
10
-2.19999999999999
20
10.5740001677826
30
0
41
1
10
-2.19999999999999
20
10.4252200954492
30
0
41
1
10
-2.19999999999999
20
10.2750653600417
30
0
41
1
10
-2.19999999999999
20
10.1235384488298
30
0
41
1
10
-2.19999999999999
20
9.9706412292081
30
0
41
1
10
-2.19999999999999
20
9.76496631801302
30
0
41
1
10
-2.19999999999999
20
9.50443392738597
30
0
41
1
10
-2.19999999999999
20
9.23936570098886
30
0
41
1
10
-2.19999999999999
20
9.02461799380217
30
0
41
1
10
-2.19999999999999
20
8.86219304475887
30
0
41
1
10
-2.19999999999999
20
8.69841428000512
30
0
41
1
10
-2.19999999999999
20
8.53328405958746
30
0
41
1
10
-2.19999999999999
20
8.36680339868337
30
0
41
1
10
-2.19999999999999
20
8.14304412571011
30
0
41
1
10
-2.19999999999999
20
7.85994707617317
30
0
41
1
10
-2.19999999999999
20
7.51487111531026
30
0
41
1
10
-2.19999999999999
20
7.22282329277962
30
0
41
1
10
-2.19999999999999
20
6.98653548716825
30
0
41
1
10
-2.19999999999999
20
6.80797157864473
30
0
41
1
10
-2.19999999999999
20
6.62807270531454
30
0
41
1
10
-2.19999999999999
20
6.44684086969582
30
0
41
1
10
-2.19999999999999
20
6.26427776637016
30
0
41
1
10
-2.19999999999999
20
6.0803858592752
30
0
41
1
10
-2.19999999999999
20
5.89516728223867
30
0
41
1
10
-2.19999999999999
20
5.70862469092603
30
0
41
1
10
-2.19999999999999
20
5.52076103085633
30
0
41
1
10
-2.19999999999999
20
5.33157993388585
30
0
41
1
10
-2.19999999999999
20
5.14108511996025
30
0
41
1
10
-2.19999999999999
20
4.94928086714648
30
0
41
1
10
-2.19999999999999
20
4.75617251627347
30
0
41
1
10
-2.19999999999999
20
4.56176620564526
30
0
41
1
10
-2.19999999999999
20
4.36606873641344
30
0
41
1
10
-2.19999999999999
20
4.16908849962459
30
0
41
1
10
-2.19999999999999
20
4.00386590607064
30
0
41
1
10
-2.19999999999999
20
3.87107810854147
30
0
41
1
10
-2.19999999999999
20
3.7711641857039
30
0
41
1
10
-2.19999999999999
20
3.67093805129474
30
0
41
1
10
-2.19999999999999
20
3.5369018254882
30
0
41
1
10
-2.19999999999999
20
3.36855658184021
30
0
41
1
10
-2.19999999999999
20
3.19919951970698
30
0
41
1
10
-2.19999999999999
20
3.06314133422208
30
0
41
1
10
-2.19999999999999
20
2.96079189341756
30
0
41
1
10
-2.19999999999999
20
2.85815023786418
30
0
41
1
10
-2.19999999999999
20
2.75522026664271
30
0
41
1
10
-2.19999999999999
20
2.65200561172494
30
0
41
1
10
-2.19999999999999
20
2.51402705629772
30
0
41
1
10
-2.19999999999999
20
2.375450816946
30
0
41
1
10
-2.19999999999999
20
2.23639085040648
30
0
41
1
10
-2.19999999999999
20
2.13182395998015
30
0
41
1
10
-2.19999999999999
20
2.02700348752293
30
0
41
1
10
-2.19999999999999
20
1.92193653735015
30
0
41
1
10
-2.19999999999999
20
1.81663008016324
30
0
41
1
10
-2.19999999999999
20
1.71109231328518
30
0
41
1
10
-2.19999999999999
20
1.60533155404698
30
0
41
1
10
-2.19999999999999
20
1.49935698477981
30
0
41
1
10
-2.19999999999999
20
1.39317847233161
30
0
41
1
10
-2.19999999999999
20
1.28680633401083
30
0
41
1
10
-2.19999999999999
20
1.18025197439016
30
0
41
1
10
-2.19999999999999
20
1.073527020087
30
0
41
1
10
-2.19999999999999
20
0.96664434311532
30
0
41
1
10
-2.19999999999999
20
0.859616995486334
30
0
41
1
10
-2.19999999999999
20
0.752459219961509
30
0
41
1
10
-2.19999999999999
20
0.6451854537342
30
0
41
1
10
-2.19999999999999
20
0.537811163545626
30
0
41
1
10
-2.19999999999999
20
0.430352024765995
30
0
41
1
10
-2.19999999999999
20
0.322824496958617
30
0
41
1
10
-2.19999999999999
20
0.215245213108545
30
0
41
1
10
-2.19999999999999
20
0.107631302158183
30
0
41
1
10
-2.19999999999999
20
-5.9909553E-09
30
0
41
1
10
-2.19999999999999
20
-0.107631313716837
30
0
41
1
10
-2.19999999999999
20
-0.21524522393176
30
0
41
1
10
-2.19999999999999
20
-0.322824507999513
30
0
41
1
10
-2.19999999999999
20
-0.430352036900842
30
0
41
1
10
-2.19999999999999
20
-0.537811175438549
30
0
41
1
10
-2.19999999999999
20
-0.645185463980482
30
0
41
1
10
-2.19999999999999
20
-0.752459230354134
30
0
41
1
10
-2.19999999999999
20
-0.859617007920491
30
0
41
1
10
-2.19999999999999
20
-0.966644355262389
30
0
41
1
10
-2.19999999999999
20
-1.07352702949097
30
0
41
1
10
-2.19999999999999
20
-1.18025198377217
30
0
41
1
10
-2.19999999999999
20
-1.2868063464968
30
0
41
1
10
-2.19999999999999
20
-1.39317848503856
30
0
41
1
10
-2.19999999999999
20
-1.49935699380708
30
0
41
1
10
-2.19999999999999
20
-1.60533156181745
30
0
41
1
10
-2.19999999999999
20
-1.71109232444704
30
0
41
1
10
-2.19999999999999
20
-1.81663009373557
30
0
41
1
10
-2.19999999999999
20
-1.92193654804359
30
0
41
1
10
-2.19999999999999
20
-2.02700349385552
30
0
41
1
10
-2.19999999999999
20
-2.13182396747069
30
0
41
1
10
-2.19999999999999
20
-2.23639086291988
30
0
41
1
10
-2.19999999999999
20
-2.34069812940876
30
0
41
1
10
-2.19999999999999
20
-2.44473977839388
30
0
41
1
10
-2.19999999999999
20
-2.54851063247165
30
0
41
1
10
-2.19999999999999
20
-2.65200559968281
30
0
41
1
10
-2.19999999999999
20
-2.78960994504098
30
0
41
1
10
-2.19999999999999
20
-2.92668912429065
30
0
41
1
10
-2.19999999999999
20
-3.06314133551615
30
0
41
1
10
-2.19999999999999
20
-3.19919952332836
30
0
41
1
10
-2.19999999999999
20
-3.36855659963138
30
0
41
1
10
-2.19999999999999
20
-3.53690183437428
30
0
41
1
10
-2.19999999999999
20
-3.67093805397229
30
0
41
1
10
-2.19999999999999
20
-3.77116418775421
30
0
41
1
10
-2.19999999999999
20
-3.87107811616195
30
0
41
1
10
-2.19999999999999
20
-4.00386592221614
30
0
41
1
10
-2.19999999999999
20
-4.169088511784
30
0
41
1
10
-2.19999999999999
20
-4.36606871643775
30
0
41
1
10
-2.19999999999999
20
-4.56176617271481
30
0
41
1
10
-2.19999999999999
20
-4.75617249379653
30
0
41
1
10
-2.19999999999999
20
-4.94928076863457
30
0
41
1
10
-2.19999999999999
20
-5.14108500618136
30
0
41
1
10
-2.19999999999999
20
-5.33157993903225
30
0
41
1
10
-2.19999999999999
20
-5.52076102284181
30
0
41
1
10
-2.19999999999999
20
-5.70862461825791
30
0
41
1
10
-2.19999999999999
20
-5.89516734859464
30
0
41
1
10
-2.19999999999999
20
-6.0803860968085
30
0
41
1
10
-2.20000000000002
20
-6.26427796235188
30
0
41
1
10
-2.20000000000002
20
-6.44684092947378
30
0
41
1
10
-2.20000000000002
20
-6.6280727178615
30
0
41
1
10
-2.20000000000002
20
-6.80797159432129
30
0
41
1
10
-2.20000000000002
20
-6.98653550324826
30
0
41
1
10
-2.20000000000002
20
-7.22282328452872
30
0
41
1
10
-2.20000000000002
20
-7.51487112820209
30
0
41
1
10
-2.20000000000002
20
-7.85994708827315
30
0
41
1
10
-2.20000000000002
20
-8.14304411844034
30
0
41
1
10
-2.20000000000002
20
-8.36680341033821
30
0
41
1
10
-2.20000000000002
20
-8.53328407858575
30
0
41
1
10
-2.20000000000002
20
-8.69841428877766
30
0
41
1
10
-2.20000000000002
20
-8.86219304073114
30
0
41
1
10
-2.20000000000002
20
-9.02461799205523
30
0
41
1
10
-2.20000000000002
20
-9.23936571773672
30
0
41
1
10
-2.20000000000002
20
-9.50443394039922
30
0
41
1
10
-2.20000000000002
20
-9.76496631110049
30
0
41
1
10
-2.20000000000002
20
-9.97064123613964
30
0
41
1
10
-2.20000000000002
20
-10.123538466054
30
0
41
1
10
-2.20000000000002
20
-10.2750653748105
30
0
41
1
10
-2.20000000000002
20
-10.4252201002359
30
0
41
1
10
-2.20000000000002
20
-10.5740001651574
30
0
41
1
10
-2.20000000000002
20
-10.7705258416001
30
0
41
1
10
-2.20000000000002
20
-10.9643215989582
30
0
41
1
10
-2.20000000000002
20
-11.1553144582602
30
0
41
1
10
-2.20000000000002
20
-11.3444552554371
30
0
41
1
10
-2.20000000000002
20
-11.5774197477568
30
0
41
1
10
-2.20000000000002
20
-11.8057194023465
30
0
41
1
10
-2.20000000000002
20
-11.9855280067157
30
0
41
1
10
-2.20000000000002
20
-12.1634558646821
30
0
41
1
10
-2.20000000000002
20
-12.3385783781737
30
0
41
1
10
-2.20000000000002
20
-12.510829004708
30
0
41
1
10
-2.20000000000002
20
-12.6385945454976
30
0
41
1
10
-2.20000000000002
20
-12.7649271637091
30
0
41
1
10
-2.20000000000002
20
-12.9314463925932
30
0
41
1
10
-2.20000000000002
20
-13.0951031927999
30
0
41
1
10
-2.20000000000002
20
-13.2558316973182
30
0
41
1
10
-2.20000000000002
20
-13.3749248996582
30
0
41
1
10
-2.20000000000002
20
-13.4925540411334
30
0
41
1
10
-2.20000000000002
20
-13.6474264531923
30
0
41
1
10
-2.20000000000002
20
-13.7993681905533
30
0
41
1
10
-2.20000000000002
20
-13.9483131264862
30
0
41
1
10
-2.20000000000002
20
-14.0585319334344
30
0
41
1
10
-2.20000000000002
20
-14.1672492642274
30
0
41
1
10
-2.20000000000002
20
-14.3101885914782
30
0
41
1
10
-2.20000000000002
20
-14.4501162106047
30
0
41
1
10
-2.20000000000002
20
-14.5869647126432
30
0
41
1
10
-2.20000000000002
20
-14.6880675812844
30
0
41
1
10
-2.20000000000002
20
-14.7876243995297
30
0
41
1
10
-2.20000000000002
20
-14.9182892218295
30
0
41
1
10
-2.20000000000002
20
-15.0458464314392
30
0
41
1
10
-2.20000000000002
20
-15.1702261509224
30
0
41
1
10
-2.20000000000002
20
-15.2466455133785
30
0
41
1
10
-2.20000000000002
20
-15.3069761679616
30
0
41
1
10
-2.20000000000002
20
-15.3667724139347
30
0
41
1
10
-2.20000000000002
20
-15.4700110929875
30
0
41
1
10
-2.20000000000002
20
-15.5847743990242
30
0
41
1
10
-2.20000000000002
20
-15.6962433571227
30
0
41
1
10
-2.20000000000002
20
-15.7781982539187
30
0
41
1
10
-2.20000000000002
20
-15.8584914079188
30
0
41
1
10
-2.20000000000002
20
-15.9633135259672
30
0
41
1
10
-2.20000000000002
20
-16.0647793597711
30
0
41
1
10
-2.20000000000002
20
-16.1628111223414
30
0
41
1
10
-2.20000000000002
20
-16.2346146707391
30
0
41
1
10
-2.20000000000002
20
-16.3046816359758
30
0
41
1
10
-2.20000000000002
20
-16.3729983688048
30
0
41
1
10
-2.20000000000002
20
-16.439549393056
30
0
41
1
10
-2.20000000000002
20
-16.5043209901434
30
0
41
1
10
-2.20000000000002
20
-16.5672977619412
30
0
41
1
10
-2.20000000000002
20
-16.6488473199257
30
0
41
1
10
-2.20000000000002
20
-16.7267561914694
30
0
41
1
10
-2.20000000000002
20
-16.8009296884544
30
0
41
1
10
-2.20000000000002
20
-16.8725984731112
30
0
41
1
10
-2.20000000000002
20
-16.9404820184079
30
0
41
1
10
-2.20000000000002
20
-17.0044820909957
30
0
41
1
10
-2.20000000000002
20
-17.0658713913631
30
0
41
1
10
-2.20000000000002
20
-17.123313852319
30
0
41
1
10
-2.20000000000002
20
-17.1766986986672
30
0
41
1
10
-2.20000000000002
20
-17.2146924603873
30
0
41
1
10
-2.20000000000002
20
-17.250613323192
30
0
41
1
10
-2.20000000000002
20
-17.2957083328928
30
0
41
1
10
-2.20000000000002
20
-17.3365615705832
30
0
41
1
10
-2.20000000000002
20
-17.3730462873428
30
0
41
1
10
-2.20000000000002
20
-17.398199993695
30
0
41
1
10
-2.20000000000002
20
-17.4211116738093
30
0
41
1
10
-2.20000000000002
20
-17.4417480876219
30
0
41
1
10
-2.20000000000002
20
-17.4600756994924
30
0
41
1
10
-2.20000000000002
20
-17.4760589706817
30
0
41
1
10
-2.20000000000002
20
-17.4896606126054
30
0
41
1
10
-2.20000000000002
20
-17.5008423321234
30
0
41
1
10
-2.20000000000002
20
-17.5092377859828
30
0
41
1
10
-2.20000000000002
20
-17.5132392383546
30
0
41
1
10
-2.20000000000005
20
-17.5147871276454
30
0
0
SPLINE
5
10D
100
AcDbEntity
8
SK1
62
256
6
ByLayer
370
18
48
1
60
0
100
AcDbSpline
70
4
71
3
72
290
73
286
40
0
40
0
40
0
40
0
40
0.0008596692932251
40
0.0043501644792009
40
0.0078406596651767
40
0.0113311548511524
40
0.0148216500371282
40
0.018312145223104
40
0.0218026404090797
40
0.0252931355950555
40
0.0287836307810313
40
0.0322741259670071
40
0.0357646211529829
40
0.0392551163389586
40
0.0427456115249344
40
0.0462361067109102
40
0.0532170970828617
40
0.0567075922688375
40
0.0601980874548133
40
0.063688582640789
40
0.0671790778267648
40
0.0741600681987163
40
0.0776505633846921
40
0.0811410585706679
40
0.0881220489426194
40
0.0916125441285952
40
0.0951030393145711
40
0.102084029686523
40
0.105574524872498
40
0.109065020058474
40
0.11255551524445
40
0.116046010430426
40
0.119536505616402
40
0.123027000802377
40
0.126517495988353
40
0.130007991174329
40
0.13698898154628
40
0.140479476732256
40
0.143969971918232
40
0.147460467104208
40
0.150950962290184
40
0.157931952662135
40
0.161422447848111
40
0.164912943034086
40
0.168403438220062
40
0.171893933406038
40
0.17887492377799
40
0.182365418963965
40
0.185855914149941
40
0.189346409335917
40
0.192836904521893
40
0.199817894893844
40
0.20330839007982
40
0.206798885265796
40
0.210289380451772
40
0.213779875637747
40
0.220760866009699
40
0.224251361195675
40
0.22774185638165
40
0.231232351567626
40
0.234722846753602
40
0.241703837125554
40
0.245194332311529
40
0.248684827497505
40
0.252175322683481
40
0.255665817869457
40
0.262646808241408
40
0.266137303427384
40
0.26962779861336
40
0.276608788985311
40
0.283589779357263
40
0.287080274543239
40
0.290570769729214
40
0.297551760101166
40
0.301042255287142
40
0.304532750473118
40
0.308023245659093
40
0.311513740845069
40
0.315004236031045
40
0.318494731217021
40
0.325475721588972
40
0.332456711960924
40
0.3359472071469
40
0.339437702332875
40
0.342928197518851
40
0.346418692704827
40
0.349909187890803
40
0.353399683076778
40
0.36038067344873
40
0.367361663820682
40
0.374342654192633
40
0.377833149378609
40
0.381323644564585
40
0.38481413975056
40
0.388304634936536
40
0.391795130122512
40
0.395285625308488
40
0.398776120494463
40
0.402266615680439
40
0.405757110866415
40
0.409247606052391
40
0.412738101238367
40
0.416228596424342
40
0.419719091610318
40
0.423209586796294
40
0.42670008198227
40
0.430190577168245
40
0.433681072354221
40
0.435426319947209
40
0.437171567540197
40
0.438916815133185
40
0.440662062726173
40
0.444152557912149
40
0.447643053098124
40
0.449388300691112
40
0.4511335482841
40
0.452878795877088
40
0.454624043470076
40
0.456369291063064
40
0.458114538656052
40
0.461605033842027
40
0.463350281435015
40
0.465095529028003
40
0.466840776620991
40
0.468586024213979
40
0.470331271806967
40
0.472076519399955
40
0.473821766992942
40
0.47556701458593
40
0.477312262178918
40
0.479057509771906
40
0.480802757364894
40
0.482548004957882
40
0.48429325255087
40
0.486038500143858
40
0.487783747736846
40
0.489528995329834
40
0.491274242922822
40
0.493019490515809
40
0.494764738108797
40
0.496509985701785
40
0.498255233294773
40
0.500000480887761
40
0.501745728480749
40
0.503490976073737
40
0.505236223666724
40
0.506981471259712
40
0.5087267188527
40
0.510471966445688
40
0.512217214038676
40
0.513962461631664
40
0.515707709224652
40
0.51745295681764
40
0.519198204410628
40
0.520943452003616
40
0.522688699596603
40
0.524433947189591
40
0.526179194782579
40
0.527924442375567
40
0.529669689968555
40
0.531414937561543
40
0.533160185154531
40
0.534905432747519
40
0.536650680340507
40
0.538395927933494
40
0.540141175526482
40
0.54188642311947
40
0.543631670712458
40
0.545376918305446
40
0.548867413491422
40
0.55061266108441
40
0.552357908677398
40
0.555848403863373
40
0.559338899049349
40
0.561084146642337
40
0.562829394235325
40
0.564574641828313
40
0.566319889421301
40
0.569810384607276
40
0.573300879793252
40
0.576791374979228
40
0.580281870165203
40
0.583772365351179
40
0.587262860537155
40
0.590753355723131
40
0.594243850909107
40
0.597734346095083
40
0.601224841281058
40
0.604715336467034
40
0.60820583165301
40
0.611696326838985
40
0.615186822024961
40
0.618677317210937
40
0.622167812396913
40
0.625658307582889
40
0.63263929795484
40
0.639620288326792
40
0.646601278698743
40
0.650091773884719
40
0.653582269070695
40
0.657072764256671
40
0.660563259442646
40
0.664053754628622
40
0.667544249814598
40
0.67452524018655
40
0.681506230558501
40
0.684996725744477
40
0.688487220930452
40
0.691977716116428
40
0.695468211302404
40
0.69895870648838
40
0.702449201674356
40
0.709430192046307
40
0.712920687232283
40
0.716411182418259
40
0.72339217279021
40
0.730373163162162
40
0.733863658348138
40
0.737354153534113
40
0.744335143906065
40
0.747825639092041
40
0.751316134278017
40
0.754806629463992
40
0.758297124649968
40
0.765278115021919
40
0.768768610207895
40
0.772259105393871
40
0.775749600579847
40
0.779240095765823
40
0.786221086137774
40
0.78971158132375
40
0.793202076509726
40
0.796692571695702
40
0.800183066881677
40
0.807164057253629
40
0.810654552439605
40
0.81414504762558
40
0.817635542811556
40
0.821126037997532
40
0.828107028369483
40
0.831597523555459
40
0.835088018741435
40
0.836833266334423
40
0.838578513927411
40
0.842069009113387
40
0.849049999485338
40
0.852540494671314
40
0.85603098985729
40
0.859521485043266
40
0.863011980229241
40
0.869992970601193
40
0.873483465787169
40
0.876973960973145
40
0.88046445615912
40
0.883954951345096
40
0.887445446531072
40
0.890935941717047
40
0.894426436903023
40
0.897916932088999
40
0.90489792246095
40
0.908388417646926
40
0.911878912832902
40
0.918859903204854
40
0.922350398390829
40
0.925840893576805
40
0.932821883948757
40
0.936312379134732
40
0.939802874320708
40
0.943293369506684
40
0.94678386469266
40
0.953764855064611
40
0.957255350250587
40
0.960745845436563
40
0.964236340622539
40
0.967726835808514
40
0.97121733099449
40
0.974707826180466
40
0.978198321366442
40
0.981688816552417
40
0.985179311738393
40
0.988669806924369
40
0.992160302110345
40
0.995650797296321
40
0.999141292482297
40
1
40
1
40
1
40
1
41
1
10
-28.5
20
16.857061526984
30
0
41
1
10
-28.5
20
16.8573439395622
30
0
41
1
10
-28.5
20
16.8586400112198
30
0
41
1
10
-28.5
20
16.8597682913316
30
0
41
1
10
-28.5
20
16.8587320876465
30
0
41
1
10
-28.5
20
16.8551966776124
30
0
41
1
10
-28.5
20
16.8492032887544
30
0
41
1
10
-28.5
20
16.8407921788659
30
0
41
1
10
-28.5
20
16.8300011209595
30
0
41
1
10
-28.5
20
16.8168672741156
30
0
41
1
10
-28.5
20
16.801425522577
30
0
41
1
10
-28.5
20
16.783709883521
30
0
41
1
10
-28.5
20
16.7637529731542
30
0
41
1
10
-28.5
20
16.7415855338906
30
0
41
1
10
-28.5
20
16.7172383450784
30
0
41
1
10
-28.5
20
16.6818353810987
30
0
41
1
10
-28.5
20
16.642411510514
30
0
41
1
10
-28.5
20
16.5986105790194
30
0
41
1
10
-28.5
20
16.5637763020887
30
0
41
1
10
-28.5
20
16.5269199075572
30
0
41
1
10
-28.5
20
16.4750169305148
30
0
41
1
10
-28.5
20
16.4194622625482
30
0
41
1
10
-28.5
20
16.3597331913306
30
0
41
1
10
-28.5
20
16.2974462059125
30
0
41
1
10
-28.5
20
16.2317181614777
30
0
41
1
10
-28.5
20
16.1619255301563
30
0
41
1
10
-28.5
20
16.0896767577218
30
0
41
1
10
-28.5
20
16.0141701499498
30
0
41
1
10
-28.5
20
15.9346970720351
30
0
41
1
10
-28.5
20
15.8734193498835
30
0
41
1
10
-28.5
20
15.8103844132608
30
0
41
1
10
-28.5
20
15.745608166167
30
0
41
1
10
-28.5
20
15.6791035033831
30
0
41
1
10
-28.5
20
15.6108850520675
30
0
41
1
10
-28.5
20
15.5409672008416
30
0
41
1
10
-28.5
20
15.4453363897878
30
0
41
1
10
-28.5
20
15.3468344295443
30
0
41
1
10
-28.5
20
15.2445501023873
30
0
41
1
10
-28.5
20
15.1663215412448
30
0
41
1
10
-28.5
20
15.0864673138636
30
0
41
1
10
-28.5
20
14.9776668598205
30
0
41
1
10
-28.5
20
14.8661866472664
30
0
41
1
10
-28.5
20
14.7510047173632
30
0
41
1
10
-28.5
20
14.6631805593238
30
0
41
1
10
-28.5
20
14.5737935545693
30
0
41
1
10
-28.5
20
14.4523474056541
30
0
41
1
10
-28.5
20
14.3283920102608
30
0
41
1
10
-28.5
20
14.2007962111626
30
0
41
1
10
-28.5
20
14.1037299196573
30
0
41
1
10
-28.5
20
14.0051547121626
30
0
41
1
10
-28.5
20
13.8715103774193
30
0
41
1
10
-28.5
20
13.7355116027341
30
0
41
1
10
-28.5
20
13.5959164295663
30
0
41
1
10
-28.5
20
13.4899116400767
30
0
41
1
10
-28.5
20
13.3824445287114
30
0
41
1
10
-28.5
20
13.2369867267197
30
0
41
1
10
-28.5
20
13.0893180063073
30
0
41
1
10
-28.5
20
12.9380809359595
30
0
41
1
10
-28.5
20
12.8234002792818
30
0
41
1
10
-28.5
20
12.7072977235969
30
0
41
1
10
-28.5
20
12.550359403554
30
0
41
1
10
-28.5
20
12.3913462445321
30
0
41
1
10
-28.5
20
12.2287775158425
30
0
41
1
10
-28.5
20
12.1056498288981
30
0
41
1
10
-28.5
20
11.9811355431937
30
0
41
1
10
-28.5
20
11.8130068133241
30
0
41
1
10
-28.5
20
11.642935768078
30
0
41
1
10
-28.5
20
11.4693068645234
30
0
41
1
10
-28.5
20
11.2938625434425
30
0
41
1
10
-28.5
20
11.0718089327865
30
0
41
1
10
-28.5
20
10.8452681360072
30
0
41
1
10
-28.5
20
10.6608198079833
30
0
41
1
10
-28.5
20
10.4745957683654
30
0
41
1
10
-28.5
20
10.28665185334
30
0
41
1
10
-28.5
20
10.0951135357909
30
0
41
1
10
-28.5
20
9.95038954775913
30
0
41
1
10
-28.5
20
9.80435457760413
30
0
41
1
10
-28.5
20
9.65701503611825
30
0
41
1
10
-28.5
20
9.50837340526914
30
0
41
1
10
-28.5
20
9.30810992365682
30
0
41
1
10
-28.5
20
9.05534970701547
30
0
41
1
10
-28.5
20
8.79830464348925
30
0
41
1
10
-28.5
20
8.58944232029057
30
0
41
1
10
-28.5
20
8.43181572672984
30
0
41
1
10
-28.5
20
8.27292311790595
30
0
41
1
10
-28.5
20
8.11277014047187
30
0
41
1
10
-28.5
20
7.95136171184492
30
0
41
1
10
-28.5
20
7.73407184255311
30
0
41
1
10
-28.5
20
7.46030866767532
30
0
41
1
10
-28.5
20
7.12632140637376
30
0
41
1
10
-28.5
20
6.84437402550572
30
0
41
1
10
-28.5
20
6.61554359890374
30
0
41
1
10
-28.5
20
6.4430902941161
30
0
41
1
10
-28.5
20
6.26944364545892
30
0
41
1
10
-28.5
20
6.09461246091774
30
0
41
1
10
-28.5
20
5.91860523667611
30
0
41
1
10
-28.5
20
5.74143189937956
30
0
41
1
10
-28.5
20
5.56310357372004
30
0
41
1
10
-28.5
20
5.38363134733169
30
0
41
1
10
-28.5
20
5.20302692387264
30
0
41
1
10
-28.5
20
5.02130422324723
30
0
41
1
10
-28.5
20
4.83847919931267
30
0
41
1
10
-28.5
20
4.65456716028007
30
0
41
1
10
-28.5
20
4.46958486845952
30
0
41
1
10
-28.5
20
4.28355302808072
30
0
41
1
10
-28.5
20
4.09649275318185
30
0
41
1
10
-28.5
20
3.90842813226234
30
0
41
1
10
-28.5
20
3.75124940963568
30
0
41
1
10
-28.5
20
3.62435497964392
30
0
41
1
10
-28.5
20
3.52924315934186
30
0
41
1
10
-28.5
20
3.43390158445524
30
0
41
1
10
-28.5
20
3.30608717079304
30
0
41
1
10
-28.5
20
3.14669072023426
30
0
41
1
10
-28.5
20
2.98656939879123
30
0
41
1
10
-28.5
20
2.85729421649614
30
0
41
1
10
-28.5
20
2.76048089001327
30
0
41
1
10
-28.5
20
2.66347976206257
30
0
41
1
10
-28.5
20
2.56629526768595
30
0
41
1
10
-28.5
20
2.46893611478757
30
0
41
1
10
-28.5
20
2.33842740009589
30
0
41
1
10
-28.5
20
2.20905952740148
30
0
41
1
10
-28.5
20
2.07788039572901
30
0
41
1
10
-28.5
20
1.97974994874619
30
0
41
1
10
-28.5
20
1.88148715614125
30
0
41
1
10
-28.5
20
1.7831009010128
30
0
41
1
10
-28.5
20
1.68460072925308
30
0
41
1
10
-28.5
20
1.58599184128099
30
0
41
1
10
-28.5
20
1.48728649469359
30
0
41
1
10
-28.5
20
1.38848914320593
30
0
41
1
10
-28.5
20
1.28961139997085
30
0
41
1
10
-28.5
20
1.1906585936099
30
0
41
1
10
-28.5
20
1.09164071478051
30
0
41
1
10
-28.5
20
0.992564090788477
30
0
41
1
10
-28.5
20
0.893436923932569
30
0
41
1
10
-28.5
20
0.794265471937194
30
0
41
1
10
-28.5
20
0.695056741362862
30
0
41
1
10
-28.5
20
0.59581646850728
30
0
41
1
10
-28.5
20
0.496550613210019
30
0
41
1
10
-28.5
20
0.39726385318184
30
0
41
1
10
-28.5
20
0.297961366795136
30
0
41
1
10
-28.5
20
0.198647102840766
30
0
41
1
10
-28.5
20
0.0993254669347721
30
0
41
1
10
-28.5
20
5.4725433E-09
30
0
41
1
10
-28.5
20
-0.0993254684405542
30
0
41
1
10
-28.5
20
-0.198647127601191
30
0
41
1
10
-28.5
20
-0.297961388791663
30
0
41
1
10
-28.5
20
-0.397263840423989
30
0
41
1
10
-28.5
20
-0.49655059420553
30
0
41
1
10
-28.5
20
-0.595816495504067
30
0
41
1
10
-28.5
20
-0.695056784276971
30
0
41
1
10
-28.5
20
-0.794265459276147
30
0
41
1
10
-28.5
20
-0.893436883433452
30
0
41
1
10
-28.5
20
-0.992564112169873
30
0
41
1
10
-28.5
20
-1.09164077920417
30
0
41
1
10
-28.5
20
-1.19065859620261
30
0
41
1
10
-28.5
20
-1.28961134189748
30
0
41
1
10
-28.5
20
-1.38848913588987
30
0
41
1
10
-28.5
20
-1.48728656512975
30
0
41
1
10
-28.5
20
-1.58599188781929
30
0
41
1
10
-28.5
20
-1.68460068701245
30
0
41
1
10
-28.5
20
-1.78310084050693
30
0
41
1
10
-28.5
20
-1.88148718140698
30
0
41
1
10
-28.5
20
-1.97975003643617
30
0
41
1
10
-28.5
20
-2.07788042653627
30
0
41
1
10
-28.5
20
-2.17587292609079
30
0
41
1
10
-28.5
20
-2.27371679621314
30
0
41
1
10
-28.5
20
-2.37140757120349
30
0
41
1
10
-28.5
20
-2.4689361394303
30
0
41
1
10
-28.5
20
-2.59923374131697
30
0
41
1
10
-28.5
20
-2.72777279716703
30
0
41
1
10
-28.5
20
-2.85729428823927
30
0
41
1
10
-28.5
20
-2.98656948332385
30
0
41
1
10
-28.5
20
-3.14669074057866
30
0
41
1
10
-28.5
20
-3.30608709676795
30
0
41
1
10
-28.5
20
-3.43390157548933
30
0
41
1
10
-28.5
20
-3.52924322184188
30
0
41
1
10
-28.5
20
-3.62435506854828
30
0
41
1
10
-28.5
20
-3.75124942106055
30
0
41
1
10
-28.5
20
-3.90842799420622
30
0
41
1
10
-28.5
20
-4.09649259176143
30
0
41
1
10
-28.5
20
-4.28355297730502
30
0
41
1
10
-28.5
20
-4.46958461745547
30
0
41
1
10
-28.5
20
-4.65456683421033
30
0
41
1
10
-28.5
20
-4.83847943804491
30
0
41
1
10
-28.5
20
-5.02130448518977
30
0
41
1
10
-28.5
20
-5.20302670033007
30
0
41
1
10
-28.5
20
-5.38363156234235
30
0
41
1
10
-28.5
20
-5.5631044550444
30
0
41
1
10
-28.5
20
-5.74143237747978
30
0
41
1
10
-28.5
20
-5.91860495448569
30
0
41
1
10
-28.5
20
-6.09461208825525
30
0
41
1
10
-28.5
20
-6.26944357118296
30
0
41
1
10
-28.5
20
-6.44309032655627
30
0
41
1
10
-28.5
20
-6.61554357091566
30
0
41
1
10
-28.5
20
-6.84437400802858
30
0
41
1
10
-28.5
20
-7.12632144512298
30
0
41
1
10
-28.5
20
-7.46030865505756
30
0
41
1
10
-28.5
20
-7.73407184285276
30
0
41
1
10
-28.5
20
-7.95136176299602
30
0
41
1
10
-28.5
20
-8.11277014937079
30
0
41
1
10
-28.5
20
-8.27292308432646
30
0
41
1
10
-28.5
20
-8.43181570788786
30
0
41
1
10
-28.5
20
-8.58944234887977
30
0
41
1
10
-28.5
20
-8.79830467826929
30
0
41
1
10
-28.5
20
-9.05534969583789
30
0
41
1
10
-28.5
20
-9.30810991622681
30
0
41
1
10
-28.5
20
-9.50837344479848
30
0
41
1
10
-28.5
20
-9.6570150628749
30
0
41
1
10
-28.5
20
-9.80435457188472
30
0
41
1
10
-28.5
20
-9.95038952754786
30
0
41
1
10
-28.5
20
-10.0951135319109
30
0
41
1
10
-28.5
20
-10.2866518813936
30
0
41
1
10
-28.5
20
-10.4745957936973
30
0
41
1
10
-28.5
20
-10.6608197986608
30
0
41
1
10
-28.5
20
-10.8452681286137
30
0
41
1
10
-28.5
20
-11.0718089525805
30
0
41
1
10
-28.5
20
-11.2938625632929
30
0
41
1
10
-28.5
20
-11.4693068596264
30
0
41
1
10
-28.5
20
-11.642935765638
30
0
41
1
10
-28.5
20
-11.8130068303032
30
0
41
1
10
-28.5
20
-11.9811355648908
30
0
41
1
10
-28.5
20
-12.1056498404808
30
0
41
1
10
-28.5
20
-12.2287775174238
30
0
41
1
10
-28.5
20
-12.3913462461042
30
0
41
1
10
-28.5
20
-12.550359417297
30
0
41
1
10
-28.5
20
-12.7072977423403
30
0
41
1
10
-28.5
20
-12.8234002933141
30
0
41
1
10
-28.5
20
-12.9380809438716
30
0
41
1
10
-28.5
20
-13.0893180117674
30
0
41
1
10
-28.5
20
-13.2369867372073
30
0
41
1
10
-28.5
20
-13.3824445445542
30
0
41
1
10
-28.5
20
-13.4899116562854
30
0
41
1
10
-28.5
20
-13.5959164434403
30
0
41
1
10
-28.5
20
-13.735511612592
30
0
41
1
10
-28.5
20
-13.8715103854275
30
0
41
1
10
-28.5
20
-14.0051547249397
30
0
41
1
10
-28.5
20
-14.1037299370701
30
0
41
1
10
-28.5
20
-14.2007962250068
30
0
41
1
10
-28.5
20
-14.328392039309
30
0
41
1
10
-28.5
20
-14.4523474054459
30
0
41
1
10
-28.5
20
-14.57379350627
30
0
41
1
10
-28.5
20
-14.648189652593
30
0
41
1
10
-28.5
20
-14.7070919001428
30
0
41
1
10
-28.5
20
-14.7654709460417
30
0
41
1
10
-28.5
20
-14.8661866667288
30
0
41
1
10
-28.5
20
-14.9776668655465
30
0
41
1
10
-28.5
20
-15.0864673213159
30
0
41
1
10
-28.5
20
-15.166321559936
30
0
41
1
10
-28.5
20
-15.2445501295776
30
0
41
1
10
-28.5
20
-15.3468344527491
30
0
41
1
10
-28.5
20
-15.4453363938052
30
0
41
1
10
-28.5
20
-15.5409672073329
30
0
41
1
10
-28.5
20
-15.6108850733397
30
0
41
1
10
-28.5
20
-15.6791035342519
30
0
41
1
10
-28.5
20
-15.7456081924762
30
0
41
1
10
-28.5
20
-15.810384423087
30
0
41
1
10
-28.5
20
-15.8734193510278
30
0
41
1
10
-28.5
20
-15.934697080719
30
0
41
1
10
-28.5
20
-16.0141701800501
30
0
41
1
10
-28.5
20
-16.0896767899467
30
0
41
1
10
-28.5
20
-16.1619255341457
30
0
41
1
10
-28.5
20
-16.2317181619347
30
0
41
1
10
-28.5
20
-16.2974462376792
30
0
41
1
10
-28.5
20
-16.3597332242326
30
0
41
1
10
-28.5
20
-16.4194622696319
30
0
41
1
10
-28.5
20
-16.4750169286961
30
0
41
1
10
-28.5
20
-16.5269199399481
30
0
41
1
10
-28.5
20
-16.5637763395247
30
0
41
1
10
-28.5
20
-16.5986105943247
30
0
41
1
10
-28.5
20
-16.642411504334
30
0
41
1
10
-28.5
20
-16.6818354096896
30
0
41
1
10
-28.5
20
-16.7172383773104
30
0
41
1
10
-28.5
20
-16.741585550229
30
0
41
1
10
-28.5
20
-16.7637529737167
30
0
41
1
10
-28.5
20
-16.7837098927271
30
0
41
1
10
-28.5
20
-16.8014255596809
30
0
41
1
10
-28.5
20
-16.816867307208
30
0
41
1
10
-28.5
20
-16.8300011251081
30
0
41
1
10
-28.5
20
-16.8407921763223
30
0
41
1
10
-28.5
20
-16.8492033090471
30
0
41
1
10
-28.5
20
-16.8551966659016
30
0
41
1
10
-28.5
20
-16.8587319423621
30
0
41
1
10
-28.5
20
-16.8597680746869
30
0
41
1
10
-28.5
20
-16.8586400409369
30
0
41
1
10
-28.5
20
-16.8573444920845
30
0
41
1
10
-28.5
20
-16.8570624724449
30
0
0
SPLINE
5
10E
100
AcDbEntity
8
SK1
62
256
6
ByLayer
370
18
48
1
60
0
100
AcDbSpline
70
4
71
3
72
107
73
103
40
0
40
0
40
0
40
0
40
0.002708743176163
40
0.0112406780882348
40
0.0197726130003065
40
0.0283045479123782
40
0.03683648282445
40
0.0453684177365217
40
0.0539003526485935
40
0.0624322875606652
40
0.0709642224727369
40
0.0794961573848086
40
0.0965600272089521
40
0.113623897033096
40
0.130687766857239
40
0.139219701769311
40
0.147751636681383
40
0.156283571593454
40
0.164815506505526
40
0.173347441417598
40
0.181879376329669
40
0.198943246153813
40
0.216007115977956
40
0.224539050890028
40
0.2330709858021
40
0.241602920714172
40
0.250134855626243
40
0.258666790538315
40
0.267198725450387
40
0.28426259527453
40
0.292794530186602
40
0.301326465098674
40
0.318390334922817
40
0.335454204746961
40
0.343986139659033
40
0.352518074571104
40
0.369581944395248
40
0.378113879307319
40
0.386645814219391
40
0.395177749131463
40
0.403709684043535
40
0.420773553867678
40
0.42930548877975
40
0.437837423691822
40
0.446369358603893
40
0.454901293515965
40
0.471965163340109
40
0.48049709825218
40
0.489029033164252
40
0.497560968076324
40
0.506092902988395
40
0.523156772812539
40
0.531688707724611
40
0.540220642636682
40
0.548752577548754
40
0.557284512460826
40
0.574348382284969
40
0.582880317197041
40
0.591412252109113
40
0.595678219565149
40
0.599944187021185
40
0.608476121933256
40
0.6255399917574
40
0.634071926669472
40
0.642603861581543
40
0.651135796493615
40
0.659667731405687
40
0.67673160122983
40
0.685263536141902
40
0.693795471053974
40
0.702327405966045
40
0.710859340878117
40
0.719391275790189
40
0.727923210702261
40
0.736455145614332
40
0.744987080526404
40
0.762050950350548
40
0.770582885262619
40
0.779114820174691
40
0.796178689998834
40
0.804710624910906
40
0.813242559822978
40
0.830306429647121
40
0.838838364559193
40
0.847370299471265
40
0.855902234383337
40
0.864434169295408
40
0.881498039119552
40
0.890029974031624
40
0.898561908943695
40
0.907093843855767
40
0.915625778767839
40
0.924157713679911
40
0.932689648591982
40
0.941221583504054
40
0.949753518416126
40
0.958285453328197
40
0.966817388240269
40
0.975349323152341
40
0.983881258064413
40
0.992413192976484
40
1
40
1
40
1
40
1
41
1
10
-0.394976888875306
20
-5.38678189578289
30
0
41
1
10
-0.394976888875306
20
-5.4065930765673
30
0
41
1
10
-0.394976888875306
20
-5.48871660168982
30
0
41
1
10
-0.394976888875306
20
-5.63252719489225
30
0
41
1
10
-0.394976888875306
20
-5.8174145162354
30
0
41
1
10
-0.394976888875306
20
-6.00101977124669
30
0
41
1
10
-0.394976888875306
20
-6.18333830919048
30
0
41
1
10
-0.394976888875306
20
-6.3643662218949
30
0
41
1
10
-0.394976888875306
20
-6.54409937286439
30
0
41
1
10
-0.394976888875306
20
-6.72253430941348
30
0
41
1
10
-0.394976888875306
20
-6.89966740060396
30
0
41
1
10
-0.394976888875306
20
-7.13420903787926
30
0
41
1
10
-0.394976888875306
20
-7.42389186204957
30
0
41
1
10
-0.394976888875306
20
-7.76637138106327
30
0
41
1
10
-0.394976888875306
20
-8.04728288344245
30
0
41
1
10
-0.394976888875306
20
-8.26952736598562
30
0
41
1
10
-0.394976888875306
20
-8.434820354761
30
0
41
1
10
-0.394976888875306
20
-8.59878513137221
30
0
41
1
10
-0.394976888875306
20
-8.76141979186249
30
0
41
1
10
-0.394976888875306
20
-8.922721214403
30
0
41
1
10
-0.394976888875306
20
-9.1360908691222
30
0
41
1
10
-0.394976888875306
20
-9.39928045092248
30
0
41
1
10
-0.394976888875306
20
-9.65799296546987
30
0
41
1
10
-0.394976888875306
20
-9.86240080704218
30
0
41
1
10
-0.394976888875306
20
-10.0143015815252
30
0
41
1
10
-0.394976888875306
20
-10.1648480067744
30
0
41
1
10
-0.394976888875306
20
-10.3140380843155
30
0
41
1
10
-0.394976888875306
20
-10.4618684189216
30
0
41
1
10
-0.394976888875306
20
-10.6572263081632
30
0
41
1
10
-0.394976888875306
20
-10.8496518506122
30
0
41
1
10
-0.394976888875306
20
-11.0395280782787
30
0
41
1
10
-0.394976888875306
20
-11.2275701299333
30
0
41
1
10
-0.394976888875306
20
-11.4590305143918
30
0
41
1
10
-0.394976888875306
20
-11.685867652055
30
0
41
1
10
-0.394976888875306
20
-11.864654349678
30
0
41
1
10
-0.394976888875306
20
-12.0415756040849
30
0
41
1
10
-0.394976888875306
20
-12.2155153161813
30
0
41
1
10
-0.394976888875306
20
-12.3868007979199
30
0
41
1
10
-0.394976888875306
20
-12.5138050519686
30
0
41
1
10
-0.394976888875306
20
-12.6393872302303
30
0
41
1
10
-0.394976888875306
20
-12.8049814458532
30
0
41
1
10
-0.394976888875306
20
-12.9675509360494
30
0
41
1
10
-0.394976888875306
20
-13.1273919665529
30
0
41
1
10
-0.394976888875306
20
-13.2457849051211
30
0
41
1
10
-0.394976888875306
20
-13.3627236547323
30
0
41
1
10
-0.394976888875306
20
-13.5167448476072
30
0
41
1
10
-0.394976888875306
20
-13.6676860552913
30
0
41
1
10
-0.394976888875306
20
-13.8158144768541
30
0
41
1
10
-0.394976888875306
20
-13.9253889718329
30
0
41
1
10
-0.394976888875306
20
-14.0334711580348
30
0
41
1
10
-0.394976888875306
20
-14.1756274475866
30
0
41
1
10
-0.394976888875306
20
-14.3146351237356
30
0
41
1
10
-0.394976888875306
20
-14.4507333681675
30
0
41
1
10
-0.394976888875306
20
-14.5512443837086
30
0
41
1
10
-0.394976888875306
20
-14.6502180419884
30
0
41
1
10
-0.394976888875306
20
-14.780164253239
30
0
41
1
10
-0.394976888875306
20
-14.9068780878822
30
0
41
1
10
-0.394976888875306
20
-15.0305708978545
30
0
41
1
10
-0.394976888875306
20
-15.1065165223896
30
0
41
1
10
-0.394976888875306
20
-15.1665127141503
30
0
41
1
10
-0.394976888875306
20
-15.2259771214207
30
0
41
1
10
-0.394976888875306
20
-15.3286250474485
30
0
41
1
10
-0.394976888875306
20
-15.4426196109061
30
0
41
1
10
-0.394976888875306
20
-15.5534637367265
30
0
41
1
10
-0.394976888875306
20
-15.6349267624759
30
0
41
1
10
-0.394976888875306
20
-15.7147364921469
30
0
41
1
10
-0.394976888875306
20
-15.8189643831875
30
0
41
1
10
-0.394976888875306
20
-15.9197362187748
30
0
41
1
10
-0.394976888875306
20
-16.0172057969154
30
0
41
1
10
-0.394976888875306
20
-16.0885678110446
30
0
41
1
10
-0.394976888875306
20
-16.1582019472912
30
0
41
1
10
-0.394976888875306
20
-16.2260943811825
30
0
41
1
10
-0.394976888875306
20
-16.2922298358683
30
0
41
1
10
-0.394976888875306
20
-16.3565947902754
30
0
41
1
10
-0.394976888875306
20
-16.4191737297992
30
0
41
1
10
-0.394976888875306
20
-16.5002370830775
30
0
41
1
10
-0.394976888875306
20
-16.5775834628441
30
0
41
1
10
-0.394976888875306
20
-16.6513062771915
30
0
41
1
10
-0.394976888875306
20
-16.7225357579897
30
0
41
1
10
-0.394976888875306
20
-16.7899145981056
30
0
41
1
10
-0.394976888875306
20
-16.8535135500206
30
0
41
1
10
-0.394976888875306
20
-16.9145141001581
30
0
41
1
10
-0.394976888875306
20
-16.9715145305624
30
0
41
1
10
-0.394976888875306
20
-17.024552403858
30
0
41
1
10
-0.394976888875306
20
-17.0622798511847
30
0
41
1
10
-0.394976888875306
20
-17.0979462837243
30
0
41
1
10
-0.394976888875306
20
-17.1427382787905
30
0
41
1
10
-0.394976888875306
20
-17.1832568369982
30
0
41
1
10
-0.394976888875306
20
-17.2194882612007
30
0
41
1
10
-0.394976888875306
20
-17.2444531170066
30
0
41
1
10
-0.394976888875306
20
-17.2671905287463
30
0
41
1
10
-0.394976888875306
20
-17.2876678382251
30
0
41
1
10
-0.394976888875306
20
-17.3058521626298
30
0
41
1
10
-0.394976888875306
20
-17.3217086355548
30
0
41
1
10
-0.394976888875306
20
-17.3352007360526
30
0
41
1
10
-0.394976888875306
20
-17.3462909802274
30
0
41
1
10
-0.394976888875306
20
-17.3549392880652
30
0
41
1
10
-0.394976888875306
20
-17.3611046305144
30
0
41
1
10
-0.394976888875306
20
-17.3647432146661
30
0
41
1
10
-0.394976888875306
20
-17.3658102005923
30
0
41
1
10
-0.394976888875306
20
-17.3643150510867
30
0
41
1
10
-0.394976888875306
20
-17.3617494020557
30
0
41
1
10
-0.394976888875306
20
-17.3601838593434
30
0
0
SPLINE
5
10F
100
AcDbEntity
8
SK1
62
256
6
ByLayer
370
18
48
1
60
0
100
AcDbSpline
70
4
71
3
72
106
73
102
40
0
40
0
40
0
40
0
40
0.0075864943332205
40
0.0161184320614594
40
0.0246503697896982
40
0.0331823075179371
40
0.0417142452461759
40
0.0502461829744148
40
0.0587781207026537
40
0.0673100584308925
40
0.0758419961591314
40
0.0843739338873702
40
0.0929058716156091
40
0.101437809343848
40
0.109969747072087
40
0.118501684800326
40
0.135565560256803
40
0.144097497985042
40
0.152629435713281
40
0.16116137344152
40
0.169693311169759
40
0.186757186626236
40
0.195289124354475
40
0.203821062082714
40
0.220884937539192
40
0.229416875267431
40
0.23794881299567
40
0.255012688452147
40
0.263544626180386
40
0.272076563908625
40
0.280608501636864
40
0.289140439365103
40
0.297672377093341
40
0.30620431482158
40
0.314736252549819
40
0.323268190278058
40
0.340332065734536
40
0.348864003462775
40
0.357395941191013
40
0.365927878919252
40
0.374459816647491
40
0.391523692103969
40
0.400055629832208
40
0.408587567560447
40
0.417119505288686
40
0.425651443016924
40
0.442715318473402
40
0.451247256201641
40
0.45977919392988
40
0.468311131658119
40
0.476843069386358
40
0.493906944842835
40
0.502438882571074
40
0.510970820299313
40
0.519502758027552
40
0.528034695755791
40
0.545098571212268
40
0.553630508940507
40
0.562162446668746
40
0.570694384396985
40
0.579226322125224
40
0.596290197581702
40
0.60482213530994
40
0.613354073038179
40
0.621886010766418
40
0.630417948494657
40
0.647481823951135
40
0.656013761679373
40
0.664545699407612
40
0.68160957486409
40
0.698673450320568
40
0.707205388048807
40
0.715737325777045
40
0.732801201233523
40
0.741333138961762
40
0.749865076690001
40
0.75839701441824
40
0.766928952146479
40
0.775460889874718
40
0.783992827602956
40
0.801056703059434
40
0.818120578515912
40
0.82665251624415
40
0.835184453972389
40
0.843716391700628
40
0.852248329428867
40
0.860780267157106
40
0.869312204885345
40
0.886376080341822
40
0.9034399557983
40
0.920503831254778
40
0.929035768983017
40
0.937567706711256
40
0.946099644439494
40
0.954631582167733
40
0.963163519895972
40
0.971695457624211
40
0.98022739535245
40
0.988759333080689
40
0.997291270808928
40
1
40
1
40
1
40
1
41
1
10
-0.394976888875277
20
17.3601838878027
30
0
41
1
10
-0.394976888875277
20
17.3617494124444
30
0
41
1
10
-0.394976888875277
20
17.3643151423707
30
0
41
1
10
-0.394976888875277
20
17.3658104187982
30
0
41
1
10
-0.394976888875277
20
17.364743357607
30
0
41
1
10
-0.394976888875277
20
17.3611046370287
30
0
41
1
10
-0.394976888875277
20
17.3549392673806
30
0
41
1
10
-0.394976888875277
20
17.3462909837355
30
0
41
1
10
-0.394976888875277
20
17.3352007293143
30
0
41
1
10
-0.394976888875277
20
17.3217086001335
30
0
41
1
10
-0.394976888875277
20
17.3058521283006
30
0
41
1
10
-0.394976888875277
20
17.2876678324761
30
0
41
1
10
-0.394976888875277
20
17.267190526317
30
0
41
1
10
-0.394976888875277
20
17.2444530966284
30
0
41
1
10
-0.394976888875277
20
17.2194882282903
30
0
41
1
10
-0.394976888875277
20
17.1832568130363
30
0
41
1
10
-0.394976888875277
20
17.1427382851614
30
0
41
1
10
-0.394976888875277
20
17.0979462613767
30
0
41
1
10
-0.394976888875277
20
17.0622798138473
30
0
41
1
10
-0.394976888875277
20
17.0245523789023
30
0
41
1
10
-0.394976888875277
20
16.9715145338597
30
0
41
1
10
-0.394976888875277
20
16.9145140859045
30
0
41
1
10
-0.394976888875277
20
16.8535135157982
30
0
41
1
10
-0.394976888875277
20
16.7899145739052
30
0
41
1
10
-0.394976888875277
20
16.7225357594453
30
0
41
1
10
-0.394976888875277
20
16.6513062647865
30
0
41
1
10
-0.394976888875277
20
16.577583428992
30
0
41
1
10
-0.394976888875277
20
16.5002370605308
30
0
41
1
10
-0.394976888875277
20
16.4191737242595
30
0
41
1
10
-0.394976888875277
20
16.3565947837564
30
0
41
1
10
-0.394976888875277
20
16.2922298184193
30
0
41
1
10
-0.394976888875277
20
16.2260943534788
30
0
41
1
10
-0.394976888875277
20
16.1582019227301
30
0
41
1
10
-0.394976888875277
20
16.0885677968918
30
0
41
1
10
-0.394976888875277
20
16.0172057910894
30
0
41
1
10
-0.394976888875277
20
15.9197362080175
30
0
41
1
10
-0.394976888875277
20
15.8189643575456
30
0
41
1
10
-0.394976888875277
20
15.7147364711228
30
0
41
1
10
-0.394976888875277
20
15.6349267495635
30
0
41
1
10
-0.394976888875277
20
15.553463729323
30
0
41
1
10
-0.394976888875277
20
15.4426195996911
30
0
41
1
10
-0.394976888875277
20
15.3286250260664
30
0
41
1
10
-0.394976888875277
20
15.2112966721243
30
0
41
1
10
-0.394976888875277
20
15.1217290697223
30
0
41
1
10
-0.394976888875277
20
15.0305709686995
30
0
41
1
10
-0.394976888875277
20
14.906878048735
30
0
41
1
10
-0.394976888875277
20
14.7801642402503
30
0
41
1
10
-0.394976888875277
20
14.6502180265082
30
0
41
1
10
-0.394976888875277
20
14.5512443698349
30
0
41
1
10
-0.394976888875277
20
14.4507333574048
30
0
41
1
10
-0.394976888875277
20
14.3146351144528
30
0
41
1
10
-0.394976888875277
20
14.1756274353422
30
0
41
1
10
-0.394976888875277
20
14.0334711437704
30
0
41
1
10
-0.394976888875277
20
13.9253889575191
30
0
41
1
10
-0.394976888875277
20
13.8158144643309
30
0
41
1
10
-0.394976888875277
20
13.6676860465324
30
0
41
1
10
-0.394976888875277
20
13.5167448397425
30
0
41
1
10
-0.394976888875277
20
13.3627236430939
30
0
41
1
10
-0.394976888875277
20
13.2457848907918
30
0
41
1
10
-0.394976888875277
20
13.127391952352
30
0
41
1
10
-0.394976888875277
20
12.9675509274721
30
0
41
1
10
-0.394976888875277
20
12.8049814419576
30
0
41
1
10
-0.394976888875277
20
12.6393872212047
30
0
41
1
10
-0.394976888875277
20
12.5138050377602
30
0
41
1
10
-0.394976888875277
20
12.3868007822861
30
0
41
1
10
-0.394976888875277
20
12.2155153079022
30
0
41
1
10
-0.394976888875277
20
12.0415756036957
30
0
41
1
10
-0.394976888875277
20
11.8646543426879
30
0
41
1
10
-0.394976888875277
20
11.6858676336886
30
0
41
1
10
-0.394976888875277
20
11.4590305058839
30
0
41
1
10
-0.394976888875277
20
11.2275701322441
30
0
41
1
10
-0.394976888875277
20
11.0395280715927
30
0
41
1
10
-0.394976888875277
20
10.8496518299165
30
0
41
1
10
-0.394976888875277
20
10.6572262982852
30
0
41
1
10
-0.394976888875277
20
10.4618684218406
30
0
41
1
10
-0.394976888875277
20
10.3140380853821
30
0
41
1
10
-0.394976888875277
20
10.1648479968029
30
0
41
1
10
-0.394976888875277
20
10.0143015620689
30
0
41
1
10
-0.394976888875277
20
9.86240079247779
30
0
41
1
10
-0.394976888875277
20
9.65799297250354
30
0
41
1
10
-0.394976888875277
20
9.3992804435735
30
0
41
1
10
-0.394976888875277
20
9.13609084815204
30
0
41
1
10
-0.394976888875277
20
8.92272120904667
30
0
41
1
10
-0.394976888875277
20
8.76141979935898
30
0
41
1
10
-0.394976888875277
20
8.59878513251641
30
0
41
1
10
-0.394976888875277
20
8.43482033812748
30
0
41
1
10
-0.394976888875277
20
8.26952734508268
30
0
41
1
10
-0.394976888875277
20
8.04728288893983
30
0
41
1
10
-0.394976888875277
20
7.76637137475097
30
0
41
1
10
-0.394976888875277
20
7.42389184310318
30
0
41
1
10
-0.394976888875277
20
7.13420904829047
30
0
41
1
10
-0.394976888875277
20
6.89966739484251
30
0
41
1
10
-0.394976888875277
20
6.7225342898117
30
0
41
1
10
-0.394976888875277
20
6.54409938064705
30
0
41
1
10
-0.394976888875277
20
6.36436626337326
30
0
41
1
10
-0.394976888875277
20
6.18333822517317
30
0
41
1
10
-0.394976888875277
20
6.0010194773844
30
0
41
1
10
-0.394976888875277
20
5.81741425905383
30
0
41
1
10
-0.394976888875277
20
5.63252720020009
30
0
41
1
10
-0.394976888875277
20
5.48871675629277
30
0
41
1
10
-0.394976888875277
20
5.40659331253005
30
0
41
1
10
-0.394976888875277
20
5.38678223324203
30
0
0
SPLINE
5
110
100
AcDbEntity
8
SK1
62
256
6
ByLayer
370
18
48
1
60
0
100
AcDbSpline
70
4
71
3
72
288
73
284
40
0
40
0
40
0
40
0
40
0.0022851320817121
40
0.0057901726743097
40
0.0092952132669073
40
0.012800253859505
40
0.0163052944521027
40
0.0198103350447003
40
0.023315375637298
40
0.0268204162298956
40
0.0303254568224932
40
0.0338304974150909
40
0.0373355380076886
40
0.0408405786002862
40
0.0443456191928839
40
0.0513557003780791
40
0.0548607409706768
40
0.0583657815632744
40
0.0618708221558721
40
0.0653758627484698
40
0.072385943933665
40
0.0758909845262627
40
0.0793960251188604
40
0.0864061063040557
40
0.0899111468966533
40
0.0934161874892509
40
0.100426268674446
40
0.103931309267044
40
0.107436349859642
40
0.110941390452239
40
0.114446431044837
40
0.117951471637435
40
0.121456512230032
40
0.12496155282263
40
0.128466593415228
40
0.135476674600423
40
0.13898171519302
40
0.142486755785618
40
0.145991796378216
40
0.149496836970813
40
0.156506918156009
40
0.160011958748606
40
0.163516999341204
40
0.167022039933802
40
0.170527080526399
40
0.177537161711595
40
0.181042202304192
40
0.18454724289679
40
0.188052283489387
40
0.191557324081985
40
0.19856740526718
40
0.202072445859778
40
0.205577486452376
40
0.209082527044973
40
0.212587567637571
40
0.219597648822766
40
0.223102689415364
40
0.226607730007962
40
0.230112770600559
40
0.233617811193157
40
0.240627892378352
40
0.24413293297095
40
0.247637973563548
40
0.251143014156145
40
0.254648054748743
40
0.261658135933938
40
0.265163176526536
40
0.268668217119133
40
0.275678298304329
40
0.282688379489524
40
0.286193420082122
40
0.289698460674719
40
0.296708541859915
40
0.300213582452512
40
0.30371862304511
40
0.307223663637708
40
0.310728704230305
40
0.314233744822903
40
0.3177387854155
40
0.324748866600696
40
0.331758947785891
40
0.335263988378489
40
0.338769028971086
40
0.342274069563684
40
0.345779110156282
40
0.349284150748879
40
0.352789191341477
40
0.359799272526672
40
0.366809353711868
40
0.373819434897063
40
0.377324475489661
40
0.380829516082258
40
0.384334556674856
40
0.387839597267453
40
0.391344637860051
40
0.394849678452649
40
0.398354719045246
40
0.401859759637844
40
0.405364800230442
40
0.408869840823039
40
0.412374881415637
40
0.415879922008235
40
0.419384962600832
40
0.42289000319343
40
0.426395043786027
40
0.429900084378625
40
0.433405124971223
40
0.435157645267522
40
0.436910165563821
40
0.438662685860119
40
0.440415206156418
40
0.443920246749016
40
0.447425287341614
40
0.449177807637912
40
0.450930327934211
40
0.45268284823051
40
0.454435368526809
40
0.456187888823108
40
0.457940409119406
40
0.461445449712004
40
0.463197970008303
40
0.464950490304602
40
0.466703010600901
40
0.468455530897199
40
0.470208051193498
40
0.471960571489797
40
0.473713091786096
40
0.475465612082395
40
0.477218132378693
40
0.478970652674992
40
0.480723172971291
40
0.48247569326759
40
0.484228213563889
40
0.485980733860187
40
0.487733254156487
40
0.489485774452785
40
0.491238294749084
40
0.492990815045383
40
0.494743335341682
40
0.496495855637981
40
0.498248375934279
40
0.500000896230578
40
0.501753416526877
40
0.503505936823176
40
0.505258457119475
40
0.507010977415774
40
0.508763497712072
40
0.510516018008371
40
0.51226853830467
40
0.514021058600969
40
0.515773578897268
40
0.517526099193566
40
0.519278619489865
40
0.521031139786164
40
0.522783660082463
40
0.524536180378762
40
0.526288700675061
40
0.528041220971359
40
0.529793741267658
40
0.531546261563957
40
0.533298781860256
40
0.535051302156555
40
0.536803822452854
40
0.538556342749152
40
0.540308863045451
40
0.54206138334175
40
0.543813903638049
40
0.545566423934348
40
0.549071464526945
40
0.550823984823244
40
0.552576505119543
40
0.556081545712141
40
0.559586586304738
40
0.561339106601037
40
0.563091626897336
40
0.564844147193635
40
0.566596667489933
40
0.570101708082531
40
0.573606748675129
40
0.577111789267727
40
0.580616829860324
40
0.584121870452922
40
0.587626911045519
40
0.591131951638117
40
0.594636992230715
40
0.598142032823312
40
0.60164707341591
40
0.605152114008508
40
0.608657154601105
40
0.612162195193703
40
0.615667235786301
40
0.619172276378898
40
0.622677316971496
40
0.626182357564093
40
0.633192438749289
40
0.640202519934484
40
0.647212601119679
40
0.650717641712277
40
0.654222682304875
40
0.657727722897472
40
0.66123276349007
40
0.664737804082668
40
0.668242844675265
40
0.675252925860461
40
0.682263007045656
40
0.685768047638253
40
0.689273088230851
40
0.692778128823449
40
0.696283169416047
40
0.699788210008644
40
0.703293250601242
40
0.710303331786437
40
0.713808372379035
40
0.717313412971632
40
0.724323494156828
40
0.731333575342023
40
0.734838615934621
40
0.738343656527218
40
0.745353737712414
40
0.748858778305011
40
0.752363818897609
40
0.755868859490206
40
0.759373900082804
40
0.766383981267999
40
0.769889021860597
40
0.773394062453195
40
0.776899103045792
40
0.78040414363839
40
0.787414224823585
40
0.790919265416183
40
0.794424306008781
40
0.797929346601378
40
0.801434387193976
40
0.808444468379171
40
0.811949508971769
40
0.815454549564366
40
0.818959590156964
40
0.822464630749562
40
0.829474711934757
40
0.832979752527355
40
0.836484793119953
40
0.838237313416251
40
0.83998983371255
40
0.843494874305148
40
0.850504955490343
40
0.854009996082941
40
0.857515036675538
40
0.861020077268136
40
0.864525117860734
40
0.871535199045929
40
0.875040239638526
40
0.878545280231124
40
0.882050320823722
40
0.88555536141632
40
0.889060402008917
40
0.892565442601515
40
0.896070483194113
40
0.89957552378671
40
0.906585604971905
40
0.910090645564503
40
0.913595686157101
40
0.920605767342296
40
0.924110807934894
40
0.927615848527491
40
0.934625929712687
40
0.938130970305284
40
0.941636010897882
40
0.945141051490479
40
0.948646092083077
40
0.955656173268273
40
0.95916121386087
40
0.962666254453468
40
0.966171295046066
40
0.969676335638663
40
0.973181376231261
40
0.976686416823858
40
0.980191457416456
40
0.983696498009054
40
0.987201538601651
40
0.990706579194249
40
0.994211619786846
40
0.997716660379444
40
1
40
1
40
1
40
1
41
1
10
-30
20
15.9926656705394
30
0
41
1
10
-30
20
15.9930575022164
30
0
41
1
10
-30
20
15.9936130022855
30
0
41
1
10
-30
20
15.992743696334
30
0
41
1
10
-30
20
15.9893850921089
30
0
41
1
10
-30
20
15.9836860314146
30
0
41
1
10
-30
20
15.9756808210229
30
0
41
1
10
-30
20
15.9654018084482
30
0
41
1
10
-30
20
15.9528811264941
30
0
41
1
10
-30
20
15.9381491278438
30
0
41
1
10
-30
20
15.9212355486336
30
0
41
1
10
-30
20
15.9021692443495
30
0
41
1
10
-30
20
15.8809772874924
30
0
41
1
10
-30
20
15.85768719628
30
0
41
1
10
-30
20
15.8237020449635
30
0
41
1
10
-30
20
15.786151572388
30
0
41
1
10
-30
20
15.7440467976174
30
0
41
1
10
-30
20
15.7106366986068
30
0
41
1
10
-30
20
15.6752710038507
30
0
41
1
10
-30
20
15.6253102414824
30
0
41
1
10
-30
20
15.5722298833997
30
0
41
1
10
-30
20
15.5146768571488
30
0
41
1
10
-30
20
15.454635155867
30
0
41
1
10
-30
20
15.3917322415495
30
0
41
1
10
-30
20
15.3243986601424
30
0
41
1
10
-30
20
15.2546726017927
30
0
41
1
10
-30
20
15.1823145630236
30
0
41
1
10
-30
20
15.1055630554725
30
0
41
1
10
-30
20
15.0465122402176
30
0
41
1
10
-30
20
14.9857535165871
30
0
41
1
10
-30
20
14.9233034368069
30
0
41
1
10
-30
20
14.8591738020486
30
0
41
1
10
-30
20
14.7933781380804
30
0
41
1
10
-30
20
14.7259318150055
30
0
41
1
10
-30
20
14.6334478809414
30
0
41
1
10
-30
20
14.5388306139923
30
0
41
1
10
-30
20
14.4398724968666
30
0
41
1
10
-30
20
14.3643499358608
30
0
41
1
10
-30
20
14.2872489988172
30
0
41
1
10
-30
20
14.1819460940194
30
0
41
1
10
-30
20
14.0747689624993
30
0
41
1
10
-30
20
13.9632604256822
30
0
41
1
10
-30
20
13.8784200007502
30
0
41
1
10
-30
20
13.7920640526129
30
0
41
1
10
-30
20
13.674463030797
30
0
41
1
10
-30
20
13.5552283874056
30
0
41
1
10
-30
20
13.4316550911985
30
0
41
1
10
-30
20
13.3378530670951
30
0
41
1
10
-30
20
13.2425907988595
30
0
41
1
10
-30
20
13.1131460860381
30
0
41
1
10
-30
20
12.9822967545724
30
0
41
1
10
-30
20
12.847084683004
30
0
41
1
10
-30
20
12.7446351532221
30
0
41
1
10
-30
20
12.6407746180399
30
0
41
1
10
-30
20
12.499887311655
30
0
41
1
10
-30
20
12.3578191289812
30
0
41
1
10
-30
20
12.2113468162578
30
0
41
1
10
-30
20
12.100530667573
30
0
41
1
10
-30
20
11.9883478761208
30
0
41
1
10
-30
20
11.836377249174
30
0
41
1
10
-30
20
11.6834503922585
30
0
41
1
10
-30
20
11.5260594948949
30
0
41
1
10
-30
20
11.407132436675
30
0
41
1
10
-30
20
11.2868794886981
30
0
41
1
10
-30
20
11.1241532157818
30
0
41
1
10
-30
20
10.9607029988619
30
0
41
1
10
-30
20
10.7927086404326
30
0
41
1
10
-30
20
10.6229844866849
30
0
41
1
10
-30
20
10.4091173939315
30
0
41
1
10
-30
20
10.1909959678347
30
0
41
1
10
-30
20
10.0126979588287
30
0
41
1
10
-30
20
9.83272430289387
30
0
41
1
10
-30
20
9.65245023276202
30
0
41
1
10
-30
20
9.46744871362012
30
0
41
1
10
-30
20
9.32804093460695
30
0
41
1
10
-30
20
9.18740563851227
30
0
41
1
10
-30
20
9.04555437859216
30
0
41
1
10
-30
20
8.90249044231985
30
0
41
1
10
-30
20
8.70931958714525
30
0
41
1
10
-30
20
8.46674616603485
30
0
41
1
10
-30
20
8.2202168629417
30
0
41
1
10
-30
20
8.0190683664558
30
0
41
1
10
-30
20
7.86773085832672
30
0
41
1
10
-30
20
7.71524241280145
30
0
41
1
10
-30
20
7.56161298420648
30
0
41
1
10
-30
20
7.40685260452801
30
0
41
1
10
-30
20
7.19804202206527
30
0
41
1
10
-30
20
6.93651252502838
30
0
41
1
10
-30
20
6.61705894701075
30
0
41
1
10
-30
20
6.34834996432818
30
0
41
1
10
-30
20
6.12929373929518
30
0
41
1
10
-30
20
5.9648494511537
30
0
41
1
10
-30
20
5.79939743818983
30
0
41
1
10
-30
20
5.63295542814626
30
0
41
1
10
-30
20
5.4655408318975
30
0
41
1
10
-30
20
5.29717335727503
30
0
41
1
10
-30
20
5.1278759130733
30
0
41
1
10
-30
20
4.95767063849863
30
0
41
1
10
-30
20
4.78658071628465
30
0
41
1
10
-30
20
4.61463355062486
30
0
41
1
10
-30
20
4.44186113006072
30
0
41
1
10
-30
20
4.26829321973952
30
0
41
1
10
-30
20
4.09396155182324
30
0
41
1
10
-30
20
3.91890592173871
30
0
41
1
10
-30
20
3.74316620306939
30
0
41
1
10
-30
20
3.56678705857652
30
0
41
1
10
-30
20
3.42015123791839
30
0
41
1
10
-30
20
3.30098109847953
30
0
41
1
10
-30
20
3.21216327477836
30
0
41
1
10
-30
20
3.12322377081895
30
0
41
1
10
-30
20
3.00356413190354
30
0
41
1
10
-30
20
2.85589664233004
30
0
41
1
10
-30
20
2.70788037697059
30
0
41
1
10
-30
20
2.58749550859636
30
0
41
1
10
-30
20
2.49793822974368
30
0
41
1
10
-30
20
2.40833000131909
30
0
41
1
10
-30
20
2.31867596083529
30
0
41
1
10
-30
20
2.22899146909504
30
0
41
1
10
-30
20
2.10827328924759
30
0
41
1
10
-30
20
1.99097459417123
30
0
41
1
10
-30
20
1.8701246771499
30
0
41
1
10
-30
20
1.7804303168304
30
0
41
1
10
-30
20
1.69076251244056
30
0
41
1
10
-30
20
1.60113247848608
30
0
41
1
10
-30
20
1.51155313609786
30
0
41
1
10
-30
20
1.42202575772706
30
0
41
1
10
-30
20
1.33256776537962
30
0
41
1
10
-30
20
1.24317741509077
30
0
41
1
10
-30
20
1.15386860885195
30
0
41
1
10
-30
20
1.0646401367365
30
0
41
1
10
-30
20
0.975500136218301
30
0
41
1
10
-30
20
0.886447988926875
30
0
41
1
10
-30
20
0.797485776681185
30
0
41
1
10
-30
20
0.708610852102652
30
0
41
1
10
-30
20
0.619820737442808
30
0
41
1
10
-30
20
0.531109764951282
30
0
41
1
10
-30
20
0.442471434007672
30
0
41
1
10
-30
20
0.353896007963499
30
0
41
1
10
-30
20
0.26537387921428
30
0
41
1
10
-30
20
0.17689237169219
30
0
41
1
10
-30
20
0.0884392148654172
30
0
41
1
10
-30
20
2.04974242E-08
30
0
41
1
10
-30
20
-0.0884392031952359
30
0
41
1
10
-30
20
-0.176892414719902
30
0
41
1
10
-30
20
-0.265373915570109
30
0
41
1
10
-30
20
-0.353895962579457
30
0
41
1
10
-30
20
-0.442471374506795
30
0
41
1
10
-30
20
-0.531109813902617
30
0
41
1
10
-30
20
-0.619820822982092
30
0
41
1
10
-30
20
-0.708610806550041
30
0
41
1
10
-30
20
-0.797485667180126
30
0
41
1
10
-30
20
-0.886448026006804
30
0
41
1
10
-30
20
-0.975500272783734
30
0
41
1
10
-30
20
-1.06464012636246
30
0
41
1
10
-30
20
-1.15386845800864
30
0
41
1
10
-30
20
-1.24317738635403
30
0
41
1
10
-30
20
-1.33256791795023
30
0
41
1
10
-30
20
-1.42202585063242
30
0
41
1
10
-30
20
-1.51155302070467
30
0
41
1
10
-30
20
-1.60113232466111
30
0
41
1
10
-30
20
-1.69076256252151
30
0
41
1
10
-30
20
-1.78043050963586
30
0
41
1
10
-30
20
-1.87012473193454
30
0
41
1
10
-30
20
-1.95984062320622
30
0
41
1
10
-30
20
-2.04956121840732
30
0
41
1
10
-30
20
-2.13928298465066
30
0
41
1
10
-30
20
-2.22899154181982
30
0
41
1
10
-30
20
-2.34971237639809
30
0
41
1
10
-30
20
-2.46705810448157
30
0
41
1
10
-30
20
-2.58749567267537
30
0
41
1
10
-30
20
-2.7078805675516
30
0
41
1
10
-30
20
-2.85589666602095
30
0
41
1
10
-30
20
-3.00356394920897
30
0
41
1
10
-30
20
-3.12322374659232
30
0
41
1
10
-30
20
-3.21216341650839
30
0
41
1
10
-30
20
-3.30098129392067
30
0
41
1
10
-30
20
-3.42015124315617
30
0
41
1
10
-30
20
-3.56678672363674
30
0
41
1
10
-30
20
-3.74316585626096
30
0
41
1
10
-30
20
-3.91890584757374
30
0
41
1
10
-30
20
-4.09396100129442
30
0
41
1
10
-30
20
-4.26829259541549
30
0
41
1
10
-30
20
-4.44186183082064
30
0
41
1
10
-30
20
-4.6146341491438
30
0
41
1
10
-30
20
-4.7865802102549
30
0
41
1
10
-30
20
-4.9576712305628
30
0
41
1
10
-30
20
-5.12787786255657
30
0
41
1
10
-30
20
-5.29717415068041
30
0
41
1
10
-30
20
-5.46553992297873
30
0
41
1
10
-30
20
-5.63295448869488
30
0
41
1
10
-30
20
-5.79939725011724
30
0
41
1
10
-30
20
-5.96484950556558
30
0
41
1
10
-30
20
-6.12929365354827
30
0
41
1
10
-30
20
-6.34834993475849
30
0
41
1
10
-30
20
-6.61705901965067
30
0
41
1
10
-30
20
-6.93651248001376
30
0
41
1
10
-30
20
-7.19804203228605
30
0
41
1
10
-30
20
-7.40685270744592
30
0
41
1
10
-30
20
-7.5616129798685
30
0
41
1
10
-30
20
-7.71524232371229
30
0
41
1
10
-30
20
-7.86773082006809
30
0
41
1
10
-30
20
-8.01906843480589
30
0
41
1
10
-30
20
-8.2202169213561
30
0
41
1
10
-30
20
-8.46674612315104
30
0
41
1
10
-30
20
-8.70931957903707
30
0
41
1
10
-30
20
-8.90249052457435
30
0
41
1
10
-30
20
-9.04555441784279
30
0
41
1
10
-30
20
-9.1874056059394
30
0
41
1
10
-30
20
-9.32804088163149
30
0
41
1
10
-30
20
-9.46744870809559
30
0
41
1
10
-30
20
-9.65245029192153
30
0
41
1
10
-30
20
-9.83272433616028
30
0
41
1
10
-30
20
-10.0126979221092
30
0
41
1
10
-30
20
-10.1909959517429
30
0
41
1
10
-30
20
-10.4091174330404
30
0
41
1
10
-30
20
-10.622984509075
30
0
41
1
10
-30
20
-10.7927086151922
30
0
41
1
10
-30
20
-10.9607029915804
30
0
41
1
10
-30
20
-11.1241532476502
30
0
41
1
10
-30
20
-11.286879520772
30
0
41
1
10
-30
20
-11.4071324437642
30
0
41
1
10
-30
20
-11.526059483736
30
0
41
1
10
-30
20
-11.683450389854
30
0
41
1
10
-30
20
-11.8363772717574
30
0
41
1
10
-30
20
-11.9883479026382
30
0
41
1
10
-30
20
-12.100530681097
30
0
41
1
10
-30
20
-12.2113468177929
30
0
41
1
10
-30
20
-12.3578191303264
30
0
41
1
10
-30
20
-12.4998873251013
30
0
41
1
10
-30
20
-12.640774639564
30
0
41
1
10
-30
20
-12.7446351726737
30
0
41
1
10
-30
20
-12.8470846962098
30
0
41
1
10
-30
20
-12.982296760346
30
0
41
1
10
-30
20
-13.1131460918651
30
0
41
1
10
-30
20
-13.2425908150843
30
0
41
1
10
-30
20
-13.3378530905646
30
0
41
1
10
-30
20
-13.4316551022429
30
0
41
1
10
-30
20
-13.555228443938
30
0
41
1
10
-30
20
-13.6744629632361
30
0
41
1
10
-30
20
-13.7920640428986
30
0
41
1
10
-30
20
-13.863808410054
30
0
41
1
10
-30
20
-13.9208384799595
30
0
41
1
10
-30
20
-13.9773600368973
30
0
41
1
10
-30
20
-14.0747689786766
30
0
41
1
10
-30
20
-14.1819460903517
30
0
41
1
10
-30
20
-14.287249006353
30
0
41
1
10
-30
20
-14.3643499644422
30
0
41
1
10
-30
20
-14.4398725346097
30
0
41
1
10
-30
20
-14.5388306330264
30
0
41
1
10
-30
20
-14.6334478734244
30
0
41
1
10
-30
20
-14.7259318226356
30
0
41
1
10
-30
20
-14.7933781715369
30
0
41
1
10
-30
20
-14.8591738437124
30
0
41
1
10
-30
20
-14.9233034607296
30
0
41
1
10
-30
20
-14.9857535133678
30
0
41
1
10
-30
20
-15.0465122321639
30
0
41
1
10
-30
20
-15.1055630695375
30
0
41
1
10
-30
20
-15.1823146060512
30
0
41
1
10
-30
20
-15.2546726312332
30
0
41
1
10
-30
20
-15.3243986497296
30
0
41
1
10
-30
20
-15.3917322452795
30
0
41
1
10
-30
20
-15.4546352005829
30
0
41
1
10
-30
20
-15.514676887791
30
0
41
1
10
-30
20
-15.5722298782127
30
0
41
1
10
-30
20
-15.6253102421943
30
0
41
1
10
-30
20
-15.6752710489662
30
0
41
1
10
-30
20
-15.7106367362117
30
0
41
1
10
-30
20
-15.7440468008704
30
0
41
1
10
-30
20
-15.7861515665345
30
0
41
1
10
-30
20
-15.8237020814765
30
0
41
1
10
-30
20
-15.8576872273509
30
0
41
1
10
-30
20
-15.8809772969169
30
0
41
1
10
-30
20
-15.9021692417172
30
0
41
1
10
-30
20
-15.921235563756
30
0
41
1
10
-30
20
-15.9381491696965
30
0
41
1
10
-30
20
-15.9528811556007
30
0
41
1
10
-30
20
-15.9654018081648
30
0
41
1
10
-30
20
-15.97568082013
30
0
41
1
10
-30
20
-15.9836860510364
30
0
41
1
10
-30
20
-15.989385071505
30
0
41
1
10
-30
20
-15.992743547039
30
0
41
1
10
-30
20
-15.993612628193
30
0
41
1
10
-30
20
-15.9930576931417
30
0
41
1
10
-30
20
-15.9926664701492
30
0
0
SPLINE
5
111
100
AcDbEntity
8
1
62
256
6
ByLayer
370
18
48
1
60
0
100
AcDbSpline
70
4
71
3
72
16
73
12
40
0
40
0
40
0
40
0
40
0.461208588217088
40
0.461208588217088
40
0.643534962278544
40
0.643534962278544
40
0.82840847297529
40
0.82840847297529
40
0.943003644159989
40
0.943003644159989
40
1
40
1
40
1
40
1
41
1
10
8.10566243270262
20
8.05584836782774
30
0
41
1
10
8.13394960848487
20
7.95080268681443
30
0
41
1
10
8.17266608070923
20
7.84628670970801
30
0
41
1
10
8.25268397516851
20
7.71442469145123
30
0
41
1
10
8.27872153625233
20
7.67825379650725
30
0
41
1
10
8.33934560108361
20
7.61290523367225
30
0
41
1
10
8.37482777731265
20
7.58305923051407
30
0
41
1
10
8.44007741480422
20
7.54855881865589
30
0
41
1
10
8.46752172250564
20
7.5385201810229
30
0
41
1
10
8.50983152523006
20
7.53097042135255
30
0
41
1
10
8.5242826069246
20
7.5296667942647
30
0
41
1
10
8.53867513459477
20
7.5296667942647
30
0
0
SPLINE
5
112
100
AcDbEntity
8
1
62
256
6
ByLayer
370
18
48
1
60
0
100
AcDbSpline
70
4
71
3
72
16
73
12
40
0
40
0
40
0
40
0
40
0.111430279628047
40
0.111430279628047
40
0.248747543515475
40
0.248747543515475
40
0.465535329195272
40
0.465535329195272
40
0.883855351867603
40
0.883855351867603
40
1
40
1
40
1
40
1
41
1
10
11.4613248654052
20
7.52966679426501
30
0
41
1
10
11.4891847159942
20
7.52966679426501
30
0
41
1
10
11.5173911427755
20
7.53471706780854
30
0
41
1
10
11.5758492032393
20
7.55489210221026
30
0
41
1
10
11.6060413892306
20
7.57218953888443
30
0
41
1
10
11.6751537543576
20
7.62460019394089
30
0
41
1
10
11.7107854085705
20
7.66489294253907
30
0
41
1
10
11.798993890746
20
7.78941367630352
30
0
41
1
10
11.8397320068509
20
7.88247511004147
30
0
41
1
10
11.8792917015268
20
8.00269269538009
30
0
41
1
10
11.8871615985731
20
8.02920008991578
30
0
41
1
10
11.8943375672976
20
8.05584836782768
30
0
0
SPLINE
5
113
100
AcDbEntity
8
1
62
256
6
ByLayer
370
18
48
1
60
0
100
AcDbSpline
70
4
71
3
72
16
73
12
40
0
40
0
40
0
40
0
40
0.111430279628047
40
0.111430279628047
40
0.248747543515467
40
0.248747543515467
40
0.465535329195252
40
0.465535329195252
40
0.883855351867553
40
0.883855351867553
40
1
40
1
40
1
40
1
41
1
10
8.5386751345948
20
-7.52966679426504
30
0
41
1
10
8.51081528400576
20
-7.52966679426504
30
0
41
1
10
8.48260885722448
20
-7.53471706780857
30
0
41
1
10
8.4241507967607
20
-7.55489210221029
30
0
41
1
10
8.39395861076943
20
-7.57218953888446
30
0
41
1
10
8.32484624564242
20
-7.62460019394092
30
0
41
1
10
8.28921459142953
20
-7.6648929425391
30
0
41
1
10
8.20100610925397
20
-7.78941367630352
30
0
41
1
10
8.16026799314912
20
-7.8824751100415
30
0
41
1
10
8.12070829847318
20
-8.00269269538009
30
0
41
1
10
8.11283840142687
20
-8.02920008991578
30
0
41
1
10
8.10566243270245
20
-8.05584836782771
30
0
0
SPLINE
5
114
100
AcDbEntity
8
1
62
256
6
ByLayer
370
18
48
1
60
0
100
AcDbSpline
70
4
71
3
72
8
73
4
40
0
40
0
40
0
40
0
40
1
40
1
40
1
40
1
41
1
10
20.92079238
20
0.227887127819912
30
0
41
1
10
20.3174313489097
20
-0.731597484258828
30
0
41
1
10
20
20
-1.84058762155439
30
0
41
1
10
20
20
-2.9661150564207
30
0
0
SPLINE
5
115
100
AcDbEntity
8
1
62
256
6
ByLayer
370
18
48
1
60
0
100
AcDbSpline
70
4
71
3
72
8
73
4
40
0
40
0
40
0
40
0
40
1
40
1
40
1
40
1
41
1
10
23.5
20
34.332076063142
30
0
41
1
10
22.7179906900024
20
31.3886143450739
30
0
41
1
10
21.9373858955571
20
28.4447728612944
30
0
41
1
10
21.16034291094
20
25.5
30
0
0
SPLINE
5
116
100
AcDbEntity
8
1
62
256
6
ByLayer
370
18
48
1
60
0
100
AcDbSpline
70
4
71
3
72
8
73
4
40
0
40
0
40
0
40
0
40
1
40
1
40
1
40
1
41
1
10
53.2675682415351
20
34.2697851262736
30
0
41
1
10
53.2100885379482
20
34.4057515506599
30
0
41
1
10
53.1516577684963
20
34.5411519930364
30
0
41
1
10
53.0909333748181
20
34.6749999999999
30
0
0
SPLINE
5
117
100
AcDbEntity
8
1
62
256
6
ByLayer
370
18
48
1
60
0
100
AcDbSpline
70
4
71
3
72
8
73
4
40
0
40
0
40
0
40
0
40
1
40
1
40
1
40
1
41
1
10
23.5910736608441
20
34.6749999999999
30
0
41
1
10
23.5607265268259
20
34.5606912126178
30
0
41
1
10
23.5303684098094
20
34.4463819295424
30
0
41
1
10
23.5000000000001
20
34.332076063142
30
0
0
SPLINE
5
118
100
AcDbEntity
8
1
62
256
6
ByLayer
370
18
48
1
60
0
100
AcDbSpline
70
4
71
3
72
10
73
6
40
0
40
0
40
0
40
0
40
0.5
40
0.5
40
1
40
1
40
1
40
1
41
1
10
21.1219741978266
20
0.527431032201889
30
0
41
1
10
21.1532736124938
20
6.23050705500782
30
0
41
1
10
21.725657204169
20
11.9753303295753
30
0
41
1
10
23.451388766829
20
23.3582257370363
30
0
41
1
10
24.5733142752611
20
28.9967163019199
30
0
41
1
10
25.7818218593474
20
34.6175077089552
30
0
0
SPLINE
5
119
100
AcDbEntity
8
1
62
256
6
ByLayer
370
18
48
1
60
0
100
AcDbSpline
70
4
71
3
72
8
73
4
40
0
40
0
40
0
40
0
40
1
40
1
40
1
40
1
41
1
10
20.92079238
20
24.8714269498717
30
0
41
1
10
20.9780742559266
20
25.076493846214
30
0
41
1
10
21.0365042420259
20
25.2865749966406
30
0
41
1
10
21.0956648830906
20
25.5
30
0
0
SPLINE
5
11A
100
AcDbEntity
8
1
62
256
6
ByLayer
370
18
48
1
60
0
100
AcDbSpline
70
4
71
3
72
8
73
4
40
0
40
0
40
0
40
0
40
1
40
1
40
1
40
1
41
1
10
20.92079238
20
0.227887127819912
30
0
41
1
10
20.9872843593114
20
0.33362486640192
30
0
41
1
10
21.0543941206506
20
0.433069214205318
30
0
41
1
10
21.1219741978266
20
0.527431032201889
30
0
0
SPLINE
5
11B
100
AcDbEntity
8
1
62
256
6
ByLayer
370
18
48
1
60
0
100
AcDbSpline
70
4
71
3
72
16
73
12
40
0
40
0
40
0
40
0
40
0.111430279628052
40
0.111430279628052
40
0.248747543515474
40
0.248747543515474
40
0.465535329195271
40
0.465535329195271
40
0.883855351867598
40
0.883855351867598
40
1
40
1
40
1
40
1
41
1
10
11.4613248654052
20
-23.8391299750504
30
0
41
1
10
11.4891847159942
20
-23.8391299750504
30
0
41
1
10
11.5173911427755
20
-23.8375361275706
30
0
41
1
10
11.5758492032393
20
-23.831150658589
30
0
41
1
10
11.6060413892305
20
-23.825666877018
30
0
41
1
10
11.6751537543576
20
-23.8089605749788
30
0
41
1
10
11.7107854085704
20
-23.796037970776
30
0
41
1
10
11.798993890746
20
-23.7556824246832
30
0
41
1
10
11.8397320068509
20
-23.7250165399981
30
0
41
1
10
11.8792917015268
20
-23.6845451449633
30
0
41
1
10
11.8871615985731
20
-23.6755726082078
30
0
41
1
10
11.8943375672975
20
-23.6665017920809
30
0
0
SPLINE
5
11C
100
AcDbEntity
8
1
62
256
6
ByLayer
370
18
48
1
60
0
100
AcDbSpline
70
4
71
3
72
16
73
12
40
0
40
0
40
0
40
0
40
0.461208588217094
40
0.461208588217094
40
0.643534962278546
40
0.643534962278546
40
0.828408472975285
40
0.828408472975285
40
0.943003644159988
40
0.943003644159988
40
1
40
1
40
1
40
1
41
1
10
8.10566243270256
20
-23.6665017920809
30
0
41
1
10
8.13394960848484
20
-23.7022583261632
30
0
41
1
10
8.17266608070921
20
-23.7370095736338
30
0
41
1
10
8.25268397516845
20
-23.7800170858174
30
0
41
1
10
8.27872153625231
20
-23.7917125768793
30
0
41
1
10
8.33934560108358
20
-23.8127037684951
30
0
41
1
10
8.37482777731259
20
-23.8222104320954
30
0
41
1
10
8.44007741480419
20
-23.8331586856493
30
0
41
1
10
8.46752172250561
20
-23.836332378473
30
0
41
1
10
8.50983152523003
20
-23.8387183279986
30
0
41
1
10
8.52428260692457
20
-23.8391299750505
30
0
41
1
10
8.53867513459471
20
-23.8391299750505
30
0
0
SPLINE
5
11D
100
AcDbEntity
8
1
62
256
6
ByLayer
370
18
48
1
60
0
100
AcDbSpline
70
4
71
3
72
8
73
4
40
0
40
0
40
0
40
0
40
1
40
1
40
1
40
1
41
1
10
37.5
20
24.5
30
0
41
1
10
37.5
20
25.4434766201291
30
0
41
1
10
37.7389812204544
20
26.3605008861549
30
0
41
1
10
38.1992779747489
20
27.1838532069151
30
0
0
SPLINE
5
11E
100
AcDbEntity
8
1
62
256
6
ByLayer
370
18
48
1
60
0
100
AcDbSpline
70
4
71
3
72
8
73
4
40
0
40
0
40
0
40
0
40
1
40
1
40
1
40
1
41
1
10
53.2826711249932
20
32.7705139329338
30
0
41
1
10
53.3175699355043
20
32.8766973086437
30
0
41
1
10
53.3520743031073
20
32.983074391504
30
0
41
1
10
53.3863166067351
20
33.0895758280092
30
0
0
SPLINE
5
11F
100
AcDbEntity
8
1
62
256
6
ByLayer
370
18
48
1
60
0
100
AcDbSpline
70
4
71
3
72
16
73
12
40
0
40
0
40
0
40
0
40
0.11143027962805
40
0.11143027962805
40
0.248747543515472
40
0.248747543515472
40
0.465535329195252
40
0.465535329195252
40
0.88385535186756
40
0.88385535186756
40
1
40
1
40
1
40
1
41
1
10
8.53867513459483
20
23.8391299750503
30
0
41
1
10
8.51081528400582
20
23.8391299750503
30
0
41
1
10
8.48260885722451
20
23.8375361275706
30
0
41
1
10
8.42415079676073
20
23.831150658589
30
0
41
1
10
8.39395861076946
20
23.825666877018
30
0
41
1
10
8.32484624564248
20
23.8089605749788
30
0
41
1
10
8.28921459142958
20
23.796037970776
30
0
41
1
10
8.20100610925402
20
23.7556824246832
30
0
41
1
10
8.16026799314915
20
23.7250165399981
30
0
41
1
10
8.12070829847323
20
23.6845451449633
30
0
41
1
10
8.11283840142693
20
23.6755726082077
30
0
41
1
10
8.10566243270247
20
23.6665017920809
30
0
0
SPLINE
5
120
100
AcDbEntity
8
1
62
256
6
ByLayer
370
18
48
1
60
0
100
AcDbSpline
70
4
71
3
72
8
73
4
40
0
40
0
40
0
40
0
40
1
40
1
40
1
40
1
41
1
10
21.0576598945379
20
25.5
30
0
41
1
10
21.0115102149167
20
25.3295770406751
30
0
41
1
10
20.9658248619967
20
25.1608217414317
30
0
41
1
10
20.92079238
20
24.9943342654156
30
0
0
SPLINE
5
121
100
AcDbEntity
8
1
62
256
6
ByLayer
370
18
48
1
60
0
100
AcDbSpline
70
4
71
3
72
8
73
4
40
0
40
0
40
0
40
0
40
1
40
1
40
1
40
1
41
1
10
53.3863166067351
20
33.9104241719907
30
0
41
1
10
53.3520743031073
20
34.0169256084959
30
0
41
1
10
53.3175699355044
20
34.1233026913562
30
0
41
1
10
53.2826711249932
20
34.2294860670661
30
0
0
SPLINE
5
122
100
AcDbEntity
8
1
62
256
6
ByLayer
370
18
48
1
60
0
100
AcDbSpline
70
4
71
3
72
8
73
4
40
0
40
0
40
0
40
0
40
1
40
1
40
1
40
1
41
1
10
53.0909333748181
20
32.3249999999999
30
0
41
1
10
53.1516577684963
20
32.4588480069635
30
0
41
1
10
53.2100885379482
20
32.59424844934
30
0
41
1
10
53.2675682415351
20
32.7302148737262
30
0
0
SPLINE
5
123
100
AcDbEntity
8
1
62
256
6
ByLayer
370
18
48
1
60
0
100
AcDbSpline
70
4
71
3
72
8
73
4
40
0
40
0
40
0
40
0
40
1
40
1
40
1
40
1
41
1
10
25.7816123462373
20
34.6749999999909
30
0
41
1
10
25.7816734153258
20
34.6558391492724
30
0
41
1
10
25.7817432531869
20
34.636675050516
30
0
41
1
10
25.7818218593474
20
34.6175077089552
30
0
0
SPLINE
5
124
100
AcDbEntity
8
1
62
256
6
ByLayer
370
18
48
1
60
0
100
AcDbSpline
70
4
71
3
72
8
73
4
40
0
40
0
40
0
40
0
40
1
40
1
40
1
40
1
41
1
10
23.5
20
34.5353651610254
30
0
41
1
10
23.5124390666189
20
34.5819098653486
30
0
41
1
10
23.5248770699887
20
34.6284549010405
30
0
41
1
10
23.5373139530107
20
34.6749999999999
30
0
0
SPLINE
5
125
100
AcDbEntity
8
1
62
256
6
ByLayer
370
18
48
1
60
0
100
AcDbSpline
70
4
71
3
72
8
73
4
40
0
40
0
40
0
40
0
40
1
40
1
40
1
40
1
41
1
10
25.7816123462403
20
34.6749999999999
30
0
41
1
10
24.6618226672086
20
34.6749999999999
30
0
41
1
10
23.8344605764626
20
34.6749999999999
30
0
41
1
10
23.5910736608441
20
34.6749999999999
30
0
0
SPLINE
5
126
100
AcDbEntity
8
1
62
256
6
ByLayer
370
18
48
1
60
0
100
AcDbSpline
70
4
71
3
72
14
73
10
40
0
40
0
40
0
40
0
40
0.314694511555475
40
0.314694511555475
40
0.629520730043294
40
0.629520730043294
40
0.942496253041123
40
0.942496253041123
40
1
40
1
40
1
40
1
41
1
10
20.92079238
20
24.8714269498717
30
0
41
1
10
20.7498131136457
20
24.9007297906607
30
0
41
1
10
20.6258848528616
20
24.928107493026
30
0
41
1
10
20.4929938548787
20
24.9701268386673
30
0
41
1
10
20.4822942812296
20
24.9852791241996
30
0
41
1
10
20.5744850175523
20
25.0008771753673
30
0
41
1
10
20.6779827983499
20
25.0016669293215
30
0
41
1
10
20.858856977834
20
24.9964628606677
30
0
41
1
10
20.8889994722056
20
24.995473841412
30
0
41
1
10
20.92079238
20
24.9943342654156
30
0
0
SPLINE
5
127
100
AcDbEntity
8
1
62
256
6
ByLayer
370
18
48
1
60
0
100
AcDbSpline
70
4
71
3
72
16
73
12
40
0
40
0
40
0
40
0
40
0.461208588217085
40
0.461208588217085
40
0.643534962278541
40
0.643534962278541
40
0.828408472975291
40
0.828408472975291
40
0.943003644159993
40
0.943003644159993
40
1
40
1
40
1
40
1
41
1
10
11.8943375672974
20
23.6665017920809
30
0
41
1
10
11.8660503915152
20
23.7022583261632
30
0
41
1
10
11.8273339192908
20
23.7370095736338
30
0
41
1
10
11.7473160248315
20
23.7800170858174
30
0
41
1
10
11.7212784637477
20
23.7917125768793
30
0
41
1
10
11.6606543989164
20
23.8127037684951
30
0
41
1
10
11.6251722226874
20
23.8222104320954
30
0
41
1
10
11.5599225851958
20
23.8331586856493
30
0
41
1
10
11.5324782774944
20
23.836332378473
30
0
41
1
10
11.49016847477
20
23.8387183279986
30
0
41
1
10
11.4757173930754
20
23.8391299750505
30
0
41
1
10
11.4613248654053
20
23.8391299750505
30
0
0
SPLINE
5
128
100
AcDbEntity
8
1
62
256
6
ByLayer
370
18
48
1
60
0
100
AcDbSpline
70
4
71
3
72
12
73
8
40
0
40
0
40
0
40
0
40
0.476059608016397
40
0.476059608016397
40
0.927101084955917
40
0.927101084955917
40
1
40
1
40
1
40
1
41
1
10
53.3863166067351
20
33.0895758280091
30
0
41
1
10
53.4259653450257
20
33.2128925192418
30
0
41
1
10
53.4477674153748
20
33.3469300376508
30
0
41
1
10
53.4516467356135
20
33.6050797847067
30
0
41
1
10
53.4358013988409
20
33.7329089694763
30
0
41
1
10
53.3982187180425
20
33.8718511106477
30
0
41
1
10
53.3924830715351
20
33.8912450488073
30
0
41
1
10
53.3863166067351
20
33.9104241719907
30
0
0
SPLINE
5
129
100
AcDbEntity
8
1
62
256
6
ByLayer
370
18
48
1
60
0
100
AcDbSpline
70
4
71
3
72
8
73
4
40
0
40
0
40
0
40
0
40
1
40
1
40
1
40
1
41
1
10
21.16034291094
20
25.5
30
0
41
1
10
21.1338811449539
20
25.5
30
0
41
1
10
21.1122698915711
20
25.5
30
0
41
1
10
21.0956648830906
20
25.5
30
0
0
SPLINE
5
12A
100
AcDbEntity
8
1
62
256
6
ByLayer
370
18
48
1
60
0
100
AcDbSpline
70
4
71
3
72
10
73
6
40
0
40
0
40
0
40
0
40
0.850559156250997
40
0.850559156250997
40
1
40
1
40
1
40
1
41
1
10
23.5
20
34.5353651610254
30
0
41
1
10
22.8154269020247
20
31.9738182693578
30
0
41
1
10
22.1311944540448
20
29.4121802339807
30
0
41
1
10
21.3276219548983
20
26.4002355022887
30
0
41
1
10
21.2075595678952
20
25.950121507999
30
0
41
1
10
21.0875253594589
20
25.5
30
0
0
SPLINE
5
12B
100
AcDbEntity
8
1
62
256
6
ByLayer
370
18
48
1
60
0
100
AcDbSpline
70
4
71
3
72
8
73
4
40
0
40
0
40
0
40
0
40
1
40
1
40
1
40
1
41
1
10
53.2826711249934
20
34.2294860670662
30
0
41
1
10
53.2781651928696
20
34.2431958490509
30
0
41
1
10
53.2731177059795
20
34.2566580433097
30
0
41
1
10
53.2675682415353
20
34.2697851262738
30
0
0
SPLINE
5
12C
100
AcDbEntity
8
1
62
256
6
ByLayer
370
18
48
1
60
0
100
AcDbSpline
70
4
71
3
72
16
73
12
40
0
40
0
40
0
40
0
40
0.461208588217066
40
0.461208588217066
40
0.643534962278522
40
0.643534962278522
40
0.828408472975271
40
0.828408472975271
40
0.943003644159981
40
0.943003644159981
40
1
40
1
40
1
40
1
41
1
10
11.8943375672974
20
-8.05584836782776
30
0
41
1
10
11.8660503915151
20
-7.95080268681445
30
0
41
1
10
11.8273339192908
20
-7.84628670970801
30
0
41
1
10
11.7473160248315
20
-7.71442469145126
30
0
41
1
10
11.7212784637477
20
-7.67825379650728
30
0
41
1
10
11.6606543989164
20
-7.61290523367228
30
0
41
1
10
11.6251722226874
20
-7.5830592305141
30
0
41
1
10
11.5599225851958
20
-7.54855881865592
30
0
41
1
10
11.5324782774944
20
-7.5385201810229
30
0
41
1
10
11.4901684747699
20
-7.53097042135258
30
0
41
1
10
11.4757173930754
20
-7.52966679426473
30
0
41
1
10
11.4613248654053
20
-7.52966679426473
30
0
0
SPLINE
5
12D
100
AcDbEntity
8
1
62
256
6
ByLayer
370
18
48
1
60
0
100
AcDbSpline
70
4
71
3
72
8
73
4
40
0
40
0
40
0
40
0
40
1
40
1
40
1
40
1
41
1
10
53.2675682415353
20
32.7302148737261
30
0
41
1
10
53.2731177059795
20
32.7433419566901
30
0
41
1
10
53.2781651928696
20
32.756804150949
30
0
41
1
10
53.2826711249934
20
32.7705139329337
30
0
0
SPLINE
5
12E
100
AcDbEntity
8
SK1
62
256
6
ByLayer
370
18
48
1
60
0
100
AcDbSpline
70
4
71
3
72
22
73
18
40
0
40
0
40
0
40
0
40
0.359503326352592
40
0.359503326352592
40
0.722215553677066
40
0.722215553677066
40
0.826527133697721
40
0.826527133697721
40
0.863141914878009
40
0.863141914878009
40
0.900378805007221
40
0.900378805007221
40
0.933500873078508
40
0.933500873078508
40
0.972947835056124
40
0.972947835056124
40
1
40
1
40
1
40
1
41
1
10
-1.30710678118655
20
3.91806548153781
30
0
41
1
10
-1.26486058419175
20
4.15139729989579
30
0
41
1
10
-1.21446435132793
20
4.3814323255595
30
0
41
1
10
-1.08204001032738
20
4.82987250608483
30
0
41
1
10
-1.00537527699572
20
5.05527264511531
30
0
41
1
10
-0.832356114396674
20
5.30654108347395
30
0
41
1
10
-0.78723829488635
20
5.36152992388779
30
0
41
1
10
-0.709490490588564
20
5.41877880440927
30
0
41
1
10
-0.687203973712826
20
5.43218986569767
30
0
41
1
10
-0.639076749164019
20
5.45244590583036
30
0
41
1
10
-0.612446414061679
20
5.45928056674788
30
0
41
1
10
-0.562058433231044
20
5.46233960302246
30
0
41
1
10
-0.537713914852588
20
5.45964677314575
30
0
41
1
10
-0.488053852696936
20
5.44628701250068
30
0
41
1
10
-0.462609559288751
20
5.43420976008088
30
0
41
1
10
-0.423860760477311
20
5.40985221311715
30
0
41
1
10
-0.408979654247759
20
5.39867780521598
30
0
41
1
10
-0.394976888875391
20
5.38678223323953
30
0
0
SPLINE
5
12F
100
AcDbEntity
8
SK1
62
256
6
ByLayer
370
18
48
1
60
0
100
AcDbSpline
70
4
71
3
72
22
73
18
40
0
40
0
40
0
40
0
40
0.0260455644157247
40
0.0260455644157247
40
0.0526262165848557
40
0.0526262165848557
40
0.0706056579866929
40
0.0706056579866929
40
0.0884949509195805
40
0.0884949509195805
40
0.11748921873202
40
0.11748921873202
40
0.17459086731972
40
0.17459086731972
40
0.37652425293745
40
0.37652425293745
40
1
40
1
40
1
40
1
41
1
10
-0.394976888872947
20
5.38678223324206
30
0
41
1
10
-0.389612432086409
20
5.38222504185003
30
0
41
1
10
-0.383763200778958
20
5.37811700449893
30
0
41
1
10
-0.3709728888754
20
5.37184824531644
30
0
41
1
10
-0.363785592650885
20
5.36968256852501
30
0
41
1
10
-0.351475656346565
20
5.3691458249703
30
0
41
1
10
-0.346317238365032
20
5.36979468027801
30
0
41
1
10
-0.336550133197363
20
5.3727304206256
30
0
41
1
10
-0.331829865964096
20
5.3750241182685
30
0
41
1
10
-0.320511111438321
20
5.38234306083376
30
0
41
1
10
-0.314321448136155
20
5.3882440687963
30
0
41
1
10
-0.298260159254511
20
5.40702817233921
30
0
41
1
10
-0.290032841564653
20
5.42147709180324
30
0
41
1
10
-0.258449669573651
20
5.48745345024415
30
0
41
1
10
-0.24608390551893
20
5.5434138926733
30
0
41
1
10
-0.204764795451894
20
5.7670899064446
30
0
41
1
10
-0.200000000000358
20
5.93709576978202
30
0
41
1
10
-0.200000000000358
20
6.10344667966001
30
0
0
SPLINE
5
130
100
AcDbEntity
8
SK1
62
256
6
ByLayer
370
18
48
1
60
0
100
AcDbSpline
70
4
71
3
72
10
73
6
40
0
40
0
40
0
40
0
40
0.5
40
0.5
40
1
40
1
40
1
40
1
41
1
10
-1.30710678118655
20
3.91806548153784
30
0
41
1
10
-1.53227959010832
20
2.67440369212437
30
0
41
1
10
-1.71681589069689
20
1.34075776539186
30
0
41
1
10
-1.71598271729604
20
-1.35050010337164
30
0
41
1
10
-1.53230696904976
20
-2.67425240209695
30
0
41
1
10
-1.30710678118655
20
-3.91806548057698
30
0
0
SPLINE
5
131
100
AcDbEntity
8
SK1
62
256
6
ByLayer
370
18
48
1
60
0
100
AcDbSpline
70
4
71
3
72
24
73
20
40
0
40
0
40
0
40
0
40
0.469770575826712
40
0.469770575826712
40
0.663612078687295
40
0.663612078687295
40
0.860454184613411
40
0.860454184613411
40
0.903064590395674
40
0.903064590395674
40
0.923089343972159
40
0.923089343972159
40
0.943389594779288
40
0.943389594779288
40
0.961332284531898
40
0.961332284531898
40
0.988068136377815
40
0.988068136377815
40
1
40
1
40
1
40
1
41
1
10
-0.199999999999989
20
-6.10344849123027
30
0
41
1
10
-0.199999999999989
20
-5.97798788494984
30
0
41
1
10
-0.204016575726513
20
-5.8509635670122
30
0
41
1
10
-0.223752631922082
20
-5.67079358995508
30
0
41
1
10
-0.231244965282229
20
-5.61789623093799
30
0
41
1
10
-0.253819137983157
20
-5.51250015101135
30
0
41
1
10
-0.267096215270385
20
-5.45724004647028
30
0
41
1
10
-0.303692478692511
20
-5.40035311573845
30
0
41
1
10
-0.311479622041333
20
-5.39039941672755
30
0
41
1
10
-0.32547775761438
20
-5.37891036834915
30
0
41
1
10
-0.330455622185014
20
-5.3756771312581
30
0
41
1
10
-0.341078704143143
20
-5.37102422840917
30
0
41
1
10
-0.346883276538165
20
-5.36960762575521
30
0
41
1
10
-0.357630415747792
20
-5.36914354197148
30
0
41
1
10
-0.362713068049601
20
-5.36981917830482
30
0
41
1
10
-0.37458340180882
20
-5.37316903610403
30
0
41
1
10
-0.3812109954861
20
-5.37664910167555
30
0
41
1
10
-0.38989246528871
20
-5.38265091141974
30
0
41
1
10
-0.392483363308571
20
-5.38466360919151
30
0
41
1
10
-0.394976888875334
20
-5.38678189578178
30
0
0
SPLINE
5
132
100
AcDbEntity
8
SK1
62
256
6
ByLayer
370
18
48
1
60
0
100
AcDbSpline
70
4
71
3
72
22
73
18
40
0
40
0
40
0
40
0
40
0.0394331151890913
40
0.0394331151890913
40
0.0795339708694829
40
0.0795339708694829
40
0.109637917244288
40
0.109637917244288
40
0.13957706301322
40
0.13957706301322
40
0.189266399657458
40
0.189266399657458
40
0.289571152403382
40
0.289571152403382
40
0.658284396834382
40
0.658284396834382
40
1
40
1
40
1
40
1
41
1
10
-0.394976888875306
20
-5.38678189578292
30
0
41
1
10
-0.415237014773396
20
-5.40399317028476
30
0
41
1
10
-0.437419275645482
20
-5.41977813092004
30
0
41
1
10
-0.486103141154984
20
-5.44521655864725
30
0
41
1
10
-0.51341298093098
20
-5.45496005292577
30
0
41
1
10
-0.562874322366525
20
-5.46212264681108
30
0
41
1
10
-0.585106616517606
20
-5.46199323188387
30
0
41
1
10
-0.627692822126733
20
-5.45533455005088
30
0
41
1
10
-0.648523068172722
20
-5.44883772858989
30
0
41
1
10
-0.699826196362153
20
-5.42613682765011
30
0
41
1
10
-0.728695564403466
20
-5.40623396070797
30
0
41
1
10
-0.806075449923839
20
-5.34007786619352
30
0
41
1
10
-0.847522380016557
20
-5.28655870152033
30
0
41
1
10
-1.01570466784386
20
-5.03084699030373
30
0
41
1
10
-1.09210771407481
20
-4.80149729085085
30
0
41
1
10
-1.21929875138235
20
-4.35887826398974
30
0
41
1
10
-1.26692602208391
20
-4.13998960128646
30
0
41
1
10
-1.30710678118655
20
-3.91806548057696
30
0
0
SPLINE
5
133
100
AcDbEntity
8
1
62
256
6
ByLayer
370
18
48
1
60
0
100
AcDbSpline
70
4
71
3
72
9
73
5
40
0
40
0
40
0
40
0
40
0.421427700695298
40
1
40
1
40
1
40
1
41
1
10
55.6234596151002
20
33.5000097298017
30
0
41
1
10
55.6158890370542
20
33.5305420229073
30
0
41
1
10
55.5979249164387
20
33.602991681663
30
0
41
1
10
55.5374873023803
20
33.6460802307443
30
0
41
1
10
55.50251977305
20
33.6710100716599
30
0
0
SPLINE
5
134
100
AcDbEntity
8
1
62
256
6
ByLayer
370
18
48
1
60
0
100
AcDbSpline
70
4
71
2
72
9
73
6
40
0
40
0
40
0
40
0.25
40
0.5
40
0.75
40
1
40
1
40
1
41
1
10
59.9999999993
20
34.7188958951099
30
0
41
1
10
59.9998914336468
20
34.7811219995328
30
0
41
1
10
59.9509737652151
20
34.8945026136964
30
0
41
1
10
59.8614275758866
20
34.9791643261974
30
0
41
1
10
59.7453310680372
20
35.0219325331823
30
0
41
1
10
59.68255672556
20
35.0183883520499
30
0
0
SPLINE
5
135
100
AcDbEntity
8
1
62
256
6
ByLayer
370
18
48
1
60
0
100
AcDbSpline
70
4
71
3
72
14
73
10
40
0
40
0
40
0
40
0
40
0.281038222380464
40
0.281038222380464
40
0.564557857067107
40
0.564557857067107
40
0.820700196130112
40
0.820700196130112
40
1
40
1
40
1
40
1
41
1
10
42.4078822958328
20
26.1435826280887
30
0
41
1
10
42.3813006245732
20
26.1709123690699
30
0
41
1
10
42.3490439690951
20
26.1943655245359
30
0
41
1
10
42.277235194489
20
26.2285748604269
30
0
41
1
10
42.2364720760798
20
26.2396847590448
30
0
41
1
10
42.1571729147492
20
26.2453486855742
30
0
41
1
10
42.1175924873016
20
26.241411725643
30
0
41
1
10
42.0539176730122
20
26.2231154346456
30
0
41
1
10
42.0281706327858
20
26.2121032984634
30
0
41
1
10
42.0044231104048
20
26.1981810583397
30
0
0
SPLINE
5
136
100
AcDbEntity
8
1
62
256
6
ByLayer
370
18
48
1
60
0
100
AcDbSpline
70
4
71
3
72
16
73
12
40
0
40
0
40
0
40
0
40
0.064596506417134
40
0.064596506417134
40
0.282747320500288
40
0.282747320500288
40
0.503851581407219
40
0.503851581407219
40
0.73947649825783
40
0.73947649825783
40
1
40
1
40
1
40
1
41
1
10
42.0044231104048
20
22.8018189416602
30
0
41
1
10
42.013014252084
20
22.7967822925532
30
0
41
1
10
42.0218448367852
20
22.7921293853552
30
0
41
1
10
42.0610594082809
20
22.7736816867281
30
0
41
1
10
42.0937837130779
20
22.7640630917643
30
0
41
1
10
42.1593454694518
20
22.75504045
30
0
41
1
10
42.1930080641066
20
22.7556346613771
30
0
41
1
10
42.2588630387573
20
22.7664681142401
30
0
41
1
10
42.2916435993958
20
22.7774376207136
30
0
41
1
10
42.3537963059872
20
22.8091149464693
30
0
41
1
10
42.3832521428564
20
22.8310940694521
30
0
41
1
10
42.4078822958328
20
22.8564173719112
30
0
0
SPLINE
5
137
100
AcDbEntity
8
1
62
256
6
ByLayer
370
18
48
1
60
0
100
AcDbSpline
70
4
71
3
72
18
73
14
40
0
40
0
40
0
40
0
40
0.213081262000626
40
0.213081262000626
40
0.387160943926352
40
0.387160943926352
40
0.56294899994201
40
0.56294899994201
40
0.715638435810381
40
0.715638435810381
40
0.919170953808127
40
0.919170953808127
40
1
40
1
40
1
40
1
41
1
10
44.1474510335849
20
25.8281523379785
30
0
41
1
10
44.1253499966636
20
25.7456026033975
30
0
41
1
10
44.1155116663086
20
25.6567963171877
30
0
41
1
10
44.1250052625331
20
25.4930591646996
30
0
41
1
10
44.1396283941554
20
25.4167307174995
30
0
41
1
10
44.1907914435921
20
25.2695300091916
30
0
41
1
10
44.2285222509958
20
25.1966114249892
30
0
41
1
10
44.3147745125081
20
25.0765687241949
30
0
41
1
10
44.3621656692504
20
25.0258230633913
30
0
41
1
10
44.4803089305089
20
24.9262092090027
30
0
41
1
10
44.5554527440065
20
24.8816247717126
30
0
41
1
10
44.6631437334956
20
24.8375192838218
30
0
41
1
10
44.6945032391402
20
24.8268598436391
30
0
41
1
10
44.7260954401443
20
24.8181619695468
30
0
0
SPLINE
5
138
100
AcDbEntity
8
1
62
256
6
ByLayer
370
18
48
1
60
0
100
AcDbSpline
70
4
71
3
72
18
73
14
40
0
40
0
40
0
40
0
40
0.213081026856105
40
0.213081026856105
40
0.387160750704751
40
0.387160750704751
40
0.562948851464647
40
0.562948851464647
40
0.7156382956837
40
0.7156382956837
40
0.91917077166893
40
0.91917077166893
40
1
40
1
40
1
40
1
41
1
10
41.2739045598557
20
24.8181619695468
30
0
41
1
10
41.3562959735259
20
24.8408457370468
30
0
41
1
10
41.4378828610425
20
24.8772725130265
30
0
41
1
10
41.5743337817465
20
24.9682730559037
30
0
41
1
10
41.6327849506205
20
25.0194915167335
30
0
41
1
10
41.7338958570924
20
25.138076087886
30
0
41
1
10
41.7777186157693
20
25.2075044896993
30
0
41
1
10
41.8376543890653
20
25.3426244864065
30
0
41
1
10
41.8574632867377
20
25.4091726073604
30
0
41
1
10
41.8836465356628
20
25.5614722639211
30
0
41
1
10
41.8841042679144
20
25.6488459036679
30
0
41
1
10
41.8676879551153
20
25.7640551168517
30
0
41
1
10
41.8610234078263
20
25.7964993937431
30
0
41
1
10
41.8525489664152
20
25.8281523379785
30
0
0
SPLINE
5
139
100
AcDbEntity
8
1
62
256
6
ByLayer
370
18
48
1
60
0
100
AcDbSpline
70
4
71
3
72
14
73
10
40
0
40
0
40
0
40
0
40
0.285014780844613
40
0.285014780844613
40
0.572350605982606
40
0.572350605982606
40
0.832166772861825
40
0.832166772861825
40
1
40
1
40
1
40
1
41
1
10
41.8525489664152
20
23.1718476620214
30
0
41
1
10
41.8427455383359
20
23.1352308105672
30
0
41
1
10
41.839100800866
20
23.0957286079056
30
0
41
1
10
41.8463060087591
20
23.0169487612488
30
0
41
1
10
41.8574570886556
20
22.9764597517414
30
0
41
1
10
41.8927012508891
20
22.905725358475
30
0
41
1
10
41.9160474129793
20
22.8738320646956
30
0
41
1
10
41.9622449161042
20
22.8299585624868
30
0
41
1
10
41.9826741516866
20
22.8145695023653
30
0
41
1
10
42.0044231104048
20
22.8018189416602
30
0
0
SPLINE
5
13A
100
AcDbEntity
8
1
62
256
6
ByLayer
370
18
48
1
60
0
100
AcDbSpline
70
4
71
3
72
14
73
10
40
0
40
0
40
0
40
0
40
0.28501398472703
40
0.28501398472703
40
0.572349910643031
40
0.572349910643031
40
0.832166158509274
40
0.832166158509274
40
1
40
1
40
1
40
1
41
1
10
44.7260954401443
20
24.1818380304531
30
0
41
1
10
44.7626420033309
20
24.1918999253196
30
0
41
1
10
44.798562913688
20
24.2087340241313
30
0
41
1
10
44.8628804284091
20
24.254792897875
30
0
41
1
10
44.892169726513
20
24.2848901460308
30
0
41
1
10
44.9353659032994
20
24.3510686822684
30
0
41
1
10
44.9510721564614
20
24.3873390540656
30
0
41
1
10
44.9655563481768
20
24.4493818984825
30
0
41
1
10
44.9685
20
24.4747889183342
30
0
41
1
10
44.9685
20
24.4999999999999
30
0
0
SPLINE
5
13B
100
AcDbEntity
8
1
62
256
6
ByLayer
370
18
48
1
60
0
100
AcDbSpline
70
4
71
3
72
16
73
12
40
0
40
0
40
0
40
0
40
0.0645965064171343
40
0.0645965064171343
40
0.28274732050029
40
0.28274732050029
40
0.503851581407221
40
0.503851581407221
40
0.739476498257817
40
0.739476498257817
40
1
40
1
40
1
40
1
41
1
10
43.9955768895952
20
26.1981810583397
30
0
41
1
10
43.986985747916
20
26.2032177074467
30
0
41
1
10
43.9781551632148
20
26.2078706146447
30
0
41
1
10
43.9389405917191
20
26.2263183132718
30
0
41
1
10
43.9062162869221
20
26.2359369082356
30
0
41
1
10
43.8406545305483
20
26.24495955
30
0
41
1
10
43.8069919358934
20
26.2443653386227
30
0
41
1
10
43.7411369612427
20
26.2335318857598
30
0
41
1
10
43.7083564006043
20
26.2225623792863
30
0
41
1
10
43.6462036940129
20
26.1908850535306
30
0
41
1
10
43.6167478571437
20
26.1689059305477
30
0
41
1
10
43.5921177041672
20
26.1435826280887
30
0
0
SPLINE
5
13C
100
AcDbEntity
8
1
62
256
6
ByLayer
370
18
48
1
60
0
100
AcDbSpline
70
4
71
3
72
16
73
12
40
0
40
0
40
0
40
0
40
0.0660777514108665
40
0.0660777514108665
40
0.289232858199856
40
0.289232858199856
40
0.515409129607262
40
0.515409129607262
40
0.756439127791304
40
0.756439127791304
40
1
40
1
40
1
40
1
41
1
10
41.0315000000001
20
24.4999999999999
30
0
41
1
10
41.0315000000001
20
24.4900413932558
30
0
41
1
10
41.0319521370927
20
24.4800703037082
30
0
41
1
10
41.035870606949
20
24.4369108485012
30
0
41
1
10
41.0441232851388
20
24.4038156675451
30
0
41
1
10
41.0694977332366
20
24.342693743501
30
0
41
1
10
41.0870353182329
20
24.3139542857457
30
0
41
1
10
41.1296874761397
20
24.2626217014161
30
0
41
1
10
41.1557295062842
20
24.2398904973956
30
0
41
1
10
41.2118903369799
20
24.2039574606322
30
0
41
1
10
41.242638287392
20
24.1904461708353
30
0
41
1
10
41.2739045598557
20
24.1818380304531
30
0
0
SPLINE
5
13D
100
AcDbEntity
8
1
62
256
6
ByLayer
370
18
48
1
60
0
100
AcDbSpline
70
4
71
3
72
10
73
6
40
0
40
0
40
0
40
0
40
0.479736826302601
40
0.479736826302601
40
1
40
1
40
1
40
1
41
1
10
42.8472587066236
20
23.0922620637001
30
0
41
1
10
42.7634717620859
20
23.0764965592313
30
0
41
1
10
42.6831344436619
20
23.0475497808792
30
0
41
1
10
42.5347803935531
20
22.9686263054825
30
0
41
1
10
42.4658766441957
20
22.9160438153973
30
0
41
1
10
42.4078822958328
20
22.8564173719112
30
0
0
SPLINE
5
13E
100
AcDbEntity
8
1
62
256
6
ByLayer
370
18
48
1
60
0
100
AcDbSpline
70
4
71
3
72
14
73
10
40
0
40
0
40
0
40
0
40
0.281038222380481
40
0.281038222380481
40
0.564557857067142
40
0.564557857067142
40
0.820700196130138
40
0.820700196130138
40
1
40
1
40
1
40
1
41
1
10
43.5921177041672
20
22.8564173719112
30
0
41
1
10
43.6186993754269
20
22.82908763093
30
0
41
1
10
43.650956030905
20
22.805634475464
30
0
41
1
10
43.7227648055111
20
22.771425139573
30
0
41
1
10
43.7635279239203
20
22.7603152409551
30
0
41
1
10
43.8428270852509
20
22.7546513144257
30
0
41
1
10
43.8824075126984
20
22.7585882743569
30
0
41
1
10
43.9460823269879
20
22.7768845653543
30
0
41
1
10
43.9718293672142
20
22.7878967015365
30
0
41
1
10
43.9955768895952
20
22.8018189416602
30
0
0
SPLINE
5
13F
100
AcDbEntity
8
1
62
256
6
ByLayer
370
18
48
1
60
0
100
AcDbSpline
70
4
71
3
72
14
73
10
40
0
40
0
40
0
40
0
40
0.285014780844617
40
0.285014780844617
40
0.572350605982616
40
0.572350605982616
40
0.832166772861826
40
0.832166772861826
40
1
40
1
40
1
40
1
41
1
10
44.1474510335849
20
25.8281523379785
30
0
41
1
10
44.1572544616642
20
25.8647691894327
30
0
41
1
10
44.1608991991341
20
25.9042713920943
30
0
41
1
10
44.153693991241
20
25.9830512387511
30
0
41
1
10
44.1425429113445
20
26.0235402482585
30
0
41
1
10
44.107298749111
20
26.094274641525
30
0
41
1
10
44.0839525870207
20
26.1261679353043
30
0
41
1
10
44.0377550838958
20
26.1700414375131
30
0
41
1
10
44.0173258483135
20
26.1854304976346
30
0
41
1
10
43.9955768895952
20
26.1981810583397
30
0
0
SPLINE
5
140
100
AcDbEntity
8
1
62
256
6
ByLayer
370
18
48
1
60
0
100
AcDbSpline
70
4
71
3
72
10
73
6
40
0
40
0
40
0
40
0
40
0.541781546917741
40
0.541781546917741
40
1
40
1
40
1
40
1
41
1
10
43.5921177041672
20
22.8564173719112
30
0
41
1
10
43.5317893524551
20
22.9184435030001
30
0
41
1
10
43.4595938121995
20
22.9728823223152
30
0
41
1
10
43.3098326867735
20
23.0500777047587
30
0
41
1
10
43.2328667479518
20
23.0771855118681
30
0
41
1
10
43.1527412933765
20
23.0922620637001
30
0
0
SPLINE
5
141
100
AcDbEntity
8
1
62
256
6
ByLayer
370
18
48
1
60
0
100
AcDbSpline
70
4
71
3
72
14
73
10
40
0
40
0
40
0
40
0
40
0.28501398472703
40
0.28501398472703
40
0.572349910643031
40
0.572349910643031
40
0.832166158509274
40
0.832166158509274
40
1
40
1
40
1
40
1
41
1
10
41.2739045598557
20
24.8181619695468
30
0
41
1
10
41.2373579966691
20
24.8081000746803
30
0
41
1
10
41.201437086312
20
24.7912659758686
30
0
41
1
10
41.1371195715909
20
24.745207102125
30
0
41
1
10
41.1078302734871
20
24.7151098539691
30
0
41
1
10
41.0646340967007
20
24.6489313177315
30
0
41
1
10
41.0489278435387
20
24.6126609459343
30
0
41
1
10
41.0344436518232
20
24.5506181015174
30
0
41
1
10
41.0315000000001
20
24.5252110816658
30
0
41
1
10
41.0315000000001
20
24.4999999999999
30
0
0
SPLINE
5
142
100
AcDbEntity
8
1
62
256
6
ByLayer
370
18
48
1
60
0
100
AcDbSpline
70
4
71
3
72
18
73
14
40
0
40
0
40
0
40
0
40
0.213081026856109
40
0.213081026856109
40
0.387160750704752
40
0.387160750704752
40
0.562948851464646
40
0.562948851464646
40
0.715638295683697
40
0.715638295683697
40
0.919170771668921
40
0.919170771668921
40
1
40
1
40
1
40
1
41
1
10
44.7260954401443
20
24.1818380304531
30
0
41
1
10
44.6437040264742
20
24.1591542629531
30
0
41
1
10
44.5621171389576
20
24.1227274869734
30
0
41
1
10
44.4256662182536
20
24.0317269440962
30
0
41
1
10
44.3672150493796
20
23.9805084832663
30
0
41
1
10
44.2661041429076
20
23.8619239121138
30
0
41
1
10
44.2222813842307
20
23.7924955103006
30
0
41
1
10
44.1623456109347
20
23.6573755135934
30
0
41
1
10
44.1425367132624
20
23.5908273926395
30
0
41
1
10
44.1163534643372
20
23.4385277360788
30
0
41
1
10
44.1158957320857
20
23.351154096332
30
0
41
1
10
44.1323120448847
20
23.2359448831482
30
0
41
1
10
44.1389765921737
20
23.2035006062568
30
0
41
1
10
44.1474510335849
20
23.1718476620214
30
0
0
SPLINE
5
143
100
AcDbEntity
8
1
62
256
6
ByLayer
370
18
48
1
60
0
100
AcDbSpline
70
4
71
3
72
10
73
6
40
0
40
0
40
0
40
0
40
0.541781546918579
40
0.541781546918579
40
1
40
1
40
1
40
1
41
1
10
42.4078822958328
20
26.1435826280887
30
0
41
1
10
42.4682106475449
20
26.0815564969998
30
0
41
1
10
42.5404061878006
20
26.0271176776847
30
0
41
1
10
42.6901673132266
20
25.9499222952412
30
0
41
1
10
42.7671332520483
20
25.9228144881318
30
0
41
1
10
42.8472587066236
20
25.9077379362998
30
0
0
SPLINE
5
144
100
AcDbEntity
8
1
62
256
6
ByLayer
370
18
48
1
60
0
100
AcDbSpline
70
4
71
3
72
18
73
14
40
0
40
0
40
0
40
0
40
0.213081262000622
40
0.213081262000622
40
0.387160943926354
40
0.387160943926354
40
0.56294899994202
40
0.56294899994202
40
0.715638435810391
40
0.715638435810391
40
0.919170953808144
40
0.919170953808144
40
1
40
1
40
1
40
1
41
1
10
41.8525489664152
20
23.1718476620214
30
0
41
1
10
41.8746500033365
20
23.2543973966024
30
0
41
1
10
41.8844883336915
20
23.3432036828122
30
0
41
1
10
41.874994737467
20
23.5069408353002
30
0
41
1
10
41.8603716058447
20
23.5832692825004
30
0
41
1
10
41.809208556408
20
23.7304699908083
30
0
41
1
10
41.7714777490042
20
23.8033885750107
30
0
41
1
10
41.685225487492
20
23.923431275805
30
0
41
1
10
41.6378343307496
20
23.9741769366086
30
0
41
1
10
41.5196910694911
20
24.0737907909972
30
0
41
1
10
41.4445472559936
20
24.1183752282872
30
0
41
1
10
41.3368562665044
20
24.1624807161781
30
0
41
1
10
41.3054967608598
20
24.1731401563608
30
0
41
1
10
41.2739045598557
20
24.1818380304531
30
0
0
SPLINE
5
145
100
AcDbEntity
8
1
62
256
6
ByLayer
370
18
48
1
60
0
100
AcDbSpline
70
4
71
3
72
16
73
12
40
0
40
0
40
0
40
0
40
0.0517235387679689
40
0.0517235387679689
40
0.275098677522102
40
0.275098677522102
40
0.500660612380116
40
0.500660612380116
40
0.740399911602705
40
0.740399911602705
40
1
40
1
40
1
40
1
41
1
10
43.9955768895952
20
22.8018189416602
30
0
41
1
10
44.0023126525052
20
22.8057678550308
30
0
41
1
10
44.0089132100844
20
22.809959315312
30
0
41
1
10
44.0429215049886
20
22.8332877014165
30
0
41
1
10
44.067814066225
20
22.8567220585583
30
0
41
1
10
44.1087337148404
20
22.9088029091819
30
0
41
1
10
44.1252135093439
20
22.9381448902959
30
0
41
1
10
44.1490799914639
20
23.0003557726623
30
0
41
1
10
44.1561625753256
20
23.0340961489702
30
0
41
1
10
44.1602113511054
20
23.1028127923815
30
0
41
1
10
44.1563795299009
20
23.1384987741969
30
0
41
1
10
44.1474510335849
20
23.1718476620214
30
0
0
SPLINE
5
146
100
AcDbEntity
8
1
62
256
6
ByLayer
370
18
48
1
60
0
100
AcDbSpline
70
4
71
3
72
16
73
12
40
0
40
0
40
0
40
0
40
0.0660777514108666
40
0.0660777514108666
40
0.289232858199856
40
0.289232858199856
40
0.515409129607262
40
0.515409129607262
40
0.756439127791308
40
0.756439127791308
40
1
40
1
40
1
40
1
41
1
10
44.9685
20
24.4999999999999
30
0
41
1
10
44.9685
20
24.5099586067441
30
0
41
1
10
44.9680478629074
20
24.5199296962917
30
0
41
1
10
44.9641293930511
20
24.5630891514987
30
0
41
1
10
44.9558767148613
20
24.5961843324548
30
0
41
1
10
44.9305022667635
20
24.6573062564989
30
0
41
1
10
44.9129646817672
20
24.6860457142542
30
0
41
1
10
44.8703125238603
20
24.7373782985838
30
0
41
1
10
44.8442704937159
20
24.7601095026043
30
0
41
1
10
44.7881096630202
20
24.7960425393677
30
0
41
1
10
44.757361712608
20
24.8095538291646
30
0
41
1
10
44.7260954401443
20
24.8181619695468
30
0
0
SPLINE
5
147
100
AcDbEntity
8
1
62
256
6
ByLayer
370
18
48
1
60
0
100
AcDbSpline
70
4
71
3
72
10
73
6
40
0
40
0
40
0
40
0
40
0.479736826236748
40
0.479736826236748
40
1
40
1
40
1
40
1
41
1
10
43.1527412933765
20
25.9077379362998
30
0
41
1
10
43.2365282379028
20
25.9235034407665
30
0
41
1
10
43.3168655563164
20
25.9524502191128
30
0
41
1
10
43.4652196064295
20
26.0313736945041
30
0
41
1
10
43.5341233557971
20
26.0839561845951
30
0
41
1
10
43.5921177041672
20
26.1435826280887
30
0
0
SPLINE
5
148
100
AcDbEntity
8
1
62
256
6
ByLayer
370
18
48
1
60
0
100
AcDbSpline
70
4
71
3
72
16
73
12
40
0
40
0
40
0
40
0
40
0.0517235387679293
40
0.0517235387679293
40
0.275098677522066
40
0.275098677522066
40
0.500660612380065
40
0.500660612380065
40
0.740399911602647
40
0.740399911602647
40
1
40
1
40
1
40
1
41
1
10
42.0044231104048
20
26.1981810583397
30
0
41
1
10
41.9976873474949
20
26.1942321449691
30
0
41
1
10
41.9910867899157
20
26.1900406846879
30
0
41
1
10
41.9570784950114
20
26.1667122985834
30
0
41
1
10
41.932185933775
20
26.1432779414416
30
0
41
1
10
41.8912662851596
20
26.091197090818
30
0
41
1
10
41.8747864906562
20
26.061855109704
30
0
41
1
10
41.8509200085362
20
25.9996442273376
30
0
41
1
10
41.8438374246744
20
25.9659038510297
30
0
41
1
10
41.8397886488947
20
25.8971872076184
30
0
41
1
10
41.8436204700992
20
25.861501225803
30
0
41
1
10
41.8525489664152
20
25.8281523379785
30
0
0
SPLINE
5
149
100
AcDbEntity
8
1
62
256
6
ByLayer
370
18
48
1
60
0
100
AcDbSpline
70
4
71
2
72
6
73
3
40
0
40
0
40
0
40
1
40
1
40
1
41
1
10
55.6234596151291
20
33.5000097298017
30
0
41
1
10
55.6230933262054
20
33.4117554147541
30
0
41
1
10
55.5025197730493
20
33.32898992834
30
0
0
SPLINE
5
14A
100
AcDbEntity
8
1
62
256
6
ByLayer
370
18
48
1
60
0
100
AcDbSpline
70
4
71
9
72
20
73
10
40
0
40
0
40
0
40
0
40
0
40
0
40
0
40
0
40
0
40
0
40
1
40
1
40
1
40
1
40
1
40
1
40
1
40
1
40
1
40
1
41
1
10
59.9999999992944
20
32.2811041048969
30
0
41
1
10
59.9999999992944
20
32.2268049924974
30
0
41
1
10
59.9889435254919
20
32.172505881247
30
0
41
1
10
59.9668305643239
20
32.1207797240371
30
0
41
1
10
59.9343597090939
20
32.0741994766174
30
0
41
1
10
59.8929279263539
20
32.0351105675973
30
0
41
1
10
59.8445384727139
20
32.0054030297768
30
0
41
1
10
59.7916140964339
20
31.9863350538073
30
0
41
1
10
59.7367639744539
20
31.9784544668773
30
0
41
1
10
59.6825567255639
20
31.9816116479473
30
0
0
SPLINE
5
14B
100
AcDbEntity
8
1
62
256
6
ByLayer
370
18
48
1
60
0
100
AcDbSpline
70
4
71
9
72
20
73
10
40
0
40
0
40
0
40
0
40
0
40
0
40
0
40
0
40
0
40
0
40
1
40
1
40
1
40
1
40
1
40
1
40
1
40
1
40
1
40
1
41
1
10
40.0000000007057
20
34.718895895103
30
0
41
1
10
40.0000000007057
20
34.7731950075025
30
0
41
1
10
40.0110564745082
20
34.8274941187529
30
0
41
1
10
40.0331694356762
20
34.8792202759628
30
0
41
1
10
40.0656402909062
20
34.9258005233825
30
0
41
1
10
40.1070720736462
20
34.9648894324026
30
0
41
1
10
40.1554615272862
20
34.9945969702231
30
0
41
1
10
40.2083859035662
20
35.0136649461926
30
0
41
1
10
40.2632360255462
20
35.0215455331225
30
0
41
1
10
40.3174432744362
20
35.0183883520526
30
0
0
LINE
5
75
100
AcDbEntity
8
80
62
256
6
ByLayer
370
18
48
1
60
0
100
AcDbLine
10
0
20
0
30
0
11
-5
21
0
31
0
39
0
210
0
220
0
230
1
0
LINE
5
76
100
AcDbEntity
8
1
62
256
6
ByLayer
370
18
48
1
60
0
100
AcDbLine
10
0.3
20
25
30
0
11
0
21
24.7
31
0
39
0
210
0
220
0
230
1
0
LINE
5
78
100
AcDbEntity
8
1
62
256
6
ByLayer
370
18
48
1
60
0
100
AcDbLine
10
0
20
-24.7
30
0
11
0.3
21
-25
31
0
39
0
210
0
220
0
230
1
0
LINE
5
79
100
AcDbEntity
8
1
62
256
6
ByLayer
370
18
48
1
60
0
100
AcDbLine
10
0.3
20
-25
30
0
11
20
21
-25
31
0
39
0
210
0
220
0
230
1
0
LINE
5
7A
100
AcDbEntity
8
1
62
256
6
ByLayer
370
18
48
1
60
0
100
AcDbLine
10
20.67946
20
25
30
0
11
0.3
21
25
31
0
39
0
210
0
220
0
230
1
0
LINE
5
7B
100
AcDbEntity
8
81
62
256
6
ByLayer
370
18
48
1
60
0
100
AcDbLine
10
60
20
35
30
0
11
65
21
35
31
0
39
0
210
0
220
0
230
1
0
LINE
5
7C
100
AcDbEntity
8
4
62
256
6
ByLayer
370
18
48
0.05
60
0
100
AcDbLine
10
0
20
0
30
0
11
55
21
0
31
0
39
0
210
0
220
0
230
1
0
LINE
5
7E
100
AcDbEntity
8
SK4
62
256
6
ByLayer
370
18
48
0.05
60
0
100
AcDbLine
10
-35
20
0
30
0
11
55
21
0
31
0
39
0
210
0
220
0
230
1
0
LINE
5
80
100
AcDbEntity
8
1
62
256
6
ByLayer
370
18
48
1
60
0
100
AcDbLine
10
42.48537
20
34.935606
30
0
11
42.48537
21
34.674999
31
0
39
0
210
0
220
0
230
1
0
LINE
5
81
100
AcDbEntity
8
1
62
256
6
ByLayer
370
18
48
1
60
0
100
AcDbLine
10
43.737748
20
34.896862
30
0
11
44.144217
21
34.675002
31
0
39
0
210
0
220
0
230
1
0
LINE
5
82
100
AcDbEntity
8
1
62
256
6
ByLayer
370
18
48
1
60
0
100
AcDbLine
10
54.365346
20
34.476449
30
0
11
53.177427
21
34.476449
31
0
39
0
210
0
220
0
230
1
0
LINE
5
83
100
AcDbEntity
8
1
62
256
6
ByLayer
370
18
48
1
60
0
100
AcDbLine
10
54.401626
20
34.425146
30
0
11
53.199844
21
34.425146
31
0
39
0
210
0
220
0
230
1
0
LINE
5
84
100
AcDbEntity
8
1
62
256
6
ByLayer
370
18
48
1
60
0
100
AcDbLine
10
54.365346
20
32.523551
30
0
11
53.177427
21
32.523551
31
0
39
0
210
0
220
0
230
1
0
LINE
5
85
100
AcDbEntity
8
1
62
256
6
ByLayer
370
18
48
1
60
0
100
AcDbLine
10
54.401626
20
32.574854
30
0
11
53.199844
21
32.574854
31
0
39
0
210
0
220
0
230
1
0
LINE
5
86
100
AcDbEntity
8
1
62
256
6
ByLayer
370
18
48
1
60
0
100
AcDbLine
10
53.101715
20
32.35
30
0
11
54.365346
21
32.35
31
0
39
0
210
0
220
0
230
1
0
LINE
5
87
100
AcDbEntity
8
1
62
256
6
ByLayer
370
18
48
1
60
0
100
AcDbLine
10
53.101715
20
34.65
30
0
11
54.365346
21
34.65
31
0
39
0
210
0
220
0
230
1
0
LINE
5
88
100
AcDbEntity
8
1
62
256
6
ByLayer
370
18
48
1
60
0
100
AcDbLine
10
53.42592
20
33.67101
30
0
11
55.50252
21
33.67101
31
0
39
0
210
0
220
0
230
1
0
LINE
5
89
100
AcDbEntity
8
1
62
256
6
ByLayer
370
18
48
1
60
0
100
AcDbLine
10
53.425233
20
33.32899
30
0
11
55.50252
21
33.32899
31
0
39
0
210
0
220
0
230
1
0
LINE
5
8A
100
AcDbEntity
8
1
62
256
6
ByLayer
370
18
48
1
60
0
100
AcDbLine
10
53.447181
20
33.49999
30
0
11
55.62346
21
33.49999
31
0
39
0
210
0
220
0
230
1
0
LINE
5
8B
100
AcDbEntity
8
1
62
256
6
ByLayer
370
18
48
1
60
0
100
AcDbLine
10
42.08898
20
34.915281
30
0
11
42.08898
21
34.674993
31
0
39
0
210
0
220
0
230
1
0
LINE
5
8C
100
AcDbEntity
8
1
62
256
6
ByLayer
370
18
48
1
60
0
100
AcDbLine
10
40
20
34.674978
30
0
11
40
21
34.718896
31
0
39
0
210
0
220
0
230
1
0
LINE
5
8D
100
AcDbEntity
8
1
62
256
6
ByLayer
370
18
48
1
60
0
100
AcDbLine
10
0.3
20
-25
30
0
11
0.3
21
25
31
0
39
0
210
0
220
0
230
1
0
LINE
5
8E
100
AcDbEntity
8
1
62
256
6
ByLayer
370
18
48
1
60
0
100
AcDbLine
10
0
20
-24.7
30
0
11
0
21
24.7
31
0
39
0
210
0
220
0
230
1
0
LINE
5
8F
100
AcDbEntity
8
1
62
256
6
ByLayer
370
18
48
1
60
0
100
AcDbLine
10
20
20
-25
30
0
11
20
21
-2.966115
31
0
39
0
210
0
220
0
230
1
0
LINE
5
90
100
AcDbEntity
8
1
62
256
6
ByLayer
370
18
48
1
60
0
100
AcDbLine
10
53.900012
20
34.675
30
0
11
53.090908
21
34.675
31
0
39
0
210
0
220
0
230
1
0
LINE
5
91
100
AcDbEntity
8
1
62
256
6
ByLayer
370
18
48
1
60
0
100
AcDbLine
10
55.85579
20
34.675
30
0
11
53.900012
21
34.675
31
0
39
0
210
0
220
0
230
1
0
LINE
5
92
100
AcDbEntity
8
SK1
62
256
6
ByLayer
370
18
48
1
60
0
100
AcDbLine
10
-0.2
20
6.103447
30
0
11
-0.2
21
17.833485
31
0
39
0
210
0
220
0
230
1
0
LINE
5
94
100
AcDbEntity
8
SK1
62
256
6
ByLayer
370
18
48
1
60
0
100
AcDbLine
10
-0.2
20
-17.833485
30
0
11
-0.2
21
-6.103448
31
0
39
0
210
0
220
0
230
1
0
LINE
5
95
100
AcDbEntity
8
1
62
256
6
ByLayer
370
18
48
1
60
0
100
AcDbLine
10
34.023192
20
34.675
30
0
11
33.839265
21
34.675
31
0
39
0
210
0
220
0
230
1
0
LINE
5
96
100
AcDbEntity
8
1
62
256
6
ByLayer
370
18
48
1
60
0
100
AcDbLine
10
33.839265
20
10.576627
30
0
11
34.023192
21
10.717193
31
0
39
0
210
0
220
0
230
1
0
LINE
5
97
100
AcDbEntity
8
1
62
256
6
ByLayer
370
18
48
1
60
0
100
AcDbLine
10
23.5
20
34.535365
30
0
11
23.5
21
34.332069
31
0
39
0
210
0
220
0
230
1
0
LINE
5
98
100
AcDbEntity
8
1
62
256
6
ByLayer
370
18
48
1
60
0
100
AcDbLine
10
53.900012
20
32.325
30
0
11
55.85579
21
32.325
31
0
39
0
210
0
220
0
230
1
0
LINE
5
99
100
AcDbEntity
8
1
62
256
6
ByLayer
370
18
48
1
60
0
100
AcDbLine
10
53.900011
20
32.350003
30
0
11
53.900012
21
32.325
31
0
39
0
210
0
220
0
230
1
0
LINE
5
9A
100
AcDbEntity
8
1
62
256
6
ByLayer
370
18
48
1
60
0
100
AcDbLine
10
53.090908
20
32.325
30
0
11
53.900012
21
32.325
31
0
39
0
210
0
220
0
230
1
0
LINE
5
9B
100
AcDbEntity
8
1
62
256
6
ByLayer
370
18
48
1
60
0
100
AcDbLine
10
53.900012
20
34.675
30
0
11
53.900011
21
34.649997
31
0
39
0
210
0
220
0
230
1
0
LINE
5
9C
100
AcDbEntity
8
1
62
256
6
ByLayer
370
18
48
1
60
0
100
AcDbLine
10
32.937686
20
9.887598
30
0
11
32.937686
21
30.548177
31
0
39
0
210
0
220
0
230
1
0
LINE
5
9D
100
AcDbEntity
8
1
62
256
6
ByLayer
370
18
48
1
60
0
100
AcDbLine
10
43
20
30
30
0
11
43
21
29.5
31
0
39
0
210
0
220
0
230
1
0
LINE
5
9E
100
AcDbEntity
8
1
62
256
6
ByLayer
370
18
48
1
60
0
100
AcDbLine
10
43
20
29.5
30
0
11
48.5
21
29.5
31
0
39
0
210
0
220
0
230
1
0
LINE
5
9F
100
AcDbEntity
8
1
62
256
6
ByLayer
370
18
48
1
60
0
100
AcDbLine
10
11.461325
20
23.83913
30
0
11
8.538675
21
23.83913
31
0
39
0
210
0
220
0
230
1
0
LINE
5
A0
100
AcDbEntity
8
1
62
256
6
ByLayer
370
18
48
1
60
0
100
AcDbLine
10
8.538675
20
-23.83913
30
0
11
8.538675
21
-7.529667
31
0
39
0
210
0
220
0
230
1
0
LINE
5
A1
100
AcDbEntity
8
1
62
256
6
ByLayer
370
18
48
1
60
0
100
AcDbLine
10
20.920792
20
0.227887
30
0
11
20.920792
21
24.871427
31
0
39
0
210
0
220
0
230
1
0
LINE
5
A2
100
AcDbEntity
8
1
62
256
6
ByLayer
370
18
48
1
60
0
100
AcDbLine
10
37.5
20
13.374336
30
0
11
38
21
13.75646
31
0
39
0
210
0
220
0
230
1
0
LINE
5
A3
100
AcDbEntity
8
1
62
256
6
ByLayer
370
18
48
1
60
0
100
AcDbLine
10
53.090933
20
34.675
30
0
11
44.481231
21
34.675
31
0
39
0
210
0
220
0
230
1
0
LINE
5
A4
100
AcDbEntity
8
1
62
256
6
ByLayer
370
18
48
1
60
0
100
AcDbLine
10
11.461325
20
-7.529667
30
0
11
8.538675
21
-7.529667
31
0
39
0
210
0
220
0
230
1
0
LINE
5
A5
100
AcDbEntity
8
1
62
256
6
ByLayer
370
18
48
1
60
0
100
AcDbLine
10
43
20
30
30
0
11
44.481231
21
30
31
0
39
0
210
0
220
0
230
1
0
LINE
5
A6
100
AcDbEntity
8
1
62
256
6
ByLayer
370
18
48
1
60
0
100
AcDbLine
10
46.339712
20
20.130066
30
0
11
38
21
13.75646
31
0
39
0
210
0
220
0
230
1
0
LINE
5
A7
100
AcDbEntity
8
1
62
256
6
ByLayer
370
18
48
1
60
0
100
AcDbLine
10
33.469944
20
34.675
30
0
11
33.839314
21
34.675
31
0
39
0
210
0
220
0
230
1
0
LINE
5
A8
100
AcDbEntity
8
1
62
256
6
ByLayer
370
18
48
1
60
0
100
AcDbLine
10
33.469944
20
34.675
30
0
11
32.937686
21
30.548177
31
0
39
0
210
0
220
0
230
1
0
LINE
5
A9
100
AcDbEntity
8
1
62
256
6
ByLayer
370
18
48
1
60
0
100
AcDbLine
10
37.5
20
24.5
30
0
11
38
21
24.5
31
0
39
0
210
0
220
0
230
1
0
LINE
5
AA
100
AcDbEntity
8
1
62
256
6
ByLayer
370
18
48
1
60
0
100
AcDbLine
10
11.461325
20
7.529667
30
0
11
11.461325
21
23.83913
31
0
39
0
210
0
220
0
230
1
0
LINE
5
AB
100
AcDbEntity
8
1
62
256
6
ByLayer
370
18
48
1
60
0
100
AcDbLine
10
37.5
20
13.374336
30
0
11
34.214499
21
10.863399
31
0
39
0
210
0
220
0
230
1
0
LINE
5
AC
100
AcDbEntity
8
1
62
256
6
ByLayer
370
18
48
1
60
0
100
AcDbLine
10
44.481231
20
30
30
0
11
48.5
21
30
31
0
39
0
210
0
220
0
230
1
0
LINE
5
AD
100
AcDbEntity
8
1
62
256
6
ByLayer
370
18
48
1
60
0
100
AcDbLine
10
38.199278
20
34.675
30
0
11
38.199278
21
27.183853
31
0
39
0
210
0
220
0
230
1
0
LINE
5
AE
100
AcDbEntity
8
1
62
256
6
ByLayer
370
18
48
1
60
0
100
AcDbLine
10
33.839314
20
10.576665
30
0
11
32.937686
21
9.887598
31
0
39
0
210
0
220
0
230
1
0
LINE
5
AF
100
AcDbEntity
8
1
62
256
6
ByLayer
370
18
48
1
60
0
100
AcDbLine
10
48.5
20
29.5
30
0
11
48.5
21
24.5
31
0
39
0
210
0
220
0
230
1
0
LINE
5
B0
100
AcDbEntity
8
1
62
256
6
ByLayer
370
18
48
1
60
0
100
AcDbLine
10
34.023192
20
10.717193
30
0
11
34.023192
21
34.675
31
0
39
0
210
0
220
0
230
1
0
LINE
5
B1
100
AcDbEntity
8
1
62
256
6
ByLayer
370
18
48
1
60
0
100
AcDbLine
10
11.461325
20
-23.83913
30
0
11
11.461325
21
-7.529667
31
0
39
0
210
0
220
0
230
1
0
LINE
5
B2
100
AcDbEntity
8
1
62
256
6
ByLayer
370
18
48
1
60
0
100
AcDbLine
10
48.5
20
30
30
0
11
48.5
21
30.725
31
0
39
0
210
0
220
0
230
1
0
LINE
5
B3
100
AcDbEntity
8
1
62
256
6
ByLayer
370
18
48
1
60
0
100
AcDbLine
10
37.5
20
13.374336
30
0
11
37.5
21
24.5
31
0
39
0
210
0
220
0
230
1
0
LINE
5
B4
100
AcDbEntity
8
1
62
256
6
ByLayer
370
18
48
1
60
0
100
AcDbLine
10
33.469944
20
34.675
30
0
11
25.781612
21
34.675
31
0
39
0
210
0
220
0
230
1
0
LINE
5
B5
100
AcDbEntity
8
1
62
256
6
ByLayer
370
18
48
1
60
0
100
AcDbLine
10
48.059017
20
21.999062
30
0
11
46.339712
21
20.130066
31
0
39
0
210
0
220
0
230
1
0
LINE
5
B6
100
AcDbEntity
8
1
62
256
6
ByLayer
370
18
48
1
60
0
100
AcDbLine
10
33.839314
20
34.675
30
0
11
33.839314
21
10.576665
31
0
39
0
210
0
220
0
230
1
0
LINE
5
B7
100
AcDbEntity
8
1
62
256
6
ByLayer
370
18
48
1
60
0
100
AcDbLine
10
44.481231
20
30
30
0
11
44.481231
21
34.675
31
0
39
0
210
0
220
0
230
1
0
LINE
5
B8
100
AcDbEntity
8
1
62
256
6
ByLayer
370
18
48
1
60
0
100
AcDbLine
10
34.023192
20
34.675
30
0
11
34.214499
21
34.675
31
0
39
0
210
0
220
0
230
1
0
LINE
5
B9
100
AcDbEntity
8
1
62
256
6
ByLayer
370
18
48
1
60
0
100
AcDbLine
10
48.5
20
24.5
30
0
11
48.059017
21
21.999062
31
0
39
0
210
0
220
0
230
1
0
LINE
5
BA
100
AcDbEntity
8
1
62
256
6
ByLayer
370
18
48
1
60
0
100
AcDbLine
10
8.105662
20
8.055848
30
0
11
8.105662
21
23.666502
31
0
39
0
210
0
220
0
230
1
0
LINE
5
BB
100
AcDbEntity
8
1
62
256
6
ByLayer
370
18
48
1
60
0
100
AcDbLine
10
34.214499
20
10.863399
30
0
11
34.023192
21
10.717193
31
0
39
0
210
0
220
0
230
1
0
LINE
5
BC
100
AcDbEntity
8
1
62
256
6
ByLayer
370
18
48
1
60
0
100
AcDbLine
10
11.894338
20
8.055848
30
0
11
11.894338
21
23.666502
31
0
39
0
210
0
220
0
230
1
0
LINE
5
BD
100
AcDbEntity
8
1
62
256
6
ByLayer
370
18
48
1
60
0
100
AcDbLine
10
48.5
20
29.5
30
0
11
48.5
21
30
31
0
39
0
210
0
220
0
230
1
0
LINE
5
BE
100
AcDbEntity
8
1
62
256
6
ByLayer
370
18
48
1
60
0
100
AcDbLine
10
8.538675
20
7.529667
30
0
11
8.538675
21
23.83913
31
0
39
0
210
0
220
0
230
1
0
LINE
5
BF
100
AcDbEntity
8
1
62
256
6
ByLayer
370
18
48
1
60
0
100
AcDbLine
10
38.199278
20
34.675
30
0
11
44.481231
21
34.675
31
0
39
0
210
0
220
0
230
1
0
LINE
5
C0
100
AcDbEntity
8
1
62
256
6
ByLayer
370
18
48
1
60
0
100
AcDbLine
10
34.214499
20
34.675
30
0
11
34.214499
21
10.863399
31
0
39
0
210
0
220
0
230
1
0
LINE
5
C1
100
AcDbEntity
8
1
62
256
6
ByLayer
370
18
48
1
60
0
100
AcDbLine
10
8.538675
20
7.529667
30
0
11
11.461325
21
7.529667
31
0
39
0
210
0
220
0
230
1
0
LINE
5
C2
100
AcDbEntity
8
1
62
256
6
ByLayer
370
18
48
1
60
0
100
AcDbLine
10
50.1
20
32.325
30
0
11
53.090933
21
32.325
31
0
39
0
210
0
220
0
230
1
0
LINE
5
C3
100
AcDbEntity
8
1
62
256
6
ByLayer
370
18
48
1
60
0
100
AcDbLine
10
38
20
13.75646
30
0
11
38
21
24.5
31
0
39
0
210
0
220
0
230
1
0
LINE
5
C4
100
AcDbEntity
8
1
62
256
6
ByLayer
370
18
48
1
60
0
100
AcDbLine
10
32.937686
20
9.887598
30
0
11
22.356678
21
1.801086
31
0
39
0
210
0
220
0
230
1
0
LINE
5
C5
100
AcDbEntity
8
1
62
256
6
ByLayer
370
18
48
1
60
0
100
AcDbLine
10
42.199278
20
34.675
30
0
11
34.214499
21
34.675
31
0
39
0
210
0
220
0
230
1
0
LINE
5
C6
100
AcDbEntity
8
1
62
256
6
ByLayer
370
18
48
1
60
0
100
AcDbLine
10
32.937686
20
30.548177
30
0
11
25.781822
21
34.617508
31
0
39
0
210
0
220
0
230
1
0
LINE
5
C7
100
AcDbEntity
8
1
62
256
6
ByLayer
370
18
48
1
60
0
100
AcDbLine
10
8.105662
20
-23.666502
30
0
11
8.105662
21
-8.055848
31
0
39
0
210
0
220
0
230
1
0
LINE
5
C8
100
AcDbEntity
8
1
62
256
6
ByLayer
370
18
48
1
60
0
100
AcDbLine
10
8.538675
20
-23.83913
30
0
11
11.461325
21
-23.83913
31
0
39
0
210
0
220
0
230
1
0
LINE
5
C9
100
AcDbEntity
8
1
62
256
6
ByLayer
370
18
48
1
60
0
100
AcDbLine
10
11.894338
20
-23.666502
30
0
11
11.894338
21
-8.055848
31
0
39
0
210
0
220
0
230
1
0
LINE
5
CA
100
AcDbEntity
8
SK1
62
256
6
ByLayer
370
18
48
1
60
0
100
AcDbLine
10
-1.307107
20
-3.918065
30
0
11
-1.307107
21
3.918065
31
0
39
0
210
0
220
0
230
1
0
LINE
5
CB
100
AcDbEntity
8
1
62
256
6
ByLayer
370
18
48
1
60
0
100
AcDbLine
10
57.91102
20
34.915281
30
0
11
57.51463
21
34.935606
31
0
39
0
210
0
220
0
230
1
0
LINE
5
CC
100
AcDbEntity
8
1
62
256
6
ByLayer
370
18
48
1
60
0
100
AcDbLine
10
57.51463
20
34.935606
30
0
11
57.51463
21
32.064394
31
0
39
0
210
0
220
0
230
1
0
LINE
5
CD
100
AcDbEntity
8
1
62
256
6
ByLayer
370
18
48
1
60
0
100
AcDbLine
10
57.91102
20
34.915281
30
0
11
57.91102
21
32.084719
31
0
39
0
210
0
220
0
230
1
0
LINE
5
CE
100
AcDbEntity
8
1
62
256
6
ByLayer
370
18
48
1
60
0
100
AcDbLine
10
57.91102
20
32.084719
30
0
11
59.682553
21
31.98154
31
0
39
0
210
0
220
0
230
1
0
LINE
5
CF
100
AcDbEntity
8
1
62
256
6
ByLayer
370
18
48
1
60
0
100
AcDbLine
10
60
20
32.281104
30
0
11
60
21
34.718896
31
0
39
0
210
0
220
0
230
1
0
LINE
5
D0
100
AcDbEntity
8
1
62
256
6
ByLayer
370
18
48
1
60
0
100
AcDbLine
10
54.365346
20
34.65
30
0
11
55.809976
21
34.65
31
0
39
0
210
0
220
0
230
1
0
LINE
5
D1
100
AcDbEntity
8
1
62
256
6
ByLayer
370
18
48
1
60
0
100
AcDbLine
10
56.262252
20
34.896862
30
0
11
55.809976
21
34.65
31
0
39
0
210
0
220
0
230
1
0
LINE
5
D2
100
AcDbEntity
8
1
62
256
6
ByLayer
370
18
48
1
60
0
100
AcDbLine
10
54.365346
20
34.65
30
0
11
54.365346
21
34.476449
31
0
39
0
210
0
220
0
230
1
0
LINE
5
D3
100
AcDbEntity
8
1
62
256
6
ByLayer
370
18
48
1
60
0
100
AcDbLine
10
57.91102
20
34.915281
30
0
11
59.682553
21
35.01846
31
0
39
0
210
0
220
0
230
1
0
LINE
5
D4
100
AcDbEntity
8
1
62
256
6
ByLayer
370
18
48
1
60
0
100
AcDbLine
10
56.262252
20
34.896862
30
0
11
57.51463
21
34.935606
31
0
39
0
210
0
220
0
230
1
0
LINE
5
D5
100
AcDbEntity
8
1
62
256
6
ByLayer
370
18
48
1
60
0
100
AcDbLine
10
55.50252
20
33.67101
30
0
11
54.401627
21
34.425147
31
0
39
0
210
0
220
0
230
1
0
LINE
5
D6
100
AcDbEntity
8
1
62
256
6
ByLayer
370
18
48
1
60
0
100
AcDbLine
10
43.737748
20
34.896862
30
0
11
42.48537
21
34.935606
31
0
39
0
210
0
220
0
230
1
0
LINE
5
D7
100
AcDbEntity
8
1
62
256
6
ByLayer
370
18
48
1
60
0
100
AcDbLine
10
42.08898
20
34.915281
30
0
11
40.317447
21
35.01846
31
0
39
0
210
0
220
0
230
1
0
LINE
5
D8
100
AcDbEntity
8
1
62
256
6
ByLayer
370
18
48
1
60
0
100
AcDbLine
10
54.365346
20
32.35
30
0
11
54.365346
21
32.523551
31
0
39
0
210
0
220
0
230
1
0
LINE
5
D9
100
AcDbEntity
8
1
62
256
6
ByLayer
370
18
48
1
60
0
100
AcDbLine
10
55.50252
20
33.32899
30
0
11
54.401627
21
32.574853
31
0
39
0
210
0
220
0
230
1
0
LINE
5
DA
100
AcDbEntity
8
1
62
256
6
ByLayer
370
18
48
1
60
0
100
AcDbLine
10
54.365346
20
32.35
30
0
11
55.809976
21
32.35
31
0
39
0
210
0
220
0
230
1
0
LINE
5
DB
100
AcDbEntity
8
1
62
256
6
ByLayer
370
18
48
1
60
0
100
AcDbLine
10
56.262252
20
32.103138
30
0
11
57.51463
21
32.064394
31
0
39
0
210
0
220
0
230
1
0
LINE
5
DC
100
AcDbEntity
8
1
62
256
6
ByLayer
370
18
48
1
60
0
100
AcDbLine
10
56.262252
20
32.103138
30
0
11
55.809976
21
32.35
31
0
39
0
210
0
220
0
230
1
0
LINE
5
DD
100
AcDbEntity
8
1
62
256
6
ByLayer
370
18
48
1
60
0
100
AcDbLine
10
57.91102
20
32.084719
30
0
11
57.51463
21
32.064394
31
0
39
0
210
0
220
0
230
1
0
LINE
5
DE
100
AcDbEntity
8
1
62
256
6
ByLayer
370
18
48
1
60
0
100
AcDbLine
10
42.08898
20
34.915281
30
0
11
42.48537
21
34.935606
31
0
39
0
210
0
220
0
230
1
0
MTEXT
5
14C
100
AcDbEntity
8
SK6
62
256
6
ByLayer
370
18
48
1
60
0
100
AcDbMText
10
-16.622475
20
-35.862395
30
0
210
0
220
0
230
1
1
\W0.7332;C5-RF123G10-35060B
40
3.5
41
0
44
1.084337
50
0
71
7
72
5
7
iso_b_vert
0
DIMENSION
5
15E
100
AcDbEntity
8
SK2
62
256
6
ByLayer
370
13
48
1
60
0
100
AcDbDimension
2
DimnDraft3D1
10
-44.75
20
25
30
0
11
-44.75
21
-2.688158
31
0
70
32
71
5
72
1
41
1
210
0
220
0
230
1
3
Standard
100
AcDbAlignedDimension
13
-1.5
23
-25
33
0
14
-1.5
24
25
34
0
50
90
100
AcDbRotatedDimension
1001
ACAD
1000
DSTYLE
1002
{
1070
    74
1070
     0
1070
   279
1070
     0
1070
   172
1070
     1
1070
   173
1070
     1
1070
   340
1005
14D
1070
   271
1070
     3
1070
   272
1070
     3
1070
    77
1070
     1
1070
    73
1070
     0
1070
   171
1070
     4
1070
   274
1070
     4
1070
   177
1070
     2
1070
   176
1070
     2
1070
   178
1070
     7
1070
    78
1070
     8
1070
    41
1041
3.0
1070
   147
1041
2.25
1070
    42
1041
1.5
1070
    44
1041
3.0
1070
   140
1041
4.5
1070
   343
1005
15F
1070
   344
1005
15F
1002
}
0
DIMENSION
5
173
100
AcDbEntity
8
2
62
256
6
ByLayer
370
13
48
1
60
0
100
AcDbDimension
2
DimnDraft3D2
10
74.25
20
35
30
0
11
74.25
21
39.5
31
0
70
32
71
5
72
1
41
1
210
0
220
0
230
1
3
Standard
100
AcDbAlignedDimension
13
61.5
23
32
33
0
14
61.5
24
35
34
0
50
90
100
AcDbRotatedDimension
1001
ACAD
1000
DSTYLE
1002
{
1070
    74
1070
     0
1070
   279
1070
     0
1070
   172
1070
     1
1070
   173
1070
     1
1070
   340
1005
14D
1070
   271
1070
     3
1070
   272
1070
     3
1070
    77
1070
     1
1070
    73
1070
     0
1070
   171
1070
     4
1070
   274
1070
     4
1070
   177
1070
     2
1070
   176
1070
     2
1070
   178
1070
     7
1070
    78
1070
     8
1070
    41
1041
3.0
1070
   147
1041
2.25
1070
    42
1041
1.5
1070
    44
1041
3.0
1070
   140
1041
4.5
1070
   343
1005
15F
1070
   344
1005
15F
1002
}
0
DIMENSION
5
181
100
AcDbEntity
8
2
62
256
6
ByLayer
370
13
48
1
60
0
100
AcDbDimension
2
DimnDraft3D3
10
84.25
20
0
30
0
11
84.25
21
14.811842
31
0
70
32
71
5
72
1
41
1
210
0
220
0
230
1
3
Standard
100
AcDbAlignedDimension
13
61.5
23
35
33
0
14
16.5
24
0
34
0
50
90
100
AcDbRotatedDimension
1001
ACAD
1000
DSTYLE
1002
{
1070
    74
1070
     0
1070
   279
1070
     0
1070
   172
1070
     1
1070
   173
1070
     1
1070
   340
1005
14D
1070
   271
1070
     3
1070
   272
1070
     3
1070
    77
1070
     1
1070
    73
1070
     0
1070
   171
1070
     4
1070
   274
1070
     4
1070
   177
1070
     2
1070
   176
1070
     2
1070
   178
1070
     7
1070
    78
1070
     8
1070
    41
1041
3.0
1070
   147
1041
2.25
1070
    42
1041
1.5
1070
    44
1041
3.0
1070
   140
1041
4.5
1070
   343
1005
15F
1070
   344
1005
15F
1002
}
0
DIMENSION
5
18F
100
AcDbEntity
8
2
62
256
6
ByLayer
370
13
48
1
60
0
100
AcDbDimension
2
DimnDraft3D4
10
60
20
44.75
30
0
11
27.311842
21
44.75
31
0
70
32
71
5
72
1
41
1
210
0
220
0
230
1
3
Standard
100
AcDbAlignedDimension
13
0
23
1.5
33
0
14
60
24
35
34
0
50
0
100
AcDbRotatedDimension
1001
ACAD
1000
DSTYLE
1002
{
1070
   279
1070
     0
1070
   172
1070
     1
1070
   173
1070
     1
1070
   340
1005
14D
1070
   271
1070
     3
1070
   272
1070
     3
1070
    77
1070
     1
1070
    73
1070
     0
1070
   171
1070
     4
1070
   274
1070
     4
1070
   177
1070
     2
1070
   176
1070
     2
1070
   178
1070
     7
1070
    78
1070
     8
1070
    41
1041
3.0
1070
   147
1041
2.25
1070
    42
1041
1.5
1070
    44
1041
3.0
1070
   140
1041
4.5
1070
   343
1005
15F
1070
   344
1005
15F
1002
}
0
DIMENSION
5
19D
100
AcDbEntity
8
2
62
256
6
ByLayer
370
13
48
1
60
0
100
AcDbDimension
2
DimnDraft3D5
10
60
20
-14.25
30
0
11
52.874342
21
-14.25
31
0
70
32
71
5
72
1
41
1
210
0
220
0
230
1
3
Standard
100
AcDbAlignedDimension
13
50
23
29.5
33
0
14
60
24
30.5
34
0
50
0
100
AcDbRotatedDimension
1001
ACAD
1000
DSTYLE
1002
{
1070
   279
1070
     0
1070
   172
1070
     1
1070
   173
1070
     1
1070
   340
1005
14D
1070
   271
1070
     3
1070
   272
1070
     3
1070
    77
1070
     1
1070
    73
1070
     0
1070
   171
1070
     4
1070
   274
1070
     4
1070
   177
1070
     2
1070
   176
1070
     2
1070
   178
1070
     7
1070
    78
1070
     8
1070
    41
1041
3.0
1070
   147
1041
2.25
1070
    42
1041
1.5
1070
    44
1041
3.0
1070
   140
1041
4.5
1070
   343
1005
15F
1070
   344
1005
15F
1002
}
0
ENDSEC
0
SECTION
2
OBJECTS
0
DICTIONARY
5
209
330
0
100
AcDbDictionary
280
0
281
1
3
ACAD_GROUP
350
20a
3
ACAD_MLINESTYLE
350
20b
0
DICTIONARY
5
20a
330
0
100
AcDbDictionary
280
0
281
1
0
DICTIONARY
5
20b
330
0
100
AcDbDictionary
280
0
281
1
3
Standard
350
18
0
MLINESTYLE
5
18
330
20b
100
AcDbMlineStyle
2
Standard
70
0
3

62
256
51
90
52
90
71
2
49
-0.5
62
256
6
ByLayer
49
0.5
62
256
6
ByLayer
0
RASTERVARIABLES
5
1f6
330

100
AcDbRasterVariables
90
0
70
1
71
1
72
1
0
ENDSEC
0
EOF
