0
SECTION
2
HEADER
9
$ACADVER
1
AC1015
9
$DWGCODEPAGE
3
ANSI_1252
9
$HANDSEED
5
208
9
$ANGBASE
50
0
9
$ANGDIR
70
0
9
$ATTMODE
70
1
9
$AUNITS
70
0
9
$AUPREC
70
0
9
$CECOLOR
62
256
9
$CELTSCALE
40
1
9
$CELTYPE
6
ByLayer
9
$CELWEIGHT
370
18
9
$CLAYER
8
0
9
$CMLJUST
70
0
9
$CMLSCALE
40
1
9
$CMLSTYLE
2
Standard
9
$DIMSTYLE
2
Standard
9
$TEXTSIZE
40
0.2
9
$TEXTSTYLE
7
Standard
9
$LUNITS
70
2
9
$LUPREC
70
4
9
$EXTNAMES
290
1
9
$INSUNITS
70
4
9
$LTSCALE
40
1
9
$LWDISPLAY
290
1
9
$PDMODE
70
0
9
$PDSIZE
40
0
9
$PLINEGEN
70
0
0
ENDSEC
0
SECTION
2
CLASSES
0
CLASS
1
RASTERVARIABLES
2
AcDbRasterVariables
3
ISM
90
0
280
0
281
0
0
ENDSEC
0
SECTION
2
TABLES
0
TABLE
2
VPORT
5
1fe
100
AcDbSymbolTable
0
VPORT
5
1
100
AcDbSymbolTableRecord
100
AcDbViewportTableRecord
2
*Active
70
0
10
0
20
0
11
1
21
1
12
-1
22
1
13
0
23
0
14
0.5
24
0.5
15
10
25
10
16
0
26
0
36
1
17
0
27
0
37
0
0
ENDTAB
0
TABLE
2
LTYPE
5
1ff
100
AcDbSymbolTable
0
LTYPE
5
14
100
AcDbSymbolTableRecord
100
AcDbLinetypeTableRecord
70
0
2
ByBlock
3

72
65
73
0
40
0
0
LTYPE
5
15
100
AcDbSymbolTableRecord
100
AcDbLinetypeTableRecord
70
0
2
ByLayer
3

72
65
73
0
40
0
0
LTYPE
5
16
100
AcDbSymbolTableRecord
100
AcDbLinetypeTableRecord
70
0
2
CONTINUOUS
3
Solid line
72
65
73
0
40
0
0
LTYPE
5
6A
100
AcDbSymbolTableRecord
100
AcDbLinetypeTableRecord
70
0
2
CENTER
3
____ _ ____ _ ____ _ ____
72
65
73
4
40
47.5
49
22
74
0
49
-8.5
74
0
49
8.5
74
0
49
-8.5
74
0
0
LTYPE
5
6B
100
AcDbSymbolTableRecord
100
AcDbLinetypeTableRecord
70
0
2
DASHED
3
__ __ __ __ __ __ __ __ __
72
65
73
2
40
25.72
49
12.86
74
0
49
-12.86
74
0
0
ENDTAB
0
TABLE
2
LAYER
5
200
100
AcDbSymbolTable
0
LAYER
5
10
100
AcDbSymbolTableRecord
100
AcDbLayerTableRecord
2
0
70
0
62
7
6
CONTINUOUS
290
1
370
-3
390
0
0
LAYER
5
6D
100
AcDbSymbolTableRecord
100
AcDbLayerTableRecord
2
2
70
0
62
7
6
CONTINUOUS
290
1
370
-3
390
0
0
LAYER
5
72
100
AcDbSymbolTableRecord
100
AcDbLayerTableRecord
2
80
70
0
62
-6
6
CONTINUOUS
290
1
370
-3
390
0
0
LAYER
5
74
100
AcDbSymbolTableRecord
100
AcDbLayerTableRecord
2
81
70
0
62
-3
6
CONTINUOUS
290
1
370
-3
390
0
0
LAYER
5
77
100
AcDbSymbolTableRecord
100
AcDbLayerTableRecord
2
1
70
0
62
4
6
CONTINUOUS
290
1
370
-3
390
0
0
LAYER
5
7D
100
AcDbSymbolTableRecord
100
AcDbLayerTableRecord
2
4
70
0
62
-2
6
CENTER
290
1
370
-3
390
0
0
LAYER
5
D8
100
AcDbSymbolTableRecord
100
AcDbLayerTableRecord
2
62
70
0
62
-5
6
CONTINUOUS
290
1
370
-3
390
0
0
LAYER
5
1e9
100
AcDbSymbolTableRecord
100
AcDbLayerTableRecord
2
CUT
70
0
62
-1
6
CONTINUOUS
290
1
370
-3
390
0
0
LAYER
5
1ea
100
AcDbSymbolTableRecord
100
AcDbLayerTableRecord
2
SK4
70
0
62
2
6
CENTER
290
1
370
-3
390
0
0
LAYER
5
1eb
100
AcDbSymbolTableRecord
100
AcDbLayerTableRecord
2
SK1
70
0
62
4
6
CONTINUOUS
290
1
370
-3
390
0
0
LAYER
5
1ec
100
AcDbSymbolTableRecord
100
AcDbLayerTableRecord
2
SK6
70
0
62
5
6
CONTINUOUS
290
1
370
-3
390
0
0
LAYER
5
1ed
100
AcDbSymbolTableRecord
100
AcDbLayerTableRecord
2
SK2
70
0
62
7
6
CONTINUOUS
290
1
370
-3
390
0
0
ENDTAB
0
TABLE
2
STYLE
5
201
100
AcDbSymbolTable
0
STYLE
5
11
100
AcDbSymbolTableRecord
100
AcDbTextStyleTableRecord
2
Standard
3
txt
70
0
71
0
40
0
41
1
42
0
50
0
0
STYLE
5
13F
100
AcDbSymbolTableRecord
100
AcDbTextStyleTableRecord
2
iso_b_vert
3
simplex.shx
70
0
71
0
40
0
41
1
42
0
50
0
0
STYLE
5
140
100
AcDbSymbolTableRecord
100
AcDbTextStyleTableRecord
2
DWGDirectTextStyle
3
simplex
70
0
71
0
40
0
41
1
42
0
50
0
0
ENDTAB
0
TABLE
2
DIMSTYLE
5
202
100
AcDbSymbolTable
100
AcDbDimStyleTable
0
DIMSTYLE
105
27
100
AcDbSymbolTableRecord
100
AcDbDimStyleTableRecord
2
Standard
70
0
3
<>
41
0.18
42
0.0625
44
0.18
140
0.18
147
0.09
73
0
74
0
77
1
271
2
275
0
278
52
280
0
340
11
0
ENDTAB
0
TABLE
2
VIEW
5
203
100
AcDbSymbolTable
0
ENDTAB
0
TABLE
2
UCS
5
204
100
AcDbSymbolTable
0
ENDTAB
0
TABLE
2
APPID
5
205
100
AcDbSymbolTable
0
APPID
5
12
100
AcDbSymbolTableRecord
100
AcDbRegAppTableRecord
2
ACAD
70
0
0
ENDTAB
0
TABLE
2
BLOCK_RECORD
5
206
100
AcDbSymbolTable
0
BLOCK_RECORD
5
1F
100
AcDbSymbolTableRecord
100
AcDbBlockTableRecord
2
*Model_Space
340
0
70
0
0
BLOCK_RECORD
5
1B
100
AcDbSymbolTableRecord
100
AcDbBlockTableRecord
2
*Paper_Space
340
0
70
0
0
BLOCK_RECORD
5
23
100
AcDbSymbolTableRecord
100
AcDbBlockTableRecord
2
*Paper_Space0
340
0
70
0
0
BLOCK_RECORD
5
142
100
AcDbSymbolTableRecord
100
AcDbBlockTableRecord
2
DimnDraft3D1
340
0
70
0
0
BLOCK_RECORD
5
151
100
AcDbSymbolTableRecord
100
AcDbBlockTableRecord
2
_CLOSED
340
0
70
0
0
BLOCK_RECORD
5
158
100
AcDbSymbolTableRecord
100
AcDbBlockTableRecord
2
DimnDraft3D2
340
0
70
0
0
BLOCK_RECORD
5
166
100
AcDbSymbolTableRecord
100
AcDbBlockTableRecord
2
DimnDraft3D3
340
0
70
0
0
BLOCK_RECORD
5
174
100
AcDbSymbolTableRecord
100
AcDbBlockTableRecord
2
DimnDraft3D4
340
0
70
0
0
BLOCK_RECORD
5
182
100
AcDbSymbolTableRecord
100
AcDbBlockTableRecord
2
DimnDraft3D5
340
0
70
0
0
ENDTAB
0
ENDSEC
0
SECTION
2
BLOCKS
0
BLOCK
5
20
100
AcDbEntity
8
0
100
AcDbBlockBegin
2
*Model_Space
70
0
10
0
20
0
30
0
3
*Model_Space
0
ENDBLK
5
21
100
AcDbEntity
8
0
100
AcDbBlockEnd
0
BLOCK
5
1C
100
AcDbEntity
8
0
100
AcDbBlockBegin
2
*Paper_Space
70
0
10
0
20
0
30
0
3
*Paper_Space
0
ENDBLK
5
1D
100
AcDbEntity
8
0
100
AcDbBlockEnd
0
BLOCK
5
24
100
AcDbEntity
8
0
100
AcDbBlockBegin
2
*Paper_Space0
70
0
10
0
20
0
30
0
3
*Paper_Space0
0
ENDBLK
5
25
100
AcDbEntity
8
0
100
AcDbBlockEnd
0
BLOCK
5
14E
100
AcDbEntity
8
0
100
AcDbBlockBegin
2
DimnDraft3D1
70
0
10
0
20
0
30
0
3
DimnDraft3D1
0
MTEXT
5
143
100
AcDbEntity
8
SK2
62
256
6
ByLayer
370
18
48
1
60
0
100
AcDbMText
10
-45.875
20
-1.563158
30
0
210
0
220
0
230
1
1
\W0.6740;50
40
4.5
41
0
44
1.084337
50
90
71
7
72
5
7
iso_b_vert
0
LINE
5
145
100
AcDbEntity
8
SK2
62
256
6
ByLayer
370
13
48
1
60
0
100
AcDbLine
10
-1.5
20
-25
30
0
11
-47.75
21
-25
31
0
39
0
210
0
220
0
230
1
0
LINE
5
146
100
AcDbEntity
8
SK2
62
256
6
ByLayer
370
13
48
1
60
0
100
AcDbLine
10
-1.5
20
25
30
0
11
-47.75
21
25
31
0
39
0
210
0
220
0
230
1
0
LINE
5
147
100
AcDbEntity
8
SK2
62
256
6
ByLayer
370
13
48
1
60
0
100
AcDbLine
10
-44.75
20
-25
30
0
11
-44.75
21
25
31
0
39
0
210
0
220
0
230
1
0
LINE
5
148
100
AcDbEntity
8
SK2
62
256
6
ByLayer
370
13
48
1
60
0
100
AcDbLine
10
-44.75
20
-25
30
0
11
-45.144957
21
-22.000001
31
0
39
0
210
0
220
0
230
1
0
LINE
5
149
100
AcDbEntity
8
SK2
62
256
6
ByLayer
370
13
48
1
60
0
100
AcDbLine
10
-44.75
20
-25
30
0
11
-44.355043
21
-21.999999
31
0
39
0
210
0
220
0
230
1
0
LINE
5
14A
100
AcDbEntity
8
SK2
62
256
6
ByLayer
370
13
48
1
60
0
100
AcDbLine
10
-45.144957
20
-22.000001
30
0
11
-44.355043
21
-21.999999
31
0
39
0
210
0
220
0
230
1
0
LINE
5
14B
100
AcDbEntity
8
SK2
62
256
6
ByLayer
370
13
48
1
60
0
100
AcDbLine
10
-44.75
20
25
30
0
11
-44.355043
21
22.000001
31
0
39
0
210
0
220
0
230
1
0
LINE
5
14C
100
AcDbEntity
8
SK2
62
256
6
ByLayer
370
13
48
1
60
0
100
AcDbLine
10
-44.75
20
25
30
0
11
-45.144957
21
21.999999
31
0
39
0
210
0
220
0
230
1
0
LINE
5
14D
100
AcDbEntity
8
SK2
62
256
6
ByLayer
370
13
48
1
60
0
100
AcDbLine
10
-44.355043
20
22.000001
30
0
11
-45.144957
21
21.999999
31
0
39
0
210
0
220
0
230
1
0
ENDBLK
5
14F
100
AcDbEntity
8
0
100
AcDbBlockEnd
0
BLOCK
5
152
100
AcDbEntity
8
0
100
AcDbBlockBegin
2
_CLOSED
70
0
10
0
20
0
30
0
3
_CLOSED
0
LINE
5
154
100
AcDbEntity
8
0
62
256
6
ByLayer
370
-2
48
1
60
0
100
AcDbLine
10
-1
20
0.166667
30
0
11
0
21
0
31
0
39
0
210
0
220
0
230
1
0
LINE
5
155
100
AcDbEntity
8
0
62
256
6
ByLayer
370
-2
48
1
60
0
100
AcDbLine
10
0
20
0
30
0
11
-1
21
-0.166667
31
0
39
0
210
0
220
0
230
1
0
LINE
5
156
100
AcDbEntity
8
0
62
256
6
ByLayer
370
-2
48
1
60
0
100
AcDbLine
10
-1
20
0.166667
30
0
11
-1
21
-0.166667
31
0
39
0
210
0
220
0
230
1
0
LINE
5
157
100
AcDbEntity
8
0
62
256
6
ByLayer
370
-2
48
1
60
0
100
AcDbLine
10
0
20
0
30
0
11
-1
21
0
31
0
39
0
210
0
220
0
230
1
0
ENDBLK
5
153
100
AcDbEntity
8
0
100
AcDbBlockEnd
0
BLOCK
5
163
100
AcDbEntity
8
0
100
AcDbBlockBegin
2
DimnDraft3D2
70
0
10
0
20
0
30
0
3
DimnDraft3D2
0
MTEXT
5
159
100
AcDbEntity
8
2
62
256
6
ByLayer
370
18
48
1
60
0
100
AcDbMText
10
73.125
20
40.625
30
0
210
0
220
0
230
1
1
\W0.5404;2
40
4.5
41
0
44
1.084337
50
90
71
7
72
5
7
iso_b_vert
0
LINE
5
15A
100
AcDbEntity
8
2
62
256
6
ByLayer
370
13
48
1
60
0
100
AcDbLine
10
61.5
20
33
30
0
11
77.25
21
33
31
0
39
0
210
0
220
0
230
1
0
LINE
5
15B
100
AcDbEntity
8
2
62
256
6
ByLayer
370
13
48
1
60
0
100
AcDbLine
10
61.5
20
35
30
0
11
77.25
21
35
31
0
39
0
210
0
220
0
230
1
0
LINE
5
15C
100
AcDbEntity
8
2
62
256
6
ByLayer
370
13
48
1
60
0
100
AcDbLine
10
74.25
20
41.513158
30
0
11
74.25
21
21.75
31
0
39
0
210
0
220
0
230
1
0
LINE
5
15D
100
AcDbEntity
8
2
62
256
6
ByLayer
370
13
48
1
60
0
100
AcDbLine
10
74.25
20
33
30
0
11
74.644957
21
30.000001
31
0
39
0
210
0
220
0
230
1
0
LINE
5
15E
100
AcDbEntity
8
2
62
256
6
ByLayer
370
13
48
1
60
0
100
AcDbLine
10
74.25
20
33
30
0
11
73.855043
21
29.999999
31
0
39
0
210
0
220
0
230
1
0
LINE
5
15F
100
AcDbEntity
8
2
62
256
6
ByLayer
370
13
48
1
60
0
100
AcDbLine
10
74.644957
20
30.000001
30
0
11
73.855043
21
29.999999
31
0
39
0
210
0
220
0
230
1
0
LINE
5
160
100
AcDbEntity
8
2
62
256
6
ByLayer
370
13
48
1
60
0
100
AcDbLine
10
74.25
20
35
30
0
11
73.855043
21
37.999999
31
0
39
0
210
0
220
0
230
1
0
LINE
5
161
100
AcDbEntity
8
2
62
256
6
ByLayer
370
13
48
1
60
0
100
AcDbLine
10
74.25
20
35
30
0
11
74.644957
21
38.000001
31
0
39
0
210
0
220
0
230
1
0
LINE
5
162
100
AcDbEntity
8
2
62
256
6
ByLayer
370
13
48
1
60
0
100
AcDbLine
10
73.855043
20
37.999999
30
0
11
74.644957
21
38.000001
31
0
39
0
210
0
220
0
230
1
0
ENDBLK
5
164
100
AcDbEntity
8
0
100
AcDbBlockEnd
0
BLOCK
5
171
100
AcDbEntity
8
0
100
AcDbBlockBegin
2
DimnDraft3D3
70
0
10
0
20
0
30
0
3
DimnDraft3D3
0
MTEXT
5
167
100
AcDbEntity
8
2
62
256
6
ByLayer
370
18
48
1
60
0
100
AcDbMText
10
83.125
20
15.936842
30
0
210
0
220
0
230
1
1
\W0.6740;35
40
4.5
41
0
44
1.084337
50
90
71
7
72
5
7
iso_b_vert
0
LINE
5
168
100
AcDbEntity
8
2
62
256
6
ByLayer
370
13
48
1
60
0
100
AcDbLine
10
61.5
20
35
30
0
11
87.25
21
35
31
0
39
0
210
0
220
0
230
1
0
LINE
5
169
100
AcDbEntity
8
2
62
256
6
ByLayer
370
13
48
1
60
0
100
AcDbLine
10
16.5
20
0
30
0
11
87.25
21
0
31
0
39
0
210
0
220
0
230
1
0
LINE
5
16A
100
AcDbEntity
8
2
62
256
6
ByLayer
370
13
48
1
60
0
100
AcDbLine
10
84.25
20
35
30
0
11
84.25
21
0
31
0
39
0
210
0
220
0
230
1
0
LINE
5
16B
100
AcDbEntity
8
2
62
256
6
ByLayer
370
13
48
1
60
0
100
AcDbLine
10
84.25
20
35
30
0
11
84.644957
21
32.000001
31
0
39
0
210
0
220
0
230
1
0
LINE
5
16C
100
AcDbEntity
8
2
62
256
6
ByLayer
370
13
48
1
60
0
100
AcDbLine
10
84.25
20
35
30
0
11
83.855043
21
31.999999
31
0
39
0
210
0
220
0
230
1
0
LINE
5
16D
100
AcDbEntity
8
2
62
256
6
ByLayer
370
13
48
1
60
0
100
AcDbLine
10
84.644957
20
32.000001
30
0
11
83.855043
21
31.999999
31
0
39
0
210
0
220
0
230
1
0
LINE
5
16E
100
AcDbEntity
8
2
62
256
6
ByLayer
370
13
48
1
60
0
100
AcDbLine
10
84.25
20
0
30
0
11
83.855043
21
2.999999
31
0
39
0
210
0
220
0
230
1
0
LINE
5
16F
100
AcDbEntity
8
2
62
256
6
ByLayer
370
13
48
1
60
0
100
AcDbLine
10
84.25
20
0
30
0
11
84.644957
21
3.000001
31
0
39
0
210
0
220
0
230
1
0
LINE
5
170
100
AcDbEntity
8
2
62
256
6
ByLayer
370
13
48
1
60
0
100
AcDbLine
10
83.855043
20
2.999999
30
0
11
84.644957
21
3.000001
31
0
39
0
210
0
220
0
230
1
0
ENDBLK
5
172
100
AcDbEntity
8
0
100
AcDbBlockEnd
0
BLOCK
5
17F
100
AcDbEntity
8
0
100
AcDbBlockBegin
2
DimnDraft3D4
70
0
10
0
20
0
30
0
3
DimnDraft3D4
0
MTEXT
5
175
100
AcDbEntity
8
2
62
256
6
ByLayer
370
18
48
1
60
0
100
AcDbMText
10
28.436842
20
45.875
30
0
210
0
220
0
230
1
1
\W0.6740;60
40
4.5
41
0
44
1.084337
50
0
71
7
72
5
7
iso_b_vert
0
LINE
5
176
100
AcDbEntity
8
2
62
256
6
ByLayer
370
13
48
1
60
0
100
AcDbLine
10
0
20
1.5
30
0
11
0
21
47.75
31
0
39
0
210
0
220
0
230
1
0
LINE
5
177
100
AcDbEntity
8
2
62
256
6
ByLayer
370
13
48
1
60
0
100
AcDbLine
10
60
20
35.5
30
0
11
60
21
47.75
31
0
39
0
210
0
220
0
230
1
0
LINE
5
178
100
AcDbEntity
8
2
62
256
6
ByLayer
370
13
48
1
60
0
100
AcDbLine
10
0
20
44.75
30
0
11
60
21
44.75
31
0
39
0
210
0
220
0
230
1
0
LINE
5
179
100
AcDbEntity
8
2
62
256
6
ByLayer
370
13
48
1
60
0
100
AcDbLine
10
0
20
44.75
30
0
11
2.999999
21
45.144957
31
0
39
0
210
0
220
0
230
1
0
LINE
5
17A
100
AcDbEntity
8
2
62
256
6
ByLayer
370
13
48
1
60
0
100
AcDbLine
10
0
20
44.75
30
0
11
3.000001
21
44.355043
31
0
39
0
210
0
220
0
230
1
0
LINE
5
17B
100
AcDbEntity
8
2
62
256
6
ByLayer
370
13
48
1
60
0
100
AcDbLine
10
2.999999
20
45.144957
30
0
11
3.000001
21
44.355043
31
0
39
0
210
0
220
0
230
1
0
LINE
5
17C
100
AcDbEntity
8
2
62
256
6
ByLayer
370
13
48
1
60
0
100
AcDbLine
10
60
20
44.75
30
0
11
57.000001
21
44.355043
31
0
39
0
210
0
220
0
230
1
0
LINE
5
17D
100
AcDbEntity
8
2
62
256
6
ByLayer
370
13
48
1
60
0
100
AcDbLine
10
60
20
44.75
30
0
11
56.999999
21
45.144957
31
0
39
0
210
0
220
0
230
1
0
LINE
5
17E
100
AcDbEntity
8
2
62
256
6
ByLayer
370
13
48
1
60
0
100
AcDbLine
10
57.000001
20
44.355043
30
0
11
56.999999
21
45.144957
31
0
39
0
210
0
220
0
230
1
0
ENDBLK
5
180
100
AcDbEntity
8
0
100
AcDbBlockEnd
0
BLOCK
5
18D
100
AcDbEntity
8
0
100
AcDbBlockBegin
2
DimnDraft3D5
70
0
10
0
20
0
30
0
3
DimnDraft3D5
0
MTEXT
5
183
100
AcDbEntity
8
2
62
256
6
ByLayer
370
18
48
1
60
0
100
AcDbMText
10
56.118421
20
-13.125
30
0
210
0
220
0
230
1
1
\W0.5404;8
40
4.5
41
0
44
1.084337
50
0
71
7
72
5
7
iso_b_vert
0
LINE
5
184
100
AcDbEntity
8
2
62
256
6
ByLayer
370
13
48
1
60
0
100
AcDbLine
10
52
20
30.5
30
0
11
52
21
-17.25
31
0
39
0
210
0
220
0
230
1
0
LINE
5
185
100
AcDbEntity
8
2
62
256
6
ByLayer
370
13
48
1
60
0
100
AcDbLine
10
60
20
31.5
30
0
11
60
21
-17.25
31
0
39
0
210
0
220
0
230
1
0
LINE
5
186
100
AcDbEntity
8
2
62
256
6
ByLayer
370
13
48
1
60
0
100
AcDbLine
10
40.75
20
-14.25
30
0
11
71.25
21
-14.25
31
0
39
0
210
0
220
0
230
1
0
LINE
5
187
100
AcDbEntity
8
2
62
256
6
ByLayer
370
13
48
1
60
0
100
AcDbLine
10
52
20
-14.25
30
0
11
49.000001
21
-14.644957
31
0
39
0
210
0
220
0
230
1
0
LINE
5
188
100
AcDbEntity
8
2
62
256
6
ByLayer
370
13
48
1
60
0
100
AcDbLine
10
52
20
-14.25
30
0
11
48.999999
21
-13.855043
31
0
39
0
210
0
220
0
230
1
0
LINE
5
189
100
AcDbEntity
8
2
62
256
6
ByLayer
370
13
48
1
60
0
100
AcDbLine
10
49.000001
20
-14.644957
30
0
11
48.999999
21
-13.855043
31
0
39
0
210
0
220
0
230
1
0
LINE
5
18A
100
AcDbEntity
8
2
62
256
6
ByLayer
370
13
48
1
60
0
100
AcDbLine
10
60
20
-14.25
30
0
11
62.999999
21
-13.855043
31
0
39
0
210
0
220
0
230
1
0
LINE
5
18B
100
AcDbEntity
8
2
62
256
6
ByLayer
370
13
48
1
60
0
100
AcDbLine
10
60
20
-14.25
30
0
11
63.000001
21
-14.644957
31
0
39
0
210
0
220
0
230
1
0
LINE
5
18C
100
AcDbEntity
8
2
62
256
6
ByLayer
370
13
48
1
60
0
100
AcDbLine
10
62.999999
20
-13.855043
30
0
11
63.000001
21
-14.644957
31
0
39
0
210
0
220
0
230
1
0
ENDBLK
5
18E
100
AcDbEntity
8
0
100
AcDbBlockEnd
0
ENDSEC
0
SECTION
2
ENTITIES
0
ARC
5
D5
100
AcDbEntity
8
SK1
62
256
6
ByLayer
370
18
48
1
60
0
100
AcDbCircle
39
0
10
0.6
20
-18.75
30
0
40
1.00000000000001
210
0
220
0
230
-1
100
AcDbArc
50
113.578178
51
126.869898
0
ARC
5
D6
100
AcDbEntity
8
SK1
62
256
6
ByLayer
370
18
48
1
60
0
100
AcDbCircle
39
0
10
0.6
20
18.75
30
0
40
1.00000000000001
210
0
220
0
230
-1
100
AcDbArc
50
233.130102
51
246.421822
0
ARC
5
DA
100
AcDbEntity
8
1
62
256
6
ByLayer
370
18
48
1
60
0
100
AcDbCircle
39
0
10
-46
20
26.5
30
0
40
4.5
210
0
220
0
230
-1
100
AcDbArc
50
360
51
70.487572
0
ARC
5
DB
100
AcDbEntity
8
1
62
256
6
ByLayer
370
18
48
1
60
0
100
AcDbCircle
39
0
10
52.1
20
31.65
30
0
40
1.60000000000001
210
0
220
0
230
1
100
AcDbArc
50
90
51
180
0
ARC
5
DC
100
AcDbEntity
8
1
62
256
6
ByLayer
370
18
48
1
60
0
100
AcDbCircle
39
0
10
46
20
26.5
30
0
40
4.49999999995224
210
0
220
0
230
1
100
AcDbArc
50
90
51
109.512428
0
ARC
5
DD
100
AcDbEntity
8
1
62
256
6
ByLayer
370
18
48
1
60
0
100
AcDbCircle
39
0
10
-46
20
26.5
30
0
40
4
210
0
220
0
230
-1
100
AcDbArc
50
0
51
90
0
ARC
5
DE
100
AcDbEntity
8
1
62
256
6
ByLayer
370
18
48
1
60
0
100
AcDbCircle
39
0
10
26
20
-2.888666
30
0
40
5.99999999999999
210
0
220
0
230
1
100
AcDbArc
50
128.583555
51
144.434803
0
ARC
5
DF
100
AcDbEntity
8
1
62
256
6
ByLayer
370
18
48
1
60
0
100
AcDbCircle
39
0
10
46
20
26.5
30
0
40
1.416
210
0
220
0
230
1
100
AcDbArc
50
96.192438
51
150.190711
0
ARC
5
E0
100
AcDbEntity
8
1
62
256
6
ByLayer
370
18
48
1
60
0
100
AcDbCircle
39
0
10
46
20
26.5
30
0
40
1.416
210
0
220
0
230
1
100
AcDbArc
50
263.807562
51
276.192438
0
ARC
5
E1
100
AcDbEntity
8
1
62
256
6
ByLayer
370
18
48
1
60
0
100
AcDbCircle
39
0
10
46
20
26.5
30
0
40
1.9685
210
0
220
0
230
1
100
AcDbArc
50
120.381422
51
180
0
ARC
5
E2
100
AcDbEntity
8
1
62
256
6
ByLayer
370
18
48
1
60
0
100
AcDbCircle
39
0
10
46
20
26.5
30
0
40
1.9685
210
0
220
0
230
1
100
AcDbArc
50
300.381422
51
360
0
ARC
5
E3
100
AcDbEntity
8
1
62
256
6
ByLayer
370
18
48
1
60
0
100
AcDbCircle
39
0
10
46
20
26.5
30
0
40
1.9685
210
0
220
0
230
1
100
AcDbArc
50
180
51
239.618578
0
ARC
5
E4
100
AcDbEntity
8
1
62
256
6
ByLayer
370
18
48
1
60
0
100
AcDbCircle
39
0
10
46
20
26.5
30
0
40
1.9685
210
0
220
0
230
1
100
AcDbArc
50
239.618578
51
300.381422
0
ARC
5
E5
100
AcDbEntity
8
1
62
256
6
ByLayer
370
18
48
1
60
0
100
AcDbCircle
39
0
10
46
20
26.5
30
0
40
1.416
210
0
220
0
230
1
100
AcDbArc
50
276.192438
51
330.190711
0
ARC
5
E6
100
AcDbEntity
8
1
62
256
6
ByLayer
370
18
48
1
60
0
100
AcDbCircle
39
0
10
46
20
26.5
30
0
40
1.416
210
0
220
0
230
1
100
AcDbArc
50
150.190711
51
209.809289
0
ARC
5
E7
100
AcDbEntity
8
1
62
256
6
ByLayer
370
18
48
1
60
0
100
AcDbCircle
39
0
10
46
20
26.5
30
0
40
1.9685
210
0
220
0
230
1
100
AcDbArc
50
59.618578
51
120.381422
0
ARC
5
E8
100
AcDbEntity
8
1
62
256
6
ByLayer
370
18
48
1
60
0
100
AcDbCircle
39
0
10
46
20
26.5
30
0
40
1.9685
210
0
220
0
230
1
100
AcDbArc
50
360
51
59.618578
0
ARC
5
E9
100
AcDbEntity
8
1
62
256
6
ByLayer
370
18
48
1
60
0
100
AcDbCircle
39
0
10
46
20
26.5
30
0
40
1.416
210
0
220
0
230
1
100
AcDbArc
50
29.809289
51
83.807562
0
ARC
5
EA
100
AcDbEntity
8
1
62
256
6
ByLayer
370
18
48
1
60
0
100
AcDbCircle
39
0
10
46
20
26.5
30
0
40
1.416
210
0
220
0
230
1
100
AcDbArc
50
209.809289
51
263.807562
0
ARC
5
EC
100
AcDbEntity
8
1
62
256
6
ByLayer
370
18
48
1
60
0
100
AcDbCircle
39
0
10
46
20
26.5
30
0
40
1.416
210
0
220
0
230
1
100
AcDbArc
50
330.190711
51
29.809289
0
ARC
5
EE
100
AcDbEntity
8
1
62
256
6
ByLayer
370
18
48
1
60
0
100
AcDbCircle
39
0
10
46
20
26.5
30
0
40
1.416
210
0
220
0
230
1
100
AcDbArc
50
83.807562
51
96.192438
0
ARC
5
EF
100
AcDbEntity
8
1
62
256
6
ByLayer
370
18
48
1
60
0
100
AcDbCircle
39
0
10
53.832089
20
34
30
0
40
0.499999999990257
210
0
220
0
230
1
100
AcDbArc
50
340
51
20
0
ARC
5
F0
100
AcDbEntity
8
1
62
256
6
ByLayer
370
18
48
1
60
0
100
AcDbCircle
39
0
10
54.295796
20
34.626449
30
0
40
0.149999997128177
210
0
220
0
230
1
100
AcDbArc
50
180
51
200
0
ARC
5
F1
100
AcDbEntity
8
1
62
256
6
ByLayer
370
18
48
1
60
0
100
AcDbCircle
39
0
10
54.295796
20
33.373551
30
0
40
0.149999997128177
210
0
220
0
230
1
100
AcDbArc
50
160
51
180
0
ARC
5
F2
100
AcDbEntity
8
1
62
256
6
ByLayer
370
18
48
1
60
0
100
AcDbCircle
39
0
10
59.8
20
34.8
30
0
40
0.2
210
0
220
0
230
1
100
AcDbArc
50
360
51
92.5
0
ARC
5
F3
100
AcDbEntity
8
1
62
256
6
ByLayer
370
18
48
1
60
0
100
AcDbCircle
39
0
10
-40.2
20
34.8
30
0
40
0.2
210
0
220
0
230
-1
100
AcDbArc
50
0
51
92.5
0
ARC
5
F4
100
AcDbEntity
8
1
62
256
6
ByLayer
370
18
48
1
60
0
100
AcDbCircle
39
0
10
-59.8
20
33.2
30
0
40
0.2
210
0
220
0
230
-1
100
AcDbArc
50
180
51
272.5
0
CIRCLE
5
D7
100
AcDbEntity
8
62
62
256
6
ByLayer
370
18
48
1
60
0
100
AcDbCircle
10
46
20
26.5
30
0
40
4
39
0
210
0
220
0
230
1
0
CIRCLE
5
D9
100
AcDbEntity
8
62
62
256
6
ByLayer
370
18
48
1
60
0
100
AcDbCircle
10
46
20
26.5
30
0
40
4
39
0
210
0
220
0
230
1
0
CIRCLE
5
EB
100
AcDbEntity
8
1
62
256
6
ByLayer
370
18
48
1
60
0
100
AcDbCircle
10
-46
20
26.5
30
0
40
3.5
39
0
210
0
220
0
230
-1
0
CIRCLE
5
ED
100
AcDbEntity
8
1
62
256
6
ByLayer
370
18
48
1
60
0
100
AcDbCircle
10
-46
20
26.5
30
0
40
3
39
0
210
0
220
0
230
-1
0
ELLIPSE
5
F5
100
AcDbEntity
8
1
62
256
6
ByLayer
370
18
48
1
60
0
100
AcDbEllipse
10
21.056258
20
0
30
0
11
-11.7092723497278
21
-24.6771864409381
31
0
210
0
220
0
230
1
40
0.341999
41
-1.08183270048926
42
-0.167213071908978
0
ELLIPSE
5
F6
100
AcDbEntity
8
1
62
256
6
ByLayer
370
18
48
1
60
0
100
AcDbEllipse
10
33.697239
20
29.401513
30
0
11
-0.0205357132343337
21
-1.52962794358324
31
0
210
0
220
0
230
1
40
0.108226
41
0
42
6.28318530717959
0
ELLIPSE
5
F7
100
AcDbEntity
8
1
62
256
6
ByLayer
370
18
48
1
60
0
100
AcDbEllipse
10
-1.056258
20
0
30
0
11
-11.7092723497277
21
24.677186440938
31
0
210
0
220
0
230
1
40
0.341999
41
-2.97437958168082
42
-2.05975995310053
0
ELLIPSE
5
F8
100
AcDbEntity
8
1
62
256
6
ByLayer
370
18
48
1
60
0
100
AcDbEllipse
10
-1.056258
20
0
30
0
11
-11.709272349727
21
-24.677186440937
31
0
210
0
220
0
230
1
40
0.341999
41
2.0597599531005
42
2.97437958168081
0
ELLIPSE
5
F9
100
AcDbEntity
8
1
62
256
6
ByLayer
370
18
48
1
60
0
100
AcDbEllipse
10
21.056258
20
0
30
0
11
-11.7092723497275
21
24.6771864409378
31
0
210
0
220
0
230
1
40
0.341999
41
0.167213071908977
42
1.08183270048926
0
ELLIPSE
5
FA
100
AcDbEntity
8
1
62
256
6
ByLayer
370
18
48
1
60
0
100
AcDbEllipse
10
31.214894
20
32.943437
30
0
11
-1.43465883250758
21
0.815017812264246
31
0
210
0
220
0
230
1
40
0.533773
41
0
42
6.28318530717959
0
ELLIPSE
5
FB
100
AcDbEntity
8
1
62
256
6
ByLayer
370
18
48
1
60
0
100
AcDbEllipse
10
49.495467
20
30.5
30
0
11
-0.714074003370846
21
1.67300875581988E-15
31
0
210
0
220
0
230
1
40
0.700208
41
3.14159265358979
42
-1.5707963267949
0
POINT
5
6C
100
AcDbEntity
8
2
62
256
6
ByLayer
370
18
48
1
60
0
100
AcDbPoint
10
60
20
35
30
0
39
0
210
0
220
0
230
1
50
360
0
POINT
5
6E
100
AcDbEntity
8
CUT
62
256
6
ByLayer
370
18
48
1
60
0
100
AcDbPoint
10
12
20
0
30
0
39
0
210
0
220
0
230
1
50
360
0
POINT
5
70
100
AcDbEntity
8
2
62
256
6
ByLayer
370
18
48
1
60
0
100
AcDbPoint
10
60
20
34
30
0
39
0
210
0
220
0
230
1
50
360
0
POINT
5
71
100
AcDbEntity
8
80
62
256
6
ByLayer
370
18
48
1
60
0
100
AcDbPoint
10
0
20
0
30
0
39
0
210
0
220
0
230
1
50
360
0
POINT
5
73
100
AcDbEntity
8
81
62
256
6
ByLayer
370
18
48
1
60
0
100
AcDbPoint
10
60
20
35
30
0
39
0
210
0
220
0
230
1
50
360
0
SPLINE
5
FC
100
AcDbEntity
8
SK1
62
256
6
ByLayer
370
18
48
1
60
0
100
AcDbSpline
70
4
71
3
72
13
73
9
40
0
40
0
40
0
40
0
40
0.239456135733551
40
0.368359721896995
40
0.499998983985648
40
0.631638415256368
40
0.760542467762615
40
1
40
1
40
1
40
1
41
1
10
-2.20000000000002
20
-17.520098551796
30
0
41
1
10
-2.19909198642202
20
-17.4940410756898
30
0
41
1
10
-2.19103284106865
20
-17.4566684913666
30
0
41
1
10
-2.16563592203258
20
-17.4104493175479
30
0
41
1
10
-2.13886378679177
20
-17.3791677636994
30
0
41
1
10
-2.10627712749803
20
-17.3540003935063
30
0
41
1
10
-2.05884064234169
20
-17.3309565910454
30
0
41
1
10
-2.02111030873064
20
-17.3247843360228
30
0
41
1
10
-1.99503997793931
20
-17.3251859759625
30
0
0
SPLINE
5
FD
100
AcDbEntity
8
SK1
62
256
6
ByLayer
370
18
48
1
60
0
100
AcDbSpline
70
4
71
3
72
13
73
9
40
0
40
0
40
0
40
0
40
0.2394575322828
40
0.368361584804615
40
0.500001016081333
40
0.631640278164845
40
0.760543864313148
40
1
40
1
40
1
40
1
41
1
10
-1.99503997793928
20
17.3251861589552
30
0
41
1
10
-2.02111030872962
20
17.324784519015
30
0
41
1
10
-2.05884064233982
20
17.3309567740351
30
0
41
1
10
-2.10627712749661
20
17.3540005764861
30
0
41
1
10
-2.13886378679044
20
17.3791679466684
30
0
41
1
10
-2.16563592203158
20
17.4104495005037
30
0
41
1
10
-2.19103284106788
20
17.4566686743027
30
0
41
1
10
-2.19909198642125
20
17.4940412586114
30
0
41
1
10
-2.19999999999999
20
17.5200987347078
30
0
0
SPLINE
5
FE
100
AcDbEntity
8
SK1
62
256
6
ByLayer
370
18
48
1
60
0
100
AcDbSpline
70
4
71
2
72
6
73
3
40
0
40
0
40
0
40
1
40
1
40
1
41
1
10
-28.5
20
-16.8542724489282
30
0
41
1
10
-15.3499999999286
20
-17.1845422635703
30
0
41
1
10
-2.20000000000002
20
-17.5148116792767
30
0
0
SPLINE
5
FF
100
AcDbEntity
8
SK1
62
256
6
ByLayer
370
18
48
1
60
0
100
AcDbSpline
70
4
71
2
72
6
73
3
40
0
40
0
40
0
40
1
40
1
40
1
41
1
10
-2.19999999999999
20
17.5148117187522
30
0
41
1
10
-15.3499999999294
20
17.1845422725478
30
0
41
1
10
-28.5
20
16.854272429841
30
0
0
SPLINE
5
100
100
AcDbEntity
8
SK1
62
256
6
ByLayer
370
18
48
1
60
0
100
AcDbSpline
70
4
71
2
72
6
73
3
40
0
40
0
40
0
40
1
40
1
40
1
41
1
10
-1.99503997793931
20
-17.3199593099743
30
0
41
1
10
-1.19500843340705
20
-17.340052552406
30
0
41
1
10
-0.394976888875306
20
-17.3601457933935
30
0
0
SPLINE
5
101
100
AcDbEntity
8
SK1
62
256
6
ByLayer
370
18
48
1
60
0
100
AcDbSpline
70
4
71
2
72
6
73
3
40
0
40
0
40
0
40
1
40
1
40
1
41
1
10
-0.394976888875277
20
17.3601458189993
30
0
41
1
10
-1.19500843340703
20
17.3400525762132
30
0
41
1
10
-1.99503997793928
20
17.3199593319919
30
0
0
SPLINE
5
102
100
AcDbEntity
8
SK1
62
256
6
ByLayer
370
18
48
1
60
0
100
AcDbSpline
70
4
71
2
72
6
73
3
40
0
40
0
40
0
40
1
40
1
40
1
41
1
10
-30
20
-15.9924794145163
30
0
41
1
10
-29.2499999991495
20
-16.4254650261933
30
0
41
1
10
-28.5
20
-16.8584504491481
30
0
0
SPLINE
5
103
100
AcDbEntity
8
SK1
62
256
6
ByLayer
370
18
48
1
60
0
100
AcDbSpline
70
4
71
2
72
6
73
3
40
0
40
0
40
0
40
1
40
1
40
1
41
1
10
-28.5
20
16.8584505716142
30
0
41
1
10
-29.2499999991495
20
16.4254651505507
30
0
41
1
10
-30
20
15.9924795407901
30
0
0
SPLINE
5
104
100
AcDbEntity
8
SK1
62
256
6
ByLayer
370
18
48
1
60
0
100
AcDbSpline
70
4
71
2
72
6
73
3
40
0
40
0
40
0
40
1
40
1
40
1
41
1
10
-0.394976888875306
20
-17.359696795897
30
0
41
1
10
-0.305277226309755
20
-17.3671842624703
30
0
41
1
10
-0.258658740615687
20
-17.4310145299902
30
0
0
SPLINE
5
105
100
AcDbEntity
8
SK1
62
256
6
ByLayer
370
18
48
1
60
0
100
AcDbSpline
70
4
71
2
72
6
73
3
40
0
40
0
40
0
40
1
40
1
40
1
41
1
10
-0.258442643302402
20
17.4312381196178
30
0
41
1
10
-0.305123774552584
20
17.3672404580573
30
0
41
1
10
-0.394976888875277
20
17.3596982935394
30
0
0
SPLINE
5
106
100
AcDbEntity
8
SK1
62
256
6
ByLayer
370
18
48
1
60
0
100
AcDbSpline
70
4
71
3
72
282
73
278
40
0
40
0
40
0
40
0
40
0.0031454808943367
40
0.0067198701323577
40
0.0102942593703786
40
0.0138686486083996
40
0.0174430378464206
40
0.0210174270844415
40
0.0245918163224625
40
0.0281662055604834
40
0.0317405947985044
40
0.0353149840365253
40
0.0424637625125673
40
0.0460381517505882
40
0.0496125409886092
40
0.0531869302266301
40
0.0567613194646511
40
0.063910097940693
40
0.067484487178714
40
0.0710588764167349
40
0.0782076548927768
40
0.0817820441307978
40
0.0853564333688187
40
0.0925052118448607
40
0.0960796010828816
40
0.0996539903209026
40
0.103228379558924
40
0.106802768796945
40
0.110377158034966
40
0.113951547272986
40
0.117525936511007
40
0.121100325749028
40
0.12824910422507
40
0.131823493463091
40
0.135397882701112
40
0.138972271939133
40
0.142546661177154
40
0.149695439653196
40
0.153269828891217
40
0.156844218129238
40
0.160418607367259
40
0.16399299660528
40
0.171141775081322
40
0.174716164319343
40
0.178290553557364
40
0.181864942795385
40
0.185439332033406
40
0.192588110509447
40
0.196162499747468
40
0.199736888985489
40
0.20331127822351
40
0.206885667461531
40
0.214034445937573
40
0.217608835175594
40
0.221183224413615
40
0.224757613651636
40
0.228332002889657
40
0.235480781365699
40
0.23905517060372
40
0.242629559841741
40
0.246203949079762
40
0.249778338317783
40
0.256927116793825
40
0.260501506031846
40
0.264075895269867
40
0.271224673745908
40
0.27837345222195
40
0.281947841459971
40
0.285522230697992
40
0.292671009174034
40
0.296245398412055
40
0.299819787650076
40
0.303394176888097
40
0.306968566126118
40
0.310542955364139
40
0.31411734460216
40
0.321266123078202
40
0.328414901554244
40
0.331989290792265
40
0.335563680030286
40
0.339138069268307
40
0.342712458506328
40
0.346286847744349
40
0.34986123698237
40
0.357010015458411
40
0.364158793934453
40
0.371307572410495
40
0.374881961648516
40
0.378456350886537
40
0.382030740124558
40
0.385605129362579
40
0.3891795186006
40
0.392753907838621
40
0.396328297076642
40
0.399902686314663
40
0.403477075552684
40
0.407051464790705
40
0.410625854028726
40
0.414200243266747
40
0.417774632504768
40
0.421349021742789
40
0.42492341098081
40
0.428497800218831
40
0.432072189456852
40
0.433859384075862
40
0.435646578694873
40
0.437433773313883
40
0.439220967932894
40
0.442795357170915
40
0.446369746408936
40
0.448156941027946
40
0.449944135646956
40
0.451731330265967
40
0.453518524884977
40
0.455305719503988
40
0.457092914122998
40
0.460667303361019
40
0.46245449798003
40
0.46424169259904
40
0.466028887218051
40
0.467816081837061
40
0.469603276456072
40
0.471390471075082
40
0.473177665694093
40
0.474964860313103
40
0.476752054932113
40
0.478539249551124
40
0.480326444170134
40
0.482113638789145
40
0.483900833408155
40
0.485688028027166
40
0.487475222646176
40
0.489262417265187
40
0.491049611884197
40
0.492836806503208
40
0.494624001122218
40
0.496411195741229
40
0.498198390360239
40
0.49998558497925
40
0.50177277959826
40
0.503559974217271
40
0.505347168836281
40
0.507134363455292
40
0.508921558074302
40
0.510708752693313
40
0.512495947312323
40
0.514283141931334
40
0.516070336550344
40
0.517857531169355
40
0.519644725788365
40
0.521431920407376
40
0.523219115026386
40
0.525006309645397
40
0.526793504264407
40
0.528580698883417
40
0.530367893502428
40
0.532155088121438
40
0.533942282740449
40
0.535729477359459
40
0.53751667197847
40
0.53930386659748
40
0.541091061216491
40
0.542878255835501
40
0.544665450454512
40
0.546452645073522
40
0.550027034311543
40
0.551814228930554
40
0.553601423549564
40
0.557175812787585
40
0.560750202025606
40
0.562537396644617
40
0.564324591263627
40
0.566111785882637
40
0.567898980501648
40
0.571473369739669
40
0.57504775897769
40
0.578622148215711
40
0.582196537453732
40
0.585770926691753
40
0.589345315929774
40
0.592919705167795
40
0.596494094405816
40
0.600068483643837
40
0.603642872881858
40
0.607217262119878
40
0.610791651357899
40
0.61436604059592
40
0.617940429833941
40
0.621514819071962
40
0.625089208309983
40
0.628663597548004
40
0.635812376024046
40
0.642961154500088
40
0.65010993297613
40
0.653684322214151
40
0.657258711452172
40
0.660833100690193
40
0.664407489928214
40
0.667981879166235
40
0.671556268404256
40
0.678705046880298
40
0.68585382535634
40
0.689428214594361
40
0.693002603832381
40
0.696576993070402
40
0.700151382308423
40
0.703725771546444
40
0.707300160784465
40
0.714448939260507
40
0.718023328498528
40
0.721597717736549
40
0.728746496212591
40
0.735895274688633
40
0.739469663926654
40
0.743044053164675
40
0.750192831640717
40
0.753767220878738
40
0.757341610116759
40
0.76091599935478
40
0.764490388592801
40
0.771639167068843
40
0.775213556306864
40
0.778787945544885
40
0.782362334782905
40
0.785936724020926
40
0.793085502496968
40
0.796659891734989
40
0.80023428097301
40
0.803808670211031
40
0.807383059449052
40
0.814531837925094
40
0.818106227163115
40
0.821680616401136
40
0.825255005639157
40
0.828829394877178
40
0.83597817335322
40
0.839552562591241
40
0.843126951829262
40
0.844914146448272
40
0.846701341067283
40
0.850275730305304
40
0.857424508781346
40
0.860998898019366
40
0.864573287257387
40
0.868147676495408
40
0.871722065733429
40
0.878870844209471
40
0.882445233447492
40
0.886019622685513
40
0.889594011923534
40
0.893168401161555
40
0.896742790399576
40
0.900317179637597
40
0.903891568875618
40
0.907465958113639
40
0.914614736589681
40
0.918189125827702
40
0.921763515065723
40
0.928912293541765
40
0.932486682779786
40
0.936061072017807
40
0.943209850493849
40
0.946784239731869
40
0.95035862896989
40
0.953933018207911
40
0.957507407445932
40
0.964656185921974
40
0.968230575159995
40
0.971804964398016
40
0.975379353636037
40
0.978953742874058
40
0.982528132112079
40
0.9861025213501
40
0.989676910588121
40
0.993251299826142
40
0.996825689064163
40
1
40
1
40
1
40
1
41
1
10
-2.19999999999999
20
17.5147448782232
30
0
41
1
10
-2.20000000000002
20
17.5132050127753
30
0
41
1
10
-2.19999999999999
20
17.5092143161918
30
0
41
1
10
-2.19999999999999
20
17.5008423359265
30
0
41
1
10
-2.19999999999999
20
17.4896606050755
30
0
41
1
10
-2.19999999999999
20
17.4760589345483
30
0
41
1
10
-2.19999999999999
20
17.4600756660116
30
0
41
1
10
-2.19999999999999
20
17.4417480829298
30
0
41
1
10
-2.19999999999999
20
17.4211116708093
30
0
41
1
10
-2.19999999999999
20
17.3981999720817
30
0
41
1
10
-2.19999999999999
20
17.373046254225
30
0
41
1
10
-2.19999999999999
20
17.3365615480365
30
0
41
1
10
-2.19999999999999
20
17.2957083393221
30
0
41
1
10
-2.19999999999999
20
17.2506132986913
30
0
41
1
10
-2.19999999999999
20
17.2146924230801
30
0
41
1
10
-2.19999999999999
20
17.1766986759847
30
0
41
1
10
-2.19999999999999
20
17.1233138560685
30
0
41
1
10
-2.19999999999999
20
17.0658713749173
30
0
41
1
10
-2.19999999999999
20
17.0044820563696
30
0
41
1
10
-2.19999999999999
20
16.9404819965209
30
0
41
1
10
-2.19999999999999
20
16.8725984751516
30
0
41
1
10
-2.19999999999999
20
16.8009296734765
30
0
41
1
10
-2.19999999999999
20
16.72675615712
30
0
41
1
10
-2.19999999999999
20
16.6488472996884
30
0
41
1
10
-2.19999999999999
20
16.5672977573629
30
0
41
1
10
-2.19999999999999
20
16.5043209819811
30
0
41
1
10
-2.19999999999999
20
16.4395493732765
30
0
41
1
10
-2.19999999999999
20
16.3729983406747
30
0
41
1
10
-2.19999999999999
20
16.3046816133433
30
0
41
1
10
-2.19999999999999
20
16.2346146587631
30
0
41
1
10
-2.19999999999999
20
16.1628111167189
30
0
41
1
10
-2.19999999999999
20
16.0647793469533
30
0
41
1
10
-2.19999999999999
20
15.9633134995801
30
0
41
1
10
-2.19999999999999
20
15.8584913887799
30
0
41
1
10
-2.19999999999999
20
15.7781982427732
30
0
41
1
10
-2.19999999999999
20
15.6962433497342
30
0
41
1
10
-2.19999999999999
20
15.5847743861311
30
0
41
1
10
-2.19999999999999
20
15.4700110710185
30
0
41
1
10
-2.19999999999999
20
15.3520264687641
30
0
41
1
10
-2.19999999999999
20
15.2619258251736
30
0
41
1
10
-2.19999999999999
20
15.1702262286607
30
0
41
1
10
-2.19999999999999
20
15.0458463802595
30
0
41
1
10
-2.19999999999999
20
14.9182892137509
30
0
41
1
10
-2.19999999999999
20
14.7876243835494
30
0
41
1
10
-2.19999999999999
20
14.6880675684927
30
0
41
1
10
-2.19999999999999
20
14.5869647024964
30
0
41
1
10
-2.19999999999999
20
14.4501162009323
30
0
41
1
10
-2.19999999999999
20
14.310188578504
30
0
41
1
10
-2.19999999999999
20
14.1672492498436
30
0
41
1
10
-2.19999999999999
20
14.0585319196999
30
0
41
1
10
-2.19999999999999
20
13.9483131149779
30
0
41
1
10
-2.19999999999999
20
13.7993681823229
30
0
41
1
10
-2.19999999999999
20
13.6474264445926
30
0
41
1
10
-2.19999999999999
20
13.4925540283558
30
0
41
1
10
-2.19999999999999
20
13.3749248852381
30
0
41
1
10
-2.19999999999999
20
13.2558316845062
30
0
41
1
10
-2.19999999999999
20
13.0951031858018
30
0
41
1
10
-2.19999999999999
20
12.9314463879873
30
0
41
1
10
-2.19999999999999
20
12.7649271524075
30
0
41
1
10
-2.19999999999999
20
12.6385945304865
30
0
41
1
10
-2.19999999999999
20
12.510828990928
30
0
41
1
10
-2.19999999999999
20
12.3385783725546
30
0
41
1
10
-2.19999999999999
20
12.1634558634281
30
0
41
1
10
-2.19999999999999
20
11.9855279960913
30
0
41
1
10
-2.19999999999999
20
11.8057193844339
30
0
41
1
10
-2.19999999999999
20
11.5774197426994
30
0
41
1
10
-2.19999999999999
20
11.3444552561941
30
0
41
1
10
-2.19999999999999
20
11.1553144466797
30
0
41
1
10
-2.19999999999999
20
10.96432157968
30
0
41
1
10
-2.19999999999999
20
10.7705258372791
30
0
41
1
10
-2.19999999999999
20
10.5740001677826
30
0
41
1
10
-2.19999999999999
20
10.4252200954492
30
0
41
1
10
-2.19999999999999
20
10.2750653600417
30
0
41
1
10
-2.19999999999999
20
10.1235384488298
30
0
41
1
10
-2.19999999999999
20
9.9706412292081
30
0
41
1
10
-2.19999999999999
20
9.76496631801302
30
0
41
1
10
-2.19999999999999
20
9.50443392738597
30
0
41
1
10
-2.19999999999999
20
9.23936570098886
30
0
41
1
10
-2.19999999999999
20
9.02461799380217
30
0
41
1
10
-2.19999999999999
20
8.86219304475887
30
0
41
1
10
-2.19999999999999
20
8.69841428000512
30
0
41
1
10
-2.19999999999999
20
8.53328405958746
30
0
41
1
10
-2.19999999999999
20
8.36680339868337
30
0
41
1
10
-2.19999999999999
20
8.14304412571011
30
0
41
1
10
-2.19999999999999
20
7.85994707617317
30
0
41
1
10
-2.19999999999999
20
7.51487111531026
30
0
41
1
10
-2.19999999999999
20
7.22282329277962
30
0
41
1
10
-2.19999999999999
20
6.98653548716825
30
0
41
1
10
-2.19999999999999
20
6.80797157864473
30
0
41
1
10
-2.19999999999999
20
6.62807270531454
30
0
41
1
10
-2.19999999999999
20
6.44684086969582
30
0
41
1
10
-2.19999999999999
20
6.26427776637016
30
0
41
1
10
-2.19999999999999
20
6.0803858592752
30
0
41
1
10
-2.19999999999999
20
5.89516728223867
30
0
41
1
10
-2.19999999999999
20
5.70862469092603
30
0
41
1
10
-2.19999999999999
20
5.52076103085633
30
0
41
1
10
-2.19999999999999
20
5.33157993388585
30
0
41
1
10
-2.19999999999999
20
5.14108511996025
30
0
41
1
10
-2.19999999999999
20
4.94928086714648
30
0
41
1
10
-2.19999999999999
20
4.75617251627347
30
0
41
1
10
-2.19999999999999
20
4.56176620564526
30
0
41
1
10
-2.19999999999999
20
4.36606873641344
30
0
41
1
10
-2.19999999999999
20
4.16908849962459
30
0
41
1
10
-2.19999999999999
20
4.00386590607064
30
0
41
1
10
-2.19999999999999
20
3.87107810854147
30
0
41
1
10
-2.19999999999999
20
3.7711641857039
30
0
41
1
10
-2.19999999999999
20
3.67093805129474
30
0
41
1
10
-2.19999999999999
20
3.5369018254882
30
0
41
1
10
-2.19999999999999
20
3.36855658184021
30
0
41
1
10
-2.19999999999999
20
3.19919951970698
30
0
41
1
10
-2.19999999999999
20
3.06314133422208
30
0
41
1
10
-2.19999999999999
20
2.96079189341756
30
0
41
1
10
-2.19999999999999
20
2.85815023786418
30
0
41
1
10
-2.19999999999999
20
2.75522026664271
30
0
41
1
10
-2.19999999999999
20
2.65200561172494
30
0
41
1
10
-2.19999999999999
20
2.51402705629772
30
0
41
1
10
-2.19999999999999
20
2.375450816946
30
0
41
1
10
-2.19999999999999
20
2.23639085040648
30
0
41
1
10
-2.19999999999999
20
2.13182395998015
30
0
41
1
10
-2.19999999999999
20
2.02700348752293
30
0
41
1
10
-2.19999999999999
20
1.92193653735015
30
0
41
1
10
-2.19999999999999
20
1.81663008016324
30
0
41
1
10
-2.19999999999999
20
1.71109231328518
30
0
41
1
10
-2.19999999999999
20
1.60533155404698
30
0
41
1
10
-2.19999999999999
20
1.49935698477981
30
0
41
1
10
-2.19999999999999
20
1.39317847233161
30
0
41
1
10
-2.19999999999999
20
1.28680633401083
30
0
41
1
10
-2.19999999999999
20
1.18025197439016
30
0
41
1
10
-2.19999999999999
20
1.073527020087
30
0
41
1
10
-2.19999999999999
20
0.96664434311532
30
0
41
1
10
-2.19999999999999
20
0.859616995486334
30
0
41
1
10
-2.19999999999999
20
0.752459219961509
30
0
41
1
10
-2.19999999999999
20
0.6451854537342
30
0
41
1
10
-2.19999999999999
20
0.537811163545626
30
0
41
1
10
-2.19999999999999
20
0.430352024765995
30
0
41
1
10
-2.19999999999999
20
0.322824496958617
30
0
41
1
10
-2.19999999999999
20
0.215245213108545
30
0
41
1
10
-2.19999999999999
20
0.107631302158183
30
0
41
1
10
-2.19999999999999
20
-5.9909553E-09
30
0
41
1
10
-2.19999999999999
20
-0.107631313716837
30
0
41
1
10
-2.19999999999999
20
-0.21524522393176
30
0
41
1
10
-2.19999999999999
20
-0.322824507999513
30
0
41
1
10
-2.19999999999999
20
-0.430352036900842
30
0
41
1
10
-2.19999999999999
20
-0.537811175438549
30
0
41
1
10
-2.19999999999999
20
-0.645185463980482
30
0
41
1
10
-2.19999999999999
20
-0.752459230354134
30
0
41
1
10
-2.19999999999999
20
-0.859617007920491
30
0
41
1
10
-2.19999999999999
20
-0.966644355262389
30
0
41
1
10
-2.19999999999999
20
-1.07352702949097
30
0
41
1
10
-2.19999999999999
20
-1.18025198377217
30
0
41
1
10
-2.19999999999999
20
-1.2868063464968
30
0
41
1
10
-2.19999999999999
20
-1.39317848503856
30
0
41
1
10
-2.19999999999999
20
-1.49935699380708
30
0
41
1
10
-2.19999999999999
20
-1.60533156181745
30
0
41
1
10
-2.19999999999999
20
-1.71109232444704
30
0
41
1
10
-2.19999999999999
20
-1.81663009373557
30
0
41
1
10
-2.19999999999999
20
-1.92193654804359
30
0
41
1
10
-2.19999999999999
20
-2.02700349385552
30
0
41
1
10
-2.19999999999999
20
-2.13182396747069
30
0
41
1
10
-2.19999999999999
20
-2.23639086291988
30
0
41
1
10
-2.19999999999999
20
-2.34069812940876
30
0
41
1
10
-2.19999999999999
20
-2.44473977839388
30
0
41
1
10
-2.19999999999999
20
-2.54851063247165
30
0
41
1
10
-2.19999999999999
20
-2.65200559968281
30
0
41
1
10
-2.19999999999999
20
-2.78960994504098
30
0
41
1
10
-2.19999999999999
20
-2.92668912429065
30
0
41
1
10
-2.19999999999999
20
-3.06314133551615
30
0
41
1
10
-2.19999999999999
20
-3.19919952332836
30
0
41
1
10
-2.19999999999999
20
-3.36855659963138
30
0
41
1
10
-2.19999999999999
20
-3.53690183437428
30
0
41
1
10
-2.19999999999999
20
-3.67093805397229
30
0
41
1
10
-2.19999999999999
20
-3.77116418775421
30
0
41
1
10
-2.19999999999999
20
-3.87107811616195
30
0
41
1
10
-2.19999999999999
20
-4.00386592221614
30
0
41
1
10
-2.19999999999999
20
-4.169088511784
30
0
41
1
10
-2.19999999999999
20
-4.36606871643775
30
0
41
1
10
-2.19999999999999
20
-4.56176617271481
30
0
41
1
10
-2.19999999999999
20
-4.75617249379653
30
0
41
1
10
-2.19999999999999
20
-4.94928076863457
30
0
41
1
10
-2.19999999999999
20
-5.14108500618136
30
0
41
1
10
-2.19999999999999
20
-5.33157993903225
30
0
41
1
10
-2.19999999999999
20
-5.52076102284181
30
0
41
1
10
-2.19999999999999
20
-5.70862461825791
30
0
41
1
10
-2.19999999999999
20
-5.89516734859464
30
0
41
1
10
-2.19999999999999
20
-6.0803860968085
30
0
41
1
10
-2.20000000000002
20
-6.26427796235188
30
0
41
1
10
-2.20000000000002
20
-6.44684092947378
30
0
41
1
10
-2.20000000000002
20
-6.6280727178615
30
0
41
1
10
-2.20000000000002
20
-6.80797159432129
30
0
41
1
10
-2.20000000000002
20
-6.98653550324826
30
0
41
1
10
-2.20000000000002
20
-7.22282328452872
30
0
41
1
10
-2.20000000000002
20
-7.51487112820209
30
0
41
1
10
-2.20000000000002
20
-7.85994708827315
30
0
41
1
10
-2.20000000000002
20
-8.14304411844034
30
0
41
1
10
-2.20000000000002
20
-8.36680341033821
30
0
41
1
10
-2.20000000000002
20
-8.53328407858575
30
0
41
1
10
-2.20000000000002
20
-8.69841428877766
30
0
41
1
10
-2.20000000000002
20
-8.86219304073114
30
0
41
1
10
-2.20000000000002
20
-9.02461799205523
30
0
41
1
10
-2.20000000000002
20
-9.23936571773672
30
0
41
1
10
-2.20000000000002
20
-9.50443394039922
30
0
41
1
10
-2.20000000000002
20
-9.76496631110049
30
0
41
1
10
-2.20000000000002
20
-9.97064123613964
30
0
41
1
10
-2.20000000000002
20
-10.123538466054
30
0
41
1
10
-2.20000000000002
20
-10.2750653748105
30
0
41
1
10
-2.20000000000002
20
-10.4252201002359
30
0
41
1
10
-2.20000000000002
20
-10.5740001651574
30
0
41
1
10
-2.20000000000002
20
-10.7705258416001
30
0
41
1
10
-2.20000000000002
20
-10.9643215989582
30
0
41
1
10
-2.20000000000002
20
-11.1553144582602
30
0
41
1
10
-2.20000000000002
20
-11.3444552554371
30
0
41
1
10
-2.20000000000002
20
-11.5774197477568
30
0
41
1
10
-2.20000000000002
20
-11.8057194023465
30
0
41
1
10
-2.20000000000002
20
-11.9855280067157
30
0
41
1
10
-2.20000000000002
20
-12.1634558646821
30
0
41
1
10
-2.20000000000002
20
-12.3385783781737
30
0
41
1
10
-2.20000000000002
20
-12.510829004708
30
0
41
1
10
-2.20000000000002
20
-12.6385945454976
30
0
41
1
10
-2.20000000000002
20
-12.7649271637091
30
0
41
1
10
-2.20000000000002
20
-12.9314463925932
30
0
41
1
10
-2.20000000000002
20
-13.0951031927999
30
0
41
1
10
-2.20000000000002
20
-13.2558316973182
30
0
41
1
10
-2.20000000000002
20
-13.3749248996582
30
0
41
1
10
-2.20000000000002
20
-13.4925540411334
30
0
41
1
10
-2.20000000000002
20
-13.6474264531923
30
0
41
1
10
-2.20000000000002
20
-13.7993681905533
30
0
41
1
10
-2.20000000000002
20
-13.9483131264862
30
0
41
1
10
-2.20000000000002
20
-14.0585319334344
30
0
41
1
10
-2.20000000000002
20
-14.1672492642274
30
0
41
1
10
-2.20000000000002
20
-14.3101885914782
30
0
41
1
10
-2.20000000000002
20
-14.4501162106047
30
0
41
1
10
-2.20000000000002
20
-14.5869647126432
30
0
41
1
10
-2.20000000000002
20
-14.6880675812844
30
0
41
1
10
-2.20000000000002
20
-14.7876243995297
30
0
41
1
10
-2.20000000000002
20
-14.9182892218295
30
0
41
1
10
-2.20000000000002
20
-15.0458464314392
30
0
41
1
10
-2.20000000000002
20
-15.1702261509224
30
0
41
1
10
-2.20000000000002
20
-15.2466455133785
30
0
41
1
10
-2.20000000000002
20
-15.3069761679616
30
0
41
1
10
-2.20000000000002
20
-15.3667724139347
30
0
41
1
10
-2.20000000000002
20
-15.4700110929875
30
0
41
1
10
-2.20000000000002
20
-15.5847743990242
30
0
41
1
10
-2.20000000000002
20
-15.6962433571227
30
0
41
1
10
-2.20000000000002
20
-15.7781982539187
30
0
41
1
10
-2.20000000000002
20
-15.8584914079188
30
0
41
1
10
-2.20000000000002
20
-15.9633135259672
30
0
41
1
10
-2.20000000000002
20
-16.0647793597711
30
0
41
1
10
-2.20000000000002
20
-16.1628111223414
30
0
41
1
10
-2.20000000000002
20
-16.2346146707391
30
0
41
1
10
-2.20000000000002
20
-16.3046816359758
30
0
41
1
10
-2.20000000000002
20
-16.3729983688048
30
0
41
1
10
-2.20000000000002
20
-16.439549393056
30
0
41
1
10
-2.20000000000002
20
-16.5043209901434
30
0
41
1
10
-2.20000000000002
20
-16.5672977619412
30
0
41
1
10
-2.20000000000002
20
-16.6488473199257
30
0
41
1
10
-2.20000000000002
20
-16.7267561914694
30
0
41
1
10
-2.20000000000002
20
-16.8009296884544
30
0
41
1
10
-2.20000000000002
20
-16.8725984731112
30
0
41
1
10
-2.20000000000002
20
-16.9404820184079
30
0
41
1
10
-2.20000000000002
20
-17.0044820909957
30
0
41
1
10
-2.20000000000002
20
-17.0658713913631
30
0
41
1
10
-2.20000000000002
20
-17.123313852319
30
0
41
1
10
-2.20000000000002
20
-17.1766986986672
30
0
41
1
10
-2.20000000000002
20
-17.2146924603873
30
0
41
1
10
-2.20000000000002
20
-17.250613323192
30
0
41
1
10
-2.20000000000002
20
-17.2957083328928
30
0
41
1
10
-2.20000000000002
20
-17.3365615705832
30
0
41
1
10
-2.20000000000002
20
-17.3730462873428
30
0
41
1
10
-2.20000000000002
20
-17.398199993695
30
0
41
1
10
-2.20000000000002
20
-17.4211116738093
30
0
41
1
10
-2.20000000000002
20
-17.4417480876219
30
0
41
1
10
-2.20000000000002
20
-17.4600756994924
30
0
41
1
10
-2.20000000000002
20
-17.4760589706817
30
0
41
1
10
-2.20000000000002
20
-17.4896606126054
30
0
41
1
10
-2.20000000000002
20
-17.5008423321234
30
0
41
1
10
-2.20000000000002
20
-17.5092377825963
30
0
41
1
10
-2.20000000000002
20
-17.5132392334167
30
0
41
1
10
-2.19999999999999
20
-17.5147871215539
30
0
0
SPLINE
5
107
100
AcDbEntity
8
SK1
62
256
6
ByLayer
370
18
48
1
60
0
100
AcDbSpline
70
4
71
3
72
24
73
20
40
0
40
0
40
0
40
0
40
0.469770575826712
40
0.469770575826712
40
0.663612078687295
40
0.663612078687295
40
0.860454184613411
40
0.860454184613411
40
0.903064590395674
40
0.903064590395674
40
0.923089343972159
40
0.923089343972159
40
0.943389594779288
40
0.943389594779288
40
0.961332284531898
40
0.961332284531898
40
0.988068136377815
40
0.988068136377815
40
1
40
1
40
1
40
1
41
1
10
-0.199999999999989
20
-6.10344849123027
30
0
41
1
10
-0.199999999999989
20
-5.97798788494984
30
0
41
1
10
-0.204016575726513
20
-5.8509635670122
30
0
41
1
10
-0.223752631922082
20
-5.67079358995508
30
0
41
1
10
-0.231244965282229
20
-5.61789623093799
30
0
41
1
10
-0.253819137983157
20
-5.51250015101135
30
0
41
1
10
-0.267096215270385
20
-5.45724004647028
30
0
41
1
10
-0.303692478692511
20
-5.40035311573845
30
0
41
1
10
-0.311479622041333
20
-5.39039941672755
30
0
41
1
10
-0.32547775761438
20
-5.37891036834915
30
0
41
1
10
-0.330455622185014
20
-5.3756771312581
30
0
41
1
10
-0.341078704143143
20
-5.37102422840917
30
0
41
1
10
-0.346883276538165
20
-5.36960762575521
30
0
41
1
10
-0.357630415747792
20
-5.36914354197148
30
0
41
1
10
-0.362713068049601
20
-5.36981917830482
30
0
41
1
10
-0.37458340180882
20
-5.37316903610403
30
0
41
1
10
-0.3812109954861
20
-5.37664910167555
30
0
41
1
10
-0.38989246528871
20
-5.38265091141974
30
0
41
1
10
-0.392483363308571
20
-5.38466360919151
30
0
41
1
10
-0.394976888875334
20
-5.38678189578178
30
0
0
SPLINE
5
108
100
AcDbEntity
8
SK1
62
256
6
ByLayer
370
18
48
1
60
0
100
AcDbSpline
70
4
71
3
72
22
73
18
40
0
40
0
40
0
40
0
40
0.0260455644157247
40
0.0260455644157247
40
0.0526262165848557
40
0.0526262165848557
40
0.0706056579866929
40
0.0706056579866929
40
0.0884949509195805
40
0.0884949509195805
40
0.11748921873202
40
0.11748921873202
40
0.17459086731972
40
0.17459086731972
40
0.37652425293745
40
0.37652425293745
40
1
40
1
40
1
40
1
41
1
10
-0.394976888872947
20
5.38678223324206
30
0
41
1
10
-0.389612432086409
20
5.38222504185003
30
0
41
1
10
-0.383763200778958
20
5.37811700449893
30
0
41
1
10
-0.3709728888754
20
5.37184824531644
30
0
41
1
10
-0.363785592650885
20
5.36968256852501
30
0
41
1
10
-0.351475656346565
20
5.3691458249703
30
0
41
1
10
-0.346317238365032
20
5.36979468027801
30
0
41
1
10
-0.336550133197363
20
5.3727304206256
30
0
41
1
10
-0.331829865964096
20
5.3750241182685
30
0
41
1
10
-0.320511111438321
20
5.38234306083376
30
0
41
1
10
-0.314321448136155
20
5.3882440687963
30
0
41
1
10
-0.298260159254511
20
5.40702817233921
30
0
41
1
10
-0.290032841564653
20
5.42147709180324
30
0
41
1
10
-0.258449669573651
20
5.48745345024415
30
0
41
1
10
-0.24608390551893
20
5.5434138926733
30
0
41
1
10
-0.204764795451894
20
5.7670899064446
30
0
41
1
10
-0.200000000000358
20
5.93709576978202
30
0
41
1
10
-0.200000000000358
20
6.10344667966001
30
0
0
SPLINE
5
109
100
AcDbEntity
8
SK1
62
256
6
ByLayer
370
18
48
1
60
0
100
AcDbSpline
70
4
71
3
72
107
73
103
40
0
40
0
40
0
40
0
40
0.0027087431772738
40
0.011240678092844
40
0.0197726130084143
40
0.0283045479239846
40
0.0368364828395549
40
0.0453684177551251
40
0.0539003526706954
40
0.0624322875862657
40
0.0709642225018359
40
0.0794961574174062
40
0.0965600272485468
40
0.113623897079687
40
0.130687766910828
40
0.139219701826398
40
0.147751636741968
40
0.156283571657539
40
0.164815506573109
40
0.173347441488679
40
0.18187937640425
40
0.19894324623539
40
0.216007116066531
40
0.224539050982101
40
0.233070985897671
40
0.241602920813241
40
0.250134855728812
40
0.258666790644382
40
0.267198725559952
40
0.284262595391093
40
0.292794530306663
40
0.301326465222233
40
0.318390335053374
40
0.335454204884514
40
0.343986139800085
40
0.352518074715655
40
0.369581944546795
40
0.378113879462366
40
0.386645814377936
40
0.395177749293506
40
0.403709684209077
40
0.420773554040217
40
0.429305488955787
40
0.437837423871358
40
0.446369358786928
40
0.454901293702498
40
0.471965163533639
40
0.480497098449209
40
0.489029033364779
40
0.49756096828035
40
0.50609290319592
40
0.523156773027061
40
0.531688707942631
40
0.540220642858201
40
0.548752577773771
40
0.557284512689342
40
0.574348382520482
40
0.582880317436052
40
0.591412252351623
40
0.595678219809408
40
0.599944187267193
40
0.608476122182763
40
0.625539992013904
40
0.634071926929474
40
0.642603861845044
40
0.651135796760615
40
0.659667731676185
40
0.676731601507325
40
0.685263536422896
40
0.693795471338466
40
0.702327406254036
40
0.710859341169606
40
0.719391276085177
40
0.727923211000747
40
0.736455145916317
40
0.744987080831888
40
0.762050950663028
40
0.770582885578598
40
0.779114820494169
40
0.796178690325309
40
0.80471062524088
40
0.81324256015645
40
0.83030642998759
40
0.838838364903161
40
0.847370299818731
40
0.855902234734301
40
0.864434169649871
40
0.881498039481012
40
0.890029974396582
40
0.898561909312153
40
0.907093844227723
40
0.915625779143293
40
0.924157714058863
40
0.932689648974434
40
0.941221583890004
40
0.949753518805574
40
0.958285453721144
40
0.966817388636715
40
0.975349323552285
40
0.983881258467855
40
0.992413193383425
40
1
40
1
40
1
40
1
41
1
10
-0.394976888875306
20
-5.38678189578289
30
0
41
1
10
-0.394976888875306
20
-5.4065930765673
30
0
41
1
10
-0.394976888875306
20
-5.48871660168982
30
0
41
1
10
-0.394976888875306
20
-5.63252719489225
30
0
41
1
10
-0.394976888875306
20
-5.8174145162354
30
0
41
1
10
-0.394976888875306
20
-6.00101977124669
30
0
41
1
10
-0.394976888875306
20
-6.18333830919048
30
0
41
1
10
-0.394976888875306
20
-6.3643662218949
30
0
41
1
10
-0.394976888875306
20
-6.54409937286439
30
0
41
1
10
-0.394976888875306
20
-6.72253430941348
30
0
41
1
10
-0.394976888875306
20
-6.89966740060396
30
0
41
1
10
-0.394976888875306
20
-7.13420903787926
30
0
41
1
10
-0.394976888875306
20
-7.42389186204957
30
0
41
1
10
-0.394976888875306
20
-7.76637138106327
30
0
41
1
10
-0.394976888875306
20
-8.04728288344245
30
0
41
1
10
-0.394976888875306
20
-8.26952736598562
30
0
41
1
10
-0.394976888875306
20
-8.434820354761
30
0
41
1
10
-0.394976888875306
20
-8.59878513137221
30
0
41
1
10
-0.394976888875306
20
-8.76141979186249
30
0
41
1
10
-0.394976888875306
20
-8.922721214403
30
0
41
1
10
-0.394976888875306
20
-9.1360908691222
30
0
41
1
10
-0.394976888875306
20
-9.39928045092248
30
0
41
1
10
-0.394976888875306
20
-9.65799296546987
30
0
41
1
10
-0.394976888875306
20
-9.86240080704218
30
0
41
1
10
-0.394976888875306
20
-10.0143015815252
30
0
41
1
10
-0.394976888875306
20
-10.1648480067744
30
0
41
1
10
-0.394976888875306
20
-10.3140380843155
30
0
41
1
10
-0.394976888875306
20
-10.4618684189216
30
0
41
1
10
-0.394976888875306
20
-10.6572263081632
30
0
41
1
10
-0.394976888875306
20
-10.8496518506122
30
0
41
1
10
-0.394976888875306
20
-11.0395280782787
30
0
41
1
10
-0.394976888875306
20
-11.2275701299333
30
0
41
1
10
-0.394976888875306
20
-11.4590305143918
30
0
41
1
10
-0.394976888875306
20
-11.685867652055
30
0
41
1
10
-0.394976888875306
20
-11.864654349678
30
0
41
1
10
-0.394976888875306
20
-12.0415756040849
30
0
41
1
10
-0.394976888875306
20
-12.2155153161813
30
0
41
1
10
-0.394976888875306
20
-12.3868007979199
30
0
41
1
10
-0.394976888875306
20
-12.5138050519686
30
0
41
1
10
-0.394976888875306
20
-12.6393872302303
30
0
41
1
10
-0.394976888875306
20
-12.8049814458532
30
0
41
1
10
-0.394976888875306
20
-12.9675509360494
30
0
41
1
10
-0.394976888875306
20
-13.1273919665529
30
0
41
1
10
-0.394976888875306
20
-13.2457849051211
30
0
41
1
10
-0.394976888875306
20
-13.3627236547323
30
0
41
1
10
-0.394976888875306
20
-13.5167448476072
30
0
41
1
10
-0.394976888875306
20
-13.6676860552913
30
0
41
1
10
-0.394976888875306
20
-13.8158144768541
30
0
41
1
10
-0.394976888875306
20
-13.9253889718329
30
0
41
1
10
-0.394976888875306
20
-14.0334711580348
30
0
41
1
10
-0.394976888875306
20
-14.1756274475866
30
0
41
1
10
-0.394976888875306
20
-14.3146351237356
30
0
41
1
10
-0.394976888875306
20
-14.4507333681675
30
0
41
1
10
-0.394976888875306
20
-14.5512443837086
30
0
41
1
10
-0.394976888875306
20
-14.6502180419884
30
0
41
1
10
-0.394976888875306
20
-14.780164253239
30
0
41
1
10
-0.394976888875306
20
-14.9068780878822
30
0
41
1
10
-0.394976888875306
20
-15.0305708978545
30
0
41
1
10
-0.394976888875306
20
-15.1065165223896
30
0
41
1
10
-0.394976888875306
20
-15.1665127141503
30
0
41
1
10
-0.394976888875306
20
-15.2259771214207
30
0
41
1
10
-0.394976888875306
20
-15.3286250474485
30
0
41
1
10
-0.394976888875306
20
-15.4426196109061
30
0
41
1
10
-0.394976888875306
20
-15.5534637367265
30
0
41
1
10
-0.394976888875306
20
-15.6349267624759
30
0
41
1
10
-0.394976888875306
20
-15.7147364921469
30
0
41
1
10
-0.394976888875306
20
-15.8189643831875
30
0
41
1
10
-0.394976888875306
20
-15.9197362187748
30
0
41
1
10
-0.394976888875306
20
-16.0172057969154
30
0
41
1
10
-0.394976888875306
20
-16.0885678110446
30
0
41
1
10
-0.394976888875306
20
-16.1582019472912
30
0
41
1
10
-0.394976888875306
20
-16.2260943811825
30
0
41
1
10
-0.394976888875306
20
-16.2922298358683
30
0
41
1
10
-0.394976888875306
20
-16.3565947902754
30
0
41
1
10
-0.394976888875306
20
-16.4191737297992
30
0
41
1
10
-0.394976888875306
20
-16.5002370830775
30
0
41
1
10
-0.394976888875306
20
-16.5775834628441
30
0
41
1
10
-0.394976888875306
20
-16.6513062771915
30
0
41
1
10
-0.394976888875306
20
-16.7225357579897
30
0
41
1
10
-0.394976888875306
20
-16.7899145981056
30
0
41
1
10
-0.394976888875306
20
-16.8535135500206
30
0
41
1
10
-0.394976888875306
20
-16.9145141001581
30
0
41
1
10
-0.394976888875306
20
-16.9715145305624
30
0
41
1
10
-0.394976888875306
20
-17.024552403858
30
0
41
1
10
-0.394976888875306
20
-17.0622798511847
30
0
41
1
10
-0.394976888875306
20
-17.0979462837243
30
0
41
1
10
-0.394976888875306
20
-17.1427382787905
30
0
41
1
10
-0.394976888875306
20
-17.1832568369982
30
0
41
1
10
-0.394976888875306
20
-17.2194882612007
30
0
41
1
10
-0.394976888875306
20
-17.2444531170066
30
0
41
1
10
-0.394976888875306
20
-17.2671905287463
30
0
41
1
10
-0.394976888875306
20
-17.2876678382251
30
0
41
1
10
-0.394976888875306
20
-17.3058521626298
30
0
41
1
10
-0.394976888875306
20
-17.3217086355548
30
0
41
1
10
-0.394976888875306
20
-17.3352007360526
30
0
41
1
10
-0.394976888875306
20
-17.3462909802274
30
0
41
1
10
-0.394976888875306
20
-17.3549392880652
30
0
41
1
10
-0.394976888875306
20
-17.3611046305144
30
0
41
1
10
-0.394976888875306
20
-17.3647432146661
30
0
41
1
10
-0.394976888875306
20
-17.3658102005923
30
0
41
1
10
-0.394976888875306
20
-17.3643150511117
30
0
41
1
10
-0.394976888875306
20
-17.3617494021862
30
0
41
1
10
-0.394976888875306
20
-17.3601838595972
30
0
0
SPLINE
5
10A
100
AcDbEntity
8
SK1
62
256
6
ByLayer
370
18
48
1
60
0
100
AcDbSpline
70
4
71
3
72
22
73
18
40
0
40
0
40
0
40
0
40
0.359503326352592
40
0.359503326352592
40
0.722215553677066
40
0.722215553677066
40
0.826527133697721
40
0.826527133697721
40
0.863141914878009
40
0.863141914878009
40
0.900378805007221
40
0.900378805007221
40
0.933500873078508
40
0.933500873078508
40
0.972947835056124
40
0.972947835056124
40
1
40
1
40
1
40
1
41
1
10
-1.30710678118655
20
3.91806548153781
30
0
41
1
10
-1.26486058419175
20
4.15139729989579
30
0
41
1
10
-1.21446435132793
20
4.3814323255595
30
0
41
1
10
-1.08204001032738
20
4.82987250608483
30
0
41
1
10
-1.00537527699572
20
5.05527264511531
30
0
41
1
10
-0.832356114396674
20
5.30654108347395
30
0
41
1
10
-0.78723829488635
20
5.36152992388779
30
0
41
1
10
-0.709490490588564
20
5.41877880440927
30
0
41
1
10
-0.687203973712826
20
5.43218986569767
30
0
41
1
10
-0.639076749164019
20
5.45244590583036
30
0
41
1
10
-0.612446414061679
20
5.45928056674788
30
0
41
1
10
-0.562058433231044
20
5.46233960302246
30
0
41
1
10
-0.537713914852588
20
5.45964677314575
30
0
41
1
10
-0.488053852696936
20
5.44628701250068
30
0
41
1
10
-0.462609559288751
20
5.43420976008088
30
0
41
1
10
-0.423860760477311
20
5.40985221311715
30
0
41
1
10
-0.408979654247759
20
5.39867780521598
30
0
41
1
10
-0.394976888875391
20
5.38678223323953
30
0
0
SPLINE
5
10B
100
AcDbEntity
8
SK1
62
256
6
ByLayer
370
18
48
1
60
0
100
AcDbSpline
70
4
71
3
72
10
73
6
40
0
40
0
40
0
40
0
40
0.5
40
0.5
40
1
40
1
40
1
40
1
41
1
10
-1.30710678118655
20
3.91806548153784
30
0
41
1
10
-1.53227959010832
20
2.67440369212437
30
0
41
1
10
-1.71681589069689
20
1.34075776539186
30
0
41
1
10
-1.71598271729604
20
-1.35050010337164
30
0
41
1
10
-1.53230696904976
20
-2.67425240209695
30
0
41
1
10
-1.30710678118655
20
-3.91806548057698
30
0
0
SPLINE
5
10C
100
AcDbEntity
8
SK1
62
256
6
ByLayer
370
18
48
1
60
0
100
AcDbSpline
70
4
71
3
72
288
73
284
40
0
40
0
40
0
40
0
40
0.0022851700047687
40
0.0057902105903437
40
0.0092952511759185
40
0.0128002917614935
40
0.0163053323470685
40
0.0198103729326434
40
0.0233154135182183
40
0.0268204541037932
40
0.0303254946893681
40
0.0338305352749431
40
0.0373355758605181
40
0.040840616446093
40
0.0443456570316679
40
0.0513557382028178
40
0.0548607787883927
40
0.0583658193739676
40
0.0618708599595426
40
0.0653759005451175
40
0.0723859817162674
40
0.0758910223018423
40
0.0793960628874173
40
0.0864061440585671
40
0.089911184644142
40
0.0934162252297169
40
0.100426306400867
40
0.103931346986442
40
0.107436387572017
40
0.110941428157592
40
0.114446468743167
40
0.117951509328742
40
0.121456549914316
40
0.124961590499891
40
0.128466631085466
40
0.135476712256616
40
0.138981752842191
40
0.142486793427766
40
0.145991834013341
40
0.149496874598916
40
0.156506955770066
40
0.160011996355641
40
0.163517036941216
40
0.167022077526791
40
0.170527118112366
40
0.177537199283515
40
0.18104223986909
40
0.184547280454665
40
0.18805232104024
40
0.191557361625815
40
0.198567442796965
40
0.20207248338254
40
0.205577523968115
40
0.20908256455369
40
0.212587605139265
40
0.219597686310415
40
0.22310272689599
40
0.226607767481564
40
0.230112808067139
40
0.233617848652714
40
0.240627929823864
40
0.244132970409439
40
0.247638010995014
40
0.251143051580589
40
0.254648092166164
40
0.261658173337314
40
0.265163213922889
40
0.268668254508464
40
0.275678335679613
40
0.282688416850763
40
0.286193457436338
40
0.289698498021913
40
0.296708579193063
40
0.300213619778638
40
0.303718660364213
40
0.307223700949788
40
0.310728741535363
40
0.314233782120938
40
0.317738822706513
40
0.324748903877662
40
0.331758985048812
40
0.335264025634387
40
0.338769066219962
40
0.342274106805537
40
0.345779147391112
40
0.349284187976687
40
0.352789228562262
40
0.359799309733412
40
0.366809390904562
40
0.373819472075711
40
0.377324512661287
40
0.380829553246862
40
0.384334593832436
40
0.387839634418011
40
0.391344675003586
40
0.394849715589161
40
0.398354756174736
40
0.401859796760311
40
0.405364837345886
40
0.408869877931461
40
0.412374918517036
40
0.415879959102611
40
0.419384999688186
40
0.42289004027376
40
0.426395080859336
40
0.429900121444911
40
0.433405162030485
40
0.435157682323273
40
0.43691020261606
40
0.438662722908848
40
0.440415243201635
40
0.44392028378721
40
0.447425324372785
40
0.449177844665573
40
0.45093036495836
40
0.452682885251148
40
0.454435405543935
40
0.456187925836723
40
0.45794044612951
40
0.461445486715085
40
0.463198007007872
40
0.46495052730066
40
0.466703047593447
40
0.468455567886235
40
0.470208088179022
40
0.47196060847181
40
0.473713128764597
40
0.475465649057385
40
0.477218169350172
40
0.47897068964296
40
0.480723209935747
40
0.482475730228534
40
0.484228250521322
40
0.485980770814109
40
0.487733291106897
40
0.489485811399684
40
0.491238331692472
40
0.492990851985259
40
0.494743372278047
40
0.496495892570834
40
0.498248412863622
40
0.500000933156409
40
0.501753453449197
40
0.503505973741984
40
0.505258494034772
40
0.507011014327559
40
0.508763534620346
40
0.510516054913134
40
0.512268575205921
40
0.514021095498709
40
0.515773615791496
40
0.517526136084284
40
0.519278656377071
40
0.521031176669859
40
0.522783696962646
40
0.524536217255434
40
0.526288737548221
40
0.528041257841009
40
0.529793778133796
40
0.531546298426583
40
0.533298818719371
40
0.535051339012159
40
0.536803859304946
40
0.538556379597733
40
0.540308899890521
40
0.542061420183308
40
0.543813940476096
40
0.545566460768883
40
0.549071501354458
40
0.550824021647246
40
0.552576541940033
40
0.556081582525608
40
0.559586623111183
40
0.561339143403971
40
0.563091663696758
40
0.564844183989545
40
0.566596704282333
40
0.570101744867908
40
0.573606785453483
40
0.577111826039058
40
0.580616866624632
40
0.584121907210207
40
0.587626947795783
40
0.591131988381357
40
0.594637028966932
40
0.598142069552507
40
0.601647110138082
40
0.605152150723657
40
0.608657191309232
40
0.612162231894807
40
0.615667272480382
40
0.619172313065957
40
0.622677353651532
40
0.626182394237107
40
0.633192475408256
40
0.640202556579407
40
0.647212637750556
40
0.650717678336131
40
0.654222718921706
40
0.657727759507281
40
0.661232800092856
40
0.664737840678431
40
0.668242881264006
40
0.675252962435156
40
0.682263043606306
40
0.68576808419188
40
0.689273124777456
40
0.69277816536303
40
0.696283205948605
40
0.69978824653418
40
0.703293287119755
40
0.710303368290905
40
0.71380840887648
40
0.717313449462055
40
0.724323530633205
40
0.731333611804355
40
0.734838652389929
40
0.738343692975504
40
0.745353774146654
40
0.748858814732229
40
0.752363855317804
40
0.755868895903379
40
0.759373936488954
40
0.766384017660104
40
0.769889058245679
40
0.773394098831254
40
0.776899139416829
40
0.780404180002404
40
0.787414261173554
40
0.790919301759128
40
0.794424342344703
40
0.797929382930278
40
0.801434423515853
40
0.808444504687003
40
0.811949545272578
40
0.815454585858153
40
0.818959626443728
40
0.822464667029303
40
0.829474748200453
40
0.832979788786028
40
0.836484829371603
40
0.83823734966439
40
0.839989869957178
40
0.843494910542752
40
0.850504991713902
40
0.854010032299477
40
0.857515072885052
40
0.861020113470627
40
0.864525154056202
40
0.871535235227352
40
0.875040275812927
40
0.878545316398502
40
0.882050356984077
40
0.885555397569652
40
0.889060438155227
40
0.892565478740801
40
0.896070519326376
40
0.899575559911951
40
0.906585641083101
40
0.910090681668676
40
0.913595722254251
40
0.920605803425401
40
0.924110844010976
40
0.927615884596551
40
0.934625965767701
40
0.938131006353276
40
0.94163604693885
40
0.945141087524425
40
0.948646128110001
40
0.95565620928115
40
0.959161249866725
40
0.9626662904523
40
0.966171331037875
40
0.96967637162345
40
0.973181412209025
40
0.9766864527946
40
0.980191493380175
40
0.98369653396575
40
0.987201574551325
40
0.9907066151369
40
0.994211655722474
40
0.997716696308049
40
1
40
1
40
1
40
1
41
1
10
-30
20
15.9926656510289
30
0
41
1
10
-30
20
15.9930574949389
30
0
41
1
10
-30
20
15.9936130058326
30
0
41
1
10
-30
20
15.992743696334
30
0
41
1
10
-30
20
15.9893850921089
30
0
41
1
10
-30
20
15.9836860314146
30
0
41
1
10
-30
20
15.9756808210229
30
0
41
1
10
-30
20
15.9654018084482
30
0
41
1
10
-30
20
15.9528811264941
30
0
41
1
10
-30
20
15.9381491278438
30
0
41
1
10
-30
20
15.9212355486336
30
0
41
1
10
-30
20
15.9021692443495
30
0
41
1
10
-30
20
15.8809772874924
30
0
41
1
10
-30
20
15.85768719628
30
0
41
1
10
-30
20
15.8237020449635
30
0
41
1
10
-30
20
15.786151572388
30
0
41
1
10
-30
20
15.7440467976174
30
0
41
1
10
-30
20
15.7106366986068
30
0
41
1
10
-30
20
15.6752710038507
30
0
41
1
10
-30
20
15.6253102414824
30
0
41
1
10
-30
20
15.5722298833997
30
0
41
1
10
-30
20
15.5146768571488
30
0
41
1
10
-30
20
15.454635155867
30
0
41
1
10
-30
20
15.3917322415495
30
0
41
1
10
-30
20
15.3243986601424
30
0
41
1
10
-30
20
15.2546726017927
30
0
41
1
10
-30
20
15.1823145630236
30
0
41
1
10
-30
20
15.1055630554725
30
0
41
1
10
-30
20
15.0465122402176
30
0
41
1
10
-30
20
14.9857535165871
30
0
41
1
10
-30
20
14.9233034368069
30
0
41
1
10
-30
20
14.8591738020486
30
0
41
1
10
-30
20
14.7933781380804
30
0
41
1
10
-30
20
14.7259318150055
30
0
41
1
10
-30
20
14.6334478809414
30
0
41
1
10
-30
20
14.5388306139923
30
0
41
1
10
-30
20
14.4398724968666
30
0
41
1
10
-30
20
14.3643499358608
30
0
41
1
10
-30
20
14.2872489988172
30
0
41
1
10
-30
20
14.1819460940194
30
0
41
1
10
-30
20
14.0747689624993
30
0
41
1
10
-30
20
13.9632604256822
30
0
41
1
10
-30
20
13.8784200007502
30
0
41
1
10
-30
20
13.7920640526129
30
0
41
1
10
-30
20
13.674463030797
30
0
41
1
10
-30
20
13.5552283874056
30
0
41
1
10
-30
20
13.4316550911985
30
0
41
1
10
-30
20
13.3378530670951
30
0
41
1
10
-30
20
13.2425907988595
30
0
41
1
10
-30
20
13.1131460860381
30
0
41
1
10
-30
20
12.9822967545724
30
0
41
1
10
-30
20
12.847084683004
30
0
41
1
10
-30
20
12.7446351532221
30
0
41
1
10
-30
20
12.6407746180399
30
0
41
1
10
-30
20
12.499887311655
30
0
41
1
10
-30
20
12.3578191289812
30
0
41
1
10
-30
20
12.2113468162578
30
0
41
1
10
-30
20
12.100530667573
30
0
41
1
10
-30
20
11.9883478761208
30
0
41
1
10
-30
20
11.836377249174
30
0
41
1
10
-30
20
11.6834503922585
30
0
41
1
10
-30
20
11.5260594948949
30
0
41
1
10
-30
20
11.407132436675
30
0
41
1
10
-30
20
11.2868794886981
30
0
41
1
10
-30
20
11.1241532157818
30
0
41
1
10
-30
20
10.9607029988619
30
0
41
1
10
-30
20
10.7927086404326
30
0
41
1
10
-30
20
10.6229844866849
30
0
41
1
10
-30
20
10.4091173939315
30
0
41
1
10
-30
20
10.1909959678347
30
0
41
1
10
-30
20
10.0126979588287
30
0
41
1
10
-30
20
9.83272430289387
30
0
41
1
10
-30
20
9.65245023276202
30
0
41
1
10
-30
20
9.46744871362012
30
0
41
1
10
-30
20
9.32804093460695
30
0
41
1
10
-30
20
9.18740563851227
30
0
41
1
10
-30
20
9.04555437859216
30
0
41
1
10
-30
20
8.90249044231985
30
0
41
1
10
-30
20
8.70931958714525
30
0
41
1
10
-30
20
8.46674616603485
30
0
41
1
10
-30
20
8.2202168629417
30
0
41
1
10
-30
20
8.0190683664558
30
0
41
1
10
-30
20
7.86773085832672
30
0
41
1
10
-30
20
7.71524241280145
30
0
41
1
10
-30
20
7.56161298420648
30
0
41
1
10
-30
20
7.40685260452801
30
0
41
1
10
-30
20
7.19804202206527
30
0
41
1
10
-30
20
6.93651252502838
30
0
41
1
10
-30
20
6.61705894701075
30
0
41
1
10
-30
20
6.34834996432818
30
0
41
1
10
-30
20
6.12929373929518
30
0
41
1
10
-30
20
5.9648494511537
30
0
41
1
10
-30
20
5.79939743818983
30
0
41
1
10
-30
20
5.63295542814626
30
0
41
1
10
-30
20
5.4655408318975
30
0
41
1
10
-30
20
5.29717335727503
30
0
41
1
10
-30
20
5.1278759130733
30
0
41
1
10
-30
20
4.95767063849863
30
0
41
1
10
-30
20
4.78658071628465
30
0
41
1
10
-30
20
4.61463355062486
30
0
41
1
10
-30
20
4.44186113006072
30
0
41
1
10
-30
20
4.26829321973952
30
0
41
1
10
-30
20
4.09396155182324
30
0
41
1
10
-30
20
3.91890592173871
30
0
41
1
10
-30
20
3.74316620306939
30
0
41
1
10
-30
20
3.56678705857652
30
0
41
1
10
-30
20
3.42015123791839
30
0
41
1
10
-30
20
3.30098109847953
30
0
41
1
10
-30
20
3.21216327477836
30
0
41
1
10
-30
20
3.12322377081895
30
0
41
1
10
-30
20
3.00356413190354
30
0
41
1
10
-30
20
2.85589664233004
30
0
41
1
10
-30
20
2.70788037697059
30
0
41
1
10
-30
20
2.58749550859636
30
0
41
1
10
-30
20
2.49793822974368
30
0
41
1
10
-30
20
2.40833000131909
30
0
41
1
10
-30
20
2.31867596083529
30
0
41
1
10
-30
20
2.22899146909504
30
0
41
1
10
-30
20
2.10827328924759
30
0
41
1
10
-30
20
1.99097459417123
30
0
41
1
10
-30
20
1.8701246771499
30
0
41
1
10
-30
20
1.7804303168304
30
0
41
1
10
-30
20
1.69076251244056
30
0
41
1
10
-30
20
1.60113247848608
30
0
41
1
10
-30
20
1.51155313609786
30
0
41
1
10
-30
20
1.42202575772706
30
0
41
1
10
-30
20
1.33256776537962
30
0
41
1
10
-30
20
1.24317741509077
30
0
41
1
10
-30
20
1.15386860885195
30
0
41
1
10
-30
20
1.0646401367365
30
0
41
1
10
-30
20
0.975500136218301
30
0
41
1
10
-30
20
0.886447988926875
30
0
41
1
10
-30
20
0.797485776681185
30
0
41
1
10
-30
20
0.708610852102652
30
0
41
1
10
-30
20
0.619820737442808
30
0
41
1
10
-30
20
0.531109764951282
30
0
41
1
10
-30
20
0.442471434007672
30
0
41
1
10
-30
20
0.353896007963499
30
0
41
1
10
-30
20
0.26537387921428
30
0
41
1
10
-30
20
0.17689237169219
30
0
41
1
10
-30
20
0.0884392148654172
30
0
41
1
10
-30
20
2.04974242E-08
30
0
41
1
10
-30
20
-0.0884392031952359
30
0
41
1
10
-30
20
-0.176892414719902
30
0
41
1
10
-30
20
-0.265373915570109
30
0
41
1
10
-30
20
-0.353895962579457
30
0
41
1
10
-30
20
-0.442471374506795
30
0
41
1
10
-30
20
-0.531109813902617
30
0
41
1
10
-30
20
-0.619820822982092
30
0
41
1
10
-30
20
-0.708610806550041
30
0
41
1
10
-30
20
-0.797485667180126
30
0
41
1
10
-30
20
-0.886448026006804
30
0
41
1
10
-30
20
-0.975500272783734
30
0
41
1
10
-30
20
-1.06464012636246
30
0
41
1
10
-30
20
-1.15386845800864
30
0
41
1
10
-30
20
-1.24317738635403
30
0
41
1
10
-30
20
-1.33256791795023
30
0
41
1
10
-30
20
-1.42202585063242
30
0
41
1
10
-30
20
-1.51155302070467
30
0
41
1
10
-30
20
-1.60113232466111
30
0
41
1
10
-30
20
-1.69076256252151
30
0
41
1
10
-30
20
-1.78043050963586
30
0
41
1
10
-30
20
-1.87012473193454
30
0
41
1
10
-30
20
-1.95984062320622
30
0
41
1
10
-30
20
-2.04956121840732
30
0
41
1
10
-30
20
-2.13928298465066
30
0
41
1
10
-30
20
-2.22899154181982
30
0
41
1
10
-30
20
-2.34971237639809
30
0
41
1
10
-30
20
-2.46705810448157
30
0
41
1
10
-30
20
-2.58749567267537
30
0
41
1
10
-30
20
-2.7078805675516
30
0
41
1
10
-30
20
-2.85589666602095
30
0
41
1
10
-30
20
-3.00356394920897
30
0
41
1
10
-30
20
-3.12322374659232
30
0
41
1
10
-30
20
-3.21216341650839
30
0
41
1
10
-30
20
-3.30098129392067
30
0
41
1
10
-30
20
-3.42015124315617
30
0
41
1
10
-30
20
-3.56678672363674
30
0
41
1
10
-30
20
-3.74316585626096
30
0
41
1
10
-30
20
-3.91890584757374
30
0
41
1
10
-30
20
-4.09396100129442
30
0
41
1
10
-30
20
-4.26829259541549
30
0
41
1
10
-30
20
-4.44186183082064
30
0
41
1
10
-30
20
-4.6146341491438
30
0
41
1
10
-30
20
-4.7865802102549
30
0
41
1
10
-30
20
-4.9576712305628
30
0
41
1
10
-30
20
-5.12787786255657
30
0
41
1
10
-30
20
-5.29717415068041
30
0
41
1
10
-30
20
-5.46553992297873
30
0
41
1
10
-30
20
-5.63295448869488
30
0
41
1
10
-30
20
-5.79939725011724
30
0
41
1
10
-30
20
-5.96484950556558
30
0
41
1
10
-30
20
-6.12929365354827
30
0
41
1
10
-30
20
-6.34834993475849
30
0
41
1
10
-30
20
-6.61705901965067
30
0
41
1
10
-30
20
-6.93651248001376
30
0
41
1
10
-30
20
-7.19804203228605
30
0
41
1
10
-30
20
-7.40685270744592
30
0
41
1
10
-30
20
-7.5616129798685
30
0
41
1
10
-30
20
-7.71524232371229
30
0
41
1
10
-30
20
-7.86773082006809
30
0
41
1
10
-30
20
-8.01906843480589
30
0
41
1
10
-30
20
-8.2202169213561
30
0
41
1
10
-30
20
-8.46674612315104
30
0
41
1
10
-30
20
-8.70931957903707
30
0
41
1
10
-30
20
-8.90249052457435
30
0
41
1
10
-30
20
-9.04555441784279
30
0
41
1
10
-30
20
-9.1874056059394
30
0
41
1
10
-30
20
-9.32804088163149
30
0
41
1
10
-30
20
-9.46744870809559
30
0
41
1
10
-30
20
-9.65245029192153
30
0
41
1
10
-30
20
-9.83272433616028
30
0
41
1
10
-30
20
-10.0126979221092
30
0
41
1
10
-30
20
-10.1909959517429
30
0
41
1
10
-30
20
-10.4091174330404
30
0
41
1
10
-30
20
-10.622984509075
30
0
41
1
10
-30
20
-10.7927086151922
30
0
41
1
10
-30
20
-10.9607029915804
30
0
41
1
10
-30
20
-11.1241532476502
30
0
41
1
10
-30
20
-11.286879520772
30
0
41
1
10
-30
20
-11.4071324437642
30
0
41
1
10
-30
20
-11.526059483736
30
0
41
1
10
-30
20
-11.683450389854
30
0
41
1
10
-30
20
-11.8363772717574
30
0
41
1
10
-30
20
-11.9883479026382
30
0
41
1
10
-30
20
-12.100530681097
30
0
41
1
10
-30
20
-12.2113468177929
30
0
41
1
10
-30
20
-12.3578191303264
30
0
41
1
10
-30
20
-12.4998873251013
30
0
41
1
10
-30
20
-12.640774639564
30
0
41
1
10
-30
20
-12.7446351726737
30
0
41
1
10
-30
20
-12.8470846962098
30
0
41
1
10
-30
20
-12.982296760346
30
0
41
1
10
-30
20
-13.1131460918651
30
0
41
1
10
-30
20
-13.2425908150843
30
0
41
1
10
-30
20
-13.3378530905646
30
0
41
1
10
-30
20
-13.4316551022429
30
0
41
1
10
-30
20
-13.555228443938
30
0
41
1
10
-30
20
-13.6744629632361
30
0
41
1
10
-30
20
-13.7920640428986
30
0
41
1
10
-30
20
-13.863808410054
30
0
41
1
10
-30
20
-13.9208384799595
30
0
41
1
10
-30
20
-13.9773600368973
30
0
41
1
10
-30
20
-14.0747689786766
30
0
41
1
10
-30
20
-14.1819460903517
30
0
41
1
10
-30
20
-14.287249006353
30
0
41
1
10
-30
20
-14.3643499644422
30
0
41
1
10
-30
20
-14.4398725346097
30
0
41
1
10
-30
20
-14.5388306330264
30
0
41
1
10
-30
20
-14.6334478734244
30
0
41
1
10
-30
20
-14.7259318226356
30
0
41
1
10
-30
20
-14.7933781715369
30
0
41
1
10
-30
20
-14.8591738437124
30
0
41
1
10
-30
20
-14.9233034607296
30
0
41
1
10
-30
20
-14.9857535133678
30
0
41
1
10
-30
20
-15.0465122321639
30
0
41
1
10
-30
20
-15.1055630695375
30
0
41
1
10
-30
20
-15.1823146060512
30
0
41
1
10
-30
20
-15.2546726312332
30
0
41
1
10
-30
20
-15.3243986497296
30
0
41
1
10
-30
20
-15.3917322452795
30
0
41
1
10
-30
20
-15.4546352005829
30
0
41
1
10
-30
20
-15.514676887791
30
0
41
1
10
-30
20
-15.5722298782127
30
0
41
1
10
-30
20
-15.6253102421943
30
0
41
1
10
-30
20
-15.6752710489662
30
0
41
1
10
-30
20
-15.7106367362117
30
0
41
1
10
-30
20
-15.7440468008704
30
0
41
1
10
-30
20
-15.7861515665345
30
0
41
1
10
-30
20
-15.8237020814765
30
0
41
1
10
-30
20
-15.8576872273509
30
0
41
1
10
-30
20
-15.8809772969169
30
0
41
1
10
-30
20
-15.9021692417172
30
0
41
1
10
-30
20
-15.921235563756
30
0
41
1
10
-30
20
-15.9381491696965
30
0
41
1
10
-30
20
-15.9528811556007
30
0
41
1
10
-30
20
-15.9654018081648
30
0
41
1
10
-30
20
-15.97568082013
30
0
41
1
10
-30
20
-15.9836860510364
30
0
41
1
10
-30
20
-15.989385071505
30
0
41
1
10
-30
20
-15.992743547039
30
0
41
1
10
-30
20
-15.9936126248335
30
0
41
1
10
-30
20
-15.9930577000298
30
0
41
1
10
-30
20
-15.9926664886145
30
0
0
SPLINE
5
10D
100
AcDbEntity
8
SK1
62
256
6
ByLayer
370
18
48
1
60
0
100
AcDbSpline
70
4
71
3
72
106
73
102
40
0
40
0
40
0
40
0
40
0.0075864941909255
40
0.0161184319203877
40
0.0246503696498499
40
0.0331823073793121
40
0.0417142451087742
40
0.0502461828382364
40
0.0587781205676986
40
0.0673100582971608
40
0.075841996026623
40
0.0843739337560852
40
0.0929058714855474
40
0.10143780921501
40
0.109969746944472
40
0.118501684673934
40
0.135565560132858
40
0.144097497862321
40
0.152629435591783
40
0.161161373321245
40
0.169693311050707
40
0.186757186509631
40
0.195289124239094
40
0.203821061968556
40
0.22088493742748
40
0.229416875156942
40
0.237948812886405
40
0.255012688345329
40
0.263544626074791
40
0.272076563804253
40
0.280608501533716
40
0.289140439263178
40
0.29767237699264
40
0.306204314722102
40
0.314736252451564
40
0.323268190181026
40
0.340332065639951
40
0.348864003369413
40
0.357395941098875
40
0.365927878828337
40
0.3744598165578
40
0.391523692016724
40
0.400055629746186
40
0.408587567475648
40
0.41711950520511
40
0.425651442934573
40
0.442715318393497
40
0.451247256122959
40
0.459779193852421
40
0.468311131581884
40
0.476843069311346
40
0.49390694477027
40
0.502438882499732
40
0.510970820229194
40
0.519502757958657
40
0.528034695688119
40
0.545098571147043
40
0.553630508876505
40
0.562162446605968
40
0.57069438433543
40
0.579226322064892
40
0.596290197523817
40
0.604822135253279
40
0.613354072982741
40
0.621886010712203
40
0.630417948441665
40
0.64748182390059
40
0.656013761630052
40
0.664545699359514
40
0.681609574818438
40
0.698673450277363
40
0.707205388006825
40
0.715737325736287
40
0.732801201195211
40
0.741333138924674
40
0.749865076654136
40
0.758397014383598
40
0.76692895211306
40
0.775460889842522
40
0.783992827571985
40
0.801056703030909
40
0.818120578489833
40
0.826652516219295
40
0.835184453948758
40
0.84371639167822
40
0.852248329407682
40
0.860780267137144
40
0.869312204866606
40
0.886376080325531
40
0.903439955784455
40
0.920503831243379
40
0.929035768972842
40
0.937567706702304
40
0.946099644431766
40
0.954631582161228
40
0.96316351989069
40
0.971695457620153
40
0.980227395349615
40
0.988759333079077
40
0.997291270808539
40
1
40
1
40
1
40
1
41
1
10
-0.394976888875277
20
17.3601838878914
30
0
41
1
10
-0.394976888875277
20
17.3617494124901
30
0
41
1
10
-0.394976888875277
20
17.3643151423794
30
0
41
1
10
-0.394976888875277
20
17.3658104187982
30
0
41
1
10
-0.394976888875277
20
17.364743357607
30
0
41
1
10
-0.394976888875277
20
17.3611046370287
30
0
41
1
10
-0.394976888875277
20
17.3549392673806
30
0
41
1
10
-0.394976888875277
20
17.3462909837355
30
0
41
1
10
-0.394976888875277
20
17.3352007293143
30
0
41
1
10
-0.394976888875277
20
17.3217086001335
30
0
41
1
10
-0.394976888875277
20
17.3058521283006
30
0
41
1
10
-0.394976888875277
20
17.2876678324761
30
0
41
1
10
-0.394976888875277
20
17.267190526317
30
0
41
1
10
-0.394976888875277
20
17.2444530966284
30
0
41
1
10
-0.394976888875277
20
17.2194882282903
30
0
41
1
10
-0.394976888875277
20
17.1832568130363
30
0
41
1
10
-0.394976888875277
20
17.1427382851614
30
0
41
1
10
-0.394976888875277
20
17.0979462613767
30
0
41
1
10
-0.394976888875277
20
17.0622798138473
30
0
41
1
10
-0.394976888875277
20
17.0245523789023
30
0
41
1
10
-0.394976888875277
20
16.9715145338597
30
0
41
1
10
-0.394976888875277
20
16.9145140859045
30
0
41
1
10
-0.394976888875277
20
16.8535135157982
30
0
41
1
10
-0.394976888875277
20
16.7899145739052
30
0
41
1
10
-0.394976888875277
20
16.7225357594453
30
0
41
1
10
-0.394976888875277
20
16.6513062647865
30
0
41
1
10
-0.394976888875277
20
16.577583428992
30
0
41
1
10
-0.394976888875277
20
16.5002370605308
30
0
41
1
10
-0.394976888875277
20
16.4191737242595
30
0
41
1
10
-0.394976888875277
20
16.3565947837564
30
0
41
1
10
-0.394976888875277
20
16.2922298184193
30
0
41
1
10
-0.394976888875277
20
16.2260943534788
30
0
41
1
10
-0.394976888875277
20
16.1582019227301
30
0
41
1
10
-0.394976888875277
20
16.0885677968918
30
0
41
1
10
-0.394976888875277
20
16.0172057910894
30
0
41
1
10
-0.394976888875277
20
15.9197362080175
30
0
41
1
10
-0.394976888875277
20
15.8189643575456
30
0
41
1
10
-0.394976888875277
20
15.7147364711228
30
0
41
1
10
-0.394976888875277
20
15.6349267495635
30
0
41
1
10
-0.394976888875277
20
15.553463729323
30
0
41
1
10
-0.394976888875277
20
15.4426195996911
30
0
41
1
10
-0.394976888875277
20
15.3286250260664
30
0
41
1
10
-0.394976888875277
20
15.2112966721243
30
0
41
1
10
-0.394976888875277
20
15.1217290697223
30
0
41
1
10
-0.394976888875277
20
15.0305709686995
30
0
41
1
10
-0.394976888875277
20
14.906878048735
30
0
41
1
10
-0.394976888875277
20
14.7801642402503
30
0
41
1
10
-0.394976888875277
20
14.6502180265082
30
0
41
1
10
-0.394976888875277
20
14.5512443698349
30
0
41
1
10
-0.394976888875277
20
14.4507333574048
30
0
41
1
10
-0.394976888875277
20
14.3146351144528
30
0
41
1
10
-0.394976888875277
20
14.1756274353422
30
0
41
1
10
-0.394976888875277
20
14.0334711437704
30
0
41
1
10
-0.394976888875277
20
13.9253889575191
30
0
41
1
10
-0.394976888875277
20
13.8158144643309
30
0
41
1
10
-0.394976888875277
20
13.6676860465324
30
0
41
1
10
-0.394976888875277
20
13.5167448397425
30
0
41
1
10
-0.394976888875277
20
13.3627236430939
30
0
41
1
10
-0.394976888875277
20
13.2457848907918
30
0
41
1
10
-0.394976888875277
20
13.127391952352
30
0
41
1
10
-0.394976888875277
20
12.9675509274721
30
0
41
1
10
-0.394976888875277
20
12.8049814419576
30
0
41
1
10
-0.394976888875277
20
12.6393872212047
30
0
41
1
10
-0.394976888875277
20
12.5138050377602
30
0
41
1
10
-0.394976888875277
20
12.3868007822861
30
0
41
1
10
-0.394976888875277
20
12.2155153079022
30
0
41
1
10
-0.394976888875277
20
12.0415756036957
30
0
41
1
10
-0.394976888875277
20
11.8646543426879
30
0
41
1
10
-0.394976888875277
20
11.6858676336886
30
0
41
1
10
-0.394976888875277
20
11.4590305058839
30
0
41
1
10
-0.394976888875277
20
11.2275701322441
30
0
41
1
10
-0.394976888875277
20
11.0395280715927
30
0
41
1
10
-0.394976888875277
20
10.8496518299165
30
0
41
1
10
-0.394976888875277
20
10.6572262982852
30
0
41
1
10
-0.394976888875277
20
10.4618684218406
30
0
41
1
10
-0.394976888875277
20
10.3140380853821
30
0
41
1
10
-0.394976888875277
20
10.1648479968029
30
0
41
1
10
-0.394976888875277
20
10.0143015620689
30
0
41
1
10
-0.394976888875277
20
9.86240079247779
30
0
41
1
10
-0.394976888875277
20
9.65799297250354
30
0
41
1
10
-0.394976888875277
20
9.3992804435735
30
0
41
1
10
-0.394976888875277
20
9.13609084815204
30
0
41
1
10
-0.394976888875277
20
8.92272120904667
30
0
41
1
10
-0.394976888875277
20
8.76141979935898
30
0
41
1
10
-0.394976888875277
20
8.59878513251641
30
0
41
1
10
-0.394976888875277
20
8.43482033812748
30
0
41
1
10
-0.394976888875277
20
8.26952734508268
30
0
41
1
10
-0.394976888875277
20
8.04728288893983
30
0
41
1
10
-0.394976888875277
20
7.76637137475097
30
0
41
1
10
-0.394976888875277
20
7.42389184310318
30
0
41
1
10
-0.394976888875277
20
7.13420904829047
30
0
41
1
10
-0.394976888875277
20
6.89966739484251
30
0
41
1
10
-0.394976888875277
20
6.7225342898117
30
0
41
1
10
-0.394976888875277
20
6.54409938064705
30
0
41
1
10
-0.394976888875277
20
6.36436626337326
30
0
41
1
10
-0.394976888875277
20
6.18333822517317
30
0
41
1
10
-0.394976888875277
20
6.0010194773844
30
0
41
1
10
-0.394976888875277
20
5.81741425905383
30
0
41
1
10
-0.394976888875277
20
5.63252720020009
30
0
41
1
10
-0.394976888875277
20
5.48871675629277
30
0
41
1
10
-0.394976888875277
20
5.40659331253005
30
0
41
1
10
-0.394976888875277
20
5.38678223324203
30
0
0
SPLINE
5
10E
100
AcDbEntity
8
SK1
62
256
6
ByLayer
370
18
48
1
60
0
100
AcDbSpline
70
4
71
3
72
22
73
18
40
0
40
0
40
0
40
0
40
0.0394331151890913
40
0.0394331151890913
40
0.0795339708694829
40
0.0795339708694829
40
0.109637917244288
40
0.109637917244288
40
0.13957706301322
40
0.13957706301322
40
0.189266399657458
40
0.189266399657458
40
0.289571152403382
40
0.289571152403382
40
0.658284396834382
40
0.658284396834382
40
1
40
1
40
1
40
1
41
1
10
-0.394976888875306
20
-5.38678189578292
30
0
41
1
10
-0.415237014773396
20
-5.40399317028476
30
0
41
1
10
-0.437419275645482
20
-5.41977813092004
30
0
41
1
10
-0.486103141154984
20
-5.44521655864725
30
0
41
1
10
-0.51341298093098
20
-5.45496005292577
30
0
41
1
10
-0.562874322366525
20
-5.46212264681108
30
0
41
1
10
-0.585106616517606
20
-5.46199323188387
30
0
41
1
10
-0.627692822126733
20
-5.45533455005088
30
0
41
1
10
-0.648523068172722
20
-5.44883772858989
30
0
41
1
10
-0.699826196362153
20
-5.42613682765011
30
0
41
1
10
-0.728695564403466
20
-5.40623396070797
30
0
41
1
10
-0.806075449923839
20
-5.34007786619352
30
0
41
1
10
-0.847522380016557
20
-5.28655870152033
30
0
41
1
10
-1.01570466784386
20
-5.03084699030373
30
0
41
1
10
-1.09210771407481
20
-4.80149729085085
30
0
41
1
10
-1.21929875138235
20
-4.35887826398974
30
0
41
1
10
-1.26692602208391
20
-4.13998960128646
30
0
41
1
10
-1.30710678118655
20
-3.91806548057696
30
0
0
SPLINE
5
10F
100
AcDbEntity
8
SK1
62
256
6
ByLayer
370
18
48
1
60
0
100
AcDbSpline
70
4
71
3
72
284
73
280
40
0
40
0
40
0
40
0
40
0.0001140986590749
40
0.0036846097572776
40
0.0072551208554802
40
0.0108256319536829
40
0.0143961430518856
40
0.0179666541500883
40
0.021537165248291
40
0.0251076763464937
40
0.0286781874446964
40
0.0322486985428991
40
0.0358192096411017
40
0.0429602318375071
40
0.0465307429357098
40
0.0501012540339125
40
0.0536717651321152
40
0.0572422762303179
40
0.0643832984267232
40
0.0679538095249259
40
0.0715243206231286
40
0.078665342819534
40
0.0822358539177367
40
0.0858063650159394
40
0.0929473872123447
40
0.0965178983105474
40
0.10008840940875
40
0.103658920506953
40
0.107229431605155
40
0.110799942703358
40
0.114370453801561
40
0.117940964899764
40
0.121511475997966
40
0.128652498194372
40
0.132223009292574
40
0.135793520390777
40
0.13936403148898
40
0.142934542587182
40
0.150075564783588
40
0.15364607588179
40
0.157216586979993
40
0.160787098078196
40
0.164357609176398
40
0.171498631372804
40
0.175069142471007
40
0.178639653569209
40
0.182210164667412
40
0.185780675765615
40
0.19292169796202
40
0.196492209060223
40
0.200062720158425
40
0.203633231256628
40
0.207203742354831
40
0.214344764551236
40
0.217915275649439
40
0.221485786747641
40
0.225056297845844
40
0.228626808944047
40
0.235767831140452
40
0.239338342238655
40
0.242908853336858
40
0.24647936443506
40
0.250049875533263
40
0.257190897729668
40
0.260761408827871
40
0.264331919926074
40
0.271472942122479
40
0.278613964318885
40
0.282184475417087
40
0.28575498651529
40
0.292896008711695
40
0.296466519809898
40
0.300037030908101
40
0.303607542006303
40
0.307178053104506
40
0.310748564202709
40
0.314319075300911
40
0.321460097497317
40
0.328601119693722
40
0.332171630791925
40
0.335742141890128
40
0.33931265298833
40
0.342883164086533
40
0.346453675184736
40
0.350024186282938
40
0.357165208479344
40
0.364306230675749
40
0.371447252872154
40
0.375017763970357
40
0.37858827506856
40
0.382158786166762
40
0.385729297264965
40
0.389299808363168
40
0.392870319461371
40
0.396440830559573
40
0.400011341657776
40
0.403581852755979
40
0.407152363854181
40
0.410722874952384
40
0.414293386050587
40
0.417863897148789
40
0.421434408246992
40
0.425004919345195
40
0.428575430443397
40
0.4321459415416
40
0.433931197090701
40
0.435716452639803
40
0.437501708188904
40
0.439286963738005
40
0.442857474836208
40
0.446427985934411
40
0.448213241483512
40
0.449998497032613
40
0.451783752581715
40
0.453569008130816
40
0.455354263679917
40
0.457139519229019
40
0.460710030327222
40
0.462495285876323
40
0.464280541425424
40
0.466065796974525
40
0.467851052523627
40
0.469636308072728
40
0.47142156362183
40
0.473206819170931
40
0.474992074720032
40
0.476777330269134
40
0.478562585818235
40
0.480347841367336
40
0.482133096916438
40
0.483918352465539
40
0.48570360801464
40
0.487488863563742
40
0.489274119112843
40
0.491059374661944
40
0.492844630211046
40
0.494629885760147
40
0.496415141309248
40
0.49820039685835
40
0.499985652407451
40
0.501770907956552
40
0.503556163505654
40
0.505341419054755
40
0.507126674603856
40
0.508911930152958
40
0.510697185702059
40
0.51248244125116
40
0.514267696800262
40
0.516052952349363
40
0.517838207898464
40
0.519623463447566
40
0.521408718996667
40
0.523193974545769
40
0.52497923009487
40
0.526764485643971
40
0.528549741193073
40
0.530334996742174
40
0.532120252291275
40
0.533905507840377
40
0.535690763389478
40
0.537476018938579
40
0.539261274487681
40
0.541046530036782
40
0.542831785585883
40
0.544617041134985
40
0.546402296684086
40
0.549972807782289
40
0.55175806333139
40
0.553543318880491
40
0.557113829978694
40
0.560684341076897
40
0.562469596625998
40
0.564254852175099
40
0.566040107724201
40
0.567825363273302
40
0.571395874371505
40
0.574966385469707
40
0.57853689656791
40
0.582107407666113
40
0.585677918764316
40
0.589248429862518
40
0.592818940960721
40
0.596389452058924
40
0.599959963157126
40
0.603530474255329
40
0.607100985353532
40
0.610671496451734
40
0.614242007549937
40
0.61781251864814
40
0.621383029746342
40
0.624953540844545
40
0.628524051942748
40
0.635665074139153
40
0.642806096335559
40
0.649947118531964
40
0.653517629630167
40
0.657088140728369
40
0.660658651826572
40
0.664229162924775
40
0.667799674022977
40
0.67137018512118
40
0.678511207317585
40
0.685652229513991
40
0.689222740612193
40
0.692793251710396
40
0.696363762808599
40
0.699934273906802
40
0.703504785005004
40
0.707075296103207
40
0.714216318299612
40
0.717786829397815
40
0.721357340496018
40
0.728498362692423
40
0.735639384888828
40
0.739209895987031
40
0.742780407085234
40
0.749921429281639
40
0.753491940379842
40
0.757062451478045
40
0.760632962576247
40
0.76420347367445
40
0.771344495870855
40
0.774915006969058
40
0.778485518067261
40
0.782056029165463
40
0.785626540263666
40
0.792767562460072
40
0.796338073558274
40
0.799908584656477
40
0.803479095754679
40
0.807049606852882
40
0.814190629049288
40
0.81776114014749
40
0.821331651245693
40
0.824902162343896
40
0.828472673442098
40
0.835613695638504
40
0.839184206736706
40
0.842754717834909
40
0.84453997338401
40
0.846325228933112
40
0.849895740031314
40
0.85703676222772
40
0.860607273325922
40
0.864177784424125
40
0.867748295522328
40
0.87131880662053
40
0.878459828816936
40
0.882030339915139
40
0.885600851013341
40
0.889171362111544
40
0.892741873209747
40
0.896312384307949
40
0.899882895406152
40
0.903453406504355
40
0.907023917602557
40
0.914164939798963
40
0.917735450897165
40
0.921305961995368
40
0.928446984191774
40
0.932017495289976
40
0.935588006388179
40
0.942729028584584
40
0.946299539682787
40
0.94987005078099
40
0.953440561879192
40
0.957011072977395
40
0.9641520951738
40
0.967722606272003
40
0.971293117370206
40
0.974863628468408
40
0.978434139566611
40
0.982004650664814
40
0.985575161763016
40
0.989145672861219
40
0.992716183959422
40
0.996286695057625
40
0.999857206155827
40
1
40
1
40
1
40
1
41
1
10
-1.99503997793928
20
17.3206502208889
30
0
41
1
10
-1.99503997793928
20
17.320598979487
30
0
41
1
10
-1.99503997793928
20
17.3189303663646
30
0
41
1
10
-1.99503997793928
20
17.314763700365
30
0
41
1
10
-1.99503997793928
20
17.3061342577567
30
0
41
1
10
-1.99503997793928
20
17.295067771448
30
0
41
1
10
-1.99503997793928
20
17.2816041041457
30
0
41
1
10
-1.99503997793928
20
17.2657805776118
30
0
41
1
10
-1.99503997793928
20
17.2476335117891
30
0
41
1
10
-1.99503997793928
20
17.2271975457697
30
0
41
1
10
-1.99503997793928
20
17.2045053960087
30
0
41
1
10
-1.99503997793928
20
17.1795895960111
30
0
41
1
10
-1.99503997793928
20
17.143423992764
30
0
41
1
10
-1.99503997793928
20
17.1029924242497
30
0
41
1
10
-1.99503997793928
20
17.0582791326422
30
0
41
1
10
-1.99503997793928
20
17.0226787925821
30
0
41
1
10
-1.99503997793928
20
16.9850205529168
30
0
41
1
10
-1.99503997793928
20
16.9320728615657
30
0
41
1
10
-1.99503997793928
20
16.8751872660894
30
0
41
1
10
-1.99503997793928
20
16.8142877036056
30
0
41
1
10
-1.99503997793928
20
16.7507929832779
30
0
41
1
10
-1.99503997793928
20
16.6835453056651
30
0
41
1
10
-1.99503997793928
20
16.6124299551482
30
0
41
1
10
-1.99503997793928
20
16.5388242186582
30
0
41
1
10
-1.99503997793928
20
16.4616240004255
30
0
41
1
10
-1.99503997793928
20
16.3806869939664
30
0
41
1
10
-1.99503997793928
20
16.3182114219941
30
0
41
1
10
-1.99503997793928
20
16.2539521138774
30
0
41
1
10
-1.99503997793928
20
16.1879246249361
30
0
41
1
10
-1.99503997793928
20
16.1201424382026
30
0
41
1
10
-1.99503997793928
20
16.0506207732709
30
0
41
1
10
-1.99503997793928
20
15.979373490825
30
0
41
1
10
-1.99503997793928
20
15.8820499794418
30
0
41
1
10
-1.99503997793928
20
15.7814584486047
30
0
41
1
10
-1.99503997793928
20
15.677384958149
30
0
41
1
10
-1.99503997793928
20
15.5977008436634
30
0
41
1
10
-1.99503997793928
20
15.5163656256123
30
0
41
1
10
-1.99503997793928
20
15.4056838451686
30
0
41
1
10
-1.99503997793928
20
15.2918890118945
30
0
41
1
10
-1.99503997793928
20
15.1747311694574
30
0
41
1
10
-1.99503997793928
20
15.0853020659337
30
0
41
1
10
-1.99503997793928
20
14.9942846604514
30
0
41
1
10
-1.99503997793928
20
14.8707702235387
30
0
41
1
10
-1.99503997793928
20
14.7442755428493
30
0
41
1
10
-1.99503997793928
20
14.6145160455858
30
0
41
1
10
-1.99503997793928
20
14.5156939096276
30
0
41
1
10
-1.99503997793928
20
14.4153366771621
30
0
41
1
10
-1.99503997793928
20
14.2794333721973
30
0
41
1
10
-1.99503997793928
20
14.1406647198644
30
0
41
1
10
-1.99503997793928
20
13.9987118830366
30
0
41
1
10
-1.99503997793928
20
13.8907947247769
30
0
41
1
10
-1.99503997793928
20
13.7813876415877
30
0
41
1
10
-1.99503997793928
20
13.6334713769854
30
0
41
1
10
-1.99503997793928
20
13.482790135872
30
0
41
1
10
-1.99503997793928
20
13.328990109671
30
0
41
1
10
-1.99503997793928
20
13.2122307400427
30
0
41
1
10
-1.99503997793928
20
13.09401974916
30
0
41
1
10
-1.99503997793928
20
12.9344093145834
30
0
41
1
10
-1.99503997793928
20
12.7721223429484
30
0
41
1
10
-1.99503997793928
20
12.606768466692
30
0
41
1
10
-1.99503997793928
20
12.4813812679684
30
0
41
1
10
-1.99503997793928
20
12.3545748152048
30
0
41
1
10
-1.99503997793928
20
12.1835401119863
30
0
41
1
10
-1.99503997793928
20
12.0099077332894
30
0
41
1
10
-1.99503997793928
20
11.8332480165124
30
0
41
1
10
-1.99503997793928
20
11.6547268261542
30
0
41
1
10
-1.99503997793928
20
11.4282697000141
30
0
41
1
10
-1.99503997793928
20
11.1972001365959
30
0
41
1
10
-1.99503997793928
20
11.00944356136
30
0
41
1
10
-1.99503997793928
20
10.8198574498995
30
0
41
1
10
-1.99503997793928
20
10.627787937013
30
0
41
1
10
-1.99503997793928
20
10.4327334855784
30
0
41
1
10
-1.99503997793928
20
10.2851499168301
30
0
41
1
10
-1.99503997793928
20
10.13621047024
30
0
41
1
10
-1.99503997793928
20
9.98591879047714
30
0
41
1
10
-1.99503997793928
20
9.83427692622885
30
0
41
1
10
-1.99503997793928
20
9.63019833168175
30
0
41
1
10
-1.99503997793928
20
9.37195865327328
30
0
41
1
10
-1.99503997793928
20
9.1092571782612
30
0
41
1
10
-1.99503997793928
20
8.89624559944801
30
0
41
1
10
-1.99503997793928
20
8.73523611643316
30
0
41
1
10
-1.99503997793928
20
8.57289871794615
30
0
41
1
10
-1.99503997793928
20
8.40923673354897
30
0
41
1
10
-1.99503997793928
20
8.24425232954013
30
0
41
1
10
-1.99503997793928
20
8.0224014648056
30
0
41
1
10
-1.99503997793928
20
7.7420578132905
30
0
41
1
10
-1.99503997793928
20
7.40025290593451
30
0
41
1
10
-1.99503997793928
20
7.11118461088941
30
0
41
1
10
-1.99503997793928
20
6.87709665618266
30
0
41
1
10
-1.99503997793928
20
6.70033531356589
30
0
41
1
10
-1.99503997793928
20
6.52228078287746
30
0
41
1
10
-1.99503997793928
20
6.3429370741791
30
0
41
1
10
-1.99503997793928
20
6.16230788845579
30
0
41
1
10
-1.99503997793928
20
5.98039789106801
30
0
41
1
10
-1.99503997793928
20
5.79721186805691
30
0
41
1
10
-1.99503997793928
20
5.61275496243289
30
0
41
1
10
-1.99503997793928
20
5.42703270327695
30
0
41
1
10
-1.99503997793928
20
5.24005175731475
30
0
41
1
10
-1.99503997793928
20
5.05181945337139
30
0
41
1
10
-1.99503997793928
20
4.86234332329403
30
0
41
1
10
-1.99503997793928
20
4.67163207713236
30
0
41
1
10
-1.99503997793928
20
4.47969614999016
30
0
41
1
10
-1.99503997793928
20
4.28654656517494
30
0
41
1
10
-1.99503997793928
20
4.09219634432211
30
0
41
1
10
-1.99503997793928
20
3.92934661081907
30
0
41
1
10
-1.99503997793928
20
3.7982972967292
30
0
41
1
10
-1.99503997793928
20
3.69979994526253
30
0
41
1
10
-1.99503997793928
20
3.6010147061962
30
0
41
1
10
-1.99503997793928
20
3.46881385164499
30
0
41
1
10
-1.99503997793928
20
3.30310841087518
30
0
41
1
10
-1.99503997793928
20
3.13647579824178
30
0
41
1
10
-1.99503997793928
20
3.00241852965871
30
0
41
1
10
-1.99503997793928
20
2.90170218623106
30
0
41
1
10
-1.99503997793928
20
2.80072442890969
30
0
41
1
10
-1.99503997793928
20
2.69948931487846
30
0
41
1
10
-1.99503997793928
20
2.5980019734576
30
0
41
1
10
-1.99503997793928
20
2.46222694501739
30
0
41
1
10
-1.99503997793928
20
2.3263670801044
30
0
41
1
10
-1.99503997793928
20
2.18963187963746
30
0
41
1
10
-1.99503997793928
20
2.08696367451518
30
0
41
1
10
-1.99503997793928
20
1.98407765086858
30
0
41
1
10
-1.99503997793928
20
1.88098143773604
30
0
41
1
10
-1.99503997793928
20
1.777682765474
30
0
41
1
10
-1.99503997793928
20
1.67418894734925
30
0
41
1
10
-1.99503997793928
20
1.57050946303122
30
0
41
1
10
-1.99503997793928
20
1.46665209995737
30
0
41
1
10
-1.99503997793928
20
1.36262724011792
30
0
41
1
10
-1.99503997793928
20
1.2584437292094
30
0
41
1
10
-1.99503997793928
20
1.15411255471389
30
0
41
1
10
-1.99503997793928
20
1.04964378000579
30
0
41
1
10
-1.99503997793928
20
0.945048899580655
30
0
41
1
10
-1.99503997793928
20
0.840338961204225
30
0
41
1
10
-1.99503997793928
20
0.735526073032332
30
0
41
1
10
-1.99503997793928
20
0.630622105582688
30
0
41
1
10
-1.99503997793928
20
0.525639721157262
30
0
41
1
10
-1.99503997793928
20
0.420591350928731
30
0
41
1
10
-1.99503997793928
20
0.315490126623814
30
0
41
1
10
-1.99503997793928
20
0.210348939519463
30
0
41
1
10
-1.99503997793928
20
0.105181165306249
30
0
41
1
10
-1.99503997793928
20
-2.6093687E-09
30
0
41
1
10
-1.99503997793928
20
-0.10518117389941
30
0
41
1
10
-1.99503997793928
20
-0.21034895445402
30
0
41
1
10
-1.99503997793928
20
-0.315490140896515
30
0
41
1
10
-1.99503997793928
20
-0.420591355720489
30
0
41
1
10
-1.99503997793928
20
-0.525639723935797
30
0
41
1
10
-1.99503997793928
20
-0.630622120770198
30
0
41
1
10
-1.99503997793928
20
-0.735526093018507
30
0
41
1
10
-1.99503997793928
20
-0.840338966235578
30
0
41
1
10
-1.99503997793928
20
-0.945048896197648
30
0
41
1
10
-1.99503997793928
20
-1.04964379294299
30
0
41
1
10
-1.99503997793928
20
-1.15411258033262
30
0
41
1
10
-1.99503997793928
20
-1.25844373877695
30
0
41
1
10
-1.99503997793928
20
-1.36262723194542
30
0
41
1
10
-1.99503997793928
20
-1.46665210416356
30
0
41
1
10
-1.99503997793928
20
-1.57050948928742
30
0
41
1
10
-1.99503997793928
20
-1.67418896894682
30
0
41
1
10
-1.99503997793928
20
-1.77768276258209
30
0
41
1
10
-1.99503997793928
20
-1.88098142742643
30
0
41
1
10
-1.99503997793928
20
-1.98407766278629
30
0
41
1
10
-1.99503997793928
20
-2.08696370566375
30
0
41
1
10
-1.99503997793928
20
-2.18963189754737
30
0
41
1
10
-1.99503997793928
20
-2.29207637206397
30
0
41
1
10
-1.99503997793928
20
-2.39428973936722
30
0
41
1
10
-1.99503997793928
20
-2.4962670319988
30
0
41
1
10
-1.99503997793928
20
-2.59800197223717
30
0
41
1
10
-1.99503997793928
20
-2.73345090264118
30
0
41
1
10
-1.99503997793928
20
-2.86801083241156
30
0
41
1
10
-1.99503997793928
20
-3.00241855173454
30
0
41
1
10
-1.99503997793928
20
-3.13647582573117
30
0
41
1
10
-1.99503997793928
20
-3.30310842941955
30
0
41
1
10
-1.99503997793928
20
-3.46881383607317
30
0
41
1
10
-1.99503997793928
20
-3.60101470543907
30
0
41
1
10
-1.99503997793928
20
-3.69979996514493
30
0
41
1
10
-1.99503997793928
20
-3.79829732832764
30
0
41
1
10
-1.99503997793928
20
-3.92934662557204
30
0
41
1
10
-1.99503997793928
20
-4.09219631216945
30
0
41
1
10
-1.99503997793928
20
-4.28654650347451
30
0
41
1
10
-1.99503997793928
20
-4.47969611179559
30
0
41
1
10
-1.99503997793928
20
-4.67163198724225
30
0
41
1
10
-1.99503997793928
20
-4.86234315765492
30
0
41
1
10
-1.99503997793928
20
-5.05181944357969
30
0
41
1
10
-1.99503997793928
20
-5.24005183821342
30
0
41
1
10
-1.99503997793928
20
-5.42703263168386
30
0
41
1
10
-1.99503997793928
20
-5.61275497462711
30
0
41
1
10
-1.99503997793931
20
-5.79721217482029
30
0
41
1
10
-1.99503997793931
20
-5.98039819956611
30
0
41
1
10
-1.99503997793931
20
-6.16230794338162
30
0
41
1
10
-1.99503997793931
20
-6.34293700639154
30
0
41
1
10
-1.99503997793931
20
-6.52228076981257
30
0
41
1
10
-1.99503997793931
20
-6.70033533418757
30
0
41
1
10
-1.99503997793931
20
-6.87709665926303
30
0
41
1
10
-1.99503997793931
20
-7.11118459991687
30
0
41
1
10
-1.99503997793931
20
-7.40025292645402
30
0
41
1
10
-1.99503997793931
20
-7.74205781809903
30
0
41
1
10
-1.99503997793931
20
-8.02240145976876
30
0
41
1
10
-1.99503997793931
20
-8.24425235284596
30
0
41
1
10
-1.99503997793931
20
-8.40923674956807
30
0
41
1
10
-1.99503997793931
20
-8.57289871422529
30
0
41
1
10
-1.99503997793931
20
-8.73523610803539
30
0
41
1
10
-1.99503997793931
20
-8.89624560664996
30
0
41
1
10
-1.99503997793931
20
-9.10925720032841
30
0
41
1
10
-1.99503997793931
20
-9.37195865915049
30
0
41
1
10
-1.99503997793931
20
-9.6301983246166
30
0
41
1
10
-1.99503997793931
20
-9.83427694277646
30
0
41
1
10
-1.99503997793931
20
-9.98591881051331
30
0
41
1
10
-1.99503997793931
20
-10.1362104789651
30
0
41
1
10
-1.99503997793931
20
-10.2851499142426
30
0
41
1
10
-1.99503997793931
20
-10.432733482583
30
0
41
1
10
-1.99503997793931
20
-10.6277879483349
30
0
41
1
10
-1.99503997793931
20
-10.8198574709635
30
0
41
1
10
-1.99503997793931
20
-11.0094435667743
30
0
41
1
10
-1.99503997793931
20
-11.1972001338813
30
0
41
1
10
-1.99503997793931
20
-11.4282697094187
30
0
41
1
10
-1.99503997793931
20
-11.6547268446385
30
0
41
1
10
-1.99503997793931
20
-11.8332480225582
30
0
41
1
10
-1.99503997793931
20
-12.0099077334538
30
0
41
1
10
-1.99503997793931
20
-12.1835401209566
30
0
41
1
10
-1.99503997793931
20
-12.3545748313203
30
0
41
1
10
-1.99503997793931
20
-12.4813812819682
30
0
41
1
10
-1.99503997793931
20
-12.6067684751262
30
0
41
1
10
-1.99503997793931
20
-12.7721223466594
30
0
41
1
10
-1.99503997793931
20
-12.9344093235711
30
0
41
1
10
-1.99503997793931
20
-13.0940197637218
30
0
41
1
10
-1.99503997793931
20
-13.2122307543484
30
0
41
1
10
-1.99503997793931
20
-13.3289901210133
30
0
41
1
10
-1.99503997793931
20
-13.4827901435456
30
0
41
1
10
-1.99503997793931
20
-13.6334713858817
30
0
41
1
10
-1.99503997793931
20
-13.7813876543746
30
0
41
1
10
-1.99503997793931
20
-13.8907947392413
30
0
41
1
10
-1.99503997793931
20
-13.99871189727
30
0
41
1
10
-1.99503997793931
20
-14.1406647319193
30
0
41
1
10
-1.99503997793931
20
-14.2794333813788
30
0
41
1
10
-1.99503997793931
20
-14.4153366880849
30
0
41
1
10
-1.99503997793931
20
-14.5156939237825
30
0
41
1
10
-1.99503997793931
20
-14.614516060936
30
0
41
1
10
-1.99503997793931
20
-14.7442755571137
30
0
41
1
10
-1.99503997793931
20
-14.8707702595594
30
0
41
1
10
-1.99503997793931
20
-14.9942845913974
30
0
41
1
10
-1.99503997793931
20
-15.070107125687
30
0
41
1
10
-1.99503997793931
20
-15.130016414734
30
0
41
1
10
-1.99503997793931
20
-15.1893946011098
30
0
41
1
10
-1.99503997793931
20
-15.2918890331241
30
0
41
1
10
-1.99503997793931
20
-15.4056838559475
30
0
41
1
10
-1.99503997793931
20
-15.5163656330196
30
0
41
1
10
-1.99503997793931
20
-15.5977008570348
30
0
41
1
10
-1.99503997793931
20
-15.677384979663
30
0
41
1
10
-1.99503997793931
20
-15.781458474053
30
0
41
1
10
-1.99503997793931
20
-15.8820499896637
30
0
41
1
10
-1.99503997793931
20
-15.9793734967038
30
0
41
1
10
-1.99503997793931
20
-16.0506207879892
30
0
41
1
10
-1.99503997793931
20
-16.1201424632647
30
0
41
1
10
-1.99503997793931
20
-16.1879246525291
30
0
41
1
10
-1.99503997793931
20
-16.2539521307207
30
0
41
1
10
-1.99503997793931
20
-16.3182114280861
30
0
41
1
10
-1.99503997793931
20
-16.3806869997558
30
0
41
1
10
-1.99503997793931
20
-16.4616240235723
30
0
41
1
10
-1.99503997793931
20
-16.538824252381
30
0
41
1
10
-1.99503997793931
20
-16.6124299668847
30
0
41
1
10
-1.99503997793931
20
-16.6835453043615
30
0
41
1
10
-1.99503997793931
20
-16.7507930080793
30
0
41
1
10
-1.99503997793931
20
-16.8142877377232
30
0
41
1
10
-1.99503997793931
20
-16.8751872797734
30
0
41
1
10
-1.99503997793931
20
-16.9320728583858
30
0
41
1
10
-1.99503997793931
20
-16.9850205784631
30
0
41
1
10
-1.99503997793931
20
-17.0226788299273
30
0
41
1
10
-1.99503997793931
20
-17.0582791544303
30
0
41
1
10
-1.99503997793931
20
-17.1029924178939
30
0
41
1
10
-1.99503997793931
20
-17.1434240170936
30
0
41
1
10
-1.99503997793931
20
-17.1795896288677
30
0
41
1
10
-1.99503997793931
20
-17.204505416066
30
0
41
1
10
-1.99503997793931
20
-17.2271975480507
30
0
41
1
10
-1.99503997793931
20
-17.2476335178127
30
0
41
1
10
-1.99503997793931
20
-17.2657806121613
30
0
41
1
10
-1.99503997793931
20
-17.2816041393821
30
0
41
1
10
-1.99503997793931
20
-17.2950677779805
30
0
41
1
10
-1.99503997793931
20
-17.3061342543252
30
0
41
1
10
-1.99503997793931
20
-17.3147637210185
30
0
41
1
10
-1.99503997793931
20
-17.3189468481062
30
0
41
1
10
-1.99503997793931
20
-17.3206249149189
30
0
41
1
10
-1.99503997793931
20
-17.3206887718201
30
0
0
SPLINE
5
110
100
AcDbEntity
8
SK1
62
256
6
ByLayer
370
18
48
1
60
0
100
AcDbSpline
70
4
71
3
72
12
73
8
40
0
40
0
40
0
40
0
40
0.0324391935600777
40
0.0324391935600777
40
0.817810355072091
40
0.817810355072091
40
1
40
1
40
1
40
1
41
1
10
-0.217277439313221
20
17.4836043588627
30
0
41
1
10
-0.21750972117681
20
17.48306881412
30
0
41
1
10
-0.217744863814744
20
17.4825318147638
30
0
41
1
10
-0.223753032740916
20
17.4689405317318
30
0
41
1
10
-0.231245471836814
20
17.4549872015732
30
0
41
1
10
-0.245076166280938
20
17.436263079892
30
0
41
1
10
-0.247766500863179
20
17.4326754789571
30
0
41
1
10
-0.250734160279393
20
17.4289983664889
30
0
0
SPLINE
5
111
100
AcDbEntity
8
SK1
62
256
6
ByLayer
370
18
48
1
60
0
100
AcDbSpline
70
4
71
3
72
290
73
286
40
0
40
0
40
0
40
0
40
0.0008596821177909
40
0.0043501773068159
40
0.0078406724958409
40
0.0113311676848659
40
0.0148216628738909
40
0.0183121580629159
40
0.0218026532519409
40
0.0252931484409659
40
0.028783643629991
40
0.0322741388190159
40
0.035764634008041
40
0.039255129197066
40
0.042745624386091
40
0.046236119575116
40
0.053217109953166
40
0.056707605142191
40
0.060198100331216
40
0.0636885955202409
40
0.067179090709266
40
0.0741600810873159
40
0.077650576276341
40
0.0811410714653659
40
0.0881220618434159
40
0.091612557032441
40
0.095103052221466
40
0.102084042599516
40
0.105574537788541
40
0.109065032977566
40
0.112555528166591
40
0.116046023355616
40
0.119536518544641
40
0.123027013733666
40
0.126517508922691
40
0.130008004111716
40
0.136988994489766
40
0.140479489678791
40
0.143969984867816
40
0.147460480056841
40
0.150950975245866
40
0.157931965623916
40
0.161422460812941
40
0.164912956001966
40
0.168403451190991
40
0.171893946380016
40
0.178874936758066
40
0.182365431947091
40
0.185855927136116
40
0.189346422325141
40
0.192836917514166
40
0.199817907892216
40
0.203308403081241
40
0.206798898270266
40
0.210289393459291
40
0.213779888648316
40
0.220760879026366
40
0.224251374215391
40
0.227741869404416
40
0.231232364593441
40
0.234722859782466
40
0.241703850160516
40
0.245194345349541
40
0.248684840538566
40
0.252175335727591
40
0.255665830916616
40
0.262646821294666
40
0.266137316483691
40
0.269627811672716
40
0.276608802050766
40
0.283589792428816
40
0.287080287617841
40
0.290570782806866
40
0.297551773184916
40
0.301042268373941
40
0.304532763562966
40
0.308023258751991
40
0.311513753941016
40
0.315004249130041
40
0.318494744319066
40
0.325475734697116
40
0.332456725075166
40
0.335947220264191
40
0.339437715453216
40
0.342928210642241
40
0.346418705831266
40
0.349909201020291
40
0.353399696209316
40
0.360380686587366
40
0.367361676965416
40
0.374342667343466
40
0.377833162532491
40
0.381323657721516
40
0.384814152910541
40
0.388304648099566
40
0.391795143288591
40
0.395285638477616
40
0.398776133666641
40
0.402266628855666
40
0.405757124044691
40
0.409247619233716
40
0.412738114422741
40
0.416228609611766
40
0.419719104800791
40
0.423209599989816
40
0.426700095178841
40
0.430190590367866
40
0.433681085556891
40
0.435426333151404
40
0.437171580745916
40
0.438916828340429
40
0.440662075934941
40
0.444152571123966
40
0.447643066312991
40
0.449388313907504
40
0.451133561502016
40
0.452878809096529
40
0.454624056691041
40
0.456369304285554
40
0.458114551880066
40
0.461605047069091
40
0.463350294663604
40
0.465095542258116
40
0.466840789852629
40
0.468586037447141
40
0.470331285041654
40
0.472076532636166
40
0.473821780230679
40
0.475567027825191
40
0.477312275419704
40
0.479057523014216
40
0.480802770608729
40
0.482548018203241
40
0.484293265797754
40
0.486038513392266
40
0.487783760986779
40
0.489529008581291
40
0.491274256175804
40
0.493019503770316
40
0.494764751364829
40
0.496509998959341
40
0.498255246553854
40
0.500000494148366
40
0.501745741742879
40
0.503490989337391
40
0.505236236931904
40
0.506981484526416
40
0.508726732120929
40
0.510471979715441
40
0.512217227309954
40
0.513962474904466
40
0.515707722498979
40
0.517452970093491
40
0.519198217688004
40
0.520943465282516
40
0.522688712877029
40
0.524433960471541
40
0.526179208066054
40
0.527924455660566
40
0.529669703255079
40
0.531414950849591
40
0.533160198444104
40
0.534905446038616
40
0.536650693633129
40
0.538395941227641
40
0.540141188822154
40
0.541886436416666
40
0.543631684011179
40
0.545376931605691
40
0.548867426794716
40
0.550612674389229
40
0.552357921983742
40
0.555848417172766
40
0.559338912361791
40
0.561084159956304
40
0.562829407550816
40
0.564574655145329
40
0.566319902739841
40
0.569810397928866
40
0.573300893117891
40
0.576791388306916
40
0.580281883495941
40
0.583772378684966
40
0.587262873873991
40
0.590753369063016
40
0.594243864252041
40
0.597734359441066
40
0.601224854630091
40
0.604715349819116
40
0.608205845008141
40
0.611696340197166
40
0.615186835386191
40
0.618677330575216
40
0.622167825764241
40
0.625658320953266
40
0.632639311331316
40
0.639620301709366
40
0.646601292087416
40
0.650091787276441
40
0.653582282465466
40
0.657072777654491
40
0.660563272843516
40
0.664053768032541
40
0.667544263221566
40
0.674525253599617
40
0.681506243977666
40
0.684996739166691
40
0.688487234355716
40
0.691977729544741
40
0.695468224733766
40
0.698958719922791
40
0.702449215111817
40
0.709430205489866
40
0.712920700678891
40
0.716411195867917
40
0.723392186245967
40
0.730373176624016
40
0.733863671813041
40
0.737354167002066
40
0.744335157380116
40
0.747825652569141
40
0.751316147758167
40
0.754806642947192
40
0.758297138136216
40
0.765278128514266
40
0.768768623703291
40
0.772259118892316
40
0.775749614081341
40
0.779240109270366
40
0.786221099648416
40
0.789711594837442
40
0.793202090026466
40
0.796692585215492
40
0.800183080404517
40
0.807164070782566
40
0.810654565971591
40
0.814145061160616
40
0.817635556349641
40
0.821126051538666
40
0.828107041916716
40
0.831597537105742
40
0.835088032294766
40
0.836833279889279
40
0.838578527483792
40
0.842069022672817
40
0.849050013050867
40
0.852540508239891
40
0.856031003428916
40
0.859521498617942
40
0.863011993806967
40
0.869992984185017
40
0.873483479374041
40
0.876973974563067
40
0.880464469752092
40
0.883954964941117
40
0.887445460130141
40
0.890935955319167
40
0.894426450508191
40
0.897916945697217
40
0.904897936075266
40
0.908388431264292
40
0.911878926453317
40
0.918859916831367
40
0.922350412020392
40
0.925840907209417
40
0.932821897587466
40
0.936312392776492
40
0.939802887965517
40
0.943293383154542
40
0.946783878343567
40
0.953764868721617
40
0.957255363910642
40
0.960745859099667
40
0.964236354288692
40
0.967726849477716
40
0.971217344666742
40
0.974707839855767
40
0.978198335044792
40
0.981688830233816
40
0.985179325422842
40
0.988669820611867
40
0.992160315800892
40
0.995650810989917
40
0.999141306178942
40
1
40
1
40
1
40
1
41
1
10
-28.5
20
16.8570615143455
30
0
41
1
10
-28.5
20
16.8573439319208
30
0
41
1
10
-28.5
20
16.8586400093744
30
0
41
1
10
-28.5
20
16.8597682913316
30
0
41
1
10
-28.5
20
16.8587320876465
30
0
41
1
10
-28.5
20
16.8551966776124
30
0
41
1
10
-28.5
20
16.8492032887544
30
0
41
1
10
-28.5
20
16.8407921788659
30
0
41
1
10
-28.5
20
16.8300011209595
30
0
41
1
10
-28.5
20
16.8168672741156
30
0
41
1
10
-28.5
20
16.801425522577
30
0
41
1
10
-28.5
20
16.783709883521
30
0
41
1
10
-28.5
20
16.7637529731542
30
0
41
1
10
-28.5
20
16.7415855338906
30
0
41
1
10
-28.5
20
16.7172383450784
30
0
41
1
10
-28.5
20
16.6818353810987
30
0
41
1
10
-28.5
20
16.642411510514
30
0
41
1
10
-28.5
20
16.5986105790194
30
0
41
1
10
-28.5
20
16.5637763020887
30
0
41
1
10
-28.5
20
16.5269199075572
30
0
41
1
10
-28.5
20
16.4750169305148
30
0
41
1
10
-28.5
20
16.4194622625482
30
0
41
1
10
-28.5
20
16.3597331913306
30
0
41
1
10
-28.5
20
16.2974462059125
30
0
41
1
10
-28.5
20
16.2317181614777
30
0
41
1
10
-28.5
20
16.1619255301563
30
0
41
1
10
-28.5
20
16.0896767577218
30
0
41
1
10
-28.5
20
16.0141701499498
30
0
41
1
10
-28.5
20
15.9346970720351
30
0
41
1
10
-28.5
20
15.8734193498835
30
0
41
1
10
-28.5
20
15.8103844132608
30
0
41
1
10
-28.5
20
15.745608166167
30
0
41
1
10
-28.5
20
15.6791035033831
30
0
41
1
10
-28.5
20
15.6108850520675
30
0
41
1
10
-28.5
20
15.5409672008416
30
0
41
1
10
-28.5
20
15.4453363897878
30
0
41
1
10
-28.5
20
15.3468344295443
30
0
41
1
10
-28.5
20
15.2445501023873
30
0
41
1
10
-28.5
20
15.1663215412448
30
0
41
1
10
-28.5
20
15.0864673138636
30
0
41
1
10
-28.5
20
14.9776668598205
30
0
41
1
10
-28.5
20
14.8661866472664
30
0
41
1
10
-28.5
20
14.7510047173632
30
0
41
1
10
-28.5
20
14.6631805593238
30
0
41
1
10
-28.5
20
14.5737935545693
30
0
41
1
10
-28.5
20
14.4523474056541
30
0
41
1
10
-28.5
20
14.3283920102608
30
0
41
1
10
-28.5
20
14.2007962111626
30
0
41
1
10
-28.5
20
14.1037299196573
30
0
41
1
10
-28.5
20
14.0051547121626
30
0
41
1
10
-28.5
20
13.8715103774193
30
0
41
1
10
-28.5
20
13.7355116027341
30
0
41
1
10
-28.5
20
13.5959164295663
30
0
41
1
10
-28.5
20
13.4899116400767
30
0
41
1
10
-28.5
20
13.3824445287114
30
0
41
1
10
-28.5
20
13.2369867267197
30
0
41
1
10
-28.5
20
13.0893180063073
30
0
41
1
10
-28.5
20
12.9380809359595
30
0
41
1
10
-28.5
20
12.8234002792818
30
0
41
1
10
-28.5
20
12.7072977235969
30
0
41
1
10
-28.5
20
12.550359403554
30
0
41
1
10
-28.5
20
12.3913462445321
30
0
41
1
10
-28.5
20
12.2287775158425
30
0
41
1
10
-28.5
20
12.1056498288981
30
0
41
1
10
-28.5
20
11.9811355431937
30
0
41
1
10
-28.5
20
11.8130068133241
30
0
41
1
10
-28.5
20
11.642935768078
30
0
41
1
10
-28.5
20
11.4693068645234
30
0
41
1
10
-28.5
20
11.2938625434425
30
0
41
1
10
-28.5
20
11.0718089327865
30
0
41
1
10
-28.5
20
10.8452681360072
30
0
41
1
10
-28.5
20
10.6608198079833
30
0
41
1
10
-28.5
20
10.4745957683654
30
0
41
1
10
-28.5
20
10.28665185334
30
0
41
1
10
-28.5
20
10.0951135357909
30
0
41
1
10
-28.5
20
9.95038954775913
30
0
41
1
10
-28.5
20
9.80435457760413
30
0
41
1
10
-28.5
20
9.65701503611825
30
0
41
1
10
-28.5
20
9.50837340526914
30
0
41
1
10
-28.5
20
9.30810992365682
30
0
41
1
10
-28.5
20
9.05534970701547
30
0
41
1
10
-28.5
20
8.79830464348925
30
0
41
1
10
-28.5
20
8.58944232029057
30
0
41
1
10
-28.5
20
8.43181572672984
30
0
41
1
10
-28.5
20
8.27292311790595
30
0
41
1
10
-28.5
20
8.11277014047187
30
0
41
1
10
-28.5
20
7.95136171184492
30
0
41
1
10
-28.5
20
7.73407184255311
30
0
41
1
10
-28.5
20
7.46030866767532
30
0
41
1
10
-28.5
20
7.12632140637376
30
0
41
1
10
-28.5
20
6.84437402550572
30
0
41
1
10
-28.5
20
6.61554359890374
30
0
41
1
10
-28.5
20
6.4430902941161
30
0
41
1
10
-28.5
20
6.26944364545892
30
0
41
1
10
-28.5
20
6.09461246091774
30
0
41
1
10
-28.5
20
5.91860523667611
30
0
41
1
10
-28.5
20
5.74143189937956
30
0
41
1
10
-28.5
20
5.56310357372004
30
0
41
1
10
-28.5
20
5.38363134733169
30
0
41
1
10
-28.5
20
5.20302692387264
30
0
41
1
10
-28.5
20
5.02130422324723
30
0
41
1
10
-28.5
20
4.83847919931267
30
0
41
1
10
-28.5
20
4.65456716028007
30
0
41
1
10
-28.5
20
4.46958486845952
30
0
41
1
10
-28.5
20
4.28355302808072
30
0
41
1
10
-28.5
20
4.09649275318185
30
0
41
1
10
-28.5
20
3.90842813226234
30
0
41
1
10
-28.5
20
3.75124940963568
30
0
41
1
10
-28.5
20
3.62435497964392
30
0
41
1
10
-28.5
20
3.52924315934186
30
0
41
1
10
-28.5
20
3.43390158445524
30
0
41
1
10
-28.5
20
3.30608717079304
30
0
41
1
10
-28.5
20
3.14669072023426
30
0
41
1
10
-28.5
20
2.98656939879123
30
0
41
1
10
-28.5
20
2.85729421649614
30
0
41
1
10
-28.5
20
2.76048089001327
30
0
41
1
10
-28.5
20
2.66347976206257
30
0
41
1
10
-28.5
20
2.56629526768595
30
0
41
1
10
-28.5
20
2.46893611478757
30
0
41
1
10
-28.5
20
2.33842740009589
30
0
41
1
10
-28.5
20
2.20905952740148
30
0
41
1
10
-28.5
20
2.07788039572901
30
0
41
1
10
-28.5
20
1.97974994874619
30
0
41
1
10
-28.5
20
1.88148715614125
30
0
41
1
10
-28.5
20
1.7831009010128
30
0
41
1
10
-28.5
20
1.68460072925308
30
0
41
1
10
-28.5
20
1.58599184128099
30
0
41
1
10
-28.5
20
1.48728649469359
30
0
41
1
10
-28.5
20
1.38848914320593
30
0
41
1
10
-28.5
20
1.28961139997085
30
0
41
1
10
-28.5
20
1.1906585936099
30
0
41
1
10
-28.5
20
1.09164071478051
30
0
41
1
10
-28.5
20
0.992564090788477
30
0
41
1
10
-28.5
20
0.893436923932569
30
0
41
1
10
-28.5
20
0.794265471937194
30
0
41
1
10
-28.5
20
0.695056741362862
30
0
41
1
10
-28.5
20
0.59581646850728
30
0
41
1
10
-28.5
20
0.496550613210019
30
0
41
1
10
-28.5
20
0.39726385318184
30
0
41
1
10
-28.5
20
0.297961366795136
30
0
41
1
10
-28.5
20
0.198647102840766
30
0
41
1
10
-28.5
20
0.0993254669347721
30
0
41
1
10
-28.5
20
5.4725433E-09
30
0
41
1
10
-28.5
20
-0.0993254684405542
30
0
41
1
10
-28.5
20
-0.198647127601191
30
0
41
1
10
-28.5
20
-0.297961388791663
30
0
41
1
10
-28.5
20
-0.397263840423989
30
0
41
1
10
-28.5
20
-0.49655059420553
30
0
41
1
10
-28.5
20
-0.595816495504067
30
0
41
1
10
-28.5
20
-0.695056784276971
30
0
41
1
10
-28.5
20
-0.794265459276147
30
0
41
1
10
-28.5
20
-0.893436883433452
30
0
41
1
10
-28.5
20
-0.992564112169873
30
0
41
1
10
-28.5
20
-1.09164077920417
30
0
41
1
10
-28.5
20
-1.19065859620261
30
0
41
1
10
-28.5
20
-1.28961134189748
30
0
41
1
10
-28.5
20
-1.38848913588987
30
0
41
1
10
-28.5
20
-1.48728656512975
30
0
41
1
10
-28.5
20
-1.58599188781929
30
0
41
1
10
-28.5
20
-1.68460068701245
30
0
41
1
10
-28.5
20
-1.78310084050693
30
0
41
1
10
-28.5
20
-1.88148718140698
30
0
41
1
10
-28.5
20
-1.97975003643617
30
0
41
1
10
-28.5
20
-2.07788042653627
30
0
41
1
10
-28.5
20
-2.17587292609079
30
0
41
1
10
-28.5
20
-2.27371679621314
30
0
41
1
10
-28.5
20
-2.37140757120349
30
0
41
1
10
-28.5
20
-2.4689361394303
30
0
41
1
10
-28.5
20
-2.59923374131697
30
0
41
1
10
-28.5
20
-2.72777279716703
30
0
41
1
10
-28.5
20
-2.85729428823927
30
0
41
1
10
-28.5
20
-2.98656948332385
30
0
41
1
10
-28.5
20
-3.14669074057866
30
0
41
1
10
-28.5
20
-3.30608709676795
30
0
41
1
10
-28.5
20
-3.43390157548933
30
0
41
1
10
-28.5
20
-3.52924322184188
30
0
41
1
10
-28.5
20
-3.62435506854828
30
0
41
1
10
-28.5
20
-3.75124942106055
30
0
41
1
10
-28.5
20
-3.90842799420622
30
0
41
1
10
-28.5
20
-4.09649259176143
30
0
41
1
10
-28.5
20
-4.28355297730502
30
0
41
1
10
-28.5
20
-4.46958461745547
30
0
41
1
10
-28.5
20
-4.65456683421033
30
0
41
1
10
-28.5
20
-4.83847943804491
30
0
41
1
10
-28.5
20
-5.02130448518977
30
0
41
1
10
-28.5
20
-5.20302670033007
30
0
41
1
10
-28.5
20
-5.38363156234235
30
0
41
1
10
-28.5
20
-5.5631044550444
30
0
41
1
10
-28.5
20
-5.74143237747978
30
0
41
1
10
-28.5
20
-5.91860495448569
30
0
41
1
10
-28.5
20
-6.09461208825525
30
0
41
1
10
-28.5
20
-6.26944357118296
30
0
41
1
10
-28.5
20
-6.44309032655627
30
0
41
1
10
-28.5
20
-6.61554357091566
30
0
41
1
10
-28.5
20
-6.84437400802858
30
0
41
1
10
-28.5
20
-7.12632144512298
30
0
41
1
10
-28.5
20
-7.46030865505756
30
0
41
1
10
-28.5
20
-7.73407184285276
30
0
41
1
10
-28.5
20
-7.95136176299602
30
0
41
1
10
-28.5
20
-8.11277014937079
30
0
41
1
10
-28.5
20
-8.27292308432646
30
0
41
1
10
-28.5
20
-8.43181570788786
30
0
41
1
10
-28.5
20
-8.58944234887977
30
0
41
1
10
-28.5
20
-8.79830467826929
30
0
41
1
10
-28.5
20
-9.05534969583789
30
0
41
1
10
-28.5
20
-9.30810991622681
30
0
41
1
10
-28.5
20
-9.50837344479848
30
0
41
1
10
-28.5
20
-9.6570150628749
30
0
41
1
10
-28.5
20
-9.80435457188472
30
0
41
1
10
-28.5
20
-9.95038952754786
30
0
41
1
10
-28.5
20
-10.0951135319109
30
0
41
1
10
-28.5
20
-10.2866518813936
30
0
41
1
10
-28.5
20
-10.4745957936973
30
0
41
1
10
-28.5
20
-10.6608197986608
30
0
41
1
10
-28.5
20
-10.8452681286137
30
0
41
1
10
-28.5
20
-11.0718089525805
30
0
41
1
10
-28.5
20
-11.2938625632929
30
0
41
1
10
-28.5
20
-11.4693068596264
30
0
41
1
10
-28.5
20
-11.642935765638
30
0
41
1
10
-28.5
20
-11.8130068303032
30
0
41
1
10
-28.5
20
-11.9811355648908
30
0
41
1
10
-28.5
20
-12.1056498404808
30
0
41
1
10
-28.5
20
-12.2287775174238
30
0
41
1
10
-28.5
20
-12.3913462461042
30
0
41
1
10
-28.5
20
-12.550359417297
30
0
41
1
10
-28.5
20
-12.7072977423403
30
0
41
1
10
-28.5
20
-12.8234002933141
30
0
41
1
10
-28.5
20
-12.9380809438716
30
0
41
1
10
-28.5
20
-13.0893180117674
30
0
41
1
10
-28.5
20
-13.2369867372073
30
0
41
1
10
-28.5
20
-13.3824445445542
30
0
41
1
10
-28.5
20
-13.4899116562854
30
0
41
1
10
-28.5
20
-13.5959164434403
30
0
41
1
10
-28.5
20
-13.735511612592
30
0
41
1
10
-28.5
20
-13.8715103854275
30
0
41
1
10
-28.5
20
-14.0051547249397
30
0
41
1
10
-28.5
20
-14.1037299370701
30
0
41
1
10
-28.5
20
-14.2007962250068
30
0
41
1
10
-28.5
20
-14.328392039309
30
0
41
1
10
-28.5
20
-14.4523474054459
30
0
41
1
10
-28.5
20
-14.57379350627
30
0
41
1
10
-28.5
20
-14.648189652593
30
0
41
1
10
-28.5
20
-14.7070919001428
30
0
41
1
10
-28.5
20
-14.7654709460417
30
0
41
1
10
-28.5
20
-14.8661866667288
30
0
41
1
10
-28.5
20
-14.9776668655465
30
0
41
1
10
-28.5
20
-15.0864673213159
30
0
41
1
10
-28.5
20
-15.166321559936
30
0
41
1
10
-28.5
20
-15.2445501295776
30
0
41
1
10
-28.5
20
-15.3468344527491
30
0
41
1
10
-28.5
20
-15.4453363938052
30
0
41
1
10
-28.5
20
-15.5409672073329
30
0
41
1
10
-28.5
20
-15.6108850733397
30
0
41
1
10
-28.5
20
-15.6791035342519
30
0
41
1
10
-28.5
20
-15.7456081924762
30
0
41
1
10
-28.5
20
-15.810384423087
30
0
41
1
10
-28.5
20
-15.8734193510278
30
0
41
1
10
-28.5
20
-15.934697080719
30
0
41
1
10
-28.5
20
-16.0141701800501
30
0
41
1
10
-28.5
20
-16.0896767899467
30
0
41
1
10
-28.5
20
-16.1619255341457
30
0
41
1
10
-28.5
20
-16.2317181619347
30
0
41
1
10
-28.5
20
-16.2974462376792
30
0
41
1
10
-28.5
20
-16.3597332242326
30
0
41
1
10
-28.5
20
-16.4194622696319
30
0
41
1
10
-28.5
20
-16.4750169286961
30
0
41
1
10
-28.5
20
-16.5269199399481
30
0
41
1
10
-28.5
20
-16.5637763395247
30
0
41
1
10
-28.5
20
-16.5986105943247
30
0
41
1
10
-28.5
20
-16.642411504334
30
0
41
1
10
-28.5
20
-16.6818354096896
30
0
41
1
10
-28.5
20
-16.7172383773104
30
0
41
1
10
-28.5
20
-16.741585550229
30
0
41
1
10
-28.5
20
-16.7637529737167
30
0
41
1
10
-28.5
20
-16.7837098927271
30
0
41
1
10
-28.5
20
-16.8014255596809
30
0
41
1
10
-28.5
20
-16.816867307208
30
0
41
1
10
-28.5
20
-16.8300011251081
30
0
41
1
10
-28.5
20
-16.8407921763223
30
0
41
1
10
-28.5
20
-16.8492033090471
30
0
41
1
10
-28.5
20
-16.8551966659016
30
0
41
1
10
-28.5
20
-16.8587319423621
30
0
41
1
10
-28.5
20
-16.8597680746869
30
0
41
1
10
-28.5
20
-16.8586400429078
30
0
41
1
10
-28.5
20
-16.8573445002449
30
0
41
1
10
-28.5
20
-16.8570624859405
30
0
0
SPLINE
5
112
100
AcDbEntity
8
1
62
256
6
ByLayer
370
18
48
1
60
0
100
AcDbSpline
70
4
71
3
72
14
73
10
40
0
40
0
40
0
40
0
40
0.314694511555475
40
0.314694511555475
40
0.629520730043294
40
0.629520730043294
40
0.942496253041123
40
0.942496253041123
40
1
40
1
40
1
40
1
41
1
10
20.92079238
20
24.8714269498717
30
0
41
1
10
20.7498131136457
20
24.9007297906607
30
0
41
1
10
20.6258848528616
20
24.928107493026
30
0
41
1
10
20.4929938548787
20
24.9701268386673
30
0
41
1
10
20.4822942812296
20
24.9852791241996
30
0
41
1
10
20.5744850175523
20
25.0008771753673
30
0
41
1
10
20.6779827983499
20
25.0016669293215
30
0
41
1
10
20.858856977834
20
24.9964628606677
30
0
41
1
10
20.8889994722056
20
24.995473841412
30
0
41
1
10
20.92079238
20
24.9943342654156
30
0
0
SPLINE
5
113
100
AcDbEntity
8
1
62
256
6
ByLayer
370
18
48
1
60
0
100
AcDbSpline
70
4
71
3
72
10
73
6
40
0
40
0
40
0
40
0
40
0.849590495813919
40
0.849590495813919
40
1
40
1
40
1
40
1
41
1
10
23.5000000000001
20
34.5353651610255
30
0
41
1
10
22.8162065287258
20
31.976735489387
30
0
41
1
10
22.1327530191427
20
29.4180148585039
30
0
41
1
10
21.3291784192297
20
26.4060706872034
30
0
41
1
10
21.2083376172568
20
25.9530391491989
30
0
41
1
10
21.0875253594589
20
25.5
30
0
0
SPLINE
5
114
100
AcDbEntity
8
1
62
256
6
ByLayer
370
18
48
1
60
0
100
AcDbSpline
70
4
71
3
72
16
73
12
40
0
40
0
40
0
40
0
40
0.11143027962805
40
0.11143027962805
40
0.248747543515472
40
0.248747543515472
40
0.465535329195252
40
0.465535329195252
40
0.88385535186756
40
0.88385535186756
40
1
40
1
40
1
40
1
41
1
10
8.53867513459483
20
23.8391299750503
30
0
41
1
10
8.51081528400582
20
23.8391299750503
30
0
41
1
10
8.48260885722451
20
23.8375361275706
30
0
41
1
10
8.42415079676073
20
23.831150658589
30
0
41
1
10
8.39395861076946
20
23.825666877018
30
0
41
1
10
8.32484624564248
20
23.8089605749788
30
0
41
1
10
8.28921459142958
20
23.796037970776
30
0
41
1
10
8.20100610925402
20
23.7556824246832
30
0
41
1
10
8.16026799314915
20
23.7250165399981
30
0
41
1
10
8.12070829847323
20
23.6845451449633
30
0
41
1
10
8.11283840142693
20
23.6755726082077
30
0
41
1
10
8.10566243270247
20
23.6665017920809
30
0
0
SPLINE
5
115
100
AcDbEntity
8
1
62
256
6
ByLayer
370
18
48
1
60
0
100
AcDbSpline
70
4
71
3
72
8
73
4
40
0
40
0
40
0
40
0
40
1
40
1
40
1
40
1
41
1
10
25.797714492387
20
34.75
30
0
41
1
10
24.6794298542102
20
34.75
30
0
41
1
10
23.8538248316504
20
34.75
30
0
41
1
10
23.6109833938399
20
34.75
30
0
0
SPLINE
5
116
100
AcDbEntity
8
1
62
256
6
ByLayer
370
18
48
1
60
0
100
AcDbSpline
70
4
71
3
72
8
73
4
40
0
40
0
40
0
40
0
40
1
40
1
40
1
40
1
41
1
10
20.92079238
20
0.305336639093667
30
0
41
1
10
20.9863970486352
20
0.409663346972451
30
0
41
1
10
21.0526052608907
20
0.507865669944067
30
0
41
1
10
21.1192747576275
20
0.601108245296786
30
0
0
SPLINE
5
117
100
AcDbEntity
8
1
62
256
6
ByLayer
370
18
48
1
60
0
100
AcDbSpline
70
4
71
3
72
8
73
4
40
0
40
0
40
0
40
0
40
1
40
1
40
1
40
1
41
1
10
23.5000000000001
20
34.5353651610255
30
0
41
1
10
23.5191202408296
20
34.6069095930367
30
0
41
1
10
23.5382379844482
20
34.6784548638694
30
0
41
1
10
23.5573530234967
20
34.75
30
0
0
SPLINE
5
118
100
AcDbEntity
8
1
62
256
6
ByLayer
370
18
48
1
60
0
100
AcDbSpline
70
4
71
3
72
8
73
4
40
0
40
0
40
0
40
0
40
1
40
1
40
1
40
1
41
1
10
53.2550424243751
20
33.2499999999999
30
0
41
1
10
53.3062919217128
20
33.3728156527179
30
0
41
1
10
53.3567751647697
20
33.4961087306638
30
0
41
1
10
53.4068513838671
20
33.6196435644333
30
0
0
SPLINE
5
119
100
AcDbEntity
8
1
62
256
6
ByLayer
370
18
48
1
60
0
100
AcDbSpline
70
4
71
3
72
10
73
6
40
0
40
0
40
0
40
0
40
0.5
40
0.5
40
1
40
1
40
1
40
1
41
1
10
21.1192747576275
20
0.601108245296786
30
0
41
1
10
21.154973435352
20
6.30627216619234
30
0
41
1
10
21.7319843521887
20
12.0529806244532
30
0
41
1
10
23.4638870608307
20
23.4385339168754
30
0
41
1
10
24.5878178562255
20
29.0785384775506
30
0
41
1
10
25.7978974286064
20
34.7009205074963
30
0
0
SPLINE
5
11A
100
AcDbEntity
8
1
62
256
6
ByLayer
370
18
48
1
60
0
100
AcDbSpline
70
4
71
3
72
16
73
12
40
0
40
0
40
0
40
0
40
0.111430279628047
40
0.111430279628047
40
0.248747543515467
40
0.248747543515467
40
0.465535329195252
40
0.465535329195252
40
0.883855351867553
40
0.883855351867553
40
1
40
1
40
1
40
1
41
1
10
8.5386751345948
20
-7.52966679426504
30
0
41
1
10
8.51081528400576
20
-7.52966679426504
30
0
41
1
10
8.48260885722448
20
-7.53471706780857
30
0
41
1
10
8.4241507967607
20
-7.55489210221029
30
0
41
1
10
8.39395861076943
20
-7.57218953888446
30
0
41
1
10
8.32484624564242
20
-7.62460019394092
30
0
41
1
10
8.28921459142953
20
-7.6648929425391
30
0
41
1
10
8.20100610925397
20
-7.78941367630352
30
0
41
1
10
8.16026799314912
20
-7.8824751100415
30
0
41
1
10
8.12070829847318
20
-8.00269269538009
30
0
41
1
10
8.11283840142687
20
-8.02920008991578
30
0
41
1
10
8.10566243270245
20
-8.05584836782771
30
0
0
SPLINE
5
11B
100
AcDbEntity
8
1
62
256
6
ByLayer
370
18
48
1
60
0
100
AcDbSpline
70
4
71
3
72
16
73
12
40
0
40
0
40
0
40
0
40
0.111430279628052
40
0.111430279628052
40
0.248747543515474
40
0.248747543515474
40
0.465535329195271
40
0.465535329195271
40
0.883855351867598
40
0.883855351867598
40
1
40
1
40
1
40
1
41
1
10
11.4613248654052
20
-23.8391299750504
30
0
41
1
10
11.4891847159942
20
-23.8391299750504
30
0
41
1
10
11.5173911427755
20
-23.8375361275706
30
0
41
1
10
11.5758492032393
20
-23.831150658589
30
0
41
1
10
11.6060413892305
20
-23.825666877018
30
0
41
1
10
11.6751537543576
20
-23.8089605749788
30
0
41
1
10
11.7107854085704
20
-23.796037970776
30
0
41
1
10
11.798993890746
20
-23.7556824246832
30
0
41
1
10
11.8397320068509
20
-23.7250165399981
30
0
41
1
10
11.8792917015268
20
-23.6845451449633
30
0
41
1
10
11.8871615985731
20
-23.6755726082078
30
0
41
1
10
11.8943375672975
20
-23.6665017920809
30
0
0
SPLINE
5
11C
100
AcDbEntity
8
1
62
256
6
ByLayer
370
18
48
1
60
0
100
AcDbSpline
70
4
71
3
72
8
73
4
40
0
40
0
40
0
40
0
40
1
40
1
40
1
40
1
41
1
10
23.5000000000001
20
34.332076063142
30
0
41
1
10
22.7179906895665
20
31.388614343433
30
0
41
1
10
21.9373858621425
20
28.4447727346626
30
0
41
1
10
21.16034291094
20
25.5
30
0
0
SPLINE
5
11D
100
AcDbEntity
8
1
62
256
6
ByLayer
370
18
48
1
60
0
100
AcDbSpline
70
4
71
3
72
16
73
12
40
0
40
0
40
0
40
0
40
0.111430279628047
40
0.111430279628047
40
0.248747543515475
40
0.248747543515475
40
0.465535329195272
40
0.465535329195272
40
0.883855351867603
40
0.883855351867603
40
1
40
1
40
1
40
1
41
1
10
11.4613248654052
20
7.52966679426501
30
0
41
1
10
11.4891847159942
20
7.52966679426501
30
0
41
1
10
11.5173911427755
20
7.53471706780854
30
0
41
1
10
11.5758492032393
20
7.55489210221026
30
0
41
1
10
11.6060413892306
20
7.57218953888443
30
0
41
1
10
11.6751537543576
20
7.62460019394089
30
0
41
1
10
11.7107854085705
20
7.66489294253907
30
0
41
1
10
11.798993890746
20
7.78941367630352
30
0
41
1
10
11.8397320068509
20
7.88247511004147
30
0
41
1
10
11.8792917015268
20
8.00269269538009
30
0
41
1
10
11.8871615985731
20
8.02920008991578
30
0
41
1
10
11.8943375672976
20
8.05584836782768
30
0
0
SPLINE
5
11E
100
AcDbEntity
8
1
62
256
6
ByLayer
370
18
48
1
60
0
100
AcDbSpline
70
4
71
3
72
12
73
8
40
0
40
0
40
0
40
0
40
0.36729226073384
40
0.36729226073384
40
0.734922303957977
40
0.734922303957977
40
1
40
1
40
1
40
1
41
1
10
53.4068513838671
20
33.6196435644333
30
0
41
1
10
53.4417035961608
20
33.7056217458897
30
0
41
1
10
53.4649302976673
20
33.8001042187669
30
0
41
1
10
53.4841590431068
20
33.9906059378825
30
0
41
1
10
53.4804000460794
20
34.0892486220198
30
0
41
1
10
53.4513806104925
20
34.2511365678244
30
0
41
1
10
53.4321762389184
20
34.3178816358574
30
0
41
1
10
53.406851383872
20
34.3803564355687
30
0
0
SPLINE
5
11F
100
AcDbEntity
8
1
62
256
6
ByLayer
370
18
48
1
60
0
100
AcDbSpline
70
4
71
3
72
8
73
4
40
0
40
0
40
0
40
0
40
1
40
1
40
1
40
1
41
1
10
25.7978974286064
20
34.7009205074963
30
0
41
1
10
25.7978300446286
20
34.7172827107309
30
0
41
1
10
25.7977690657883
20
34.7336425426526
30
0
41
1
10
25.797714492387
20
34.75
30
0
0
SPLINE
5
120
100
AcDbEntity
8
1
62
256
6
ByLayer
370
18
48
1
60
0
100
AcDbSpline
70
4
71
3
72
16
73
12
40
0
40
0
40
0
40
0
40
0.461208588217085
40
0.461208588217085
40
0.643534962278541
40
0.643534962278541
40
0.828408472975291
40
0.828408472975291
40
0.943003644159993
40
0.943003644159993
40
1
40
1
40
1
40
1
41
1
10
11.8943375672974
20
23.6665017920809
30
0
41
1
10
11.8660503915152
20
23.7022583261632
30
0
41
1
10
11.8273339192908
20
23.7370095736338
30
0
41
1
10
11.7473160248315
20
23.7800170858174
30
0
41
1
10
11.7212784637477
20
23.7917125768793
30
0
41
1
10
11.6606543989164
20
23.8127037684951
30
0
41
1
10
11.6251722226874
20
23.8222104320954
30
0
41
1
10
11.5599225851958
20
23.8331586856493
30
0
41
1
10
11.5324782774944
20
23.836332378473
30
0
41
1
10
11.49016847477
20
23.8387183279986
30
0
41
1
10
11.4757173930754
20
23.8391299750505
30
0
41
1
10
11.4613248654053
20
23.8391299750505
30
0
0
SPLINE
5
121
100
AcDbEntity
8
1
62
256
6
ByLayer
370
18
48
1
60
0
100
AcDbSpline
70
4
71
3
72
8
73
4
40
0
40
0
40
0
40
0
40
1
40
1
40
1
40
1
41
1
10
20.92079238
20
24.8714269498717
30
0
41
1
10
20.9780830756668
20
25.0765254205421
30
0
41
1
10
21.0365009328833
20
25.2865630587413
30
0
41
1
10
21.0956648830906
20
25.4999999999999
30
0
0
SPLINE
5
122
100
AcDbEntity
8
1
62
256
6
ByLayer
370
18
48
1
60
0
100
AcDbSpline
70
4
71
3
72
8
73
4
40
0
40
0
40
0
40
0
40
1
40
1
40
1
40
1
41
1
10
21.0576598945379
20
25.5
30
0
41
1
10
21.0115050903506
20
25.3295581165194
30
0
41
1
10
20.965819322852
20
25.1608012629197
30
0
41
1
10
20.92079238
20
24.9943342654156
30
0
0
SPLINE
5
123
100
AcDbEntity
8
1
62
256
6
ByLayer
370
18
48
1
60
0
100
AcDbSpline
70
4
71
3
72
16
73
12
40
0
40
0
40
0
40
0
40
0.461208588217094
40
0.461208588217094
40
0.643534962278546
40
0.643534962278546
40
0.828408472975285
40
0.828408472975285
40
0.943003644159988
40
0.943003644159988
40
1
40
1
40
1
40
1
41
1
10
8.10566243270256
20
-23.6665017920809
30
0
41
1
10
8.13394960848484
20
-23.7022583261632
30
0
41
1
10
8.17266608070921
20
-23.7370095736338
30
0
41
1
10
8.25268397516845
20
-23.7800170858174
30
0
41
1
10
8.27872153625231
20
-23.7917125768793
30
0
41
1
10
8.33934560108358
20
-23.8127037684951
30
0
41
1
10
8.37482777731259
20
-23.8222104320954
30
0
41
1
10
8.44007741480419
20
-23.8331586856493
30
0
41
1
10
8.46752172250561
20
-23.836332378473
30
0
41
1
10
8.50983152523003
20
-23.8387183279986
30
0
41
1
10
8.52428260692457
20
-23.8391299750505
30
0
41
1
10
8.53867513459471
20
-23.8391299750505
30
0
0
SPLINE
5
124
100
AcDbEntity
8
1
62
256
6
ByLayer
370
18
48
1
60
0
100
AcDbSpline
70
4
71
3
72
8
73
4
40
0
40
0
40
0
40
0
40
1
40
1
40
1
40
1
41
1
10
21.16034291094
20
25.5
30
0
41
1
10
21.1338811449539
20
25.5
30
0
41
1
10
21.1122698915711
20
25.5
30
0
41
1
10
21.0956648830906
20
25.5
30
0
0
SPLINE
5
125
100
AcDbEntity
8
1
62
256
6
ByLayer
370
18
48
1
60
0
100
AcDbSpline
70
4
71
3
72
16
73
12
40
0
40
0
40
0
40
0
40
0.461208588217088
40
0.461208588217088
40
0.643534962278544
40
0.643534962278544
40
0.82840847297529
40
0.82840847297529
40
0.943003644159989
40
0.943003644159989
40
1
40
1
40
1
40
1
41
1
10
8.10566243270262
20
8.05584836782774
30
0
41
1
10
8.13394960848487
20
7.95080268681443
30
0
41
1
10
8.17266608070923
20
7.84628670970801
30
0
41
1
10
8.25268397516851
20
7.71442469145123
30
0
41
1
10
8.27872153625233
20
7.67825379650725
30
0
41
1
10
8.33934560108361
20
7.61290523367225
30
0
41
1
10
8.37482777731265
20
7.58305923051407
30
0
41
1
10
8.44007741480422
20
7.54855881865589
30
0
41
1
10
8.46752172250564
20
7.5385201810229
30
0
41
1
10
8.50983152523006
20
7.53097042135255
30
0
41
1
10
8.5242826069246
20
7.5296667942647
30
0
41
1
10
8.53867513459477
20
7.5296667942647
30
0
0
SPLINE
5
126
100
AcDbEntity
8
1
62
256
6
ByLayer
370
18
48
1
60
0
100
AcDbSpline
70
4
71
3
72
16
73
12
40
0
40
0
40
0
40
0
40
0.461208588217066
40
0.461208588217066
40
0.643534962278522
40
0.643534962278522
40
0.828408472975271
40
0.828408472975271
40
0.943003644159981
40
0.943003644159981
40
1
40
1
40
1
40
1
41
1
10
11.8943375672974
20
-8.05584836782776
30
0
41
1
10
11.8660503915151
20
-7.95080268681445
30
0
41
1
10
11.8273339192908
20
-7.84628670970801
30
0
41
1
10
11.7473160248315
20
-7.71442469145126
30
0
41
1
10
11.7212784637477
20
-7.67825379650728
30
0
41
1
10
11.6606543989164
20
-7.61290523367228
30
0
41
1
10
11.6251722226874
20
-7.5830592305141
30
0
41
1
10
11.5599225851958
20
-7.54855881865592
30
0
41
1
10
11.5324782774944
20
-7.5385201810229
30
0
41
1
10
11.4901684747699
20
-7.53097042135258
30
0
41
1
10
11.4757173930754
20
-7.52966679426473
30
0
41
1
10
11.4613248654053
20
-7.52966679426473
30
0
0
SPLINE
5
127
100
AcDbEntity
8
1
62
256
6
ByLayer
370
18
48
1
60
0
100
AcDbSpline
70
4
71
3
72
8
73
4
40
0
40
0
40
0
40
0
40
1
40
1
40
1
40
1
41
1
10
53.4068513838671
20
34.3803564355666
30
0
41
1
10
53.3567751647697
20
34.5038912693361
30
0
41
1
10
53.3062919217128
20
34.6271843472819
30
0
41
1
10
53.2550424243751
20
34.7499999999999
30
0
0
SPLINE
5
128
100
AcDbEntity
8
1
62
256
6
ByLayer
370
18
48
1
60
0
100
AcDbSpline
70
4
71
3
72
8
73
4
40
0
40
0
40
0
40
0
40
1
40
1
40
1
40
1
41
1
10
20.92079238
20
0.305336639093667
30
0
41
1
10
20.3175421248603
20
-0.653971813414842
30
0
41
1
10
20
20
-1.76289606527107
30
0
41
1
10
20
20
-2.88866554514695
30
0
0
SPLINE
5
129
100
AcDbEntity
8
1
62
256
6
ByLayer
370
18
48
1
60
0
100
AcDbSpline
70
4
71
3
72
8
73
4
40
0
40
0
40
0
40
0
40
1
40
1
40
1
40
1
41
1
10
23.6109833938399
20
34.75
30
0
41
1
10
23.5740049955753
20
34.6106914597923
30
0
41
1
10
23.5370101134405
20
34.4713811208958
30
0
41
1
10
23.5000000000001
20
34.332076063142
30
0
0
SPLINE
5
12A
100
AcDbEntity
8
1
62
256
6
ByLayer
370
18
48
1
60
0
100
AcDbSpline
70
4
71
3
72
14
73
10
40
0
40
0
40
0
40
0
40
0.281038222380452
40
0.281038222380452
40
0.564557857067101
40
0.564557857067101
40
0.820700196130111
40
0.820700196130111
40
1
40
1
40
1
40
1
41
1
10
45.4078822958328
20
28.1435826280887
30
0
41
1
10
45.3813006245732
20
28.1709123690699
30
0
41
1
10
45.3490439690951
20
28.1943655245359
30
0
41
1
10
45.277235194489
20
28.2285748604269
30
0
41
1
10
45.2364720760798
20
28.2396847590448
30
0
41
1
10
45.1571729147492
20
28.2453486855742
30
0
41
1
10
45.1175924873016
20
28.241411725643
30
0
41
1
10
45.0539176730122
20
28.2231154346456
30
0
41
1
10
45.0281706327858
20
28.2121032984634
30
0
41
1
10
45.0044231104049
20
28.1981810583397
30
0
0
SPLINE
5
12B
100
AcDbEntity
8
1
62
256
6
ByLayer
370
18
48
1
60
0
100
AcDbSpline
70
4
71
3
72
16
73
12
40
0
40
0
40
0
40
0
40
0.0645965064171339
40
0.0645965064171339
40
0.282747320500288
40
0.282747320500288
40
0.503851581407218
40
0.503851581407218
40
0.739476498257812
40
0.739476498257812
40
1
40
1
40
1
40
1
41
1
10
45.0044231104048
20
24.8018189416602
30
0
41
1
10
45.013014252084
20
24.7967822925532
30
0
41
1
10
45.0218448367852
20
24.7921293853552
30
0
41
1
10
45.0610594082809
20
24.7736816867281
30
0
41
1
10
45.0937837130779
20
24.7640630917643
30
0
41
1
10
45.1593454694518
20
24.7550404499999
30
0
41
1
10
45.1930080641066
20
24.7556346613771
30
0
41
1
10
45.2588630387573
20
24.7664681142401
30
0
41
1
10
45.2916435993958
20
24.7774376207136
30
0
41
1
10
45.3537963059872
20
24.8091149464693
30
0
41
1
10
45.3832521428563
20
24.8310940694521
30
0
41
1
10
45.4078822958328
20
24.8564173719112
30
0
0
SPLINE
5
12C
100
AcDbEntity
8
1
62
256
6
ByLayer
370
18
48
1
60
0
100
AcDbSpline
70
4
71
3
72
18
73
14
40
0
40
0
40
0
40
0
40
0.213081026856103
40
0.213081026856103
40
0.387160750704746
40
0.387160750704746
40
0.562948851464636
40
0.562948851464636
40
0.715638295683687
40
0.715638295683687
40
0.919170771668906
40
0.919170771668906
40
1
40
1
40
1
40
1
41
1
10
44.2739045598557
20
26.8181619695468
30
0
41
1
10
44.3562959735259
20
26.8408457370468
30
0
41
1
10
44.4378828610425
20
26.8772725130265
30
0
41
1
10
44.5743337817464
20
26.9682730559037
30
0
41
1
10
44.6327849506205
20
27.0194915167335
30
0
41
1
10
44.7338958570924
20
27.138076087886
30
0
41
1
10
44.7777186157693
20
27.2075044896993
30
0
41
1
10
44.8376543890653
20
27.3426244864065
30
0
41
1
10
44.8574632867377
20
27.4091726073604
30
0
41
1
10
44.8836465356628
20
27.5614722639211
30
0
41
1
10
44.8841042679144
20
27.6488459036679
30
0
41
1
10
44.8676879551153
20
27.7640551168517
30
0
41
1
10
44.8610234078263
20
27.7964993937431
30
0
41
1
10
44.8525489664152
20
27.8281523379785
30
0
0
SPLINE
5
12D
100
AcDbEntity
8
1
62
256
6
ByLayer
370
18
48
1
60
0
100
AcDbSpline
70
4
71
3
72
10
73
6
40
0
40
0
40
0
40
0
40
0.541781546917755
40
0.541781546917755
40
1
40
1
40
1
40
1
41
1
10
46.5921177041672
20
24.8564173719112
30
0
41
1
10
46.5317893524551
20
24.9184435030001
30
0
41
1
10
46.4595938121995
20
24.9728823223152
30
0
41
1
10
46.3098326867735
20
25.0500777047587
30
0
41
1
10
46.2328667479518
20
25.077185511868
30
0
41
1
10
46.1527412933765
20
25.0922620637001
30
0
0
SPLINE
5
12E
100
AcDbEntity
8
1
62
256
6
ByLayer
370
18
48
1
60
0
100
AcDbSpline
70
4
71
3
72
14
73
10
40
0
40
0
40
0
40
0
40
0.285013984727034
40
0.285013984727034
40
0.572349910643026
40
0.572349910643026
40
0.832166158509287
40
0.832166158509287
40
1
40
1
40
1
40
1
41
1
10
47.7260954401443
20
26.1818380304531
30
0
41
1
10
47.7626420033309
20
26.1918999253196
30
0
41
1
10
47.798562913688
20
26.2087340241313
30
0
41
1
10
47.8628804284091
20
26.254792897875
30
0
41
1
10
47.892169726513
20
26.2848901460308
30
0
41
1
10
47.9353659032994
20
26.3510686822684
30
0
41
1
10
47.9510721564614
20
26.3873390540656
30
0
41
1
10
47.9655563481768
20
26.4493818984825
30
0
41
1
10
47.9685
20
26.4747889183341
30
0
41
1
10
47.9685
20
26.4999999999999
30
0
0
SPLINE
5
12F
100
AcDbEntity
8
1
62
256
6
ByLayer
370
18
48
1
60
0
100
AcDbSpline
70
4
71
3
72
16
73
12
40
0
40
0
40
0
40
0
40
0.0645965064171339
40
0.0645965064171339
40
0.282747320500288
40
0.282747320500288
40
0.503851581407218
40
0.503851581407218
40
0.739476498257812
40
0.739476498257812
40
1
40
1
40
1
40
1
41
1
10
46.9955768895952
20
28.1981810583397
30
0
41
1
10
46.986985747916
20
28.2032177074467
30
0
41
1
10
46.9781551632148
20
28.2078706146447
30
0
41
1
10
46.9389405917191
20
28.2263183132718
30
0
41
1
10
46.9062162869222
20
28.2359369082356
30
0
41
1
10
46.8406545305483
20
28.24495955
30
0
41
1
10
46.8069919358935
20
28.2443653386227
30
0
41
1
10
46.7411369612427
20
28.2335318857598
30
0
41
1
10
46.7083564006043
20
28.2225623792863
30
0
41
1
10
46.6462036940129
20
28.1908850535306
30
0
41
1
10
46.6167478571437
20
28.1689059305477
30
0
41
1
10
46.5921177041672
20
28.1435826280887
30
0
0
SPLINE
5
130
100
AcDbEntity
8
1
62
256
6
ByLayer
370
18
48
1
60
0
100
AcDbSpline
70
4
71
3
72
14
73
10
40
0
40
0
40
0
40
0
40
0.285013984727043
40
0.285013984727043
40
0.572349910643031
40
0.572349910643031
40
0.832166158509289
40
0.832166158509289
40
1
40
1
40
1
40
1
41
1
10
44.2739045598557
20
26.8181619695468
30
0
41
1
10
44.2373579966691
20
26.8081000746803
30
0
41
1
10
44.201437086312
20
26.7912659758686
30
0
41
1
10
44.1371195715909
20
26.745207102125
30
0
41
1
10
44.1078302734871
20
26.7151098539691
30
0
41
1
10
44.0646340967007
20
26.6489313177315
30
0
41
1
10
44.0489278435387
20
26.6126609459342
30
0
41
1
10
44.0344436518232
20
26.5506181015174
30
0
41
1
10
44.0315
20
26.5252110816658
30
0
41
1
10
44.0315
20
26.4999999999999
30
0
0
SPLINE
5
131
100
AcDbEntity
8
1
62
256
6
ByLayer
370
18
48
1
60
0
100
AcDbSpline
70
4
71
3
72
18
73
14
40
0
40
0
40
0
40
0
40
0.213081262000626
40
0.213081262000626
40
0.387160943926352
40
0.387160943926352
40
0.56294899994201
40
0.56294899994201
40
0.715638435810387
40
0.715638435810387
40
0.919170953808133
40
0.919170953808133
40
1
40
1
40
1
40
1
41
1
10
44.8525489664152
20
25.1718476620214
30
0
41
1
10
44.8746500033365
20
25.2543973966024
30
0
41
1
10
44.8844883336915
20
25.3432036828122
30
0
41
1
10
44.874994737467
20
25.5069408353002
30
0
41
1
10
44.8603716058447
20
25.5832692825004
30
0
41
1
10
44.809208556408
20
25.7304699908083
30
0
41
1
10
44.7714777490042
20
25.8033885750107
30
0
41
1
10
44.685225487492
20
25.923431275805
30
0
41
1
10
44.6378343307496
20
25.9741769366086
30
0
41
1
10
44.5196910694911
20
26.0737907909972
30
0
41
1
10
44.4445472559936
20
26.1183752282872
30
0
41
1
10
44.3368562665044
20
26.1624807161781
30
0
41
1
10
44.3054967608598
20
26.1731401563608
30
0
41
1
10
44.2739045598557
20
26.1818380304531
30
0
0
SPLINE
5
132
100
AcDbEntity
8
1
62
256
6
ByLayer
370
18
48
1
60
0
100
AcDbSpline
70
4
71
3
72
10
73
6
40
0
40
0
40
0
40
0
40
0.541781546918582
40
0.541781546918582
40
1
40
1
40
1
40
1
41
1
10
45.4078822958328
20
28.1435826280887
30
0
41
1
10
45.4682106475449
20
28.0815564969998
30
0
41
1
10
45.5404061878006
20
28.0271176776847
30
0
41
1
10
45.6901673132266
20
27.9499222952412
30
0
41
1
10
45.7671332520483
20
27.9228144881318
30
0
41
1
10
45.8472587066236
20
27.9077379362998
30
0
0
SPLINE
5
133
100
AcDbEntity
8
1
62
256
6
ByLayer
370
18
48
1
60
0
100
AcDbSpline
70
4
71
3
72
16
73
12
40
0
40
0
40
0
40
0
40
0.0660777514108821
40
0.0660777514108821
40
0.28923285819987
40
0.28923285819987
40
0.515409129607286
40
0.515409129607286
40
0.756439127791309
40
0.756439127791309
40
1
40
1
40
1
40
1
41
1
10
47.9685
20
26.4999999999999
30
0
41
1
10
47.9685
20
26.5099586067441
30
0
41
1
10
47.9680478629074
20
26.5199296962917
30
0
41
1
10
47.9641293930511
20
26.5630891514987
30
0
41
1
10
47.9558767148613
20
26.5961843324548
30
0
41
1
10
47.9305022667635
20
26.6573062564989
30
0
41
1
10
47.9129646817672
20
26.6860457142542
30
0
41
1
10
47.8703125238603
20
26.7373782985838
30
0
41
1
10
47.8442704937159
20
26.7601095026043
30
0
41
1
10
47.7881096630202
20
26.7960425393677
30
0
41
1
10
47.757361712608
20
26.8095538291646
30
0
41
1
10
47.7260954401443
20
26.8181619695468
30
0
0
SPLINE
5
134
100
AcDbEntity
8
1
62
256
6
ByLayer
370
18
48
1
60
0
100
AcDbSpline
70
4
71
3
72
16
73
12
40
0
40
0
40
0
40
0
40
0.0517235387679336
40
0.0517235387679336
40
0.275098677522074
40
0.275098677522074
40
0.500660612380091
40
0.500660612380091
40
0.740399911602655
40
0.740399911602655
40
1
40
1
40
1
40
1
41
1
10
45.0044231104049
20
28.1981810583397
30
0
41
1
10
44.9976873474949
20
28.1942321449691
30
0
41
1
10
44.9910867899157
20
28.1900406846879
30
0
41
1
10
44.9570784950114
20
28.1667122985834
30
0
41
1
10
44.9321859337751
20
28.1432779414416
30
0
41
1
10
44.8912662851596
20
28.091197090818
30
0
41
1
10
44.8747864906562
20
28.061855109704
30
0
41
1
10
44.8509200085362
20
27.9996442273376
30
0
41
1
10
44.8438374246744
20
27.9659038510297
30
0
41
1
10
44.8397886488947
20
27.8971872076184
30
0
41
1
10
44.8436204700991
20
27.861501225803
30
0
41
1
10
44.8525489664152
20
27.8281523379785
30
0
0
SPLINE
5
135
100
AcDbEntity
8
1
62
256
6
ByLayer
370
18
48
1
60
0
100
AcDbSpline
70
4
71
3
72
16
73
12
40
0
40
0
40
0
40
0
40
0.0517235387679175
40
0.0517235387679175
40
0.27509867752207
40
0.27509867752207
40
0.500660612380073
40
0.500660612380073
40
0.740399911602665
40
0.740399911602665
40
1
40
1
40
1
40
1
41
1
10
46.9955768895952
20
24.8018189416602
30
0
41
1
10
47.0023126525052
20
24.8057678550308
30
0
41
1
10
47.0089132100844
20
24.809959315312
30
0
41
1
10
47.0429215049886
20
24.8332877014164
30
0
41
1
10
47.067814066225
20
24.8567220585583
30
0
41
1
10
47.1087337148404
20
24.9088029091819
30
0
41
1
10
47.1252135093438
20
24.9381448902959
30
0
41
1
10
47.1490799914639
20
25.0003557726623
30
0
41
1
10
47.1561625753256
20
25.0340961489702
30
0
41
1
10
47.1602113511054
20
25.1028127923815
30
0
41
1
10
47.1563795299009
20
25.1384987741969
30
0
41
1
10
47.1474510335849
20
25.1718476620214
30
0
0
SPLINE
5
136
100
AcDbEntity
8
1
62
256
6
ByLayer
370
18
48
1
60
0
100
AcDbSpline
70
4
71
3
72
10
73
6
40
0
40
0
40
0
40
0
40
0.47973682623675
40
0.47973682623675
40
1
40
1
40
1
40
1
41
1
10
46.1527412933765
20
27.9077379362998
30
0
41
1
10
46.2365282379028
20
27.9235034407665
30
0
41
1
10
46.3168655563164
20
27.9524502191128
30
0
41
1
10
46.4652196064295
20
28.0313736945041
30
0
41
1
10
46.5341233557971
20
28.0839561845951
30
0
41
1
10
46.5921177041672
20
28.1435826280887
30
0
0
SPLINE
5
137
100
AcDbEntity
8
1
62
256
6
ByLayer
370
18
48
1
60
0
100
AcDbSpline
70
4
71
3
72
14
73
10
40
0
40
0
40
0
40
0
40
0.281038222380443
40
0.281038222380443
40
0.564557857067089
40
0.564557857067089
40
0.820700196130096
40
0.820700196130096
40
1
40
1
40
1
40
1
41
1
10
46.5921177041672
20
24.8564173719112
30
0
41
1
10
46.6186993754269
20
24.82908763093
30
0
41
1
10
46.650956030905
20
24.805634475464
30
0
41
1
10
46.722764805511
20
24.771425139573
30
0
41
1
10
46.7635279239202
20
24.7603152409551
30
0
41
1
10
46.8428270852509
20
24.7546513144257
30
0
41
1
10
46.8824075126984
20
24.7585882743569
30
0
41
1
10
46.9460823269879
20
24.7768845653543
30
0
41
1
10
46.9718293672143
20
24.7878967015365
30
0
41
1
10
46.9955768895952
20
24.8018189416602
30
0
0
SPLINE
5
138
100
AcDbEntity
8
1
62
256
6
ByLayer
370
18
48
1
60
0
100
AcDbSpline
70
4
71
3
72
10
73
6
40
0
40
0
40
0
40
0
40
0.479736826302606
40
0.479736826302606
40
1
40
1
40
1
40
1
41
1
10
45.8472587066236
20
25.0922620637001
30
0
41
1
10
45.7634717620859
20
25.0764965592313
30
0
41
1
10
45.6831344436619
20
25.0475497808792
30
0
41
1
10
45.5347803935531
20
24.9686263054825
30
0
41
1
10
45.4658766441957
20
24.9160438153973
30
0
41
1
10
45.4078822958328
20
24.8564173719112
30
0
0
SPLINE
5
139
100
AcDbEntity
8
1
62
256
6
ByLayer
370
18
48
1
60
0
100
AcDbSpline
70
4
71
3
72
16
73
12
40
0
40
0
40
0
40
0
40
0.0660777514108821
40
0.0660777514108821
40
0.28923285819987
40
0.28923285819987
40
0.515409129607286
40
0.515409129607286
40
0.756439127791309
40
0.756439127791309
40
1
40
1
40
1
40
1
41
1
10
44.0315
20
26.4999999999999
30
0
41
1
10
44.0315
20
26.4900413932558
30
0
41
1
10
44.0319521370927
20
26.4800703037082
30
0
41
1
10
44.035870606949
20
26.4369108485012
30
0
41
1
10
44.0441232851388
20
26.4038156675451
30
0
41
1
10
44.0694977332366
20
26.342693743501
30
0
41
1
10
44.0870353182329
20
26.3139542857457
30
0
41
1
10
44.1296874761397
20
26.2626217014161
30
0
41
1
10
44.1557295062842
20
26.2398904973956
30
0
41
1
10
44.2118903369798
20
26.2039574606322
30
0
41
1
10
44.242638287392
20
26.1904461708353
30
0
41
1
10
44.2739045598557
20
26.1818380304531
30
0
0
SPLINE
5
13A
100
AcDbEntity
8
1
62
256
6
ByLayer
370
18
48
1
60
0
100
AcDbSpline
70
4
71
3
72
14
73
10
40
0
40
0
40
0
40
0
40
0.285014780844613
40
0.285014780844613
40
0.572350605982606
40
0.572350605982606
40
0.832166772861825
40
0.832166772861825
40
1
40
1
40
1
40
1
41
1
10
47.1474510335849
20
27.8281523379785
30
0
41
1
10
47.1572544616642
20
27.8647691894327
30
0
41
1
10
47.1608991991341
20
27.9042713920943
30
0
41
1
10
47.153693991241
20
27.9830512387511
30
0
41
1
10
47.1425429113445
20
28.0235402482585
30
0
41
1
10
47.107298749111
20
28.0942746415249
30
0
41
1
10
47.0839525870207
20
28.1261679353043
30
0
41
1
10
47.0377550838958
20
28.1700414375131
30
0
41
1
10
47.0173258483135
20
28.1854304976346
30
0
41
1
10
46.9955768895952
20
28.1981810583397
30
0
0
SPLINE
5
13B
100
AcDbEntity
8
1
62
256
6
ByLayer
370
18
48
1
60
0
100
AcDbSpline
70
4
71
3
72
18
73
14
40
0
40
0
40
0
40
0
40
0.213081026856109
40
0.213081026856109
40
0.38716075070476
40
0.38716075070476
40
0.562948851464656
40
0.562948851464656
40
0.715638295683703
40
0.715638295683703
40
0.919170771668927
40
0.919170771668927
40
1
40
1
40
1
40
1
41
1
10
47.7260954401443
20
26.1818380304531
30
0
41
1
10
47.6437040264742
20
26.1591542629531
30
0
41
1
10
47.5621171389576
20
26.1227274869734
30
0
41
1
10
47.4256662182536
20
26.0317269440962
30
0
41
1
10
47.3672150493795
20
25.9805084832663
30
0
41
1
10
47.2661041429076
20
25.8619239121138
30
0
41
1
10
47.2222813842307
20
25.7924955103006
30
0
41
1
10
47.1623456109347
20
25.6573755135934
30
0
41
1
10
47.1425367132623
20
25.5908273926395
30
0
41
1
10
47.1163534643372
20
25.4385277360788
30
0
41
1
10
47.1158957320857
20
25.351154096332
30
0
41
1
10
47.1323120448847
20
25.2359448831482
30
0
41
1
10
47.1389765921737
20
25.2035006062568
30
0
41
1
10
47.1474510335849
20
25.1718476620214
30
0
0
SPLINE
5
13C
100
AcDbEntity
8
1
62
256
6
ByLayer
370
18
48
1
60
0
100
AcDbSpline
70
4
71
3
72
18
73
14
40
0
40
0
40
0
40
0
40
0.213081262000626
40
0.213081262000626
40
0.387160943926356
40
0.387160943926356
40
0.562948999942018
40
0.562948999942018
40
0.715638435810395
40
0.715638435810395
40
0.919170953808139
40
0.919170953808139
40
1
40
1
40
1
40
1
41
1
10
47.1474510335849
20
27.8281523379785
30
0
41
1
10
47.1253499966636
20
27.7456026033975
30
0
41
1
10
47.1155116663086
20
27.6567963171877
30
0
41
1
10
47.1250052625331
20
27.4930591646996
30
0
41
1
10
47.1396283941554
20
27.4167307174994
30
0
41
1
10
47.1907914435921
20
27.2695300091916
30
0
41
1
10
47.2285222509958
20
27.1966114249892
30
0
41
1
10
47.3147745125081
20
27.0765687241949
30
0
41
1
10
47.3621656692504
20
27.0258230633913
30
0
41
1
10
47.4803089305089
20
26.9262092090027
30
0
41
1
10
47.5554527440065
20
26.8816247717126
30
0
41
1
10
47.6631437334956
20
26.8375192838218
30
0
41
1
10
47.6945032391402
20
26.8268598436391
30
0
41
1
10
47.7260954401443
20
26.8181619695468
30
0
0
SPLINE
5
13D
100
AcDbEntity
8
1
62
256
6
ByLayer
370
18
48
1
60
0
100
AcDbSpline
70
4
71
3
72
14
73
10
40
0
40
0
40
0
40
0
40
0.285014780844613
40
0.285014780844613
40
0.572350605982606
40
0.572350605982606
40
0.832166772861825
40
0.832166772861825
40
1
40
1
40
1
40
1
41
1
10
44.8525489664152
20
25.1718476620214
30
0
41
1
10
44.8427455383359
20
25.1352308105672
30
0
41
1
10
44.839100800866
20
25.0957286079056
30
0
41
1
10
44.8463060087591
20
25.0169487612488
30
0
41
1
10
44.8574570886556
20
24.9764597517414
30
0
41
1
10
44.8927012508891
20
24.905725358475
30
0
41
1
10
44.9160474129793
20
24.8738320646956
30
0
41
1
10
44.9622449161042
20
24.8299585624867
30
0
41
1
10
44.9826741516866
20
24.8145695023653
30
0
41
1
10
45.0044231104048
20
24.8018189416602
30
0
0
LINE
5
75
100
AcDbEntity
8
80
62
256
6
ByLayer
370
18
48
1
60
0
100
AcDbLine
10
0
20
0
30
0
11
-5
21
0
31
0
39
0
210
0
220
0
230
1
0
LINE
5
76
100
AcDbEntity
8
1
62
256
6
ByLayer
370
18
48
1
60
0
100
AcDbLine
10
0.3
20
-25
30
0
11
20
21
-25
31
0
39
0
210
0
220
0
230
1
0
LINE
5
78
100
AcDbEntity
8
1
62
256
6
ByLayer
370
18
48
1
60
0
100
AcDbLine
10
0.3
20
25
30
0
11
0
21
24.7
31
0
39
0
210
0
220
0
230
1
0
LINE
5
79
100
AcDbEntity
8
1
62
256
6
ByLayer
370
18
48
1
60
0
100
AcDbLine
10
0
20
-24.7
30
0
11
0.3
21
-25
31
0
39
0
210
0
220
0
230
1
0
LINE
5
7A
100
AcDbEntity
8
1
62
256
6
ByLayer
370
18
48
1
60
0
100
AcDbLine
10
20.67946
20
25
30
0
11
0.3
21
25
31
0
39
0
210
0
220
0
230
1
0
LINE
5
7B
100
AcDbEntity
8
81
62
256
6
ByLayer
370
18
48
1
60
0
100
AcDbLine
10
60
20
35
30
0
11
65
21
35
31
0
39
0
210
0
220
0
230
1
0
LINE
5
7C
100
AcDbEntity
8
4
62
256
6
ByLayer
370
18
48
0.05
60
0
100
AcDbLine
10
0
20
0
30
0
11
57
21
0
31
0
39
0
210
0
220
0
230
1
0
LINE
5
7E
100
AcDbEntity
8
SK4
62
256
6
ByLayer
370
18
48
0.05
60
0
100
AcDbLine
10
-35
20
0
30
0
11
57
21
0
31
0
39
0
210
0
220
0
230
1
0
LINE
5
80
100
AcDbEntity
8
SK1
62
256
6
ByLayer
370
18
48
1
60
0
100
AcDbLine
10
-0.2
20
6.103447
30
0
11
-0.2
21
17.833485
31
0
39
0
210
0
220
0
230
1
0
LINE
5
82
100
AcDbEntity
8
SK1
62
256
6
ByLayer
370
18
48
1
60
0
100
AcDbLine
10
-1.307107
20
-3.918065
30
0
11
-1.307107
21
3.918065
31
0
39
0
210
0
220
0
230
1
0
LINE
5
83
100
AcDbEntity
8
SK1
62
256
6
ByLayer
370
18
48
1
60
0
100
AcDbLine
10
-0.2
20
-17.833485
30
0
11
-0.2
21
-6.103448
31
0
39
0
210
0
220
0
230
1
0
LINE
5
84
100
AcDbEntity
8
1
62
256
6
ByLayer
370
18
48
1
60
0
100
AcDbLine
10
38.223702
20
34.75
30
0
11
38.223702
21
14.539229
31
0
39
0
210
0
220
0
230
1
0
LINE
5
85
100
AcDbEntity
8
1
62
256
6
ByLayer
370
18
48
1
60
0
100
AcDbLine
10
33.496091
20
34.75
30
0
11
33.864485
21
34.75
31
0
39
0
210
0
220
0
230
1
0
LINE
5
86
100
AcDbEntity
8
1
62
256
6
ByLayer
370
18
48
1
60
0
100
AcDbLine
10
23.5
20
34.535365
30
0
11
23.5
21
34.332069
31
0
39
0
210
0
220
0
230
1
0
LINE
5
87
100
AcDbEntity
8
1
62
256
6
ByLayer
370
18
48
1
60
0
100
AcDbLine
10
32.963133
20
10.342243
30
0
11
22.258068
21
1.801531
31
0
39
0
210
0
220
0
230
1
0
LINE
5
88
100
AcDbEntity
8
1
62
256
6
ByLayer
370
18
48
1
60
0
100
AcDbLine
10
25.797897
20
34.700921
30
0
11
32.963133
21
30.630409
31
0
39
0
210
0
220
0
230
1
0
LINE
5
89
100
AcDbEntity
8
1
62
256
6
ByLayer
370
18
48
1
60
0
100
AcDbLine
10
48.806449
20
22.982352
30
0
11
42
21
17.552033
31
0
39
0
210
0
220
0
230
1
0
LINE
5
8A
100
AcDbEntity
8
1
62
256
6
ByLayer
370
18
48
1
60
0
100
AcDbLine
10
8.105662
20
8.055848
30
0
11
8.105662
21
23.666502
31
0
39
0
210
0
220
0
230
1
0
LINE
5
8B
100
AcDbEntity
8
1
62
256
6
ByLayer
370
18
48
1
60
0
100
AcDbLine
10
44.496949
20
30.741561
30
0
11
44.496949
21
34.75
31
0
39
0
210
0
220
0
230
1
0
LINE
5
8C
100
AcDbEntity
8
1
62
256
6
ByLayer
370
18
48
1
60
0
100
AcDbLine
10
11.461325
20
-23.83913
30
0
11
11.461325
21
-7.529667
31
0
39
0
210
0
220
0
230
1
0
LINE
5
8D
100
AcDbEntity
8
1
62
256
6
ByLayer
370
18
48
1
60
0
100
AcDbLine
10
50.5
20
26.5
30
0
11
50.5
21
31.65
31
0
39
0
210
0
220
0
230
1
0
LINE
5
8E
100
AcDbEntity
8
1
62
256
6
ByLayer
370
18
48
1
60
0
100
AcDbLine
10
33.864485
20
11.06136
30
0
11
32.963133
21
10.342243
31
0
39
0
210
0
220
0
230
1
0
LINE
5
8F
100
AcDbEntity
8
1
62
256
6
ByLayer
370
18
48
1
60
0
100
AcDbLine
10
46
20
31
30
0
11
49.495467
21
31
31
0
39
0
210
0
220
0
230
1
0
LINE
5
90
100
AcDbEntity
8
1
62
256
6
ByLayer
370
18
48
1
60
0
100
AcDbLine
10
50.209541
20
24.852726
30
0
11
50.5
21
26.5
31
0
39
0
210
0
220
0
230
1
0
LINE
5
91
100
AcDbEntity
8
1
62
256
6
ByLayer
370
18
48
1
60
0
100
AcDbLine
10
46
20
31
30
0
11
46
21
30.5
31
0
39
0
210
0
220
0
230
1
0
LINE
5
92
100
AcDbEntity
8
1
62
256
6
ByLayer
370
18
48
1
60
0
100
AcDbLine
10
41.5
20
26.5
30
0
11
42
21
26.5
31
0
39
0
210
0
220
0
230
1
0
LINE
5
93
100
AcDbEntity
8
1
62
256
6
ByLayer
370
18
48
1
60
0
100
AcDbLine
10
41.5
20
17.153124
30
0
11
42
21
17.552033
31
0
39
0
210
0
220
0
230
1
0
LINE
5
94
100
AcDbEntity
8
1
62
256
6
ByLayer
370
18
48
1
60
0
100
AcDbLine
10
38.223702
20
34.75
30
0
11
44.496949
21
34.75
31
0
39
0
210
0
220
0
230
1
0
LINE
5
95
100
AcDbEntity
8
1
62
256
6
ByLayer
370
18
48
1
60
0
100
AcDbLine
10
53.255042
20
34.75
30
0
11
44.496949
21
34.75
31
0
39
0
210
0
220
0
230
1
0
LINE
5
96
100
AcDbEntity
8
1
62
256
6
ByLayer
370
18
48
1
60
0
100
AcDbLine
10
0
20
-24.7
30
0
11
0
21
24.7
31
0
39
0
210
0
220
0
230
1
0
LINE
5
97
100
AcDbEntity
8
1
62
256
6
ByLayer
370
18
48
1
60
0
100
AcDbLine
10
46
20
30.5
30
0
11
50.209541
21
30.5
31
0
39
0
210
0
220
0
230
1
0
LINE
5
98
100
AcDbEntity
8
1
62
256
6
ByLayer
370
18
48
1
60
0
100
AcDbLine
10
11.461325
20
-7.529667
30
0
11
8.538675
21
-7.529667
31
0
39
0
210
0
220
0
230
1
0
LINE
5
99
100
AcDbEntity
8
1
62
256
6
ByLayer
370
18
48
1
60
0
100
AcDbLine
10
8.538675
20
7.529667
30
0
11
11.461325
21
7.529667
31
0
39
0
210
0
220
0
230
1
0
LINE
5
9A
100
AcDbEntity
8
1
62
256
6
ByLayer
370
18
48
1
60
0
100
AcDbLine
10
11.894338
20
-23.666502
30
0
11
11.894338
21
-8.055848
31
0
39
0
210
0
220
0
230
1
0
LINE
5
9B
100
AcDbEntity
8
1
62
256
6
ByLayer
370
18
48
1
60
0
100
AcDbLine
10
34.238924
20
34.75
30
0
11
34.238924
21
11.360094
31
0
39
0
210
0
220
0
230
1
0
LINE
5
9C
100
AcDbEntity
8
1
62
256
6
ByLayer
370
18
48
1
60
0
100
AcDbLine
10
34.047919
20
11.207707
30
0
11
34.047919
21
34.75
31
0
39
0
210
0
220
0
230
1
0
LINE
5
9D
100
AcDbEntity
8
1
62
256
6
ByLayer
370
18
48
1
60
0
100
AcDbLine
10
41.5
20
17.153124
30
0
11
41.5
21
26.5
31
0
39
0
210
0
220
0
230
1
0
LINE
5
9E
100
AcDbEntity
8
1
62
256
6
ByLayer
370
18
48
1
60
0
100
AcDbLine
10
8.105662
20
-23.666502
30
0
11
8.105662
21
-8.055848
31
0
39
0
210
0
220
0
230
1
0
LINE
5
9F
100
AcDbEntity
8
1
62
256
6
ByLayer
370
18
48
1
60
0
100
AcDbLine
10
11.461325
20
23.83913
30
0
11
8.538675
21
23.83913
31
0
39
0
210
0
220
0
230
1
0
LINE
5
A0
100
AcDbEntity
8
1
62
256
6
ByLayer
370
18
48
1
60
0
100
AcDbLine
10
20.920792
20
0.305337
30
0
11
20.920792
21
24.871427
31
0
39
0
210
0
220
0
230
1
0
LINE
5
A1
100
AcDbEntity
8
1
62
256
6
ByLayer
370
18
48
1
60
0
100
AcDbLine
10
34.238924
20
11.360094
30
0
11
34.047919
21
11.207707
31
0
39
0
210
0
220
0
230
1
0
LINE
5
A2
100
AcDbEntity
8
1
62
256
6
ByLayer
370
18
48
1
60
0
100
AcDbLine
10
33.864485
20
34.75
30
0
11
33.864485
21
11.06136
31
0
39
0
210
0
220
0
230
1
0
LINE
5
A3
100
AcDbEntity
8
1
62
256
6
ByLayer
370
18
48
1
60
0
100
AcDbLine
10
38.223702
20
14.539229
30
0
11
34.238924
21
11.360094
31
0
39
0
210
0
220
0
230
1
0
LINE
5
A4
100
AcDbEntity
8
1
62
256
6
ByLayer
370
18
48
1
60
0
100
AcDbLine
10
50.209541
20
24.852726
30
0
11
50.209541
21
30.5
31
0
39
0
210
0
220
0
230
1
0
LINE
5
A5
100
AcDbEntity
8
1
62
256
6
ByLayer
370
18
48
1
60
0
100
AcDbLine
10
32.963133
20
30.630409
30
0
11
33.496091
21
34.75
31
0
39
0
210
0
220
0
230
1
0
LINE
5
A6
100
AcDbEntity
8
1
62
256
6
ByLayer
370
18
48
1
60
0
100
AcDbLine
10
33.864445
20
11.061327
30
0
11
34.047919
21
11.207707
31
0
39
0
210
0
220
0
230
1
0
LINE
5
A7
100
AcDbEntity
8
1
62
256
6
ByLayer
370
18
48
1
60
0
100
AcDbLine
10
11.461325
20
7.529667
30
0
11
11.461325
21
23.83913
31
0
39
0
210
0
220
0
230
1
0
LINE
5
A8
100
AcDbEntity
8
1
62
256
6
ByLayer
370
18
48
1
60
0
100
AcDbLine
10
8.538675
20
-23.83913
30
0
11
11.461325
21
-23.83913
31
0
39
0
210
0
220
0
230
1
0
LINE
5
A9
100
AcDbEntity
8
1
62
256
6
ByLayer
370
18
48
1
60
0
100
AcDbLine
10
50.14788
20
24.503027
30
0
11
48.806449
21
22.982352
31
0
39
0
210
0
220
0
230
1
0
LINE
5
AA
100
AcDbEntity
8
1
62
256
6
ByLayer
370
18
48
1
60
0
100
AcDbLine
10
34.047919
20
34.75
30
0
11
33.864445
21
34.75
31
0
39
0
210
0
220
0
230
1
0
LINE
5
AB
100
AcDbEntity
8
1
62
256
6
ByLayer
370
18
48
1
60
0
100
AcDbLine
10
42.223702
20
34.75
30
0
11
34.238924
21
34.75
31
0
39
0
210
0
220
0
230
1
0
LINE
5
AC
100
AcDbEntity
8
1
62
256
6
ByLayer
370
18
48
1
60
0
100
AcDbLine
10
34.047919
20
34.75
30
0
11
34.238924
21
34.75
31
0
39
0
210
0
220
0
230
1
0
LINE
5
AD
100
AcDbEntity
8
1
62
256
6
ByLayer
370
18
48
1
60
0
100
AcDbLine
10
52.1
20
33.25
30
0
11
53.255042
21
33.25
31
0
39
0
210
0
220
0
230
1
0
LINE
5
AE
100
AcDbEntity
8
1
62
256
6
ByLayer
370
18
48
1
60
0
100
AcDbLine
10
25.797714
20
34.75
30
0
11
33.496091
21
34.75
31
0
39
0
210
0
220
0
230
1
0
LINE
5
AF
100
AcDbEntity
8
1
62
256
6
ByLayer
370
18
48
1
60
0
100
AcDbLine
10
8.538675
20
7.529667
30
0
11
8.538675
21
23.83913
31
0
39
0
210
0
220
0
230
1
0
LINE
5
B0
100
AcDbEntity
8
1
62
256
6
ByLayer
370
18
48
1
60
0
100
AcDbLine
10
50.209541
20
24.852726
30
0
11
50.14788
21
24.503027
31
0
39
0
210
0
220
0
230
1
0
LINE
5
B1
100
AcDbEntity
8
1
62
256
6
ByLayer
370
18
48
1
60
0
100
AcDbLine
10
32.963133
20
10.342243
30
0
11
32.963133
21
30.630409
31
0
39
0
210
0
220
0
230
1
0
LINE
5
B2
100
AcDbEntity
8
1
62
256
6
ByLayer
370
18
48
1
60
0
100
AcDbLine
10
8.538675
20
-23.83913
30
0
11
8.538675
21
-7.529667
31
0
39
0
210
0
220
0
230
1
0
LINE
5
B3
100
AcDbEntity
8
1
62
256
6
ByLayer
370
18
48
1
60
0
100
AcDbLine
10
41.5
20
17.153124
30
0
11
38.223702
21
14.539229
31
0
39
0
210
0
220
0
230
1
0
LINE
5
B4
100
AcDbEntity
8
1
62
256
6
ByLayer
370
18
48
1
60
0
100
AcDbLine
10
11.894338
20
8.055848
30
0
11
11.894338
21
23.666502
31
0
39
0
210
0
220
0
230
1
0
LINE
5
B5
100
AcDbEntity
8
1
62
256
6
ByLayer
370
18
48
1
60
0
100
AcDbLine
10
20
20
-25
30
0
11
20
21
-2.888666
31
0
39
0
210
0
220
0
230
1
0
LINE
5
B6
100
AcDbEntity
8
1
62
256
6
ByLayer
370
18
48
1
60
0
100
AcDbLine
10
0.3
20
-25
30
0
11
0.3
21
25
31
0
39
0
210
0
220
0
230
1
0
LINE
5
B7
100
AcDbEntity
8
1
62
256
6
ByLayer
370
18
48
1
60
0
100
AcDbLine
10
42
20
17.552033
30
0
11
42
21
26.5
31
0
39
0
210
0
220
0
230
1
0
LINE
5
B8
100
AcDbEntity
8
1
62
256
6
ByLayer
370
18
48
1
60
0
100
AcDbLine
10
54.145796
20
34.8
30
0
11
55.2
21
34.8
31
0
39
0
210
0
220
0
230
1
0
LINE
5
B9
100
AcDbEntity
8
1
62
256
6
ByLayer
370
18
48
1
60
0
100
AcDbLine
10
54.301935
20
33.82899
30
0
11
53.458218
21
33.82899
31
0
39
0
210
0
220
0
230
1
0
LINE
5
BA
100
AcDbEntity
8
1
62
256
6
ByLayer
370
18
48
1
60
0
100
AcDbLine
10
54.301935
20
34.17101
30
0
11
54.154842
21
34.575146
31
0
39
0
210
0
220
0
230
1
0
LINE
5
BB
100
AcDbEntity
8
1
62
256
6
ByLayer
370
18
48
1
60
0
100
AcDbLine
10
54.301935
20
34.17101
30
0
11
53.463999
21
34.17101
31
0
39
0
210
0
220
0
230
1
0
LINE
5
BC
100
AcDbEntity
8
1
62
256
6
ByLayer
370
18
48
1
60
0
100
AcDbLine
10
54.154842
20
34.575146
30
0
11
53.32673
21
34.575146
31
0
39
0
210
0
220
0
230
1
0
LINE
5
BD
100
AcDbEntity
8
1
62
256
6
ByLayer
370
18
48
1
60
0
100
AcDbLine
10
54.145796
20
34.626449
30
0
11
53.305754
21
34.626449
31
0
39
0
210
0
220
0
230
1
0
LINE
5
BE
100
AcDbEntity
8
1
62
256
6
ByLayer
370
18
48
1
60
0
100
AcDbLine
10
54.301935
20
33.82899
30
0
11
54.154842
21
33.424854
31
0
39
0
210
0
220
0
230
1
0
LINE
5
BF
100
AcDbEntity
8
1
62
256
6
ByLayer
370
18
48
1
60
0
100
AcDbLine
10
54.145796
20
33.373551
30
0
11
54.145796
21
33.2
31
0
39
0
210
0
220
0
230
1
0
LINE
5
C0
100
AcDbEntity
8
1
62
256
6
ByLayer
370
18
48
1
60
0
100
AcDbLine
10
54.145796
20
33.2
30
0
11
55.2
21
33.2
31
0
39
0
210
0
220
0
230
1
0
LINE
5
C1
100
AcDbEntity
8
1
62
256
6
ByLayer
370
18
48
1
60
0
100
AcDbLine
10
56.785862
20
33.2
30
0
11
57
21
33.12206
31
0
39
0
210
0
220
0
230
1
0
LINE
5
C2
100
AcDbEntity
8
1
62
256
6
ByLayer
370
18
48
1
60
0
100
AcDbLine
10
57
20
33.12206
30
0
11
59.791276
21
33.00019
31
0
39
0
210
0
220
0
230
1
0
LINE
5
C3
100
AcDbEntity
8
1
62
256
6
ByLayer
370
18
48
1
60
0
100
AcDbLine
10
60
20
34.8
30
0
11
60
21
33.2
31
0
39
0
210
0
220
0
230
1
0
LINE
5
C4
100
AcDbEntity
8
1
62
256
6
ByLayer
370
18
48
1
60
0
100
AcDbLine
10
54.145796
20
33.373551
30
0
11
53.305754
21
33.373551
31
0
39
0
210
0
220
0
230
1
0
LINE
5
C5
100
AcDbEntity
8
1
62
256
6
ByLayer
370
18
48
1
60
0
100
AcDbLine
10
54.145796
20
34.626449
30
0
11
54.145796
21
34.8
31
0
39
0
210
0
220
0
230
1
0
LINE
5
C6
100
AcDbEntity
8
1
62
256
6
ByLayer
370
18
48
1
60
0
100
AcDbLine
10
55.2
20
33.2
30
0
11
55.2
21
34.8
31
0
39
0
210
0
220
0
230
1
0
LINE
5
C7
100
AcDbEntity
8
1
62
256
6
ByLayer
370
18
48
1
60
0
100
AcDbLine
10
56.785862
20
34.8
30
0
11
55.2
21
34.8
31
0
39
0
210
0
220
0
230
1
0
LINE
5
C8
100
AcDbEntity
8
1
62
256
6
ByLayer
370
18
48
1
60
0
100
AcDbLine
10
56.785862
20
34.8
30
0
11
57
21
34.87794
31
0
39
0
210
0
220
0
230
1
0
LINE
5
C9
100
AcDbEntity
8
1
62
256
6
ByLayer
370
18
48
1
60
0
100
AcDbLine
10
57
20
34.87794
30
0
11
59.791276
21
34.99981
31
0
39
0
210
0
220
0
230
1
0
LINE
5
CA
100
AcDbEntity
8
1
62
256
6
ByLayer
370
18
48
1
60
0
100
AcDbLine
10
43.214138
20
34.8
30
0
11
44.8
21
34.8
31
0
39
0
210
0
220
0
230
1
0
LINE
5
CB
100
AcDbEntity
8
1
62
256
6
ByLayer
370
18
48
1
60
0
100
AcDbLine
10
45.854204
20
34.8
30
0
11
54.145796
21
34.8
31
0
39
0
210
0
220
0
230
1
0
LINE
5
CC
100
AcDbEntity
8
1
62
256
6
ByLayer
370
18
48
1
60
0
100
AcDbLine
10
56.785862
20
33.2
30
0
11
55.2
21
33.2
31
0
39
0
210
0
220
0
230
1
0
LINE
5
CD
100
AcDbEntity
8
1
62
256
6
ByLayer
370
18
48
1
60
0
100
AcDbLine
10
45.854204
20
34.749998
30
0
11
45.854204
21
34.8
31
0
39
0
210
0
220
0
230
1
0
LINE
5
CE
100
AcDbEntity
8
1
62
256
6
ByLayer
370
18
48
1
60
0
100
AcDbLine
10
45.854204
20
34.8
30
0
11
44.8
21
34.8
31
0
39
0
210
0
220
0
230
1
0
LINE
5
CF
100
AcDbEntity
8
1
62
256
6
ByLayer
370
18
48
1
60
0
100
AcDbLine
10
54.154842
20
33.424854
30
0
11
53.32673
21
33.424854
31
0
39
0
210
0
220
0
230
1
0
LINE
5
D0
100
AcDbEntity
8
1
62
256
6
ByLayer
370
18
48
1
60
0
100
AcDbLine
10
44.8
20
34.75
30
0
11
44.8
21
34.8
31
0
39
0
210
0
220
0
230
1
0
LINE
5
D1
100
AcDbEntity
8
1
62
256
6
ByLayer
370
18
48
1
60
0
100
AcDbLine
10
43.214138
20
34.8
30
0
11
43
21
34.87794
31
0
39
0
210
0
220
0
230
1
0
LINE
5
D2
100
AcDbEntity
8
1
62
256
6
ByLayer
370
18
48
1
60
0
100
AcDbLine
10
43
20
34.87794
30
0
11
40.208724
21
34.99981
31
0
39
0
210
0
220
0
230
1
0
LINE
5
D3
100
AcDbEntity
8
1
62
256
6
ByLayer
370
18
48
1
60
0
100
AcDbLine
10
40
20
34.8
30
0
11
40
21
34.749975
31
0
39
0
210
0
220
0
230
1
0
LINE
5
D4
100
AcDbEntity
8
1
62
256
6
ByLayer
370
18
48
1
60
0
100
AcDbLine
10
51.703015
20
33.2
30
0
11
54.145796
21
33.2
31
0
39
0
210
0
220
0
230
1
0
MTEXT
5
13E
100
AcDbEntity
8
SK6
62
256
6
ByLayer
370
18
48
1
60
0
100
AcDbMText
10
-16.624987
20
-35.875
30
0
210
0
220
0
230
1
1
\W0.7461;C5-RF123E08-35060B
40
3.5
41
0
44
1.084337
50
0
71
7
72
5
7
iso_b_vert
0
DIMENSION
5
150
100
AcDbEntity
8
SK2
62
256
6
ByLayer
370
13
48
1
60
0
100
AcDbDimension
2
DimnDraft3D1
10
-44.75
20
25
30
0
11
-44.75
21
-2.688158
31
0
70
32
71
5
72
1
41
1
210
0
220
0
230
1
3
Standard
100
AcDbAlignedDimension
13
-1.5
23
-25
33
0
14
-1.5
24
25
34
0
50
90
100
AcDbRotatedDimension
1001
ACAD
1000
DSTYLE
1002
{
1070
    74
1070
     0
1070
   279
1070
     0
1070
   172
1070
     1
1070
   173
1070
     1
1070
   340
1005
13F
1070
   271
1070
     3
1070
   272
1070
     3
1070
    77
1070
     1
1070
    73
1070
     0
1070
   171
1070
     4
1070
   274
1070
     4
1070
   177
1070
     2
1070
   176
1070
     2
1070
   178
1070
     7
1070
    78
1070
     8
1070
    41
1041
3.0
1070
   147
1041
2.25
1070
    42
1041
1.5
1070
    44
1041
3.0
1070
   140
1041
4.5
1070
   343
1005
151
1070
   344
1005
151
1002
}
0
DIMENSION
5
165
100
AcDbEntity
8
2
62
256
6
ByLayer
370
13
48
1
60
0
100
AcDbDimension
2
DimnDraft3D2
10
74.25
20
35
30
0
11
74.25
21
39.5
31
0
70
32
71
5
72
1
41
1
210
0
220
0
230
1
3
Standard
100
AcDbAlignedDimension
13
61.5
23
33
33
0
14
61.5
24
35
34
0
50
90
100
AcDbRotatedDimension
1001
ACAD
1000
DSTYLE
1002
{
1070
    74
1070
     0
1070
   279
1070
     0
1070
   172
1070
     1
1070
   173
1070
     1
1070
   340
1005
13F
1070
   271
1070
     3
1070
   272
1070
     3
1070
    77
1070
     1
1070
    73
1070
     0
1070
   171
1070
     4
1070
   274
1070
     4
1070
   177
1070
     2
1070
   176
1070
     2
1070
   178
1070
     7
1070
    78
1070
     8
1070
    41
1041
3.0
1070
   147
1041
2.25
1070
    42
1041
1.5
1070
    44
1041
3.0
1070
   140
1041
4.5
1070
   343
1005
151
1070
   344
1005
151
1002
}
0
DIMENSION
5
173
100
AcDbEntity
8
2
62
256
6
ByLayer
370
13
48
1
60
0
100
AcDbDimension
2
DimnDraft3D3
10
84.25
20
0
30
0
11
84.25
21
14.811842
31
0
70
32
71
5
72
1
41
1
210
0
220
0
230
1
3
Standard
100
AcDbAlignedDimension
13
61.5
23
35
33
0
14
16.5
24
0
34
0
50
90
100
AcDbRotatedDimension
1001
ACAD
1000
DSTYLE
1002
{
1070
    74
1070
     0
1070
   279
1070
     0
1070
   172
1070
     1
1070
   173
1070
     1
1070
   340
1005
13F
1070
   271
1070
     3
1070
   272
1070
     3
1070
    77
1070
     1
1070
    73
1070
     0
1070
   171
1070
     4
1070
   274
1070
     4
1070
   177
1070
     2
1070
   176
1070
     2
1070
   178
1070
     7
1070
    78
1070
     8
1070
    41
1041
3.0
1070
   147
1041
2.25
1070
    42
1041
1.5
1070
    44
1041
3.0
1070
   140
1041
4.5
1070
   343
1005
151
1070
   344
1005
151
1002
}
0
DIMENSION
5
181
100
AcDbEntity
8
2
62
256
6
ByLayer
370
13
48
1
60
0
100
AcDbDimension
2
DimnDraft3D4
10
60
20
44.75
30
0
11
27.311842
21
44.75
31
0
70
32
71
5
72
1
41
1
210
0
220
0
230
1
3
Standard
100
AcDbAlignedDimension
13
0
23
1.5
33
0
14
60
24
35.5
34
0
50
0
100
AcDbRotatedDimension
1001
ACAD
1000
DSTYLE
1002
{
1070
   279
1070
     0
1070
   172
1070
     1
1070
   173
1070
     1
1070
   340
1005
13F
1070
   271
1070
     3
1070
   272
1070
     3
1070
    77
1070
     1
1070
    73
1070
     0
1070
   171
1070
     4
1070
   274
1070
     4
1070
   177
1070
     2
1070
   176
1070
     2
1070
   178
1070
     7
1070
    78
1070
     8
1070
    41
1041
3.0
1070
   147
1041
2.25
1070
    42
1041
1.5
1070
    44
1041
3.0
1070
   140
1041
4.5
1070
   343
1005
151
1070
   344
1005
151
1002
}
0
DIMENSION
5
18F
100
AcDbEntity
8
2
62
256
6
ByLayer
370
13
48
1
60
0
100
AcDbDimension
2
DimnDraft3D5
10
60
20
-14.25
30
0
11
54.993421
21
-14.25
31
0
70
32
71
5
72
1
41
1
210
0
220
0
230
1
3
Standard
100
AcDbAlignedDimension
13
52
23
30.5
33
0
14
60
24
31.5
34
0
50
0
100
AcDbRotatedDimension
1001
ACAD
1000
DSTYLE
1002
{
1070
   279
1070
     0
1070
   172
1070
     1
1070
   173
1070
     1
1070
   340
1005
13F
1070
   271
1070
     3
1070
   272
1070
     3
1070
    77
1070
     1
1070
    73
1070
     0
1070
   171
1070
     4
1070
   274
1070
     4
1070
   177
1070
     2
1070
   176
1070
     2
1070
   178
1070
     7
1070
    78
1070
     8
1070
    41
1041
3.0
1070
   147
1041
2.25
1070
    42
1041
1.5
1070
    44
1041
3.0
1070
   140
1041
4.5
1070
   343
1005
151
1070
   344
1005
151
1002
}
0
ENDSEC
0
SECTION
2
OBJECTS
0
DICTIONARY
5
1fb
330
0
100
AcDbDictionary
280
0
281
1
3
ACAD_GROUP
350
1fc
3
ACAD_MLINESTYLE
350
1fd
0
DICTIONARY
5
1fc
330
0
100
AcDbDictionary
280
0
281
1
0
DICTIONARY
5
1fd
330
0
100
AcDbDictionary
280
0
281
1
3
Standard
350
18
0
MLINESTYLE
5
18
330
1fd
100
AcDbMlineStyle
2
Standard
70
0
3

62
256
51
90
52
90
71
2
49
-0.5
62
256
6
ByLayer
49
0.5
62
256
6
ByLayer
0
RASTERVARIABLES
5
1e8
330

100
AcDbRasterVariables
90
0
70
1
71
1
72
1
0
ENDSEC
0
EOF
