0
SECTION
2
HEADER
9
$ACADVER
1
AC1015
9
$DWGCODEPAGE
3
ANSI_1252
9
$HANDSEED
5
2ec
9
$ANGBASE
50
0
9
$ANGDIR
70
0
9
$ATTMODE
70
1
9
$AUNITS
70
0
9
$AUPREC
70
0
9
$CECOLOR
62
256
9
$CELTSCALE
40
1
9
$CELTYPE
6
ByLayer
9
$CELWEIGHT
370
18
9
$CLAYER
8
0
9
$CMLJUST
70
0
9
$CMLSCALE
40
1
9
$CMLSTYLE
2
Standard
9
$DIMSTYLE
2
Standard
9
$TEXTSIZE
40
0.2
9
$TEXTSTYLE
7
Standard
9
$LUNITS
70
2
9
$LUPREC
70
4
9
$EXTNAMES
290
1
9
$INSUNITS
70
4
9
$LTSCALE
40
1
9
$LWDISPLAY
290
1
9
$PDMODE
70
0
9
$PDSIZE
40
0
9
$PLINEGEN
70
0
0
ENDSEC
0
SECTION
2
CLASSES
0
CLASS
1
RASTERVARIABLES
2
AcDbRasterVariables
3
ISM
90
0
280
0
281
0
0
ENDSEC
0
SECTION
2
TABLES
0
TABLE
2
VPORT
5
2e2
100
AcDbSymbolTable
0
VPORT
5
1
100
AcDbSymbolTableRecord
100
AcDbViewportTableRecord
2
*Active
70
0
10
0
20
0
11
1
21
1
12
-1
22
1
13
0
23
0
14
0.5
24
0.5
15
10
25
10
16
0
26
0
36
1
17
0
27
0
37
0
0
ENDTAB
0
TABLE
2
LTYPE
5
2e3
100
AcDbSymbolTable
0
LTYPE
5
14
100
AcDbSymbolTableRecord
100
AcDbLinetypeTableRecord
70
0
2
ByBlock
3

72
65
73
0
40
0
0
LTYPE
5
15
100
AcDbSymbolTableRecord
100
AcDbLinetypeTableRecord
70
0
2
ByLayer
3

72
65
73
0
40
0
0
LTYPE
5
16
100
AcDbSymbolTableRecord
100
AcDbLinetypeTableRecord
70
0
2
CONTINUOUS
3
Solid line
72
65
73
0
40
0
0
LTYPE
5
6A
100
AcDbSymbolTableRecord
100
AcDbLinetypeTableRecord
70
0
2
CENTER
3
____ _ ____ _ ____ _ ____
72
65
73
4
40
47.5
49
22
74
0
49
-8.5
74
0
49
8.5
74
0
49
-8.5
74
0
0
LTYPE
5
6B
100
AcDbSymbolTableRecord
100
AcDbLinetypeTableRecord
70
0
2
DASHED
3
__ __ __ __ __ __ __ __ __
72
65
73
2
40
25.72
49
12.86
74
0
49
-12.86
74
0
0
ENDTAB
0
TABLE
2
LAYER
5
2e4
100
AcDbSymbolTable
0
LAYER
5
10
100
AcDbSymbolTableRecord
100
AcDbLayerTableRecord
2
0
70
0
62
7
6
CONTINUOUS
290
1
370
-3
390
0
0
LAYER
5
6D
100
AcDbSymbolTableRecord
100
AcDbLayerTableRecord
2
81
70
0
62
-3
6
CONTINUOUS
290
1
370
-3
390
0
0
LAYER
5
6F
100
AcDbSymbolTableRecord
100
AcDbLayerTableRecord
2
80
70
0
62
-6
6
CONTINUOUS
290
1
370
-3
390
0
0
LAYER
5
71
100
AcDbSymbolTableRecord
100
AcDbLayerTableRecord
2
1
70
0
62
4
6
CONTINUOUS
290
1
370
-3
390
0
0
LAYER
5
229
100
AcDbSymbolTableRecord
100
AcDbLayerTableRecord
2
2
70
0
62
7
6
CONTINUOUS
290
1
370
-3
390
0
0
LAYER
5
2cf
100
AcDbSymbolTableRecord
100
AcDbLayerTableRecord
2
SK1
70
0
62
4
6
CONTINUOUS
290
1
370
-3
390
0
0
LAYER
5
2d0
100
AcDbSymbolTableRecord
100
AcDbLayerTableRecord
2
SK6
70
0
62
5
6
CONTINUOUS
290
1
370
-3
390
0
0
LAYER
5
2d1
100
AcDbSymbolTableRecord
100
AcDbLayerTableRecord
2
SK2
70
0
62
7
6
CONTINUOUS
290
1
370
-3
390
0
0
ENDTAB
0
TABLE
2
STYLE
5
2e5
100
AcDbSymbolTable
0
STYLE
5
11
100
AcDbSymbolTableRecord
100
AcDbTextStyleTableRecord
2
Standard
3
txt
70
0
71
0
40
0
41
1
42
0
50
0
0
STYLE
5
224
100
AcDbSymbolTableRecord
100
AcDbTextStyleTableRecord
2
iso_b_vert
3
simplex.shx
70
0
71
0
40
0
41
1
42
0
50
0
0
STYLE
5
225
100
AcDbSymbolTableRecord
100
AcDbTextStyleTableRecord
2
DWGDirectTextStyle
3
simplex
70
0
71
0
40
0
41
1
42
0
50
0
0
ENDTAB
0
TABLE
2
DIMSTYLE
5
2e6
100
AcDbSymbolTable
100
AcDbDimStyleTable
0
DIMSTYLE
105
27
100
AcDbSymbolTableRecord
100
AcDbDimStyleTableRecord
2
Standard
70
0
3
<>
41
0.18
42
0.0625
44
0.18
140
0.18
147
0.09
73
0
74
0
77
1
271
2
275
0
278
52
280
0
340
11
0
ENDTAB
0
TABLE
2
VIEW
5
2e7
100
AcDbSymbolTable
0
ENDTAB
0
TABLE
2
UCS
5
2e8
100
AcDbSymbolTable
0
ENDTAB
0
TABLE
2
APPID
5
2e9
100
AcDbSymbolTable
0
APPID
5
12
100
AcDbSymbolTableRecord
100
AcDbRegAppTableRecord
2
ACAD
70
0
0
ENDTAB
0
TABLE
2
BLOCK_RECORD
5
2ea
100
AcDbSymbolTable
0
BLOCK_RECORD
5
1F
100
AcDbSymbolTableRecord
100
AcDbBlockTableRecord
2
*Model_Space
340
0
70
0
0
BLOCK_RECORD
5
1B
100
AcDbSymbolTableRecord
100
AcDbBlockTableRecord
2
*Paper_Space
340
0
70
0
0
BLOCK_RECORD
5
23
100
AcDbSymbolTableRecord
100
AcDbBlockTableRecord
2
*Paper_Space0
340
0
70
0
0
BLOCK_RECORD
5
227
100
AcDbSymbolTableRecord
100
AcDbBlockTableRecord
2
DimnDraft3D1
340
0
70
0
0
BLOCK_RECORD
5
236
100
AcDbSymbolTableRecord
100
AcDbBlockTableRecord
2
_CLOSED
340
0
70
0
0
BLOCK_RECORD
5
23D
100
AcDbSymbolTableRecord
100
AcDbBlockTableRecord
2
DimnDraft3D2
340
0
70
0
0
BLOCK_RECORD
5
24C
100
AcDbSymbolTableRecord
100
AcDbBlockTableRecord
2
DimnDraft3D3
340
0
70
0
0
BLOCK_RECORD
5
25A
100
AcDbSymbolTableRecord
100
AcDbBlockTableRecord
2
DimnDraft3D4
340
0
70
0
0
BLOCK_RECORD
5
268
100
AcDbSymbolTableRecord
100
AcDbBlockTableRecord
2
DimnDraft3D5
340
0
70
0
0
ENDTAB
0
ENDSEC
0
SECTION
2
BLOCKS
0
BLOCK
5
20
100
AcDbEntity
8
0
100
AcDbBlockBegin
2
*Model_Space
70
0
10
0
20
0
30
0
3
*Model_Space
0
ENDBLK
5
21
100
AcDbEntity
8
0
100
AcDbBlockEnd
0
BLOCK
5
1C
100
AcDbEntity
8
0
100
AcDbBlockBegin
2
*Paper_Space
70
0
10
0
20
0
30
0
3
*Paper_Space
0
ENDBLK
5
1D
100
AcDbEntity
8
0
100
AcDbBlockEnd
0
BLOCK
5
24
100
AcDbEntity
8
0
100
AcDbBlockBegin
2
*Paper_Space0
70
0
10
0
20
0
30
0
3
*Paper_Space0
0
ENDBLK
5
25
100
AcDbEntity
8
0
100
AcDbBlockEnd
0
BLOCK
5
233
100
AcDbEntity
8
0
100
AcDbBlockBegin
2
DimnDraft3D1
70
0
10
0
20
0
30
0
3
DimnDraft3D1
0
MTEXT
5
228
100
AcDbEntity
8
2
62
256
6
ByLayer
370
18
48
1
60
0
100
AcDbMText
10
94.225
20
16.284211
30
0
210
0
220
0
230
1
1
\W0.6740;35
40
3.5
41
0
44
1.084337
50
90
71
7
72
5
7
iso_b_vert
0
LINE
5
22A
100
AcDbEntity
8
2
62
256
6
ByLayer
370
13
48
1
60
0
100
AcDbLine
10
40
20
0
30
0
11
97.1
21
0
31
0
39
0
210
0
220
0
230
1
0
LINE
5
22B
100
AcDbEntity
8
2
62
256
6
ByLayer
370
13
48
1
60
0
100
AcDbLine
10
72
20
35
30
0
11
97.1
21
35
31
0
39
0
210
0
220
0
230
1
0
LINE
5
22C
100
AcDbEntity
8
2
62
256
6
ByLayer
370
13
48
1
60
0
100
AcDbLine
10
95.1
20
0
30
0
11
95.1
21
35
31
0
39
0
210
0
220
0
230
1
0
LINE
5
22D
100
AcDbEntity
8
2
62
256
6
ByLayer
370
13
48
1
60
0
100
AcDbLine
10
95.1
20
0
30
0
11
94.682003
21
3.174998
31
0
39
0
210
0
220
0
230
1
0
LINE
5
22E
100
AcDbEntity
8
2
62
256
6
ByLayer
370
13
48
1
60
0
100
AcDbLine
10
95.1
20
0
30
0
11
95.517997
21
3.175002
31
0
39
0
210
0
220
0
230
1
0
LINE
5
22F
100
AcDbEntity
8
2
62
256
6
ByLayer
370
13
48
1
60
0
100
AcDbLine
10
94.682003
20
3.174998
30
0
11
95.517997
21
3.175002
31
0
39
0
210
0
220
0
230
1
0
LINE
5
230
100
AcDbEntity
8
2
62
256
6
ByLayer
370
13
48
1
60
0
100
AcDbLine
10
95.1
20
35
30
0
11
95.517997
21
31.825002
31
0
39
0
210
0
220
0
230
1
0
LINE
5
231
100
AcDbEntity
8
2
62
256
6
ByLayer
370
13
48
1
60
0
100
AcDbLine
10
95.1
20
35
30
0
11
94.682003
21
31.824998
31
0
39
0
210
0
220
0
230
1
0
LINE
5
232
100
AcDbEntity
8
2
62
256
6
ByLayer
370
13
48
1
60
0
100
AcDbLine
10
95.517997
20
31.825002
30
0
11
94.682003
21
31.824998
31
0
39
0
210
0
220
0
230
1
0
ENDBLK
5
234
100
AcDbEntity
8
0
100
AcDbBlockEnd
0
BLOCK
5
237
100
AcDbEntity
8
0
100
AcDbBlockBegin
2
_CLOSED
70
0
10
0
20
0
30
0
3
_CLOSED
0
LINE
5
239
100
AcDbEntity
8
0
62
256
6
ByLayer
370
-2
48
1
60
0
100
AcDbLine
10
-1
20
0.166667
30
0
11
0
21
0
31
0
39
0
210
0
220
0
230
1
0
LINE
5
23A
100
AcDbEntity
8
0
62
256
6
ByLayer
370
-2
48
1
60
0
100
AcDbLine
10
0
20
0
30
0
11
-1
21
-0.166667
31
0
39
0
210
0
220
0
230
1
0
LINE
5
23B
100
AcDbEntity
8
0
62
256
6
ByLayer
370
-2
48
1
60
0
100
AcDbLine
10
-1
20
0.166667
30
0
11
-1
21
-0.166667
31
0
39
0
210
0
220
0
230
1
0
LINE
5
23C
100
AcDbEntity
8
0
62
256
6
ByLayer
370
-2
48
1
60
0
100
AcDbLine
10
0
20
0
30
0
11
-1
21
0
31
0
39
0
210
0
220
0
230
1
0
ENDBLK
5
238
100
AcDbEntity
8
0
100
AcDbBlockEnd
0
BLOCK
5
249
100
AcDbEntity
8
0
100
AcDbBlockBegin
2
DimnDraft3D2
70
0
10
0
20
0
30
0
3
DimnDraft3D2
0
MTEXT
5
23E
100
AcDbEntity
8
SK2
62
256
6
ByLayer
370
18
48
1
60
0
100
AcDbMText
10
33.784211
20
58.486273
30
0
210
0
220
0
230
1
1
\W0.6740;70
40
3.5
41
0
44
1.084337
50
0
71
7
72
5
7
iso_b_vert
0
LINE
5
240
100
AcDbEntity
8
SK2
62
256
6
ByLayer
370
13
48
1
60
0
100
AcDbLine
10
0
20
2
30
0
11
0
21
59.611273
31
0
39
0
210
0
220
0
230
1
0
LINE
5
241
100
AcDbEntity
8
SK2
62
256
6
ByLayer
370
13
48
1
60
0
100
AcDbLine
10
70
20
37
30
0
11
70
21
59.611273
31
0
39
0
210
0
220
0
230
1
0
LINE
5
242
100
AcDbEntity
8
SK2
62
256
6
ByLayer
370
13
48
1
60
0
100
AcDbLine
10
0
20
57.611273
30
0
11
70
21
57.611273
31
0
39
0
210
0
220
0
230
1
0
LINE
5
243
100
AcDbEntity
8
SK2
62
256
6
ByLayer
370
13
48
1
60
0
100
AcDbLine
10
0
20
57.611273
30
0
11
3.174998
21
58.029269
31
0
39
0
210
0
220
0
230
1
0
LINE
5
244
100
AcDbEntity
8
SK2
62
256
6
ByLayer
370
13
48
1
60
0
100
AcDbLine
10
0
20
57.611273
30
0
11
3.175002
21
57.193276
31
0
39
0
210
0
220
0
230
1
0
LINE
5
245
100
AcDbEntity
8
SK2
62
256
6
ByLayer
370
13
48
1
60
0
100
AcDbLine
10
3.174998
20
58.029269
30
0
11
3.175002
21
57.193276
31
0
39
0
210
0
220
0
230
1
0
LINE
5
246
100
AcDbEntity
8
SK2
62
256
6
ByLayer
370
13
48
1
60
0
100
AcDbLine
10
70
20
57.611273
30
0
11
66.825002
21
57.193276
31
0
39
0
210
0
220
0
230
1
0
LINE
5
247
100
AcDbEntity
8
SK2
62
256
6
ByLayer
370
13
48
1
60
0
100
AcDbLine
10
70
20
57.611273
30
0
11
66.824998
21
58.029269
31
0
39
0
210
0
220
0
230
1
0
LINE
5
248
100
AcDbEntity
8
SK2
62
256
6
ByLayer
370
13
48
1
60
0
100
AcDbLine
10
66.825002
20
57.193276
30
0
11
66.824998
21
58.029269
31
0
39
0
210
0
220
0
230
1
0
ENDBLK
5
24A
100
AcDbEntity
8
0
100
AcDbBlockEnd
0
BLOCK
5
257
100
AcDbEntity
8
0
100
AcDbBlockBegin
2
DimnDraft3D3
70
0
10
0
20
0
30
0
3
DimnDraft3D3
0
MTEXT
5
24D
100
AcDbEntity
8
2
62
256
6
ByLayer
370
18
48
1
60
0
100
AcDbMText
10
52.784211
20
-37.225
30
0
210
0
220
0
230
1
1
\W0.6740;32
40
3.5
41
0
44
1.084337
50
0
71
7
72
5
7
iso_b_vert
0
LINE
5
24E
100
AcDbEntity
8
2
62
256
6
ByLayer
370
13
48
1
60
0
100
AcDbLine
10
70
20
33
30
0
11
70
21
-40.1
31
0
39
0
210
0
220
0
230
1
0
LINE
5
24F
100
AcDbEntity
8
2
62
256
6
ByLayer
370
13
48
1
60
0
100
AcDbLine
10
38
20
-2
30
0
11
38
21
-40.1
31
0
39
0
210
0
220
0
230
1
0
LINE
5
250
100
AcDbEntity
8
2
62
256
6
ByLayer
370
13
48
1
60
0
100
AcDbLine
10
70
20
-38.1
30
0
11
38
21
-38.1
31
0
39
0
210
0
220
0
230
1
0
LINE
5
251
100
AcDbEntity
8
2
62
256
6
ByLayer
370
13
48
1
60
0
100
AcDbLine
10
70
20
-38.1
30
0
11
66.825002
21
-38.517997
31
0
39
0
210
0
220
0
230
1
0
LINE
5
252
100
AcDbEntity
8
2
62
256
6
ByLayer
370
13
48
1
60
0
100
AcDbLine
10
70
20
-38.1
30
0
11
66.824998
21
-37.682003
31
0
39
0
210
0
220
0
230
1
0
LINE
5
253
100
AcDbEntity
8
2
62
256
6
ByLayer
370
13
48
1
60
0
100
AcDbLine
10
66.825002
20
-38.517997
30
0
11
66.824998
21
-37.682003
31
0
39
0
210
0
220
0
230
1
0
LINE
5
254
100
AcDbEntity
8
2
62
256
6
ByLayer
370
13
48
1
60
0
100
AcDbLine
10
38
20
-38.1
30
0
11
41.174998
21
-37.682003
31
0
39
0
210
0
220
0
230
1
0
LINE
5
255
100
AcDbEntity
8
2
62
256
6
ByLayer
370
13
48
1
60
0
100
AcDbLine
10
38
20
-38.1
30
0
11
41.175002
21
-38.517997
31
0
39
0
210
0
220
0
230
1
0
LINE
5
256
100
AcDbEntity
8
2
62
256
6
ByLayer
370
13
48
1
60
0
100
AcDbLine
10
41.174998
20
-37.682003
30
0
11
41.175002
21
-38.517997
31
0
39
0
210
0
220
0
230
1
0
ENDBLK
5
258
100
AcDbEntity
8
0
100
AcDbBlockEnd
0
BLOCK
5
265
100
AcDbEntity
8
0
100
AcDbBlockBegin
2
DimnDraft3D4
70
0
10
0
20
0
30
0
3
DimnDraft3D4
0
MTEXT
5
25B
100
AcDbEntity
8
SK2
62
256
6
ByLayer
370
18
48
1
60
0
100
AcDbMText
10
-40.475
20
-1.215789
30
0
210
0
220
0
230
1
1
\W0.6740;50
40
3.5
41
0
44
1.084337
50
90
71
7
72
5
7
iso_b_vert
0
LINE
5
25C
100
AcDbEntity
8
SK2
62
256
6
ByLayer
370
13
48
1
60
0
100
AcDbLine
10
-2
20
25
30
0
11
-41.6
21
25
31
0
39
0
210
0
220
0
230
1
0
LINE
5
25D
100
AcDbEntity
8
SK2
62
256
6
ByLayer
370
13
48
1
60
0
100
AcDbLine
10
-2
20
-25
30
0
11
-41.6
21
-25
31
0
39
0
210
0
220
0
230
1
0
LINE
5
25E
100
AcDbEntity
8
SK2
62
256
6
ByLayer
370
13
48
1
60
0
100
AcDbLine
10
-39.6
20
25
30
0
11
-39.6
21
-25
31
0
39
0
210
0
220
0
230
1
0
LINE
5
25F
100
AcDbEntity
8
SK2
62
256
6
ByLayer
370
13
48
1
60
0
100
AcDbLine
10
-39.6
20
25
30
0
11
-39.182003
21
21.825002
31
0
39
0
210
0
220
0
230
1
0
LINE
5
260
100
AcDbEntity
8
SK2
62
256
6
ByLayer
370
13
48
1
60
0
100
AcDbLine
10
-39.6
20
25
30
0
11
-40.017997
21
21.824998
31
0
39
0
210
0
220
0
230
1
0
LINE
5
261
100
AcDbEntity
8
SK2
62
256
6
ByLayer
370
13
48
1
60
0
100
AcDbLine
10
-39.182003
20
21.825002
30
0
11
-40.017997
21
21.824998
31
0
39
0
210
0
220
0
230
1
0
LINE
5
262
100
AcDbEntity
8
SK2
62
256
6
ByLayer
370
13
48
1
60
0
100
AcDbLine
10
-39.6
20
-25
30
0
11
-40.017997
21
-21.825002
31
0
39
0
210
0
220
0
230
1
0
LINE
5
263
100
AcDbEntity
8
SK2
62
256
6
ByLayer
370
13
48
1
60
0
100
AcDbLine
10
-39.6
20
-25
30
0
11
-39.182003
21
-21.824998
31
0
39
0
210
0
220
0
230
1
0
LINE
5
264
100
AcDbEntity
8
SK2
62
256
6
ByLayer
370
13
48
1
60
0
100
AcDbLine
10
-40.017997
20
-21.825002
30
0
11
-39.182003
21
-21.824998
31
0
39
0
210
0
220
0
230
1
0
ENDBLK
5
266
100
AcDbEntity
8
0
100
AcDbBlockEnd
0
BLOCK
5
273
100
AcDbEntity
8
0
100
AcDbBlockBegin
2
DimnDraft3D5
70
0
10
0
20
0
30
0
3
DimnDraft3D5
0
MTEXT
5
269
100
AcDbEntity
8
2
62
256
6
ByLayer
370
18
48
1
60
0
100
AcDbMText
10
87.225
20
19.685789
30
0
210
0
220
0
230
1
1
\W0.6380;4
40
3.5
41
0
44
1.084337
50
90
71
7
72
5
7
iso_b_vert
0
LINE
5
26A
100
AcDbEntity
8
2
62
256
6
ByLayer
370
13
48
1
60
0
100
AcDbLine
10
72
20
35
30
0
11
90.1
21
35
31
0
39
0
210
0
220
0
230
1
0
LINE
5
26B
100
AcDbEntity
8
2
62
256
6
ByLayer
370
13
48
1
60
0
100
AcDbLine
10
72
20
31
30
0
11
90.1
21
31
31
0
39
0
210
0
220
0
230
1
0
LINE
5
26C
100
AcDbEntity
8
2
62
256
6
ByLayer
370
13
48
1
60
0
100
AcDbLine
10
88.1
20
18.810789
30
0
11
88.1
21
43.75
31
0
39
0
210
0
220
0
230
1
0
LINE
5
26D
100
AcDbEntity
8
2
62
256
6
ByLayer
370
13
48
1
60
0
100
AcDbLine
10
88.1
20
35
30
0
11
87.682003
21
38.174998
31
0
39
0
210
0
220
0
230
1
0
LINE
5
26E
100
AcDbEntity
8
2
62
256
6
ByLayer
370
13
48
1
60
0
100
AcDbLine
10
88.1
20
35
30
0
11
88.517997
21
38.175002
31
0
39
0
210
0
220
0
230
1
0
LINE
5
26F
100
AcDbEntity
8
2
62
256
6
ByLayer
370
13
48
1
60
0
100
AcDbLine
10
87.682003
20
38.174998
30
0
11
88.517997
21
38.175002
31
0
39
0
210
0
220
0
230
1
0
LINE
5
270
100
AcDbEntity
8
2
62
256
6
ByLayer
370
13
48
1
60
0
100
AcDbLine
10
88.1
20
31
30
0
11
88.517997
21
27.825002
31
0
39
0
210
0
220
0
230
1
0
LINE
5
271
100
AcDbEntity
8
2
62
256
6
ByLayer
370
13
48
1
60
0
100
AcDbLine
10
88.1
20
31
30
0
11
87.682003
21
27.824998
31
0
39
0
210
0
220
0
230
1
0
LINE
5
272
100
AcDbEntity
8
2
62
256
6
ByLayer
370
13
48
1
60
0
100
AcDbLine
10
88.517997
20
27.825002
30
0
11
87.682003
21
27.824998
31
0
39
0
210
0
220
0
230
1
0
ENDBLK
5
274
100
AcDbEntity
8
0
100
AcDbBlockEnd
0
ENDSEC
0
SECTION
2
ENTITIES
0
ARC
5
FA
100
AcDbEntity
8
1
62
256
6
ByLayer
370
13
48
1
60
0
100
AcDbCircle
39
0
10
-20.279208
20
26.2
30
0
40
1.2
210
0
220
0
230
-1
100
AcDbArc
50
195
51
270
0
ARC
5
FB
100
AcDbEntity
8
1
62
256
6
ByLayer
370
13
48
1
60
0
100
AcDbCircle
39
0
10
-38
20
29.725
30
0
40
1.6
210
0
220
0
230
-1
100
AcDbArc
50
0
51
90
0
ARC
5
FC
100
AcDbEntity
8
1
62
256
6
ByLayer
370
13
48
1
60
0
100
AcDbCircle
39
0
10
-24.115124
20
-14.5
30
0
40
4
210
0
220
0
230
-1
100
AcDbArc
50
0.5
51
90
0
ELLIPSE
5
FD
100
AcDbEntity
8
1
62
256
6
ByLayer
370
13
48
1
60
0
100
AcDbEllipse
10
21.056258
20
0
30
0
11
11.7092723497287
21
-24.6771864409381
31
0
210
0
220
0
230
-1
40
0.341999
41
2.05975995310058
42
2.97437958168082
0
ELLIPSE
5
FE
100
AcDbEntity
8
1
62
256
6
ByLayer
370
13
48
1
60
0
100
AcDbEllipse
10
-1.056258
20
0
30
0
11
11.7092723497251
21
24.6771864409357
31
0
210
0
220
0
230
-1
40
0.341999
41
0.167213071909002
42
1.08183270048934
0
ELLIPSE
5
FF
100
AcDbEntity
8
1
62
256
6
ByLayer
370
13
48
1
60
0
100
AcDbEllipse
10
-1.056258
20
0
30
0
11
11.7092723497278
21
-24.6771864409391
31
0
210
0
220
0
230
-1
40
0.341999
41
-1.08183270048924
42
-0.167213071908998
0
ELLIPSE
5
100
100
AcDbEntity
8
1
62
256
6
ByLayer
370
13
48
1
60
0
100
AcDbEllipse
10
20.218172
20
0
30
0
11
-1.53075794227786E-15
21
24.9999999999981
31
0
210
0
220
0
230
-1
40
0.008727
41
-2.43191194347022
42
-0.491133141270492
0
ELLIPSE
5
101
100
AcDbEntity
8
1
62
256
6
ByLayer
370
13
48
1
60
0
100
AcDbEllipse
10
21.056258
20
0
30
0
11
11.7092723497282
21
24.6771864409375
31
0
210
0
220
0
230
-1
40
0.341999
41
-2.97437958168081
42
-2.05975995310057
0
ELLIPSE
5
102
100
AcDbEntity
8
1
62
256
6
ByLayer
370
13
48
1
60
0
100
AcDbEllipse
10
63.648998
20
33
30
0
11
1.61369817750688
21
1.63086640130368E-15
31
0
210
0
220
0
230
-1
40
0.464771
41
1.15436932244538
42
-1.15436932244533
0
ELLIPSE
5
103
100
AcDbEntity
8
1
62
256
6
ByLayer
370
13
48
1
60
0
100
AcDbEllipse
10
65.764494
20
33
30
0
11
1.63188737951389
21
-5.0611618474944E-08
31
0
210
0
220
0
230
-1
40
0.459591
41
-2.00702508212344
42
-1.9547688052321
0
ELLIPSE
5
104
100
AcDbEntity
8
1
62
256
6
ByLayer
370
13
48
1
60
0
100
AcDbEllipse
10
65.764493
20
33
30
0
11
1.63188722507528
21
-5.95481605790349E-09
31
0
210
0
220
0
230
-1
40
0.459591
41
1.95476875768472
42
2.00702503885276
0
ELLIPSE
5
105
100
AcDbEntity
8
1
62
256
6
ByLayer
370
13
48
1
60
0
100
AcDbEllipse
10
65.64586
20
33.458356
30
0
11
0.799644302071875
21
0.0600592121763447
31
0
210
0
220
0
230
-1
40
0.397167
41
-1.8900408645651
42
-1.17447974407098
0
ELLIPSE
5
106
100
AcDbEntity
8
1
62
256
6
ByLayer
370
13
48
1
60
0
100
AcDbEllipse
10
66.290882
20
34.169715
30
0
11
0.999555377621647
21
0.0750740152248181
31
0
210
0
220
0
230
-1
40
0.397167
41
1.60061763943434
42
1.96711290951075
0
ELLIPSE
5
107
100
AcDbEntity
8
1
62
256
6
ByLayer
370
13
48
1
60
0
100
AcDbEllipse
10
66.290882
20
31.830285
30
0
11
0.999555377567176
21
-0.0750740152115653
31
0
210
0
220
0
230
-1
40
0.397167
41
-1.96711290950904
42
-1.60061763941281
0
ELLIPSE
5
108
100
AcDbEntity
8
1
62
256
6
ByLayer
370
13
48
1
60
0
100
AcDbEllipse
10
65.64586
20
32.541644
30
0
11
0.799644302080474
21
-0.0600592121775411
31
0
210
0
220
0
230
-1
40
0.397167
41
1.17447974407374
42
1.89004086455985
0
ELLIPSE
5
109
100
AcDbEntity
8
1
62
256
6
ByLayer
370
13
48
1
60
0
100
AcDbEllipse
10
65.64
20
33.551074
30
0
11
0.899768154459529
21
0.057795647234904
31
0
210
0
220
0
230
-1
40
0.353437
41
-1.89716340067309
42
-1.18160228020085
0
ELLIPSE
5
10A
100
AcDbEntity
8
1
62
256
6
ByLayer
370
13
48
1
60
0
100
AcDbEllipse
10
65.926677
20
33.867234
30
0
11
-0.00896052458610162
21
-0.0995977359137338
31
0
210
0
220
0
230
1
40
0.357088
41
0.407276239897683
42
1.60291149819115
0
ELLIPSE
5
10B
100
AcDbEntity
8
1
62
256
6
ByLayer
370
13
48
1
60
0
100
AcDbEllipse
10
65.366384
20
33.83377
30
0
11
0.0204060592957395
21
-0.0978958259785307
31
0
210
0
220
0
230
1
40
0.335642
41
-1.64064594521358
42
-0.403652442248933
0
ELLIPSE
5
10C
100
AcDbEntity
8
1
62
256
6
ByLayer
370
13
48
1
60
0
100
AcDbEllipse
10
65.64
20
32.448926
30
0
11
0.899768154457811
21
-0.0577956472347196
31
0
210
0
220
0
230
-1
40
0.353437
41
1.18160228020028
42
1.89716340067397
0
ELLIPSE
5
10D
100
AcDbEntity
8
1
62
256
6
ByLayer
370
13
48
1
60
0
100
AcDbEllipse
10
65.926677
20
32.132766
30
0
11
0.00896052458610168
21
-0.0995977359137339
31
0
210
0
220
0
230
1
40
0.357088
41
1.53868115539878
42
2.73431641369229
0
ELLIPSE
5
10E
100
AcDbEntity
8
1
62
256
6
ByLayer
370
13
48
1
60
0
100
AcDbEllipse
10
65.366384
20
32.16623
30
0
11
-0.02040605929574
21
-0.0978958259785306
31
0
210
0
220
0
230
1
40
0.335642
41
-2.73794021134111
42
-1.50094670837607
0
ELLIPSE
5
10F
100
AcDbEntity
8
1
62
256
6
ByLayer
370
13
48
1
60
0
100
AcDbEllipse
10
66.285022
20
34.262433
30
0
11
0.899334981057457
21
0.0784946153904849
31
0
210
0
220
0
230
-1
40
0.44069
41
1.60924111545889
42
1.97573638556276
0
ELLIPSE
5
110
100
AcDbEntity
8
1
62
256
6
ByLayer
370
13
48
1
60
0
100
AcDbEllipse
10
66.285022
20
31.737567
30
0
11
0.899334981061008
21
-0.0784946153916031
31
0
210
0
220
0
230
-1
40
0.44069
41
-1.97573638556319
42
-1.60924111546079
0
ELLIPSE
5
111
100
AcDbEntity
8
1
62
256
6
ByLayer
370
13
48
1
60
0
100
AcDbEllipse
10
65.147318
20
32.211894
30
0
11
-0.02040605929574
21
-0.0978958259785306
31
0
210
0
220
0
230
1
40
0.335642
41
-2.73794021134067
42
-1.50094670837607
0
ELLIPSE
5
112
100
AcDbEntity
8
1
62
256
6
ByLayer
370
13
48
1
60
0
100
AcDbEllipse
10
65.147318
20
33.788106
30
0
11
0.0204060592957395
21
-0.0978958259785307
31
0
210
0
220
0
230
1
40
0.335642
41
-1.64064594521358
42
-0.403652442248878
0
ELLIPSE
5
113
100
AcDbEntity
8
1
62
256
6
ByLayer
370
13
48
1
60
0
100
AcDbEllipse
10
65.730291
20
33
30
0
11
1.64753056455467
21
5.37755412918223E-08
31
0
210
0
220
0
230
-1
40
0.515924
41
-1.99606335437441
42
-1.9547687217972
0
ELLIPSE
5
114
100
AcDbEntity
8
1
62
256
6
ByLayer
370
13
48
1
60
0
100
AcDbEllipse
10
65.730291
20
32.999999
30
0
11
1.64752990535368
21
-3.44523643211649E-07
31
0
210
0
220
0
230
-1
40
0.515923
41
1.9547684978497
42
1.99606314472774
0
ELLIPSE
5
115
100
AcDbEntity
8
1
62
256
6
ByLayer
370
13
48
1
60
0
100
AcDbEllipse
10
66.809145
20
34.085043
30
0
11
0.0993076742641672
21
0.21849024196115
31
0
210
0
220
0
230
1
40
0.684643
41
-1.82065987921341
42
-1.32093277447545
0
ELLIPSE
5
116
100
AcDbEntity
8
1
62
256
6
ByLayer
370
13
48
1
60
0
100
AcDbEllipse
10
66.809145
20
31.914957
30
0
11
0.0993076742641673
21
-0.218490241961151
31
0
210
0
220
0
230
1
40
0.684643
41
1.32093277447545
42
1.82065987921347
0
ELLIPSE
5
117
100
AcDbEntity
8
1
62
256
6
ByLayer
370
13
48
1
60
0
100
AcDbEllipse
10
66.765057
20
32.135833
30
0
11
0.0628430094928668
21
-0.0777866065455966
31
0
210
0
220
0
230
1
40
0.861674
41
1.63965370412758
42
2.32457401880068
0
ELLIPSE
5
118
100
AcDbEntity
8
1
62
256
6
ByLayer
370
13
48
1
60
0
100
AcDbEllipse
10
66.765057
20
33.864167
30
0
11
-0.0628430094928667
21
-0.0777866065455968
31
0
210
0
220
0
230
1
40
0.861674
41
0.817018634788955
42
1.50193894946207
0
ELLIPSE
5
119
100
AcDbEntity
8
1
62
256
6
ByLayer
370
13
48
1
60
0
100
AcDbEllipse
10
67.028622
20
34.116369
30
0
11
0.0296712398023675
21
-0.238158807371448
31
0
210
0
220
0
230
1
40
0.701267
41
0.787275740372037
42
1.43405097029579
0
ELLIPSE
5
11A
100
AcDbEntity
8
1
62
256
6
ByLayer
370
13
48
1
60
0
100
AcDbEllipse
10
68.258781
20
34.375588
30
0
11
0.0584818497756239
21
-0.23276570461909
31
0
210
0
220
0
230
1
40
0.017037
41
-1.5030907996817
42
-0.664838164890116
0
ELLIPSE
5
11B
100
AcDbEntity
8
1
62
256
6
ByLayer
370
13
48
1
60
0
100
AcDbEllipse
10
68.258781
20
31.624412
30
0
11
0.058481849775624
21
0.23276570461909
31
0
210
0
220
0
230
1
40
0.017037
41
0.664838164893337
42
1.50309079968206
0
ELLIPSE
5
11C
100
AcDbEntity
8
1
62
256
6
ByLayer
370
13
48
1
60
0
100
AcDbEllipse
10
67.028622
20
31.883631
30
0
11
0.0296712398023679
21
0.238158807371448
31
0
210
0
220
0
230
1
40
0.701267
41
-1.43405097029585
42
-0.787275740372037
0
ELLIPSE
5
11D
100
AcDbEntity
8
1
62
256
6
ByLayer
370
13
48
1
60
0
100
AcDbEllipse
10
65.06768
20
33.774289
30
0
11
-0.0453539127209969
21
-0.0210481020734934
31
0
210
0
220
0
230
1
40
0.15145
41
-1.25535186362526
42
-0.415505137037718
0
ELLIPSE
5
11E
100
AcDbEntity
8
1
62
256
6
ByLayer
370
13
48
1
60
0
100
AcDbEllipse
10
64.646487
20
34.546038
30
0
11
-0.0394011819793233
21
-0.0307822490833963
31
0
210
0
220
0
230
1
40
0.218654
41
-1.29790181863629
42
-0.756489013689463
0
ELLIPSE
5
11F
100
AcDbEntity
8
1
62
256
6
ByLayer
370
13
48
1
60
0
100
AcDbEllipse
10
65.06768
20
32.225711
30
0
11
0.0453539127209971
21
-0.0210481020734929
31
0
210
0
220
0
230
1
40
0.15145
41
-2.72608751655208
42
-1.88624078996426
0
ELLIPSE
5
120
100
AcDbEntity
8
1
62
256
6
ByLayer
370
13
48
1
60
0
100
AcDbEllipse
10
64.646487
20
31.453962
30
0
11
0.0394011819793204
21
-0.0307822490833999
31
0
210
0
220
0
230
1
40
0.218654
41
-2.38510363990096
42
-1.84369083495413
0
ELLIPSE
5
121
100
AcDbEntity
8
1
62
256
6
ByLayer
370
13
48
1
60
0
100
AcDbEllipse
10
65.071676
20
33.725081
30
0
11
0.0431707448900942
21
-0.0252247256800625
31
0
210
0
220
0
230
1
40
0.873615
41
-2.18027064336966
42
-1.03058312084558
0
ELLIPSE
5
122
100
AcDbEntity
8
1
62
256
6
ByLayer
370
13
48
1
60
0
100
AcDbEllipse
10
65.071676
20
32.274919
30
0
11
0.0431707448900942
21
0.0252247256800625
31
0
210
0
220
0
230
1
40
0.873615
41
1.03058312084558
42
2.18027064336966
0
ELLIPSE
5
123
100
AcDbEntity
8
1
62
256
6
ByLayer
370
13
48
1
60
0
100
AcDbEllipse
10
66.811038
20
34.084833
30
0
11
0.0381290273564358
21
-0.236951845894587
31
0
210
0
220
0
230
1
40
0.698537
41
0.804380097280517
42
1.40913325933156
0
ELLIPSE
5
124
100
AcDbEntity
8
1
62
256
6
ByLayer
370
13
48
1
60
0
100
AcDbEllipse
10
66.811038
20
31.915167
30
0
11
0.0381290273564358
21
0.236951845894587
31
0
210
0
220
0
230
1
40
0.698537
41
-1.40913325933156
42
-0.804380097280488
0
ELLIPSE
5
125
100
AcDbEntity
8
1
62
256
6
ByLayer
370
13
48
1
60
0
100
AcDbEllipse
10
65.001973
20
33.534522
30
0
11
0.0488172744774217
21
-0.0108108146129732
31
0
210
0
220
0
230
1
40
0.649178
41
-2.29846695859478
42
-1.30973779548816
0
ELLIPSE
5
126
100
AcDbEntity
8
1
62
256
6
ByLayer
370
13
48
1
60
0
100
AcDbEllipse
10
65.001973
20
32.465478
30
0
11
0.0488172744774217
21
0.0108108146129732
31
0
210
0
220
0
230
1
40
0.649178
41
1.30973779548816
42
2.29846695859478
0
ELLIPSE
5
127
100
AcDbEntity
8
1
62
256
6
ByLayer
370
13
48
1
60
0
100
AcDbEllipse
10
66.855379
20
33.788106
30
0
11
-0.0663198302365384
21
-0.0748443726501648
31
0
210
0
220
0
230
1
40
0.871893
41
0.856507032384957
42
1.52920128671786
0
ELLIPSE
5
128
100
AcDbEntity
8
1
62
256
6
ByLayer
370
13
48
1
60
0
100
AcDbEllipse
10
67.292029
20
33.487585
30
0
11
0.0874722239911491
21
-0.390318600671352
31
0
210
0
220
0
230
1
40
0.698392
41
-2.41494031332489
42
-2.11118245994095
0
ELLIPSE
5
129
100
AcDbEntity
8
1
62
256
6
ByLayer
370
13
48
1
60
0
100
AcDbEllipse
10
66.855379
20
32.211894
30
0
11
0.0663198302365375
21
-0.0748443726501656
31
0
210
0
220
0
230
1
40
0.871893
41
1.61239136687193
42
2.28508562120484
0
ELLIPSE
5
12A
100
AcDbEntity
8
1
62
256
6
ByLayer
370
13
48
1
60
0
100
AcDbEllipse
10
64.629235
20
34.558521
30
0
11
2.96302531225332E-05
21
-0.0499999912204803
31
0
210
0
220
0
230
1
40
0.687053
41
-1.57120347777999
42
-1.23545988901382
0
ELLIPSE
5
12B
100
AcDbEntity
8
1
62
256
6
ByLayer
370
13
48
1
60
0
100
AcDbEllipse
10
64.629235
20
31.441479
30
0
11
-2.96302531218854E-05
21
-0.0499999912204803
31
0
210
0
220
0
230
1
40
0.687053
41
-1.90613276457597
42
-1.57038917581009
0
ELLIPSE
5
12C
100
AcDbEntity
8
1
62
256
6
ByLayer
370
13
48
1
60
0
100
AcDbEllipse
10
67.292029
20
32.512415
30
0
11
0.0874722239911492
21
0.390318600671352
31
0
210
0
220
0
230
1
40
0.698392
41
2.11118245994095
42
2.41494031332489
0
ELLIPSE
5
12D
100
AcDbEntity
8
1
62
256
6
ByLayer
370
13
48
1
60
0
100
AcDbEllipse
10
65.046066
20
32.553576
30
0
11
0.0212624954428799
21
-0.0452537985979245
31
0
210
0
220
0
230
1
40
0.397259
41
2.03740170297277
42
2.86665979515157
0
ELLIPSE
5
12E
100
AcDbEntity
8
1
62
256
6
ByLayer
370
13
48
1
60
0
100
AcDbEllipse
10
65.046066
20
33.446424
30
0
11
0.0212624954428813
21
0.0452537985979238
31
0
210
0
220
0
230
1
40
0.397259
41
-2.86665979515046
42
-2.0374017029721
0
ELLIPSE
5
12F
100
AcDbEntity
8
1
62
256
6
ByLayer
370
13
48
1
60
0
100
AcDbEllipse
10
66.872998
20
32.230463
30
0
11
0.0784611863610882
21
-0.0619987276870308
31
0
210
0
220
0
230
1
40
0.873195
41
1.45974972721515
42
2.10501810958165
0
ELLIPSE
5
130
100
AcDbEntity
8
1
62
256
6
ByLayer
370
13
48
1
60
0
100
AcDbEllipse
10
66.872998
20
33.769537
30
0
11
-0.0784611863611367
21
-0.0619987276869693
31
0
210
0
220
0
230
1
40
0.873195
41
1.03657454400847
42
1.6818429263755
0
ELLIPSE
5
131
100
AcDbEntity
8
1
62
256
6
ByLayer
370
13
48
1
60
0
100
AcDbEllipse
10
66.943585
20
33.673111
30
0
11
-0.0809620682329364
21
-0.058695344853279
31
0
210
0
220
0
230
1
40
0.756283
41
1.1729166730537
42
1.9245528666024
0
ELLIPSE
5
132
100
AcDbEntity
8
1
62
256
6
ByLayer
370
13
48
1
60
0
100
AcDbEllipse
10
66.943585
20
32.326889
30
0
11
0.0809620682329358
21
-0.0586953448532799
31
0
210
0
220
0
230
1
40
0.756283
41
1.21703978698753
42
1.96867598053596
0
ELLIPSE
5
133
100
AcDbEntity
8
1
62
256
6
ByLayer
370
13
48
1
60
0
100
AcDbEllipse
10
65.206238
20
33.379622
30
0
11
0.0173833813679464
21
0.0468808921866525
31
0
210
0
220
0
230
1
40
0.320428
41
-2.92457512659335
42
-1.97909853952183
0
ELLIPSE
5
134
100
AcDbEntity
8
1
62
256
6
ByLayer
370
13
48
1
60
0
100
AcDbEllipse
10
65.206238
20
32.620378
30
0
11
0.0173833813678365
21
-0.0468808921866932
31
0
210
0
220
0
230
1
40
0.320428
41
1.97909853952331
42
2.92457512659607
0
ELLIPSE
5
135
100
AcDbEntity
8
1
62
256
6
ByLayer
370
13
48
1
60
0
100
AcDbEllipse
10
65.350151
20
32.868114
30
0
11
0.0496862814333484
21
0.00559226584901827
31
0
210
0
220
0
230
1
40
0.148777
41
1.39817586461234
42
2.49393692538344
0
ELLIPSE
5
136
100
AcDbEntity
8
1
62
256
6
ByLayer
370
13
48
1
60
0
100
AcDbEllipse
10
65.215466
20
32.623798
30
0
11
0.0173706970697336
21
-0.0468855935582728
31
0
210
0
220
0
230
1
40
0.318454
41
1.97468567311185
42
2.92535400620195
0
ELLIPSE
5
137
100
AcDbEntity
8
1
62
256
6
ByLayer
370
13
48
1
60
0
100
AcDbEllipse
10
65.215466
20
33.376202
30
0
11
0.0173706970696218
21
0.0468855935583142
31
0
210
0
220
0
230
1
40
0.318454
41
-2.92535400620382
42
-1.97468567311263
0
ELLIPSE
5
138
100
AcDbEntity
8
1
62
256
6
ByLayer
370
13
48
1
60
0
100
AcDbEllipse
10
65.350151
20
33.131886
30
0
11
0.0496862814333484
21
-0.00559226584901837
31
0
210
0
220
0
230
1
40
0.148777
41
-2.49393692538344
42
-1.39817586461262
0
ELLIPSE
5
139
100
AcDbEntity
8
1
62
256
6
ByLayer
370
13
48
1
60
0
100
AcDbEllipse
10
69.147654
20
34.425002
30
0
11
-0.00560126668057479
21
-0.239934628204378
31
0
210
0
220
0
230
1
40
0.172043
41
-1.49800588930571
42
-0.732097455141114
0
ELLIPSE
5
13A
100
AcDbEntity
8
1
62
256
6
ByLayer
370
13
48
1
60
0
100
AcDbEllipse
10
69.147654
20
31.574998
30
0
11
-0.00560126668057452
21
0.239934628204378
31
0
210
0
220
0
230
1
40
0.172043
41
0.732097455141114
42
1.49800588930571
0
ELLIPSE
5
13B
100
AcDbEntity
8
1
62
256
6
ByLayer
370
13
48
1
60
0
100
AcDbEllipse
10
67.090562
20
33.51494
30
0
11
-0.0637117915960023
21
-0.0770766346672425
31
0
210
0
220
0
230
1
40
0.52278
41
1.17272243764685
42
1.97869210912809
0
ELLIPSE
5
13C
100
AcDbEntity
8
1
62
256
6
ByLayer
370
13
48
1
60
0
100
AcDbEllipse
10
67.090562
20
32.48506
30
0
11
-0.0637117915966215
21
0.0770766346667308
31
0
210
0
220
0
230
1
40
0.52278
41
-1.97869210881555
42
-1.17272243762726
0
ELLIPSE
5
13D
100
AcDbEntity
8
1
62
256
6
ByLayer
370
13
48
1
60
0
100
AcDbEllipse
10
68.758781
20
31.571204
30
0
11
-0.00824662055120358
21
0.239858277425409
31
0
210
0
220
0
230
1
40
0.002403
41
-1.50102444918925
42
-0.709373157699375
0
ELLIPSE
5
13E
100
AcDbEntity
8
1
62
256
6
ByLayer
370
13
48
1
60
0
100
AcDbEllipse
10
68.758781
20
34.428796
30
0
11
-0.00824662055120385
21
-0.239858277425409
31
0
210
0
220
0
230
1
40
0.002403
41
0.709373157699375
42
1.50102444918925
0
ELLIPSE
5
13F
100
AcDbEntity
8
1
62
256
6
ByLayer
370
13
48
1
60
0
100
AcDbEllipse
10
69.913527
20
31.994665
30
0
11
-0.0833341889559587
21
0.055275789917943
31
0
210
0
220
0
230
1
40
0.125151
41
-1.63388084261207
42
-1.00888984397362
0
ELLIPSE
5
140
100
AcDbEntity
8
1
62
256
6
ByLayer
370
13
48
1
60
0
100
AcDbEllipse
10
69.752853
20
31.845188
30
0
11
-0.0533981556875962
21
0.0845496124719874
31
0
210
0
220
0
230
1
40
0.139768
41
-1.57717485146094
42
-0.740023965273927
0
ELLIPSE
5
141
100
AcDbEntity
8
1
62
256
6
ByLayer
370
13
48
1
60
0
100
AcDbEllipse
10
69.752853
20
34.154812
30
0
11
-0.0533981556875962
21
-0.0845496124719873
31
0
210
0
220
0
230
1
40
0.139768
41
0.740023965274873
42
1.57717485146094
0
ELLIPSE
5
142
100
AcDbEntity
8
1
62
256
6
ByLayer
370
13
48
1
60
0
100
AcDbEllipse
10
69.913527
20
34.005335
30
0
11
-0.0833341889559587
21
-0.055275789917943
31
0
210
0
220
0
230
1
40
0.125151
41
1.00888984397362
42
1.63388084261193
0
ELLIPSE
5
143
100
AcDbEntity
8
1
62
256
6
ByLayer
370
13
48
1
60
0
100
AcDbEllipse
10
69.258678
20
33.82272
30
0
11
0.0148293336171675
21
-0.399725019062444
31
0
210
0
220
0
230
1
40
0.406503
41
1.55571667185628
42
2.33595515067481
0
ELLIPSE
5
144
100
AcDbEntity
8
1
62
256
6
ByLayer
370
13
48
1
60
0
100
AcDbEllipse
10
69.258678
20
32.17728
30
0
11
0.0148293336171678
21
0.399725019062444
31
0
210
0
220
0
230
1
40
0.406503
41
-2.33595515067487
42
-1.55571667185628
0
ELLIPSE
5
145
100
AcDbEntity
8
1
62
256
6
ByLayer
370
13
48
1
60
0
100
AcDbEllipse
10
69.620403
20
34.236901
30
0
11
-0.0518341759381041
21
-0.0855173561612944
31
0
210
0
220
0
230
1
40
0.13986
41
0.736311954699947
42
1.57460332353055
0
ELLIPSE
5
146
100
AcDbEntity
8
1
62
256
6
ByLayer
370
13
48
1
60
0
100
AcDbEllipse
10
69.523358
20
34.314274
30
0
11
-0.0777628762498865
21
-0.062872371335467
31
0
210
0
220
0
230
1
40
0.13045
41
1.15581636427987
42
1.62182792903085
0
ELLIPSE
5
147
100
AcDbEntity
8
1
62
256
6
ByLayer
370
13
48
1
60
0
100
AcDbEllipse
10
69.620403
20
31.763099
30
0
11
-0.051834175938104
21
0.0855173561612944
31
0
210
0
220
0
230
1
40
0.13986
41
-1.57460332353069
42
-0.736311954700231
0
ELLIPSE
5
148
100
AcDbEntity
8
1
62
256
6
ByLayer
370
13
48
1
60
0
100
AcDbEllipse
10
69.523358
20
31.685726
30
0
11
-0.0777628762498864
21
0.062872371335467
31
0
210
0
220
0
230
1
40
0.13045
41
-1.62182792903098
42
-1.15581636428013
0
ELLIPSE
5
149
100
AcDbEntity
8
1
62
256
6
ByLayer
370
13
48
1
60
0
100
AcDbEllipse
10
69.935862
20
32.029285
30
0
11
-0.0846493904271148
21
0.0532398412874971
31
0
210
0
220
0
230
1
40
0.065231
41
-1.67414184501553
42
-1.04577954889675
0
ELLIPSE
5
14A
100
AcDbEntity
8
1
62
256
6
ByLayer
370
13
48
1
60
0
100
AcDbEllipse
10
69.935862
20
33.970715
30
0
11
-0.0846493904271148
21
-0.0532398412874971
31
0
210
0
220
0
230
1
40
0.065231
41
1.04577954889749
42
1.67414184501553
0
ELLIPSE
5
14B
100
AcDbEntity
8
1
62
256
6
ByLayer
370
18
48
1
60
0
100
AcDbEllipse
10
69.506337
20
34.976339
30
0
11
0.239994304475457
21
0.0170571478227368
31
0
210
0
220
0
230
-1
40
0.096932
41
-1.73802346974104
42
-1.44202876454749
0
ELLIPSE
5
14C
100
AcDbEntity
8
1
62
256
6
ByLayer
370
18
48
1
60
0
100
AcDbEllipse
10
66.285022
20
31.052547
30
0
11
0.898944095272884
21
-0.523851229866256
31
0
210
0
220
0
230
-1
40
0.083195
41
-1.85746854077193
42
-1.7474427950345
0
ELLIPSE
5
14D
100
AcDbEntity
8
1
62
256
6
ByLayer
370
18
48
1
60
0
100
AcDbEllipse
10
66.855207
20
34.845241
30
0
11
0.251841824090583
21
0.0179368089950317
31
0
210
0
220
0
230
-1
40
0.095335
41
-1.55727336992622
42
-0.770655746894929
0
ELLIPSE
5
14E
100
AcDbEntity
8
1
62
256
6
ByLayer
370
18
48
1
60
0
100
AcDbEllipse
10
69.506337
20
31.023661
30
0
11
0.23999430482027
21
-0.0170571478464504
31
0
210
0
220
0
230
-1
40
0.096932
41
1.44202876476757
42
1.73802346953273
0
ELLIPSE
5
14F
100
AcDbEntity
8
1
62
256
6
ByLayer
370
18
48
1
60
0
100
AcDbEllipse
10
66.370355
20
34.432637
30
0
11
0.117518340696116
21
-0.3843851723858
31
1.94289029309403E-16
210
1.60117654267523E-15
220
-1.59252210866294E-17
230
-1
40
0.995153
41
-3.0584188357418
42
-2.91576259201242
0
ELLIPSE
5
150
100
AcDbEntity
8
1
62
256
6
ByLayer
370
18
48
1
60
0
100
AcDbEllipse
10
66.285022
20
34.947453
30
0
11
0.898944409279233
21
0.523851428202429
31
0
210
0
220
0
230
-1
40
0.083195
41
1.74744289114707
42
1.85746859957982
0
ELLIPSE
5
151
100
AcDbEntity
8
1
62
256
6
ByLayer
370
18
48
1
60
0
100
AcDbEllipse
10
70.048748
20
32.029285
30
0
11
1.1330996904646E-16
21
0.4
31
0
210
0
220
0
230
1
40
0.121869
41
1.5707963267949
42
1.64009079051255
0
ELLIPSE
5
152
100
AcDbEntity
8
1
62
256
6
ByLayer
370
18
48
1
60
0
100
AcDbEllipse
10
66.855207
20
31.154759
30
0
11
0.25184182409592
21
-0.0179368089957412
31
0
210
0
220
0
230
-1
40
0.095335
41
0.770655746895038
42
1.55727336991131
0
ELLIPSE
5
153
100
AcDbEntity
8
1
62
256
6
ByLayer
370
18
48
1
60
0
100
AcDbEllipse
10
66.370355
20
31.567363
30
0
11
0.117518340696115
21
0.3843851723858
31
1.87350135405496E-16
210
1.59612928733378E-15
220
-5.83607263126116E-19
230
-1
40
0.995153
41
2.91576259201242
42
3.05841883574182
0
ELLIPSE
5
154
100
AcDbEntity
8
1
62
256
6
ByLayer
370
18
48
1
60
0
100
AcDbEllipse
10
70.048748
20
33.970715
30
0
11
1.1330996904646E-16
21
0.4
31
0
210
0
220
0
230
1
40
0.121869
41
1.50150186307724
42
1.5707963267949
0
POINT
5
6C
100
AcDbEntity
8
81
62
256
6
ByLayer
370
18
48
1
60
0
100
AcDbPoint
10
70
20
35
30
0
39
0
210
0
220
0
230
1
50
360
0
POINT
5
6E
100
AcDbEntity
8
80
62
256
6
ByLayer
370
18
48
1
60
0
100
AcDbPoint
10
0
20
0
30
0
39
0
210
0
220
0
230
1
50
360
0
SPLINE
5
155
100
AcDbEntity
8
SK1
62
256
6
ByLayer
370
13
48
1
60
0
100
AcDbSpline
70
4
71
2
72
6
73
3
40
0
40
0
40
0
40
1
40
1
40
1
41
1
10
-28.5
20
-16.8545212066649
30
0
41
1
10
-15.2499999987993
20
-17.1871851888412
30
0
41
1
10
-1.99999999999989
20
-17.5198482068776
30
0
0
SPLINE
5
156
100
AcDbEntity
8
SK1
62
256
6
ByLayer
370
13
48
1
60
0
100
AcDbSpline
70
4
71
2
72
6
73
3
40
0
40
0
40
0
40
1
40
1
40
1
41
1
10
-1.99999999999991
20
17.5198479235724
30
0
41
1
10
-15.2499999987994
20
17.1871849060498
30
0
41
1
10
-28.5
20
16.8545209244112
30
0
0
SPLINE
5
157
100
AcDbEntity
8
SK1
62
256
6
ByLayer
370
13
48
1
60
0
100
AcDbSpline
70
4
71
3
72
13
73
9
40
0
40
0
40
0
40
0
40
0.23940909936728
40
0.368297400752178
40
0.499931438691553
40
0.631576866358119
40
0.760496583550981
40
1
40
1
40
1
40
1
41
1
10
-1.99999999999989
20
-17.525129116923
30
0
41
1
10
-1.9990912571979
20
-17.4990813944885
30
0
41
1
10
-1.99103211472595
20
-17.4617233046648
30
0
41
1
10
-1.96563495891911
20
-17.4155240253433
30
0
41
1
10
-1.9388625082257
20
-17.3842556209574
30
0
41
1
10
-1.90627575278668
20
-17.3590990612905
30
0
41
1
10
-1.85883875467886
20
-17.3360651360604
30
0
41
1
10
-1.82110932008979
20
-17.3298953840655
30
0
41
1
10
-1.79503997793927
20
-17.3302974649008
30
0
0
SPLINE
5
158
100
AcDbEntity
8
SK1
62
256
6
ByLayer
370
13
48
1
60
0
100
AcDbSpline
70
4
71
3
72
13
73
9
40
0
40
0
40
0
40
0
40
0.239503416121625
40
0.368423133196227
40
0.500068560814767
40
0.631702598790184
40
0.760590900287112
40
1
40
1
40
1
40
1
41
1
10
-1.79503997793927
20
17.3302973195575
30
0
41
1
10
-1.8211093200961
20
17.3298952387248
30
0
41
1
10
-1.85883875469071
20
17.336064990738
30
0
41
1
10
-1.90627575279677
20
17.3590989160412
30
0
41
1
10
-1.93886250823528
20
17.3842554757877
30
0
41
1
10
-1.96563495892639
20
17.4155238802705
30
0
41
1
10
-1.9910321147313
20
17.4617231597379
30
0
41
1
10
-1.9990912572033
20
17.499081249668
30
0
41
1
10
-1.99999999999991
20
17.5251289721744
30
0
0
SPLINE
5
159
100
AcDbEntity
8
SK1
62
256
6
ByLayer
370
13
48
1
60
0
100
AcDbSpline
70
4
71
2
72
6
73
3
40
0
40
0
40
0
40
1
40
1
40
1
41
1
10
-1.79503997793927
20
-17.3250646819565
30
0
41
1
10
-0.995008433403029
20
-17.3451508243472
30
0
41
1
10
-0.194976888875288
20
-17.3652369633001
30
0
0
SPLINE
5
15A
100
AcDbEntity
8
SK1
62
256
6
ByLayer
370
13
48
1
60
0
100
AcDbSpline
70
4
71
2
72
6
73
3
40
0
40
0
40
0
40
1
40
1
40
1
41
1
10
-0.19497688887526
20
17.3652366802367
30
0
41
1
10
-0.995008433403001
20
17.3451505413152
30
0
41
1
10
-1.79503997793927
20
17.3250643989562
30
0
0
SPLINE
5
15B
100
AcDbEntity
8
SK1
62
256
6
ByLayer
370
13
48
1
60
0
100
AcDbSpline
70
4
71
2
72
6
73
3
40
0
40
0
40
0
40
1
40
1
40
1
41
1
10
-29.9999999999999
20
-15.9932495545754
30
0
41
1
10
-29.2499990770552
20
-16.4260289695447
30
0
41
1
10
-28.5
20
-16.8588008432386
30
0
0
SPLINE
5
15C
100
AcDbEntity
8
SK1
62
256
6
ByLayer
370
13
48
1
60
0
100
AcDbSpline
70
4
71
2
72
6
73
3
40
0
40
0
40
0
40
1
40
1
40
1
41
1
10
-28.5
20
16.858800643688
30
0
41
1
10
-29.2499990770911
20
16.4260287704419
30
0
41
1
10
-30
20
15.9932493559076
30
0
0
SPLINE
5
15D
100
AcDbEntity
8
SK1
62
256
6
ByLayer
370
13
48
1
60
0
100
AcDbSpline
70
4
71
2
72
6
73
3
40
0
40
0
40
0
40
1
40
1
40
1
41
1
10
-0.194976888875288
20
-17.3704796738455
30
0
41
1
10
-0.0591463025171493
20
-17.3755257485883
30
0
41
1
10
-0.0356373333999329
20
-17.4655271597151
30
0
0
SPLINE
5
15E
100
AcDbEntity
8
SK1
62
256
6
ByLayer
370
13
48
1
60
0
100
AcDbSpline
70
4
71
2
72
6
73
3
40
0
40
0
40
0
40
1
40
1
40
1
41
1
10
-0.0343899619089143
20
17.4680396001793
30
0
41
1
10
-0.0576204404093801
20
17.3761040543929
30
0
41
1
10
-0.19497688887526
20
17.3704795286247
30
0
0
SPLINE
5
15F
100
AcDbEntity
8
SK1
62
256
6
ByLayer
370
13
48
1
60
0
100
AcDbSpline
70
4
71
3
72
39
73
35
40
0
40
0
40
0
40
0
40
0.0161825881517928
40
0.0446424309935613
40
0.0731022738353297
40
0.101562116677098
40
0.158481802360635
40
0.215401488044172
40
0.24386133088594
40
0.272321173727709
40
0.329240859411246
40
0.357700702253014
40
0.386160545094783
40
0.414620387936551
40
0.44308023077832
40
0.471540073620088
40
0.485769995040972
40
0.499999916461856
40
0.514229837882741
40
0.528459759303625
40
0.556919602145393
40
0.585379444987162
40
0.61383928782893
40
0.642299130670699
40
0.670758973512467
40
0.727678659196004
40
0.756138502037773
40
0.784598344879541
40
0.841518030563078
40
0.898437716246615
40
0.926897559088383
40
0.955357401930152
40
0.98381724477192
40
1
40
1
40
1
40
1
41
1
10
-28.5
20
16.8572808146176
30
0
41
1
10
-28.5
20
16.8520758985214
30
0
41
1
10
-28.5
20
16.8141072512333
30
0
41
1
10
-28.5
20
16.6531187925377
30
0
41
1
10
-28.5
20
16.3328856609546
30
0
41
1
10
-28.5
20
15.7436769514769
30
0
41
1
10
-28.4999999999999
20
14.7294543359372
30
0
41
1
10
-28.5
20
13.3839106046768
30
0
41
1
10
-28.4999999999999
20
12.1202809967186
30
0
41
1
10
-28.5
20
10.7383929245239
30
0
41
1
10
-28.5
20
9.19217383455452
30
0
41
1
10
-28.5
20
7.47336198687174
30
0
41
1
10
-28.5
20
6.10816664300199
30
0
41
1
10
-28.5
20
4.66779636016497
30
0
41
1
10
-28.4999999999999
20
3.15909751485594
30
0
41
1
10
-28.5
20
1.85825194532154
30
0
41
1
10
-28.5
20
0.795563889584997
30
0
41
1
10
-28.5
20
1.28670024E-07
30
0
41
1
10
-28.5
20
-0.79556386390135
30
0
41
1
10
-28.5
20
-1.85825200188586
30
0
41
1
10
-28.5
20
-3.15909729188618
30
0
41
1
10
-28.5
20
-4.66779609215359
30
0
41
1
10
-28.5
20
-6.10816680103011
30
0
41
1
10
-28.4999999999999
20
-7.47336176426734
30
0
41
1
10
-28.4999999999999
20
-9.19217366708187
30
0
41
1
10
-28.5
20
-10.7383929176601
30
0
41
1
10
-28.4999999999999
20
-12.120280876233
30
0
41
1
10
-28.5
20
-13.3839109677473
30
0
41
1
10
-28.4999999999999
20
-14.7294539424715
30
0
41
1
10
-28.5
20
-15.7436777114932
30
0
41
1
10
-28.4999999999999
20
-16.3328855300397
30
0
41
1
10
-28.4999999999999
20
-16.653119129773
30
0
41
1
10
-28.5
20
-16.8141081756025
30
0
41
1
10
-28.4999999999999
20
-16.8520764700795
30
0
41
1
10
-28.5
20
-16.8572811854239
30
0
0
SPLINE
5
160
100
AcDbEntity
8
SK1
62
256
6
ByLayer
370
13
48
1
60
0
100
AcDbSpline
70
4
71
3
72
39
73
35
40
0
40
0
40
0
40
0
40
0.0138412315491537
40
0.0424388014803957
40
0.0710363714116377
40
0.0996339413428796
40
0.156829081205364
40
0.214024221067848
40
0.24262179099909
40
0.271219360930332
40
0.328414500792816
40
0.357012070724058
40
0.3856096406553
40
0.414207210586542
40
0.442804780517784
40
0.471402350449026
40
0.485701135414647
40
0.499999920380268
40
0.514298705345889
40
0.52859749031151
40
0.557195060242752
40
0.585792630173994
40
0.614390200105236
40
0.642987770036478
40
0.67158533996772
40
0.728780479830204
40
0.757378049761446
40
0.785975619692688
40
0.843170759555172
40
0.900365899417656
40
0.928963469348898
40
0.957561039280139
40
0.986158609211382
40
1
40
1
40
1
40
1
41
1
10
-1.99999999999991
20
17.5197427597315
30
0
41
1
10
-1.99999999999991
20
17.5129400885299
30
0
41
1
10
-1.99999999999991
20
17.4725596434833
30
0
41
1
10
-1.99999999999991
20
17.3116343538073
30
0
41
1
10
-1.99999999999989
20
16.981588832967
30
0
41
1
10
-1.99999999999991
20
16.3767064197524
30
0
41
1
10
-1.99999999999989
20
15.3340294930174
30
0
41
1
10
-1.99999999999991
20
13.9519092247439
30
0
41
1
10
-1.99999999999989
20
12.657565142082
30
0
41
1
10
-1.99999999999991
20
11.2412056202459
30
0
41
1
10
-1.99999999999991
20
9.64534783198889
30
0
41
1
10
-1.99999999999991
20
7.87638184130788
30
0
41
1
10
-1.99999999999989
20
6.46346246032286
30
0
41
1
10
-1.99999999999991
20
4.96520999967436
30
0
41
1
10
-1.99999999999989
20
3.38314408231224
30
0
41
1
10
-1.99999999999991
20
1.99851186782052
30
0
41
1
10
-1.99999999999991
20
0.861482441955189
30
0
41
1
10
-1.99999999999991
20
1.76095512E-08
30
0
41
1
10
-1.99999999999991
20
-0.861482365135828
30
0
41
1
10
-1.99999999999991
20
-1.99851187450381
30
0
41
1
10
-1.99999999999991
20
-3.3831440670979
30
0
41
1
10
-1.99999999999991
20
-4.96520967393042
30
0
41
1
10
-1.99999999999991
20
-6.46346255594889
30
0
41
1
10
-1.99999999999989
20
-7.87638169367145
30
0
41
1
10
-1.99999999999989
20
-9.64534763909768
30
0
41
1
10
-1.99999999999991
20
-11.2412056085042
30
0
41
1
10
-1.99999999999989
20
-12.6575649796177
30
0
41
1
10
-1.99999999999994
20
-13.9519096014721
30
0
41
1
10
-1.99999999999989
20
-15.3340290660617
30
0
41
1
10
-1.99999999999991
20
-16.3767071899766
30
0
41
1
10
-1.99999999999989
20
-16.981588704699
30
0
41
1
10
-1.99999999999986
20
-17.3116346702719
30
0
41
1
10
-1.99999999999989
20
-17.4725605624036
30
0
41
1
10
-1.99999999999989
20
-17.5129407094065
30
0
41
1
10
-1.99999999999986
20
-17.5197432404016
30
0
0
SPLINE
5
161
100
AcDbEntity
8
SK1
62
256
6
ByLayer
370
13
48
1
60
0
100
AcDbSpline
70
4
71
3
72
24
73
20
40
0
40
0
40
0
40
0
40
0.12929312516446
40
0.12929312516446
40
0.160890762427944
40
0.160890762427944
40
0.19312509872751
40
0.19312509872751
40
0.210852819139931
40
0.210852819139931
40
0.228629109366747
40
0.228629109366747
40
0.251617995969714
40
0.251617995969714
40
0.291811550479002
40
0.291811550479002
40
0.417285661516421
40
0.417285661516421
40
1
40
1
40
1
40
1
41
1
10
-0.194976888870229
20
5.10125345321308
30
0
41
1
10
-0.181437028790754
20
5.0742077756197
30
0
41
1
10
-0.166263939428745
20
5.04747373608865
30
0
41
1
10
-0.14089787063503
20
5.02184016773089
30
0
41
1
10
-0.135473818681163
20
5.01716196663588
30
0
41
1
10
-0.123549655243835
20
5.00963193359666
30
0
41
1
10
-0.11682696095707
20
5.00671644859113
30
0
41
1
10
-0.105797159791336
20
5.00555851911653
30
0
41
1
10
-0.101665537823521
20
5.00583807674758
30
0
41
1
10
-0.0936550002421939
20
5.008006673794
30
0
41
1
10
-0.0896865034707446
20
5.00992758749911
30
0
41
1
10
-0.081378713698399
20
5.01564999886384
30
0
41
1
10
-0.0771254542222835
20
5.01988425828577
30
0
41
1
10
-0.0668909728223923
20
5.03253319783838
30
0
41
1
10
-0.0616757119856288
20
5.04189507302806
30
0
41
1
10
-0.043525626870121
20
5.08091090599524
30
0
41
1
10
-0.0358776289131413
20
5.11311220772763
30
0
41
1
10
-0.0008126982902183
20
5.29017319535623
30
0
41
1
10
-2.84E-14
20
5.43661415621463
30
0
41
1
10
-2.84E-14
20
5.57923236301608
30
0
0
SPLINE
5
162
100
AcDbEntity
8
SK1
62
256
6
ByLayer
370
13
48
1
60
0
100
AcDbSpline
70
4
71
3
72
28
73
24
40
0
40
0
40
0
40
0
40
0.516446141051962
40
0.516446141051962
40
0.606964722939291
40
0.606964722939291
40
0.693548730180605
40
0.693548730180605
40
0.726617429279099
40
0.726617429279099
40
0.760179667743664
40
0.760179667743664
40
0.778833531745745
40
0.778833531745745
40
0.79765485432063
40
0.79765485432063
40
0.814904576888618
40
0.814904576888618
40
0.845176041491231
40
0.845176041491231
40
0.92230778134346
40
0.92230778134346
40
1
40
1
40
1
40
1
41
1
10
2.84E-14
20
-5.57923036606743
30
0
41
1
10
2.84E-14
20
-5.45236806529718
30
0
41
1
10
-0.0023498218234863
20
-5.32313166238572
30
0
41
1
10
-0.0246707618044013
20
-5.17055408176347
30
0
41
1
10
-0.0286524877798797
20
-5.14764204467298
30
0
41
1
10
-0.0387560546028851
20
-5.10317866975277
30
0
41
1
10
-0.0446943059311025
20
-5.08137365774473
30
0
41
1
10
-0.056504699069734
20
-5.05263962384038
30
0
41
1
10
-0.0602008880998142
20
-5.04479189761068
30
0
41
1
10
-0.0689466158998755
20
-5.02994474169321
30
0
41
1
10
-0.0741217536318857
20
-5.02277054209395
30
0
41
1
10
-0.0837193538486929
20
-5.01389488613012
30
0
41
1
10
-0.0875463815133344
20
-5.01114472817946
30
0
41
1
10
-0.0956073859927926
20
-5.00725697459063
30
0
41
1
10
-0.0999476032092446
20
-5.00610700608999
30
0
41
1
10
-0.108056444598617
20
-5.00560398939328
30
0
41
1
10
-0.111930329251408
20
-5.00608221695782
30
0
41
1
10
-0.121996996497529
20
-5.00880668081476
30
0
41
1
10
-0.127948105958552
20
-5.01208528001044
30
0
41
1
10
-0.147044934762476
20
-5.02590151619091
30
0
41
1
10
-0.158144588367037
20
-5.03988585432629
30
0
41
1
10
-0.17802475425762
20
-5.06915995887169
30
0
41
1
10
-0.18684024243052
20
-5.08499801267445
30
0
41
1
10
-0.194976888875488
20
-5.10125086895371
30
0
0
SPLINE
5
163
100
AcDbEntity
8
SK1
62
256
6
ByLayer
370
13
48
1
60
0
100
AcDbSpline
70
4
71
3
72
19
73
15
40
0
40
0
40
0
40
0
40
0.0340168327216014
40
0.10373195275268
40
0.173447072783759
40
0.243162192814837
40
0.382592432876994
40
0.522022672939151
40
0.59173779297023
40
0.661452913001308
40
0.800883153063465
40
0.870598273094544
40
0.940313393125622
40
1
40
1
40
1
40
1
41
1
10
-0.19497688887526
20
17.3652894532404
30
0
41
1
10
-0.19497688887526
20
17.358585673845
30
0
41
1
10
-0.19497688887526
20
17.3185670126588
30
0
41
1
10
-0.194976888875288
20
17.1586060420317
30
0
41
1
10
-0.194976888875288
20
16.8308407609471
30
0
41
1
10
-0.194976888875288
20
16.2296006616932
30
0
41
1
10
-0.19497688887526
20
15.1935360543338
30
0
41
1
10
-0.194976888875317
20
13.8199155786831
30
0
41
1
10
-0.19497688887526
20
12.5327090406556
30
0
41
1
10
-0.194976888875317
20
11.124360123357
30
0
41
1
10
-0.194976888875288
20
9.54003756166779
30
0
41
1
10
-0.194976888875288
20
7.78272657852639
30
0
41
1
10
-0.194976888875288
20
6.44811514689016
30
0
41
1
10
-0.194976888875288
20
5.5331359846804
30
0
41
1
10
-0.194976888875288
20
5.10125345322419
30
0
0
SPLINE
5
164
100
AcDbEntity
8
SK1
62
256
6
ByLayer
370
13
48
1
60
0
100
AcDbSpline
70
4
71
3
72
10
73
6
40
0
40
0
40
0
40
0
40
0.5
40
0.5
40
1
40
1
40
1
40
1
41
1
10
-1.3154350650949
20
-3.91026939581332
30
0
41
1
10
-1.5399457534287
20
-2.66888211580204
30
0
41
1
10
-1.7236184845311
20
-1.33806859990833
30
0
41
1
10
-1.72276554179194
20
1.34789001624876
30
0
41
1
10
-1.53997014218979
20
2.66874784662457
30
0
41
1
10
-1.31543506509493
20
3.91027172665429
30
0
0
SPLINE
5
165
100
AcDbEntity
8
SK1
62
256
6
ByLayer
370
13
48
1
60
0
100
AcDbSpline
70
4
71
3
72
39
73
35
40
0
40
0
40
0
40
0
40
0.0143966640232921
40
0.0429615547779421
40
0.0715264455325922
40
0.100091336287242
40
0.157221117796542
40
0.214350899305842
40
0.242915790060492
40
0.271480680815142
40
0.328610462324443
40
0.357175353079093
40
0.385740243833743
40
0.414305134588393
40
0.442870025343043
40
0.471434916097693
40
0.485717361475018
40
0.499999806852343
40
0.514282252229668
40
0.528564697606993
40
0.557129588361643
40
0.585694479116293
40
0.614259369870943
40
0.642824260625593
40
0.671389151380243
40
0.728518932889543
40
0.757083823644193
40
0.785648714398843
40
0.842778495908143
40
0.899908277417444
40
0.928473168172094
40
0.957038058926744
40
0.985602949681394
40
1
40
1
40
1
40
1
41
1
10
-1.79503997793927
20
17.3257551209547
30
0
41
1
10
-1.79503997793927
20
17.3192800100252
30
0
41
1
10
-1.79503997793924
20
17.2795195306958
30
0
41
1
10
-1.79503997793927
20
17.1188450441766
30
0
41
1
10
-1.79503997793924
20
16.7916722325963
30
0
41
1
10
-1.79503997793927
20
16.1913785074865
30
0
41
1
10
-1.79503997793924
20
15.1570319640165
30
0
41
1
10
-1.79503997793927
20
13.7856199701319
30
0
41
1
10
-1.79503997793924
20
12.500267964077
30
0
41
1
10
-1.79503997793927
20
11.0940004239178
30
0
41
1
10
-1.79503997793927
20
9.51267503388596
30
0
41
1
10
-1.79503997793927
20
7.7583923448191
30
0
41
1
10
-1.79503997793927
20
6.35944481918477
30
0
41
1
10
-1.79503997793927
20
4.87813814654274
30
0
41
1
10
-1.79503997793927
20
3.31755142876619
30
0
41
1
10
-1.7950399779393
20
1.95744888431966
30
0
41
1
10
-1.79503997793927
20
0.842183896938536
30
0
41
1
10
-1.7950399779393
20
5.01240152E-08
30
0
41
1
10
-1.79503997793927
20
-0.842183835089827
30
0
41
1
10
-1.79503997793927
20
-1.95744890560633
30
0
41
1
10
-1.79503997793927
20
-3.31755135272868
30
0
41
1
10
-1.79503997793927
20
-4.87813783770076
30
0
41
1
10
-1.7950399779393
20
-6.35944493307986
30
0
41
1
10
-1.79503997793927
20
-7.75839217523475
30
0
41
1
10
-1.79503997793927
20
-9.5126748484364
30
0
41
1
10
-1.7950399779393
20
-11.0940004136041
30
0
41
1
10
-1.79503997793927
20
-12.5002678139025
30
0
41
1
10
-1.79503997793932
20
-13.7856203428616
30
0
41
1
10
-1.79503997793924
20
-15.1570315468655
30
0
41
1
10
-1.7950399779393
20
-16.1913792747222
30
0
41
1
10
-1.79503997793927
20
-16.7916721035533
30
0
41
1
10
-1.79503997793927
20
-17.1188453667222
30
0
41
1
10
-1.79503997793927
20
-17.2795209558862
30
0
41
1
10
-1.79503997793927
20
-17.3192810356219
30
0
41
1
10
-1.79503997793927
20
-17.3257558790936
30
0
0
SPLINE
5
166
100
AcDbEntity
8
SK1
62
256
6
ByLayer
370
13
48
1
60
0
100
AcDbSpline
70
4
71
3
72
12
73
8
40
0
40
0
40
0
40
0
40
0.5
40
0.5
40
0.75
40
0.75
40
1
40
1
40
1
40
1
41
1
10
-1.31543506509493
20
3.9102717266544
30
0
41
1
10
-1.24592839325501
20
4.29459561059775
30
0
41
1
10
-1.16331416991252
20
4.66760511763019
30
0
41
1
10
-0.926521435133054
20
5.19044404924699
30
0
41
1
10
-0.835622884145778
20
5.4073581427343
30
0
41
1
10
-0.419282266252395
20
5.50342856768924
30
0
41
1
10
-0.281321823101081
20
5.2737262290988
30
0
41
1
10
-0.194976888875288
20
5.10125345321302
30
0
0
SPLINE
5
167
100
AcDbEntity
8
SK1
62
256
6
ByLayer
370
13
48
1
60
0
100
AcDbSpline
70
4
71
3
72
19
73
15
40
0
40
0
40
0
40
0
40
0.0596866936103251
40
0.129401785675545
40
0.199116877740765
40
0.338547061871205
40
0.408262153936425
40
0.477977246001645
40
0.617407430132085
40
0.756837614262525
40
0.826552706327745
40
0.896267798392964
40
0.965982890458184
40
1
40
1
40
1
40
1
41
1
10
-0.194976888875288
20
-5.10125086896684
30
0
41
1
10
-0.194976888875288
20
-5.53313428609096
30
0
41
1
10
-0.194976888875288
20
-6.4481145019796
30
0
41
1
10
-0.194976888875288
20
-7.78272641346859
30
0
41
1
10
-0.194976888875288
20
-9.54003737468344
30
0
41
1
10
-0.194976888875317
20
-11.1243601127488
30
0
41
1
10
-0.19497688887526
20
-12.5327088879465
30
0
41
1
10
-0.194976888875317
20
-13.8199159522375
30
0
41
1
10
-0.19497688887526
20
-15.1935356351606
30
0
41
1
10
-0.194976888875317
20
-16.2296014295452
30
0
41
1
10
-0.194976888875288
20
-16.8308406320639
30
0
41
1
10
-0.19497688887526
20
-17.1586063633232
30
0
41
1
10
-0.194976888875288
20
-17.3185678370077
30
0
41
1
10
-0.194976888875288
20
-17.3585862139252
30
0
41
1
10
-0.194976888875288
20
-17.365289868992
30
0
0
SPLINE
5
168
100
AcDbEntity
8
SK1
62
256
6
ByLayer
370
13
48
1
60
0
100
AcDbSpline
70
4
71
3
72
24
73
20
40
0
40
0
40
0
40
0
40
0.0865398844436576
40
0.0865398844436576
40
0.17460680897361
40
0.17460680897361
40
0.204283232250674
40
0.204283232250674
40
0.234430378299031
40
0.234430378299031
40
0.260963086962198
40
0.260963086962198
40
0.296894251932718
40
0.296894251932718
40
0.362560401604319
40
0.362560401604319
40
0.577775078513655
40
0.577775078513655
40
1
40
1
40
1
40
1
41
1
10
-0.194976888875288
20
-5.10125086895567
30
0
41
1
10
-0.224592653870218
20
-5.16040801377204
30
0
41
1
10
-0.257595479757327
20
-5.21831140841587
30
0
41
1
10
-0.336150389877872
20
-5.32723274028896
30
0
41
1
10
-0.382542848167162
20
-5.38041105877852
30
0
41
1
10
-0.46232125031537
20
-5.43127550158044
30
0
41
1
10
-0.484592781963386
20
-5.44242526658468
30
0
41
1
10
-0.532132005846222
20
-5.45772783053684
30
0
41
1
10
-0.558142899452889
20
-5.46179903845936
30
0
41
1
10
-0.606278947725286
20
-5.46041947085908
30
0
41
1
10
-0.629034072907501
20
-5.45606086620433
30
0
41
1
10
-0.678877240187546
20
-5.43930436278234
30
0
41
1
10
-0.70554659949525
20
-5.42456927125346
30
0
41
1
10
-0.773100753634822
20
-5.37672942900628
30
0
41
1
10
-0.809617767336334
20
-5.33795142049797
30
0
41
1
10
-0.945846243999199
20
-5.16581622302286
30
0
41
1
10
-1.01284657594533
20
-5.01170528380675
30
0
41
1
10
-1.18434707470053
20
-4.55468826920028
30
0
41
1
10
-1.25671595113772
20
-4.23494507919244
30
0
41
1
10
-1.31543506509541
20
-3.9102693958136
30
0
0
SPLINE
5
169
100
AcDbEntity
8
SK1
62
256
6
ByLayer
370
13
48
1
60
0
100
AcDbSpline
70
4
71
3
72
39
73
35
40
0
40
0
40
0
40
0
40
0.0181821462547373
40
0.0465244249988422
40
0.0748667037429471
40
0.103208982487052
40
0.159893539975262
40
0.216578097463472
40
0.244920376207576
40
0.273262654951681
40
0.329947212439891
40
0.358289491183996
40
0.386631769928101
40
0.414974048672206
40
0.443316327416311
40
0.471658606160415
40
0.485829745532468
40
0.50000088490452
40
0.514172024276573
40
0.528343163648625
40
0.55668544239273
40
0.585027721136835
40
0.61336999988094
40
0.641712278625045
40
0.670054557369149
40
0.726739114857359
40
0.755081393601464
40
0.783423672345569
40
0.840108229833779
40
0.896792787321988
40
0.925135066066093
40
0.953477344810198
40
0.981819623554303
40
1
40
1
40
1
40
1
41
1
10
-29.9999999999999
20
15.9932053881065
30
0
41
1
10
-30
20
15.9899219736629
30
0
41
1
10
-30
20
15.9548426685193
30
0
41
1
10
-30
20
15.7965327535813
30
0
41
1
10
-30
20
15.4890634139888
30
0
41
1
10
-30
20
14.9202427964398
30
0
41
1
10
-29.9999999999999
20
13.9430330734596
30
0
41
1
10
-30
20
12.6450674903883
30
0
41
1
10
-30
20
11.4213907579162
30
0
41
1
10
-30
20
10.084342571431
30
0
41
1
10
-30
20
8.60269267078087
30
0
41
1
10
-30
20
6.94912049428402
30
0
41
1
10
-30
20
5.64600378047234
30
0
41
1
10
-30
20
4.28092566737882
30
0
41
1
10
-30
20
2.86766148350512
30
0
41
1
10
-30
20
1.67580418173901
30
0
41
1
10
-30
20
0.709818138095528
30
0
41
1
10
-30
20
2.731356972E-07
30
0
41
1
10
-29.9999999999999
20
-0.709818178928316
30
0
41
1
10
-30
20
-1.6758043031881
30
0
41
1
10
-30
20
-2.86766099029063
30
0
41
1
10
-30
20
-4.28092547446491
30
0
41
1
10
-29.9999999999999
20
-5.64600401967203
30
0
41
1
10
-29.9999999999999
20
-6.94912017416243
30
0
41
1
10
-29.9999999999999
20
-8.60269253637239
30
0
41
1
10
-30
20
-10.0843425709125
30
0
41
1
10
-29.9999999999999
20
-11.4213906920358
30
0
41
1
10
-30
20
-12.6450678356931
30
0
41
1
10
-29.9999999999999
20
-13.9430327235572
30
0
41
1
10
-30
20
-14.9202435431779
30
0
41
1
10
-29.9999999999999
20
-15.4890632796306
30
0
41
1
10
-29.9999999999999
20
-15.7965331178349
30
0
41
1
10
-29.9999999999999
20
-15.9548394746766
30
0
41
1
10
-29.9999999999999
20
-15.9899195648927
30
0
41
1
10
-29.9999999999999
20
-15.993204611812
30
0
0
SPLINE
5
16A
100
AcDbEntity
8
1
62
256
6
ByLayer
370
13
48
1
60
0
100
AcDbSpline
70
4
71
3
72
8
73
4
40
0
40
0
40
0
40
0
40
1
40
1
40
1
40
1
41
1
10
20.2792076144254
20
22.5984282879584
30
0
41
1
10
20.1723884910804
20
22.4274635302846
30
0
41
1
10
20.1184605318085
20
22.2401224390163
30
0
41
1
10
20.1152763833534
20
22.0449751661416
30
0
0
SPLINE
5
16B
100
AcDbEntity
8
1
62
256
6
ByLayer
370
13
48
1
60
0
100
AcDbSpline
70
4
71
3
72
16
73
12
40
0
40
0
40
0
40
0
40
0.111430279628064
40
0.111430279628064
40
0.248747543515506
40
0.248747543515506
40
0.465535329195281
40
0.465535329195281
40
0.8838553518676
40
0.8838553518676
40
1
40
1
40
1
40
1
41
1
10
11.4613248654053
20
23.8391299750502
30
0
41
1
10
11.4891847159943
20
23.8391299750502
30
0
41
1
10
11.5173911427756
20
23.8375361275705
30
0
41
1
10
11.5758492032393
20
23.8311506585889
30
0
41
1
10
11.6060413892306
20
23.8256668770178
30
0
41
1
10
11.6751537543576
20
23.8089605749786
30
0
41
1
10
11.7107854085705
20
23.7960379707759
30
0
41
1
10
11.798993890746
20
23.7556824246831
30
0
41
1
10
11.8397320068509
20
23.7250165399981
30
0
41
1
10
11.8792917015268
20
23.6845451449632
30
0
41
1
10
11.8871615985731
20
23.6755726082077
30
0
41
1
10
11.8943375672975
20
23.6665017920808
30
0
0
SPLINE
5
16C
100
AcDbEntity
8
1
62
256
6
ByLayer
370
13
48
1
60
0
100
AcDbSpline
70
4
71
3
72
16
73
12
40
0
40
0
40
0
40
0
40
0.461208588217053
40
0.461208588217053
40
0.643534962278498
40
0.643534962278498
40
0.828408472975235
40
0.828408472975235
40
0.943003644159918
40
0.943003644159918
40
1
40
1
40
1
40
1
41
1
10
8.1056624327027
20
-8.05584836782836
30
0
41
1
10
8.13394960848493
20
-7.95080268681511
30
0
41
1
10
8.17266608070929
20
-7.84628670970875
30
0
41
1
10
8.25268397516851
20
-7.71442469145202
30
0
41
1
10
8.27872153625233
20
-7.6782537965081
30
0
41
1
10
8.33934560108358
20
-7.61290523367313
30
0
41
1
10
8.37482777731256
20
-7.58305923051495
30
0
41
1
10
8.44007741480411
20
-7.5485588186568
30
0
41
1
10
8.46752172250552
20
-7.53852018102379
30
0
41
1
10
8.50983152522991
20
-7.53097042135343
30
0
41
1
10
8.52428260692446
20
-7.52966679426561
30
0
41
1
10
8.53867513459463
20
-7.52966679426558
30
0
0
SPLINE
5
16D
100
AcDbEntity
8
1
62
256
6
ByLayer
370
13
48
1
60
0
100
AcDbSpline
70
4
71
3
72
16
73
12
40
0
40
0
40
0
40
0
40
0.461208588217044
40
0.461208588217044
40
0.64353496227849
40
0.64353496227849
40
0.828408472975228
40
0.828408472975228
40
0.943003644159941
40
0.943003644159941
40
1
40
1
40
1
40
1
41
1
10
8.1056624327027
20
23.6665017920807
30
0
41
1
10
8.13394960848495
20
23.702258326163
30
0
41
1
10
8.17266608070932
20
23.7370095736336
30
0
41
1
10
8.25268397516854
20
23.7800170858172
30
0
41
1
10
8.27872153625233
20
23.7917125768791
30
0
41
1
10
8.33934560108358
20
23.8127037684949
30
0
41
1
10
8.37482777731259
20
23.8222104320952
30
0
41
1
10
8.44007741480414
20
23.833158685649
30
0
41
1
10
8.46752172250555
20
23.8363323784728
30
0
41
1
10
8.50983152522994
20
23.8387183279984
30
0
41
1
10
8.52428260692449
20
23.8391299750502
30
0
41
1
10
8.53867513459466
20
23.8391299750502
30
0
0
SPLINE
5
16E
100
AcDbEntity
8
1
62
256
6
ByLayer
370
13
48
1
60
0
100
AcDbSpline
70
4
71
3
72
8
73
4
40
0
40
0
40
0
40
0
40
1
40
1
40
1
40
1
41
1
10
23.5492037354033
20
32.8480544156118
30
0
41
1
10
23.356080050898
20
32.1071360086344
30
0
41
1
10
23.1687176548773
20
31.3741517409495
30
0
41
1
10
22.9878681344871
20
30.6486388911714
30
0
0
SPLINE
5
16F
100
AcDbEntity
8
1
62
256
6
ByLayer
370
13
48
1
60
0
100
AcDbSpline
70
4
71
3
72
16
73
12
40
0
40
0
40
0
40
0
40
0.461208588217108
40
0.461208588217108
40
0.643534962278573
40
0.643534962278573
40
0.828408472975311
40
0.828408472975311
40
0.943003644160022
40
0.943003644160022
40
1
40
1
40
1
40
1
41
1
10
11.8943375672974
20
-23.6665017920808
30
0
41
1
10
11.8660503915151
20
-23.7022583261632
30
0
41
1
10
11.8273339192908
20
-23.7370095736337
30
0
41
1
10
11.7473160248315
20
-23.7800170858173
30
0
41
1
10
11.7212784637477
20
-23.7917125768793
30
0
41
1
10
11.6606543989164
20
-23.812703768495
30
0
41
1
10
11.6251722226874
20
-23.8222104320954
30
0
41
1
10
11.5599225851958
20
-23.8331586856492
30
0
41
1
10
11.5324782774944
20
-23.836332378473
30
0
41
1
10
11.49016847477
20
-23.8387183279985
30
0
41
1
10
11.4757173930755
20
-23.8391299750504
30
0
41
1
10
11.4613248654054
20
-23.8391299750504
30
0
0
SPLINE
5
170
100
AcDbEntity
8
1
62
256
6
ByLayer
370
13
48
1
60
0
100
AcDbSpline
70
4
71
3
72
16
73
12
40
0
40
0
40
0
40
0
40
0.111430279627689
40
0.111430279627689
40
0.248747543515184
40
0.248747543515184
40
0.465535329195109
40
0.465535329195109
40
0.883855351867731
40
0.883855351867731
40
1
40
1
40
1
40
1
41
1
10
8.53867513459471
20
-23.8391299750501
30
0
41
1
10
8.5108152840057
20
-23.8391299750501
30
0
41
1
10
8.48260885722439
20
-23.8375361275704
30
0
41
1
10
8.42415079676067
20
-23.8311506585888
30
0
41
1
10
8.3939586107694
20
-23.8256668770177
30
0
41
1
10
8.32484624564242
20
-23.8089605749785
30
0
41
1
10
8.28921459142953
20
-23.7960379707757
30
0
41
1
10
8.201006109254
20
-23.755682424683
30
0
41
1
10
8.16026799314918
20
-23.7250165399979
30
0
41
1
10
8.12070829847326
20
-23.6845451449631
30
0
41
1
10
8.11283840142698
20
-23.6755726082076
30
0
41
1
10
8.10566243270256
20
-23.6665017920807
30
0
0
SPLINE
5
171
100
AcDbEntity
8
1
62
256
6
ByLayer
370
13
48
1
60
0
100
AcDbSpline
70
4
71
3
72
10
73
6
40
0
40
0
40
0
40
0
40
0.5
40
0.5
40
1
40
1
40
1
40
1
41
1
10
20.2792076144253
20
22.5984282879583
30
0
41
1
10
20.4024873365808
20
22.7957383497189
30
0
41
1
10
20.6005983135067
20
22.9879017803223
30
0
41
1
10
21.0592538384312
20
23.5150119517283
30
0
41
1
10
21.3310892632267
20
23.8676347360281
30
0
41
1
10
21.438318605972
20
24.3286349128686
30
0
0
SPLINE
5
172
100
AcDbEntity
8
1
62
256
6
ByLayer
370
13
48
1
60
0
100
AcDbSpline
70
4
71
3
72
8
73
4
40
0
40
0
40
0
40
0
40
1
40
1
40
1
40
1
41
1
10
24.1151240756101
20
32.8480544156117
30
0
41
1
10
23.7368181048057
20
32.1154675228306
30
0
41
1
10
23.3561242580736
20
31.3783416737852
30
0
41
1
10
22.9878681344871
20
30.6486388911713
30
0
0
SPLINE
5
173
100
AcDbEntity
8
1
62
256
6
ByLayer
370
13
48
1
60
0
100
AcDbSpline
70
4
71
3
72
8
73
4
40
0
40
0
40
0
40
0
40
1
40
1
40
1
40
1
41
1
10
24.0260808905902
20
34.6750000000004
30
0
41
1
10
23.8669206112699
20
34.0660667747701
30
0
41
1
10
23.7079509189779
20
33.4570874851061
30
0
41
1
10
23.5492037354033
20
32.8480544156118
30
0
0
SPLINE
5
174
100
AcDbEntity
8
1
62
256
6
ByLayer
370
13
48
1
60
0
100
AcDbSpline
70
4
71
3
72
16
73
12
40
0
40
0
40
0
40
0
40
0.461208588217052
40
0.461208588217052
40
0.643534962278527
40
0.643534962278527
40
0.828408472975283
40
0.828408472975283
40
0.943003644159998
40
0.943003644159998
40
1
40
1
40
1
40
1
41
1
10
11.8943375672974
20
8.05584836782779
30
0
41
1
10
11.8660503915151
20
7.95080268681451
30
0
41
1
10
11.8273339192908
20
7.84628670970807
30
0
41
1
10
11.7473160248315
20
7.71442469145134
30
0
41
1
10
11.7212784637477
20
7.67825379650736
30
0
41
1
10
11.6606543989164
20
7.61290523367239
30
0
41
1
10
11.6251722226874
20
7.58305923051421
30
0
41
1
10
11.5599225851958
20
7.54855881865603
30
0
41
1
10
11.5324782774944
20
7.53852018102305
30
0
41
1
10
11.49016847477
20
7.53097042135269
30
0
41
1
10
11.4757173930755
20
7.52966679426487
30
0
41
1
10
11.4613248654053
20
7.52966679426487
30
0
0
SPLINE
5
175
100
AcDbEntity
8
1
62
256
6
ByLayer
370
13
48
1
60
0
100
AcDbSpline
70
4
71
3
72
8
73
4
40
0
40
0
40
0
40
0
40
1
40
1
40
1
40
1
41
1
10
23.7988958525224
20
34.6750000000004
30
0
41
1
10
23.7986773405151
20
34.6750000000004
30
0
41
1
10
23.8729113299782
20
34.6750000000004
30
0
41
1
10
24.0260808905902
20
34.6750000000004
30
0
0
SPLINE
5
176
100
AcDbEntity
8
1
62
256
6
ByLayer
370
13
48
1
60
0
100
AcDbSpline
70
4
71
3
72
8
73
4
40
0
40
0
40
0
40
0
40
1
40
1
40
1
40
1
41
1
10
22.9878681344871
20
30.6486388911714
30
0
41
1
10
22.4503877332516
20
28.5345865913622
30
0
41
1
10
21.9247615345832
20
26.4199493830769
30
0
41
1
10
21.4383186059719
20
24.328634912869
30
0
0
SPLINE
5
177
100
AcDbEntity
8
1
62
256
6
ByLayer
370
13
48
1
60
0
100
AcDbSpline
70
4
71
3
72
16
73
12
40
0
40
0
40
0
40
0
40
0.111430279627694
40
0.111430279627694
40
0.248747543515193
40
0.248747543515193
40
0.465535329195114
40
0.465535329195114
40
0.883855351867663
40
0.883855351867663
40
1
40
1
40
1
40
1
41
1
10
8.53867513459471
20
7.52966679426564
30
0
41
1
10
8.51081528400567
20
7.52966679426564
30
0
41
1
10
8.48260885722439
20
7.53471706780917
30
0
41
1
10
8.42415079676064
20
7.55489210221089
30
0
41
1
10
8.39395861076937
20
7.57218953888506
30
0
41
1
10
8.32484624564239
20
7.62460019394146
30
0
41
1
10
8.28921459142953
20
7.66489294253964
30
0
41
1
10
8.201006109254
20
7.78941367630404
30
0
41
1
10
8.16026799314918
20
7.88247511004198
30
0
41
1
10
8.12070829847326
20
8.00269269538049
30
0
41
1
10
8.11283840142696
20
8.02920008991615
30
0
41
1
10
8.10566243270253
20
8.05584836782802
30
0
0
SPLINE
5
178
100
AcDbEntity
8
1
62
256
6
ByLayer
370
13
48
1
60
0
100
AcDbSpline
70
4
71
3
72
16
73
12
40
0
40
0
40
0
40
0
40
0.111430279628035
40
0.111430279628035
40
0.248747543515412
40
0.248747543515412
40
0.465535329195121
40
0.465535329195121
40
0.883855351867376
40
0.883855351867376
40
1
40
1
40
1
40
1
41
1
10
11.4613248654053
20
-7.52966679426541
30
0
41
1
10
11.4891847159943
20
-7.52966679426541
30
0
41
1
10
11.5173911427756
20
-7.53471706780897
30
0
41
1
10
11.5758492032393
20
-7.55489210221069
30
0
41
1
10
11.6060413892306
20
-7.57218953888483
30
0
41
1
10
11.6751537543575
20
-7.62460019394123
30
0
41
1
10
11.7107854085704
20
-7.66489294253938
30
0
41
1
10
11.7989938907459
20
-7.78941367630375
30
0
41
1
10
11.8397320068508
20
-7.88247511004167
30
0
41
1
10
11.8792917015268
20
-8.00269269538026
30
0
41
1
10
11.8871615985731
20
-8.029200089916
30
0
41
1
10
11.8943375672975
20
-8.05584836782799
30
0
0
SPLINE
5
179
100
AcDbEntity
8
1
62
256
6
ByLayer
370
13
48
1
60
0
100
AcDbSpline
70
4
71
3
72
10
73
6
40
0
40
0
40
0
40
0
40
0.838937617766275
40
0.838937617766275
40
1
40
1
40
1
40
1
41
1
10
66.9178211501257
20
33.7272202390352
30
0
41
1
10
66.8935943168163
20
33.7490927973167
30
0
41
1
10
66.8683899171274
20
33.7707951028267
30
0
41
1
10
66.83759008949
20
33.7965188844758
30
0
41
1
10
66.8326058289527
20
33.8006579143094
30
0
41
1
10
66.827601014892
20
33.8047930408046
30
0
0
SPLINE
5
17A
100
AcDbEntity
8
1
62
256
6
ByLayer
370
13
48
1
60
0
100
AcDbSpline
70
4
71
3
72
8
73
4
40
0
40
0
40
0
40
0
40
1
40
1
40
1
40
1
41
1
10
66.827601014892
20
33.8047930408046
30
0
41
1
10
66.8701630922748
20
33.8502104465537
30
0
41
1
10
66.91315719303
20
33.895228631996
30
0
41
1
10
66.9567233231078
20
33.9396809050806
30
0
0
SPLINE
5
17B
100
AcDbEntity
8
1
62
256
6
ByLayer
370
13
48
1
60
0
100
AcDbSpline
70
4
71
3
72
8
73
4
40
0
40
0
40
0
40
0
40
1
40
1
40
1
40
1
41
1
10
66.9567233231078
20
33.9396809050806
30
0
41
1
10
67.0273458910485
20
33.9490095186373
30
0
41
1
10
67.0978685108516
20
33.9572853608203
30
0
41
1
10
67.1678805766493
20
33.9630227016732
30
0
0
SPLINE
5
17C
100
AcDbEntity
8
1
62
256
6
ByLayer
370
13
48
1
60
0
100
AcDbSpline
70
4
71
3
72
12
73
8
40
0
40
0
40
0
40
0
40
0.0998683717390313
40
0.0998683717390313
40
0.537823266363916
40
0.537823266363916
40
1
40
1
40
1
40
1
41
1
10
67.1678805766493
20
33.9630227016732
30
0
41
1
10
67.1977300732362
20
33.9654688048449
30
0
41
1
10
67.228855396395
20
33.9687174646113
30
0
41
1
10
67.400335943483
20
33.9896696782492
30
0
41
1
10
67.5643332524474
20
34.0203026974732
30
0
41
1
10
67.9166201131584
20
34.095515620739
30
0
41
1
10
68.1120338025539
20
34.1429641228855
30
0
41
1
10
68.3023602239472
20
34.1917831965245
30
0
0
SPLINE
5
17D
100
AcDbEntity
8
1
62
256
6
ByLayer
370
13
48
1
60
0
100
AcDbSpline
70
4
71
3
72
8
73
4
40
0
40
0
40
0
40
0
40
1
40
1
40
1
40
1
41
1
10
68.3023602239472
20
34.1917831965245
30
0
41
1
10
68.448921806424
20
34.2293765092931
30
0
41
1
10
68.6016353978424
20
34.2518273788644
30
0
41
1
10
68.7528986418118
20
34.2467853916824
30
0
0
SPLINE
5
17E
100
AcDbEntity
8
1
62
256
6
ByLayer
370
13
48
1
60
0
100
AcDbSpline
70
4
71
3
72
8
73
4
40
0
40
0
40
0
40
0
40
1
40
1
40
1
40
1
41
1
10
68.7528986418118
20
34.2467853916824
30
0
41
1
10
68.8744062234274
20
34.2427352361196
30
0
41
1
10
68.9966210532665
20
34.2475748627393
30
0
41
1
10
69.1158957172706
20
34.2471890719771
30
0
0
SPLINE
5
17F
100
AcDbEntity
8
1
62
256
6
ByLayer
370
13
48
1
60
0
100
AcDbSpline
70
4
71
3
72
8
73
4
40
0
40
0
40
0
40
0
40
1
40
1
40
1
40
1
41
1
10
69.1158957172693
20
34.2471890719753
30
0
41
1
10
69.2755545267195
20
34.2466726597573
30
0
41
1
10
69.4354150796997
20
34.2124799105853
30
0
41
1
10
69.5900286630425
20
34.1686688261489
30
0
0
SPLINE
5
180
100
AcDbEntity
8
1
62
256
6
ByLayer
370
13
48
1
60
0
100
AcDbSpline
70
4
71
3
72
8
73
4
40
0
40
0
40
0
40
0
40
1
40
1
40
1
40
1
41
1
10
69.5900286630424
20
34.1686688261489
30
0
41
1
10
69.634090020669
20
34.142005858242
30
0
41
1
10
69.6778395366007
20
34.1148290396945
30
0
41
1
10
69.7213895076228
20
34.087343636851
30
0
0
SPLINE
5
181
100
AcDbEntity
8
1
62
256
6
ByLayer
370
13
48
1
60
0
100
AcDbSpline
70
4
71
3
72
12
73
8
40
0
40
0
40
0
40
0
40
0.178891096392097
40
0.178891096392097
40
0.986291642515957
40
0.986291642515957
40
1
40
1
40
1
40
1
41
1
10
69.7213895076228
20
34.087343636851
30
0
41
1
10
69.7003115269679
20
34.0881799778981
30
0
41
1
10
69.6792221384665
20
34.089022998248
30
0
41
1
10
69.5629014296376
20
34.0937116903196
30
0
41
1
10
69.4679540502602
20
34.0993553526134
30
0
41
1
10
69.3689156735318
20
34.1037991287478
30
0
41
1
10
69.3672607449415
20
34.1038703616534
30
0
41
1
10
69.3656057053218
20
34.1039385953265
30
0
0
SPLINE
5
182
100
AcDbEntity
8
1
62
256
6
ByLayer
370
13
48
1
60
0
100
AcDbSpline
70
4
71
3
72
12
73
8
40
0
40
0
40
0
40
0
40
0.609383607481524
40
0.609383607481524
40
0.614539779328588
40
0.614539779328588
40
1
40
1
40
1
40
1
41
1
10
69.3656057053218
20
34.1039385953265
30
0
41
1
10
69.2600213620046
20
34.1082916074766
30
0
41
1
10
69.1496097970337
20
34.1126210604548
30
0
41
1
10
69.0373081383663
20
34.1168925725854
30
0
41
1
10
69.0363601843113
20
34.1169286277222
30
0
41
1
10
68.9647049543392
20
34.1196539267374
30
0
41
1
10
68.8932165299024
20
34.1224537826739
30
0
41
1
10
68.8219297662851
20
34.1249403720622
30
0
0
SPLINE
5
183
100
AcDbEntity
8
1
62
256
6
ByLayer
370
13
48
1
60
0
100
AcDbSpline
70
4
71
3
72
16
73
12
40
0
40
0
40
0
40
0
40
0.0442199247554431
40
0.0442199247554431
40
0.0484399555489736
40
0.0484399555489736
40
0.21689535852514
40
0.21689535852514
40
0.889245809545941
40
0.889245809545941
40
1
40
1
40
1
40
1
41
1
10
68.8219297662851
20
34.1249403720622
30
0
41
1
10
68.811330078545
20
34.1253101050914
30
0
41
1
10
68.8007291289449
20
34.1256414275178
30
0
41
1
10
68.7891179461187
20
34.1260482173199
30
0
41
1
10
68.7881063966875
20
34.126083784523
30
0
41
1
10
68.7467182945272
20
34.1275439432246
30
0
41
1
10
68.7063476610927
20
34.1294401368091
30
0
41
1
10
68.5067119730518
20
34.1361835728484
30
0
41
1
10
68.3453726295508
20
34.1152373852185
30
0
41
1
10
68.1656324617667
20
34.0677567322123
30
0
41
1
10
68.1400997197492
20
34.0605878191448
30
0
41
1
10
68.1146869282978
20
34.0530290796485
30
0
0
SPLINE
5
184
100
AcDbEntity
8
1
62
256
6
ByLayer
370
13
48
1
60
0
100
AcDbSpline
70
4
71
3
72
12
73
8
40
0
40
0
40
0
40
0
40
0.262655118490606
40
0.262655118490606
40
0.697392919166919
40
0.697392919166919
40
1
40
1
40
1
40
1
41
1
10
68.1146869282978
20
34.0530290796485
30
0
41
1
10
68.0122143236957
20
34.0225497942395
30
0
41
1
10
67.909497462749
20
33.9922024735578
30
0
41
1
10
67.6439453836003
20
33.9140672738353
30
0
41
1
10
67.4820473482735
20
33.8667740880497
30
0
41
1
10
67.231433044244
20
33.7934092211137
30
0
41
1
10
67.1338240971893
20
33.7631856872403
30
0
41
1
10
67.0455473303952
20
33.7387237988852
30
0
0
SPLINE
5
185
100
AcDbEntity
8
1
62
256
6
ByLayer
370
13
48
1
60
0
100
AcDbSpline
70
4
71
3
72
8
73
4
40
0
40
0
40
0
40
0
40
1
40
1
40
1
40
1
41
1
10
67.0455473303952
20
33.7387237988852
30
0
41
1
10
67.0087652449775
20
33.7285313179003
30
0
41
1
10
66.9720869999074
20
33.7184264422869
30
0
41
1
10
66.9354962551972
20
33.7083181255949
30
0
0
SPLINE
5
186
100
AcDbEntity
8
1
62
256
6
ByLayer
370
13
48
1
60
0
100
AcDbSpline
70
4
71
3
72
8
73
4
40
0
40
0
40
0
40
0
40
1
40
1
40
1
40
1
41
1
10
66.9354962551913
20
33.7083181255892
30
0
41
1
10
66.9301777182168
20
33.7151183588069
30
0
41
1
10
66.9242544977345
20
33.7214120606111
30
0
41
1
10
66.9178211501258
20
33.7272202390354
30
0
0
SPLINE
5
187
100
AcDbEntity
8
1
62
256
6
ByLayer
370
13
48
1
60
0
100
AcDbSpline
70
4
71
3
72
8
73
4
40
0
40
0
40
0
40
0
40
1
40
1
40
1
40
1
41
1
10
66.9178211501257
20
32.2727797609651
30
0
41
1
10
66.9242544977345
20
32.2785879393894
30
0
41
1
10
66.9301777182171
20
32.2848816411933
30
0
41
1
10
66.9354962551916
20
32.2916818744111
30
0
0
SPLINE
5
188
100
AcDbEntity
8
1
62
256
6
ByLayer
370
13
48
1
60
0
100
AcDbSpline
70
4
71
3
72
8
73
4
40
0
40
0
40
0
40
0
40
1
40
1
40
1
40
1
41
1
10
67.0455473303952
20
32.2612762011151
30
0
41
1
10
67.0087652449775
20
32.2714686821
30
0
41
1
10
66.9720869999074
20
32.2815735577133
30
0
41
1
10
66.9354962551972
20
32.2916818744054
30
0
0
SPLINE
5
189
100
AcDbEntity
8
1
62
256
6
ByLayer
370
13
48
1
60
0
100
AcDbSpline
70
4
71
3
72
12
73
8
40
0
40
0
40
0
40
0
40
0.262655118490606
40
0.262655118490606
40
0.697392919166919
40
0.697392919166919
40
1
40
1
40
1
40
1
41
1
10
68.1146869282978
20
31.9469709203518
30
0
41
1
10
68.0122143236957
20
31.9774502057608
30
0
41
1
10
67.909497462749
20
32.0077975264425
30
0
41
1
10
67.6439453836003
20
32.085932726165
30
0
41
1
10
67.4820473482735
20
32.1332259119505
30
0
41
1
10
67.231433044244
20
32.2065907788866
30
0
41
1
10
67.1338240971893
20
32.23681431276
30
0
41
1
10
67.0455473303952
20
32.2612762011151
30
0
0
SPLINE
5
18A
100
AcDbEntity
8
1
62
256
6
ByLayer
370
13
48
1
60
0
100
AcDbSpline
70
4
71
3
72
16
73
12
40
0
40
0
40
0
40
0
40
0.0442199247554431
40
0.0442199247554431
40
0.0484399555489736
40
0.0484399555489736
40
0.21689535852514
40
0.21689535852514
40
0.889245809545941
40
0.889245809545941
40
1
40
1
40
1
40
1
41
1
10
68.8219297662851
20
31.8750596279381
30
0
41
1
10
68.811330078545
20
31.8746898949089
30
0
41
1
10
68.8007291289449
20
31.8743585724824
30
0
41
1
10
68.7891179461187
20
31.8739517826804
30
0
41
1
10
68.7881063966875
20
31.8739162154774
30
0
41
1
10
68.7467182945272
20
31.8724560567757
30
0
41
1
10
68.7063476610927
20
31.8705598631912
30
0
41
1
10
68.5067119730518
20
31.8638164271519
30
0
41
1
10
68.3453726295508
20
31.8847626147818
30
0
41
1
10
68.1656324617667
20
31.932243267788
30
0
41
1
10
68.1400997197492
20
31.9394121808555
30
0
41
1
10
68.1146869282978
20
31.9469709203518
30
0
0
SPLINE
5
18B
100
AcDbEntity
8
1
62
256
6
ByLayer
370
13
48
1
60
0
100
AcDbSpline
70
4
71
3
72
12
73
8
40
0
40
0
40
0
40
0
40
0.609383607481524
40
0.609383607481524
40
0.614539779328588
40
0.614539779328588
40
1
40
1
40
1
40
1
41
1
10
69.3656057053218
20
31.8960614046738
30
0
41
1
10
69.2600213620046
20
31.8917083925237
30
0
41
1
10
69.1496097970337
20
31.8873789395455
30
0
41
1
10
69.0373081383663
20
31.8831074274149
30
0
41
1
10
69.0363601843113
20
31.8830713722781
30
0
41
1
10
68.9647049543392
20
31.8803460732629
30
0
41
1
10
68.8932165299024
20
31.8775462173263
30
0
41
1
10
68.8219297662851
20
31.8750596279381
30
0
0
SPLINE
5
18C
100
AcDbEntity
8
1
62
256
6
ByLayer
370
13
48
1
60
0
100
AcDbSpline
70
4
71
3
72
12
73
8
40
0
40
0
40
0
40
0
40
0.178891096392097
40
0.178891096392097
40
0.986291642515957
40
0.986291642515957
40
1
40
1
40
1
40
1
41
1
10
69.7213895076228
20
31.9126563631493
30
0
41
1
10
69.7003115269679
20
31.9118200221022
30
0
41
1
10
69.6792221384665
20
31.9109770017523
30
0
41
1
10
69.5629014296376
20
31.9062883096807
30
0
41
1
10
69.4679540502602
20
31.9006446473869
30
0
41
1
10
69.3689156735318
20
31.8962008712525
30
0
41
1
10
69.3672607449415
20
31.8961296383469
30
0
41
1
10
69.3656057053218
20
31.8960614046738
30
0
0
SPLINE
5
18D
100
AcDbEntity
8
1
62
256
6
ByLayer
370
13
48
1
60
0
100
AcDbSpline
70
4
71
3
72
8
73
4
40
0
40
0
40
0
40
0
40
1
40
1
40
1
40
1
41
1
10
69.5900286630424
20
31.8313311738514
30
0
41
1
10
69.634090020669
20
31.8579941417583
30
0
41
1
10
69.6778395366007
20
31.8851709603058
30
0
41
1
10
69.7213895076228
20
31.9126563631493
30
0
0
SPLINE
5
18E
100
AcDbEntity
8
1
62
256
6
ByLayer
370
13
48
1
60
0
100
AcDbSpline
70
4
71
3
72
8
73
4
40
0
40
0
40
0
40
0
40
1
40
1
40
1
40
1
41
1
10
69.1158957172693
20
31.752810928025
30
0
41
1
10
69.2755545267195
20
31.753327340243
30
0
41
1
10
69.4354150796997
20
31.787520089415
30
0
41
1
10
69.5900286630425
20
31.8313311738514
30
0
0
SPLINE
5
18F
100
AcDbEntity
8
1
62
256
6
ByLayer
370
13
48
1
60
0
100
AcDbSpline
70
4
71
3
72
8
73
4
40
0
40
0
40
0
40
0
40
1
40
1
40
1
40
1
41
1
10
68.7528986418118
20
31.7532146083179
30
0
41
1
10
68.8744062234274
20
31.7572647638807
30
0
41
1
10
68.9966210532665
20
31.752425137261
30
0
41
1
10
69.1158957172706
20
31.7528109280232
30
0
0
SPLINE
5
190
100
AcDbEntity
8
1
62
256
6
ByLayer
370
13
48
1
60
0
100
AcDbSpline
70
4
71
3
72
8
73
4
40
0
40
0
40
0
40
0
40
1
40
1
40
1
40
1
41
1
10
68.3023602239472
20
31.8082168034757
30
0
41
1
10
68.448921806424
20
31.7706234907072
30
0
41
1
10
68.6016353978424
20
31.7481726211359
30
0
41
1
10
68.7528986418118
20
31.7532146083179
30
0
0
SPLINE
5
191
100
AcDbEntity
8
1
62
256
6
ByLayer
370
13
48
1
60
0
100
AcDbSpline
70
4
71
3
72
12
73
8
40
0
40
0
40
0
40
0
40
0.0998683717390313
40
0.0998683717390313
40
0.537823266363916
40
0.537823266363916
40
1
40
1
40
1
40
1
41
1
10
67.1678805766493
20
32.0369772983271
30
0
41
1
10
67.1977300732362
20
32.0345311951554
30
0
41
1
10
67.228855396395
20
32.031282535389
30
0
41
1
10
67.400335943483
20
32.0103303217511
30
0
41
1
10
67.5643332524474
20
31.9796973025271
30
0
41
1
10
67.9166201131584
20
31.9044843792612
30
0
41
1
10
68.1120338025539
20
31.8570358771148
30
0
41
1
10
68.3023602239472
20
31.8082168034757
30
0
0
SPLINE
5
192
100
AcDbEntity
8
1
62
256
6
ByLayer
370
13
48
1
60
0
100
AcDbSpline
70
4
71
3
72
8
73
4
40
0
40
0
40
0
40
0
40
1
40
1
40
1
40
1
41
1
10
66.9567233231078
20
32.0603190949197
30
0
41
1
10
67.0273458910485
20
32.050990481363
30
0
41
1
10
67.0978685108516
20
32.04271463918
30
0
41
1
10
67.1678805766493
20
32.0369772983271
30
0
0
SPLINE
5
193
100
AcDbEntity
8
1
62
256
6
ByLayer
370
13
48
1
60
0
100
AcDbSpline
70
4
71
3
72
8
73
4
40
0
40
0
40
0
40
0
40
1
40
1
40
1
40
1
41
1
10
66.827601014892
20
32.1952069591956
30
0
41
1
10
66.8701630922748
20
32.1497895534466
30
0
41
1
10
66.91315719303
20
32.1047713680043
30
0
41
1
10
66.9567233231078
20
32.0603190949197
30
0
0
SPLINE
5
194
100
AcDbEntity
8
1
62
256
6
ByLayer
370
13
48
1
60
0
100
AcDbSpline
70
4
71
3
72
10
73
6
40
0
40
0
40
0
40
0
40
0.83890545480639
40
0.83890545480639
40
1
40
1
40
1
40
1
41
1
10
66.827601014892
20
32.1952069591956
30
0
41
1
10
66.8536671436957
20
32.2167435714528
30
0
41
1
10
66.8791716040463
20
32.2383893869232
30
0
41
1
10
66.9084803863995
20
32.2643853674563
30
0
41
1
10
66.9131686824076
20
32.2685794030389
30
0
41
1
10
66.9178211501257
20
32.2727797609651
30
0
0
SPLINE
5
195
100
AcDbEntity
8
1
62
256
6
ByLayer
370
13
48
1
60
0
100
AcDbSpline
70
4
71
3
72
10
73
6
40
0
40
0
40
0
40
0
40
0.164044484569757
40
0.164044484569757
40
1
40
1
40
1
40
1
41
1
10
65.0749813396557
20
32.3202363269172
30
0
41
1
10
65.0707623351464
20
32.3272576590825
30
0
41
1
10
65.0668552617126
20
32.3347980278548
30
0
41
1
10
65.0428320860096
20
32.3831120695925
30
0
41
1
10
65.0219535333399
20
32.4364596730916
30
0
41
1
10
65.007792086359
20
32.4988853657364
30
0
0
SPLINE
5
196
100
AcDbEntity
8
1
62
256
6
ByLayer
370
13
48
1
60
0
100
AcDbSpline
70
4
71
3
72
14
73
10
40
0
40
0
40
0
40
0
40
0.0985152723692072
40
0.0985152723692072
40
0.414436270780364
40
0.414436270780364
40
0.704242772098099
40
0.704242772098099
40
1
40
1
40
1
40
1
41
1
10
65.007792086359
20
32.4988853657364
30
0
41
1
10
65.0070883147006
20
32.5019876923067
30
0
41
1
10
65.006544409998
20
32.5051241285716
30
0
41
1
10
65.0050532075372
20
32.5182708925944
30
0
41
1
10
65.00583828389
20
32.5286758075096
30
0
41
1
10
65.0123337680469
20
32.5473911499956
30
0
41
1
10
65.0177790953188
20
32.5560261206104
30
0
41
1
10
65.0325294637009
20
32.5706825261416
30
0
41
1
10
65.0420968074831
20
32.5768838538444
30
0
41
1
10
65.0525569632054
20
32.5814771988646
30
0
0
SPLINE
5
197
100
AcDbEntity
8
1
62
256
6
ByLayer
370
13
48
1
60
0
100
AcDbSpline
70
4
71
3
72
12
73
8
40
0
40
0
40
0
40
0
40
0.496107925963443
40
0.496107925963443
40
0.747917555821972
40
0.747917555821972
40
1
40
1
40
1
40
1
41
1
10
65.0525569632054
20
32.5814771988646
30
0
41
1
10
65.0782259885473
20
32.5927491811235
30
0
41
1
10
65.1044232564923
20
32.6035552446359
30
0
41
1
10
65.1444918597127
20
32.6191662468054
30
0
41
1
10
65.1580874387438
20
32.624308344898
30
0
41
1
10
65.1854689641484
20
32.6343717142856
30
0
41
1
10
65.1992572905256
20
32.6392935356267
30
0
41
1
10
65.2131234278909
20
32.6441043346364
30
0
0
SPLINE
5
198
100
AcDbEntity
8
1
62
256
6
ByLayer
370
13
48
1
60
0
100
AcDbSpline
70
4
71
3
72
12
73
8
40
0
40
0
40
0
40
0
40
0.249995921123566
40
0.249995921123566
40
0.499994611291234
40
0.499994611291234
40
1
40
1
40
1
40
1
41
1
10
65.2131234278909
20
32.6441043346364
30
0
41
1
10
65.2138936076926
20
32.6443715453333
30
0
41
1
10
65.2146638586453
20
32.644638753569
30
0
41
1
10
65.2162045107646
20
32.6451731680805
30
0
41
1
10
65.2169749119805
20
32.645440374373
30
0
41
1
10
65.2192863519124
20
32.6462419944325
30
0
41
1
10
65.2208276026664
20
32.6467764009702
30
0
41
1
10
65.2223691335978
20
32.647310797837
30
0
0
SPLINE
5
199
100
AcDbEntity
8
1
62
256
6
ByLayer
370
13
48
1
60
0
100
AcDbSpline
70
4
71
3
72
14
73
10
40
0
40
0
40
0
40
0
40
0.209566828991457
40
0.209566828991457
40
0.477962265361934
40
0.477962265361934
40
0.751790472133232
40
0.751790472133232
40
1
40
1
40
1
40
1
41
1
10
65.2223691335978
20
32.6473107978378
30
0
41
1
10
65.241617540391
20
32.6539835723318
30
0
41
1
10
65.2598564545834
20
32.663180252706
30
0
41
1
10
65.2965606674395
20
32.6892593357613
30
0
41
1
10
65.3142538244808
20
32.7080132906935
30
0
41
1
10
65.3412074732291
20
32.7511114579173
30
0
41
1
10
65.3507658802401
20
32.7762565242844
30
0
41
1
10
65.3600817667494
20
32.8262265772015
30
0
41
1
10
65.3608032158717
20
32.8515267435464
30
0
41
1
10
65.3578654950162
20
32.8763570720453
30
0
0
SPLINE
5
19A
100
AcDbEntity
8
1
62
256
6
ByLayer
370
13
48
1
60
0
100
AcDbSpline
70
4
71
3
72
12
73
8
40
0
40
0
40
0
40
0
40
0.484718757846364
40
0.484718757846364
40
0.742368127854248
40
0.742368127854248
40
1
40
1
40
1
40
1
41
1
10
65.3578654950162
20
32.8763570720453
30
0
41
1
10
65.3555314956403
20
32.8960846003139
30
0
41
1
10
65.3537340522475
20
32.9160033906118
30
0
41
1
10
65.3518563021364
20
32.9466254886198
30
0
41
1
10
65.3513650480974
20
32.957287257261
30
0
41
1
10
65.3507097053508
20
32.9786294869599
30
0
41
1
10
65.3505454016023
20
32.9893163525894
30
0
41
1
10
65.3505454016023
20
33.0000000000002
30
0
0
SPLINE
5
19B
100
AcDbEntity
8
1
62
256
6
ByLayer
370
13
48
1
60
0
100
AcDbSpline
70
4
71
3
72
12
73
8
40
0
40
0
40
0
40
0
40
0.484598094488008
40
0.484598094488008
40
0.742275381080524
40
0.742275381080524
40
1
40
1
40
1
40
1
41
1
10
65.3505454016022
20
33.0000000000002
30
0
41
1
10
65.3505454016023
20
33.0200804091535
30
0
41
1
10
65.3511276733155
20
33.0401819969346
30
0
41
1
10
65.3528938955773
20
33.0708171603951
30
0
41
1
10
65.3536688928945
20
33.0814363678008
30
0
41
1
10
65.3555334358541
20
33.1025976540313
30
0
41
1
10
65.3566235745108
20
33.1131459149185
30
0
41
1
10
65.3578654950162
20
33.123642927955
30
0
0
SPLINE
5
19C
100
AcDbEntity
8
1
62
256
6
ByLayer
370
13
48
1
60
0
100
AcDbSpline
70
4
71
3
72
14
73
10
40
0
40
0
40
0
40
0
40
0.250234813702171
40
0.250234813702171
40
0.496416801970183
40
0.496416801970183
40
0.738510482714681
40
0.738510482714681
40
1
40
1
40
1
40
1
41
1
10
65.3578654950162
20
33.123642927955
30
0
41
1
10
65.3608258417356
20
33.1486644957378
30
0
41
1
10
65.3600693337851
20
33.1741656923435
30
0
41
1
10
65.3510838008996
20
33.221710208283
30
0
41
1
10
65.3428512992819
20
33.2444210711678
30
0
41
1
10
65.3198912433955
20
33.2842937206453
30
0
41
1
10
65.3049566128545
20
33.302052567908
30
0
41
1
10
65.2686169570529
20
33.3321683712514
30
0
41
1
10
65.2462475553619
20
33.3444113573821
30
0
41
1
10
65.2223691335977
20
33.3526892021625
30
0
0
SPLINE
5
19D
100
AcDbEntity
8
1
62
256
6
ByLayer
370
13
48
1
60
0
100
AcDbSpline
70
4
71
3
72
12
73
8
40
0
40
0
40
0
40
0
40
0.375005495397418
40
0.375005495397418
40
0.750004420334853
40
0.750004420334853
40
1
40
1
40
1
40
1
41
1
10
65.2223691335977
20
33.3526892021625
30
0
41
1
10
65.2212129808678
20
33.3530900013835
30
0
41
1
10
65.2200569857663
20
33.3534908060358
30
0
41
1
10
65.2177453331292
20
33.3542924191789
30
0
41
1
10
65.2165896754276
20
33.3546932277252
30
0
41
1
10
65.2146638565235
20
33.3553612471673
30
0
41
1
10
65.2138936066319
20
33.3556284550351
30
0
41
1
10
65.213123427891
20
33.3558956653639
30
0
0
SPLINE
5
19E
100
AcDbEntity
8
1
62
256
6
ByLayer
370
13
48
1
60
0
100
AcDbSpline
70
4
71
3
72
12
73
8
40
0
40
0
40
0
40
0
40
0.497315582869531
40
0.497315582869531
40
0.748831584262143
40
0.748831584262143
40
1
40
1
40
1
40
1
41
1
10
65.213123427891
20
33.3558956653638
30
0
41
1
10
65.1857749585759
20
33.3653841036817
30
0
41
1
10
65.1587228913462
20
33.3753057534162
30
0
41
1
10
65.1185879067828
20
33.3909182502116
30
0
41
1
10
65.1052046989863
20
33.3962784934546
30
0
41
1
10
65.0786905265708
20
33.4072261463116
30
0
41
1
10
65.0655562462091
20
33.4128144547749
30
0
41
1
10
65.0525569632054
20
33.4185228011357
30
0
0
SPLINE
5
19F
100
AcDbEntity
8
1
62
256
6
ByLayer
370
13
48
1
60
0
100
AcDbSpline
70
4
71
3
72
14
73
10
40
0
40
0
40
0
40
0
40
0.146358635709911
40
0.146358635709911
40
0.433881431207652
40
0.433881431207652
40
0.719759865932541
40
0.719759865932541
40
1
40
1
40
1
40
1
41
1
10
65.0525569632054
20
33.4185228011357
30
0
41
1
10
65.0473223781939
20
33.4208214528607
30
0
41
1
10
65.0423304731995
20
33.4234958665962
30
0
41
1
10
65.0288154758868
20
33.432383332458
30
0
41
1
10
65.0212172293988
20
33.4397790385058
30
0
41
1
10
65.0106066155423
20
33.4560979332968
30
0
41
1
10
65.007411880434
20
33.4652294196629
30
0
41
1
10
65.0050958171895
20
33.4832595199359
30
0
41
1
10
65.0058073973601
20
33.4923658400468
30
0
41
1
10
65.007792086359
20
33.5011146342639
30
0
0
SPLINE
5
1A0
100
AcDbEntity
8
1
62
256
6
ByLayer
370
13
48
1
60
0
100
AcDbSpline
70
4
71
3
72
10
73
6
40
0
40
0
40
0
40
0
40
0.164022507484308
40
0.164022507484308
40
1
40
1
40
1
40
1
41
1
10
65.007792086359
20
33.5011146342639
30
0
41
1
10
65.0106088732772
20
33.5135314356427
30
0
41
1
10
65.0136935122212
20
33.5255730123077
30
0
41
1
10
65.0335290779585
20
33.595659038038
30
0
41
1
10
65.0537691349527
20
33.6444619959101
30
0
41
1
10
65.0749813396557
20
33.679763673083
30
0
0
SPLINE
5
1A1
100
AcDbEntity
8
1
62
256
6
ByLayer
370
13
48
1
60
0
100
AcDbSpline
70
4
71
3
72
8
73
4
40
0
40
0
40
0
40
0
40
1
40
1
40
1
40
1
41
1
10
66.8612392286166
20
33.6953878909252
30
0
41
1
10
66.8678919852692
20
33.6903882001403
30
0
41
1
10
66.8740636815955
20
33.684937349146
30
0
41
1
10
66.8796413868037
20
33.6790036530608
30
0
0
SPLINE
5
1A2
100
AcDbEntity
8
1
62
256
6
ByLayer
370
13
48
1
60
0
100
AcDbSpline
70
4
71
3
72
8
73
4
40
0
40
0
40
0
40
0
40
1
40
1
40
1
40
1
41
1
10
66.8796413868037
20
33.6790036530607
30
0
41
1
10
66.9017885112893
20
33.6554430128066
30
0
41
1
10
66.9256559333115
20
33.626303488891
30
0
41
1
10
66.9531379821875
20
33.5939215670256
30
0
0
SPLINE
5
1A3
100
AcDbEntity
8
1
62
256
6
ByLayer
370
13
48
1
60
0
100
AcDbSpline
70
4
71
3
72
10
73
6
40
0
40
0
40
0
40
0
40
0.101705478367115
40
0.101705478367115
40
1
40
1
40
1
40
1
41
1
10
66.9531379821875
20
33.5939215670256
30
0
41
1
10
66.957057103871
20
33.5893036910911
30
0
41
1
10
66.961081253706
20
33.5846291050253
30
0
41
1
10
67.0013120480039
20
33.5388126864699
30
0
41
1
10
67.0478377355349
20
33.4941372768784
30
0
41
1
10
67.1030083519937
20
33.4543590518698
30
0
0
SPLINE
5
1A4
100
AcDbEntity
8
1
62
256
6
ByLayer
370
13
48
1
60
0
100
AcDbSpline
70
4
71
3
72
22
73
18
40
0
40
0
40
0
40
0
40
0.0535247857815907
40
0.0535247857815907
40
0.344422421150875
40
0.344422421150875
40
0.436152029470063
40
0.436152029470063
40
0.486473184357829
40
0.486473184357829
40
0.536644672635369
40
0.536644672635369
40
0.60048485243454
40
0.60048485243454
40
0.694476768116402
40
0.694476768116402
40
1
40
1
40
1
40
1
41
1
10
67.1030083519937
20
33.4543590518698
30
0
41
1
10
67.1196320996513
20
33.4423732663685
30
0
41
1
10
67.1363261903864
20
33.430120108357
30
0
41
1
10
67.2432990561216
20
33.3500038623121
30
0
41
1
10
67.3386373424032
20
33.2762897831424
30
0
41
1
10
67.4424827579692
20
33.1526888660014
30
0
41
1
10
67.466024368827
20
33.1199335135649
30
0
41
1
10
67.4907794752772
20
33.0630265638881
30
0
41
1
10
67.4971979093959
20
33.0411401152179
30
0
41
1
10
67.5017476526599
20
32.9968665556862
30
0
41
1
10
67.4998237299355
20
32.9739613354331
30
0
41
1
10
67.4874292546898
20
32.9252875364345
30
0
41
1
10
67.4749890844967
20
32.8995453442665
30
0
41
1
10
67.4390316300353
20
32.8414948111737
30
0
41
1
10
67.4127472406221
20
32.8105645723898
30
0
41
1
10
67.2973943411544
20
32.6890817876256
30
0
41
1
10
67.1976068779859
20
32.6138468463802
30
0
41
1
10
67.1030083519667
20
32.5456409481109
30
0
0
SPLINE
5
1A5
100
AcDbEntity
8
1
62
256
6
ByLayer
370
13
48
1
60
0
100
AcDbSpline
70
4
71
3
72
10
73
6
40
0
40
0
40
0
40
0
40
0.106342453443183
40
0.106342453443183
40
1
40
1
40
1
40
1
41
1
10
67.1030083519667
20
32.5456409481109
30
0
41
1
10
67.0963895832057
20
32.5408687905753
30
0
41
1
10
67.0898960212793
20
32.5360364705016
30
0
41
1
10
67.0307812728787
20
32.4906881527767
30
0
41
1
10
66.9871169313449
20
32.4461156107574
30
0
41
1
10
66.9531379821875
20
32.4060784329747
30
0
0
SPLINE
5
1A6
100
AcDbEntity
8
1
62
256
6
ByLayer
370
13
48
1
60
0
100
AcDbSpline
70
4
71
3
72
8
73
4
40
0
40
0
40
0
40
0
40
1
40
1
40
1
40
1
41
1
10
66.9531379821875
20
32.4060784329747
30
0
41
1
10
66.9256559333116
20
32.3736965111094
30
0
41
1
10
66.9017885112895
20
32.3445569871939
30
0
41
1
10
66.8796413868039
20
32.3209963469399
30
0
0
SPLINE
5
1A7
100
AcDbEntity
8
1
62
256
6
ByLayer
370
13
48
1
60
0
100
AcDbSpline
70
4
71
3
72
8
73
4
40
0
40
0
40
0
40
0
40
1
40
1
40
1
40
1
41
1
10
66.8796413868039
20
32.3209963469399
30
0
41
1
10
66.8740636815957
20
32.3150626508545
30
0
41
1
10
66.8678919852693
20
32.3096117998601
30
0
41
1
10
66.8612392286166
20
32.304612109075
30
0
0
SPLINE
5
1A8
100
AcDbEntity
8
1
62
256
6
ByLayer
370
13
48
1
60
0
100
AcDbSpline
70
4
71
3
72
8
73
4
40
0
40
0
40
0
40
0
40
1
40
1
40
1
40
1
41
1
10
66.7709170449827
20
33.7714484982295
30
0
41
1
10
66.8020351268596
20
33.7463085158903
30
0
41
1
10
66.8323463374083
20
33.7209899712437
30
0
41
1
10
66.8612392286166
20
33.6953878909252
30
0
0
SPLINE
5
1A9
100
AcDbEntity
8
1
62
256
6
ByLayer
370
13
48
1
60
0
100
AcDbSpline
70
4
71
3
72
14
73
10
40
0
40
0
40
0
40
0
40
0.266795397634221
40
0.266795397634221
40
0.588216378506765
40
0.588216378506765
40
0.792812125325585
40
0.792812125325585
40
1
40
1
40
1
40
1
41
1
10
66.6117108282576
20
33.7909403399856
30
0
41
1
10
66.6283191383985
20
33.7919900454165
30
0
41
1
10
66.6450519942377
20
33.7925274800604
30
0
41
1
10
66.6810516869463
20
33.7922432250422
30
0
41
1
10
66.7005882478431
20
33.7911221160197
30
0
41
1
10
66.7294317577716
20
33.7870426782695
30
0
41
1
10
66.740075107988
20
33.7848498623077
30
0
41
1
10
66.7582004556814
20
33.7791583801817
30
0
41
1
10
66.7658492932568
20
33.775542683385
30
0
41
1
10
66.7709170449827
20
33.7714484982295
30
0
0
SPLINE
5
1AA
100
AcDbEntity
8
1
62
256
6
ByLayer
370
13
48
1
60
0
100
AcDbSpline
70
4
71
3
72
8
73
4
40
0
40
0
40
0
40
0
40
1
40
1
40
1
40
1
41
1
10
66.8612392286166
20
32.304612109075
30
0
41
1
10
66.8323463374083
20
32.2790100287566
30
0
41
1
10
66.8020351268595
20
32.2536914841101
30
0
41
1
10
66.7709170449827
20
32.2285515017708
30
0
0
SPLINE
5
1AB
100
AcDbEntity
8
1
62
256
6
ByLayer
370
18
48
1
60
0
100
AcDbSpline
70
4
71
3
72
8
73
4
40
0
40
0
40
0
40
0
40
1
40
1
40
1
40
1
41
1
10
63.0940255880445
20
31.3000000000002
30
0
41
1
10
63.0940255881511
20
31.3083336666668
30
0
41
1
10
63.0940255882572
20
31.3166673333335
30
0
41
1
10
63.0940255883627
20
31.3250010000002
30
0
0
SPLINE
5
1AC
100
AcDbEntity
8
1
62
256
6
ByLayer
370
18
48
1
60
0
100
AcDbSpline
70
4
71
3
72
12
73
8
40
0
40
0
40
0
40
0
40
0.279869576098926
40
0.349272013473963
40
0.462233024925749
40
0.575591215045226
40
1
40
1
40
1
40
1
41
1
10
64.1897397170696
20
31.3000000000002
30
0
41
1
10
64.2305217859437
20
31.3000000000002
30
0
41
1
10
64.2813329897691
20
31.3000000000001
30
0
41
1
10
64.3486320961791
20
31.3000000000002
30
0
41
1
10
64.3911192099325
20
31.3000000000002
30
0
41
1
10
64.4815867463963
20
31.3000000000002
30
0
41
1
10
64.5482281661727
20
31.3000000000002
30
0
41
1
10
64.5948827170793
20
31.3000000000002
30
0
0
SPLINE
5
1AD
100
AcDbEntity
8
1
62
256
6
ByLayer
370
13
48
1
60
0
100
AcDbSpline
70
4
71
3
72
14
73
10
40
0
40
0
40
0
40
0
40
0.136203122873046
40
0.136203122873046
40
0.341331556238926
40
0.341331556238926
40
0.593041737013191
40
0.593041737013191
40
1
40
1
40
1
40
1
41
1
10
66.7709170449827
20
32.2285515017708
30
0
41
1
10
66.7675517247921
20
32.2258326937642
30
0
41
1
10
66.7630822252157
20
32.2233243803959
30
0
41
1
10
66.7499298143351
20
32.2178463359405
30
0
41
1
10
66.7400783636782
20
32.2151902705155
30
0
41
1
10
66.7162898426909
20
32.2107474053607
30
0
41
1
10
66.7016257900577
20
32.2092049622002
30
0
41
1
10
66.662509019681
20
32.2070377686249
30
0
41
1
10
66.6368641790569
20
32.2074698770256
30
0
41
1
10
66.6117108282576
20
32.2090596600147
30
0
0
SPLINE
5
1AE
100
AcDbEntity
8
1
62
256
6
ByLayer
370
18
48
1
60
0
100
AcDbSpline
70
4
71
3
72
8
73
4
40
0
40
0
40
0
40
0
40
1
40
1
40
1
40
1
41
1
10
63.0940255880445
20
34.7000000000002
30
0
41
1
10
63.0940255881511
20
34.6916663333335
30
0
41
1
10
63.0940255882572
20
34.6833326666668
30
0
41
1
10
63.0940255883627
20
34.6749990000002
30
0
0
SPLINE
5
1AF
100
AcDbEntity
8
1
62
256
6
ByLayer
370
13
48
1
60
0
100
AcDbSpline
70
4
71
3
72
10
73
6
40
0
40
0
40
0
40
0
40
0.469742002065274
40
0.469742002065274
40
1
40
1
40
1
40
1
41
1
10
64.1943413365113
20
31.4410406040081
30
0
41
1
10
64.261670967684
20
31.4411141709777
30
0
41
1
10
64.3284612712287
20
31.4412870925211
30
0
41
1
10
64.4678981915866
20
31.441981764983
30
0
41
1
10
64.5365014520711
20
31.4415156578183
30
0
41
1
10
64.5948828441303
20
31.4414787238132
30
0
0
SPLINE
5
1B0
100
AcDbEntity
8
1
62
256
6
ByLayer
370
13
48
1
60
0
100
AcDbSpline
70
4
71
3
72
10
73
6
40
0
40
0
40
0
40
0
40
0.271189366890543
40
0.271189366890543
40
1
40
1
40
1
40
1
41
1
10
64.5948828441303
20
34.5585212761871
30
0
41
1
10
64.5645469964296
20
34.5585020847236
30
0
41
1
10
64.5316481387211
20
34.5584503322147
30
0
41
1
10
64.4043566106603
20
34.5585210852967
30
0
41
1
10
64.2963185202283
20
34.5586148940837
30
0
41
1
10
64.1916208999759
20
34.558588882274
30
0
0
SPLINE
5
1B1
100
AcDbEntity
8
1
62
256
6
ByLayer
370
13
48
1
60
0
100
AcDbSpline
70
4
71
3
72
8
73
4
40
0
40
0
40
0
40
0
40
1
40
1
40
1
40
1
41
1
10
66.8022670699779
20
31.9118311229527
30
0
41
1
10
66.7355916320271
20
31.9788247131758
30
0
41
1
10
66.6702596862046
20
32.0471658716194
30
0
41
1
10
66.6058506900534
20
32.116341274558
30
0
0
SPLINE
5
1B2
100
AcDbEntity
8
1
62
256
6
ByLayer
370
13
48
1
60
0
100
AcDbSpline
70
4
71
3
72
8
73
4
40
0
40
0
40
0
40
0
40
1
40
1
40
1
40
1
41
1
10
66.8022670699779
20
34.0881688770476
30
0
41
1
10
66.7355916320271
20
34.0211752868245
30
0
41
1
10
66.6702596862046
20
33.9528341283809
30
0
41
1
10
66.6058506900534
20
33.8836587254423
30
0
0
SPLINE
5
1B3
100
AcDbEntity
8
1
62
256
6
ByLayer
370
13
48
1
60
0
100
AcDbSpline
70
4
71
3
72
14
73
10
40
0
40
0
40
0
40
0
40
0.227211797335153
40
0.227211797335153
40
0.440863858228167
40
0.440863858228167
40
0.754067952335979
40
0.754067952335979
40
1
40
1
40
1
40
1
41
1
10
66.827601014892
20
33.8047930408046
30
0
41
1
10
66.8194894327671
20
33.8117916253346
30
0
41
1
10
66.8081952324148
20
33.819030862042
30
0
41
1
10
66.7819004770138
20
33.8325738963032
30
0
41
1
10
66.7669338023778
20
33.8390344672124
30
0
41
1
10
66.727116727386
20
33.8538832961158
30
0
41
1
10
66.7003050585002
20
33.8620153659391
30
0
41
1
10
66.6509997489857
20
33.874525700993
30
0
41
1
10
66.6284130284008
20
33.8794417724039
30
0
41
1
10
66.6058506900535
20
33.8836587254424
30
0
0
SPLINE
5
1B4
100
AcDbEntity
8
1
62
256
6
ByLayer
370
13
48
1
60
0
100
AcDbSpline
70
4
71
3
72
14
73
10
40
0
40
0
40
0
40
0
40
0.444167189427318
40
0.444167189427318
40
0.907416360928084
40
0.907416360928084
40
0.983345356785529
40
0.983345356785529
40
1
40
1
40
1
40
1
41
1
10
66.92953206895
20
33.9651378789163
30
0
41
1
10
66.9148301349194
20
33.9793611272933
30
0
41
1
10
66.89727086145
20
33.996344846938
30
0
41
1
10
66.8587609098673
20
34.0335789491007
30
0
41
1
10
66.8370796347394
20
34.0545350036349
30
0
41
1
10
66.8118382446761
20
34.0789224631475
30
0
41
1
10
66.8082241827248
20
34.0824140427684
30
0
41
1
10
66.8038292329151
20
34.0866597810332
30
0
41
1
10
66.8030481406258
20
34.0874143344229
30
0
41
1
10
66.8022670699778
20
34.0881688770475
30
0
0
SPLINE
5
1B5
100
AcDbEntity
8
1
62
256
6
ByLayer
370
13
48
1
60
0
100
AcDbSpline
70
4
71
3
72
10
73
6
40
0
40
0
40
0
40
0
40
0.635676539314332
40
0.635676539314332
40
1
40
1
40
1
40
1
41
1
10
66.9567233231078
20
33.9396809050806
30
0
41
1
10
66.9517886304992
20
33.9440980990628
30
0
41
1
10
66.9462831167138
20
33.9491775758385
30
0
41
1
10
66.9368712173818
20
33.9580757067085
30
0
41
1
10
66.9332733120422
20
33.9615184483
30
0
41
1
10
66.9295320689356
20
33.9651378789015
30
0
0
SPLINE
5
1B6
100
AcDbEntity
8
1
62
256
6
ByLayer
370
13
48
1
60
0
100
AcDbSpline
70
4
71
3
72
14
73
10
40
0
40
0
40
0
40
0
40
0.379834320808259
40
0.379834320808259
40
0.631210770699312
40
0.631210770699312
40
0.849410729670967
40
0.849410729670967
40
1
40
1
40
1
40
1
41
1
10
66.6058506900545
20
32.1163412745526
30
0
41
1
10
66.640403372219
20
32.1227992504853
30
0
41
1
10
66.6752740386825
20
32.1309705772576
30
0
41
1
10
66.7283312327764
20
32.1467342517756
30
0
41
1
10
66.7486005534598
20
32.1537309989942
30
0
41
1
10
66.7820194936537
20
32.1674827845869
30
0
41
1
10
66.7960160172765
20
32.174263959478
30
0
41
1
10
66.8153850045279
20
32.1857659909581
30
0
41
1
10
66.8221856797106
20
32.1905346671019
30
0
41
1
10
66.8276010148923
20
32.1952069591953
30
0
0
SPLINE
5
1B7
100
AcDbEntity
8
1
62
256
6
ByLayer
370
13
48
1
60
0
100
AcDbSpline
70
4
71
3
72
10
73
6
40
0
40
0
40
0
40
0
40
0.635676539314332
40
0.635676539314332
40
1
40
1
40
1
40
1
41
1
10
66.9567233231078
20
32.0603190949197
30
0
41
1
10
66.9517886304992
20
32.0559019009375
30
0
41
1
10
66.9462831167138
20
32.0508224241618
30
0
41
1
10
66.9368712173818
20
32.0419242932918
30
0
41
1
10
66.9332733120422
20
32.0384815517003
30
0
41
1
10
66.9295320689356
20
32.0348621210988
30
0
0
SPLINE
5
1B8
100
AcDbEntity
8
1
62
256
6
ByLayer
370
13
48
1
60
0
100
AcDbSpline
70
4
71
3
72
14
73
10
40
0
40
0
40
0
40
0
40
0.444167189427318
40
0.444167189427318
40
0.907416360928084
40
0.907416360928084
40
0.983345356785529
40
0.983345356785529
40
1
40
1
40
1
40
1
41
1
10
66.92953206895
20
32.034862121084
30
0
41
1
10
66.9148301349194
20
32.020638872707
30
0
41
1
10
66.89727086145
20
32.0036551530623
30
0
41
1
10
66.8587609098673
20
31.9664210508996
30
0
41
1
10
66.8370796347394
20
31.9454649963654
30
0
41
1
10
66.8118382446761
20
31.9210775368528
30
0
41
1
10
66.8082241827248
20
31.9175859572319
30
0
41
1
10
66.8038292329151
20
31.9133402189671
30
0
41
1
10
66.8030481406258
20
31.9125856655774
30
0
41
1
10
66.8022670699778
20
31.9118311229528
30
0
0
SPLINE
5
1B9
100
AcDbEntity
8
1
62
256
6
ByLayer
370
13
48
1
60
0
100
AcDbSpline
70
4
71
3
72
14
73
10
40
0
40
0
40
0
40
0
40
0.444167523254406
40
0.444167523254406
40
0.907416528022182
40
0.907416528022182
40
0.983345421218332
40
0.983345421218332
40
1
40
1
40
1
40
1
41
1
10
66.9786440339733
20
34.0731908083756
30
0
41
1
10
66.9582612980086
20
34.0749218145069
30
0
41
1
10
66.9339198409798
20
34.0769889830324
30
0
41
1
10
66.8805450699942
20
34.0815216553306
30
0
41
1
10
66.8504996564203
20
34.0840731021467
30
0
41
1
10
66.8155273744393
20
34.0870428553964
30
0
41
1
10
66.8105201979462
20
34.0874680496818
30
0
41
1
10
66.8044313098843
20
34.0879850973939
30
0
41
1
10
66.8033491786773
20
34.0880769881385
30
0
41
1
10
66.8022670704387
20
34.0881688770154
30
0
0
SPLINE
5
1BA
100
AcDbEntity
8
1
62
256
6
ByLayer
370
13
48
1
60
0
100
AcDbSpline
70
4
71
3
72
14
73
10
40
0
40
0
40
0
40
0
40
0.444167523254406
40
0.444167523254406
40
0.907416528022182
40
0.907416528022182
40
0.983345421218332
40
0.983345421218332
40
1
40
1
40
1
40
1
41
1
10
66.9786440339733
20
31.9268091916247
30
0
41
1
10
66.9582612980086
20
31.9250781854934
30
0
41
1
10
66.9339198409798
20
31.9230110169679
30
0
41
1
10
66.8805450699942
20
31.9184783446697
30
0
41
1
10
66.8504996564203
20
31.9159268978536
30
0
41
1
10
66.8155273744393
20
31.9129571446039
30
0
41
1
10
66.8105201979462
20
31.9125319503185
30
0
41
1
10
66.8044313098843
20
31.9120149026064
30
0
41
1
10
66.8033491786773
20
31.9119230118618
30
0
41
1
10
66.8022670704387
20
31.9118311229849
30
0
0
SPLINE
5
1BB
100
AcDbEntity
8
1
62
256
6
ByLayer
370
13
48
1
60
0
100
AcDbSpline
70
4
71
3
72
10
73
6
40
0
40
0
40
0
40
0
40
0.497554089050764
40
0.497554089050764
40
1
40
1
40
1
40
1
41
1
10
65.0505794795571
20
33.7742892963124
30
0
41
1
10
64.9888213319316
20
33.9073641753412
30
0
41
1
10
64.9277138978389
20
34.0409033016354
30
0
41
1
10
64.7926923078269
20
34.301892326579
30
0
41
1
10
64.7192033259221
20
34.4310721323423
30
0
41
1
10
64.629386110852
20
34.5460378850482
30
0
0
SPLINE
5
1BC
100
AcDbEntity
8
1
62
256
6
ByLayer
370
13
48
1
60
0
100
AcDbSpline
70
4
71
3
72
10
73
6
40
0
40
0
40
0
40
0
40
0.502445910949252
40
0.502445910949252
40
1
40
1
40
1
40
1
41
1
10
64.6293861108518
20
31.4539621149521
30
0
41
1
10
64.719203325922
20
31.5689278676581
30
0
41
1
10
64.7926923078269
20
31.6981076734213
30
0
41
1
10
64.9277138978389
20
31.9590966983648
30
0
41
1
10
64.9888213319316
20
32.0926358246591
30
0
41
1
10
65.0505794795571
20
32.2257107036879
30
0
0
SPLINE
5
1BD
100
AcDbEntity
8
1
62
256
6
ByLayer
370
13
48
1
60
0
100
AcDbSpline
70
4
71
3
72
12
73
8
40
0
40
0
40
0
40
0
40
0.463337467097879
40
0.463337467097879
40
0.900600131165872
40
0.900600131165872
40
1
40
1
40
1
40
1
41
1
10
68.2587805434612
20
31.6411531956115
30
0
41
1
10
68.0818273249508
20
31.69270841265
30
0
41
1
10
67.9004220305699
20
31.7419022162887
30
0
41
1
10
67.5720767833214
20
31.8243048477196
30
0
41
1
10
67.4188276083643
20
31.8593093778922
30
0
41
1
10
67.256119941952
20
31.8870495022551
30
0
41
1
10
67.2265505861075
20
31.8916907706693
30
0
41
1
10
67.1981203716814
20
31.895483263052
30
0
0
SPLINE
5
1BE
100
AcDbEntity
8
1
62
256
6
ByLayer
370
13
48
1
60
0
100
AcDbSpline
70
4
71
3
72
12
73
8
40
0
40
0
40
0
40
0
40
0.463337467097879
40
0.463337467097879
40
0.900600131165872
40
0.900600131165872
40
1
40
1
40
1
40
1
41
1
10
68.2587805434612
20
34.3588468043888
30
0
41
1
10
68.0818273249508
20
34.3072915873503
30
0
41
1
10
67.9004220305699
20
34.2580977837116
30
0
41
1
10
67.5720767833214
20
34.1756951522808
30
0
41
1
10
67.4188276083643
20
34.1406906221081
30
0
41
1
10
67.256119941952
20
34.1129504977452
30
0
41
1
10
67.2265505861075
20
34.108309229331
30
0
41
1
10
67.1981203716814
20
34.1045167369483
30
0
0
SPLINE
5
1BF
100
AcDbEntity
8
1
62
256
6
ByLayer
370
13
48
1
60
0
100
AcDbSpline
70
4
71
3
72
10
73
6
40
0
40
0
40
0
40
0
40
0.536023803633813
40
0.536023803633813
40
1
40
1
40
1
40
1
41
1
10
64.5968060580059
20
31.4579522888767
30
0
41
1
10
64.5381775714991
20
31.4579917645817
30
0
41
1
10
64.4692783108239
20
31.4584563264286
30
0
41
1
10
64.3307615620125
20
31.4577834642591
30
0
41
1
10
64.2653396280712
20
31.4575974134499
30
0
41
1
10
64.1994265962997
20
31.4574998127381
30
0
0
SPLINE
5
1C0
100
AcDbEntity
8
1
62
256
6
ByLayer
370
13
48
1
60
0
100
AcDbSpline
70
4
71
3
72
8
73
4
40
0
40
0
40
0
40
0
40
1
40
1
40
1
40
1
41
1
10
60.0083240679325
20
34.7000000000002
30
0
41
1
10
60.0083240679325
20
34.6916663333335
30
0
41
1
10
60.0083240679325
20
34.6833326666668
30
0
41
1
10
60.0083240679325
20
34.6749990000002
30
0
0
SPLINE
5
1C1
100
AcDbEntity
8
1
62
256
6
ByLayer
370
13
48
1
60
0
100
AcDbSpline
70
4
71
3
72
17
73
13
40
0
40
0
40
0
40
0
40
0.0114388526232355
40
0.156919219899799
40
0.376506152992804
40
0.493377115567001
40
0.600051337157213
40
0.622975374467529
40
0.655963111502171
40
0.669773085845197
40
0.744435183179395
40
1
40
1
40
1
40
1
41
1.02166924057829
10
64.9642619721898
20
32.4819516762821
30
0
41
1.02166924057829
10
64.9620121846723
20
32.4819516762821
30
0
41
1.02166924057829
10
64.9309928442017
20
32.4819516762821
30
0
41
1.02166924057829
10
64.8508721914324
20
32.4819516762821
30
0
41
1.02166924057829
10
64.7319780838438
20
32.4819516762822
30
0
41
1.02166924057829
10
64.6034802291129
20
32.4819516762821
30
0
41
1.02166924057829
10
64.529929800758
20
32.4819516762821
30
0
41
1.02166924057829
10
64.4811802263964
20
32.4819516762821
30
0
41
1.02166924057829
10
64.4626115241027
20
32.4819516762821
30
0
41
1.02166924057829
10
64.435484909295
20
32.4819516762821
30
0
41
1.02166924057829
10
64.3621912359782
20
32.4819516762822
30
0
41
1.02166924057829
10
64.2896954281727
20
32.4819516762821
30
0
41
1.02166924057829
10
64.2328999721926
20
32.4819516762821
30
0
0
SPLINE
5
1C2
100
AcDbEntity
8
1
62
256
6
ByLayer
370
13
48
1
60
0
100
AcDbSpline
70
4
71
3
72
8
73
4
40
0
40
0
40
0
40
0
40
1
40
1
40
1
40
1
41
1
10
60.0083240679326
20
31.3250010000001
30
0
41
1
10
60.0083240679326
20
31.3166673333335
30
0
41
1
10
60.0083240679326
20
31.3083336666668
30
0
41
1
10
60.0083240679326
20
31.3000000000002
30
0
0
SPLINE
5
1C3
100
AcDbEntity
8
1
62
256
6
ByLayer
370
13
48
1
60
0
100
AcDbSpline
70
4
71
3
72
12
73
8
40
0
40
0
40
0
40
0
40
0.0001909827237722
40
0.0001909827237722
40
0.835060855040991
40
0.835060855040991
40
1
40
1
40
1
40
1
41
1
10
64.9642619721898
20
32.4819516762821
30
0
41
1
10
64.9642649947142
20
32.481936582702
30
0
41
1
10
64.9642680166038
20
32.48192148875
30
0
41
1
10
64.9774847059302
20
32.415928143115
30
0
41
1
10
64.9973504519072
20
32.358832342396
30
0
41
1
10
65.0206908788007
20
32.3068067725542
30
0
41
1
10
65.0245975046496
20
32.2987582663675
30
0
41
1
10
65.0288949833901
20
32.291403265843
30
0
0
SPLINE
5
1C4
100
AcDbEntity
8
1
62
256
6
ByLayer
370
13
48
1
60
0
100
AcDbSpline
70
4
71
3
72
14
73
10
40
0
40
0
40
0
40
0
40
0.311178400285531
40
0.311178400285531
40
0.543346484169134
40
0.543346484169134
40
0.778369753410881
40
0.778369753410881
40
1
40
1
40
1
40
1
41
1
10
65.0288949833901
20
32.291403265843
30
0
41
1
10
65.0305297633022
20
32.2886053911269
30
0
41
1
10
65.0317726045296
20
32.284984039013
30
0
41
1
10
65.0328133247892
20
32.2772423980284
30
0
41
1
10
65.0328989549483
20
32.2733952703846
30
0
41
1
10
65.0321296350064
20
32.264964951284
30
0
41
1
10
65.0312384651659
20
32.2602309057776
30
0
41
1
10
65.028603969977
20
32.2510416194134
30
0
41
1
10
65.0268707498712
20
32.2464441767546
30
0
41
1
10
65.024898884992
20
32.2421952452281
30
0
0
SPLINE
5
1C5
100
AcDbEntity
8
1
62
256
6
ByLayer
370
13
48
1
60
0
100
AcDbSpline
70
4
71
3
72
10
73
6
40
0
40
0
40
0
40
0
40
0.499742345998437
40
0.499742345998437
40
1
40
1
40
1
40
1
41
1
10
65.024898884992
20
32.2421952452281
30
0
41
1
10
64.9633542951558
20
32.1095803024912
30
0
41
1
10
64.9028086692734
20
31.9761964427663
30
0
41
1
10
64.7711672507449
20
31.7150921363522
30
0
41
1
10
64.7000490853335
20
31.5862682383328
30
0
41
1
10
64.61321284836
20
31.4704352542151
30
0
0
SPLINE
5
1C6
100
AcDbEntity
8
1
62
256
6
ByLayer
370
13
48
1
60
0
100
AcDbSpline
70
4
71
3
72
12
73
8
40
0
40
0
40
0
40
0
40
0.375703177063746
40
0.375703177063746
40
0.751775167261341
40
0.751775167261341
40
1
40
1
40
1
40
1
41
1
10
64.61321284836
20
31.4704352542151
30
0
41
1
10
64.6114646681789
20
31.4681033138385
30
0
41
1
10
64.6096033447166
20
31.4658660734989
30
0
41
1
10
64.6056333610879
20
31.4619295429914
30
0
41
1
10
64.6034623500599
20
31.4601747610515
30
0
41
1
10
64.599764819209
20
31.45837241903
30
0
41
1
10
64.598227371424
20
31.4579513318786
30
0
41
1
10
64.5968060580059
20
31.4579522888767
30
0
0
SPLINE
5
1C7
100
AcDbEntity
8
1
62
256
6
ByLayer
370
13
48
1
60
0
100
AcDbSpline
70
4
71
3
72
12
73
8
40
0
40
0
40
0
40
0
40
0.834949441595139
40
0.834949441595139
40
0.999808961982549
40
0.999808961982549
40
1
40
1
40
1
40
1
41
1
10
65.0288949833901
20
33.7085967341573
30
0
41
1
10
65.0074358885221
20
33.6718701641053
30
0
41
1
10
64.9885583727963
20
33.6185153868917
30
0
41
1
10
64.9698264172732
20
33.5441328534998
30
0
41
1
10
64.9669159860823
20
33.5313003068681
30
0
41
1
10
64.964268016604
20
33.5180785112504
30
0
41
1
10
64.9642649947143
20
33.5180634172983
30
0
41
1
10
64.9642619721898
20
33.5180483237181
30
0
0
SPLINE
5
1C8
100
AcDbEntity
8
1
62
256
6
ByLayer
370
13
48
1
60
0
100
AcDbSpline
70
4
71
3
72
17
73
13
40
0
40
0
40
0
40
0
40
0.0114388526232355
40
0.156919219899799
40
0.376506152992804
40
0.493377115567001
40
0.600051337157213
40
0.622975374467529
40
0.655963111502171
40
0.669773085845197
40
0.744435183179395
40
1
40
1
40
1
40
1
41
1.02166924057829
10
64.9642619721898
20
33.5180483237181
30
0
41
1.02166924057829
10
64.9620121846723
20
33.5180483237181
30
0
41
1.02166924057829
10
64.9309928442017
20
33.5180483237181
30
0
41
1.02166924057829
10
64.8508721914324
20
33.5180483237181
30
0
41
1.02166924057829
10
64.7319780838438
20
33.5180483237181
30
0
41
1.02166924057829
10
64.6034802291129
20
33.5180483237181
30
0
41
1.02166924057829
10
64.529929800758
20
33.5180483237181
30
0
41
1.02166924057829
10
64.4811802263964
20
33.5180483237181
30
0
41
1.02166924057829
10
64.4626115241027
20
33.5180483237181
30
0
41
1.02166924057829
10
64.435484909295
20
33.5180483237181
30
0
41
1.02166924057829
10
64.3621912359782
20
33.5180483237181
30
0
41
1.02166924057829
10
64.2896954281727
20
33.5180483237181
30
0
41
1.02166924057829
10
64.2328999721926
20
33.5180483237181
30
0
0
SPLINE
5
1C9
100
AcDbEntity
8
1
62
256
6
ByLayer
370
13
48
1
60
0
100
AcDbSpline
70
4
71
3
72
10
73
6
40
0
40
0
40
0
40
0
40
0.725745953634146
40
0.725745953634146
40
1
40
1
40
1
40
1
41
1
10
64.1967651095335
20
34.5421056055695
30
0
41
1
10
64.3003515864991
20
34.5421302061916
30
0
41
1
10
64.4069409467158
20
34.5420503874086
30
0
41
1
10
64.5333197414332
20
34.5419767438447
30
0
41
1
10
64.5663501006525
20
34.5420272045327
30
0
41
1
10
64.5968060580059
20
34.5420477111236
30
0
0
SPLINE
5
1CA
100
AcDbEntity
8
1
62
256
6
ByLayer
370
13
48
1
60
0
100
AcDbSpline
70
4
71
3
72
12
73
8
40
0
40
0
40
0
40
0
40
0.500303615083402
40
0.500303615083402
40
0.706948141205687
40
0.706948141205687
40
1
40
1
40
1
40
1
41
1
10
64.61321284836
20
34.5295647457852
30
0
41
1
10
64.7000490853335
20
34.4137317616675
30
0
41
1
10
64.7711672507449
20
34.2849078636481
30
0
41
1
10
64.8641815336571
20
34.1004185889361
30
0
41
1
10
64.8905769602075
20
34.0459720344591
30
0
41
1
10
64.9531524224407
20
33.9136368049394
30
0
41
1
10
64.9888033962696
20
33.8355825282974
30
0
41
1
10
65.024898884992
20
33.7578047547722
30
0
0
SPLINE
5
1CB
100
AcDbEntity
8
1
62
256
6
ByLayer
370
13
48
1
60
0
100
AcDbSpline
70
4
71
3
72
12
73
8
40
0
40
0
40
0
40
0
40
0.233419544939649
40
0.233419544939649
40
0.533242188339535
40
0.533242188339535
40
1
40
1
40
1
40
1
41
1
10
64.5968060580059
20
34.5420477111236
30
0
41
1
10
64.5981428732451
20
34.5420486112274
30
0
41
1
10
64.5995818076068
20
34.541678238699
30
0
41
1
10
64.6027553138586
20
34.540211691228
30
0
41
1
10
64.6045163143434
20
34.5389381077404
30
0
41
1
10
64.6087030592946
20
34.5352126616098
30
0
41
1
10
64.6110488801262
20
34.5324513160326
30
0
41
1
10
64.61321284836
20
34.5295647457852
30
0
0
SPLINE
5
1CC
100
AcDbEntity
8
1
62
256
6
ByLayer
370
13
48
1
60
0
100
AcDbSpline
70
4
71
3
72
16
73
12
40
0
40
0
40
0
40
0
40
0.194932576020356
40
0.194932576020356
40
0.39011325308891
40
0.39011325308891
40
0.582453198361958
40
0.582453198361958
40
0.861227543943274
40
0.861227543943274
40
1
40
1
40
1
40
1
41
1
10
65.024898884992
20
33.7578047547722
30
0
41
1
10
65.0266351273015
20
33.754063537631
30
0
41
1
10
65.0281854797657
20
33.7500624826757
30
0
41
1
10
65.0306140427217
20
33.7421810455899
30
0
41
1
10
65.0315219079949
20
33.7382004774223
30
0
41
1
10
65.0326119921052
20
33.7308600187313
30
0
41
1
10
65.0328220918345
20
33.7274038091177
30
0
41
1
10
65.0326331363435
20
33.719836356221
30
0
41
1
10
65.0319280541769
20
33.7159842245571
30
0
41
1
10
65.0302825932794
20
33.7112700811137
30
0
41
1
10
65.0296297457924
20
33.70985425704
30
0
41
1
10
65.0288949833901
20
33.7085967341573
30
0
0
SPLINE
5
1CD
100
AcDbEntity
8
1
62
256
6
ByLayer
370
13
48
1
60
0
100
AcDbSpline
70
4
71
3
72
10
73
6
40
0
40
0
40
0
40
0
40
0.65577982668938
40
0.65577982668938
40
1
40
1
40
1
40
1
41
1
10
66.9805367788458
20
31.9270192829022
30
0
41
1
10
66.9801191070632
20
31.927086492418
30
0
41
1
10
66.9796942374048
20
31.9270931046024
30
0
41
1
10
66.979065818018
20
31.9269703018562
30
0
41
1
10
66.9788510647693
20
31.9269032907785
30
0
41
1
10
66.9786440339732
20
31.9268091916248
30
0
0
SPLINE
5
1CE
100
AcDbEntity
8
1
62
256
6
ByLayer
370
13
48
1
60
0
100
AcDbSpline
70
4
71
3
72
8
73
4
40
0
40
0
40
0
40
0
40
1
40
1
40
1
40
1
41
1
10
67.1981203716814
20
31.895483263052
30
0
41
1
10
67.1255441431099
20
31.9045252409896
30
0
41
1
10
67.0530161894472
20
31.9153562826873
30
0
41
1
10
66.9805367788458
20
31.9270192829022
30
0
0
SPLINE
5
1CF
100
AcDbEntity
8
1
62
256
6
ByLayer
370
13
48
1
60
0
100
AcDbSpline
70
4
71
3
72
14
73
10
40
0
40
0
40
0
40
0
40
0.233154461884277
40
0.233154461884277
40
0.479060596235394
40
0.479060596235394
40
0.710446838090714
40
0.710446838090714
40
1
40
1
40
1
40
1
41
1
10
65.0505794795571
20
32.2257107036879
30
0
41
1
10
65.0535287299072
20
32.2346044583001
30
0
41
1
10
65.0564221376373
20
32.2438144172027
30
0
41
1
10
65.0618332759262
20
32.2620181487408
30
0
41
1
10
65.0643914009319
20
32.27120491615
30
0
41
1
10
65.0685871649079
20
32.2873985369421
30
0
41
1
10
65.070317522395
20
32.2946810228015
30
0
41
1
10
65.0733370258103
20
32.3088454171325
30
0
41
1
10
65.0744553636977
20
32.3153882316488
30
0
41
1
10
65.0749813396557
20
32.3202363269172
30
0
0
SPLINE
5
1D0
100
AcDbEntity
8
1
62
256
6
ByLayer
370
13
48
1
60
0
100
AcDbSpline
70
4
71
3
72
16
73
12
40
0
40
0
40
0
40
0
40
0.126440774462018
40
0.126440774462018
40
0.393583756685852
40
0.393583756685852
40
0.589520715253497
40
0.589520715253497
40
0.795096123384776
40
0.795096123384776
40
1
40
1
40
1
40
1
41
1
10
65.0749813396557
20
33.679763673083
30
0
41
1
10
65.0747495794539
20
33.6818998839132
30
0
41
1
10
65.0744061147985
20
33.6843497663851
30
0
41
1
10
65.0730009566774
20
33.6928216068408
30
0
41
1
10
65.0715364949884
20
33.6999579774574
30
0
41
1
10
65.0682103368522
20
33.7140620232541
30
0
41
1
10
65.0665319974179
20
33.7206771583876
30
0
41
1
10
65.062680714042
20
33.7349223140582
30
0
41
1
10
65.0604525899758
20
33.7427138332524
30
0
41
1
10
65.0557194619693
20
33.7584169919007
30
0
41
1
10
65.0531724651187
20
33.766469893217
30
0
41
1
10
65.0505794795553
20
33.7742892963115
30
0
0
SPLINE
5
1D1
100
AcDbEntity
8
1
62
256
6
ByLayer
370
13
48
1
60
0
100
AcDbSpline
70
4
71
3
72
8
73
4
40
0
40
0
40
0
40
0
40
1
40
1
40
1
40
1
41
1
10
67.1981203716814
20
34.1045167369483
30
0
41
1
10
67.1255441431099
20
34.0954747590107
30
0
41
1
10
67.0530161894472
20
34.084643717313
30
0
41
1
10
66.9805367788458
20
34.0729807170981
30
0
0
SPLINE
5
1D2
100
AcDbEntity
8
1
62
256
6
ByLayer
370
13
48
1
60
0
100
AcDbSpline
70
4
71
3
72
10
73
6
40
0
40
0
40
0
40
0
40
0.65577982668938
40
0.65577982668938
40
1
40
1
40
1
40
1
41
1
10
66.9805367788458
20
34.0729807170981
30
0
41
1
10
66.9801191070632
20
34.0729135075823
30
0
41
1
10
66.9796942374048
20
34.0729068953979
30
0
41
1
10
66.979065818018
20
34.0730296981441
30
0
41
1
10
66.9788510647693
20
34.0730967092218
30
0
41
1
10
66.9786440339732
20
34.0731908083755
30
0
0
SPLINE
5
1D3
100
AcDbEntity
8
1
62
256
6
ByLayer
370
13
48
1
60
0
100
AcDbSpline
70
4
71
3
72
12
73
8
40
0
40
0
40
0
40
0
40
0.186611634777379
40
0.186611634777379
40
0.69338882082023
40
0.69338882082023
40
1
40
1
40
1
40
1
41
1
10
67.1528237185343
20
33.5149402588032
30
0
41
1
10
67.2090277271941
20
33.5259831188685
30
0
41
1
10
67.2680824534584
20
33.5379280426897
30
0
41
1
10
67.4939294786756
20
33.5847273046348
30
0
41
1
10
67.6774173301442
20
33.6248129502768
30
0
41
1
10
67.978376870561
20
33.6937455248085
30
0
41
1
10
68.0952214954585
20
33.7212503932898
30
0
41
1
10
68.2112677608007
20
33.749485934324
30
0
0
SPLINE
5
1D4
100
AcDbEntity
8
1
62
256
6
ByLayer
370
13
48
1
60
0
100
AcDbSpline
70
4
71
3
72
10
73
6
40
0
40
0
40
0
40
0
40
0.895407880007388
40
0.895407880007388
40
1
40
1
40
1
40
1
41
1
10
67.0132739541156
20
32.3639941066534
30
0
41
1
10
67.0458088830838
20
32.3977301339291
30
0
41
1
10
67.0859541892358
20
32.4368782105894
30
0
41
1
10
67.1408552378461
20
32.4767538171303
30
0
41
1
10
67.1467812438335
20
32.4809319324813
30
0
41
1
10
67.1528237185017
20
32.4850597411941
30
0
0
SPLINE
5
1D5
100
AcDbEntity
8
1
62
256
6
ByLayer
370
13
48
1
60
0
100
AcDbSpline
70
4
71
3
72
10
73
6
40
0
40
0
40
0
40
0
40
0.895575341108676
40
0.895575341108676
40
1
40
1
40
1
40
1
41
1
10
67.152823718528
20
33.5149402587882
30
0
41
1
10
67.1017089957986
20
33.5498583692307
30
0
41
1
10
67.0590917006009
20
33.5890036231081
30
0
41
1
10
67.0210320216285
20
33.6279727456835
30
0
41
1
10
67.0171123387418
20
33.6320258063282
30
0
41
1
10
67.0132739541156
20
33.6360058933469
30
0
0
SPLINE
5
1D6
100
AcDbEntity
8
1
62
256
6
ByLayer
370
13
48
1
60
0
100
AcDbSpline
70
4
71
3
72
12
73
8
40
0
40
0
40
0
40
0
40
0.186611634810624
40
0.186611634810624
40
0.693388820832762
40
0.693388820832762
40
1
40
1
40
1
40
1
41
1
10
67.1528237184974
20
32.4850597412044
30
0
41
1
10
67.2090277271683
20
32.474016881137
30
0
41
1
10
67.2680824534451
20
32.4620719573133
30
0
41
1
10
67.4939294786756
20
32.4152726953655
30
0
41
1
10
67.6774173301442
20
32.3751870497235
30
0
41
1
10
67.978376870561
20
32.3062544751917
30
0
41
1
10
68.0952214954585
20
32.2787496067105
30
0
41
1
10
68.2112677608007
20
32.2505140656763
30
0
0
SPLINE
5
1D7
100
AcDbEntity
8
1
62
256
6
ByLayer
370
13
48
1
60
0
100
AcDbSpline
70
4
71
3
72
17
73
13
40
0
40
0
40
0
40
0
40
0.118467527992883
40
0.32619025352557
40
0.436746717608333
40
0.537657367166025
40
0.559342826511163
40
0.590548247295874
40
0.603612073406396
40
0.674240202930285
40
0.924100453477262
40
1
40
1
40
1
40
1
41
1.02166924057829
10
65.0304829603475
20
32.5994230366013
30
0
41
1.02166924057829
10
65.0025181202442
20
32.5994230366013
30
0
41
1.02166924057829
10
64.9210297461439
20
32.5994230366013
30
0
41
1.02166924057829
10
64.7958987039927
20
32.5994230366013
30
0
41
1.02166924057829
10
64.6536837810792
20
32.5994230366013
30
0
41
1.02166924057829
10
64.5730086984349
20
32.5994230366013
30
0
41
1.02166924057829
10
64.5197953278362
20
32.5994230366013
30
0
41
1.02166924057829
10
64.500101976915
20
32.5994230366013
30
0
41
1.02166924057829
10
64.4726113637334
20
32.5994230366013
30
0
41
1.02166924057829
10
64.3976871203486
20
32.5994230366013
30
0
41
1.02166924057829
10
64.3056201861358
20
32.5994230366013
30
0
41
1.02166924057829
10
64.2287411960572
20
32.5994230366013
30
0
41
1.02166924057829
10
64.2107649603449
20
32.5994230366013
30
0
0
SPLINE
5
1D8
100
AcDbEntity
8
1
62
256
6
ByLayer
370
13
48
1
60
0
100
AcDbSpline
70
4
71
3
72
12
73
8
40
0
40
0
40
0
40
0
40
0.284615438372511
40
0.284615438372511
40
0.667690975958614
40
0.667690975958614
40
1
40
1
40
1
40
1
41
1
10
64.5948828441303
20
31.4414787238132
30
0
41
1
10
64.5978605568158
20
31.4414778415092
30
0
41
1
10
64.601031813027
20
31.4418685536936
30
0
41
1
10
64.6086278393443
20
31.4436219155743
30
0
41
1
10
64.6131769281054
20
31.4452868096962
30
0
41
1
10
64.6215997566267
20
31.4492722789122
30
0
41
1
10
64.6255317184138
20
31.4514953098479
30
0
41
1
10
64.6293861108527
20
31.4539621149455
30
0
0
SPLINE
5
1D9
100
AcDbEntity
8
1
62
256
6
ByLayer
370
13
48
1
60
0
100
AcDbSpline
70
4
71
3
72
18
73
14
40
0
40
0
40
0
40
0
40
0.0003522007305194
40
0.0003522007305194
40
0.297488387658359
40
0.297488387658359
40
0.59301932818094
40
0.59301932818094
40
0.905704189131033
40
0.905704189131033
40
0.999647799262026
40
0.999647799262026
40
1
40
1
40
1
40
1
41
1
10
65.0304829603425
20
32.5994230366013
30
0
41
1
10
65.0304668731361
20
32.5994151528796
30
0
41
1
10
65.0304507857492
20
32.5994072666084
30
0
41
1
10
65.0168650973809
20
32.5927435903763
30
0
41
1
10
65.0045872514045
20
32.5839205976911
30
0
41
1
10
64.9848447184793
20
32.5631921535432
30
0
41
1
10
64.9771334079903
20
32.5510569472467
30
0
41
1
10
64.9666355950013
20
32.5246081235084
30
0
41
1
10
64.964006639433
20
32.5099159053002
30
0
41
1
10
64.9637463392745
20
32.4908784576638
30
0
41
1
10
64.9639024360131
20
32.4864346340304
30
0
41
1
10
64.9642593256509
20
32.4819845730413
30
0
41
1
10
64.9642606486735
20
32.4819681254149
30
0
41
1
10
64.9642619721898
20
32.4819516762823
30
0
0
SPLINE
5
1DA
100
AcDbEntity
8
1
62
256
6
ByLayer
370
13
48
1
60
0
100
AcDbSpline
70
4
71
3
72
12
73
8
40
0
40
0
40
0
40
0
40
0.419389511187602
40
0.419389511187602
40
0.73199563373051
40
0.73199563373051
40
1
40
1
40
1
40
1
41
1
10
64.6293861108518
20
34.5460378850482
30
0
41
1
10
64.624535459197
20
34.5491422944766
30
0
41
1
10
64.6195494047903
20
34.5518658958869
30
0
41
1
10
64.6109438735578
20
34.5555141921703
30
0
41
1
10
64.6072592207381
20
34.556733442406
30
0
41
1
10
64.6006642853838
20
34.5581761020007
30
0
41
1
10
64.597688192018
20
34.558522107419
30
0
41
1
10
64.5948828441303
20
34.5585212761872
30
0
0
SPLINE
5
1DB
100
AcDbEntity
8
1
62
256
6
ByLayer
370
13
48
1
60
0
100
AcDbSpline
70
4
71
3
72
18
73
14
40
0
40
0
40
0
40
0
40
0.0003510431352723
40
0.0003510431352723
40
0.272262893622951
40
0.272262893622951
40
0.561312801131931
40
0.561312801131931
40
0.853766373242132
40
0.853766373242132
40
0.999648956870035
40
0.999648956870035
40
1
40
1
40
1
40
1
41
1
10
64.9642619721898
20
33.5180483237179
30
0
41
1
10
64.9642606486735
20
33.5180318745854
30
0
41
1
10
64.9642593256509
20
33.518015426959
30
0
41
1
10
64.9632362148502
20
33.5052582466387
30
0
41
1
10
64.963881351676
20
33.4923513287173
30
0
41
1
10
64.9693719002483
20
33.4667700324075
30
0
41
1
10
64.9745633812585
20
33.4539245078549
30
0
41
1
10
64.9895898623041
20
33.4308504225575
30
0
41
1
10
64.9996551870804
20
33.4204032621206
30
0
41
1
10
65.0173245018117
20
33.4076997058703
30
0
41
1
10
65.0237139278252
20
33.4038971106754
30
0
41
1
10
65.0304507857487
20
33.4005927333919
30
0
41
1
10
65.0304668731359
20
33.4005848471207
30
0
41
1
10
65.0304829603425
20
33.400576963399
30
0
0
SPLINE
5
1DC
100
AcDbEntity
8
1
62
256
6
ByLayer
370
13
48
1
60
0
100
AcDbSpline
70
4
71
3
72
17
73
13
40
0
40
0
40
0
40
0
40
0.118467527992883
40
0.32619025352557
40
0.436746717608333
40
0.537657367166025
40
0.559342826511163
40
0.590548247295874
40
0.603612073406396
40
0.674240202930285
40
0.924100453477262
40
1
40
1
40
1
40
1
41
1.02166924057829
10
65.0304829603475
20
33.400576963399
30
0
41
1.02166924057829
10
65.0025181202442
20
33.400576963399
30
0
41
1.02166924057829
10
64.9210297461439
20
33.400576963399
30
0
41
1.02166924057829
10
64.7958987039927
20
33.400576963399
30
0
41
1.02166924057829
10
64.6536837810792
20
33.400576963399
30
0
41
1.02166924057829
10
64.5730086984349
20
33.400576963399
30
0
41
1.02166924057829
10
64.5197953278362
20
33.400576963399
30
0
41
1.02166924057829
10
64.500101976915
20
33.400576963399
30
0
41
1.02166924057829
10
64.4726113637334
20
33.400576963399
30
0
41
1.02166924057829
10
64.3976871203486
20
33.400576963399
30
0
41
1.02166924057829
10
64.3056201861358
20
33.400576963399
30
0
41
1.02166924057829
10
64.2287411960572
20
33.400576963399
30
0
41
1.02166924057829
10
64.2107649603449
20
33.4005769633989
30
0
0
SPLINE
5
1DD
100
AcDbEntity
8
1
62
256
6
ByLayer
370
13
48
1
60
0
100
AcDbSpline
70
4
71
3
72
22
73
18
40
0
40
0
40
0
40
0
40
0.29870209965608
40
0.29870209965608
40
0.393670626081331
40
0.393670626081331
40
0.460670630485623
40
0.460670630485623
40
0.514736103979951
40
0.514736103979951
40
0.568442815189713
40
0.568442815189713
40
0.662542648285732
40
0.662542648285732
40
0.948162779223048
40
0.948162779223048
40
1
40
1
40
1
40
1
41
1
10
67.1528237185024
20
32.4850597411927
30
0
41
1
10
67.2419293692554
20
32.5630474036975
30
0
41
1
10
67.3361316772848
20
32.6495936547722
30
0
41
1
10
67.4431900401125
20
32.7858002846135
30
0
41
1
10
67.4678625682307
20
32.8211130541084
30
0
41
1
10
67.5015158097832
20
32.8866795379863
30
0
41
1
10
67.5130478798158
20
32.9158758519563
30
0
41
1
10
67.5246257120909
20
32.9707207652803
30
0
41
1
10
67.5263864751528
20
32.9964291173355
30
0
41
1
10
67.5221313786763
20
33.0463727278955
30
0
41
1
10
67.5162091749462
20
33.0710692109417
30
0
41
1
10
67.4931821174293
20
33.1349325799159
30
0
41
1
10
67.4711990350885
20
33.1723523448337
30
0
41
1
10
67.3750568619265
20
33.3105314722477
30
0
41
1
10
67.2849150861722
20
33.3957584107953
30
0
41
1
10
67.1839523892536
20
33.487456578966
30
0
41
1
10
67.1683562737128
20
33.5013457486574
30
0
41
1
10
67.1528237185269
20
33.5149402587862
30
0
0
SPLINE
5
1DE
100
AcDbEntity
8
1
62
256
6
ByLayer
370
13
48
1
60
0
100
AcDbSpline
70
4
71
3
72
16
73
12
40
0
40
0
40
0
40
0
40
0.0003180357848869
40
0.0003180357848869
40
0.251729887964903
40
0.251729887964903
40
0.50339433347081
40
0.50339433347081
40
0.999681964215131
40
0.999681964215131
40
1
40
1
40
1
40
1
41
1
10
65.0304829603425
20
33.400576963399
30
0
41
1
10
65.0304995095587
20
33.4005691472672
30
0
41
1
10
65.0305160586532
20
33.4005613312731
30
0
41
1
10
65.043615233039
20
33.3943750419142
30
0
41
1
10
65.0568468497938
20
33.3883203557683
30
0
41
1
10
65.0835771699334
20
33.3764518222197
30
0
41
1
10
65.0970793416627
20
33.3706368034943
30
0
41
1
10
65.1375333608592
20
33.3537184777606
30
0
41
1
10
65.1648203203588
20
33.3429598813448
30
0
41
1
10
65.1924618795182
20
33.3326546434398
30
0
41
1
10
65.1924795860199
20
33.3326480424575
30
0
41
1
10
65.1924972924748
20
33.332641441617
30
0
0
SPLINE
5
1DF
100
AcDbEntity
8
1
62
256
6
ByLayer
370
13
48
1
60
0
100
AcDbSpline
70
4
71
3
72
18
73
14
40
0
40
0
40
0
40
0
40
0.0147623169458795
40
0.132429609800229
40
0.310035705020788
40
0.404563166264029
40
0.490843309123467
40
0.509384707266001
40
0.536065817486726
40
0.547235587853355
40
0.607623714695528
40
0.821258035816045
40
1
40
1
40
1
40
1
41
1
10
65.1924972924751
20
33.3326414416171
30
0
41
1
10
65.1879894571144
20
33.3326414416171
30
0
41
1
10
65.1472798005846
20
33.3326414416171
30
0
41
1
10
65.0446180997779
20
33.3326414416171
30
0
41
1
10
64.8956951032899
20
33.3326414416171
30
0
41
1
10
64.7320643366261
20
33.3326414416171
30
0
41
1
10
64.6402658505686
20
33.3326414416171
30
0
41
1
10
64.5800833549737
20
33.3326414416171
30
0
41
1
10
64.5586341405576
20
33.3326414416171
30
0
41
1
10
64.5305752330293
20
33.3326414416171
30
0
41
1
10
64.4559545081916
20
33.3326414416171
30
0
41
1
10
64.3329490835555
20
33.3326414416171
30
0
41
1
10
64.2239387570541
20
33.3326414416171
30
0
41
1
10
64.173822292475
20
33.3326414416171
30
0
0
SPLINE
5
1E0
100
AcDbEntity
8
1
62
256
6
ByLayer
370
13
48
1
60
0
100
AcDbSpline
70
4
71
3
72
16
73
12
40
0
40
0
40
0
40
0
40
0.0003180203342997
40
0.0003180203342997
40
0.251566631388001
40
0.251566631388001
40
0.503174270286074
40
0.503174270286074
40
0.999681979668716
40
0.999681979668716
40
1
40
1
40
1
40
1
41
1
10
65.1924972924748
20
32.6673585583833
30
0
41
1
10
65.1924795860199
20
32.6673519575428
30
0
41
1
10
65.1924618795182
20
32.6673453565605
30
0
41
1
10
65.1784555263873
20
32.6621235526687
30
0
41
1
10
65.1645549869885
20
32.6567908480621
30
0
41
1
10
65.1369367546699
20
32.6458811091001
30
0
41
1
10
65.1232169357369
20
32.640302797586
30
0
41
1
10
65.0827734687441
20
32.6233623697752
30
0
41
1
10
65.056361440587
20
32.6116445533511
30
0
41
1
10
65.0305160586543
20
32.5994386687268
30
0
41
1
10
65.030499509559
20
32.5994308527329
30
0
41
1
10
65.0304829603425
20
32.5994230366013
30
0
0
SPLINE
5
1E1
100
AcDbEntity
8
1
62
256
6
ByLayer
370
13
48
1
60
0
100
AcDbSpline
70
4
71
3
72
18
73
14
40
0
40
0
40
0
40
0
40
0.0147623169457347
40
0.132429609799125
40
0.310035705018237
40
0.404563166260707
40
0.490843309119441
40
0.509384707261825
40
0.536065817482332
40
0.54723558784887
40
0.607623714690551
40
0.821258035809326
40
1
40
1
40
1
40
1
41
1
10
65.1924972924751
20
32.6673585583832
30
0
41
1
10
65.1879894571144
20
32.6673585583832
30
0
41
1
10
65.1472798005846
20
32.6673585583832
30
0
41
1
10
65.0446180997779
20
32.6673585583832
30
0
41
1
10
64.8956951032899
20
32.6673585583832
30
0
41
1
10
64.7320643366261
20
32.6673585583832
30
0
41
1
10
64.6402658505686
20
32.6673585583832
30
0
41
1
10
64.5800833549737
20
32.6673585583832
30
0
41
1
10
64.5586341405576
20
32.6673585583832
30
0
41
1
10
64.5305752330293
20
32.6673585583832
30
0
41
1
10
64.4559545081916
20
32.6673585583832
30
0
41
1
10
64.3329490835533
20
32.6673585583832
30
0
41
1
10
64.2239387570496
20
32.6673585583832
30
0
41
1
10
64.1738222924681
20
32.6673585583832
30
0
0
SPLINE
5
1E2
100
AcDbEntity
8
1
62
256
6
ByLayer
370
13
48
1
60
0
100
AcDbSpline
70
4
71
3
72
8
73
4
40
0
40
0
40
0
40
0
40
1
40
1
40
1
40
1
41
1
10
67.0132739541156
20
33.6360058933469
30
0
41
1
10
66.9848441187077
20
33.6642049364137
30
0
41
1
10
66.9594573268683
20
33.6888444590019
30
0
41
1
10
66.9354962551919
20
33.7083181255899
30
0
0
SPLINE
5
1E3
100
AcDbEntity
8
1
62
256
6
ByLayer
370
13
48
1
60
0
100
AcDbSpline
70
4
71
3
72
8
73
4
40
0
40
0
40
0
40
0
40
1
40
1
40
1
40
1
41
1
10
66.9354962551922
20
32.2916818744106
30
0
41
1
10
66.9594573268688
20
32.3111555409986
30
0
41
1
10
66.9848441187078
20
32.3357950635867
30
0
41
1
10
67.0132739541156
20
32.3639941066534
30
0
0
SPLINE
5
1E4
100
AcDbEntity
8
1
62
256
6
ByLayer
370
13
48
1
60
0
100
AcDbSpline
70
4
71
3
72
18
73
14
40
0
40
0
40
0
40
0
40
0.00023158089382
40
0.00023158089382
40
0.253623359717151
40
0.253623359717151
40
0.529920957096893
40
0.529920957096893
40
0.795188631627136
40
0.795188631627136
40
0.999768419108964
40
0.999768419108964
40
1
40
1
40
1
40
1
41
1
10
65.3100240060454
20
32.8681142101817
30
0
41
1
10
65.3100266345092
20
32.8680947014732
30
0
41
1
10
65.3100292610427
20
32.8680751928651
30
0
41
1
10
65.3129028077692
20
32.8467094860027
30
0
41
1
10
65.3128100982841
20
32.8249901720326
30
0
41
1
10
65.306145671286
20
32.78205036568
30
0
41
1
10
65.298878144387
20
32.7604006616878
30
0
41
1
10
65.2774807999278
20
32.7232727991464
30
0
41
1
10
65.2632336335329
20
32.707022037266
30
0
41
1
10
65.2330132258611
20
32.6844837905824
30
0
41
1
10
65.2178470302408
20
32.6765324253126
30
0
41
1
10
65.2017399278974
20
32.6707917005464
30
0
41
1
10
65.2017217604414
20
32.670785229089
30
0
41
1
10
65.2017035929297
20
32.6707787598165
30
0
0
SPLINE
5
1E5
100
AcDbEntity
8
1
62
256
6
ByLayer
370
13
48
1
60
0
100
AcDbSpline
70
4
71
3
72
18
73
14
40
0
40
0
40
0
40
0
40
0.0002325599132508
40
0.0002325599132508
40
0.255891971717352
40
0.255891971717352
40
0.495789486831356
40
0.495789486831356
40
0.744387685796496
40
0.744387685796496
40
0.999767440083953
40
0.999767440083953
40
1
40
1
40
1
40
1
41
1
10
65.2017035929297
20
33.3292212401838
30
0
41
1
10
65.2017217604414
20
33.3292147709113
30
0
41
1
10
65.2017399278974
20
33.3292082994539
30
0
41
1
10
65.2217278570614
20
33.3220844110269
30
0
41
1
10
65.2403039926446
20
33.3114669008961
30
0
41
1
10
65.2700010474331
20
33.2854908625416
30
0
41
1
10
65.281961910292
20
33.2701302760667
30
0
41
1
10
65.3001095834958
20
33.2357880313628
30
0
41
1
10
65.3063619410123
20
33.2162351732841
30
0
41
1
10
65.3128079648331
20
33.1753457544047
30
0
41
1
10
65.3129248724814
20
33.1534545719434
30
0
41
1
10
65.3100292610427
20
33.1319248071352
30
0
41
1
10
65.3100266345092
20
33.1319052985271
30
0
41
1
10
65.3100240060454
20
33.1318857898186
30
0
0
SPLINE
5
1E6
100
AcDbEntity
8
1
62
256
6
ByLayer
370
13
48
1
60
0
100
AcDbSpline
70
4
71
3
72
10
73
6
40
0
40
0
40
0
40
0
40
0.848961873468764
40
0.848961873468764
40
1
40
1
40
1
40
1
41
1
10
69.9256851850747
20
33.9984106069236
30
0
41
1
10
69.8912977154034
20
34.0502534100669
30
0
41
1
10
69.843874742716
20
34.093709057832
30
0
41
1
10
69.7838155264512
20
34.1357146319515
30
0
41
1
10
69.7744787017948
20
34.141908567591
30
0
41
1
10
69.7650107000385
20
34.1478881790529
30
0
0
SPLINE
5
1E7
100
AcDbEntity
8
1
62
256
6
ByLayer
370
13
48
1
60
0
100
AcDbSpline
70
4
71
3
72
8
73
4
40
0
40
0
40
0
40
0
40
1
40
1
40
1
40
1
41
1
10
69.7650107000385
20
34.1478881790529
30
0
41
1
10
69.7210937227593
20
34.175624386488
30
0
41
1
10
69.6769798114244
20
34.2030540344468
30
0
41
1
10
69.6325607479569
20
34.2299775228956
30
0
0
SPLINE
5
1E8
100
AcDbEntity
8
1
62
256
6
ByLayer
370
13
48
1
60
0
100
AcDbSpline
70
4
71
3
72
10
73
6
40
0
40
0
40
0
40
0
40
0.657586553479241
40
0.657586553479241
40
1
40
1
40
1
40
1
41
1
10
69.6325607479569
20
34.2299775228956
30
0
41
1
10
69.6092305437702
20
34.2441185342969
30
0
41
1
10
69.5864384919004
20
34.2594419538566
30
0
41
1
10
69.5548281900598
20
34.2863507544024
30
0
41
1
10
69.5444660370968
20
34.2962801939239
30
0
41
1
10
69.535515563742
20
34.3073504706939
30
0
0
SPLINE
5
1E9
100
AcDbEntity
8
1
62
256
6
ByLayer
370
13
48
1
60
0
100
AcDbSpline
70
4
71
3
72
10
73
6
40
0
40
0
40
0
40
0
40
0.657586553479241
40
0.657586553479241
40
1
40
1
40
1
40
1
41
1
10
69.6325607479569
20
31.7700224771047
30
0
41
1
10
69.6092305437702
20
31.7558814657034
30
0
41
1
10
69.5864384919004
20
31.7405580461437
30
0
41
1
10
69.5548281900598
20
31.7136492455979
30
0
41
1
10
69.5444660370968
20
31.7037198060764
30
0
41
1
10
69.535515563742
20
31.6926495293064
30
0
0
SPLINE
5
1EA
100
AcDbEntity
8
1
62
256
6
ByLayer
370
13
48
1
60
0
100
AcDbSpline
70
4
71
3
72
8
73
4
40
0
40
0
40
0
40
0
40
1
40
1
40
1
40
1
41
1
10
69.7650107000385
20
31.8521118209474
30
0
41
1
10
69.7210937227593
20
31.8243756135122
30
0
41
1
10
69.6769798114244
20
31.7969459655534
30
0
41
1
10
69.6325607479569
20
31.7700224771047
30
0
0
SPLINE
5
1EB
100
AcDbEntity
8
1
62
256
6
ByLayer
370
13
48
1
60
0
100
AcDbSpline
70
4
71
3
72
10
73
6
40
0
40
0
40
0
40
0
40
0.848961873468764
40
0.848961873468764
40
1
40
1
40
1
40
1
41
1
10
69.9256851850747
20
32.0015893930766
30
0
41
1
10
69.8912977154034
20
31.9497465899334
30
0
41
1
10
69.843874742716
20
31.9062909421683
30
0
41
1
10
69.7838155264512
20
31.8642853680488
30
0
41
1
10
69.7744787017948
20
31.8580914324093
30
0
41
1
10
69.7650107000385
20
31.8521118209474
30
0
0
SPLINE
5
1EC
100
AcDbEntity
8
1
62
256
6
ByLayer
370
13
48
1
60
0
100
AcDbSpline
70
4
71
3
72
18
73
14
40
0
40
0
40
0
40
0
40
0.0127522791560452
40
0.121124696795595
40
0.284701179772876
40
0.371761647127549
40
0.45122627531048
40
0.468303035507651
40
0.492876528700075
40
0.503163967033584
40
0.558781863424817
40
0.755540599935161
40
1
40
1
40
1
40
1
41
1
10
65.3100240060454
20
33.1318857898186
30
0
41
1
10
65.305326900298
20
33.1318857898186
30
0
41
1
10
65.2604415120431
20
33.1318857898186
30
0
41
1
10
65.1469736785093
20
33.1318857898186
30
0
41
1
10
64.9821864796328
20
33.1318857898186
30
0
41
1
10
64.7999950653448
20
33.1318857898186
30
0
41
1
10
64.6985561666312
20
33.1318857898186
30
0
41
1
10
64.6323336814467
20
33.1318857898186
30
0
41
1
10
64.6093626981952
20
33.1318857898186
30
0
41
1
10
64.5808112622734
20
33.1318857898186
30
0
41
1
10
64.5064535903822
20
33.1318857898186
30
0
41
1
10
64.3598856588514
20
33.1318857898186
30
0
41
1
10
64.2261354777719
20
33.1318857898186
30
0
41
1
10
64.1510660060449
20
33.1318857898186
30
0
0
SPLINE
5
1ED
100
AcDbEntity
8
1
62
256
6
ByLayer
370
13
48
1
60
0
100
AcDbSpline
70
4
71
3
72
18
73
14
40
0
40
0
40
0
40
0
40
0.0164366124739419
40
0.133179670181337
40
0.30939073207076
40
0.40317571339529
40
0.488778156117496
40
0.507173918107271
40
0.533645457603391
40
0.544727493357403
40
0.604641292729874
40
0.816597591492726
40
1
40
1
40
1
40
1
41
1.02166924057829
10
65.2017035929297
20
33.3292212401838
30
0
41
1.02166924057829
10
65.1966174631242
20
33.3292212401838
30
0
41
1.02166924057829
10
65.155108594915
20
33.3292212401838
30
0
41
1.02166924057829
10
65.051135754098
20
33.3292212401837
30
0
41
1.02166924057829
10
64.9012025792835
20
33.3292212401837
30
0
41
1.02166924057829
10
64.7363899338528
20
33.3292212401837
30
0
41
1.02166924057829
10
64.6439775791819
20
33.3292212401837
30
0
41
1.02166924057829
10
64.5834104776404
20
33.3292212401837
30
0
41
1.02166924057829
10
64.5618643621726
20
33.3292212401838
30
0
41
1.02166924057829
10
64.5337740921153
20
33.3292212401838
30
0
41
1.02166924057829
10
64.4591701175924
20
33.3292212401838
30
0
41
1.02166924057829
10
64.3345034206931
20
33.3292212401837
30
0
41
1.02166924057829
10
64.2237563950341
20
33.3292212401837
30
0
41
1.02166924057829
10
64.1718935929287
20
33.3292212401837
30
0
0
SPLINE
5
1EE
100
AcDbEntity
8
1
62
256
6
ByLayer
370
13
48
1
60
0
100
AcDbSpline
70
4
71
3
72
18
73
14
40
0
40
0
40
0
40
0
40
0.0164366124740811
40
0.133179670182221
40
0.309390732072769
40
0.403175713397898
40
0.488778156120651
40
0.507173918110543
40
0.533645457606832
40
0.544727493360914
40
0.604641292733767
40
0.816597591497972
40
1
40
1
40
1
40
1
41
1.02166924057829
10
65.2017035929298
20
32.6707787598165
30
0
41
1.02166924057829
10
65.1966174631242
20
32.6707787598165
30
0
41
1.02166924057829
10
65.155108594915
20
32.6707787598165
30
0
41
1.02166924057829
10
65.051135754098
20
32.6707787598165
30
0
41
1.02166924057829
10
64.9012025792835
20
32.6707787598165
30
0
41
1.02166924057829
10
64.7363899338528
20
32.6707787598165
30
0
41
1.02166924057829
10
64.6439775791819
20
32.6707787598165
30
0
41
1.02166924057829
10
64.5834104776404
20
32.6707787598165
30
0
41
1.02166924057829
10
64.5618643621726
20
32.6707787598165
30
0
41
1.02166924057829
10
64.5337740921153
20
32.6707787598165
30
0
41
1.02166924057829
10
64.4591701175924
20
32.6707787598165
30
0
41
1.02166924057829
10
64.3345034206949
20
32.6707787598165
30
0
41
1.02166924057829
10
64.2237563950378
20
32.6707787598165
30
0
41
1.02166924057829
10
64.1718935929342
20
32.6707787598165
30
0
0
SPLINE
5
1EF
100
AcDbEntity
8
1
62
256
6
ByLayer
370
13
48
1
60
0
100
AcDbSpline
70
4
71
3
72
18
73
14
40
0
40
0
40
0
40
0
40
0.0127522791560452
40
0.121124696795595
40
0.284701179772876
40
0.371761647127549
40
0.45122627531048
40
0.468303035507651
40
0.492876528700075
40
0.503163967033584
40
0.558781863424817
40
0.755540599935161
40
1
40
1
40
1
40
1
41
1
10
65.3100240060454
20
32.8681142101817
30
0
41
1
10
65.305326900298
20
32.8681142101817
30
0
41
1
10
65.2604415120431
20
32.8681142101817
30
0
41
1
10
65.1469736785093
20
32.8681142101817
30
0
41
1
10
64.9821864796328
20
32.8681142101817
30
0
41
1
10
64.7999950653448
20
32.8681142101817
30
0
41
1
10
64.6985561666312
20
32.8681142101817
30
0
41
1
10
64.6323336814467
20
32.8681142101817
30
0
41
1
10
64.6093626981952
20
32.8681142101817
30
0
41
1
10
64.5808112622734
20
32.8681142101817
30
0
41
1
10
64.5064535903822
20
32.8681142101817
30
0
41
1
10
64.3598856588514
20
32.8681142101817
30
0
41
1
10
64.2261354777719
20
32.8681142101817
30
0
41
1
10
64.1510660060449
20
32.8681142101817
30
0
0
SPLINE
5
1F0
100
AcDbEntity
8
1
62
256
6
ByLayer
370
13
48
1
60
0
100
AcDbSpline
70
4
71
3
72
16
73
12
40
0
40
0
40
0
40
0
40
0.0057828244240233
40
0.0057828244240233
40
0.500000493987984
40
0.500000493987984
40
0.750000398281966
40
0.750000398281966
40
0.994217175588821
40
0.994217175588821
40
1
40
1
40
1
40
1
41
1
10
65.2017035929294
20
32.6707787598166
30
0
41
1
10
65.2016858395655
20
32.6707721671094
30
0
41
1
10
65.2016680861537
20
32.6707655744238
30
0
41
1
10
65.200133079949
20
32.670195549874
30
0
41
1
10
65.1986161325265
20
32.6696321132685
30
0
41
1
10
65.1963323013229
20
32.6687836553342
30
0
41
1
10
65.1955651882594
20
32.6684986374399
30
0
41
1
10
65.1940488637027
20
32.6679351924411
30
0
41
1
10
65.1932996485425
20
32.6676567653728
30
0
41
1
10
65.1925327701837
20
32.6673717442229
30
0
41
1
10
65.1925150313536
20
32.6673651512922
30
0
41
1
10
65.1924972924748
20
32.6673585583833
30
0
0
SPLINE
5
1F1
100
AcDbEntity
8
1
62
256
6
ByLayer
370
13
48
1
60
0
100
AcDbSpline
70
4
71
3
72
16
73
12
40
0
40
0
40
0
40
0
40
0.0057828239042467
40
0.0057828239042467
40
0.249999260186564
40
0.249999260186564
40
0.624999089284546
40
0.624999089284546
40
0.99421717603004
40
0.99421717603004
40
1
40
1
40
1
40
1
41
1
10
65.1924972924748
20
33.332641441617
30
0
41
1
10
65.1925150313536
20
33.3326348487081
30
0
41
1
10
65.1925327701838
20
33.3326282557774
30
0
41
1
10
65.1932996474864
20
33.33234323502
30
0
41
1
10
65.1940488615901
20
33.3320648083443
30
0
41
1
10
65.1959487019351
20
33.331358854242
30
0
41
1
10
65.197099430714
20
33.3309313283523
30
0
41
1
10
65.1993834972573
20
33.3300828736185
30
0
41
1
10
65.2005168297863
20
33.3296619446253
30
0
41
1
10
65.2016680861532
20
33.3292344255766
30
0
41
1
10
65.2016858395653
20
33.329227832891
30
0
41
1
10
65.2017035929294
20
33.3292212401837
30
0
0
SPLINE
5
1F2
100
AcDbEntity
8
1
62
256
6
ByLayer
370
13
48
1
60
0
100
AcDbSpline
70
4
71
3
72
8
73
4
40
0
40
0
40
0
40
0
40
1
40
1
40
1
40
1
41
1
10
69.4647600217523
20
34.3599668954016
30
0
41
1
10
69.3478492133727
20
34.3907184506893
30
0
41
1
10
69.2265101800571
20
34.405702146616
30
0
41
1
10
69.1060768987951
20
34.4085136579456
30
0
0
SPLINE
5
1F3
100
AcDbEntity
8
1
62
256
6
ByLayer
370
13
48
1
60
0
100
AcDbSpline
70
4
71
3
72
10
73
6
40
0
40
0
40
0
40
0
40
0.638823417468494
40
0.638823417468494
40
1
40
1
40
1
40
1
41
1
10
69.5900286630425
20
31.8313311738514
30
0
41
1
10
69.566841990865
20
31.8116444822615
30
0
41
1
10
69.5449724664755
20
31.7898528524883
30
0
41
1
10
69.5161775948407
20
31.7513352671974
30
0
41
1
10
69.5068123576004
20
31.7363568445521
30
0
41
1
10
69.4995116901682
20
31.7203571803696
30
0
0
SPLINE
5
1F4
100
AcDbEntity
8
1
62
256
6
ByLayer
370
13
48
1
60
0
100
AcDbSpline
70
4
71
3
72
16
73
12
40
0
40
0
40
0
40
0
40
0.0355702320994276
40
0.0355702320994276
40
0.0905081710166269
40
0.0905081710166269
40
0.198049233530912
40
0.198049233530912
40
0.436780146594186
40
0.436780146594186
40
1
40
1
40
1
40
1
41
1
10
69.4647600217562
20
34.3599668953997
30
0
41
1
10
69.4651586810188
20
34.3590001194371
30
0
41
1
10
69.4655584542085
20
34.3580337809452
30
0
41
1
10
69.4665771815565
20
34.3555717147675
30
0
41
1
10
69.4671970808021
20
34.3540763687537
30
0
41
1
10
69.4690334070427
20
34.3496560607677
30
0
41
1
10
69.4702528942053
20
34.3467326560682
30
0
41
1
10
69.4741930527674
20
34.3373346984061
30
0
41
1
10
69.4769343827304
20
34.3308729195476
30
0
41
1
10
69.4861946238307
20
34.3093042958691
30
0
41
1
10
69.4928248586495
20
34.2942972412642
30
0
41
1
10
69.4995116901682
20
34.2796428196307
30
0
0
SPLINE
5
1F5
100
AcDbEntity
8
1
62
256
6
ByLayer
370
13
48
1
60
0
100
AcDbSpline
70
4
71
3
72
16
73
12
40
0
40
0
40
0
40
0
40
0.0355702320994276
40
0.0355702320994276
40
0.0905081710166269
40
0.0905081710166269
40
0.198049233530912
40
0.198049233530912
40
0.436780146594186
40
0.436780146594186
40
1
40
1
40
1
40
1
41
1
10
69.4647600217562
20
31.6400331046006
30
0
41
1
10
69.4651586810188
20
31.6409998805632
30
0
41
1
10
69.4655584542085
20
31.641966219055
30
0
41
1
10
69.4665771815565
20
31.6444282852328
30
0
41
1
10
69.4671970808021
20
31.6459236312466
30
0
41
1
10
69.4690334070427
20
31.6503439392326
30
0
41
1
10
69.4702528942053
20
31.653267343932
30
0
41
1
10
69.4741930527674
20
31.6626653015942
30
0
41
1
10
69.4769343827304
20
31.6691270804527
30
0
41
1
10
69.4861946238307
20
31.6906957041312
30
0
41
1
10
69.4928248586495
20
31.7057027587361
30
0
41
1
10
69.4995116901682
20
31.7203571803696
30
0
0
SPLINE
5
1F6
100
AcDbEntity
8
1
62
256
6
ByLayer
370
13
48
1
60
0
100
AcDbSpline
70
4
71
3
72
10
73
6
40
0
40
0
40
0
40
0
40
0.638823417468494
40
0.638823417468494
40
1
40
1
40
1
40
1
41
1
10
69.5900286630425
20
34.1686688261489
30
0
41
1
10
69.566841990865
20
34.1883555177388
30
0
41
1
10
69.5449724664755
20
34.2101471475119
30
0
41
1
10
69.5161775948407
20
34.2486647328029
30
0
41
1
10
69.5068123576004
20
34.2636431554482
30
0
41
1
10
69.4995116901682
20
34.2796428196307
30
0
0
SPLINE
5
1F7
100
AcDbEntity
8
1
62
256
6
ByLayer
370
13
48
1
60
0
100
AcDbSpline
70
4
71
3
72
8
73
4
40
0
40
0
40
0
40
0
40
1
40
1
40
1
40
1
41
1
10
69.4647600217523
20
31.6400331045986
30
0
41
1
10
69.3478492133727
20
31.609281549311
30
0
41
1
10
69.2265101800571
20
31.5942978533843
30
0
41
1
10
69.1060768987951
20
31.5914863420547
30
0
0
SPLINE
5
1F8
100
AcDbEntity
8
1
62
256
6
ByLayer
370
13
48
1
60
0
100
AcDbSpline
70
4
71
3
72
8
73
4
40
0
40
0
40
0
40
0
40
1
40
1
40
1
40
1
41
1
10
68.7587805434612
20
31.5879459128047
30
0
41
1
10
68.5912677337033
20
31.5821866177978
30
0
41
1
10
68.4213169004326
20
31.6003163084634
30
0
41
1
10
68.2587805434612
20
31.6411531956115
30
0
0
SPLINE
5
1F9
100
AcDbEntity
8
1
62
256
6
ByLayer
370
13
48
1
60
0
100
AcDbSpline
70
4
71
3
72
8
73
4
40
0
40
0
40
0
40
0
40
1
40
1
40
1
40
1
41
1
10
68.7587805434612
20
34.4120540871956
30
0
41
1
10
68.5912677337033
20
34.4178133822025
30
0
41
1
10
68.4213169004326
20
34.3996836915369
30
0
41
1
10
68.2587805434612
20
34.3588468043888
30
0
0
SPLINE
5
1FA
100
AcDbEntity
8
1
62
256
6
ByLayer
370
13
48
1
60
0
100
AcDbSpline
70
4
71
3
72
16
73
12
40
0
40
0
40
0
40
0
40
0.0355303527441879
40
0.0355303527441879
40
0.0917680599187698
40
0.0917680599187698
40
0.200182520092124
40
0.200182520092124
40
0.4395335047121
40
0.4395335047121
40
1
40
1
40
1
40
1
41
1
10
69.4647600217523
20
31.6400331045986
30
0
41
1
10
69.4655855998635
20
31.6406668321806
30
0
41
1
10
69.4664120929671
20
31.6413000661976
30
0
41
1
10
69.4685507889317
20
31.6429379857311
30
0
41
1
10
69.4698640688781
20
31.6439422995012
30
0
41
1
10
69.4737129338245
20
31.6468811630867
30
0
41
1
10
69.4762525536655
20
31.6488146217789
30
0
41
1
10
69.4844114693382
20
31.6550058788966
30
0
41
1
10
69.4900517136001
20
31.6592541996732
30
0
41
1
10
69.5089188273347
20
31.6733506684431
30
0
41
1
10
69.5222466489562
20
31.6831234012505
30
0
41
1
10
69.535515563742
20
31.6926495293064
30
0
0
SPLINE
5
1FB
100
AcDbEntity
8
1
62
256
6
ByLayer
370
13
48
1
60
0
100
AcDbSpline
70
4
71
3
72
16
73
12
40
0
40
0
40
0
40
0
40
0.0355303527441879
40
0.0355303527441879
40
0.0917680599187698
40
0.0917680599187698
40
0.200182520092124
40
0.200182520092124
40
0.439533504712099
40
0.439533504712099
40
1
40
1
40
1
40
1
41
1
10
69.4647600217523
20
34.3599668954016
30
0
41
1
10
69.4655855998635
20
34.3593331678197
30
0
41
1
10
69.4664120929671
20
34.3586999338027
30
0
41
1
10
69.4685507889317
20
34.3570620142692
30
0
41
1
10
69.4698640688781
20
34.3560577004991
30
0
41
1
10
69.4737129338245
20
34.3531188369136
30
0
41
1
10
69.4762525536655
20
34.3511853782213
30
0
41
1
10
69.4844114693382
20
34.3449941211037
30
0
41
1
10
69.4900517136001
20
34.3407458003271
30
0
41
1
10
69.5089188273346
20
34.3266493315572
30
0
41
1
10
69.5222466489562
20
34.3168765987498
30
0
41
1
10
69.535515563742
20
34.3073504706939
30
0
0
SPLINE
5
1FC
100
AcDbEntity
8
1
62
256
6
ByLayer
370
13
48
1
60
0
100
AcDbSpline
70
4
71
3
72
8
73
4
40
0
40
0
40
0
40
0
40
1
40
1
40
1
40
1
41
1
10
69.1060768987951
20
31.5914863420547
30
0
41
1
10
68.9916360304014
20
31.5886629688238
30
0
41
1
10
68.8749005955276
20
31.5924161769163
30
0
41
1
10
68.7587805434612
20
31.5879459128047
30
0
0
SPLINE
5
1FD
100
AcDbEntity
8
1
62
256
6
ByLayer
370
13
48
1
60
0
100
AcDbSpline
70
4
71
3
72
8
73
4
40
0
40
0
40
0
40
0
40
1
40
1
40
1
40
1
41
1
10
69.1060768987951
20
34.4085136579456
30
0
41
1
10
68.9916360304014
20
34.4113370311765
30
0
41
1
10
68.8749005955276
20
34.407583823084
30
0
41
1
10
68.7587805434612
20
34.4120540871956
30
0
0
SPLINE
5
1FE
100
AcDbEntity
8
1
62
256
6
ByLayer
370
13
48
1
60
0
100
AcDbSpline
70
4
71
3
72
10
73
6
40
0
40
0
40
0
40
0
40
0.155061591761412
40
0.155061591761412
40
1
40
1
40
1
40
1
41
1
10
69.7213895076228
20
34.087343636851
30
0
41
1
10
69.7304066184318
20
34.0825377917953
30
0
41
1
10
69.7393274149502
20
34.0775468294834
30
0
41
1
10
69.7954797246052
20
34.0444256360858
30
0
41
1
10
69.8409287471059
20
34.0101627991138
30
0
41
1
10
69.8749811562301
20
33.9670577707528
30
0
0
SPLINE
5
1FF
100
AcDbEntity
8
1
62
256
6
ByLayer
370
13
48
1
60
0
100
AcDbSpline
70
4
71
3
72
16
73
12
40
0
40
0
40
0
40
0
40
0.0004524024963632
40
0.0004524024963632
40
0.257769385461147
40
0.257769385461147
40
0.515499162994264
40
0.515499162994264
40
0.999547597506527
40
0.999547597506527
40
1
40
1
40
1
40
1
41
1
10
65.3028415230963
20
33.0000000000001
30
0
41
1
10
65.3028415235923
20
32.9999800000002
30
0
41
1
10
65.3028415235929
20
32.9999600000002
30
0
41
1
10
65.3028420886591
20
32.988564422566
30
0
41
1
10
65.3030032526709
20
32.9771857662777
30
0
41
1
10
65.3036456179238
20
32.9544413195581
30
0
41
1
10
65.3041275042308
20
32.9430693765298
30
0
41
1
10
65.3059682233651
20
32.9104342080655
30
0
41
1
10
65.3077286728989
20
32.8892108303644
30
0
41
1
10
65.3100197232346
20
32.8681535607501
30
0
41
1
10
65.3100218648815
20
32.868133885538
30
0
41
1
10
65.3100240060454
20
32.8681142101817
30
0
0
SPLINE
5
200
100
AcDbEntity
8
1
62
256
6
ByLayer
370
13
48
1
60
0
100
AcDbSpline
70
4
71
3
72
16
73
12
40
0
40
0
40
0
40
0
40
0.0004523985411366
40
0.0004523985411366
40
0.257549970995908
40
0.257549970995908
40
0.515211450419599
40
0.515211450419599
40
0.999547601459687
40
0.999547601459687
40
1
40
1
40
1
40
1
41
1
10
65.3100240060454
20
33.1318857898186
30
0
41
1
10
65.3100218648809
20
33.1318661144623
30
0
41
1
10
65.310019723233
20
33.1318464392505
30
0
41
1
10
65.3088010179856
20
33.1206451991147
30
0
41
1
10
65.3077336238964
20
33.1094139303858
30
0
41
1
10
65.3059057653384
20
33.0868622487443
30
0
41
1
10
65.3051455001609
20
33.0755356639947
30
0
41
1
10
65.3034134795948
20
33.0428744372286
30
0
41
1
10
65.3028425855878
20
33.021457011914
30
0
41
1
10
65.3028415235942
20
33.00004
30
0
41
1
10
65.3028415235927
20
33.00002
30
0
41
1
10
65.3028415230963
20
33.0000000000001
30
0
0
SPLINE
5
201
100
AcDbEntity
8
1
62
256
6
ByLayer
370
13
48
1
60
0
100
AcDbSpline
70
4
71
3
72
10
73
6
40
0
40
0
40
0
40
0
40
0.155061591761412
40
0.155061591761412
40
1
40
1
40
1
40
1
41
1
10
69.7213895076228
20
31.9126563631493
30
0
41
1
10
69.7304066184318
20
31.917462208205
30
0
41
1
10
69.7393274149502
20
31.9224531705169
30
0
41
1
10
69.7954797246052
20
31.9555743639145
30
0
41
1
10
69.8409287471059
20
31.9898372008865
30
0
41
1
10
69.8749811562301
20
32.0329422292475
30
0
0
SPLINE
5
202
100
AcDbEntity
8
1
62
256
6
ByLayer
370
13
48
1
60
0
100
AcDbSpline
70
4
71
3
72
18
73
14
40
0
40
0
40
0
40
0
40
0.0063240448349228
40
0.115571666529952
40
0.28046917569084
40
0.368232734069598
40
0.448339110091765
40
0.465553780378094
40
0.490325726473643
40
0.500696245058993
40
0.556763305633687
40
0.755111044658652
40
1
40
1
40
1
40
1
41
1
10
65.302841523097
20
33.0000000000001
30
0
41
1
10
65.300515411654
20
33.0000000000001
30
0
41
1
10
65.2578593433939
20
33.0000000000001
30
0
41
1
10
65.1469736785093
20
33.0000000000001
30
0
41
1
10
64.9821864796327
20
33.0000000000001
30
0
41
1
10
64.7999950653448
20
33.0000000000001
30
0
41
1
10
64.6985561666312
20
33.0000000000001
30
0
41
1
10
64.6323336814467
20
33.0000000000001
30
0
41
1
10
64.6093626981952
20
33.0000000000001
30
0
41
1
10
64.5808112622734
20
33.0000000000001
30
0
41
1
10
64.5064535903821
20
33.0000000000001
30
0
41
1
10
64.3603376907825
20
33.0000000000002
30
0
41
1
10
64.2270644313646
20
33.0000000000002
30
0
41
1
10
64.152477523097
20
33.0000000000002
30
0
0
SPLINE
5
203
100
AcDbEntity
8
1
62
256
6
ByLayer
370
13
48
1
60
0
100
AcDbSpline
70
4
71
3
72
8
73
4
40
0
40
0
40
0
40
0
40
1
40
1
40
1
40
1
41
1
10
69.8749811562301
20
33.9670577707528
30
0
41
1
10
69.8822263780104
20
33.9578864522366
30
0
41
1
10
69.8893737130963
20
33.9486001930512
30
0
41
1
10
69.8964383490931
20
33.939251650275
30
0
0
SPLINE
5
204
100
AcDbEntity
8
1
62
256
6
ByLayer
370
13
48
1
60
0
100
AcDbSpline
70
4
71
3
72
10
73
6
40
0
40
0
40
0
40
0
40
0.596085739020482
40
0.596085739020482
40
1
40
1
40
1
40
1
41
1
10
69.8964383490931
20
33.939251650275
30
0
41
1
10
69.9128939358856
20
33.917476181998
30
0
41
1
10
69.9267245821227
20
33.893047760404
30
0
41
1
10
69.94081187438
20
33.8493753797692
30
0
41
1
10
69.944038381206
20
33.8306258450725
30
0
41
1
10
69.9441651422481
20
33.8120344784735
30
0
0
SPLINE
5
205
100
AcDbEntity
8
1
62
256
6
ByLayer
370
13
48
1
60
0
100
AcDbSpline
70
4
71
3
72
12
73
8
40
0
40
0
40
0
40
0
40
0.0075770979408485
40
0.0075770979408485
40
0.524912447401224
40
0.524912447401224
40
1
40
1
40
1
40
1
41
1
10
69.4213727254144
20
33.8227204822362
30
0
41
1
10
69.4226938848631
20
33.8227694957162
30
0
41
1
10
69.4240151186688
20
33.822816164587
30
0
41
1
10
69.515463818229
20
33.8258826528342
30
0
41
1
10
69.6056735270381
20
33.8211185994205
30
0
41
1
10
69.7786115881781
20
33.8170622707027
30
0
41
1
10
69.8613940232688
20
33.8147424096848
30
0
41
1
10
69.9441651422333
20
33.8120344784688
30
0
0
SPLINE
5
206
100
AcDbEntity
8
1
62
256
6
ByLayer
370
13
48
1
60
0
100
AcDbSpline
70
4
71
3
72
8
73
4
40
0
40
0
40
0
40
0
40
1
40
1
40
1
40
1
41
1
10
69.8749811562301
20
32.0329422292475
30
0
41
1
10
69.8822263780104
20
32.0421135477637
30
0
41
1
10
69.8893737130963
20
32.0513998069491
30
0
41
1
10
69.8964383490931
20
32.0607483497253
30
0
0
SPLINE
5
207
100
AcDbEntity
8
1
62
256
6
ByLayer
370
13
48
1
60
0
100
AcDbSpline
70
4
71
3
72
12
73
8
40
0
40
0
40
0
40
0
40
0.0075770979408485
40
0.0075770979408485
40
0.524912447401224
40
0.524912447401224
40
1
40
1
40
1
40
1
41
1
10
69.4213727254144
20
32.177279517764
30
0
41
1
10
69.4226938848631
20
32.1772305042841
30
0
41
1
10
69.4240151186688
20
32.1771838354133
30
0
41
1
10
69.515463818229
20
32.1741173471661
30
0
41
1
10
69.6056735270381
20
32.1788814005798
30
0
41
1
10
69.7786115881781
20
32.1829377292976
30
0
41
1
10
69.8613940232688
20
32.1852575903155
30
0
41
1
10
69.9441651422333
20
32.1879655215315
30
0
0
SPLINE
5
208
100
AcDbEntity
8
1
62
256
6
ByLayer
370
13
48
1
60
0
100
AcDbSpline
70
4
71
3
72
10
73
6
40
0
40
0
40
0
40
0
40
0.596085739020482
40
0.596085739020482
40
1
40
1
40
1
40
1
41
1
10
69.8964383490931
20
32.0607483497253
30
0
41
1
10
69.9128939358856
20
32.0825238180023
30
0
41
1
10
69.9267245821227
20
32.1069522395962
30
0
41
1
10
69.94081187438
20
32.1506246202311
30
0
41
1
10
69.944038381206
20
32.1693741549278
30
0
41
1
10
69.9441651422481
20
32.1879655215267
30
0
0
SPLINE
5
209
100
AcDbEntity
8
1
62
256
6
ByLayer
370
13
48
1
60
0
100
AcDbSpline
70
4
71
3
72
16
73
12
40
0
40
0
40
0
40
0
40
0.113631665737396
40
0.113631665737396
40
0.758132216188138
40
0.758132216188138
40
0.942823120098959
40
0.942823120098959
40
0.947778003019264
40
0.947778003019264
40
1
40
1
40
1
40
1
41
1
10
68.2112677608007
20
33.749485934324
30
0
41
1
10
68.2332807942052
20
33.7564900031849
30
0
41
1
10
68.2554088133189
20
33.7631426509564
30
0
41
1
10
68.4026697940168
20
33.8048304290929
30
0
41
1
10
68.5333481685156
20
33.8275728185623
30
0
41
1
10
68.7009734748332
20
33.826088285797
30
0
41
1
10
68.7386296238165
20
33.8242820503597
30
0
41
1
10
68.7773004835499
20
33.8229038955923
30
0
41
1
10
68.7783108496887
20
33.8228678782589
30
0
41
1
10
68.7899699703881
20
33.8224522350521
30
0
41
1
10
68.80061882194
20
33.8220753216861
30
0
41
1
10
68.8112677608007
20
33.8217009012842
30
0
0
SPLINE
5
20A
100
AcDbEntity
8
1
62
256
6
ByLayer
370
13
48
1
60
0
100
AcDbSpline
70
4
71
3
72
10
73
6
40
0
40
0
40
0
40
0
40
0.41187861913105
40
0.41187861913105
40
1
40
1
40
1
40
1
41
1
10
69.9970257408783
20
32.1879655215313
30
0
41
1
10
69.9970257408783
20
32.1648570156274
30
0
41
1
10
69.9938567437524
20
32.1415749976983
30
0
41
1
10
69.9795589487909
20
32.0875075865427
30
0
41
1
10
69.9654981180153
20
32.0570288711313
30
0
41
1
10
69.9480487400853
20
32.0292850017021
30
0
0
SPLINE
5
20B
100
AcDbEntity
8
1
62
256
6
ByLayer
370
13
48
1
60
0
100
AcDbSpline
70
4
71
3
72
16
73
12
40
0
40
0
40
0
40
0
40
0.113631665737396
40
0.113631665737396
40
0.758132216188138
40
0.758132216188138
40
0.942823120098959
40
0.942823120098959
40
0.947778003019264
40
0.947778003019264
40
1
40
1
40
1
40
1
41
1
10
68.2112677608007
20
32.2505140656763
30
0
41
1
10
68.2332807942052
20
32.2435099968154
30
0
41
1
10
68.2554088133189
20
32.2368573490439
30
0
41
1
10
68.4026697940168
20
32.1951695709074
30
0
41
1
10
68.5333481685156
20
32.172427181438
30
0
41
1
10
68.7009734748332
20
32.1739117142033
30
0
41
1
10
68.7386296238165
20
32.1757179496406
30
0
41
1
10
68.7773004835499
20
32.177096104408
30
0
41
1
10
68.7783108496887
20
32.1771321217414
30
0
41
1
10
68.7899699703881
20
32.1775477649481
30
0
41
1
10
68.80061882194
20
32.1779246783142
30
0
41
1
10
68.8112677608007
20
32.1782990987161
30
0
0
SPLINE
5
20C
100
AcDbEntity
8
1
62
256
6
ByLayer
370
13
48
1
60
0
100
AcDbSpline
70
4
71
3
72
10
73
6
40
0
40
0
40
0
40
0
40
0.41187861913105
40
0.41187861913105
40
1
40
1
40
1
40
1
41
1
10
69.9970257408783
20
33.812034478469
30
0
41
1
10
69.9970257408783
20
33.8351429843729
30
0
41
1
10
69.9938567437524
20
33.8584250023019
30
0
41
1
10
69.9795589487909
20
33.9124924134576
30
0
41
1
10
69.9654981180153
20
33.942971128869
30
0
41
1
10
69.9480487400853
20
33.9707149982982
30
0
0
SPLINE
5
20D
100
AcDbEntity
8
1
62
256
6
ByLayer
370
13
48
1
60
0
100
AcDbSpline
70
4
71
3
72
8
73
4
40
0
40
0
40
0
40
0
40
1
40
1
40
1
40
1
41
1
10
69.948048740085
20
33.9707149982982
30
0
41
1
10
69.9406964490064
20
33.9800668963204
30
0
41
1
10
69.9332455329699
20
33.989315374303
30
0
41
1
10
69.9256851850747
20
33.9984106069236
30
0
0
SPLINE
5
20E
100
AcDbEntity
8
1
62
256
6
ByLayer
370
13
48
1
60
0
100
AcDbSpline
70
4
71
3
72
8
73
4
40
0
40
0
40
0
40
0
40
1
40
1
40
1
40
1
41
1
10
69.948048740085
20
32.0292850017021
30
0
41
1
10
69.9406964490064
20
32.0199331036799
30
0
41
1
10
69.9332455329699
20
32.0106846256973
30
0
41
1
10
69.9256851850747
20
32.0015893930766
30
0
0
SPLINE
5
20F
100
AcDbEntity
8
1
62
256
6
ByLayer
370
18
48
1
60
0
100
AcDbSpline
70
4
71
3
72
10
73
6
40
0
40
0
40
0
40
0
40
0.212779332486298
40
0.212779332486298
40
1
40
1
40
1
40
1
41
1
10
58.1869028690682
20
31.322158536648
30
0
41
1
10
58.1947459125518
20
31.3189557625783
30
0
41
1
10
58.2026693586331
20
31.3161054525456
30
0
41
1
10
58.2401025194281
20
31.3044222746475
30
0
41
1
10
58.2706763772595
20
31.3000000000002
30
0
41
1
10
58.3
20
31.3000000000002
30
0
0
SPLINE
5
210
100
AcDbEntity
8
1
62
256
6
ByLayer
370
18
48
1
60
0
100
AcDbSpline
70
4
71
3
72
10
73
6
40
0
40
0
40
0
40
0
40
0.826582342135604
40
0.826582342135604
40
1
40
1
40
1
40
1
41
1
10
58.3
20
34.7000000000002
30
0
41
1
10
58.269042764099
20
34.7000000000002
30
0
41
1
10
58.236660104769
20
34.6950532276327
30
0
41
1
10
58.1991341599142
20
34.6826180534376
30
0
41
1
10
58.1926581551495
20
34.6802151849031
30
0
41
1
10
58.1862348207101
20
34.67757314488
30
0
0
SPLINE
5
211
100
AcDbEntity
8
1
62
256
6
ByLayer
370
13
48
1
60
0
100
AcDbSpline
70
4
71
3
72
12
73
8
40
0
40
0
40
0
40
0
40
0.39010501540954
40
0.39010501540954
40
0.395238792461496
40
0.395238792461496
40
1
40
1
40
1
40
1
41
1
10
68.8112677608007
20
32.1782990987161
30
0
41
1
10
68.893013189497
20
32.1804068437436
30
0
41
1
10
68.9750694911573
20
32.1808175959688
30
0
41
1
10
69.0568134956409
20
32.1811030977614
30
0
41
1
10
69.057878637216
20
32.1811067044705
30
0
41
1
10
69.1833815366516
20
32.1815182763487
30
0
41
1
10
69.3061458913858
20
32.1804143576167
30
0
41
1
10
69.4213727254144
20
32.177279517764
30
0
0
SPLINE
5
212
100
AcDbEntity
8
1
62
256
6
ByLayer
370
13
48
1
60
0
100
AcDbSpline
70
4
71
3
72
12
73
8
40
0
40
0
40
0
40
0
40
0.39010501540954
40
0.39010501540954
40
0.395238792461496
40
0.395238792461496
40
1
40
1
40
1
40
1
41
1
10
68.8112677608007
20
33.8217009012842
30
0
41
1
10
68.893013189497
20
33.8195931562567
30
0
41
1
10
68.9750694911573
20
33.8191824040315
30
0
41
1
10
69.0568134956409
20
33.8188969022389
30
0
41
1
10
69.057878637216
20
33.8188932955298
30
0
41
1
10
69.1833815366516
20
33.8184817236516
30
0
41
1
10
69.3061458913858
20
33.8195856423835
30
0
41
1
10
69.4213727254144
20
33.8227204822362
30
0
0
SPLINE
5
213
100
AcDbEntity
8
1
62
256
6
ByLayer
370
13
48
1
60
0
100
AcDbSpline
70
4
71
3
72
8
73
4
40
0
40
0
40
0
40
0
40
1
40
1
40
1
40
1
41
1
10
60.0740397982514
20
34.6749990000002
30
0
41
1
10
60.074039802612
20
34.6833326666668
30
0
41
1
10
60.0740398069724
20
34.6916663333335
30
0
41
1
10
60.0740398113324
20
34.7000000000002
30
0
0
SPLINE
5
214
100
AcDbEntity
8
1
62
256
6
ByLayer
370
13
48
1
60
0
100
AcDbSpline
70
4
71
3
72
8
73
4
40
0
40
0
40
0
40
0
40
1
40
1
40
1
40
1
41
1
10
60.0740398113324
20
31.3000000000002
30
0
41
1
10
60.0740398069724
20
31.3083336666668
30
0
41
1
10
60.0740398026121
20
31.3166673333334
30
0
41
1
10
60.0740397982514
20
31.3250010000002
30
0
0
SPLINE
5
215
100
AcDbEntity
8
1
62
256
6
ByLayer
370
18
48
1
60
0
100
AcDbSpline
70
4
71
3
72
12
73
8
40
0
40
0
40
0
40
0
40
0.42509336529619
40
0.42509336529619
40
0.63310712595513
40
0.63310712595513
40
1
40
1
40
1
40
1
41
1
10
68.2587805434612
20
34.902436382493
30
0
41
1
10
68.0933804472914
20
34.8907918850477
30
0
41
1
10
67.9253561091228
20
34.881698603774
30
0
41
1
10
67.6910861495543
20
34.8730771492939
30
0
41
1
10
67.6154780531596
20
34.8709916057954
30
0
41
1
10
67.4170751815051
20
34.8674862722569
30
0
41
1
10
67.2995633762627
20
34.867742425282
30
0
41
1
10
67.1981203716822
20
34.8704588768675
30
0
0
SPLINE
5
216
100
AcDbEntity
8
1
62
256
6
ByLayer
370
18
48
1
60
0
100
AcDbSpline
70
4
71
3
72
16
73
12
40
0
40
0
40
0
40
0
40
0.211361443762593
40
0.211361443762593
40
0.422716290819052
40
0.422716290819052
40
0.633949151070055
40
0.633949151070055
40
0.842299705561758
40
0.842299705561758
40
1
40
1
40
1
40
1
41
1
10
70.0060954592073
20
34.705218037006
30
0
41
1
10
70.0063878799804
20
34.7397896236109
30
0
41
1
10
70.0007247736217
20
34.7748351991538
30
0
41
1
10
69.9784973461868
20
34.8400760142522
30
0
41
1
10
69.9616237145543
20
34.8711790779458
30
0
41
1
10
69.9190960738524
20
34.9251223391761
30
0
41
1
10
69.8928432477739
20
34.9487225072026
30
0
41
1
10
69.8350670289677
20
34.9847717786454
30
0
41
1
10
69.8027995289617
20
34.9978683053975
30
0
41
1
10
69.744484454926
20
35.0102851753877
30
0
41
1
10
69.7183039576486
20
35.0122877263325
30
0
41
1
10
69.6925195383577
20
35.0107801169415
30
0
0
SPLINE
5
217
100
AcDbEntity
8
1
62
256
6
ByLayer
370
18
48
1
60
0
100
AcDbSpline
70
4
71
1
72
4
73
2
40
0
40
0
40
1
40
1
41
1
10
62.9844087821128
20
34.7000000000002
30
0
41
1
10
63.0940255880445
20
34.7000000000002
30
0
0
SPLINE
5
218
100
AcDbEntity
8
1
62
256
6
ByLayer
370
18
48
1
60
0
100
AcDbSpline
70
4
71
3
72
8
73
4
40
0
40
0
40
0
40
0
40
1
40
1
40
1
40
1
41
1
10
68.7587805434612
20
31.0623626178856
30
0
41
1
10
68.8751145296814
20
31.0541724726758
30
0
41
1
10
68.9917705115931
20
31.0449655841856
30
0
41
1
10
69.1060768987951
20
31.0349594918012
30
0
0
SPLINE
5
219
100
AcDbEntity
8
1
62
256
6
ByLayer
370
18
48
1
60
0
100
AcDbSpline
70
4
71
3
72
16
73
12
40
0
40
0
40
0
40
0
40
0.0242700150297651
40
0.102166917963448
40
0.111904030830159
40
0.121641143696869
40
0.14111536943029
40
0.180063820897132
40
0.491651432631865
40
0.803239044366599
40
1
40
1
40
1
40
1
41
1
10
58.3000000000001
20
34.7000000000002
30
0
41
1
10
58.3175211413097
20
34.7000000000002
30
0
41
1
10
58.3900833075675
20
34.7000000000002
30
0
41
1
10
58.4626446860047
20
34.7000000000002
30
0
41
1
10
58.5180702984968
20
34.7000000000002
30
0
41
1
10
58.5396427111087
20
34.7000000000002
30
0
41
1
10
58.5778907405698
20
34.7000000000002
30
0
41
1
10
58.7846982842063
20
34.7000000000002
30
0
41
1
10
59.1552730786467
20
34.7000000000002
30
0
41
1
10
59.6138938508501
20
34.7000000000002
30
0
41
1
10
59.898257245122
20
34.7000000000002
30
0
41
1
10
60.0083240825036
20
34.7000000000002
30
0
0
SPLINE
5
21A
100
AcDbEntity
8
1
62
256
6
ByLayer
370
18
48
1
60
0
100
AcDbSpline
70
4
71
3
72
14
73
10
40
0
40
0
40
0
40
0
40
0.208299027735494
40
0.208299027735494
40
0.416431647973881
40
0.416431647973881
40
0.624564826978372
40
0.624564826978372
40
1
40
1
40
1
40
1
41
1
10
67.1981203716814
20
31.1295411231319
30
0
41
1
10
67.2559629158583
20
31.1310900369431
30
0
41
1
10
67.3188120459094
20
31.1318468746209
30
0
41
1
10
67.4519206443794
20
31.1317399337861
30
0
41
1
10
67.5226293120466
20
31.1308770442963
30
0
41
1
10
67.6695068973413
20
31.1275660192904
30
0
41
1
10
67.7461789808539
20
31.1251065372417
30
0
41
1
10
67.964710197824
20
31.1161450693735
30
0
41
1
10
68.1126668962909
20
31.1078503103855
30
0
41
1
10
68.25878054346
20
31.0975636175081
30
0
0
SPLINE
5
21B
100
AcDbEntity
8
1
62
256
6
ByLayer
370
18
48
1
60
0
100
AcDbSpline
70
4
71
2
72
10
73
7
40
0
40
0
40
0
40
0.5
40
0.5
40
0.75
40
0.75
40
1
40
1
40
1
41
1
10
63.0940266122166
20
34.7000000000002
30
0
41
1
10
63.8688503473981
20
34.7000000000002
30
0
41
1
10
64.0758320680384
20
34.7000000000002
30
0
41
1
10
64.2915714682634
20
34.7000000000002
30
0
41
1
10
64.3462315780004
20
34.7000000000002
30
0
41
1
10
64.4870084597082
20
34.7000000000002
30
0
41
1
10
64.5949355904579
20
34.7000000000002
30
0
0
SPLINE
5
21C
100
AcDbEntity
8
1
62
256
6
ByLayer
370
18
48
1
60
0
100
AcDbSpline
70
4
71
3
72
8
73
4
40
0
40
0
40
0
40
0
40
1
40
1
40
1
40
1
41
1
10
66.2850221920129
20
34.8254089580134
30
0
41
1
10
66.2448570829341
20
34.8167165987717
30
0
41
1
10
66.2055404050446
20
34.8018085336812
30
0
41
1
10
66.1699547982734
20
34.7817732199671
30
0
0
SPLINE
5
21D
100
AcDbEntity
8
1
62
256
6
ByLayer
370
18
48
1
60
0
100
AcDbSpline
70
4
71
3
72
8
73
4
40
0
40
0
40
0
40
0
40
1
40
1
40
1
40
1
41
1
10
69.1060768987951
20
34.9650405081991
30
0
41
1
10
68.9917705115931
20
34.9550344158147
30
0
41
1
10
68.8751145296814
20
34.9458275273245
30
0
41
1
10
68.7587805434612
20
34.9376373821146
30
0
0
SPLINE
5
21E
100
AcDbEntity
8
1
62
256
6
ByLayer
370
18
48
1
60
0
100
AcDbSpline
70
4
71
3
72
10
73
6
40
0
40
0
40
0
40
0
40
0.658092800347461
40
0.658092800347461
40
1
40
1
40
1
40
1
41
1
10
66.0726381143077
20
31.2724076789234
30
0
41
1
10
66.0503265951328
20
31.2846868238083
30
0
41
1
10
66.0257492517908
20
31.2928596164771
30
0
41
1
10
65.9885109918381
20
31.2989829694594
30
0
41
1
10
65.9755836924547
20
31.3000000000002
30
0
41
1
10
65.9628139582057
20
31.3000000000002
30
0
0
SPLINE
5
21F
100
AcDbEntity
8
1
62
256
6
ByLayer
370
18
48
1
60
0
100
AcDbSpline
70
4
71
3
72
8
73
4
40
0
40
0
40
0
40
0
40
1
40
1
40
1
40
1
41
1
10
66.1699547982735
20
31.2182267800332
30
0
41
1
10
66.2055404050452
20
31.1981914663188
30
0
41
1
10
66.2448570829353
20
31.1832834012281
30
0
41
1
10
66.2850221920149
20
31.1745910419865
30
0
0
SPLINE
5
220
100
AcDbEntity
8
1
62
256
6
ByLayer
370
18
48
1
60
0
100
AcDbSpline
70
4
71
3
72
8
73
4
40
0
40
0
40
0
40
0
40
1
40
1
40
1
40
1
41
1
10
60.2733329548635
20
34.7000000000002
30
0
41
1
10
60.2172122447481
20
34.7000000000002
30
0
41
1
10
60.1492738322751
20
34.7000000000002
30
0
41
1
10
60.0740398113323
20
34.7000000000002
30
0
0
SPLINE
5
221
100
AcDbEntity
8
1
62
256
6
ByLayer
370
18
48
1
60
0
100
AcDbSpline
70
4
71
3
72
16
73
12
40
0
40
0
40
0
40
0
40
0.201783384736309
40
0.201783384736309
40
0.40337786454364
40
0.40337786454364
40
0.60783295932887
40
0.60783295932887
40
0.816478248424763
40
0.816478248424763
40
1
40
1
40
1
40
1
41
1
10
69.6925195383577
20
30.9892198830588
30
0
41
1
10
69.7253231085993
20
30.9873018654375
30
0
41
1
10
69.7588610300668
20
30.9911220182909
30
0
41
1
10
69.8217991281964
20
31.0094229065535
30
0
41
1
10
69.8520629393796
20
31.0241343966537
30
0
41
1
10
69.9058024815465
20
31.0623856689246
30
0
41
1
10
69.9299089005271
20
31.0865585857435
30
0
41
1
10
69.9688991836
20
31.1412984155763
30
0
41
1
10
69.9841231155447
20
31.1727333258232
30
0
41
1
10
70.0021136288159
20
31.2342320829985
30
0
41
1
10
70.0063502038844
20
31.2646646509721
30
0
41
1
10
70.0060954592073
20
31.2947819629943
30
0
0
SPLINE
5
222
100
AcDbEntity
8
1
62
256
6
ByLayer
370
18
48
1
60
0
100
AcDbSpline
70
4
71
3
72
10
73
6
40
0
40
0
40
0
40
0
40
0.67805397343686
40
0.67805397343686
40
1
40
1
40
1
40
1
41
1
10
65.9628139582057
20
34.7000000000002
30
0
41
1
10
65.9878743353473
20
34.7000000000002
30
0
41
1
10
66.0137719550683
20
34.7039984436643
30
0
41
1
10
66.0500459353043
20
34.7164431130584
30
0
41
1
10
66.0616013632273
20
34.7215182449655
30
0
41
1
10
66.0726381143082
20
34.7275923210747
30
0
0
LINE
5
70
100
AcDbEntity
8
1
62
256
6
ByLayer
370
13
48
1
60
0
100
AcDbLine
10
0.3
20
-25
30
0
11
20.02334
21
-25
31
0
39
0
210
0
220
0
230
1
0
LINE
5
72
100
AcDbEntity
8
1
62
256
6
ByLayer
370
13
48
1
60
0
100
AcDbLine
10
20.279208
20
25
30
0
11
0.3
21
25
31
0
39
0
210
0
220
0
230
1
0
LINE
5
73
100
AcDbEntity
8
1
62
256
6
ByLayer
370
13
48
1
60
0
100
AcDbLine
10
0.3
20
25
30
0
11
0
21
24.7
31
0
39
0
210
0
220
0
230
1
0
LINE
5
74
100
AcDbEntity
8
1
62
256
6
ByLayer
370
13
48
1
60
0
100
AcDbLine
10
0
20
-24.7
30
0
11
0.3
21
-25
31
0
39
0
210
0
220
0
230
1
0
LINE
5
75
100
AcDbEntity
8
1
62
256
6
ByLayer
370
13
48
1
60
0
100
AcDbLine
10
23.792408
20
34.675
30
0
11
21.438319
21
25.889417
31
0
39
0
210
0
220
0
230
1
0
LINE
5
76
100
AcDbEntity
8
80
62
256
6
ByLayer
370
18
48
1
60
0
100
AcDbLine
10
0
20
0
30
0
11
-5
21
0
31
0
39
0
210
0
220
0
230
1
0
LINE
5
77
100
AcDbEntity
8
81
62
256
6
ByLayer
370
18
48
1
60
0
100
AcDbLine
10
70
20
35
30
0
11
75
21
35
31
0
39
0
210
0
220
0
230
1
0
LINE
5
78
100
AcDbEntity
8
SK1
62
256
6
ByLayer
370
13
48
1
60
0
100
AcDbLine
10
-0.194977
20
17.369987
30
0
11
-0.194977
21
17.365289
31
0
39
0
210
0
220
0
230
1
0
LINE
5
7A
100
AcDbEntity
8
SK1
62
256
6
ByLayer
370
13
48
1
60
0
100
AcDbLine
10
-1.79504
20
17.330272
30
0
11
-1.79504
21
17.325755
31
0
39
0
210
0
220
0
230
1
0
LINE
5
7B
100
AcDbEntity
8
SK1
62
256
6
ByLayer
370
13
48
1
60
0
100
AcDbLine
10
-1.79504
20
-17.325755
30
0
11
-1.79504
21
-17.330272
31
0
39
0
210
0
220
0
230
1
0
LINE
5
7C
100
AcDbEntity
8
SK1
62
256
6
ByLayer
370
13
48
1
60
0
100
AcDbLine
10
-1.315435
20
-3.910269
30
0
11
-1.315435
21
3.910272
31
0
39
0
210
0
220
0
230
1
0
LINE
5
7D
100
AcDbEntity
8
SK1
62
256
6
ByLayer
370
13
48
1
60
0
100
AcDbLine
10
-0.194977
20
-17.36529
30
0
11
-0.194977
21
-17.369987
31
0
39
0
210
0
220
0
230
1
0
LINE
5
7E
100
AcDbEntity
8
1
62
256
6
ByLayer
370
13
48
1
60
0
100
AcDbLine
10
45.9
20
34.675
30
0
11
53.273801
21
34.675
31
0
39
0
210
0
220
0
230
1
0
LINE
5
7F
100
AcDbEntity
8
1
62
256
6
ByLayer
370
13
48
1
60
0
100
AcDbLine
10
34.548567
20
-10.5
30
0
11
36.4
21
0
31
0
39
0
210
0
220
0
230
1
0
LINE
5
80
100
AcDbEntity
8
1
62
256
6
ByLayer
370
13
48
1
60
0
100
AcDbLine
10
38.200279
20
34.675
30
0
11
38.200279
21
31.325
31
0
39
0
210
0
220
0
230
1
0
LINE
5
81
100
AcDbEntity
8
1
62
256
6
ByLayer
370
13
48
1
60
0
100
AcDbLine
10
38.200279
20
31.325
30
0
11
38
21
31.325
31
0
39
0
210
0
220
0
230
1
0
LINE
5
82
100
AcDbEntity
8
1
62
256
6
ByLayer
370
13
48
1
60
0
100
AcDbLine
10
58.273801
20
34.675
30
0
11
64.155966
21
34.675
31
0
39
0
210
0
220
0
230
1
0
LINE
5
83
100
AcDbEntity
8
1
62
256
6
ByLayer
370
13
48
1
60
0
100
AcDbLine
10
45.9
20
31.325
30
0
11
38.200279
21
31.325
31
0
39
0
210
0
220
0
230
1
0
LINE
5
84
100
AcDbEntity
8
1
62
256
6
ByLayer
370
13
48
1
60
0
100
AcDbLine
10
64.301732
20
32.314095
30
0
11
64.301732
21
33.685905
31
0
39
0
210
0
220
0
230
1
0
LINE
5
85
100
AcDbEntity
8
1
62
256
6
ByLayer
370
13
48
1
60
0
100
AcDbLine
10
36.4
20
29.725
30
0
11
36.4
21
0
31
0
39
0
210
0
220
0
230
1
0
LINE
5
86
100
AcDbEntity
8
1
62
256
6
ByLayer
370
13
48
1
60
0
100
AcDbLine
10
24.115124
20
32.848054
30
0
11
23.549204
21
32.848054
31
0
39
0
210
0
220
0
230
1
0
LINE
5
87
100
AcDbEntity
8
1
62
256
6
ByLayer
370
13
48
1
60
0
100
AcDbLine
10
24.115124
20
-10.5
30
0
11
34.548567
21
-10.5
31
0
39
0
210
0
220
0
230
1
0
LINE
5
88
100
AcDbEntity
8
1
62
256
6
ByLayer
370
13
48
1
60
0
100
AcDbLine
10
45.9
20
31.325
30
0
11
45.9
21
34.675
31
0
39
0
210
0
220
0
230
1
0
LINE
5
89
100
AcDbEntity
8
1
62
256
6
ByLayer
370
13
48
1
60
0
100
AcDbLine
10
53.273801
20
34.675
30
0
11
53.273801
21
31.325
31
0
39
0
210
0
220
0
230
1
0
LINE
5
8A
100
AcDbEntity
8
1
62
256
6
ByLayer
370
13
48
1
60
0
100
AcDbLine
10
64.155966
20
34.675
30
0
11
64.301732
21
34.20034
31
0
39
0
210
0
220
0
230
1
0
LINE
5
8B
100
AcDbEntity
8
1
62
256
6
ByLayer
370
13
48
1
60
0
100
AcDbLine
10
11.461325
20
7.529667
30
0
11
11.461325
21
23.83913
31
0
39
0
210
0
220
0
230
1
0
LINE
5
8C
100
AcDbEntity
8
1
62
256
6
ByLayer
370
13
48
1
60
0
100
AcDbLine
10
53.273801
20
31.325
30
0
11
45.9
21
31.325
31
0
39
0
210
0
220
0
230
1
0
LINE
5
8D
100
AcDbEntity
8
1
62
256
6
ByLayer
370
13
48
1
60
0
100
AcDbLine
10
11.461325
20
7.529667
30
0
11
8.538675
21
7.529667
31
0
39
0
210
0
220
0
230
1
0
LINE
5
8E
100
AcDbEntity
8
1
62
256
6
ByLayer
370
13
48
1
60
0
100
AcDbLine
10
8.538675
20
23.83913
30
0
11
11.461325
21
23.83913
31
0
39
0
210
0
220
0
230
1
0
LINE
5
8F
100
AcDbEntity
8
1
62
256
6
ByLayer
370
13
48
1
60
0
100
AcDbLine
10
8.105662
20
8.055848
30
0
11
8.105662
21
23.666502
31
0
39
0
210
0
220
0
230
1
0
LINE
5
90
100
AcDbEntity
8
1
62
256
6
ByLayer
370
13
48
1
60
0
100
AcDbLine
10
64.301732
20
31.79966
30
0
11
64.155966
21
31.325
31
0
39
0
210
0
220
0
230
1
0
LINE
5
91
100
AcDbEntity
8
1
62
256
6
ByLayer
370
13
48
1
60
0
100
AcDbLine
10
38.200279
20
34.675
30
0
11
45.9
21
34.675
31
0
39
0
210
0
220
0
230
1
0
LINE
5
92
100
AcDbEntity
8
1
62
256
6
ByLayer
370
13
48
1
60
0
100
AcDbLine
10
0
20
24.7
30
0
11
0
21
-24.7
31
0
39
0
210
0
220
0
230
1
0
LINE
5
93
100
AcDbEntity
8
1
62
256
6
ByLayer
370
13
48
1
60
0
100
AcDbLine
10
8.105662
20
-23.666502
30
0
11
8.105662
21
-8.055848
31
0
39
0
210
0
220
0
230
1
0
LINE
5
94
100
AcDbEntity
8
1
62
256
6
ByLayer
370
13
48
1
60
0
100
AcDbLine
10
11.461325
20
-23.83913
30
0
11
8.538675
21
-23.83913
31
0
39
0
210
0
220
0
230
1
0
LINE
5
95
100
AcDbEntity
8
1
62
256
6
ByLayer
370
13
48
1
60
0
100
AcDbLine
10
11.894338
20
-23.666502
30
0
11
11.894338
21
-8.055848
31
0
39
0
210
0
220
0
230
1
0
LINE
5
96
100
AcDbEntity
8
1
62
256
6
ByLayer
370
13
48
1
60
0
100
AcDbLine
10
53.273801
20
31.325
30
0
11
58.273801
21
31.325
31
0
39
0
210
0
220
0
230
1
0
LINE
5
97
100
AcDbEntity
8
1
62
256
6
ByLayer
370
13
48
1
60
0
100
AcDbLine
10
20.076013
20
-18.964249
30
0
11
20.02334
21
-25
31
0
39
0
210
0
220
0
230
1
0
LINE
5
98
100
AcDbEntity
8
1
62
256
6
ByLayer
370
13
48
1
60
0
100
AcDbLine
10
38.200279
20
34.675
30
0
11
24.026081
21
34.675
31
0
39
0
210
0
220
0
230
1
0
LINE
5
99
100
AcDbEntity
8
1
62
256
6
ByLayer
370
13
48
1
60
0
100
AcDbLine
10
20.279208
20
25
30
0
11
20.279208
21
22.598428
31
0
39
0
210
0
220
0
230
1
0
LINE
5
9A
100
AcDbEntity
8
1
62
256
6
ByLayer
370
13
48
1
60
0
100
AcDbLine
10
53.273801
20
34.675
30
0
11
58.273801
21
34.675
31
0
39
0
210
0
220
0
230
1
0
LINE
5
9B
100
AcDbEntity
8
1
62
256
6
ByLayer
370
13
48
1
60
0
100
AcDbLine
10
20.115276
20
22.044975
30
0
11
20.115276
21
-14.465094
31
0
39
0
210
0
220
0
230
1
0
LINE
5
9C
100
AcDbEntity
8
1
62
256
6
ByLayer
370
13
48
1
60
0
100
AcDbLine
10
8.538675
20
7.529667
30
0
11
8.538675
21
23.83913
31
0
39
0
210
0
220
0
230
1
0
LINE
5
9D
100
AcDbEntity
8
1
62
256
6
ByLayer
370
13
48
1
60
0
100
AcDbLine
10
58.273801
20
31.325
30
0
11
64.155966
21
31.325
31
0
39
0
210
0
220
0
230
1
0
LINE
5
9E
100
AcDbEntity
8
1
62
256
6
ByLayer
370
13
48
1
60
0
100
AcDbLine
10
8.538675
20
-23.83913
30
0
11
8.538675
21
-7.529667
31
0
39
0
210
0
220
0
230
1
0
LINE
5
9F
100
AcDbEntity
8
1
62
256
6
ByLayer
370
13
48
1
60
0
100
AcDbLine
10
20.076013
20
-18.964249
30
0
11
20.115276
21
-14.465094
31
0
39
0
210
0
220
0
230
1
0
LINE
5
A0
100
AcDbEntity
8
1
62
256
6
ByLayer
370
13
48
1
60
0
100
AcDbLine
10
11.894338
20
8.055848
30
0
11
11.894338
21
23.666502
31
0
39
0
210
0
220
0
230
1
0
LINE
5
A1
100
AcDbEntity
8
1
62
256
6
ByLayer
370
13
48
1
60
0
100
AcDbLine
10
0.3
20
25
30
0
11
0.3
21
-25
31
0
39
0
210
0
220
0
230
1
0
LINE
5
A2
100
AcDbEntity
8
1
62
256
6
ByLayer
370
13
48
1
60
0
100
AcDbLine
10
21.438319
20
25.889417
30
0
11
21.438319
21
24.328635
31
0
39
0
210
0
220
0
230
1
0
LINE
5
A3
100
AcDbEntity
8
1
62
256
6
ByLayer
370
13
48
1
60
0
100
AcDbLine
10
8.538675
20
-7.529667
30
0
11
11.461325
21
-7.529667
31
0
39
0
210
0
220
0
230
1
0
LINE
5
A4
100
AcDbEntity
8
1
62
256
6
ByLayer
370
13
48
1
60
0
100
AcDbLine
10
24.115124
20
-10.5
30
0
11
24.115124
21
32.848054
31
0
39
0
210
0
220
0
230
1
0
LINE
5
A5
100
AcDbEntity
8
1
62
256
6
ByLayer
370
13
48
1
60
0
100
AcDbLine
10
11.461325
20
-23.83913
30
0
11
11.461325
21
-7.529667
31
0
39
0
210
0
220
0
230
1
0
LINE
5
A6
100
AcDbEntity
8
1
62
256
6
ByLayer
370
13
48
1
60
0
100
AcDbLine
10
58.273801
20
31.325
30
0
11
58.273801
21
34.675
31
0
39
0
210
0
220
0
230
1
0
LINE
5
A7
100
AcDbEntity
8
1
62
256
6
ByLayer
370
13
48
1
60
0
100
AcDbLine
10
64.301732
20
31.79966
30
0
11
64.301732
21
32.314095
31
0
39
0
210
0
220
0
230
1
0
LINE
5
A8
100
AcDbEntity
8
1
62
256
6
ByLayer
370
13
48
1
60
0
100
AcDbLine
10
64.301732
20
33.685905
30
0
11
64.301732
21
34.20034
31
0
39
0
210
0
220
0
230
1
0
LINE
5
A9
100
AcDbEntity
8
1
62
256
6
ByLayer
370
13
48
1
60
0
100
AcDbLine
10
65.153178
20
33.695388
30
0
11
66.861239
21
33.695388
31
0
39
0
210
0
220
0
230
1
0
LINE
5
AA
100
AcDbEntity
8
1
62
256
6
ByLayer
370
13
48
1
60
0
100
AcDbLine
10
65.153178
20
32.304612
30
0
11
66.861239
21
32.304612
31
0
39
0
210
0
220
0
230
1
0
LINE
5
AB
100
AcDbEntity
8
1
62
256
6
ByLayer
370
13
48
1
60
0
100
AcDbLine
10
65.153178
20
33.695388
30
0
11
65.372244
21
33.741052
31
0
39
0
210
0
220
0
230
1
0
LINE
5
AC
100
AcDbEntity
8
1
62
256
6
ByLayer
370
13
48
1
60
0
100
AcDbLine
10
66.290882
20
33.770663
30
0
11
66.611711
21
33.79094
31
0
39
0
210
0
220
0
230
1
0
LINE
5
AD
100
AcDbEntity
8
1
62
256
6
ByLayer
370
13
48
1
60
0
100
AcDbLine
10
66.611711
20
32.20906
30
0
11
66.290882
21
32.229337
31
0
39
0
210
0
220
0
230
1
0
LINE
5
AE
100
AcDbEntity
8
1
62
256
6
ByLayer
370
13
48
1
60
0
100
AcDbLine
10
65.372244
20
32.258948
30
0
11
65.153178
21
32.304612
31
0
39
0
210
0
220
0
230
1
0
LINE
5
AF
100
AcDbEntity
8
1
62
256
6
ByLayer
370
13
48
1
60
0
100
AcDbLine
10
64.594883
20
31.441479
30
0
11
64.594883
21
31.3
31
0
39
0
210
0
220
0
230
1
0
LINE
5
B0
100
AcDbEntity
8
1
62
256
6
ByLayer
370
13
48
1
60
0
100
AcDbLine
10
64.594883
20
34.7
30
0
11
64.594883
21
34.558521
31
0
39
0
210
0
220
0
230
1
0
LINE
5
B1
100
AcDbEntity
8
1
62
256
6
ByLayer
370
13
48
1
60
0
100
AcDbLine
10
65.332182
20
34.7
30
0
11
65.332182
21
33.83377
31
0
39
0
210
0
220
0
230
1
0
LINE
5
B2
100
AcDbEntity
8
1
62
256
6
ByLayer
370
13
48
1
60
0
100
AcDbLine
10
65.962511
20
34.7
30
0
11
65.962511
21
33.867234
31
0
39
0
210
0
220
0
230
1
0
LINE
5
B3
100
AcDbEntity
8
1
62
256
6
ByLayer
370
13
48
1
60
0
100
AcDbLine
10
65.332182
20
31.3
30
0
11
65.332182
21
32.16623
31
0
39
0
210
0
220
0
230
1
0
LINE
5
B4
100
AcDbEntity
8
1
62
256
6
ByLayer
370
13
48
1
60
0
100
AcDbLine
10
65.962511
20
32.132766
30
0
11
65.962511
21
31.3
31
0
39
0
210
0
220
0
230
1
0
LINE
5
B5
100
AcDbEntity
8
1
62
256
6
ByLayer
370
13
48
1
60
0
100
AcDbLine
10
66.285022
20
31.174591
30
0
11
66.285022
21
32.136619
31
0
39
0
210
0
220
0
230
1
0
LINE
5
B6
100
AcDbEntity
8
1
62
256
6
ByLayer
370
13
48
1
60
0
100
AcDbLine
10
66.285022
20
32.136619
30
0
11
66.605851
21
32.116341
31
0
39
0
210
0
220
0
230
1
0
LINE
5
B7
100
AcDbEntity
8
1
62
256
6
ByLayer
370
13
48
1
60
0
100
AcDbLine
10
66.856902
20
31.130509
30
0
11
66.802267
21
31.911831
31
0
39
0
210
0
220
0
230
1
0
LINE
5
B8
100
AcDbEntity
8
1
62
256
6
ByLayer
370
13
48
1
60
0
100
AcDbLine
10
66.856902
20
34.869491
30
0
11
66.802267
21
34.088169
31
0
39
0
210
0
220
0
230
1
0
LINE
5
B9
100
AcDbEntity
8
1
62
256
6
ByLayer
370
13
48
1
60
0
100
AcDbLine
10
66.605851
20
33.883659
30
0
11
66.285022
21
33.863381
31
0
39
0
210
0
220
0
230
1
0
LINE
5
BA
100
AcDbEntity
8
1
62
256
6
ByLayer
370
13
48
1
60
0
100
AcDbLine
10
66.285022
20
33.863381
30
0
11
66.285022
21
34.825409
31
0
39
0
210
0
220
0
230
1
0
LINE
5
BB
100
AcDbEntity
8
1
62
256
6
ByLayer
370
13
48
1
60
0
100
AcDbLine
10
66.285022
20
32.136619
30
0
11
66.290882
21
32.229337
31
0
39
0
210
0
220
0
230
1
0
LINE
5
BC
100
AcDbEntity
8
1
62
256
6
ByLayer
370
13
48
1
60
0
100
AcDbLine
10
66.290882
20
33.770663
30
0
11
66.285022
21
33.863381
31
0
39
0
210
0
220
0
230
1
0
LINE
5
BD
100
AcDbEntity
8
1
62
256
6
ByLayer
370
13
48
1
60
0
100
AcDbLine
10
66.611711
20
33.79094
30
0
11
66.605851
21
33.883659
31
0
39
0
210
0
220
0
230
1
0
LINE
5
BE
100
AcDbEntity
8
1
62
256
6
ByLayer
370
13
48
1
60
0
100
AcDbLine
10
66.605851
20
32.116341
30
0
11
66.611711
21
32.20906
31
0
39
0
210
0
220
0
230
1
0
LINE
5
BF
100
AcDbEntity
8
1
62
256
6
ByLayer
370
13
48
1
60
0
100
AcDbLine
10
66.978644
20
34.073191
30
0
11
67.0347
21
34.874835
31
0
39
0
210
0
220
0
230
1
0
LINE
5
C0
100
AcDbEntity
8
1
62
256
6
ByLayer
370
13
48
1
60
0
100
AcDbLine
10
66.978644
20
31.926809
30
0
11
67.0347
21
31.125165
31
0
39
0
210
0
220
0
230
1
0
LINE
5
C1
100
AcDbEntity
8
1
62
256
6
ByLayer
370
13
48
1
60
0
100
AcDbLine
10
65.113116
20
32.211894
30
0
11
65.332182
21
32.16623
31
0
39
0
210
0
220
0
230
1
0
LINE
5
C2
100
AcDbEntity
8
1
62
256
6
ByLayer
370
13
48
1
60
0
100
AcDbLine
10
64.629386
20
34.546038
30
0
11
64.629386
21
34.7
31
0
39
0
210
0
220
0
230
1
0
LINE
5
C3
100
AcDbEntity
8
1
62
256
6
ByLayer
370
13
48
1
60
0
100
AcDbLine
10
64.629386
20
31.3
30
0
11
64.629386
21
31.453962
31
0
39
0
210
0
220
0
230
1
0
LINE
5
C4
100
AcDbEntity
8
1
62
256
6
ByLayer
370
13
48
1
60
0
100
AcDbLine
10
65.332182
20
33.83377
30
0
11
65.113116
21
33.788106
31
0
39
0
210
0
220
0
230
1
0
LINE
5
C5
100
AcDbEntity
8
1
62
256
6
ByLayer
370
13
48
1
60
0
100
AcDbLine
10
67.19812
20
31.895483
30
0
11
67.19812
21
31.129541
31
0
39
0
210
0
220
0
230
1
0
LINE
5
C6
100
AcDbEntity
8
1
62
256
6
ByLayer
370
13
48
1
60
0
100
AcDbLine
10
68.258781
20
31.641153
30
0
11
68.258781
21
31.097564
31
0
39
0
210
0
220
0
230
1
0
LINE
5
C7
100
AcDbEntity
8
1
62
256
6
ByLayer
370
13
48
1
60
0
100
AcDbLine
10
68.258781
20
34.358847
30
0
11
68.258781
21
34.902436
31
0
39
0
210
0
220
0
230
1
0
LINE
5
C8
100
AcDbEntity
8
1
62
256
6
ByLayer
370
13
48
1
60
0
100
AcDbLine
10
67.19812
20
34.104517
30
0
11
67.19812
21
34.870459
31
0
39
0
210
0
220
0
230
1
0
LINE
5
C9
100
AcDbEntity
8
1
62
256
6
ByLayer
370
13
48
1
60
0
100
AcDbLine
10
68.114687
20
34.053029
30
0
11
68.211268
21
33.749486
31
0
39
0
210
0
220
0
230
1
0
LINE
5
CA
100
AcDbEntity
8
1
62
256
6
ByLayer
370
13
48
1
60
0
100
AcDbLine
10
68.114687
20
31.946971
30
0
11
68.211268
21
32.250514
31
0
39
0
210
0
220
0
230
1
0
LINE
5
CB
100
AcDbEntity
8
1
62
256
6
ByLayer
370
13
48
1
60
0
100
AcDbLine
10
68.211268
20
33.749486
30
0
11
68.211268
21
32.250514
31
0
39
0
210
0
220
0
230
1
0
LINE
5
CC
100
AcDbEntity
8
1
62
256
6
ByLayer
370
13
48
1
60
0
100
AcDbLine
10
70.000117
20
33.998411
30
0
11
69.925685
21
33.998411
31
0
39
0
210
0
220
0
230
1
0
LINE
5
CD
100
AcDbEntity
8
1
62
256
6
ByLayer
370
13
48
1
60
0
100
AcDbLine
10
69.535516
20
34.30735
30
0
11
69.535516
21
35.0016
31
0
39
0
210
0
220
0
230
1
0
LINE
5
CE
100
AcDbEntity
8
1
62
256
6
ByLayer
370
13
48
1
60
0
100
AcDbLine
10
69.535516
20
31.69265
30
0
11
69.535516
21
30.9984
31
0
39
0
210
0
220
0
230
1
0
LINE
5
CF
100
AcDbEntity
8
1
62
256
6
ByLayer
370
13
48
1
60
0
100
AcDbLine
10
70.000117
20
32.001589
30
0
11
69.925685
21
32.001589
31
0
39
0
210
0
220
0
230
1
0
LINE
5
D0
100
AcDbEntity
8
1
62
256
6
ByLayer
370
13
48
1
60
0
100
AcDbLine
10
69.46476
20
31.003561
30
0
11
69.46476
21
31.640033
31
0
39
0
210
0
220
0
230
1
0
LINE
5
D1
100
AcDbEntity
8
1
62
256
6
ByLayer
370
13
48
1
60
0
100
AcDbLine
10
69.106077
20
31.591486
30
0
11
69.106077
21
31.034959
31
0
39
0
210
0
220
0
230
1
0
LINE
5
D2
100
AcDbEntity
8
1
62
256
6
ByLayer
370
13
48
1
60
0
100
AcDbLine
10
69.46476
20
34.996439
30
0
11
69.46476
21
34.359967
31
0
39
0
210
0
220
0
230
1
0
LINE
5
D3
100
AcDbEntity
8
1
62
256
6
ByLayer
370
13
48
1
60
0
100
AcDbLine
10
69.106077
20
34.408514
30
0
11
69.106077
21
34.965041
31
0
39
0
210
0
220
0
230
1
0
LINE
5
D4
100
AcDbEntity
8
1
62
256
6
ByLayer
370
13
48
1
60
0
100
AcDbLine
10
68.758781
20
31.587946
30
0
11
68.758781
21
31.062363
31
0
39
0
210
0
220
0
230
1
0
LINE
5
D5
100
AcDbEntity
8
1
62
256
6
ByLayer
370
13
48
1
60
0
100
AcDbLine
10
68.758781
20
34.412054
30
0
11
68.758781
21
34.937637
31
0
39
0
210
0
220
0
230
1
0
LINE
5
D6
100
AcDbEntity
8
1
62
256
6
ByLayer
370
13
48
1
60
0
100
AcDbLine
10
65.350545
20
33
30
0
11
65.302842
21
33
31
0
39
0
210
0
220
0
230
1
0
LINE
5
D7
100
AcDbEntity
8
1
62
256
6
ByLayer
370
13
48
1
60
0
100
AcDbLine
10
69.944165
20
32.187966
30
0
11
69.997026
21
32.187966
31
0
39
0
210
0
220
0
230
1
0
LINE
5
D8
100
AcDbEntity
8
1
62
256
6
ByLayer
370
13
48
1
60
0
100
AcDbLine
10
68.82193
20
34.12494
30
0
11
68.811268
21
33.821701
31
0
39
0
210
0
220
0
230
1
0
LINE
5
D9
100
AcDbEntity
8
1
62
256
6
ByLayer
370
13
48
1
60
0
100
AcDbLine
10
68.82193
20
31.87506
30
0
11
68.811268
21
32.178299
31
0
39
0
210
0
220
0
230
1
0
LINE
5
DA
100
AcDbEntity
8
1
62
256
6
ByLayer
370
13
48
1
60
0
100
AcDbLine
10
69.944165
20
33.812034
30
0
11
69.997026
21
33.812034
31
0
39
0
210
0
220
0
230
1
0
LINE
5
DB
100
AcDbEntity
8
1
62
256
6
ByLayer
370
13
48
1
60
0
100
AcDbLine
10
69.948049
20
32.029285
30
0
11
70
21
32.029285
31
0
39
0
210
0
220
0
230
1
0
LINE
5
DC
100
AcDbEntity
8
1
62
256
6
ByLayer
370
13
48
1
60
0
100
AcDbLine
10
69.997026
20
32.187966
30
0
11
69.997026
21
33.812034
31
0
39
0
210
0
220
0
230
1
0
LINE
5
DD
100
AcDbEntity
8
1
62
256
6
ByLayer
370
13
48
1
60
0
100
AcDbLine
10
69.948049
20
33.970715
30
0
11
70
21
33.970715
31
0
39
0
210
0
220
0
230
1
0
LINE
5
DE
100
AcDbEntity
8
1
62
256
6
ByLayer
370
13
48
1
60
0
100
AcDbLine
10
69.944165
20
33.812034
30
0
11
69.944165
21
32.187966
31
0
39
0
210
0
220
0
230
1
0
LINE
5
DF
100
AcDbEntity
8
1
62
256
6
ByLayer
370
13
48
1
60
0
100
AcDbLine
10
69.421373
20
33.82272
30
0
11
69.421373
21
32.17728
31
0
39
0
210
0
220
0
230
1
0
LINE
5
E0
100
AcDbEntity
8
1
62
256
6
ByLayer
370
13
48
1
60
0
100
AcDbLine
10
68.811268
20
33.821701
30
0
11
68.811268
21
32.178299
31
0
39
0
210
0
220
0
230
1
0
LINE
5
E1
100
AcDbEntity
8
1
62
256
6
ByLayer
370
18
48
1
60
0
100
AcDbLine
10
67.19812
20
34.870459
30
0
11
67.0347
21
34.874835
31
0
39
0
210
0
220
0
230
1
0
LINE
5
E2
100
AcDbEntity
8
1
62
256
6
ByLayer
370
18
48
1
60
0
100
AcDbLine
10
60.273333
20
31.3
30
0
11
62.984409
21
31.3
31
0
39
0
210
0
220
0
230
1
0
LINE
5
E3
100
AcDbEntity
8
1
62
256
6
ByLayer
370
18
48
1
60
0
100
AcDbLine
10
65.332182
20
31.3
30
0
11
65.962511
21
31.3
31
0
39
0
210
0
220
0
230
1
0
LINE
5
E4
100
AcDbEntity
8
1
62
256
6
ByLayer
370
18
48
1
60
0
100
AcDbLine
10
66.341473
20
34.833448
30
0
11
66.856902
21
34.869491
31
0
39
0
210
0
220
0
230
1
0
LINE
5
E5
100
AcDbEntity
8
1
62
256
6
ByLayer
370
18
48
1
60
0
100
AcDbLine
10
65.962511
20
34.7
30
0
11
65.962814
21
34.7
31
0
39
0
210
0
220
0
230
1
0
LINE
5
E6
100
AcDbEntity
8
1
62
256
6
ByLayer
370
18
48
1
60
0
100
AcDbLine
10
69.106077
20
31.034959
30
0
11
69.46476
21
31.003561
31
0
39
0
210
0
220
0
230
1
0
LINE
5
E7
100
AcDbEntity
8
1
62
256
6
ByLayer
370
18
48
1
60
0
100
AcDbLine
10
65.962511
20
34.7
30
0
11
65.332182
21
34.7
31
0
39
0
210
0
220
0
230
1
0
LINE
5
E8
100
AcDbEntity
8
1
62
256
6
ByLayer
370
18
48
1
60
0
100
AcDbLine
10
60.07404
20
34.7
30
0
11
60.008324
21
34.7
31
0
39
0
210
0
220
0
230
1
0
LINE
5
E9
100
AcDbEntity
8
1
62
256
6
ByLayer
370
18
48
1
60
0
100
AcDbLine
10
69.69252
20
35.01078
30
0
11
69.535516
21
35.0016
31
0
39
0
210
0
220
0
230
1
0
LINE
5
EA
100
AcDbEntity
8
1
62
256
6
ByLayer
370
18
48
1
60
0
100
AcDbLine
10
65.332182
20
34.7
30
0
11
64.629386
21
34.7
31
0
39
0
210
0
220
0
230
1
0
LINE
5
EB
100
AcDbEntity
8
1
62
256
6
ByLayer
370
18
48
1
60
0
100
AcDbLine
10
68.258781
20
31.097564
30
0
11
68.758781
21
31.062363
31
0
39
0
210
0
220
0
230
1
0
LINE
5
EC
100
AcDbEntity
8
1
62
256
6
ByLayer
370
18
48
1
60
0
100
AcDbLine
10
70.000117
20
33.998411
30
0
11
70.006095
21
34.705218
31
0
39
0
210
0
220
0
230
1
0
LINE
5
ED
100
AcDbEntity
8
1
62
256
6
ByLayer
370
18
48
1
60
0
100
AcDbLine
10
64.594883
20
31.3
30
0
11
64.629386
21
31.3
31
0
39
0
210
0
220
0
230
1
0
LINE
5
EE
100
AcDbEntity
8
1
62
256
6
ByLayer
370
18
48
1
60
0
100
AcDbLine
10
69.535516
20
30.9984
30
0
11
69.69252
21
30.98922
31
0
39
0
210
0
220
0
230
1
0
LINE
5
EF
100
AcDbEntity
8
1
62
256
6
ByLayer
370
18
48
1
60
0
100
AcDbLine
10
65.962814
20
31.3
30
0
11
65.962511
21
31.3
31
0
39
0
210
0
220
0
230
1
0
LINE
5
F0
100
AcDbEntity
8
1
62
256
6
ByLayer
370
18
48
1
60
0
100
AcDbLine
10
70.006095
20
31.294782
30
0
11
70.000117
21
32.001589
31
0
39
0
210
0
220
0
230
1
0
LINE
5
F1
100
AcDbEntity
8
1
62
256
6
ByLayer
370
18
48
1
60
0
100
AcDbLine
10
67.0347
20
31.125165
30
0
11
67.19812
21
31.129541
31
0
39
0
210
0
220
0
230
1
0
LINE
5
F2
100
AcDbEntity
8
1
62
256
6
ByLayer
370
18
48
1
60
0
100
AcDbLine
10
68.758781
20
34.937637
30
0
11
68.258781
21
34.902436
31
0
39
0
210
0
220
0
230
1
0
LINE
5
F3
100
AcDbEntity
8
1
62
256
6
ByLayer
370
18
48
1
60
0
100
AcDbLine
10
60.008324
20
31.3
30
0
11
60.07404
21
31.3
31
0
39
0
210
0
220
0
230
1
0
LINE
5
F4
100
AcDbEntity
8
1
62
256
6
ByLayer
370
18
48
1
60
0
100
AcDbLine
10
66.856902
20
31.130509
30
0
11
66.341473
21
31.166552
31
0
39
0
210
0
220
0
230
1
0
LINE
5
F5
100
AcDbEntity
8
1
62
256
6
ByLayer
370
18
48
1
60
0
100
AcDbLine
10
64.629386
20
31.3
30
0
11
65.332182
21
31.3
31
0
39
0
210
0
220
0
230
1
0
LINE
5
F6
100
AcDbEntity
8
1
62
256
6
ByLayer
370
18
48
1
60
0
100
AcDbLine
10
69.46476
20
34.996439
30
0
11
69.106077
21
34.965041
31
0
39
0
210
0
220
0
230
1
0
LINE
5
F7
100
AcDbEntity
8
1
62
256
6
ByLayer
370
18
48
1
60
0
100
AcDbLine
10
64.629386
20
34.7
30
0
11
64.594883
21
34.7
31
0
39
0
210
0
220
0
230
1
0
LINE
5
F8
100
AcDbEntity
8
1
62
256
6
ByLayer
370
18
48
1
60
0
100
AcDbLine
10
70
20
32.029285
30
0
11
70
21
33.970715
31
0
39
0
210
0
220
0
230
1
0
LINE
5
F9
100
AcDbEntity
8
1
62
256
6
ByLayer
370
18
48
1
60
0
100
AcDbLine
10
60.273333
20
34.7
30
0
11
62.984409
21
34.7
31
0
39
0
210
0
220
0
230
1
0
MTEXT
5
223
100
AcDbEntity
8
SK6
62
256
6
ByLayer
370
18
48
1
60
0
100
AcDbMText
10
-11.625
20
-45.869364
30
0
210
0
220
0
230
1
1
\W0.7779;C5-QD-RFH32C35070A
40
3.5
41
0
44
1.084337
50
0
71
7
72
5
7
iso_b_vert
0
DIMENSION
5
235
100
AcDbEntity
8
2
62
256
6
ByLayer
370
13
48
1
60
0
100
AcDbDimension
2
DimnDraft3D1
10
95.1
20
35
30
0
11
95.1
21
15.409211
31
0
70
32
71
5
72
1
41
1
210
0
220
0
230
1
3
Standard
100
AcDbAlignedDimension
13
40
23
0
33
0
14
72
24
35
34
0
50
90
100
AcDbRotatedDimension
1001
ACAD
1000
DSTYLE
1002
{
1070
    74
1070
     0
1070
   279
1070
     0
1070
   172
1070
     1
1070
   173
1070
     1
1070
   340
1005
224
1070
   271
1070
     1
1070
    77
1070
     1
1070
    73
1070
     0
1070
   171
1070
     3
1070
   274
1070
     4
1070
   177
1070
     2
1070
   176
1070
     2
1070
   178
1070
     7
1070
    78
1070
     8
1070
    41
1041
3.175
1070
   147
1041
1.75
1070
    42
1041
2.0
1070
    44
1041
2.0
1070
   140
1041
3.5
1070
   343
1005
236
1070
   344
1005
236
1002
}
0
DIMENSION
5
24B
100
AcDbEntity
8
SK2
62
256
6
ByLayer
370
13
48
1
60
0
100
AcDbDimension
2
DimnDraft3D2
10
70
20
57.611273
30
0
11
32.909211
21
57.611273
31
0
70
32
71
5
72
1
41
1
210
0
220
0
230
1
3
Standard
100
AcDbAlignedDimension
13
0
23
2
33
0
14
70
24
37
34
0
50
0
100
AcDbRotatedDimension
1001
ACAD
1000
DSTYLE
1002
{
1070
   279
1070
     0
1070
   172
1070
     1
1070
   173
1070
     1
1070
   340
1005
224
1070
   271
1070
     1
1070
    77
1070
     1
1070
    73
1070
     0
1070
   171
1070
     3
1070
   274
1070
     4
1070
   177
1070
     2
1070
   176
1070
     2
1070
   178
1070
     7
1070
    78
1070
     8
1070
    41
1041
3.175
1070
   147
1041
1.75
1070
    42
1041
2.0
1070
    44
1041
2.0
1070
   140
1041
3.5
1070
   343
1005
236
1070
   344
1005
236
1002
}
0
DIMENSION
5
259
100
AcDbEntity
8
2
62
256
6
ByLayer
370
13
48
1
60
0
100
AcDbDimension
2
DimnDraft3D3
10
38
20
-38.1
30
0
11
51.909211
21
-38.1
31
0
70
32
71
5
72
1
41
1
210
0
220
0
230
1
3
Standard
100
AcDbAlignedDimension
13
70
23
33
33
0
14
38
24
-2
34
0
50
0
100
AcDbRotatedDimension
1001
ACAD
1000
DSTYLE
1002
{
1070
   279
1070
     0
1070
   172
1070
     1
1070
   173
1070
     1
1070
   340
1005
224
1070
   271
1070
     1
1070
    77
1070
     1
1070
    73
1070
     0
1070
   171
1070
     3
1070
   274
1070
     4
1070
   177
1070
     2
1070
   176
1070
     2
1070
   178
1070
     7
1070
    78
1070
     8
1070
    41
1041
3.175
1070
   147
1041
1.75
1070
    42
1041
2.0
1070
    44
1041
2.0
1070
   140
1041
3.5
1070
   343
1005
236
1070
   344
1005
236
1002
}
0
DIMENSION
5
267
100
AcDbEntity
8
SK2
62
256
6
ByLayer
370
13
48
1
60
0
100
AcDbDimension
2
DimnDraft3D4
10
-39.6
20
-25
30
0
11
-39.6
21
-2.090789
31
0
70
32
71
5
72
1
41
1
210
0
220
0
230
1
3
Standard
100
AcDbAlignedDimension
13
-2
23
25
33
0
14
-2
24
-25
34
0
50
90
100
AcDbRotatedDimension
1001
ACAD
1000
DSTYLE
1002
{
1070
    74
1070
     0
1070
   279
1070
     0
1070
   172
1070
     1
1070
   173
1070
     1
1070
   340
1005
224
1070
   271
1070
     1
1070
    77
1070
     1
1070
    73
1070
     0
1070
   171
1070
     3
1070
   274
1070
     4
1070
   177
1070
     2
1070
   176
1070
     2
1070
   178
1070
     7
1070
    78
1070
     8
1070
    41
1041
3.175
1070
   147
1041
1.75
1070
    42
1041
2.0
1070
    44
1041
2.0
1070
   140
1041
3.5
1070
   343
1005
236
1070
   344
1005
236
1002
}
0
DIMENSION
5
275
100
AcDbEntity
8
2
62
256
6
ByLayer
370
13
48
1
60
0
100
AcDbDimension
2
DimnDraft3D5
10
88.1
20
31
30
0
11
88.1
21
18.810789
31
0
70
32
71
5
72
1
41
1
210
0
220
0
230
1
3
Standard
100
AcDbAlignedDimension
13
72
23
35
33
0
14
72
24
31
34
0
50
90
100
AcDbRotatedDimension
1001
ACAD
1000
DSTYLE
1002
{
1070
    74
1070
     0
1070
   279
1070
     0
1070
   172
1070
     1
1070
   173
1070
     1
1070
   340
1005
224
1070
   271
1070
     1
1070
    77
1070
     1
1070
    73
1070
     0
1070
   171
1070
     3
1070
   274
1070
     4
1070
   177
1070
     2
1070
   176
1070
     2
1070
   178
1070
     7
1070
    78
1070
     8
1070
    41
1041
3.175
1070
   147
1041
1.75
1070
    42
1041
2.0
1070
    44
1041
2.0
1070
   140
1041
3.5
1070
   343
1005
236
1070
   344
1005
236
1002
}
0
ENDSEC
0
SECTION
2
OBJECTS
0
DICTIONARY
5
2df
330
0
100
AcDbDictionary
280
0
281
1
3
ACAD_GROUP
350
2e0
3
ACAD_MLINESTYLE
350
2e1
0
DICTIONARY
5
2e0
330
0
100
AcDbDictionary
280
0
281
1
0
DICTIONARY
5
2e1
330
0
100
AcDbDictionary
280
0
281
1
3
Standard
350
18
0
MLINESTYLE
5
18
330
2e1
100
AcDbMlineStyle
2
Standard
70
0
3

62
256
51
90
52
90
71
2
49
-0.5
62
256
6
ByLayer
49
0.5
62
256
6
ByLayer
0
RASTERVARIABLES
5
2ce
330

100
AcDbRasterVariables
90
0
70
1
71
1
72
1
0
ENDSEC
0
EOF
