0
SECTION
2
HEADER
9
$ACADVER
1
AC1015
9
$DWGCODEPAGE
3
ANSI_1252
9
$HANDSEED
5
2f0
9
$ANGBASE
50
0
9
$ANGDIR
70
0
9
$ATTMODE
70
1
9
$AUNITS
70
0
9
$AUPREC
70
0
9
$CECOLOR
62
256
9
$CELTSCALE
40
1
9
$CELTYPE
6
ByLayer
9
$CELWEIGHT
370
18
9
$CLAYER
8
0
9
$CMLJUST
70
0
9
$CMLSCALE
40
1
9
$CMLSTYLE
2
Standard
9
$DIMSTYLE
2
Standard
9
$TEXTSIZE
40
0.2
9
$TEXTSTYLE
7
Standard
9
$LUNITS
70
2
9
$LUPREC
70
4
9
$EXTNAMES
290
1
9
$INSUNITS
70
4
9
$LTSCALE
40
1
9
$LWDISPLAY
290
1
9
$PDMODE
70
0
9
$PDSIZE
40
0
9
$PLINEGEN
70
0
0
ENDSEC
0
SECTION
2
CLASSES
0
CLASS
1
RASTERVARIABLES
2
AcDbRasterVariables
3
ISM
90
0
280
0
281
0
0
ENDSEC
0
SECTION
2
TABLES
0
TABLE
2
VPORT
5
2e6
100
AcDbSymbolTable
0
VPORT
5
1
100
AcDbSymbolTableRecord
100
AcDbViewportTableRecord
2
*Active
70
0
10
0
20
0
11
1
21
1
12
-1
22
1
13
0
23
0
14
0.5
24
0.5
15
10
25
10
16
0
26
0
36
1
17
0
27
0
37
0
0
ENDTAB
0
TABLE
2
LTYPE
5
2e7
100
AcDbSymbolTable
0
LTYPE
5
14
100
AcDbSymbolTableRecord
100
AcDbLinetypeTableRecord
70
0
2
ByBlock
3

72
65
73
0
40
0
0
LTYPE
5
15
100
AcDbSymbolTableRecord
100
AcDbLinetypeTableRecord
70
0
2
ByLayer
3

72
65
73
0
40
0
0
LTYPE
5
16
100
AcDbSymbolTableRecord
100
AcDbLinetypeTableRecord
70
0
2
CONTINUOUS
3
Solid line
72
65
73
0
40
0
0
LTYPE
5
6A
100
AcDbSymbolTableRecord
100
AcDbLinetypeTableRecord
70
0
2
CENTER
3
____ _ ____ _ ____ _ ____
72
65
73
4
40
47.5
49
22
74
0
49
-8.5
74
0
49
8.5
74
0
49
-8.5
74
0
0
LTYPE
5
6B
100
AcDbSymbolTableRecord
100
AcDbLinetypeTableRecord
70
0
2
DASHED
3
__ __ __ __ __ __ __ __ __
72
65
73
2
40
25.72
49
12.86
74
0
49
-12.86
74
0
0
ENDTAB
0
TABLE
2
LAYER
5
2e8
100
AcDbSymbolTable
0
LAYER
5
10
100
AcDbSymbolTableRecord
100
AcDbLayerTableRecord
2
0
70
0
62
7
6
CONTINUOUS
290
1
370
-3
390
0
0
LAYER
5
6D
100
AcDbSymbolTableRecord
100
AcDbLayerTableRecord
2
80
70
0
62
-6
6
CONTINUOUS
290
1
370
-3
390
0
0
LAYER
5
6F
100
AcDbSymbolTableRecord
100
AcDbLayerTableRecord
2
81
70
0
62
-3
6
CONTINUOUS
290
1
370
-3
390
0
0
LAYER
5
71
100
AcDbSymbolTableRecord
100
AcDbLayerTableRecord
2
1
70
0
62
4
6
CONTINUOUS
290
1
370
-3
390
0
0
LAYER
5
243
100
AcDbSymbolTableRecord
100
AcDbLayerTableRecord
2
2
70
0
62
7
6
CONTINUOUS
290
1
370
-3
390
0
0
LAYER
5
2d3
100
AcDbSymbolTableRecord
100
AcDbLayerTableRecord
2
SK1
70
0
62
4
6
CONTINUOUS
290
1
370
-3
390
0
0
LAYER
5
2d4
100
AcDbSymbolTableRecord
100
AcDbLayerTableRecord
2
SK6
70
0
62
5
6
CONTINUOUS
290
1
370
-3
390
0
0
LAYER
5
2d5
100
AcDbSymbolTableRecord
100
AcDbLayerTableRecord
2
SK2
70
0
62
7
6
CONTINUOUS
290
1
370
-3
390
0
0
ENDTAB
0
TABLE
2
STYLE
5
2e9
100
AcDbSymbolTable
0
STYLE
5
11
100
AcDbSymbolTableRecord
100
AcDbTextStyleTableRecord
2
Standard
3
txt
70
0
71
0
40
0
41
1
42
0
50
0
0
STYLE
5
228
100
AcDbSymbolTableRecord
100
AcDbTextStyleTableRecord
2
iso_b_vert
3
simplex.shx
70
0
71
0
40
0
41
1
42
0
50
0
0
STYLE
5
229
100
AcDbSymbolTableRecord
100
AcDbTextStyleTableRecord
2
DWGDirectTextStyle
3
simplex
70
0
71
0
40
0
41
1
42
0
50
0
0
ENDTAB
0
TABLE
2
DIMSTYLE
5
2ea
100
AcDbSymbolTable
100
AcDbDimStyleTable
0
DIMSTYLE
105
27
100
AcDbSymbolTableRecord
100
AcDbDimStyleTableRecord
2
Standard
70
0
3
<>
41
0.18
42
0.0625
44
0.18
140
0.18
147
0.09
73
0
74
0
77
1
271
2
275
0
278
52
280
0
340
11
0
ENDTAB
0
TABLE
2
VIEW
5
2eb
100
AcDbSymbolTable
0
ENDTAB
0
TABLE
2
UCS
5
2ec
100
AcDbSymbolTable
0
ENDTAB
0
TABLE
2
APPID
5
2ed
100
AcDbSymbolTable
0
APPID
5
12
100
AcDbSymbolTableRecord
100
AcDbRegAppTableRecord
2
ACAD
70
0
0
ENDTAB
0
TABLE
2
BLOCK_RECORD
5
2ee
100
AcDbSymbolTable
0
BLOCK_RECORD
5
1F
100
AcDbSymbolTableRecord
100
AcDbBlockTableRecord
2
*Model_Space
340
0
70
0
0
BLOCK_RECORD
5
1B
100
AcDbSymbolTableRecord
100
AcDbBlockTableRecord
2
*Paper_Space
340
0
70
0
0
BLOCK_RECORD
5
23
100
AcDbSymbolTableRecord
100
AcDbBlockTableRecord
2
*Paper_Space0
340
0
70
0
0
BLOCK_RECORD
5
22B
100
AcDbSymbolTableRecord
100
AcDbBlockTableRecord
2
DimnDraft3D1
340
0
70
0
0
BLOCK_RECORD
5
23A
100
AcDbSymbolTableRecord
100
AcDbBlockTableRecord
2
_CLOSED
340
0
70
0
0
BLOCK_RECORD
5
241
100
AcDbSymbolTableRecord
100
AcDbBlockTableRecord
2
DimnDraft3D2
340
0
70
0
0
BLOCK_RECORD
5
250
100
AcDbSymbolTableRecord
100
AcDbBlockTableRecord
2
DimnDraft3D3
340
0
70
0
0
BLOCK_RECORD
5
25E
100
AcDbSymbolTableRecord
100
AcDbBlockTableRecord
2
DimnDraft3D4
340
0
70
0
0
BLOCK_RECORD
5
26C
100
AcDbSymbolTableRecord
100
AcDbBlockTableRecord
2
DimnDraft3D5
340
0
70
0
0
ENDTAB
0
ENDSEC
0
SECTION
2
BLOCKS
0
BLOCK
5
20
100
AcDbEntity
8
0
100
AcDbBlockBegin
2
*Model_Space
70
0
10
0
20
0
30
0
3
*Model_Space
0
ENDBLK
5
21
100
AcDbEntity
8
0
100
AcDbBlockEnd
0
BLOCK
5
1C
100
AcDbEntity
8
0
100
AcDbBlockBegin
2
*Paper_Space
70
0
10
0
20
0
30
0
3
*Paper_Space
0
ENDBLK
5
1D
100
AcDbEntity
8
0
100
AcDbBlockEnd
0
BLOCK
5
24
100
AcDbEntity
8
0
100
AcDbBlockBegin
2
*Paper_Space0
70
0
10
0
20
0
30
0
3
*Paper_Space0
0
ENDBLK
5
25
100
AcDbEntity
8
0
100
AcDbBlockEnd
0
BLOCK
5
237
100
AcDbEntity
8
0
100
AcDbBlockBegin
2
DimnDraft3D1
70
0
10
0
20
0
30
0
3
DimnDraft3D1
0
MTEXT
5
22C
100
AcDbEntity
8
SK2
62
256
6
ByLayer
370
18
48
1
60
0
100
AcDbMText
10
33.784211
20
48.475
30
0
210
0
220
0
230
1
1
\W0.6740;70
40
3.5
41
0
44
1.084337
50
0
71
7
72
5
7
iso_b_vert
0
LINE
5
22E
100
AcDbEntity
8
SK2
62
256
6
ByLayer
370
13
48
1
60
0
100
AcDbLine
10
0
20
2
30
0
11
0
21
49.6
31
0
39
0
210
0
220
0
230
1
0
LINE
5
22F
100
AcDbEntity
8
SK2
62
256
6
ByLayer
370
13
48
1
60
0
100
AcDbLine
10
70
20
-33
30
0
11
70
21
49.6
31
0
39
0
210
0
220
0
230
1
0
LINE
5
230
100
AcDbEntity
8
SK2
62
256
6
ByLayer
370
13
48
1
60
0
100
AcDbLine
10
0
20
47.6
30
0
11
70
21
47.6
31
0
39
0
210
0
220
0
230
1
0
LINE
5
231
100
AcDbEntity
8
SK2
62
256
6
ByLayer
370
13
48
1
60
0
100
AcDbLine
10
0
20
47.6
30
0
11
3.174998
21
48.017997
31
0
39
0
210
0
220
0
230
1
0
LINE
5
232
100
AcDbEntity
8
SK2
62
256
6
ByLayer
370
13
48
1
60
0
100
AcDbLine
10
0
20
47.6
30
0
11
3.175002
21
47.182003
31
0
39
0
210
0
220
0
230
1
0
LINE
5
233
100
AcDbEntity
8
SK2
62
256
6
ByLayer
370
13
48
1
60
0
100
AcDbLine
10
3.174998
20
48.017997
30
0
11
3.175002
21
47.182003
31
0
39
0
210
0
220
0
230
1
0
LINE
5
234
100
AcDbEntity
8
SK2
62
256
6
ByLayer
370
13
48
1
60
0
100
AcDbLine
10
70
20
47.6
30
0
11
66.825002
21
47.182003
31
0
39
0
210
0
220
0
230
1
0
LINE
5
235
100
AcDbEntity
8
SK2
62
256
6
ByLayer
370
13
48
1
60
0
100
AcDbLine
10
70
20
47.6
30
0
11
66.824998
21
48.017997
31
0
39
0
210
0
220
0
230
1
0
LINE
5
236
100
AcDbEntity
8
SK2
62
256
6
ByLayer
370
13
48
1
60
0
100
AcDbLine
10
66.825002
20
47.182003
30
0
11
66.824998
21
48.017997
31
0
39
0
210
0
220
0
230
1
0
ENDBLK
5
238
100
AcDbEntity
8
0
100
AcDbBlockEnd
0
BLOCK
5
23B
100
AcDbEntity
8
0
100
AcDbBlockBegin
2
_CLOSED
70
0
10
0
20
0
30
0
3
_CLOSED
0
LINE
5
23D
100
AcDbEntity
8
0
62
256
6
ByLayer
370
-2
48
1
60
0
100
AcDbLine
10
-1
20
0.166667
30
0
11
0
21
0
31
0
39
0
210
0
220
0
230
1
0
LINE
5
23E
100
AcDbEntity
8
0
62
256
6
ByLayer
370
-2
48
1
60
0
100
AcDbLine
10
0
20
0
30
0
11
-1
21
-0.166667
31
0
39
0
210
0
220
0
230
1
0
LINE
5
23F
100
AcDbEntity
8
0
62
256
6
ByLayer
370
-2
48
1
60
0
100
AcDbLine
10
-1
20
0.166667
30
0
11
-1
21
-0.166667
31
0
39
0
210
0
220
0
230
1
0
LINE
5
240
100
AcDbEntity
8
0
62
256
6
ByLayer
370
-2
48
1
60
0
100
AcDbLine
10
0
20
0
30
0
11
-1
21
0
31
0
39
0
210
0
220
0
230
1
0
ENDBLK
5
23C
100
AcDbEntity
8
0
100
AcDbBlockEnd
0
BLOCK
5
24D
100
AcDbEntity
8
0
100
AcDbBlockBegin
2
DimnDraft3D2
70
0
10
0
20
0
30
0
3
DimnDraft3D2
0
MTEXT
5
242
100
AcDbEntity
8
2
62
256
6
ByLayer
370
18
48
1
60
0
100
AcDbMText
10
52.784211
20
-47.239079
30
0
210
0
220
0
230
1
1
\W0.6740;32
40
3.5
41
0
44
1.084337
50
0
71
7
72
5
7
iso_b_vert
0
LINE
5
244
100
AcDbEntity
8
2
62
256
6
ByLayer
370
13
48
1
60
0
100
AcDbLine
10
70
20
-37
30
0
11
70
21
-50.114079
31
0
39
0
210
0
220
0
230
1
0
LINE
5
245
100
AcDbEntity
8
2
62
256
6
ByLayer
370
13
48
1
60
0
100
AcDbLine
10
38
20
-27
30
0
11
38
21
-50.114079
31
0
39
0
210
0
220
0
230
1
0
LINE
5
246
100
AcDbEntity
8
2
62
256
6
ByLayer
370
13
48
1
60
0
100
AcDbLine
10
70
20
-48.114079
30
0
11
38
21
-48.114079
31
0
39
0
210
0
220
0
230
1
0
LINE
5
247
100
AcDbEntity
8
2
62
256
6
ByLayer
370
13
48
1
60
0
100
AcDbLine
10
70
20
-48.114079
30
0
11
66.825002
21
-48.532076
31
0
39
0
210
0
220
0
230
1
0
LINE
5
248
100
AcDbEntity
8
2
62
256
6
ByLayer
370
13
48
1
60
0
100
AcDbLine
10
70
20
-48.114079
30
0
11
66.824998
21
-47.696083
31
0
39
0
210
0
220
0
230
1
0
LINE
5
249
100
AcDbEntity
8
2
62
256
6
ByLayer
370
13
48
1
60
0
100
AcDbLine
10
66.825002
20
-48.532076
30
0
11
66.824998
21
-47.696083
31
0
39
0
210
0
220
0
230
1
0
LINE
5
24A
100
AcDbEntity
8
2
62
256
6
ByLayer
370
13
48
1
60
0
100
AcDbLine
10
38
20
-48.114079
30
0
11
41.174998
21
-47.696083
31
0
39
0
210
0
220
0
230
1
0
LINE
5
24B
100
AcDbEntity
8
2
62
256
6
ByLayer
370
13
48
1
60
0
100
AcDbLine
10
38
20
-48.114079
30
0
11
41.175002
21
-48.532076
31
0
39
0
210
0
220
0
230
1
0
LINE
5
24C
100
AcDbEntity
8
2
62
256
6
ByLayer
370
13
48
1
60
0
100
AcDbLine
10
41.174998
20
-47.696083
30
0
11
41.175002
21
-48.532076
31
0
39
0
210
0
220
0
230
1
0
ENDBLK
5
24E
100
AcDbEntity
8
0
100
AcDbBlockEnd
0
BLOCK
5
25B
100
AcDbEntity
8
0
100
AcDbBlockBegin
2
DimnDraft3D3
70
0
10
0
20
0
30
0
3
DimnDraft3D3
0
MTEXT
5
251
100
AcDbEntity
8
SK2
62
256
6
ByLayer
370
18
48
1
60
0
100
AcDbMText
10
-40.475
20
-1.215789
30
0
210
0
220
0
230
1
1
\W0.6740;50
40
3.5
41
0
44
1.084337
50
90
71
7
72
5
7
iso_b_vert
0
LINE
5
252
100
AcDbEntity
8
SK2
62
256
6
ByLayer
370
13
48
1
60
0
100
AcDbLine
10
-2
20
-25
30
0
11
-41.6
21
-25
31
0
39
0
210
0
220
0
230
1
0
LINE
5
253
100
AcDbEntity
8
SK2
62
256
6
ByLayer
370
13
48
1
60
0
100
AcDbLine
10
-2
20
25
30
0
11
-41.6
21
25
31
0
39
0
210
0
220
0
230
1
0
LINE
5
254
100
AcDbEntity
8
SK2
62
256
6
ByLayer
370
13
48
1
60
0
100
AcDbLine
10
-39.6
20
-25
30
0
11
-39.6
21
25
31
0
39
0
210
0
220
0
230
1
0
LINE
5
255
100
AcDbEntity
8
SK2
62
256
6
ByLayer
370
13
48
1
60
0
100
AcDbLine
10
-39.6
20
-25
30
0
11
-40.017997
21
-21.825002
31
0
39
0
210
0
220
0
230
1
0
LINE
5
256
100
AcDbEntity
8
SK2
62
256
6
ByLayer
370
13
48
1
60
0
100
AcDbLine
10
-39.6
20
-25
30
0
11
-39.182003
21
-21.824998
31
0
39
0
210
0
220
0
230
1
0
LINE
5
257
100
AcDbEntity
8
SK2
62
256
6
ByLayer
370
13
48
1
60
0
100
AcDbLine
10
-40.017997
20
-21.825002
30
0
11
-39.182003
21
-21.824998
31
0
39
0
210
0
220
0
230
1
0
LINE
5
258
100
AcDbEntity
8
SK2
62
256
6
ByLayer
370
13
48
1
60
0
100
AcDbLine
10
-39.6
20
25
30
0
11
-39.182003
21
21.825002
31
0
39
0
210
0
220
0
230
1
0
LINE
5
259
100
AcDbEntity
8
SK2
62
256
6
ByLayer
370
13
48
1
60
0
100
AcDbLine
10
-39.6
20
25
30
0
11
-40.017997
21
21.824998
31
0
39
0
210
0
220
0
230
1
0
LINE
5
25A
100
AcDbEntity
8
SK2
62
256
6
ByLayer
370
13
48
1
60
0
100
AcDbLine
10
-39.182003
20
21.825002
30
0
11
-40.017997
21
21.824998
31
0
39
0
210
0
220
0
230
1
0
ENDBLK
5
25C
100
AcDbEntity
8
0
100
AcDbBlockEnd
0
BLOCK
5
269
100
AcDbEntity
8
0
100
AcDbBlockBegin
2
DimnDraft3D4
70
0
10
0
20
0
30
0
3
DimnDraft3D4
0
MTEXT
5
25F
100
AcDbEntity
8
2
62
256
6
ByLayer
370
18
48
1
60
0
100
AcDbMText
10
94.225
20
-18.715789
30
0
210
0
220
0
230
1
1
\W0.6740;35
40
3.5
41
0
44
1.084337
50
90
71
7
72
5
7
iso_b_vert
0
LINE
5
260
100
AcDbEntity
8
2
62
256
6
ByLayer
370
13
48
1
60
0
100
AcDbLine
10
63
20
0
30
0
11
97.1
21
0
31
0
39
0
210
0
220
0
230
1
0
LINE
5
261
100
AcDbEntity
8
2
62
256
6
ByLayer
370
13
48
1
60
0
100
AcDbLine
10
72
20
-35
30
0
11
97.1
21
-35
31
0
39
0
210
0
220
0
230
1
0
LINE
5
262
100
AcDbEntity
8
2
62
256
6
ByLayer
370
13
48
1
60
0
100
AcDbLine
10
95.1
20
0
30
0
11
95.1
21
-35
31
0
39
0
210
0
220
0
230
1
0
LINE
5
263
100
AcDbEntity
8
2
62
256
6
ByLayer
370
13
48
1
60
0
100
AcDbLine
10
95.1
20
0
30
0
11
95.517997
21
-3.174998
31
0
39
0
210
0
220
0
230
1
0
LINE
5
264
100
AcDbEntity
8
2
62
256
6
ByLayer
370
13
48
1
60
0
100
AcDbLine
10
95.1
20
0
30
0
11
94.682003
21
-3.175002
31
0
39
0
210
0
220
0
230
1
0
LINE
5
265
100
AcDbEntity
8
2
62
256
6
ByLayer
370
13
48
1
60
0
100
AcDbLine
10
95.517997
20
-3.174998
30
0
11
94.682003
21
-3.175002
31
0
39
0
210
0
220
0
230
1
0
LINE
5
266
100
AcDbEntity
8
2
62
256
6
ByLayer
370
13
48
1
60
0
100
AcDbLine
10
95.1
20
-35
30
0
11
94.682003
21
-31.825002
31
0
39
0
210
0
220
0
230
1
0
LINE
5
267
100
AcDbEntity
8
2
62
256
6
ByLayer
370
13
48
1
60
0
100
AcDbLine
10
95.1
20
-35
30
0
11
95.517997
21
-31.824998
31
0
39
0
210
0
220
0
230
1
0
LINE
5
268
100
AcDbEntity
8
2
62
256
6
ByLayer
370
13
48
1
60
0
100
AcDbLine
10
94.682003
20
-31.825002
30
0
11
95.517997
21
-31.824998
31
0
39
0
210
0
220
0
230
1
0
ENDBLK
5
26A
100
AcDbEntity
8
0
100
AcDbBlockEnd
0
BLOCK
5
277
100
AcDbEntity
8
0
100
AcDbBlockBegin
2
DimnDraft3D5
70
0
10
0
20
0
30
0
3
DimnDraft3D5
0
MTEXT
5
26D
100
AcDbEntity
8
2
62
256
6
ByLayer
370
18
48
1
60
0
100
AcDbMText
10
87.225
20
-45.945789
30
0
210
0
220
0
230
1
1
\W0.5404;5
40
3.5
41
0
44
1.084337
50
90
71
7
72
5
7
iso_b_vert
0
LINE
5
26E
100
AcDbEntity
8
2
62
256
6
ByLayer
370
13
48
1
60
0
100
AcDbLine
10
72
20
-35
30
0
11
90.1
21
-35
31
0
39
0
210
0
220
0
230
1
0
LINE
5
26F
100
AcDbEntity
8
2
62
256
6
ByLayer
370
13
48
1
60
0
100
AcDbLine
10
72
20
-30
30
0
11
90.1
21
-30
31
0
39
0
210
0
220
0
230
1
0
LINE
5
270
100
AcDbEntity
8
2
62
256
6
ByLayer
370
13
48
1
60
0
100
AcDbLine
10
88.1
20
-21.25
30
0
11
88.1
21
-46.820789
31
0
39
0
210
0
220
0
230
1
0
LINE
5
271
100
AcDbEntity
8
2
62
256
6
ByLayer
370
13
48
1
60
0
100
AcDbLine
10
88.1
20
-35
30
0
11
88.517997
21
-38.174998
31
0
39
0
210
0
220
0
230
1
0
LINE
5
272
100
AcDbEntity
8
2
62
256
6
ByLayer
370
13
48
1
60
0
100
AcDbLine
10
88.1
20
-35
30
0
11
87.682003
21
-38.175002
31
0
39
0
210
0
220
0
230
1
0
LINE
5
273
100
AcDbEntity
8
2
62
256
6
ByLayer
370
13
48
1
60
0
100
AcDbLine
10
88.517997
20
-38.174998
30
0
11
87.682003
21
-38.175002
31
0
39
0
210
0
220
0
230
1
0
LINE
5
274
100
AcDbEntity
8
2
62
256
6
ByLayer
370
13
48
1
60
0
100
AcDbLine
10
88.1
20
-30
30
0
11
87.682003
21
-26.825002
31
0
39
0
210
0
220
0
230
1
0
LINE
5
275
100
AcDbEntity
8
2
62
256
6
ByLayer
370
13
48
1
60
0
100
AcDbLine
10
88.1
20
-30
30
0
11
88.517997
21
-26.824998
31
0
39
0
210
0
220
0
230
1
0
LINE
5
276
100
AcDbEntity
8
2
62
256
6
ByLayer
370
13
48
1
60
0
100
AcDbLine
10
87.682003
20
-26.825002
30
0
11
88.517997
21
-26.824998
31
0
39
0
210
0
220
0
230
1
0
ENDBLK
5
278
100
AcDbEntity
8
0
100
AcDbBlockEnd
0
ENDSEC
0
SECTION
2
ENTITIES
0
ARC
5
FB
100
AcDbEntity
8
1
62
256
6
ByLayer
370
13
48
1
60
0
100
AcDbCircle
39
0
10
-20.279208
20
-26.2
30
0
40
1.2
210
0
220
0
230
-1
100
AcDbArc
50
90
51
165
0
ARC
5
FC
100
AcDbEntity
8
1
62
256
6
ByLayer
370
13
48
1
60
0
100
AcDbCircle
39
0
10
-38
20
-28.725
30
0
40
1.6
210
0
220
0
230
-1
100
AcDbArc
50
279.164372
51
0
0
ARC
5
FD
100
AcDbEntity
8
1
62
256
6
ByLayer
370
13
48
1
60
0
100
AcDbCircle
39
0
10
-24.128152
20
14.5
30
0
40
3.99999999999998
210
0
220
0
230
-1
100
AcDbArc
50
270
51
359.5
0
ELLIPSE
5
FE
100
AcDbEntity
8
1
62
256
6
ByLayer
370
13
48
1
60
0
100
AcDbEllipse
10
63.757013
20
-32.5
30
0
11
0.443474237667872
21
0.985200970489546
31
0
210
0
220
0
230
-1
40
0.386501
41
-2.96756010424456
42
-2.20174254585412
0
ELLIPSE
5
FF
100
AcDbEntity
8
1
62
256
6
ByLayer
370
13
48
1
60
0
100
AcDbEllipse
10
63.937611
20
-32.5
30
0
11
-6.12303177019652E-17
21
1.00000000017714
31
0
210
0
220
0
230
-1
40
0.451159
41
-1.74550750763362
42
-1.39608514595599
0
ELLIPSE
5
100
100
AcDbEntity
8
1
62
256
6
ByLayer
370
13
48
1
60
0
100
AcDbEllipse
10
-1.056258
20
0
30
0
11
11.709272349729
21
24.677186440939
31
0
210
0
220
0
230
-1
40
0.341999
41
0.167213071908964
42
1.08183270048921
0
ELLIPSE
5
101
100
AcDbEntity
8
1
62
256
6
ByLayer
370
13
48
1
60
0
100
AcDbEllipse
10
63.757013
20
-32.5
30
0
11
0.443474237668908
21
-0.985200970491007
31
0
210
0
220
0
230
-1
40
0.386501
41
2.20174254585519
42
2.96756010424472
0
ELLIPSE
5
102
100
AcDbEntity
8
1
62
256
6
ByLayer
370
13
48
1
60
0
100
AcDbEllipse
10
21.056258
20
0
30
0
11
11.7092723497282
21
-24.6771864409396
31
0
210
0
220
0
230
-1
40
0.341999
41
2.05975995310055
42
2.97437958168082
0
ELLIPSE
5
103
100
AcDbEntity
8
1
62
256
6
ByLayer
370
13
48
1
60
0
100
AcDbEllipse
10
64.661975
20
-32.5
30
0
11
2.67184263425433
21
0.988910512342772
31
0
210
0
220
0
230
-1
40
0.055584
41
-2.1129304140065
42
-2.0381058341557
0
ELLIPSE
5
104
100
AcDbEntity
8
1
62
256
6
ByLayer
370
13
48
1
60
0
100
AcDbEllipse
10
20.218172
20
0
30
0
11
-1.53075794227801E-15
21
25.0000000000006
31
0
210
0
220
0
230
-1
40
0.008727
41
-2.71704411075045
42
-0.66725282674852
0
ELLIPSE
5
105
100
AcDbEntity
8
1
62
256
6
ByLayer
370
13
48
1
60
0
100
AcDbEllipse
10
-1.056258
20
0
30
0
11
11.7092723497276
21
-24.6771864409373
31
0
210
0
220
0
230
-1
40
0.341999
41
-1.08183270048927
42
-0.167213071908965
0
ELLIPSE
5
106
100
AcDbEntity
8
1
62
256
6
ByLayer
370
13
48
1
60
0
100
AcDbEllipse
10
62.571269
20
-32.5
30
0
11
2.0124345098608
21
2.03384491146086E-15
31
0
210
0
220
0
230
-1
40
0.496911
41
1.22451003365201
42
-1.22451003365196
0
ELLIPSE
5
107
100
AcDbEntity
8
1
62
256
6
ByLayer
370
13
48
1
60
0
100
AcDbEllipse
10
21.056258
20
0
30
0
11
11.709272349727
21
24.6771864409382
31
0
210
0
220
0
230
-1
40
0.341999
41
-2.97437958168082
42
-2.05975995310051
0
ELLIPSE
5
108
100
AcDbEntity
8
1
62
256
6
ByLayer
370
13
48
1
60
0
100
AcDbEllipse
10
64.661976
20
-32.5
30
0
11
2.67184341590009
21
-0.988910768032273
31
0
210
0
220
0
230
-1
40
0.055584
41
2.03810594356339
42
2.11293050595903
0
ELLIPSE
5
109
100
AcDbEntity
8
1
62
256
6
ByLayer
370
13
48
1
60
0
100
AcDbEllipse
10
68.308021
20
-34.24992
30
0
11
0.0343782006618846
21
0.227416224837304
31
0
210
0
220
0
230
1
40
0.010451
41
0.726227647996338
42
1.50176867939518
0
ELLIPSE
5
10A
100
AcDbEntity
8
1
62
256
6
ByLayer
370
13
48
1
60
0
100
AcDbEllipse
10
66.376095
20
-34.161106
30
0
11
-0.0372036955976341
21
0.2269711105711
31
0
210
0
220
0
230
1
40
0.637857
41
-1.62073508670506
42
-0.944424256061113
0
ELLIPSE
5
10B
100
AcDbEntity
8
1
62
256
6
ByLayer
370
13
48
1
60
0
100
AcDbEllipse
10
66.376095
20
-30.838894
30
0
11
-0.0372036955976343
21
-0.2269711105711
31
0
210
0
220
0
230
1
40
0.637857
41
0.944424256061099
42
1.62073508670506
0
ELLIPSE
5
10C
100
AcDbEntity
8
1
62
256
6
ByLayer
370
13
48
1
60
0
100
AcDbEllipse
10
68.308021
20
-30.75008
30
0
11
0.0343782006618846
21
-0.227416224837304
31
0
210
0
220
0
230
1
40
0.010451
41
-1.50176867939545
42
-0.726227648000395
0
ELLIPSE
5
10D
100
AcDbEntity
8
1
62
256
6
ByLayer
370
13
48
1
60
0
100
AcDbEllipse
10
64.575688
20
-33.729148
30
0
11
0.117850233694188
21
-0.220479755121021
31
0
210
0
220
0
230
1
40
0.628513
41
1.24669182823353
42
2.61189371595026
0
ELLIPSE
5
10E
100
AcDbEntity
8
1
62
256
6
ByLayer
370
13
48
1
60
0
100
AcDbEllipse
10
64.266852
20
-33.798614
30
0
11
-0.00443971027567598
21
-0.249960574836649
31
0
210
0
220
0
230
1
40
0.341973
41
-2.71046133214423
42
-1.56472240806869
0
ELLIPSE
5
10F
100
AcDbEntity
8
1
62
256
6
ByLayer
370
13
48
1
60
0
100
AcDbEllipse
10
64.266852
20
-31.201386
30
0
11
-0.00443963165026046
21
0.249960576233153
31
0
210
0
220
0
230
1
40
0.341973
41
1.56472251563661
42
2.7104613407647
0
ELLIPSE
5
110
100
AcDbEntity
8
1
62
256
6
ByLayer
370
13
48
1
60
0
100
AcDbEllipse
10
64.575688
20
-31.270853
30
0
11
0.117850249619683
21
0.220479746608568
31
0
210
0
220
0
230
1
40
0.628513
41
-2.61189376972354
42
-1.24669178283536
0
ELLIPSE
5
111
100
AcDbEntity
8
1
62
256
6
ByLayer
370
13
48
1
60
0
100
AcDbEllipse
10
63.896635
20
-33.792041
30
0
11
0.0041937518783538
21
0.249964822415441
31
0
210
0
220
0
230
1
40
0.341978
41
0.42882120894445
42
1.57653374874629
0
ELLIPSE
5
112
100
AcDbEntity
8
1
62
256
6
ByLayer
370
13
48
1
60
0
100
AcDbEllipse
10
63.896635
20
-31.207959
30
0
11
0.00419362662096718
21
-0.249964824516899
31
0
210
0
220
0
230
1
40
0.341978
41
-1.57653357738128
42
-0.428821234248895
0
ELLIPSE
5
113
100
AcDbEntity
8
1
62
256
6
ByLayer
370
13
48
1
60
0
100
AcDbEllipse
10
63.896635
20
-31.207959
30
0
11
0.226769904979307
21
0.105239774779671
31
0
210
0
220
0
230
1
40
0.151449
41
1.88624128123206
42
2.72609499684267
0
ELLIPSE
5
114
100
AcDbEntity
8
1
62
256
6
ByLayer
370
13
48
1
60
0
100
AcDbEllipse
10
63.896635
20
-31.207959
30
0
11
0.192541275630354
21
-0.159461146297887
31
0
210
0
220
0
230
1
40
0.894807
41
-2.03609417243739
42
-1.06582349864773
0
ELLIPSE
5
115
100
AcDbEntity
8
1
62
256
6
ByLayer
370
13
48
1
60
0
100
AcDbEllipse
10
63.896635
20
-33.792041
30
0
11
-0.226769904979307
21
0.105239774779671
31
0
210
0
220
0
230
1
40
0.151449
41
0.415497656747138
42
1.25535137235776
0
ELLIPSE
5
116
100
AcDbEntity
8
1
62
256
6
ByLayer
370
13
48
1
60
0
100
AcDbEllipse
10
63.896635
20
-33.792041
30
0
11
0.192541309773544
21
0.159461105071702
31
0
210
0
220
0
230
1
40
0.894807
41
1.06582322628555
42
2.03609436403007
0
ELLIPSE
5
117
100
AcDbEntity
8
1
62
256
6
ByLayer
370
13
48
1
60
0
100
AcDbEllipse
10
63.525204
20
-30.407603
30
0
11
0.248127472680787
21
0.059135743166475
31
0
210
0
220
0
230
-1
40
0.082207
41
-2.68834941609706
42
-1.90295008501338
0
ELLIPSE
5
118
100
AcDbEntity
8
1
62
256
6
ByLayer
370
13
48
1
60
0
100
AcDbEllipse
10
63.525204
20
-34.592397
30
0
11
0.248127472677161
21
-0.0591357431658881
31
0
210
0
220
0
230
-1
40
0.082207
41
1.90295008500549
42
2.68834941609911
0
ELLIPSE
5
119
100
AcDbEntity
8
1
62
256
6
ByLayer
370
13
48
1
60
0
100
AcDbEllipse
10
66.372716
20
-34.162324
30
0
11
0.119667798519678
21
-0.196416949363984
31
0
210
0
220
0
230
1
40
0.597641
41
1.28074896175455
42
1.86084369188813
0
ELLIPSE
5
11A
100
AcDbEntity
8
1
62
256
6
ByLayer
370
13
48
1
60
0
100
AcDbEllipse
10
66.372716
20
-30.837676
30
0
11
0.119667798519678
21
0.196416949363984
31
0
210
0
220
0
230
1
40
0.597641
41
-1.86084369188805
42
-1.28074896175455
0
ELLIPSE
5
11B
100
AcDbEntity
8
1
62
256
6
ByLayer
370
13
48
1
60
0
100
AcDbEllipse
10
65.495921
20
-31.486889
30
0
11
0.206917527452797
21
0.140303730644702
31
0
210
0
220
0
230
1
40
0.823661
41
-2.20858799582967
42
-1.45669646334272
0
ELLIPSE
5
11C
100
AcDbEntity
8
1
62
256
6
ByLayer
370
13
48
1
60
0
100
AcDbEllipse
10
65.495921
20
-33.513111
30
0
11
0.206917580647164
21
-0.140303652194533
31
0
210
0
220
0
230
1
40
0.823661
41
1.45669620350372
42
2.20858804197691
0
ELLIPSE
5
11D
100
AcDbEntity
8
1
62
256
6
ByLayer
370
13
48
1
60
0
100
AcDbEllipse
10
63.525204
20
-30.407603
30
0
11
0.249974374853273
21
0.0507180485475753
31
0
210
0
220
0
230
-1
40
0.070574
41
-2.69094352033411
42
-1.90554418931244
0
ELLIPSE
5
11E
100
AcDbEntity
8
1
62
256
6
ByLayer
370
13
48
1
60
0
100
AcDbEllipse
10
63.525204
20
-34.592397
30
0
11
0.249974374780743
21
-0.0507180485366627
31
0
210
0
220
0
230
-1
40
0.070574
41
1.90554418912161
42
2.69094352029885
0
ELLIPSE
5
11F
100
AcDbEntity
8
1
62
256
6
ByLayer
370
13
48
1
60
0
100
AcDbEllipse
10
63.316753
20
-34.554426
30
0
11
-0.00727720191311246
21
-0.0186290722344349
31
0
210
0
220
0
230
1
40
0.894205
41
-1.55767186143137
42
-1.23473700712482
0
ELLIPSE
5
120
100
AcDbEntity
8
1
62
256
6
ByLayer
370
13
48
1
60
0
100
AcDbEllipse
10
63.316753
20
-30.445574
30
0
11
-0.00727720191311336
21
0.0186290722344345
31
0
210
0
220
0
230
1
40
0.894205
41
1.23473700712522
42
1.55767186143208
0
ELLIPSE
5
121
100
AcDbEntity
8
1
62
256
6
ByLayer
370
13
48
1
60
0
100
AcDbEllipse
10
65.547237
20
-33.35144
30
0
11
0.249846926115621
21
-0.00874720015635105
31
0
210
0
220
0
230
1
40
0.750608
41
1.02290462445179
42
1.70169781748853
0
ELLIPSE
5
122
100
AcDbEntity
8
1
62
256
6
ByLayer
370
13
48
1
60
0
100
AcDbEllipse
10
65.547237
20
-31.64856
30
0
11
0.249846921369704
21
0.00874733571328907
31
0
210
0
220
0
230
1
40
0.750608
41
-1.70169787390471
42
-1.02290497692159
0
ELLIPSE
5
123
100
AcDbEntity
8
1
62
256
6
ByLayer
370
13
48
1
60
0
100
AcDbEllipse
10
63.311319
20
-34.553392
30
0
11
1.66819193409396E-07
21
0.0199999999993043
31
0
210
0
220
0
230
1
40
0.906308
41
1.23482800526514
42
1.57080388627576
0
ELLIPSE
5
124
100
AcDbEntity
8
1
62
256
6
ByLayer
370
13
48
1
60
0
100
AcDbEllipse
10
63.311319
20
-30.446608
30
0
11
-1.66819192705286E-07
21
0.0199999999993043
31
0
210
0
220
0
230
1
40
0.906308
41
1.57078876731368
42
1.90676464832499
0
ELLIPSE
5
125
100
AcDbEntity
8
1
62
256
6
ByLayer
370
13
48
1
60
0
100
AcDbEllipse
10
62.947266
20
-30.446572
30
0
11
0.000516689010875447
21
0.0199933246976595
31
0
210
0
220
0
230
1
40
0.904621
41
1.59417026037695
42
1.93016731350172
0
ELLIPSE
5
126
100
AcDbEntity
8
1
62
256
6
ByLayer
370
13
48
1
60
0
100
AcDbEllipse
10
62.947266
20
-34.553428
30
0
11
-0.000516689010875325
21
0.0199933246976595
31
0
210
0
220
0
230
1
40
0.904621
41
1.21142534008808
42
1.54742239321249
0
ELLIPSE
5
127
100
AcDbEntity
8
1
62
256
6
ByLayer
370
13
48
1
60
0
100
AcDbEllipse
10
65.681682
20
-32.02126
30
0
11
0.208351294700965
21
0.138165617996779
31
0
210
0
220
0
230
1
40
0.328475
41
-1.88277706446506
42
-1.11088764732332
0
ELLIPSE
5
128
100
AcDbEntity
8
1
62
256
6
ByLayer
370
13
48
1
60
0
100
AcDbEllipse
10
65.681682
20
-32.97874
30
0
11
0.208351341972879
21
-0.138165546711546
31
0
210
0
220
0
230
1
40
0.328475
41
1.11088755728274
42
1.88277708187356
0
ELLIPSE
5
129
100
AcDbEntity
8
1
62
256
6
ByLayer
370
13
48
1
60
0
100
AcDbEllipse
10
64.262268
20
-32.631886
30
0
11
0.249711860133238
21
0.0119994545208677
31
0
210
0
220
0
230
1
40
0.102391
41
1.64627417079781
42
2.70279518242732
0
ELLIPSE
5
12A
100
AcDbEntity
8
1
62
256
6
ByLayer
370
13
48
1
60
0
100
AcDbEllipse
10
63.970334
20
-33.064144
30
0
11
0.0801092063469286
21
-0.236817472029547
31
0
210
0
220
0
230
1
40
0.051691
41
1.99612869318379
42
2.99634502504098
0
ELLIPSE
5
12B
100
AcDbEntity
8
1
62
256
6
ByLayer
370
13
48
1
60
0
100
AcDbEllipse
10
63.970334
20
-31.935856
30
0
11
0.0801092029984038
21
0.236817473162266
31
0
210
0
220
0
230
1
40
0.051691
41
-2.99634502577283
42
-1.99612899767454
0
ELLIPSE
5
12C
100
AcDbEntity
8
1
62
256
6
ByLayer
370
13
48
1
60
0
100
AcDbEllipse
10
64.262268
20
-32.368114
30
0
11
0.249711858181825
21
-0.0119994951302153
31
0
210
0
220
0
230
1
40
0.102391
41
-2.7027951657758
42
-1.64627416293752
0
ELLIPSE
5
12D
100
AcDbEntity
8
1
62
256
6
ByLayer
370
13
48
1
60
0
100
AcDbEllipse
10
68.808021
20
-30.749654
30
0
11
-0.0305240551688064
21
-0.227965528218746
31
0
210
0
220
0
230
1
40
0.00928
41
0.753203377496801
42
1.50160168305523
0
ELLIPSE
5
12E
100
AcDbEntity
8
1
62
256
6
ByLayer
370
13
48
1
60
0
100
AcDbEllipse
10
68.808021
20
-34.250346
30
0
11
-0.0305240551688062
21
0.227965528218746
31
0
210
0
220
0
230
1
40
0.00928
41
-1.50160168305528
42
-0.753203377496801
0
ELLIPSE
5
12F
100
AcDbEntity
8
1
62
256
6
ByLayer
370
13
48
1
60
0
100
AcDbEllipse
10
69.195162
20
-34.200749
30
0
11
-0.0280596719528445
21
0.228281963391545
31
0
210
0
220
0
230
1
40
0.164219
41
0.778143565892414
42
1.4813537694192
0
ELLIPSE
5
130
100
AcDbEntity
8
1
62
256
6
ByLayer
370
13
48
1
60
0
100
AcDbEllipse
10
69.778808
20
-31.111946
30
0
11
-0.057715369185191
21
-0.0816635546606753
31
0
210
0
220
0
230
1
40
0.139258
41
0.784038772190956
42
1.58442224103983
0
ELLIPSE
5
131
100
AcDbEntity
8
1
62
256
6
ByLayer
370
13
48
1
60
0
100
AcDbEllipse
10
69.598618
20
-30.987741
30
0
11
-0.0555397160345721
21
-0.0831585229714856
31
0
210
0
220
0
230
1
40
0.139564
41
0.780385816812511
42
1.58074179094093
0
ELLIPSE
5
132
100
AcDbEntity
8
1
62
256
6
ByLayer
370
13
48
1
60
0
100
AcDbEllipse
10
69.195162
20
-30.799251
30
0
11
-0.0280596719528447
21
-0.228281963391545
31
0
210
0
220
0
230
1
40
0.164219
41
-1.4813537694192
42
-0.778143565892525
0
ELLIPSE
5
133
100
AcDbEntity
8
1
62
256
6
ByLayer
370
13
48
1
60
0
100
AcDbEllipse
10
69.778808
20
-33.888054
30
0
11
-0.057715369185191
21
0.0816635546606754
31
0
210
0
220
0
230
1
40
0.139258
41
-1.58442224103983
42
-0.784038772190956
0
ELLIPSE
5
134
100
AcDbEntity
8
1
62
256
6
ByLayer
370
13
48
1
60
0
100
AcDbEllipse
10
69.598618
20
-34.012259
30
0
11
-0.055539716034572
21
0.0831585229714857
31
0
210
0
220
0
230
1
40
0.139564
41
-1.58074179094093
42
-0.780385816812892
0
ELLIPSE
5
135
100
AcDbEntity
8
1
62
256
6
ByLayer
370
13
48
1
60
0
100
AcDbEllipse
10
63.960225
20
-31.932435
30
0
11
0.0801330718436643
21
0.236809397611028
31
0
210
0
220
0
230
1
40
0.052378
41
-2.99633978110965
42
-1.9982201134417
0
ELLIPSE
5
136
100
AcDbEntity
8
1
62
256
6
ByLayer
370
13
48
1
60
0
100
AcDbEllipse
10
63.960225
20
-33.067565
30
0
11
0.0801330753651988
21
-0.236809396419389
31
0
210
0
220
0
230
1
40
0.052378
41
1.99821981134421
42
2.99633978033009
0
ELLIPSE
5
137
100
AcDbEntity
8
1
62
256
6
ByLayer
370
13
48
1
60
0
100
AcDbEllipse
10
69.521878
20
-34.078045
30
0
11
-0.078543330044571
21
0.0618946306678503
31
0
210
0
220
0
230
1
40
0.129812
41
-1.62345594610843
42
-1.15297770919788
0
ELLIPSE
5
138
100
AcDbEntity
8
1
62
256
6
ByLayer
370
13
48
1
60
0
100
AcDbEllipse
10
69.258678
20
-31.422746
30
0
11
0.00447811123902838
21
-0.399974932364181
31
0
210
0
220
0
230
1
40
0.406715
41
1.56624278122701
42
2.28570077964824
0
ELLIPSE
5
139
100
AcDbEntity
8
1
62
256
6
ByLayer
370
13
48
1
60
0
100
AcDbEllipse
10
69.258678
20
-33.577254
30
0
11
0.0044781112390283
21
0.399974932364181
31
0
210
0
220
0
230
1
40
0.406715
41
-2.28570077964821
42
-1.56624278122705
0
ELLIPSE
5
13A
100
AcDbEntity
8
1
62
256
6
ByLayer
370
13
48
1
60
0
100
AcDbEllipse
10
69.521878
20
-30.921955
30
0
11
-0.078543330044571
21
-0.0618946306678503
31
0
210
0
220
0
230
1
40
0.129812
41
1.15297770919801
42
1.62345594610841
0
ELLIPSE
5
13B
100
AcDbEntity
8
1
62
256
6
ByLayer
370
13
48
1
60
0
100
AcDbEllipse
10
69.879987
20
-33.797226
30
0
11
-0.0761825742139185
21
0.0647782014734957
31
0
210
0
220
0
230
1
40
0.131654
41
-1.61858310779789
42
-0.951275497622202
0
ELLIPSE
5
13C
100
AcDbEntity
8
1
62
256
6
ByLayer
370
13
48
1
60
0
100
AcDbEllipse
10
69.879987
20
-31.202774
30
0
11
-0.0761825742139186
21
-0.0647782014734956
31
0
210
0
220
0
230
1
40
0.131654
41
0.95127549762321
42
1.61858310779787
0
ELLIPSE
5
13D
100
AcDbEntity
8
1
62
256
6
ByLayer
370
13
48
1
60
0
100
AcDbEllipse
10
69.90851
20
-33.762606
30
0
11
-0.0780735047316924
21
0.0624862213524742
31
0
210
0
220
0
230
1
40
0.076499
41
-1.66608814563594
42
-0.995842833728734
0
ELLIPSE
5
13E
100
AcDbEntity
8
1
62
256
6
ByLayer
370
13
48
1
60
0
100
AcDbEllipse
10
69.90851
20
-31.237394
30
0
11
-0.0780735047316925
21
-0.0624862213524742
31
0
210
0
220
0
230
1
40
0.076499
41
0.995842833727274
42
1.6660881456358
0
ELLIPSE
5
13F
100
AcDbEntity
8
1
62
256
6
ByLayer
370
13
48
1
60
0
100
AcDbEllipse
10
68.548784
20
-33.581166
30
0
11
-0.000921308389249558
21
0.399998938987158
31
0
210
0
220
0
230
1
40
0.05179
41
-2.39651152074856
42
-1.57091561244836
0
ELLIPSE
5
140
100
AcDbEntity
8
1
62
256
6
ByLayer
370
13
48
1
60
0
100
AcDbEllipse
10
68.548784
20
-31.418834
30
0
11
-0.000921308389249212
21
-0.399998938987158
31
0
210
0
220
0
230
1
40
0.05179
41
1.57091561244836
42
2.39651152074826
0
ELLIPSE
5
141
100
AcDbEntity
8
1
62
256
6
ByLayer
370
18
48
1
60
0
100
AcDbEllipse
10
65.372916
20
-34.9
30
0
11
-0.203674870635643
21
0
31
-3.33066907387545E-16
210
1.63528719251465E-15
220
0
230
-1
40
0.981957
41
1.5707963267949
42
2.10231488414287
0
ELLIPSE
5
142
100
AcDbEntity
8
1
62
256
6
ByLayer
370
18
48
1
60
0
100
AcDbEllipse
10
65.700355
20
-34.393023
30
0
11
0.117518340696117
21
0.384385172385799
31
1.94289029309403E-16
210
1.63435502888238E-15
220
5.78153988874555E-18
230
-1
40
0.995153
41
2.91576259201242
42
-2.91576259201242
0
ELLIPSE
5
143
100
AcDbEntity
8
1
62
256
6
ByLayer
370
18
48
1
60
0
100
AcDbEllipse
10
65.372916
20
-30.1
30
0
11
0.203674870635643
21
2.49421540694359E-17
31
0
210
0
220
0
230
-1
40
0.981957
41
1.03927776944691
42
1.5707963267949
0
ELLIPSE
5
144
100
AcDbEntity
8
1
62
256
6
ByLayer
370
18
48
1
60
0
100
AcDbEllipse
10
70.048748
20
-33.762606
30
0
11
1.1330996904646E-16
21
0.4
31
0
210
0
220
0
230
1
40
0.121869
41
1.5707963267949
42
1.64009079051255
0
ELLIPSE
5
145
100
AcDbEntity
8
1
62
256
6
ByLayer
370
18
48
1
60
0
100
AcDbEllipse
10
65.700355
20
-30.606977
30
0
11
0.117518340696115
21
-0.3843851723858
31
1.87350135405496E-16
210
1.69566474595522E-15
220
3.10146508567605E-17
230
-1
40
0.995153
41
2.91576259201242
42
-2.91576259201242
0
ELLIPSE
5
146
100
AcDbEntity
8
1
62
256
6
ByLayer
370
18
48
1
60
0
100
AcDbEllipse
10
70.048748
20
-31.237394
30
0
11
1.1330996904646E-16
21
0.4
31
0
210
0
220
0
230
1
40
0.121869
41
1.50150186307724
42
1.5707963267949
0
ELLIPSE
5
147
100
AcDbEntity
8
1
62
256
6
ByLayer
370
18
48
1
60
0
100
AcDbEllipse
10
69.506073
20
-34.986005
30
0
11
0.229994542954909
21
-0.0163464334092756
31
0
210
0
220
0
230
-1
40
0.096932
41
1.44202876537085
42
1.73802346905354
0
ELLIPSE
5
148
100
AcDbEntity
8
1
62
256
6
ByLayer
370
18
48
1
60
0
100
AcDbEllipse
10
69.506073
20
-30.013995
30
0
11
0.229994541749834
21
0.0163464333311734
31
0
210
0
220
0
230
-1
40
0.096932
41
-1.73802346959778
42
-1.44202876435482
0
POINT
5
6C
100
AcDbEntity
8
80
62
256
6
ByLayer
370
18
48
1
60
0
100
AcDbPoint
10
0
20
0
30
0
39
0
210
0
220
0
230
1
50
360
0
POINT
5
6E
100
AcDbEntity
8
81
62
256
6
ByLayer
370
18
48
1
60
0
100
AcDbPoint
10
70
20
-35
30
0
39
0
210
0
220
0
230
1
50
360
0
SPLINE
5
149
100
AcDbEntity
8
SK1
62
256
6
ByLayer
370
13
48
1
60
0
100
AcDbSpline
70
4
71
2
72
6
73
3
40
0
40
0
40
0
40
1
40
1
40
1
41
1
10
-28.5
20
-16.8545212066649
30
0
41
1
10
-15.2499999987993
20
-17.1871851888411
30
0
41
1
10
-1.99999999999997
20
-17.5198482068775
30
0
0
SPLINE
5
14A
100
AcDbEntity
8
SK1
62
256
6
ByLayer
370
13
48
1
60
0
100
AcDbSpline
70
4
71
2
72
6
73
3
40
0
40
0
40
0
40
1
40
1
40
1
41
1
10
-1.99999999999997
20
17.5198479235725
30
0
41
1
10
-15.2499999987994
20
17.1871849060499
30
0
41
1
10
-28.5
20
16.8545209244113
30
0
0
SPLINE
5
14B
100
AcDbEntity
8
SK1
62
256
6
ByLayer
370
13
48
1
60
0
100
AcDbSpline
70
4
71
3
72
13
73
9
40
0
40
0
40
0
40
0
40
0.239409099367183
40
0.368297400752104
40
0.499931438691492
40
0.631576866358067
40
0.760496583550955
40
1
40
1
40
1
40
1
41
1
10
-1.99999999999997
20
-17.525129116923
30
0
41
1
10
-1.99909125719796
20
-17.4990813944884
30
0
41
1
10
-1.99103211472604
20
-17.4617233046648
30
0
41
1
10
-1.96563495891917
20
-17.4155240253433
30
0
41
1
10
-1.93886250822575
20
-17.3842556209573
30
0
41
1
10
-1.90627575278674
20
-17.3590990612904
30
0
41
1
10
-1.85883875467888
20
-17.3360651360603
30
0
41
1
10
-1.82110932008979
20
-17.3298953840654
30
0
41
1
10
-1.79503997793927
20
-17.3302974649007
30
0
0
SPLINE
5
14C
100
AcDbEntity
8
SK1
62
256
6
ByLayer
370
13
48
1
60
0
100
AcDbSpline
70
4
71
3
72
13
73
9
40
0
40
0
40
0
40
0
40
0.239503416121641
40
0.368423133196262
40
0.500068560814828
40
0.631702598790242
40
0.760590900287189
40
1
40
1
40
1
40
1
41
1
10
-1.79503997793924
20
17.3302973195575
30
0
41
1
10
-1.8211093200961
20
17.3298952387249
30
0
41
1
10
-1.85883875469071
20
17.336064990738
30
0
41
1
10
-1.90627575279677
20
17.3590989160413
30
0
41
1
10
-1.9388625082353
20
17.3842554757878
30
0
41
1
10
-1.96563495892642
20
17.4155238802705
30
0
41
1
10
-1.99103211473133
20
17.4617231597379
30
0
41
1
10
-1.99909125720333
20
17.4990812496682
30
0
41
1
10
-1.99999999999997
20
17.5251289721745
30
0
0
SPLINE
5
14D
100
AcDbEntity
8
SK1
62
256
6
ByLayer
370
13
48
1
60
0
100
AcDbSpline
70
4
71
2
72
6
73
3
40
0
40
0
40
0
40
1
40
1
40
1
41
1
10
-1.79503997793927
20
-17.3250646819564
30
0
41
1
10
-0.995008433403001
20
-17.3451508243471
30
0
41
1
10
-0.19497688887526
20
-17.3652369633
30
0
0
SPLINE
5
14E
100
AcDbEntity
8
SK1
62
256
6
ByLayer
370
13
48
1
60
0
100
AcDbSpline
70
4
71
2
72
6
73
3
40
0
40
0
40
0
40
1
40
1
40
1
41
1
10
-0.194976888875232
20
17.3652366802367
30
0
41
1
10
-0.995008433402973
20
17.3451505413153
30
0
41
1
10
-1.79503997793924
20
17.3250643989562
30
0
0
SPLINE
5
14F
100
AcDbEntity
8
SK1
62
256
6
ByLayer
370
13
48
1
60
0
100
AcDbSpline
70
4
71
2
72
6
73
3
40
0
40
0
40
0
40
1
40
1
40
1
41
1
10
-30
20
-15.9932495545753
30
0
41
1
10
-29.2499990770552
20
-16.4260289695447
30
0
41
1
10
-28.5
20
-16.8588008432385
30
0
0
SPLINE
5
150
100
AcDbEntity
8
SK1
62
256
6
ByLayer
370
13
48
1
60
0
100
AcDbSpline
70
4
71
2
72
6
73
3
40
0
40
0
40
0
40
1
40
1
40
1
41
1
10
-28.5
20
16.8588006436881
30
0
41
1
10
-29.2499990770911
20
16.4260287704421
30
0
41
1
10
-30
20
15.9932493559077
30
0
0
SPLINE
5
151
100
AcDbEntity
8
SK1
62
256
6
ByLayer
370
13
48
1
60
0
100
AcDbSpline
70
4
71
2
72
6
73
3
40
0
40
0
40
0
40
1
40
1
40
1
41
1
10
-0.194976888875232
20
-17.3704796738454
30
0
41
1
10
-0.0591463025171777
20
-17.3755257485882
30
0
41
1
10
-0.0356373333999329
20
-17.465527159715
30
0
0
SPLINE
5
152
100
AcDbEntity
8
SK1
62
256
6
ByLayer
370
13
48
1
60
0
100
AcDbSpline
70
4
71
2
72
6
73
3
40
0
40
0
40
0
40
1
40
1
40
1
41
1
10
-0.0343899619089143
20
17.4680396001794
30
0
41
1
10
-0.0576204404094085
20
17.376104054393
30
0
41
1
10
-0.194976888875232
20
17.3704795286248
30
0
0
SPLINE
5
153
100
AcDbEntity
8
SK1
62
256
6
ByLayer
370
13
48
1
60
0
100
AcDbSpline
70
4
71
3
72
19
73
15
40
0
40
0
40
0
40
0
40
0.05968669362969
40
0.129401785717524
40
0.199116877805359
40
0.338547061981028
40
0.408262154068862
40
0.477977246156697
40
0.617407430332365
40
0.756837614508034
40
0.826552706595869
40
0.896267798683703
40
0.965982890771538
40
1
40
1
40
1
40
1
41
1
10
-0.19497688887526
20
-5.10125086896673
30
0
41
1
10
-0.19497688887526
20
-5.53313428609087
30
0
41
1
10
-0.19497688887526
20
-6.44811450197957
30
0
41
1
10
-0.19497688887526
20
-7.78272641346854
30
0
41
1
10
-0.19497688887526
20
-9.54003737468341
30
0
41
1
10
-0.194976888875232
20
-11.1243601127487
30
0
41
1
10
-0.19497688887526
20
-12.5327088879464
30
0
41
1
10
-0.194976888875232
20
-13.8199159522374
30
0
41
1
10
-0.19497688887526
20
-15.1935356351606
30
0
41
1
10
-0.19497688887526
20
-16.2296014295451
30
0
41
1
10
-0.194976888875232
20
-16.8308406320639
30
0
41
1
10
-0.194976888875232
20
-17.1586063633231
30
0
41
1
10
-0.194976888875232
20
-17.3185678367084
30
0
41
1
10
-0.19497688887526
20
-17.3585862136748
30
0
41
1
10
-0.19497688887526
20
-17.3652898688002
30
0
0
SPLINE
5
154
100
AcDbEntity
8
SK1
62
256
6
ByLayer
370
13
48
1
60
0
100
AcDbSpline
70
4
71
3
72
39
73
35
40
0
40
0
40
0
40
0
40
0.0138412307018097
40
0.0424388006441244
40
0.0710363705864391
40
0.0996339405287539
40
0.156829080413383
40
0.214024220298013
40
0.242621790240327
40
0.271219360182642
40
0.328414500067272
40
0.357012070009586
40
0.385609639951901
40
0.414207209894216
40
0.44280477983653
40
0.471402349778845
40
0.485701134750003
40
0.49999991972116
40
0.514298704692317
40
0.528597489663475
40
0.557195059605789
40
0.585792629548104
40
0.614390199490419
40
0.642987769432734
40
0.671585339375048
40
0.728780479259678
40
0.757378049201992
40
0.785975619144307
40
0.843170759028936
40
0.900365898913566
40
0.928963468855881
40
0.957561038798195
40
0.98615860874051
40
1
40
1
40
1
40
1
41
1
10
-1.99999999999994
20
17.5197427584743
30
0
41
1
10
-1.99999999999994
20
17.5129400869073
30
0
41
1
10
-1.99999999999994
20
17.4725596415516
30
0
41
1
10
-1.99999999999997
20
17.3116343538074
30
0
41
1
10
-1.99999999999997
20
16.9815888329671
30
0
41
1
10
-1.99999999999997
20
16.3767064197525
30
0
41
1
10
-1.99999999999997
20
15.3340294930175
30
0
41
1
10
-1.99999999999997
20
13.951909224744
30
0
41
1
10
-1.99999999999997
20
12.6575651420821
30
0
41
1
10
-1.99999999999997
20
11.241205620246
30
0
41
1
10
-1.99999999999994
20
9.64534783198894
30
0
41
1
10
-2
20
7.87638184130793
30
0
41
1
10
-2
20
6.46346246032292
30
0
41
1
10
-1.99999999999994
20
4.96520999967444
30
0
41
1
10
-1.99999999999997
20
3.3831440823123
30
0
41
1
10
-1.99999999999994
20
1.99851186782058
30
0
41
1
10
-1.99999999999997
20
0.861482441955246
30
0
41
1
10
-1.99999999999997
20
1.76095512E-08
30
0
41
1
10
-1.99999999999997
20
-0.861482365135771
30
0
41
1
10
-1.99999999999997
20
-1.99851187450378
30
0
41
1
10
-1.99999999999994
20
-3.38314406709782
30
0
41
1
10
-1.99999999999997
20
-4.96520967393039
30
0
41
1
10
-1.99999999999994
20
-6.46346255594887
30
0
41
1
10
-1.99999999999994
20
-7.87638169367136
30
0
41
1
10
-1.99999999999997
20
-9.64534763909762
30
0
41
1
10
-1.99999999999994
20
-11.2412056085041
30
0
41
1
10
-1.99999999999997
20
-12.6575649796177
30
0
41
1
10
-1.99999999999994
20
-13.951909601472
30
0
41
1
10
-1.99999999999997
20
-15.3340290660616
30
0
41
1
10
-1.99999999999997
20
-16.3767071899765
30
0
41
1
10
-1.99999999999997
20
-16.9815887046989
30
0
41
1
10
-1.99999999999994
20
-17.3116346702719
30
0
41
1
10
-1.99999999999997
20
-17.4725605634581
30
0
41
1
10
-1.99999999999997
20
-17.5129407102922
30
0
41
1
10
-1.99999999999997
20
-17.5197432410878
30
0
0
SPLINE
5
155
100
AcDbEntity
8
SK1
62
256
6
ByLayer
370
13
48
1
60
0
100
AcDbSpline
70
4
71
3
72
39
73
35
40
0
40
0
40
0
40
0
40
0.0161825882582103
40
0.044642431093716
40
0.0731022739292216
40
0.101562116764727
40
0.158481802435739
40
0.21540148810675
40
0.243861330942256
40
0.272321173777761
40
0.329240859448773
40
0.357700702284279
40
0.386160545119784
40
0.41462038795529
40
0.443080230790796
40
0.471540073626301
40
0.485769995044054
40
0.499999916461807
40
0.51422983787956
40
0.528459759297312
40
0.556919602132818
40
0.585379444968324
40
0.61383928780383
40
0.642299130639335
40
0.670758973474841
40
0.727678659145852
40
0.756138501981358
40
0.784598344816864
40
0.841518030487875
40
0.898437716158887
40
0.926897558994392
40
0.955357401829898
40
0.983817244665403
40
1
40
1
40
1
40
1
41
1
10
-28.5
20
16.8572808147238
30
0
41
1
10
-28.5
20
16.8520758987086
30
0
41
1
10
-28.5
20
16.8141072514756
30
0
41
1
10
-28.5
20
16.6531187925378
30
0
41
1
10
-28.5
20
16.3328856609547
30
0
41
1
10
-28.5
20
15.743676951477
30
0
41
1
10
-28.5
20
14.7294543359372
30
0
41
1
10
-28.5
20
13.3839106046769
30
0
41
1
10
-28.5
20
12.1202809967188
30
0
41
1
10
-28.5
20
10.7383929245239
30
0
41
1
10
-28.5
20
9.19217383455464
30
0
41
1
10
-28.5
20
7.47336198687199
30
0
41
1
10
-28.5
20
6.10816664300179
30
0
41
1
10
-28.5
20
4.66779636016517
30
0
41
1
10
-28.5
20
3.15909751485606
30
0
41
1
10
-28.5
20
1.85825194532131
30
0
41
1
10
-28.5
20
0.795563889585253
30
0
41
1
10
-28.5
20
1.286700524E-07
30
0
41
1
10
-28.5
20
-0.795563863901151
30
0
41
1
10
-28.5
20
-1.85825200188603
30
0
41
1
10
-28.5
20
-3.15909729188618
30
0
41
1
10
-28.5
20
-4.66779609215357
30
0
41
1
10
-28.5
20
-6.10816680103014
30
0
41
1
10
-28.5
20
-7.47336176426705
30
0
41
1
10
-28.5
20
-9.19217366708207
30
0
41
1
10
-28.5
20
-10.7383929176601
30
0
41
1
10
-28.5
20
-12.120280876233
30
0
41
1
10
-28.5
20
-13.3839109677473
30
0
41
1
10
-28.5
20
-14.7294539424714
30
0
41
1
10
-28.5
20
-15.7436777114932
30
0
41
1
10
-28.5
20
-16.3328855300396
30
0
41
1
10
-28.5
20
-16.653119129773
30
0
41
1
10
-28.5
20
-16.8141081758448
30
0
41
1
10
-28.5
20
-16.8520764702667
30
0
41
1
10
-28.5
20
-16.85728118553
30
0
0
SPLINE
5
156
100
AcDbEntity
8
SK1
62
256
6
ByLayer
370
13
48
1
60
0
100
AcDbSpline
70
4
71
3
72
39
73
35
40
0
40
0
40
0
40
0
40
0.0181821475870529
40
0.0465244263102128
40
0.0748667050333728
40
0.103208983756533
40
0.159893541202853
40
0.216578098649172
40
0.244920377372332
40
0.273262656095492
40
0.329947213541812
40
0.358289492264972
40
0.386631770988132
40
0.414974049711292
40
0.443316328434452
40
0.471658607157612
40
0.485829746519191
40
0.500000885880772
40
0.514172025242352
40
0.528343164603931
40
0.556685443327091
40
0.585027722050251
40
0.613370000773411
40
0.641712279496571
40
0.670054558219731
40
0.726739115666051
40
0.755081394389211
40
0.78342367311237
40
0.84010823055869
40
0.89679278800501
40
0.92513506672817
40
0.95347734545133
40
0.98181962417449
40
1
40
1
40
1
40
1
41
1
10
-30
20
15.9932053888358
30
0
41
1
10
-30
20
15.9899219756925
30
0
41
1
10
-30
20
15.9548426713652
30
0
41
1
10
-30
20
15.7965327535814
30
0
41
1
10
-30
20
15.4890634139889
30
0
41
1
10
-30
20
14.9202427964399
30
0
41
1
10
-30
20
13.9430330734597
30
0
41
1
10
-30
20
12.6450674903884
30
0
41
1
10
-30
20
11.4213907579164
30
0
41
1
10
-30
20
10.084342571431
30
0
41
1
10
-30
20
8.60269267078101
30
0
41
1
10
-30
20
6.9491204942843
30
0
41
1
10
-30
20
5.64600378047214
30
0
41
1
10
-30
20
4.28092566737902
30
0
41
1
10
-30
20
2.86766148350529
30
0
41
1
10
-30
20
1.67580418173878
30
0
41
1
10
-30
20
0.709818138095812
30
0
41
1
10
-30
20
2.731357824E-07
30
0
41
1
10
-30
20
-0.709818178928089
30
0
41
1
10
-30
20
-1.67580430318827
30
0
41
1
10
-30
20
-2.86766099029063
30
0
41
1
10
-30
20
-4.28092547446488
30
0
41
1
10
-30
20
-5.64600401967209
30
0
41
1
10
-30
20
-6.9491201741622
30
0
41
1
10
-30
20
-8.60269253637264
30
0
41
1
10
-30
20
-10.0843425709124
30
0
41
1
10
-30
20
-11.4213906920358
30
0
41
1
10
-30
20
-12.6450678356932
30
0
41
1
10
-30
20
-13.9430327235571
30
0
41
1
10
-30
20
-14.9202435431779
30
0
41
1
10
-30
20
-15.4890632796306
30
0
41
1
10
-30
20
-15.7965331178349
30
0
41
1
10
-30
20
-15.9548394733936
30
0
41
1
10
-30
20
-15.9899195639776
30
0
41
1
10
-30
20
-15.993204611483
30
0
0
SPLINE
5
157
100
AcDbEntity
8
SK1
62
256
6
ByLayer
370
13
48
1
60
0
100
AcDbSpline
70
4
71
3
72
19
73
15
40
0
40
0
40
0
40
0
40
0.034016832755435
40
0.103731952784072
40
0.173447072812708
40
0.243162192841345
40
0.382592432898618
40
0.522022672955891
40
0.591737792984528
40
0.661452913013165
40
0.800883153070438
40
0.870598273099075
40
0.940313393127711
40
1
40
1
40
1
40
1
41
1
10
-0.194976888875232
20
17.3652894532613
30
0
41
1
10
-0.194976888875232
20
17.3585856738722
30
0
41
1
10
-0.194976888875232
20
17.3185670126912
30
0
41
1
10
-0.19497688887526
20
17.1586060420318
30
0
41
1
10
-0.194976888875232
20
16.8308407609472
30
0
41
1
10
-0.194976888875232
20
16.2296006616932
30
0
41
1
10
-0.19497688887526
20
15.1935360543339
30
0
41
1
10
-0.194976888875232
20
13.8199155786832
30
0
41
1
10
-0.19497688887526
20
12.5327090406557
30
0
41
1
10
-0.19497688887526
20
11.124360123357
30
0
41
1
10
-0.194976888875232
20
9.54003756166784
30
0
41
1
10
-0.19497688887526
20
7.78272657852645
30
0
41
1
10
-0.194976888875288
20
6.44811514689022
30
0
41
1
10
-0.19497688887526
20
5.53313598468046
30
0
41
1
10
-0.19497688887526
20
5.10125345322425
30
0
0
SPLINE
5
158
100
AcDbEntity
8
1
62
256
6
ByLayer
370
13
48
1
60
0
100
AcDbSpline
70
4
71
3
72
8
73
4
40
0
40
0
40
0
40
0
40
1
40
1
40
1
40
1
41
1
10
23.7970279765816
20
-34.6749999999996
30
0
41
1
10
23.7971532334836
20
-34.6749999999996
30
0
41
1
10
23.8458234074315
20
-34.6749999999996
30
0
41
1
10
23.9460819765822
20
-34.6749999999996
30
0
0
SPLINE
5
159
100
AcDbEntity
8
SK1
62
256
6
ByLayer
370
13
48
1
60
0
100
AcDbSpline
70
4
71
3
72
39
73
35
40
0
40
0
40
0
40
0
40
0.0143966632516975
40
0.0429615540189122
40
0.0715264447861269
40
0.100091335553342
40
0.157221117087771
40
0.2143508986222
40
0.242915789389415
40
0.27148068015663
40
0.328610461691059
40
0.357175352458274
40
0.385740243225489
40
0.414305133992703
40
0.442870024759918
40
0.471434915527133
40
0.48571736091074
40
0.499999806294347
40
0.514282251677955
40
0.528564697061562
40
0.557129587828777
40
0.585694478595991
40
0.614259369363206
40
0.642824260130421
40
0.671389150897636
40
0.728518932432065
40
0.75708382319928
40
0.785648713966494
40
0.842778495500924
40
0.899908277035353
40
0.928473167802568
40
0.957038058569782
40
0.985602949336997
40
1
40
1
40
1
40
1
41
1
10
-1.79503997793921
20
17.3257551199051
30
0
41
1
10
-1.79503997793921
20
17.3192800085854
30
0
41
1
10
-1.79503997793924
20
17.2795195289484
30
0
41
1
10
-1.79503997793924
20
17.1188450441766
30
0
41
1
10
-1.79503997793924
20
16.7916722325964
30
0
41
1
10
-1.79503997793924
20
16.1913785074866
30
0
41
1
10
-1.79503997793924
20
15.1570319640165
30
0
41
1
10
-1.79503997793924
20
13.785619970132
30
0
41
1
10
-1.79503997793924
20
12.500267964077
30
0
41
1
10
-1.79503997793927
20
11.0940004239179
30
0
41
1
10
-1.79503997793924
20
9.51267503388601
30
0
41
1
10
-1.79503997793927
20
7.75839234481916
30
0
41
1
10
-1.79503997793927
20
6.3594448191848
30
0
41
1
10
-1.79503997793924
20
4.87813814654282
30
0
41
1
10
-1.7950399779393
20
3.31755142876625
30
0
41
1
10
-1.79503997793927
20
1.95744888431969
30
0
41
1
10
-1.79503997793927
20
0.842183896938593
30
0
41
1
10
-1.79503997793927
20
5.01240152E-08
30
0
41
1
10
-1.79503997793927
20
-0.84218383508977
30
0
41
1
10
-1.7950399779393
20
-1.95744890560633
30
0
41
1
10
-1.79503997793927
20
-3.31755135272857
30
0
41
1
10
-1.7950399779393
20
-4.87813783770071
30
0
41
1
10
-1.79503997793927
20
-6.35944493307983
30
0
41
1
10
-1.79503997793927
20
-7.75839217523469
30
0
41
1
10
-1.7950399779393
20
-9.51267484843635
30
0
41
1
10
-1.79503997793924
20
-11.0940004136041
30
0
41
1
10
-1.7950399779393
20
-12.5002678139024
30
0
41
1
10
-1.79503997793927
20
-13.7856203428615
30
0
41
1
10
-1.79503997793927
20
-15.1570315468654
30
0
41
1
10
-1.7950399779393
20
-16.191379274722
30
0
41
1
10
-1.79503997793924
20
-16.7916721035532
30
0
41
1
10
-1.79503997793927
20
-17.118845366722
30
0
41
1
10
-1.79503997793927
20
-17.2795209566455
30
0
41
1
10
-1.79503997793924
20
-17.3192810362475
30
0
41
1
10
-1.79503997793924
20
-17.3257558795497
30
0
0
SPLINE
5
15A
100
AcDbEntity
8
1
62
256
6
ByLayer
370
13
48
1
60
0
100
AcDbSpline
70
4
71
3
72
16
73
12
40
0
40
0
40
0
40
0
40
0.461208588217182
40
0.461208588217182
40
0.643534962278683
40
0.643534962278683
40
0.82840847297545
40
0.82840847297545
40
0.943003644160203
40
0.943003644160203
40
1
40
1
40
1
40
1
41
1
10
11.8943375672974
20
-23.6665017920808
30
0
41
1
10
11.8660503915151
20
-23.7022583261632
30
0
41
1
10
11.8273339192908
20
-23.7370095736338
30
0
41
1
10
11.7473160248315
20
-23.7800170858174
30
0
41
1
10
11.7212784637476
20
-23.7917125768793
30
0
41
1
10
11.6606543989163
20
-23.812703768495
30
0
41
1
10
11.6251722226873
20
-23.8222104320954
30
0
41
1
10
11.5599225851957
20
-23.8331586856492
30
0
41
1
10
11.5324782774943
20
-23.836332378473
30
0
41
1
10
11.4901684747699
20
-23.8387183279985
30
0
41
1
10
11.4757173930754
20
-23.8391299750504
30
0
41
1
10
11.4613248654053
20
-23.8391299750504
30
0
0
SPLINE
5
15B
100
AcDbEntity
8
1
62
256
6
ByLayer
370
13
48
1
60
0
100
AcDbSpline
70
4
71
3
72
8
73
4
40
0
40
0
40
0
40
0
40
1
40
1
40
1
40
1
41
1
10
23.7251880458229
20
-33.8366424774046
30
0
41
1
10
23.7987910334695
20
-34.1161018646659
30
0
41
1
10
23.8724230074724
20
-34.3955542109637
30
0
41
1
10
23.9460819765785
20
-34.6749999999857
30
0
0
SPLINE
5
15C
100
AcDbEntity
8
1
62
256
6
ByLayer
370
13
48
1
60
0
100
AcDbSpline
70
4
71
3
72
12
73
8
40
0
40
0
40
0
40
0
40
0.34173816016429
40
0.34173816016429
40
0.684939258919487
40
0.684939258919487
40
1
40
1
40
1
40
1
41
1
10
63.1879342494185
20
-32.0572238829979
30
0
41
1
10
63.1892254700371
20
-32.065898387956
30
0
41
1
10
63.1920609352557
20
-32.0745361648454
30
0
41
1
10
63.2007598266845
20
-32.0902655256446
30
0
41
1
10
63.206763366301
20
-32.0975538331827
30
0
41
1
10
63.2204640584659
20
-32.1090661546966
30
0
41
1
10
63.2281403943774
20
-32.1136340008112
30
0
41
1
10
63.2363113507379
20
-32.1169732039282
30
0
0
SPLINE
5
15D
100
AcDbEntity
8
1
62
256
6
ByLayer
370
13
48
1
60
0
100
AcDbSpline
70
4
71
3
72
16
73
12
40
0
40
0
40
0
40
0
40
0.461208588217044
40
0.461208588217044
40
0.643534962278515
40
0.643534962278515
40
0.828408472975273
40
0.828408472975273
40
0.943003644159982
40
0.943003644159982
40
1
40
1
40
1
40
1
41
1
10
8.10566243270273
20
-8.05584836782731
30
0
41
1
10
8.13394960848495
20
-7.95080268681406
30
0
41
1
10
8.17266608070935
20
-7.84628670970764
30
0
41
1
10
8.25268397516857
20
-7.71442469145092
30
0
41
1
10
8.27872153625242
20
-7.67825379650697
30
0
41
1
10
8.33934560108369
20
-7.61290523367197
30
0
41
1
10
8.3748277773127
20
-7.58305923051381
30
0
41
1
10
8.44007741480428
20
-7.54855881865564
30
0
41
1
10
8.46752172250569
20
-7.53852018102265
30
0
41
1
10
8.50983152523008
20
-7.53097042135229
30
0
41
1
10
8.52428260692463
20
-7.52966679426447
30
0
41
1
10
8.53867513459477
20
-7.52966679426447
30
0
0
SPLINE
5
15E
100
AcDbEntity
8
1
62
256
6
ByLayer
370
13
48
1
60
0
100
AcDbSpline
70
4
71
3
72
8
73
4
40
0
40
0
40
0
40
0
40
1
40
1
40
1
40
1
41
1
10
23.3120589337619
20
-32.2501372213048
30
0
41
1
10
23.5808928998174
20
-32.776885756191
30
0
41
1
10
23.8556568359771
20
-33.3089566943201
30
0
41
1
10
24.1281524053668
20
-33.8366424774046
30
0
0
SPLINE
5
15F
100
AcDbEntity
8
1
62
256
6
ByLayer
370
13
48
1
60
0
100
AcDbSpline
70
4
71
3
72
14
73
10
40
0
40
0
40
0
40
0
40
0.265128917186045
40
0.265128917186045
40
0.530376505467195
40
0.530376505467195
40
0.794808184621352
40
0.794808184621352
40
1
40
1
40
1
40
1
41
1
10
63.409273476346
20
-32.8129013006585
30
0
41
1
10
63.4236149895652
20
-32.8071310406736
30
0
41
1
10
63.4370758012524
20
-32.7989217742682
30
0
41
1
10
63.4599666341263
20
-32.7787560435221
30
0
41
1
10
63.4697053991466
20
-32.7665276517028
30
0
41
1
10
63.4842613387714
20
-32.7398297105141
30
0
41
1
10
63.4892965875461
20
-32.7250176841899
30
0
41
1
10
63.49378808522
20
-32.6980833518838
30
0
41
1
10
63.4942809628462
20
-32.6858801136371
30
0
41
1
10
63.4933208596129
20
-32.6738237224737
30
0
0
SPLINE
5
160
100
AcDbEntity
8
1
62
256
6
ByLayer
370
13
48
1
60
0
100
AcDbSpline
70
4
71
3
72
8
73
4
40
0
40
0
40
0
40
0
40
1
40
1
40
1
40
1
41
1
10
23.3120589337619
20
-32.2501372213049
30
0
41
1
10
23.4474309635679
20
-32.7763930376228
30
0
41
1
10
23.5852174171509
20
-33.3051952172599
30
0
41
1
10
23.7251880458229
20
-33.8366424774046
30
0
0
SPLINE
5
161
100
AcDbEntity
8
1
62
256
6
ByLayer
370
13
48
1
60
0
100
AcDbSpline
70
4
71
3
72
12
73
8
40
0
40
0
40
0
40
0
40
0.332469083143942
40
0.332469083143942
40
0.665555032879927
40
0.665555032879927
40
1
40
1
40
1
40
1
41
1
10
63.2363113507379
20
-32.8830267960714
30
0
41
1
10
63.2277019070894
20
-32.8865451946283
30
0
41
1
10
63.2196373202057
20
-32.8914351024373
30
0
41
1
10
63.2060214390346
20
-32.9032957467983
30
0
41
1
10
63.2003006100353
20
-32.9104297058916
30
0
41
1
10
63.1919410587851
20
-32.9258255353225
30
0
41
1
10
63.1891986366506
20
-32.9342818804911
30
0
41
1
10
63.1879342494175
20
-32.942776117002
30
0
0
SPLINE
5
162
100
AcDbEntity
8
1
62
256
6
ByLayer
370
13
48
1
60
0
100
AcDbSpline
70
4
71
3
72
14
73
10
40
0
40
0
40
0
40
0
40
0.118128158753058
40
0.118128158753058
40
0.326495147623084
40
0.326495147623084
40
0.650572599151382
40
0.650572599151382
40
1
40
1
40
1
40
1
41
1
10
21.4383186059727
20
-24.8176151358006
30
0
41
1
10
21.4127913064694
20
-24.7113420039509
30
0
41
1
10
21.3764519551509
20
-24.6092607410903
30
0
41
1
10
21.2591134193016
20
-24.3483127717545
30
0
41
1
10
21.1636989914895
20
-24.201162808761
30
0
41
1
10
20.9160913258296
20
-23.8800520066564
30
0
41
1
10
20.7582235839298
20
-23.7285330356643
30
0
41
1
10
20.4815806931155
20
-23.4614728091727
30
0
41
1
10
20.362502348692
20
-23.345441162623
30
0
41
1
10
20.2792076144253
20
-23.2282706317201
30
0
0
SPLINE
5
163
100
AcDbEntity
8
1
62
256
6
ByLayer
370
13
48
1
60
0
100
AcDbSpline
70
4
71
3
72
8
73
4
40
0
40
0
40
0
40
0
40
1
40
1
40
1
40
1
41
1
10
20.1283047131101
20
-22.7806196319023
30
0
41
1
10
20.131366148775
20
-22.9391976430849
30
0
41
1
10
20.1813360744831
20
-23.0905949383371
30
0
41
1
10
20.2792076144253
20
-23.2282706317201
30
0
0
SPLINE
5
164
100
AcDbEntity
8
1
62
256
6
ByLayer
370
13
48
1
60
0
100
AcDbSpline
70
4
71
3
72
16
73
12
40
0
40
0
40
0
40
0
40
0.111430279628065
40
0.111430279628065
40
0.248747543515545
40
0.248747543515545
40
0.465535329195427
40
0.465535329195427
40
0.883855351867983
40
0.883855351867983
40
1
40
1
40
1
40
1
41
1
10
11.4613248654052
20
-7.52966679426507
30
0
41
1
10
11.4891847159943
20
-7.52966679426507
30
0
41
1
10
11.5173911427756
20
-7.53471706780863
30
0
41
1
10
11.5758492032394
20
-7.55489210221037
30
0
41
1
10
11.6060413892306
20
-7.57218953888454
30
0
41
1
10
11.6751537543576
20
-7.62460019394101
30
0
41
1
10
11.7107854085705
20
-7.66489294253918
30
0
41
1
10
11.7989938907461
20
-7.7894136763037
30
0
41
1
10
11.839732006851
20
-7.88247511004167
30
0
41
1
10
11.8792917015268
20
-8.00269269538023
30
0
41
1
10
11.8871615985731
20
-8.02920008991583
30
0
41
1
10
11.8943375672975
20
-8.05584836782768
30
0
0
SPLINE
5
165
100
AcDbEntity
8
1
62
256
6
ByLayer
370
13
48
1
60
0
100
AcDbSpline
70
4
71
3
72
16
73
12
40
0
40
0
40
0
40
0
40
0.461208588217143
40
0.461208588217143
40
0.643534962278572
40
0.643534962278572
40
0.828408472975299
40
0.828408472975299
40
0.943003644160014
40
0.943003644160014
40
1
40
1
40
1
40
1
41
1
10
8.10566243270276
20
23.666501792081
30
0
41
1
10
8.13394960848501
20
23.7022583261633
30
0
41
1
10
8.17266608070938
20
23.7370095736339
30
0
41
1
10
8.25268397516862
20
23.7800170858175
30
0
41
1
10
8.27872153625245
20
23.7917125768794
30
0
41
1
10
8.33934560108372
20
23.8127037684952
30
0
41
1
10
8.37482777731273
20
23.8222104320955
30
0
41
1
10
8.44007741480431
20
23.8331586856494
30
0
41
1
10
8.46752172250572
20
23.8363323784731
30
0
41
1
10
8.50983152523014
20
23.8387183279987
30
0
41
1
10
8.52428260692466
20
23.8391299750506
30
0
41
1
10
8.5386751345948
20
23.8391299750506
30
0
0
SPLINE
5
166
100
AcDbEntity
8
1
62
256
6
ByLayer
370
13
48
1
60
0
100
AcDbSpline
70
4
71
3
72
14
73
10
40
0
40
0
40
0
40
0
40
0.27801241869256
40
0.27801241869256
40
0.556596269058877
40
0.556596269058877
40
0.827168123940398
40
0.827168123940398
40
1
40
1
40
1
40
1
41
1
10
63.4933208596119
20
-32.3261762775262
30
0
41
1
10
63.4946138316424
20
-32.3099399229112
30
0
41
1
10
63.4932442393781
20
-32.2933762928752
30
0
41
1
10
63.4851690657307
20
-32.2622637151263
30
0
41
1
10
63.4783276592226
20
-32.2472829148834
30
0
41
1
10
63.4602533158564
20
-32.2215170645342
30
0
41
1
10
63.4488902287814
20
-32.2102698894178
30
0
41
1
10
63.427731436092
20
-32.1957099103992
30
0
41
1
10
63.4187033619986
20
-32.1908927823637
30
0
41
1
10
63.4092734763468
20
-32.18709869934
30
0
0
SPLINE
5
167
100
AcDbEntity
8
1
62
256
6
ByLayer
370
13
48
1
60
0
100
AcDbSpline
70
4
71
3
72
16
73
12
40
0
40
0
40
0
40
0
40
0.111430279628044
40
0.111430279628044
40
0.248747543515544
40
0.248747543515544
40
0.465535329195463
40
0.465535329195463
40
0.883855351868098
40
0.883855351868098
40
1
40
1
40
1
40
1
41
1
10
11.4613248654053
20
23.8391299750503
30
0
41
1
10
11.4891847159943
20
23.8391299750503
30
0
41
1
10
11.5173911427756
20
23.8375361275706
30
0
41
1
10
11.5758492032394
20
23.831150658589
30
0
41
1
10
11.6060413892307
20
23.8256668770179
30
0
41
1
10
11.6751537543576
20
23.8089605749787
30
0
41
1
10
11.7107854085706
20
23.7960379707759
30
0
41
1
10
11.7989938907461
20
23.7556824246831
30
0
41
1
10
11.839732006851
20
23.725016539998
30
0
41
1
10
11.8792917015269
20
23.6845451449632
30
0
41
1
10
11.8871615985732
20
23.6755726082077
30
0
41
1
10
11.8943375672976
20
23.6665017920809
30
0
0
SPLINE
5
168
100
AcDbEntity
8
1
62
256
6
ByLayer
370
13
48
1
60
0
100
AcDbSpline
70
4
71
3
72
16
73
12
40
0
40
0
40
0
40
0
40
0.11143027962802
40
0.11143027962802
40
0.248747543515497
40
0.248747543515497
40
0.465535329195364
40
0.465535329195364
40
0.883855351867865
40
0.883855351867865
40
1
40
1
40
1
40
1
41
1
10
8.53867513459483
20
-23.8391299750504
30
0
41
1
10
8.51081528400582
20
-23.8391299750504
30
0
41
1
10
8.48260885722451
20
-23.8375361275706
30
0
41
1
10
8.42415079676073
20
-23.831150658589
30
0
41
1
10
8.39395861076946
20
-23.825666877018
30
0
41
1
10
8.32484624564248
20
-23.8089605749788
30
0
41
1
10
8.28921459142958
20
-23.796037970776
30
0
41
1
10
8.20100610925402
20
-23.7556824246832
30
0
41
1
10
8.16026799314918
20
-23.7250165399981
30
0
41
1
10
8.12070829847329
20
-23.6845451449633
30
0
41
1
10
8.11283840142698
20
-23.6755726082078
30
0
41
1
10
8.10566243270256
20
-23.666501792081
30
0
0
SPLINE
5
169
100
AcDbEntity
8
1
62
256
6
ByLayer
370
13
48
1
60
0
100
AcDbSpline
70
4
71
3
72
16
73
12
40
0
40
0
40
0
40
0
40
0.11143027962808
40
0.11143027962808
40
0.248747543515525
40
0.248747543515525
40
0.465535329195372
40
0.465535329195372
40
0.883855351867804
40
0.883855351867804
40
1
40
1
40
1
40
1
41
1
10
8.53867513459485
20
7.5296667942649
30
0
41
1
10
8.51081528400582
20
7.5296667942649
30
0
41
1
10
8.48260885722451
20
7.53471706780846
30
0
41
1
10
8.42415079676076
20
7.55489210221018
30
0
41
1
10
8.39395861076949
20
7.57218953888435
30
0
41
1
10
8.32484624564248
20
7.62460019394078
30
0
41
1
10
8.28921459142961
20
7.66489294253896
30
0
41
1
10
8.20100610925405
20
7.78941367630341
30
0
41
1
10
8.1602679931492
20
7.88247511004138
30
0
41
1
10
8.12070829847329
20
8.00269269537992
30
0
41
1
10
8.11283840142701
20
8.02920008991555
30
0
41
1
10
8.10566243270259
20
8.05584836782742
30
0
0
SPLINE
5
16A
100
AcDbEntity
8
1
62
256
6
ByLayer
370
13
48
1
60
0
100
AcDbSpline
70
4
71
3
72
8
73
4
40
0
40
0
40
0
40
0
40
1
40
1
40
1
40
1
41
1
10
21.4383186059717
20
-24.8176151358011
30
0
41
1
10
22.0292865262087
20
-27.2778836690515
30
0
41
1
10
22.6639278190607
20
-29.7569882468614
30
0
41
1
10
23.3120589337619
20
-32.2501372213048
30
0
0
SPLINE
5
16B
100
AcDbEntity
8
1
62
256
6
ByLayer
370
13
48
1
60
0
100
AcDbSpline
70
4
71
3
72
10
73
6
40
0
40
0
40
0
40
0
40
0.390510333775691
40
0.390510333775691
40
1
40
1
40
1
40
1
41
1
10
37.9999999999993
20
-30.325
30
0
41
1
10
37.9664715585716
20
-30.325
30
0
41
1
10
37.9330144883818
20
-30.3239454947724
30
0
41
1
10
37.8478069902393
20
-30.3185939072405
30
0
41
1
10
37.7961926629567
20
-30.3128077331884
30
0
41
1
10
37.7451722772135
20
-30.3045767887944
30
0
0
SPLINE
5
16C
100
AcDbEntity
8
1
62
256
6
ByLayer
370
13
48
1
60
0
100
AcDbSpline
70
4
71
3
72
16
73
12
40
0
40
0
40
0
40
0
40
0.461208588217109
40
0.461208588217109
40
0.643534962278616
40
0.643534962278616
40
0.8284084729754
40
0.8284084729754
40
0.943003644160146
40
0.943003644160146
40
1
40
1
40
1
40
1
41
1
10
11.8943375672974
20
8.05584836782788
30
0
41
1
10
11.8660503915151
20
7.9508026868146
30
0
41
1
10
11.8273339192908
20
7.84628670970815
30
0
41
1
10
11.7473160248315
20
7.7144246914514
30
0
41
1
10
11.7212784637477
20
7.67825379650742
30
0
41
1
10
11.6606543989164
20
7.61290523367242
30
0
41
1
10
11.6251722226874
20
7.58305923051424
30
0
41
1
10
11.5599225851957
20
7.54855881865609
30
0
41
1
10
11.5324782774943
20
7.53852018102307
30
0
41
1
10
11.4901684747699
20
7.53097042135275
30
0
41
1
10
11.4757173930755
20
7.52966679426493
30
0
41
1
10
11.4613248654054
20
7.52966679426493
30
0
0
SPLINE
5
16D
100
AcDbEntity
8
1
62
256
6
ByLayer
370
13
48
1
60
0
100
AcDbSpline
70
4
71
3
72
8
73
4
40
0
40
0
40
0
40
0
40
1
40
1
40
1
40
1
41
1
10
37.7449176458947
20
-30.3249999999994
30
0
41
1
10
37.7449176458947
20
-30.3181917338387
30
0
41
1
10
37.7450025532578
20
-30.3113829390935
30
0
41
1
10
37.7451722772135
20
-30.3045767887944
30
0
0
SPLINE
5
16E
100
AcDbEntity
8
SK1
62
256
6
ByLayer
370
13
48
1
60
0
100
AcDbSpline
70
4
71
3
72
10
73
6
40
0
40
0
40
0
40
0
40
0.5
40
0.5
40
1
40
1
40
1
40
1
41
1
10
-1.3154350650949
20
-3.91026939581309
30
0
41
1
10
-1.5399457534287
20
-2.66888211580178
30
0
41
1
10
-1.72361848453104
20
-1.33806859990824
30
0
41
1
10
-1.72276554179191
20
1.34789001624881
30
0
41
1
10
-1.53997014218979
20
2.66874784662463
30
0
41
1
10
-1.31543506509493
20
3.91027172665434
30
0
0
SPLINE
5
16F
100
AcDbEntity
8
SK1
62
256
6
ByLayer
370
13
48
1
60
0
100
AcDbSpline
70
4
71
3
72
24
73
20
40
0
40
0
40
0
40
0
40
0.0865398844436688
40
0.0865398844436688
40
0.174606808973636
40
0.174606808973636
40
0.204283232250677
40
0.204283232250677
40
0.234430378299024
40
0.234430378299024
40
0.260963086962171
40
0.260963086962171
40
0.296894251932695
40
0.296894251932695
40
0.362560401604326
40
0.362560401604326
40
0.577775078513836
40
0.577775078513836
40
1
40
1
40
1
40
1
41
1
10
-0.19497688887526
20
-5.10125086895559
30
0
41
1
10
-0.22459265387019
20
-5.16040801377196
30
0
41
1
10
-0.257595479757299
20
-5.21831140841581
30
0
41
1
10
-0.336150389877929
20
-5.32723274028893
30
0
41
1
10
-0.382542848167191
20
-5.38041105877855
30
0
41
1
10
-0.462321250315455
20
-5.43127550158044
30
0
41
1
10
-0.484592781963443
20
-5.44242526658465
30
0
41
1
10
-0.532132005846307
20
-5.45772783053678
30
0
41
1
10
-0.558142899452946
20
-5.46179903845928
30
0
41
1
10
-0.606278947725343
20
-5.46041947085894
30
0
41
1
10
-0.62903407290753
20
-5.45606086620421
30
0
41
1
10
-0.678877240187575
20
-5.4393043627822
30
0
41
1
10
-0.705546599495307
20
-5.42456927125332
30
0
41
1
10
-0.773100753634878
20
-5.37672942900611
30
0
41
1
10
-0.809617767336363
20
-5.33795142049772
30
0
41
1
10
-0.945846243999341
20
-5.16581622302243
30
0
41
1
10
-1.01284657594547
20
-5.01170528380612
30
0
41
1
10
-1.18434707470058
20
-4.55468826919954
30
0
41
1
10
-1.25671595113775
20
-4.23494507919179
30
0
41
1
10
-1.31543506509541
20
-3.91026939581303
30
0
0
SPLINE
5
170
100
AcDbEntity
8
SK1
62
256
6
ByLayer
370
13
48
1
60
0
100
AcDbSpline
70
4
71
3
72
24
73
20
40
0
40
0
40
0
40
0
40
0.129293125164686
40
0.129293125164686
40
0.160890762428164
40
0.160890762428164
40
0.193125098727767
40
0.193125098727767
40
0.210852819140242
40
0.210852819140242
40
0.228629109367063
40
0.228629109367063
40
0.251617995970115
40
0.251617995970115
40
0.29181155047972
40
0.29181155047972
40
0.41728566151876
40
0.41728566151876
40
1
40
1
40
1
40
1
41
1
10
-0.194976888870173
20
5.1012534532131
30
0
41
1
10
-0.181437028790697
20
5.07420777561973
30
0
41
1
10
-0.166263939428688
20
5.04747373608862
30
0
41
1
10
-0.140897870634973
20
5.02184016773086
30
0
41
1
10
-0.135473818681078
20
5.01716196663591
30
0
41
1
10
-0.12354965524375
20
5.00963193359675
30
0
41
1
10
-0.116826960956928
20
5.00671644859125
30
0
41
1
10
-0.105797159791223
20
5.00555851911668
30
0
41
1
10
-0.101665537823436
20
5.00583807674775
30
0
41
1
10
-0.0936550002420802
20
5.0080066737942
30
0
41
1
10
-0.0896865034706309
20
5.00992758749919
30
0
41
1
10
-0.0813787136982569
20
5.01564999886395
30
0
41
1
10
-0.0771254542221982
20
5.01988425828597
30
0
41
1
10
-0.0668909728222502
20
5.03253319783869
30
0
41
1
10
-0.0616757119854014
20
5.04189507302843
30
0
41
1
10
-0.0435256268697799
20
5.08091090599615
30
0
41
1
10
-0.0358776289128286
20
5.11311220772899
30
0
41
1
10
-0.0008126982903036
20
5.29017319535765
30
0
41
1
10
-2.84E-14
20
5.43661415621551
30
0
41
1
10
0
20
5.57923236301653
30
0
0
SPLINE
5
171
100
AcDbEntity
8
SK1
62
256
6
ByLayer
370
13
48
1
60
0
100
AcDbSpline
70
4
71
3
72
28
73
24
40
0
40
0
40
0
40
0
40
0.516446141051875
40
0.516446141051875
40
0.60696472293889
40
0.60696472293889
40
0.693548730179386
40
0.693548730179386
40
0.726617429278814
40
0.726617429278814
40
0.760179667744308
40
0.760179667744308
40
0.778833531746175
40
0.778833531746175
40
0.797654854320967
40
0.797654854320967
40
0.814904576888877
40
0.814904576888877
40
0.84517604149167
40
0.84517604149167
40
0.922307781344679
40
0.922307781344679
40
1
40
1
40
1
40
1
41
1
10
2.84E-14
20
-5.57923036606778
30
0
41
1
10
2.84E-14
20
-5.45236806529746
30
0
41
1
10
-0.0023498218235147
20
-5.32313166238592
30
0
41
1
10
-0.0246707618044297
20
-5.17055408176367
30
0
41
1
10
-0.0286524877798229
20
-5.14764204467323
30
0
41
1
10
-0.0387560546027146
20
-5.10317866975325
30
0
41
1
10
-0.0446943059309319
20
-5.08137365774544
30
0
41
1
10
-0.0565046990694498
20
-5.05263962384098
30
0
41
1
10
-0.0602008880996152
20
-5.04479189761108
30
0
41
1
10
-0.0689466158999039
20
-5.02994474169316
30
0
41
1
10
-0.0741217536320278
20
-5.02277054209364
30
0
41
1
10
-0.083719353849034
20
-5.01389488612975
30
0
41
1
10
-0.0875463815136186
20
-5.01114472817915
30
0
41
1
10
-0.0956073859930484
20
-5.0072569745904
30
0
41
1
10
-0.0999476032095004
20
-5.00610700608993
30
0
41
1
10
-0.108056444598816
20
-5.00560398939328
30
0
41
1
10
-0.111930329251635
20
-5.00608221695776
30
0
41
1
10
-0.121996996497756
20
-5.00880668081476
30
0
41
1
10
-0.127948105958751
20
-5.01208528001047
30
0
41
1
10
-0.147044934762817
20
-5.02590151619114
30
0
41
1
10
-0.158144588367435
20
-5.03988585432674
30
0
41
1
10
-0.178024754257848
20
-5.06915995887212
30
0
41
1
10
-0.186840242430606
20
-5.08499801267462
30
0
41
1
10
-0.194976888875431
20
-5.1012508689536
30
0
0
SPLINE
5
172
100
AcDbEntity
8
SK1
62
256
6
ByLayer
370
13
48
1
60
0
100
AcDbSpline
70
4
71
3
72
12
73
8
40
0
40
0
40
0
40
0
40
0.5
40
0.5
40
0.75
40
0.75
40
1
40
1
40
1
40
1
41
1
10
-1.31543506509493
20
3.91027172665426
30
0
41
1
10
-1.24592839325501
20
4.29459561059764
30
0
41
1
10
-1.1633141699125
20
4.66760511763007
30
0
41
1
10
-0.926521435133054
20
5.19044404924691
30
0
41
1
10
-0.835622884145835
20
5.40735814273424
30
0
41
1
10
-0.419282266252452
20
5.50342856768938
30
0
41
1
10
-0.281321823101052
20
5.27372622909891
30
0
41
1
10
-0.194976888875232
20
5.1012534532131
30
0
0
SPLINE
5
173
100
AcDbEntity
8
1
62
256
6
ByLayer
370
18
48
1
60
0
100
AcDbSpline
70
4
71
3
72
10
73
6
40
0
40
0
40
0
40
0
40
0.955278663307113
40
0.955278663307113
40
1
40
1
40
1
40
1
41
1
10
56.4
20
-30.2999999999999
30
0
41
1
10
56.3575631985057
20
-30.2999999999999
30
0
41
1
10
56.3128593536871
20
-30.3069581050096
30
0
41
1
10
56.2677727819472
20
-30.3224811425773
30
0
41
1
10
56.2657624289886
20
-30.3231920459308
30
0
41
1
10
56.2637535520552
20
-30.3239212253973
30
0
0
SPLINE
5
174
100
AcDbEntity
8
1
62
256
6
ByLayer
370
18
48
1
60
0
100
AcDbSpline
70
4
71
3
72
10
73
6
40
0
40
0
40
0
40
0
40
0.162708415110679
40
0.162708415110679
40
1
40
1
40
1
40
1
41
1
10
56.2681266662175
20
-34.6776222335529
30
0
41
1
10
56.2752427814923
20
-34.6801147181571
30
0
41
1
10
56.2823812785674
20
-34.6823885499614
30
0
41
1
10
56.3263525328971
20
-34.6950249912079
30
0
41
1
10
56.3639443231505
20
-34.6999999999999
30
0
41
1
10
56.4
20
-34.6999999999999
30
0
0
SPLINE
5
175
100
AcDbEntity
8
1
62
256
6
ByLayer
370
13
48
1
60
0
100
AcDbSpline
70
4
71
2
72
6
73
3
40
0
40
0
40
0
40
1
40
1
40
1
41
0.97390075895657
10
63.5588097242437
20
-32.8292212401835
30
0
41
0.983276077511617
10
63.6259442699043
20
-32.8292212401835
30
0
41
1
10
63.6756897242366
20
-32.8292212401835
30
0
0
SPLINE
5
176
100
AcDbEntity
8
1
62
256
6
ByLayer
370
13
48
1
60
0
100
AcDbSpline
70
4
71
2
72
6
73
3
40
0
40
0
40
0
40
1
40
1
40
1
41
0.974231088937478
10
63.6749115004787
20
-32.4999999999999
30
0
41
0.983568696286922
10
63.7471545861186
20
-32.4999999999999
30
0
41
1
10
63.8009195004782
20
-32.4999999999999
30
0
0
SPLINE
5
177
100
AcDbEntity
8
1
62
256
6
ByLayer
370
13
48
1
60
0
100
AcDbSpline
70
4
71
2
72
6
73
3
40
0
40
0
40
0
40
1
40
1
40
1
41
0.974231088938376
10
63.6749115004858
20
-32.6318857898185
30
0
41
0.983568696287712
10
63.7471545861212
20
-32.6318857898185
30
0
41
1
10
63.8009195004782
20
-32.6318857898185
30
0
0
SPLINE
5
178
100
AcDbEntity
8
1
62
256
6
ByLayer
370
13
48
1
60
0
100
AcDbSpline
70
4
71
3
72
8
73
4
40
0
40
0
40
0
40
0
40
1
40
1
40
1
40
1
41
1
10
65.6829840127524
20
-31.8040903047635
30
0
41
1
10
65.6810947661036
20
-31.7413927350206
30
0
41
1
10
65.6631068755878
20
-31.6857787753366
30
0
41
1
10
65.6342900358638
20
-31.6402367804514
30
0
0
SPLINE
5
179
100
AcDbEntity
8
1
62
256
6
ByLayer
370
13
48
1
60
0
100
AcDbSpline
70
4
71
3
72
10
73
6
40
0
40
0
40
0
40
0
40
0.262862791350924
40
0.262862791350924
40
1
40
1
40
1
40
1
41
1
10
65.6342900358642
20
-31.6402367804522
30
0
41
1
10
65.7025775519151
20
-31.5771352431155
30
0
41
1
10
65.7722682487008
20
-31.5155151344826
30
0
41
1
10
66.0422196182249
20
-31.2874582145176
30
0
41
1
10
66.2522353540996
20
-31.1315604261186
30
0
41
1
10
66.4715765647267
20
-30.99117205236
30
0
0
SPLINE
5
17A
100
AcDbEntity
8
1
62
256
6
ByLayer
370
13
48
1
60
0
100
AcDbSpline
70
4
71
3
72
12
73
8
40
0
40
0
40
0
40
0
40
0.0871818958158546
40
0.0871818958158546
40
0.555816072150762
40
0.555816072150762
40
1
40
1
40
1
40
1
41
1
10
66.4715765647289
20
-30.9911720523586
30
0
41
1
10
66.516355622926
20
-30.9994322356792
30
0
41
1
10
66.5625010428804
20
-31.0064786074716
30
0
41
1
10
66.8599208005271
20
-31.0436485111458
30
0
41
1
10
67.1493997212845
20
-31.0436224334876
30
0
41
1
10
67.7340901033075
20
-31.0062252172053
30
0
41
1
10
68.0363033123272
20
-30.9677673835345
30
0
41
1
10
68.3321466497296
20
-30.9203544399354
30
0
0
SPLINE
5
17B
100
AcDbEntity
8
1
62
256
6
ByLayer
370
13
48
1
60
0
100
AcDbSpline
70
4
71
3
72
8
73
4
40
0
40
0
40
0
40
0
40
1
40
1
40
1
40
1
41
1
10
68.3321466497296
20
-30.9203544399354
30
0
41
1
10
68.4819028297928
20
-30.8963539625838
30
0
41
1
10
68.6367163407338
20
-30.8969936246009
30
0
41
1
10
68.7872005279842
20
-30.9161492535703
30
0
0
SPLINE
5
17C
100
AcDbEntity
8
1
62
256
6
ByLayer
370
13
48
1
60
0
100
AcDbSpline
70
4
71
3
72
8
73
4
40
0
40
0
40
0
40
0
40
1
40
1
40
1
40
1
41
1
10
68.7872005279842
20
-30.9161492535703
30
0
41
1
10
68.9080845009776
20
-30.9315369735516
30
0
41
1
10
69.0296597255469
20
-30.9457705706944
30
0
41
1
10
69.1488622536791
20
-30.9586027197612
30
0
0
SPLINE
5
17D
100
AcDbEntity
8
1
62
256
6
ByLayer
370
13
48
1
60
0
100
AcDbSpline
70
4
71
3
72
8
73
4
40
0
40
0
40
0
40
0
40
1
40
1
40
1
40
1
41
1
10
69.1488622536791
20
-30.9586027197612
30
0
41
1
10
69.2906386357502
20
-30.9738649436199
30
0
41
1
10
69.430489331089
20
-31.009997641832
30
0
41
1
10
69.5673140428787
20
-31.0522904115315
30
0
0
SPLINE
5
17E
100
AcDbEntity
8
1
62
256
6
ByLayer
370
13
48
1
60
0
100
AcDbSpline
70
4
71
3
72
8
73
4
40
0
40
0
40
0
40
0
40
1
40
1
40
1
40
1
41
1
10
69.5673140428785
20
-31.0522904115314
30
0
41
1
10
69.6274617011982
20
-31.0924621963221
30
0
41
1
10
69.6869033219913
20
-31.1336975027736
30
0
41
1
10
69.7459718007426
20
-31.1754451875985
30
0
0
SPLINE
5
17F
100
AcDbEntity
8
1
62
256
6
ByLayer
370
13
48
1
60
0
100
AcDbSpline
70
4
71
3
72
8
73
4
40
0
40
0
40
0
40
0
40
1
40
1
40
1
40
1
41
1
10
69.7459718007426
20
-31.1754451875985
30
0
41
1
10
69.6240345464985
20
-31.1705986009854
30
0
41
1
10
69.5024410495939
20
-31.1651912786276
30
0
41
1
10
69.3785881656746
20
-31.1591687168293
30
0
0
SPLINE
5
180
100
AcDbEntity
8
1
62
256
6
ByLayer
370
13
48
1
60
0
100
AcDbSpline
70
4
71
3
72
12
73
8
40
0
40
0
40
0
40
0
40
0.182835658751355
40
0.182835658751355
40
0.599400569939014
40
0.599400569939014
40
1
40
1
40
1
40
1
41
1
10
69.3785881656746
20
-31.1591687168293
30
0
41
1
10
69.3310683850015
20
-31.1568579848811
30
0
41
1
10
69.2829585315104
20
-31.1546667183975
30
0
41
1
10
69.1239573417232
20
-31.1475950559594
30
0
41
1
10
69.0107346591717
20
-31.1428302121398
30
0
41
1
10
68.7864706205419
20
-31.1337445117691
30
0
41
1
10
68.6749954711982
20
-31.129124281984
30
0
41
1
10
68.5635072589985
20
-31.1248539965128
30
0
0
SPLINE
5
181
100
AcDbEntity
8
1
62
256
6
ByLayer
370
13
48
1
60
0
100
AcDbSpline
70
4
71
3
72
16
73
12
40
0
40
0
40
0
40
0
40
0.0921366095856315
40
0.0921366095856315
40
0.290118390674097
40
0.290118390674097
40
0.595936908248371
40
0.595936908248371
40
0.880361355152389
40
0.880361355152389
40
1
40
1
40
1
40
1
41
1
10
68.5635072589985
20
-31.1248539965128
30
0
41
1
10
68.5591982602682
20
-31.1246889507711
30
0
41
1
10
68.5548883609445
20
-31.1245428730263
30
0
41
1
10
68.5413159701824
20
-31.1241432836465
30
0
41
1
10
68.5320505661206
20
-31.1239578171095
30
0
41
1
10
68.5084733436751
20
-31.1237233032518
30
0
41
1
10
68.4941577759219
20
-31.1238156600877
30
0
41
1
10
68.4665431360997
20
-31.1244111680176
30
0
41
1
10
68.4532407620858
20
-31.124943941937
30
0
41
1
10
68.4343574737551
20
-31.1259266706367
30
0
41
1
10
68.4287674124236
20
-31.1262454804366
30
0
41
1
10
68.4231781443762
20
-31.1265697045966
30
0
0
SPLINE
5
182
100
AcDbEntity
8
1
62
256
6
ByLayer
370
13
48
1
60
0
100
AcDbSpline
70
4
71
3
72
10
73
6
40
0
40
0
40
0
40
0
40
0.526039489910472
40
0.526039489910472
40
1
40
1
40
1
40
1
41
1
10
68.4231781443762
20
-31.1265697045966
30
0
41
1
10
68.3243838115333
20
-31.1323005998247
30
0
41
1
10
68.2257440636944
20
-31.1476816536284
30
0
41
1
10
68.0427884076342
20
-31.1932471571036
30
0
41
1
10
67.9555807587938
20
-31.2138682413174
30
0
41
1
10
67.8688521819128
20
-31.236344810966
30
0
0
SPLINE
5
183
100
AcDbEntity
8
1
62
256
6
ByLayer
370
13
48
1
60
0
100
AcDbSpline
70
4
71
3
72
13
73
9
40
0
40
0
40
0
40
0
40
0.579075565907237
40
0.579075565907237
40
0.579075565907237
40
0.952945790436294
40
0.952945790436294
40
1
40
1
40
1
40
1
41
1
10
67.8688521819128
20
-31.236344810966
30
0
41
1
10
67.4253573800224
20
-31.3512808811976
30
0
41
1
10
66.9763277002349
20
-31.4676832936672
30
0
41
1
10
66.557589780142
20
-31.5763862802014
30
0
41
1
10
66.2850802933633
20
-31.6471288464948
30
0
41
1
10
66.0213233971121
20
-31.7157242920068
30
0
41
1
10
65.7443878409568
20
-31.7880373100894
30
0
41
1
10
65.7135476384128
20
-31.7960962298176
30
0
41
1
10
65.6829840127524
20
-31.8040903047634
30
0
0
SPLINE
5
184
100
AcDbEntity
8
1
62
256
6
ByLayer
370
13
48
1
60
0
100
AcDbSpline
70
4
71
3
72
8
73
4
40
0
40
0
40
0
40
0
40
1
40
1
40
1
40
1
41
1
10
65.6342903231341
20
-33.3597634850012
30
0
41
1
10
65.6631071748038
20
-33.3142214349603
30
0
41
1
10
65.6810950586271
20
-33.2586074061984
30
0
41
1
10
65.6829842751339
20
-33.1959097638635
30
0
0
SPLINE
5
185
100
AcDbEntity
8
1
62
256
6
ByLayer
370
13
48
1
60
0
100
AcDbSpline
70
4
71
3
72
13
73
9
40
0
40
0
40
0
40
0
40
0.579075643919431
40
0.579075643919431
40
0.579075643919431
40
0.952945918815726
40
0.952945918815726
40
1
40
1
40
1
40
1
41
1
10
67.8688521819128
20
-33.7636551890337
30
0
41
1
10
67.4253573800224
20
-33.6487191188021
30
0
41
1
10
66.9763277002349
20
-33.5323167063326
30
0
41
1
10
66.557589780142
20
-33.4236137197984
30
0
41
1
10
66.2850802933633
20
-33.352871153505
30
0
41
1
10
66.0213233971121
20
-33.2842757079929
30
0
41
1
10
65.7443879299412
20
-33.2119627131458
30
0
41
1
10
65.7135478149083
20
-33.2039038163023
30
0
41
1
10
65.6829842751339
20
-33.1959097638636
30
0
0
SPLINE
5
186
100
AcDbEntity
8
1
62
256
6
ByLayer
370
13
48
1
60
0
100
AcDbSpline
70
4
71
3
72
10
73
6
40
0
40
0
40
0
40
0
40
0.526039489910472
40
0.526039489910472
40
1
40
1
40
1
40
1
41
1
10
68.4231781443762
20
-33.8734302954031
30
0
41
1
10
68.3243838115333
20
-33.867699400175
30
0
41
1
10
68.2257440636944
20
-33.8523183463714
30
0
41
1
10
68.0427884076342
20
-33.8067528428962
30
0
41
1
10
67.9555807587938
20
-33.7861317586823
30
0
41
1
10
67.8688521819128
20
-33.7636551890337
30
0
0
SPLINE
5
187
100
AcDbEntity
8
1
62
256
6
ByLayer
370
13
48
1
60
0
100
AcDbSpline
70
4
71
3
72
16
73
12
40
0
40
0
40
0
40
0
40
0.0921366095856315
40
0.0921366095856315
40
0.290118390674097
40
0.290118390674097
40
0.595936908248371
40
0.595936908248371
40
0.880361355152389
40
0.880361355152389
40
1
40
1
40
1
40
1
41
1
10
68.5635072589985
20
-33.8751460034869
30
0
41
1
10
68.5591982602682
20
-33.8753110492286
30
0
41
1
10
68.5548883609445
20
-33.8754571269734
30
0
41
1
10
68.5413159701824
20
-33.8758567163532
30
0
41
1
10
68.5320505661206
20
-33.8760421828903
30
0
41
1
10
68.5084733436751
20
-33.876276696748
30
0
41
1
10
68.4941577759219
20
-33.876184339912
30
0
41
1
10
68.4665431360997
20
-33.8755888319822
30
0
41
1
10
68.4532407620858
20
-33.8750560580628
30
0
41
1
10
68.4343574737551
20
-33.874073329363
30
0
41
1
10
68.4287674124236
20
-33.8737545195632
30
0
41
1
10
68.4231781443762
20
-33.8734302954031
30
0
0
SPLINE
5
188
100
AcDbEntity
8
1
62
256
6
ByLayer
370
13
48
1
60
0
100
AcDbSpline
70
4
71
3
72
12
73
8
40
0
40
0
40
0
40
0
40
0.182835658751355
40
0.182835658751355
40
0.599400569939014
40
0.599400569939014
40
1
40
1
40
1
40
1
41
1
10
69.3785881656746
20
-33.8408312831705
30
0
41
1
10
69.3310683850015
20
-33.8431420151186
30
0
41
1
10
69.2829585315104
20
-33.8453332816023
30
0
41
1
10
69.1239573417232
20
-33.8524049440403
30
0
41
1
10
69.0107346591717
20
-33.85716978786
30
0
41
1
10
68.7864706205419
20
-33.8662554882307
30
0
41
1
10
68.6749954711982
20
-33.8708757180158
30
0
41
1
10
68.5635072589985
20
-33.8751460034869
30
0
0
SPLINE
5
189
100
AcDbEntity
8
1
62
256
6
ByLayer
370
13
48
1
60
0
100
AcDbSpline
70
4
71
3
72
8
73
4
40
0
40
0
40
0
40
0
40
1
40
1
40
1
40
1
41
1
10
69.7459718007426
20
-33.8245548124013
30
0
41
1
10
69.6240345464985
20
-33.8294013990143
30
0
41
1
10
69.5024410495939
20
-33.8348087213722
30
0
41
1
10
69.3785881656746
20
-33.8408312831705
30
0
0
SPLINE
5
18A
100
AcDbEntity
8
1
62
256
6
ByLayer
370
13
48
1
60
0
100
AcDbSpline
70
4
71
3
72
8
73
4
40
0
40
0
40
0
40
0
40
1
40
1
40
1
40
1
41
1
10
69.5673140428785
20
-33.9477095884684
30
0
41
1
10
69.6274617011982
20
-33.9075378036777
30
0
41
1
10
69.6869033219913
20
-33.8663024972262
30
0
41
1
10
69.7459718007426
20
-33.8245548124013
30
0
0
SPLINE
5
18B
100
AcDbEntity
8
1
62
256
6
ByLayer
370
13
48
1
60
0
100
AcDbSpline
70
4
71
3
72
8
73
4
40
0
40
0
40
0
40
0
40
1
40
1
40
1
40
1
41
1
10
69.1488622536791
20
-34.0413972802386
30
0
41
1
10
69.2906386357502
20
-34.0261350563798
30
0
41
1
10
69.430489331089
20
-33.9900023581678
30
0
41
1
10
69.5673140428787
20
-33.9477095884683
30
0
0
SPLINE
5
18C
100
AcDbEntity
8
1
62
256
6
ByLayer
370
13
48
1
60
0
100
AcDbSpline
70
4
71
3
72
8
73
4
40
0
40
0
40
0
40
0
40
1
40
1
40
1
40
1
41
1
10
68.7872005279842
20
-34.0838507464294
30
0
41
1
10
68.9080845009776
20
-34.0684630264482
30
0
41
1
10
69.0296597255469
20
-34.0542294293054
30
0
41
1
10
69.1488622536791
20
-34.0413972802386
30
0
0
SPLINE
5
18D
100
AcDbEntity
8
1
62
256
6
ByLayer
370
13
48
1
60
0
100
AcDbSpline
70
4
71
3
72
8
73
4
40
0
40
0
40
0
40
0
40
1
40
1
40
1
40
1
41
1
10
68.3321466497296
20
-34.0796455600644
30
0
41
1
10
68.4819028297928
20
-34.103646037416
30
0
41
1
10
68.6367163407338
20
-34.1030063753988
30
0
41
1
10
68.7872005279842
20
-34.0838507464294
30
0
0
SPLINE
5
18E
100
AcDbEntity
8
1
62
256
6
ByLayer
370
13
48
1
60
0
100
AcDbSpline
70
4
71
3
72
12
73
8
40
0
40
0
40
0
40
0
40
0.0871818958158546
40
0.0871818958158546
40
0.555816072150762
40
0.555816072150762
40
1
40
1
40
1
40
1
41
1
10
66.4715765647289
20
-34.0088279476412
30
0
41
1
10
66.516355622926
20
-34.0005677643205
30
0
41
1
10
66.5625010428804
20
-33.9935213925282
30
0
41
1
10
66.8599208005271
20
-33.9563514888539
30
0
41
1
10
67.1493997212845
20
-33.9563775665121
30
0
41
1
10
67.7340901033075
20
-33.9937747827945
30
0
41
1
10
68.0363033123272
20
-34.0322326164653
30
0
41
1
10
68.3321466497296
20
-34.0796455600644
30
0
0
SPLINE
5
18F
100
AcDbEntity
8
1
62
256
6
ByLayer
370
13
48
1
60
0
100
AcDbSpline
70
4
71
3
72
10
73
6
40
0
40
0
40
0
40
0
40
0.262862519552919
40
0.262862519552919
40
1
40
1
40
1
40
1
41
1
10
65.6342903231341
20
-33.3597634850012
30
0
41
1
10
65.7025777473366
20
-33.4228649296772
30
0
41
1
10
65.7722683482754
20
-33.4844849496385
30
0
41
1
10
66.0422196182249
20
-33.7125417854822
30
0
41
1
10
66.2522353540996
20
-33.8684395738811
30
0
41
1
10
66.4715765647267
20
-34.0088279476397
30
0
0
SPLINE
5
190
100
AcDbEntity
8
1
62
256
6
ByLayer
370
13
48
1
60
0
100
AcDbSpline
70
4
71
3
72
10
73
6
40
0
40
0
40
0
40
0
40
0.812931652353805
40
0.812931652353805
40
1
40
1
40
1
40
1
41
1
10
65.4655618269024
20
-31.7073545448682
30
0
41
1
10
65.4905044130484
20
-31.735700047579
30
0
41
1
10
65.5093173194924
20
-31.7695520340048
30
0
41
1
10
65.5191608890839
20
-31.816943728241
30
0
41
1
10
65.5204525785783
20
-31.8261790480958
30
0
41
1
10
65.5211345260091
20
-31.8356348100961
30
0
0
SPLINE
5
191
100
AcDbEntity
8
1
62
256
6
ByLayer
370
13
48
1
60
0
100
AcDbSpline
70
4
71
3
72
12
73
8
40
0
40
0
40
0
40
0
40
0.419184864075828
40
0.419184864075828
40
0.521895266235895
40
0.521895266235895
40
1
40
1
40
1
40
1
41
1
10
65.5211345260091
20
-31.8356348100961
30
0
41
1
10
65.5237504340724
20
-31.8719065268611
30
0
41
1
10
65.5343283545523
20
-31.9129583166503
30
0
41
1
10
65.555966743327
20
-31.9650679590488
30
0
41
1
10
65.5606993957358
20
-31.9755184583537
30
0
41
1
10
65.5894233514625
20
-32.0340588358166
30
0
41
1
10
65.6220730803716
20
-32.0833715823908
30
0
41
1
10
65.6609228658779
20
-32.1288038101266
30
0
0
SPLINE
5
192
100
AcDbEntity
8
1
62
256
6
ByLayer
370
13
48
1
60
0
100
AcDbSpline
70
4
71
3
72
18
73
14
40
0
40
0
40
0
40
0
40
0.303051933317988
40
0.303051933317988
40
0.487257767964007
40
0.487257767964007
40
0.499533009530601
40
0.499533009530601
40
0.667187139568689
40
0.667187139568689
40
0.695147561451768
40
0.695147561451768
40
1
40
1
40
1
40
1
41
1
10
65.660922865878
20
-32.1288038101266
30
0
41
1
10
65.7135335135174
20
-32.1903284464572
30
0
41
1
10
65.7619362646628
20
-32.2599577646455
30
0
41
1
10
65.8111946407649
20
-32.3852530619001
30
0
41
1
10
65.8231149559066
20
-32.4371364143474
30
0
41
1
10
65.8246102881376
20
-32.4922646812293
30
0
41
1
10
65.8246606321735
20
-32.4957735250045
30
0
41
1
10
65.8247477590766
20
-32.5464115130624
30
0
41
1
10
65.8161442690326
20
-32.5941075488753
30
0
41
1
10
65.7987132174386
20
-32.6458596595475
30
0
41
1
10
65.7960149985792
20
-32.6532794164919
30
0
41
1
10
65.7626142306366
20
-32.7390700089491
30
0
41
1
10
65.7138905703339
20
-32.8092540591614
30
0
41
1
10
65.6609229052364
20
-32.8711962502493
30
0
0
SPLINE
5
193
100
AcDbEntity
8
1
62
256
6
ByLayer
370
13
48
1
60
0
100
AcDbSpline
70
4
71
3
72
12
73
8
40
0
40
0
40
0
40
0
40
0.059394264300233
40
0.059394264300233
40
0.553288200423872
40
0.553288200423872
40
1
40
1
40
1
40
1
41
1
10
65.6609229052364
20
-32.8711962502493
30
0
41
1
10
65.656024990239
20
-32.8769240388189
30
0
41
1
10
65.651230555261
20
-32.8827016764089
30
0
41
1
10
65.6081599802425
20
-32.9361916214179
30
0
41
1
10
65.5766828886214
20
-32.9876479148732
30
0
41
1
10
65.5357697752028
20
-33.0816007597341
30
0
41
1
10
65.5239217382615
20
-33.1257205689269
30
0
41
1
10
65.5211347111541
20
-33.1643653134519
30
0
0
SPLINE
5
194
100
AcDbEntity
8
1
62
256
6
ByLayer
370
13
48
1
60
0
100
AcDbSpline
70
4
71
3
72
10
73
6
40
0
40
0
40
0
40
0
40
0.812842204044401
40
0.812842204044401
40
1
40
1
40
1
40
1
41
1
10
65.5211347111541
20
-33.1643653134519
30
0
41
1
10
65.5182139494672
20
-33.2048644133373
30
0
41
1
10
65.5036615838422
20
-33.2413785118389
30
0
41
1
10
65.4768473699088
20
-33.2791577711832
30
0
41
1
10
65.4713784689838
20
-33.2860357583202
30
0
41
1
10
65.4655620286947
20
-33.2926457415773
30
0
0
SPLINE
5
195
100
AcDbEntity
8
1
62
256
6
ByLayer
370
13
48
1
60
0
100
AcDbSpline
70
4
71
3
72
8
73
4
40
0
40
0
40
0
40
0
40
1
40
1
40
1
40
1
41
1
10
65.4655620286947
20
-33.2926457415773
30
0
41
1
10
65.3277223079949
20
-33.3118153423365
30
0
41
1
10
65.1898798111548
20
-33.3309660816981
30
0
41
1
10
65.0520355651061
20
-33.3501047685041
30
0
0
SPLINE
5
196
100
AcDbEntity
8
1
62
256
6
ByLayer
370
13
48
1
60
0
100
AcDbSpline
70
4
71
3
72
14
73
10
40
0
40
0
40
0
40
0
40
0.102447041397989
40
0.102447041397989
40
0.525388411553141
40
0.525388411553141
40
0.919987754093892
40
0.919987754093892
40
1
40
1
40
1
40
1
41
1
10
65.0520355651061
20
-33.3501047685041
30
0
41
1
10
65.0324592862907
20
-33.3528227946809
30
0
41
1
10
65.0129161067098
20
-33.3558548777858
30
0
41
1
10
64.9139233159999
20
-33.3728042993698
30
0
41
1
10
64.8351625923798
20
-33.3916865711402
30
0
41
1
10
64.6931025586169
20
-33.4334731695953
30
0
41
1
10
64.6307076370283
20
-33.4582073728938
30
0
41
1
10
64.565406168018
20
-33.4902777678959
30
0
41
1
10
64.5545512003208
20
-33.495828266366
30
0
41
1
10
64.5440056455243
20
-33.5014569413291
30
0
0
SPLINE
5
197
100
AcDbEntity
8
1
62
256
6
ByLayer
370
13
48
1
60
0
100
AcDbSpline
70
4
71
3
72
14
73
10
40
0
40
0
40
0
40
0
40
0.15204037662591
40
0.15204037662591
40
0.440443065599007
40
0.440443065599007
40
0.719928934942157
40
0.719928934942157
40
1
40
1
40
1
40
1
41
1
10
64.5440056455243
20
-33.5014569413291
30
0
41
1
10
64.5321089705187
20
-33.5078067747936
30
0
41
1
10
64.5192322013558
20
-33.5139241357254
30
0
41
1
10
64.4798769240088
20
-33.5305313567864
30
0
41
1
10
64.4508842095018
20
-33.5403029443208
30
0
41
1
10
64.3909384751368
20
-33.5558404738733
30
0
41
1
10
64.3593518723187
20
-33.5618946535932
30
0
41
1
10
64.2967214890184
20
-33.5696399275064
30
0
41
1
10
64.2648490497149
20
-33.5714152169367
30
0
41
1
10
64.235163296305
20
-33.5708922494355
30
0
0
SPLINE
5
198
100
AcDbEntity
8
1
62
256
6
ByLayer
370
13
48
1
60
0
100
AcDbSpline
70
4
71
3
72
8
73
4
40
0
40
0
40
0
40
0
40
1
40
1
40
1
40
1
41
1
10
64.235163296305
20
-33.5708922494355
30
0
41
1
10
64.1116779762096
20
-33.5687168352431
30
0
41
1
10
63.9882816195312
20
-33.5663091635847
30
0
41
1
10
63.8649053951611
20
-33.5641123501023
30
0
0
SPLINE
5
199
100
AcDbEntity
8
1
62
256
6
ByLayer
370
13
48
1
60
0
100
AcDbSpline
70
4
71
3
72
12
73
8
40
0
40
0
40
0
40
0
40
0.32728025931415
40
0.32728025931415
40
0.707681653994561
40
0.707681653994561
40
1
40
1
40
1
40
1
41
1
10
63.8649053951611
20
-33.5641123501023
30
0
41
1
10
63.8385896978139
20
-33.532158158804
30
0
41
1
10
63.8091013360519
20
-33.4933737458551
30
0
41
1
10
63.7722979245712
20
-33.381946890584
30
0
41
1
10
63.7633628845556
20
-33.3063033697702
30
0
41
1
10
63.7684540483803
20
-33.1568252077146
30
0
41
1
10
63.7776464530692
20
-33.0852241822063
30
0
41
1
10
63.7928855278384
20
-33.011453350375
30
0
0
SPLINE
5
19A
100
AcDbEntity
8
1
62
256
6
ByLayer
370
13
48
1
60
0
100
AcDbSpline
70
4
71
3
72
12
73
8
40
0
40
0
40
0
40
0
40
0.358487530595534
40
0.358487530595534
40
0.67894909180414
40
0.67894909180414
40
1
40
1
40
1
40
1
41
1
10
63.7928855278384
20
-33.011453350375
30
0
41
1
10
63.8101021066424
20
-33.0055398122014
30
0
41
1
10
63.827382440711
20
-32.9997841267436
30
0
41
1
10
63.860215276265
20
-32.9891766210513
30
0
41
1
10
63.8757583280478
20
-32.9842931552139
30
0
41
1
10
63.9069529184184
20
-32.9747602810798
30
0
41
1
10
63.9226059757712
20
-32.9701109009556
30
0
41
1
10
63.9382953258455
20
-32.9655809610964
30
0
0
SPLINE
5
19B
100
AcDbEntity
8
1
62
256
6
ByLayer
370
13
48
1
60
0
100
AcDbSpline
70
4
71
3
72
8
73
4
40
0
40
0
40
0
40
0
40
1
40
1
40
1
40
1
41
1
10
63.9382953258455
20
-32.9655809610964
30
0
41
1
10
63.9416733187259
20
-32.9646056431566
30
0
41
1
10
63.9450514372896
20
-32.9636306360635
30
0
41
1
10
63.948429680894
20
-32.9626559415927
30
0
0
SPLINE
5
19C
100
AcDbEntity
8
1
62
256
6
ByLayer
370
13
48
1
60
0
100
AcDbSpline
70
4
71
3
72
16
73
12
40
0
40
0
40
0
40
0
40
0.226396549712979
40
0.226396549712979
40
0.49604828471296
40
0.49604828471296
40
0.75456075351648
40
0.75456075351648
40
0.960928711930137
40
0.960928711930137
40
1
40
1
40
1
40
1
41
1
10
63.9484296808941
20
-32.9626559415937
30
0
41
1
10
63.9849980284647
20
-32.9521052027025
30
0
41
1
10
64.020752575175
20
-32.937814219407
30
0
41
1
10
64.09314381352
20
-32.8979730779339
30
0
41
1
10
64.1295704288592
20
-32.8702054752188
30
0
41
1
10
64.187606710557
20
-32.805651023231
30
0
41
1
10
64.2105886007523
20
-32.7682501540086
30
0
41
1
10
64.2363122457502
20
-32.6961125361409
30
0
41
1
10
64.2424833383663
20
-32.6614722381831
30
0
41
1
10
64.242759582289
20
-32.6205015731676
30
0
41
1
10
64.2425919492039
20
-32.6138929506095
30
0
41
1
10
64.2422132359233
20
-32.6072952531881
30
0
0
SPLINE
5
19D
100
AcDbEntity
8
1
62
256
6
ByLayer
370
13
48
1
60
0
100
AcDbSpline
70
4
71
3
72
8
73
4
40
0
40
0
40
0
40
0
40
1
40
1
40
1
40
1
41
1
10
64.2422132359233
20
-32.6072952531881
30
0
41
1
10
64.2381359316433
20
-32.5362630995468
30
0
41
1
10
64.2381359366078
20
-32.4637369795715
30
0
41
1
10
64.2422132508815
20
-32.392704829038
30
0
0
SPLINE
5
19E
100
AcDbEntity
8
1
62
256
6
ByLayer
370
13
48
1
60
0
100
AcDbSpline
70
4
71
3
72
14
73
10
40
0
40
0
40
0
40
0
40
0.227808198603014
40
0.227808198603014
40
0.466915974097517
40
0.466915974097517
40
0.725559413975037
40
0.725559413975037
40
1
40
1
40
1
40
1
41
1
10
64.2422132508815
20
-32.392704829038
30
0
41
1
10
64.2443855985001
20
-32.3548596906233
30
0
41
1
10
64.2393665326208
20
-32.3161519887969
30
0
41
1
10
64.2156498885991
20
-32.2428805797054
30
0
41
1
10
64.1959293248206
20
-32.2074154714103
30
0
41
1
10
64.1444211748329
20
-32.1436902693198
30
0
41
1
10
64.1110163953101
20
-32.1152004170795
30
0
41
1
10
64.0357732945888
20
-32.0683957061091
30
0
41
1
10
63.9926409003131
20
-32.0500999787277
30
0
41
1
10
63.9484297121925
20
-32.0373441168447
30
0
0
SPLINE
5
19F
100
AcDbEntity
8
1
62
256
6
ByLayer
370
13
48
1
60
0
100
AcDbSpline
70
4
71
3
72
8
73
4
40
0
40
0
40
0
40
0
40
1
40
1
40
1
40
1
41
1
10
63.9484297121925
20
-32.0373441168447
30
0
41
1
10
63.9450514681622
20
-32.0363694220652
30
0
41
1
10
63.9416733491718
20
-32.0353944146648
30
0
41
1
10
63.938295355865
20
-32.0344190964154
30
0
0
SPLINE
5
1A0
100
AcDbEntity
8
1
62
256
6
ByLayer
370
13
48
1
60
0
100
AcDbSpline
70
4
71
3
72
12
73
8
40
0
40
0
40
0
40
0
40
0.507485182159569
40
0.507485182159569
40
0.827579760922024
40
0.827579760922024
40
1
40
1
40
1
40
1
41
1
10
63.9382953558651
20
-32.0344190964144
30
0
41
1
10
63.9134968147625
20
-32.0272590852782
30
0
41
1
10
63.8887878028273
20
-32.0198003797529
30
0
41
1
10
63.8486726419301
20
-32.0071367980844
30
0
41
1
10
63.8331982998658
20
-32.0021159720932
30
0
41
1
10
63.8094625902884
20
-31.994198977545
30
0
41
1
10
63.8011667453271
20
-31.9913911167939
30
0
41
1
10
63.7928855362849
20
-31.988546692631
30
0
0
SPLINE
5
1A1
100
AcDbEntity
8
1
62
256
6
ByLayer
370
13
48
1
60
0
100
AcDbSpline
70
4
71
3
72
14
73
10
40
0
40
0
40
0
40
0
40
0.174964566773922
40
0.174964566773922
40
0.581070400641029
40
0.581070400641029
40
0.936777115762908
40
0.936777115762908
40
1
40
1
40
1
40
1
41
1
10
63.7928855362849
20
-31.988546692631
30
0
41
1
10
63.7837027674589
20
-31.9440938289551
30
0
41
1
10
63.7767060888798
20
-31.9005259857376
30
0
41
1
10
63.7616844548898
20
-31.7632675500106
30
0
41
1
10
63.7641619121848
20
-31.6751240154799
30
0
41
1
10
63.7931235303016
20
-31.5419644551268
30
0
41
1
10
63.8169014232755
20
-31.4910915949052
30
0
41
1
10
63.8539980910054
20
-31.4482164022121
30
0
41
1
10
63.8597682725894
20
-31.4421257082581
30
0
41
1
10
63.8649053974482
20
-31.4358878873456
30
0
0
SPLINE
5
1A2
100
AcDbEntity
8
1
62
256
6
ByLayer
370
18
48
1
60
0
100
AcDbSpline
70
4
71
2
72
7
73
4
40
0
40
0
40
0
40
0.708870800351195
40
1
40
1
40
1
41
1
10
63.2986055392391
20
-34.6999999999999
30
0
41
1
10
63.0751549314992
20
-34.6999999999999
30
0
41
1
10
62.9464550520322
20
-34.6999999999999
30
0
41
1
10
62.9314365392391
20
-34.6999999999999
30
0
0
SPLINE
5
1A3
100
AcDbEntity
8
1
62
256
6
ByLayer
370
13
48
1
60
0
100
AcDbSpline
70
4
71
3
72
10
73
6
40
0
40
0
40
0
40
0
40
0.317064872302993
40
0.317064872302993
40
1
40
1
40
1
40
1
41
1
10
63.8649053974481
20
-31.4358878873457
30
0
41
1
10
63.9040236620118
20
-31.4351913750714
30
0
41
1
10
63.9430373997723
20
-31.434323075153
30
0
41
1
10
64.066452021748
20
-31.4320372544946
30
0
41
1
10
64.1508304836203
20
-31.4305937936377
30
0
41
1
10
64.2351632251839
20
-31.4291081507946
30
0
0
SPLINE
5
1A4
100
AcDbEntity
8
1
62
256
6
ByLayer
370
13
48
1
60
0
100
AcDbSpline
70
4
71
3
72
14
73
10
40
0
40
0
40
0
40
0
40
0.0629171722654902
40
0.0629171722654902
40
0.360926335929676
40
0.360926335929676
40
0.68129834430082
40
0.68129834430082
40
1
40
1
40
1
40
1
41
1
10
64.2351632251839
20
-31.4291081507946
30
0
41
1
10
64.24194031934
20
-31.4289887625091
30
0
41
1
10
64.2488122949275
20
-31.4289857392563
30
0
41
1
10
64.2880807841643
20
-31.4296275188663
30
0
41
1
10
64.3224484834363
20
-31.4327838899447
30
0
41
1
10
64.391180122346
20
-31.4439728864342
30
0
41
1
10
64.4264982847355
20
-31.4525213513464
30
0
41
1
10
64.4900591762722
20
-31.4730771881929
30
0
41
1
10
64.5192879379177
20
-31.485350506901
30
0
41
1
10
64.5440056178101
20
-31.4985435345293
30
0
0
SPLINE
5
1A5
100
AcDbEntity
8
1
62
256
6
ByLayer
370
13
48
1
60
0
100
AcDbSpline
70
4
71
3
72
12
73
8
40
0
40
0
40
0
40
0
40
0.146285672307715
40
0.146285672307715
40
0.570909324013412
40
0.570909324013412
40
1
40
1
40
1
40
1
41
1
10
64.5440056178101
20
-31.4985435345293
30
0
41
1
10
64.5633830780364
20
-31.5088862272596
30
0
41
1
10
64.5838104178634
20
-31.5189731117254
30
0
41
1
10
64.6656707087217
20
-31.5566205066632
30
0
41
1
10
64.7379586329225
20
-31.5810328750634
30
0
41
1
10
64.8898448255197
20
-31.6216372600577
30
0
41
1
10
64.9709017387468
20
-31.6386308459871
30
0
41
1
10
65.0520356091022
20
-31.6498956867883
30
0
0
SPLINE
5
1A6
100
AcDbEntity
8
1
62
256
6
ByLayer
370
13
48
1
60
0
100
AcDbSpline
70
4
71
3
72
8
73
4
40
0
40
0
40
0
40
0
40
1
40
1
40
1
40
1
41
1
10
63.2986272418368
20
-30.4455741009965
30
0
41
1
10
63.2968341520921
20
-30.4462745478402
30
0
41
1
10
63.2950100653161
20
-30.4466081992009
30
0
41
1
10
63.2931927050601
20
-30.4466082143594
30
0
0
SPLINE
5
1A7
100
AcDbEntity
8
1
62
256
6
ByLayer
370
13
48
1
60
0
100
AcDbSpline
70
4
71
3
72
8
73
4
40
0
40
0
40
0
40
0
40
1
40
1
40
1
40
1
41
1
10
65.0520356091022
20
-31.6498956867883
30
0
41
1
10
65.1898797708723
20
-31.669034334198
30
0
41
1
10
65.3277221857777
20
-31.6881850172815
30
0
41
1
10
65.465561826902
20
-31.7073545448677
30
0
0
SPLINE
5
1A8
100
AcDbEntity
8
1
62
256
6
ByLayer
370
13
48
1
60
0
100
AcDbSpline
70
4
71
3
72
10
73
6
40
0
40
0
40
0
40
0
40
0.429814431875093
40
0.429814431875093
40
1
40
1
40
1
40
1
41
1
10
62.9291721825288
20
-34.5534275254038
30
0
41
1
10
62.9817507403392
20
-34.5520463856958
30
0
41
1
10
63.0334870091772
20
-34.5533938813723
30
0
41
1
10
63.154824648867
20
-34.5533901180083
30
0
41
1
10
63.2240085957053
20
-34.5533912085785
30
0
41
1
10
63.2931927050601
20
-34.5533917856403
30
0
0
SPLINE
5
1A9
100
AcDbEntity
8
1
62
256
6
ByLayer
370
13
48
1
60
0
100
AcDbSpline
70
4
71
3
72
8
73
4
40
0
40
0
40
0
40
0
40
1
40
1
40
1
40
1
41
1
10
63.2931927050601
20
-34.5533917856403
30
0
41
1
10
63.2950100653161
20
-34.5533918007988
30
0
41
1
10
63.296834152092
20
-34.5537254521592
30
0
41
1
10
63.2986272418367
20
-34.5544258990028
30
0
0
SPLINE
5
1AA
100
AcDbEntity
8
1
62
256
6
ByLayer
370
13
48
1
60
0
100
AcDbSpline
70
4
71
3
72
12
73
8
40
0
40
0
40
0
40
0
40
0.097045488675419
40
0.097045488675419
40
0.46856848705314
40
0.46856848705314
40
1
40
1
40
1
40
1
41
1
10
63.2931927050601
20
-30.4466082143594
30
0
41
1
10
63.2814175811818
20
-30.4466083125753
30
0
41
1
10
63.2696424637538
20
-30.4466084311711
30
0
41
1
10
63.2127882142953
20
-30.4466090212464
30
0
41
1
10
63.167709088726
20
-30.4466095131486
30
0
41
1
10
63.0581471684549
20
-30.4466075331332
30
0
41
1
10
62.9941814061991
20
-30.4482801444891
30
0
41
1
10
62.9291721825288
20
-30.4465724745959
30
0
0
SPLINE
5
1AB
100
AcDbEntity
8
1
62
256
6
ByLayer
370
13
48
1
60
0
100
AcDbSpline
70
4
71
3
72
8
73
4
40
0
40
0
40
0
40
0
40
1
40
1
40
1
40
1
41
1
10
66.5194240279073
20
-34.1499672236965
30
0
41
1
10
66.5375224093968
20
-34.3839555391789
30
0
41
1
10
66.5560816104739
20
-34.6179087626274
30
0
41
1
10
66.5751468255075
20
-34.8518202897931
30
0
0
SPLINE
5
1AC
100
AcDbEntity
8
1
62
256
6
ByLayer
370
13
48
1
60
0
100
AcDbSpline
70
4
71
3
72
10
73
6
40
0
40
0
40
0
40
0
40
0.66186493310015
40
0.66186493310015
40
1
40
1
40
1
40
1
41
1
10
66.522546519857
20
-34.1487350489125
30
0
41
1
10
66.5218272660526
20
-34.1488660391333
30
0
41
1
10
66.5211157003955
20
-34.1490816425504
30
0
41
1
10
66.5200910301868
20
-34.1495604622194
30
0
41
1
10
66.5197512894157
20
-34.1497498974219
30
0
41
1
10
66.5194240279075
20
-34.1499672236965
30
0
0
SPLINE
5
1AD
100
AcDbEntity
8
1
62
256
6
ByLayer
370
13
48
1
60
0
100
AcDbSpline
70
4
71
3
72
12
73
8
40
0
40
0
40
0
40
0
40
0.446162353448865
40
0.446162353448865
40
0.913525316268472
40
0.913525316268472
40
1
40
1
40
1
40
1
41
1
10
68.3080209311119
20
-34.2338758120953
30
0
41
1
10
68.0237379010493
20
-34.1873796702301
30
0
41
1
10
67.7341683347816
20
-34.1433773996228
30
0
41
1
10
67.1733985709251
20
-34.1020024621258
30
0
41
1
10
66.8958173425284
20
-34.0997027514358
30
0
41
1
10
66.6097198409166
20
-34.1343061268931
30
0
41
1
10
66.5654951334019
20
-34.1409132642534
30
0
41
1
10
66.522546519857
20
-34.1487350489125
30
0
0
SPLINE
5
1AE
100
AcDbEntity
8
1
62
256
6
ByLayer
370
13
48
1
60
0
100
AcDbSpline
70
4
71
3
72
12
73
8
40
0
40
0
40
0
40
0
40
0.446162353448865
40
0.446162353448865
40
0.913525316268472
40
0.913525316268472
40
1
40
1
40
1
40
1
41
1
10
68.3080209311119
20
-30.7661241879044
30
0
41
1
10
68.0237379010493
20
-30.8126203297697
30
0
41
1
10
67.7341683347816
20
-30.856622600377
30
0
41
1
10
67.1733985709251
20
-30.897997537874
30
0
41
1
10
66.8958173425284
20
-30.9002972485639
30
0
41
1
10
66.6097198409166
20
-30.8656938731067
30
0
41
1
10
66.5654951334019
20
-30.8590867357464
30
0
41
1
10
66.522546519857
20
-30.8512649510873
30
0
0
SPLINE
5
1AF
100
AcDbEntity
8
1
62
256
6
ByLayer
370
13
48
1
60
0
100
AcDbSpline
70
4
71
3
72
10
73
6
40
0
40
0
40
0
40
0
40
0.66186493310015
40
0.66186493310015
40
1
40
1
40
1
40
1
41
1
10
66.522546519857
20
-30.8512649510873
30
0
41
1
10
66.5218272660526
20
-30.8511339608664
30
0
41
1
10
66.5211157003955
20
-30.8509183574494
30
0
41
1
10
66.5200910301868
20
-30.8504395377804
30
0
41
1
10
66.5197512894157
20
-30.8502501025779
30
0
41
1
10
66.5194240279075
20
-30.8500327763033
30
0
0
SPLINE
5
1B0
100
AcDbEntity
8
1
62
256
6
ByLayer
370
13
48
1
60
0
100
AcDbSpline
70
4
71
3
72
8
73
4
40
0
40
0
40
0
40
0
40
1
40
1
40
1
40
1
41
1
10
66.5194240279073
20
-30.8500327763033
30
0
41
1
10
66.5375224093968
20
-30.6160444608208
30
0
41
1
10
66.5560816104739
20
-30.3820912373723
30
0
41
1
10
66.5751468255075
20
-30.1481797102067
30
0
0
SPLINE
5
1B1
100
AcDbEntity
8
1
62
256
6
ByLayer
370
13
48
1
60
0
100
AcDbSpline
70
4
71
3
72
10
73
6
40
0
40
0
40
0
40
0
40
0.735245446204665
40
0.735245446204665
40
1
40
1
40
1
40
1
41
1
10
66.3604948530829
20
-34.1697647410695
30
0
41
1
10
66.1351841532664
20
-34.028029948209
30
0
41
1
10
65.9190513871272
20
-33.8707737258954
30
0
41
1
10
65.6398209448933
20
-33.640163681179
30
0
41
1
10
65.5671678688689
20
-33.5773990756177
30
0
41
1
10
65.4959209603994
20
-33.513111306741
30
0
0
SPLINE
5
1B2
100
AcDbEntity
8
1
62
256
6
ByLayer
370
13
48
1
60
0
100
AcDbSpline
70
4
71
3
72
8
73
4
40
0
40
0
40
0
40
0
40
1
40
1
40
1
40
1
41
1
10
66.4189357069485
20
-34.8461019979996
30
0
41
1
10
66.3989606781222
20
-34.6206995424962
30
0
41
1
10
66.3794949705365
20
-34.3952514685289
30
0
41
1
10
66.3604948530829
20
-34.1697647410695
30
0
0
SPLINE
5
1B3
100
AcDbEntity
8
1
62
256
6
ByLayer
370
13
48
1
60
0
100
AcDbSpline
70
4
71
3
72
8
73
4
40
0
40
0
40
0
40
0
40
1
40
1
40
1
40
1
41
1
10
66.4189357069485
20
-30.1538980020002
30
0
41
1
10
66.3989606781222
20
-30.3793004575036
30
0
41
1
10
66.3794949705365
20
-30.6047485314709
30
0
41
1
10
66.3604948530829
20
-30.8302352589302
30
0
0
SPLINE
5
1B4
100
AcDbEntity
8
1
62
256
6
ByLayer
370
13
48
1
60
0
100
AcDbSpline
70
4
71
3
72
10
73
6
40
0
40
0
40
0
40
0
40
0.735245173215393
40
0.735245173215393
40
1
40
1
40
1
40
1
41
1
10
66.3604948530829
20
-30.8302352589302
30
0
41
1
10
66.1351841532664
20
-30.9719700517907
30
0
41
1
10
65.9190513871272
20
-31.1292262741043
30
0
41
1
10
65.6398208411872
20
-31.3598364044692
30
0
41
1
10
65.5671676651882
20
-31.4226011003423
30
0
41
1
10
65.4959206607523
20
-31.4868889636374
30
0
0
SPLINE
5
1B5
100
AcDbEntity
8
1
62
256
6
ByLayer
370
13
48
1
60
0
100
AcDbSpline
70
4
71
3
72
8
73
4
40
0
40
0
40
0
40
0
40
1
40
1
40
1
40
1
41
1
10
65.0823583168192
20
-33.5700873844633
30
0
41
1
10
65.2202111766753
20
-33.5510855282296
30
0
41
1
10
65.3580655312504
20
-33.532094514189
30
0
41
1
10
65.4959209603994
20
-33.513111306741
30
0
0
SPLINE
5
1B6
100
AcDbEntity
8
1
62
256
6
ByLayer
370
13
48
1
60
0
100
AcDbSpline
70
4
71
3
72
14
73
10
40
0
40
0
40
0
40
0
40
0.285062144130617
40
0.285062144130617
40
0.566464995147806
40
0.566464995147806
40
0.851712725177373
40
0.851712725177373
40
1
40
1
40
1
40
1
41
1
10
64.1813466597388
20
-33.7986142989012
30
0
41
1
10
64.2354314797172
20
-33.7991410429572
30
0
41
1
10
64.2933676072006
20
-33.7973845162133
30
0
41
1
10
64.4074421942018
20
-33.7896501368848
30
0
41
1
10
64.464968326041
20
-33.7836358743082
30
0
41
1
10
64.5742320266077
20
-33.768102183755
30
0
41
1
10
64.6271918556632
20
-33.7583536159569
30
0
41
1
10
64.6992914010575
20
-33.7416554909338
30
0
41
1
10
64.7227954896707
20
-33.7355320054564
30
0
41
1
10
64.7445778714942
20
-33.7291477796932
30
0
0
SPLINE
5
1B7
100
AcDbEntity
8
1
62
256
6
ByLayer
370
13
48
1
60
0
100
AcDbSpline
70
4
71
3
72
8
73
4
40
0
40
0
40
0
40
0
40
1
40
1
40
1
40
1
41
1
10
65.4959206607396
20
-31.4868889636489
30
0
41
1
10
65.3580653291587
20
-31.4679058322143
30
0
41
1
10
65.2202110744688
20
-31.448914877325
30
0
41
1
10
65.0823583168192
20
-31.4299130633923
30
0
0
SPLINE
5
1B8
100
AcDbEntity
8
1
62
256
6
ByLayer
370
13
48
1
60
0
100
AcDbSpline
70
4
71
3
72
14
73
10
40
0
40
0
40
0
40
0
40
0.312465139410283
40
0.312465139410283
40
0.633033174040285
40
0.633033174040285
40
0.935779057490139
40
0.935779057490139
40
1
40
1
40
1
40
1
41
1
10
64.7445778714941
20
-31.2708526967745
30
0
41
1
10
64.6990942811236
20
-31.2575218515873
30
0
41
1
10
64.6456101801587
20
-31.2452549029686
30
0
41
1
10
64.5296637122458
20
-31.224683265981
30
0
41
1
10
64.4652792914178
20
-31.2161909212355
30
0
41
1
10
64.3401538762821
20
-31.205021319762
30
0
41
1
10
64.2776897780797
20
-31.2018981914085
30
0
41
1
10
64.2062380517514
20
-31.2012618704677
30
0
41
1
10
64.1937073862825
20
-31.2012657286805
30
0
41
1
10
64.1813466597388
20
-31.2013861104048
30
0
0
SPLINE
5
1B9
100
AcDbEntity
8
1
62
256
6
ByLayer
370
13
48
1
60
0
100
AcDbSpline
70
4
71
3
72
12
73
8
40
0
40
0
40
0
40
0
40
0.456747676619458
40
0.456747676619458
40
0.981156035943025
40
0.981156035943025
40
1
40
1
40
1
40
1
41
1
10
66.4509746186693
20
-30.9623823332782
30
0
41
1
10
66.4395358361747
20
-30.9456393198226
30
0
41
1
10
66.4264052498597
20
-30.9264346039495
30
0
41
1
10
66.3966976735128
20
-30.8830321184115
30
0
41
1
10
66.3794123714819
20
-30.8578068604413
30
0
41
1
10
66.3617266554581
20
-30.8320304551786
30
0
41
1
10
66.361110738461
20
-30.8311328538669
30
0
41
1
10
66.3604948530776
20
-30.830235258933
30
0
0
SPLINE
5
1BA
100
AcDbEntity
8
1
62
256
6
ByLayer
370
13
48
1
60
0
100
AcDbSpline
70
4
71
3
72
10
73
6
40
0
40
0
40
0
40
0
40
0.648249027969341
40
0.648249027969341
40
1
40
1
40
1
40
1
41
1
10
66.4715765647289
20
-30.9911720523586
30
0
41
1
10
66.4674517415713
20
-30.9857212049414
30
0
41
1
10
66.4630893933127
20
-30.9797365030098
30
0
41
1
10
66.4560766784025
20
-30.9697934445594
30
0
41
1
10
66.4535496776649
20
-30.9661514623285
30
0
41
1
10
66.4509746186698
20
-30.9623823332779
30
0
0
SPLINE
5
1BB
100
AcDbEntity
8
1
62
256
6
ByLayer
370
13
48
1
60
0
100
AcDbSpline
70
4
71
3
72
10
73
6
40
0
40
0
40
0
40
0
40
0.648249027969341
40
0.648249027969341
40
1
40
1
40
1
40
1
41
1
10
66.4715765647289
20
-34.0088279476412
30
0
41
1
10
66.4674517415713
20
-34.0142787950584
30
0
41
1
10
66.4630893933127
20
-34.02026349699
30
0
41
1
10
66.4560766784025
20
-34.0302065554404
30
0
41
1
10
66.4535496776649
20
-34.0338485376712
30
0
41
1
10
66.4509746186698
20
-34.0376176667219
30
0
0
SPLINE
5
1BC
100
AcDbEntity
8
1
62
256
6
ByLayer
370
13
48
1
60
0
100
AcDbSpline
70
4
71
3
72
12
73
8
40
0
40
0
40
0
40
0
40
0.456747676619458
40
0.456747676619458
40
0.981156035943025
40
0.981156035943025
40
1
40
1
40
1
40
1
41
1
10
66.4509746186693
20
-34.0376176667215
30
0
41
1
10
66.4395358361747
20
-34.0543606801772
30
0
41
1
10
66.4264052498597
20
-34.0735653960503
30
0
41
1
10
66.3966976735128
20
-34.1169678815882
30
0
41
1
10
66.3794123714819
20
-34.1421931395585
30
0
41
1
10
66.3617266554581
20
-34.1679695448212
30
0
41
1
10
66.361110738461
20
-34.1688671461328
30
0
41
1
10
66.3604948530776
20
-34.1697647410667
30
0
0
SPLINE
5
1BD
100
AcDbEntity
8
1
62
256
6
ByLayer
370
13
48
1
60
0
100
AcDbSpline
70
4
71
3
72
10
73
6
40
0
40
0
40
0
40
0
40
0.47226940634438
40
0.47226940634438
40
1
40
1
40
1
40
1
41
1
10
65.8148303211307
20
-32.0212600705527
30
0
41
1
10
65.7820572623393
20
-31.9874798446832
30
0
41
1
10
65.7542413036991
20
-31.9510814207094
30
0
41
1
10
65.7086468495571
20
-31.8765466332572
30
0
41
1
10
65.6916359197951
20
-31.837729790839
30
0
41
1
10
65.6829840127524
20
-31.8040903047635
30
0
0
SPLINE
5
1BE
100
AcDbEntity
8
1
62
256
6
ByLayer
370
13
48
1
60
0
100
AcDbSpline
70
4
71
3
72
11
73
7
40
0
40
0
40
0
40
0
40
0.377684193944734
40
0.377684193944734
40
0.377684193944734
40
1
40
1
40
1
40
1
41
1
10
65.8148303211302
20
-32.0212600705534
30
0
41
1
10
66.0560408700062
20
-31.9671757768839
30
0
41
1
10
66.3141929682629
20
-31.9081193165092
30
0
41
1
10
66.5806434977872
20
-31.8464729683436
30
0
41
1
10
67.0160384766795
20
-31.7457394081353
30
0
41
1
10
67.4839774507975
20
-31.6355759299911
30
0
41
1
10
67.9452047820325
20
-31.5262491084918
30
0
0
SPLINE
5
1BF
100
AcDbEntity
8
1
62
256
6
ByLayer
370
13
48
1
60
0
100
AcDbSpline
70
4
71
3
72
12
73
8
40
0
40
0
40
0
40
0
40
0.450990104104386
40
0.450990104104386
40
0.941653153234684
40
0.941653153234684
40
1
40
1
40
1
40
1
41
1
10
65.6829842751339
20
-33.1959097638634
30
0
41
1
10
65.6903964617539
20
-33.1670903261481
30
0
41
1
10
65.7039100726209
20
-33.1345516661802
30
0
41
1
10
65.7430512977276
20
-33.0649904445563
30
0
41
1
10
65.7702053188827
20
-33.0270083336775
30
0
41
1
10
65.8067394296903
20
-32.9871970505964
30
0
41
1
10
65.8107449633077
20
-32.9829509610675
30
0
41
1
10
65.814830417275
20
-32.9787399510002
30
0
0
SPLINE
5
1C0
100
AcDbEntity
8
1
62
256
6
ByLayer
370
13
48
1
60
0
100
AcDbSpline
70
4
71
3
72
11
73
7
40
0
40
0
40
0
40
0
40
0.37768416286754
40
0.37768416286754
40
0.37768416286754
40
1
40
1
40
1
40
1
41
1
10
65.8148304172783
20
-32.9787399510047
30
0
41
1
10
66.056040938399
20
-33.0328242387472
30
0
41
1
10
66.314193003468
20
-33.0918806916356
30
0
41
1
10
66.5806434977872
20
-33.1535270316562
30
0
41
1
10
67.0160384766795
20
-33.2542605918645
30
0
41
1
10
67.4839774507975
20
-33.3644240700087
30
0
41
1
10
67.9452047820325
20
-33.473750891508
30
0
0
SPLINE
5
1C1
100
AcDbEntity
8
1
62
256
6
ByLayer
370
13
48
1
60
0
100
AcDbSpline
70
4
71
3
72
12
73
8
40
0
40
0
40
0
40
0
40
0.481621165173274
40
0.481621165173274
40
0.901905632903789
40
0.901905632903789
40
1
40
1
40
1
40
1
41
1
10
64.7445778714941
20
-33.7291477796933
30
0
41
1
10
64.7856306266091
20
-33.696232670675
30
0
41
1
10
64.8349612796708
20
-33.6656737822309
30
0
41
1
10
64.9365142413742
20
-33.6151768585784
30
0
41
1
10
64.9889703855347
20
-33.5939127209903
30
0
41
1
10
65.0562253817946
20
-33.5758961175921
30
0
41
1
10
65.0692587001345
20
-33.572795892287
30
0
41
1
10
65.0823583168192
20
-33.5700873844633
30
0
0
SPLINE
5
1C2
100
AcDbEntity
8
1
62
256
6
ByLayer
370
13
48
1
60
0
100
AcDbSpline
70
4
71
3
72
8
73
4
40
0
40
0
40
0
40
0
40
1
40
1
40
1
40
1
41
1
10
64.1813466597388
20
-31.2013861104048
30
0
41
1
10
64.0579410962568
20
-31.20357795703
30
0
41
1
10
63.9345373502358
20
-31.2058890518719
30
0
41
1
10
63.8111299346595
20
-31.2079594416725
30
0
0
SPLINE
5
1C3
100
AcDbEntity
8
1
62
256
6
ByLayer
370
13
48
1
60
0
100
AcDbSpline
70
4
71
3
72
12
73
8
40
0
40
0
40
0
40
0
40
0.420702072206737
40
0.420702072206737
40
0.850903768208396
40
0.850903768208396
40
1
40
1
40
1
40
1
41
1
10
65.0823583168192
20
-31.4299130633923
30
0
41
1
10
65.0271333094112
20
-31.4184946267964
30
0
41
1
10
64.9727761511561
20
-31.3996596556627
30
0
41
1
10
64.873075554115
20
-31.3548903718982
30
0
41
1
10
64.8260346211675
20
-31.3290465430056
30
0
41
1
10
64.7710197947053
20
-31.2912597321562
30
0
41
1
10
64.7574342791626
20
-31.2811606561874
30
0
41
1
10
64.7445778714941
20
-31.2708526967745
30
0
0
SPLINE
5
1C4
100
AcDbEntity
8
1
62
256
6
ByLayer
370
13
48
1
60
0
100
AcDbSpline
70
4
71
3
72
8
73
4
40
0
40
0
40
0
40
0
40
1
40
1
40
1
40
1
41
1
10
63.8111298158822
20
-33.7920408142678
30
0
41
1
10
63.9345372709257
20
-33.7941112665874
30
0
41
1
10
64.0579410564829
20
-33.7964224127399
30
0
41
1
10
64.1813466597388
20
-33.7986142989012
30
0
0
SPLINE
5
1C5
100
AcDbEntity
8
1
62
256
6
ByLayer
370
13
48
1
60
0
100
AcDbSpline
70
4
71
3
72
14
73
10
40
0
40
0
40
0
40
0
40
0.296336902034371
40
0.296336902034371
40
0.500919501582311
40
0.500919501582311
40
0.705835321647557
40
0.705835321647557
40
1
40
1
40
1
40
1
41
1
10
65.8148304172783
20
-32.9787399510047
30
0
41
1
10
65.8660677167673
20
-32.896645895112
30
0
41
1
10
65.9104038791952
20
-32.8054665305828
30
0
41
1
10
65.9563391225119
20
-32.6411562565501
30
0
41
1
10
65.9668678182987
20
-32.5697508415604
30
0
41
1
10
65.9666931573394
20
-32.4282792322164
30
0
41
1
10
65.9559491921173
20
-32.3567972718045
30
0
41
1
10
65.9097690342969
20
-32.1932201779695
30
0
41
1
10
65.8657051166848
20
-32.1027732503862
30
0
41
1
10
65.8148303211301
20
-32.0212600705532
30
0
0
SPLINE
5
1C6
100
AcDbEntity
8
1
62
256
6
ByLayer
370
13
48
1
60
0
100
AcDbSpline
70
4
71
3
72
8
73
4
40
0
40
0
40
0
40
0
40
1
40
1
40
1
40
1
41
1
10
63.2942061665889
20
-30.4532020272647
30
0
41
1
10
63.2961388882516
20
-30.4530967031808
30
0
41
1
10
63.2980820985356
20
-30.4526503606753
30
0
41
1
10
63.3000011338344
20
-30.4518363582193
30
0
0
SPLINE
5
1C7
100
AcDbEntity
8
1
62
256
6
ByLayer
370
13
48
1
60
0
100
AcDbSpline
70
4
71
3
72
8
73
4
40
0
40
0
40
0
40
0
40
1
40
1
40
1
40
1
41
1
10
63.2942061665889
20
-34.5467979727351
30
0
41
1
10
63.2961388882516
20
-34.5469032968189
30
0
41
1
10
63.2980820985356
20
-34.5473496393244
30
0
41
1
10
63.3000011338344
20
-34.5481636417805
30
0
0
SPLINE
5
1C8
100
AcDbEntity
8
1
62
256
6
ByLayer
370
13
48
1
60
0
100
AcDbSpline
70
4
71
3
72
12
73
8
40
0
40
0
40
0
40
0
40
0.456750585004434
40
0.456750585004434
40
0.981156431701552
40
0.981156431701552
40
1
40
1
40
1
40
1
41
1
10
66.5194240279075
20
-30.8500327763033
30
0
41
1
10
66.4993013296112
20
-30.8475263169872
30
0
41
1
10
66.476214663313
20
-30.8446505945641
30
0
41
1
10
66.4240212508577
20
-30.8381490302173
30
0
41
1
10
66.3936761766719
20
-30.8343688956115
30
0
41
1
10
66.3626553113416
20
-30.8305044033997
30
0
41
1
10
66.3615750708371
20
-30.8303698296326
30
0
41
1
10
66.3604948532722
20
-30.830235258944
30
0
0
SPLINE
5
1C9
100
AcDbEntity
8
1
62
256
6
ByLayer
370
13
48
1
60
0
100
AcDbSpline
70
4
71
3
72
12
73
8
40
0
40
0
40
0
40
0
40
0.456750585004434
40
0.456750585004434
40
0.981156431701552
40
0.981156431701552
40
1
40
1
40
1
40
1
41
1
10
66.5194240279075
20
-34.1499672236965
30
0
41
1
10
66.4993013296112
20
-34.1524736830126
30
0
41
1
10
66.476214663313
20
-34.1553494054356
30
0
41
1
10
66.4240212508577
20
-34.1618509697825
30
0
41
1
10
66.3936761766719
20
-34.1656311043882
30
0
41
1
10
66.3626553113416
20
-34.1694955966001
30
0
41
1
10
66.3615750708371
20
-34.1696301703671
30
0
41
1
10
66.3604948532722
20
-34.1697647410558
30
0
0
SPLINE
5
1CA
100
AcDbEntity
8
1
62
256
6
ByLayer
370
13
48
1
60
0
100
AcDbSpline
70
4
71
3
72
12
73
8
40
0
40
0
40
0
40
0
40
0.407652787610617
40
0.407652787610617
40
0.80675425507476
40
0.80675425507476
40
1
40
1
40
1
40
1
41
1
10
63.6827261627815
20
-31.2903821029882
30
0
41
1
10
63.6423493903773
20
-31.3391350151867
30
0
41
1
10
63.6100632367462
20
-31.4069615603405
30
0
41
1
10
63.5760713525874
20
-31.5814580751724
30
0
41
1
10
63.5722997161055
20
-31.6879609118762
30
0
41
1
10
63.5864044365501
20
-31.860915642676
30
0
41
1
10
63.5941788065669
20
-31.9207107717424
30
0
41
1
10
63.6048054173026
20
-31.9819516762819
30
0
0
SPLINE
5
1CB
100
AcDbEntity
8
1
62
256
6
ByLayer
370
13
48
1
60
0
100
AcDbSpline
70
4
71
3
72
24
73
20
40
0
40
0
40
0
40
0
40
0.25
40
0.3125
40
0.3125
40
0.375
40
0.375
40
0.5
40
0.625
40
0.6875
40
0.6875
40
0.75
40
0.75
40
0.875
40
0.875
40
0.9375
40
0.9990234375
40
0.9990234375
40
1
40
1
40
1
40
1
41
1
10
63.7928855362849
20
-31.9885466926311
30
0
41
1
10
63.7735058405859
20
-31.9924389557444
30
0
41
1
10
63.7500219604898
20
-31.9959135052368
30
0
41
1
10
63.7274462335765
20
-31.9976971384492
30
0
41
1
10
63.7184908164345
20
-31.9982706604807
30
0
41
1
10
63.7140357684625
20
-31.9984881740305
30
0
41
1
10
63.7009086714262
20
-31.9989223289908
30
0
41
1
10
63.6840638506437
20
-31.9989242590005
30
0
41
1
10
63.6646031095877
20
-31.9975278516045
30
0
41
1
10
63.6536539959649
20
-31.9960522495579
30
0
41
1
10
63.6465202483459
20
-31.9949232551958
30
0
41
1
10
63.6430323536057
20
-31.9942848116953
30
0
41
1
10
63.6329462679787
20
-31.9921733144765
30
0
41
1
10
63.6266760085806
20
-31.9905017772482
30
0
41
1
10
63.6179576652336
20
-31.9875955043178
30
0
41
1
10
63.6124180704423
20
-31.9855411758166
30
0
41
1
10
63.6073314608476
20
-31.9832239724945
30
0
41
1
10
63.6048818820026
20
-31.9819902783107
30
0
41
1
10
63.6048436355454
20
-31.9819709854775
30
0
41
1
10
63.6048054173026
20
-31.9819516762819
30
0
0
SPLINE
5
1CC
100
AcDbEntity
8
1
62
256
6
ByLayer
370
13
48
1
60
0
100
AcDbSpline
70
4
71
3
72
12
73
8
40
0
40
0
40
0
40
0
40
0.308993760133951
40
0.308993760133951
40
0.683588934766892
40
0.683588934766892
40
1
40
1
40
1
40
1
41
1
10
63.6048053546503
20
-33.0180483237179
30
0
41
1
10
63.5879447413016
20
-33.1152155807562
30
0
41
1
10
63.5782978958977
20
-33.2090630116522
30
0
41
1
10
63.57500258097
20
-33.3962132224944
30
0
41
1
10
63.5851737729859
20
-33.4878413848632
30
0
41
1
10
63.6242985955955
20
-33.6229913575026
30
0
41
1
10
63.6512264716852
20
-33.6715839946608
30
0
41
1
10
63.6827260440042
20
-33.7096181529521
30
0
0
SPLINE
5
1CD
100
AcDbEntity
8
1
62
256
6
ByLayer
370
13
48
1
60
0
100
AcDbSpline
70
4
71
3
72
9
73
5
40
0
40
0
40
0
40
0
40
0.499743409265181
40
1
40
1
40
1
40
1
41
1
10
63.7928855278383
20
-33.0114533503754
30
0
41
1
10
63.7543020074558
20
-33.0058574268779
30
0
41
1
10
63.6770953456626
20
-32.9946598334854
30
0
41
1
10
63.6289102608852
20
-33.0102494935322
30
0
41
1
10
63.6048053546503
20
-33.0180483237179
30
0
0
SPLINE
5
1CE
100
AcDbEntity
8
1
62
256
6
ByLayer
370
13
48
1
60
0
100
AcDbSpline
70
4
71
2
72
6
73
3
40
0
40
0
40
0
40
1
40
1
40
1
41
1
10
63.4140087529927
20
-31.9819516762819
30
0
41
1
10
63.5094070851476
20
-31.9819516762819
30
0
41
1
10
63.6048054173026
20
-31.9819516762819
30
0
0
SPLINE
5
1CF
100
AcDbEntity
8
1
62
256
6
ByLayer
370
13
48
1
60
0
100
AcDbSpline
70
4
71
2
72
6
73
3
40
0
40
0
40
0
40
1
40
1
40
1
41
1
10
62.93015299629
20
-30.4531662875012
30
0
41
1
10
63.1720808746414
20
-31.2175589818915
30
0
41
1
10
63.4140087529927
20
-31.9819516762819
30
0
0
SPLINE
5
1D0
100
AcDbEntity
8
1
62
256
6
ByLayer
370
13
48
1
60
0
100
AcDbSpline
70
4
71
3
72
12
73
8
40
0
40
0
40
0
40
0
40
0.429865222127252
40
0.429865222127252
40
0.859701708003693
40
0.859701708003693
40
1
40
1
40
1
40
1
41
1
10
62.93015299629
20
-30.4531662875012
30
0
41
1
10
62.9827425698598
20
-30.4545253638509
30
0
41
1
10
63.0344895999536
20
-30.4531999311968
30
0
41
1
10
63.1388130934788
20
-30.4532031668567
30
0
41
1
10
63.1909725495536
20
-30.4532030555641
30
0
41
1
10
63.2601566366992
20
-30.4532023566229
30
0
41
1
10
63.2771813944671
20
-30.4532021692676
30
0
41
1
10
63.2942061665889
20
-30.4532020272647
30
0
0
SPLINE
5
1D1
100
AcDbEntity
8
1
62
256
6
ByLayer
370
13
48
1
60
0
100
AcDbSpline
70
4
71
2
72
6
73
3
40
0
40
0
40
0
40
1
40
1
40
1
41
1
10
62.93015299629
20
-34.5468337124986
30
0
41
1
10
63.1720808746414
20
-33.7824410181082
30
0
41
1
10
63.4140087529927
20
-33.0180483237179
30
0
0
SPLINE
5
1D2
100
AcDbEntity
8
1
62
256
6
ByLayer
370
13
48
1
60
0
100
AcDbSpline
70
4
71
3
72
12
73
8
40
0
40
0
40
0
40
0
40
0.140298291996301
40
0.140298291996301
40
0.570134777872745
40
0.570134777872745
40
1
40
1
40
1
40
1
41
1
10
63.2942061665889
20
-34.5467979727351
30
0
41
1
10
63.2771813944671
20
-34.5467978307321
30
0
41
1
10
63.2601566366992
20
-34.5467976433768
30
0
41
1
10
63.1909725495536
20
-34.5467969444357
30
0
41
1
10
63.1388130934788
20
-34.546796833143
30
0
41
1
10
63.0344895999536
20
-34.5468000688029
30
0
41
1
10
62.9827425698598
20
-34.5454746361489
30
0
41
1
10
62.93015299629
20
-34.5468337124986
30
0
0
SPLINE
5
1D3
100
AcDbEntity
8
1
62
256
6
ByLayer
370
13
48
1
60
0
100
AcDbSpline
70
4
71
2
72
6
73
3
40
0
40
0
40
0
40
1
40
1
40
1
41
1
10
63.4140087529927
20
-33.0180483237179
30
0
41
1
10
63.5094070538215
20
-33.0180483237179
30
0
41
1
10
63.6048053546503
20
-33.0180483237179
30
0
0
SPLINE
5
1D4
100
AcDbEntity
8
1
62
256
6
ByLayer
370
13
48
1
60
0
100
AcDbSpline
70
4
71
3
72
8
73
4
40
0
40
0
40
0
40
0
40
1
40
1
40
1
40
1
41
1
10
69.8921442338084
20
-31.2096982440934
30
0
41
1
10
69.8627647515653
20
-31.1751464267315
30
0
41
1
10
69.8279641482437
20
-31.1450190084683
30
0
41
1
10
69.7909653354444
20
-31.1188702552209
30
0
0
SPLINE
5
1D5
100
AcDbEntity
8
1
62
256
6
ByLayer
370
13
48
1
60
0
100
AcDbSpline
70
4
71
3
72
8
73
4
40
0
40
0
40
0
40
0
40
1
40
1
40
1
40
1
41
1
10
69.7909653354444
20
-31.118870255221
30
0
41
1
10
69.7313904454621
20
-31.0767659556496
30
0
41
1
10
69.6714380804948
20
-31.0351802591341
30
0
41
1
10
69.6107752183728
20
-30.9946648914278
30
0
0
SPLINE
5
1D6
100
AcDbEntity
8
1
62
256
6
ByLayer
370
13
48
1
60
0
100
AcDbSpline
70
4
71
3
72
10
73
6
40
0
40
0
40
0
40
0
40
0.742990102267645
40
0.742990102267645
40
1
40
1
40
1
40
1
41
1
10
69.6107752183728
20
-30.9946648914278
30
0
41
1
10
69.5899301363519
20
-30.9807429277518
30
0
41
1
10
69.5696186119127
20
-30.9656782476958
30
0
41
1
10
69.5453944188342
20
-30.9421228060606
30
0
41
1
10
69.5394295011685
20
-30.9357237170335
30
0
41
1
10
69.5340357485912
20
-30.9288791283458
30
0
0
SPLINE
5
1D7
100
AcDbEntity
8
1
62
256
6
ByLayer
370
13
48
1
60
0
100
AcDbSpline
70
4
71
3
72
10
73
6
40
0
40
0
40
0
40
0
40
0.742990102267645
40
0.742990102267645
40
1
40
1
40
1
40
1
41
1
10
69.6107752183728
20
-34.005335108572
30
0
41
1
10
69.5899301363519
20
-34.019257072248
30
0
41
1
10
69.5696186119127
20
-34.034321752304
30
0
41
1
10
69.5453944188342
20
-34.0578771939392
30
0
41
1
10
69.5394295011685
20
-34.0642762829662
30
0
41
1
10
69.5340357485912
20
-34.071120871654
30
0
0
SPLINE
5
1D8
100
AcDbEntity
8
1
62
256
6
ByLayer
370
13
48
1
60
0
100
AcDbSpline
70
4
71
3
72
8
73
4
40
0
40
0
40
0
40
0
40
1
40
1
40
1
40
1
41
1
10
68.8080209311119
20
-34.234301711032
30
0
41
1
10
68.6428355720663
20
-34.256419647248
30
0
41
1
10
68.4728063563389
20
-34.2587862001675
30
0
41
1
10
68.3080209311119
20
-34.2338758120953
30
0
0
SPLINE
5
1D9
100
AcDbEntity
8
1
62
256
6
ByLayer
370
13
48
1
60
0
100
AcDbSpline
70
4
71
3
72
8
73
4
40
0
40
0
40
0
40
0
40
1
40
1
40
1
40
1
41
1
10
69.7909653354444
20
-33.8811297447788
30
0
41
1
10
69.7313904454621
20
-33.9232340443502
30
0
41
1
10
69.6714380804948
20
-33.9648197408657
30
0
41
1
10
69.6107752183728
20
-34.005335108572
30
0
0
SPLINE
5
1DA
100
AcDbEntity
8
1
62
256
6
ByLayer
370
13
48
1
60
0
100
AcDbSpline
70
4
71
3
72
8
73
4
40
0
40
0
40
0
40
0
40
1
40
1
40
1
40
1
41
1
10
69.8921442338084
20
-33.7903017559063
30
0
41
1
10
69.8627647515653
20
-33.8248535732683
30
0
41
1
10
69.8279641482437
20
-33.8549809915314
30
0
41
1
10
69.7909653354444
20
-33.8811297447788
30
0
0
SPLINE
5
1DB
100
AcDbEntity
8
1
62
256
6
ByLayer
370
13
48
1
60
0
100
AcDbSpline
70
4
71
3
72
8
73
4
40
0
40
0
40
0
40
0
40
1
40
1
40
1
40
1
41
1
10
69.4662283541793
20
-34.1213001081331
30
0
41
1
10
69.3645721130157
20
-34.1510948749974
30
0
41
1
10
69.2601844544977
20
-34.1720578768988
30
0
41
1
10
69.1553172864458
20
-34.184947806048
30
0
0
SPLINE
5
1DC
100
AcDbEntity
8
1
62
256
6
ByLayer
370
13
48
1
60
0
100
AcDbSpline
70
4
71
3
72
8
73
4
40
0
40
0
40
0
40
0
40
1
40
1
40
1
40
1
41
1
10
68.8080209311119
20
-30.7656982889678
30
0
41
1
10
68.6428355720663
20
-30.7435803527518
30
0
41
1
10
68.4728063563389
20
-30.7412137998322
30
0
41
1
10
68.3080209311119
20
-30.7661241879044
30
0
0
SPLINE
5
1DD
100
AcDbEntity
8
1
62
256
6
ByLayer
370
13
48
1
60
0
100
AcDbSpline
70
4
71
3
72
8
73
4
40
0
40
0
40
0
40
0
40
1
40
1
40
1
40
1
41
1
10
69.4662283541793
20
-30.8786998918667
30
0
41
1
10
69.3645721130157
20
-30.8489051250024
30
0
41
1
10
69.2601844544977
20
-30.827942123101
30
0
41
1
10
69.1553172864458
20
-30.8150521939517
30
0
0
SPLINE
5
1DE
100
AcDbEntity
8
1
62
256
6
ByLayer
370
13
48
1
60
0
100
AcDbSpline
70
4
71
3
72
22
73
18
40
0
40
0
40
0
40
0
40
0.000222718869746
40
0.000222718869746
40
0.259227458805804
40
0.259227458805804
40
0.465187962680825
40
0.465187962680825
40
0.514638646729743
40
0.514638646729743
40
0.731295224185332
40
0.731295224185332
40
0.772617906475971
40
0.772617906475971
40
0.999777281128767
40
0.999777281128767
40
1
40
1
40
1
40
1
41
1
10
64.035691245647
20
-32.6318857898185
30
0
41
1
10
64.0356932856395
20
-32.6319051972583
30
0
41
1
10
64.0356953283832
20
-32.6319246042703
30
0
41
1
10
64.0380663888123
20
-32.6545135048095
30
0
41
1
10
64.0365596228332
20
-32.6777619749043
30
0
41
1
10
64.0262287382006
20
-32.7171340957599
30
0
41
1
10
64.0188079227838
20
-32.7341828107228
30
0
41
1
10
64.0063644003339
20
-32.7532441173664
30
0
41
1
10
64.0037725995617
20
-32.7568870666076
30
0
41
1
10
63.9892423112084
20
-32.7756686620476
30
0
41
1
10
63.9743667237898
20
-32.7891764059837
30
0
41
1
10
63.9550246963389
20
-32.8019874117385
30
0
41
1
10
63.951823946192
20
-32.8039775515193
30
0
41
1
10
63.9309707186486
20
-32.81617049686
30
0
41
1
10
63.9118439399919
20
-32.8238045388756
30
0
41
1
10
63.8928770947448
20
-32.8292106919528
30
0
41
1
10
63.8928585800716
20
-32.8292159648572
30
0
41
1
10
63.8928400660952
20
-32.8292212401835
30
0
0
SPLINE
5
1DF
100
AcDbEntity
8
1
62
256
6
ByLayer
370
13
48
1
60
0
100
AcDbSpline
70
4
71
3
72
20
73
16
40
0
40
0
40
0
40
0
40
0.0002232153553158
40
0.0002232153553158
40
0.274386302285847
40
0.274386302285847
40
0.473368417101266
40
0.473368417101266
40
0.521262782240241
40
0.521262782240241
40
0.760382585843684
40
0.760382585843684
40
0.999776784646173
40
0.999776784646173
40
1
40
1
40
1
40
1
41
1
10
63.892840140512
20
-32.1707787598162
30
0
41
1
10
63.8928586544878
20
-32.170784035142
30
0
41
1
10
63.8928771691604
20
-32.1707893080457
30
0
41
1
10
63.9156355774231
20
-32.1772761764037
30
0
41
1
10
63.9387687151515
20
-32.187072926099
30
0
41
1
10
63.9740397484175
20
-32.2107404497836
30
0
41
1
10
63.9877700889217
20
-32.2230671136444
30
0
41
1
10
64.0016713970764
20
-32.2403097628471
30
0
41
1
10
64.0042645879512
20
-32.2437947429746
30
0
41
1
10
64.0187113466353
20
-32.264872416359
30
0
41
1
10
64.0272715785523
20
-32.2848079504402
30
0
41
1
10
64.0367671024569
20
-32.3256198632024
30
0
41
1
10
64.0378953513001
20
-32.3471162281963
30
0
41
1
10
64.0356953494997
20
-32.3680753957371
30
0
41
1
10
64.0356933067495
20
-32.3680948027453
30
0
41
1
10
64.0356912667505
20
-32.3681142101813
30
0
0
SPLINE
5
1E0
100
AcDbEntity
8
1
62
256
6
ByLayer
370
13
48
1
60
0
100
AcDbSpline
70
4
71
3
72
8
73
4
40
0
40
0
40
0
40
0
40
1
40
1
40
1
40
1
41
1
10
69.1553172864458
20
-34.1849478060481
30
0
41
1
10
69.0406647169833
20
-34.2004961736361
30
0
41
1
10
68.9240025737786
20
-34.2169904762703
30
0
41
1
10
68.8080209311119
20
-34.234301711032
30
0
0
SPLINE
5
1E1
100
AcDbEntity
8
1
62
256
6
ByLayer
370
13
48
1
60
0
100
AcDbSpline
70
4
71
3
72
16
73
12
40
0
40
0
40
0
40
0
40
0.036416957303705
40
0.036416957303705
40
0.0997081083467255
40
0.0997081083467255
40
0.211635380228895
40
0.211635380228895
40
0.452209862564279
40
0.452209862564279
40
1
40
1
40
1
40
1
41
1
10
69.4662283541792
20
-34.1213001081331
30
0
41
1
10
69.4670387760248
20
-34.1206798424908
30
0
41
1
10
69.4678500729595
20
-34.1200600127512
30
0
41
1
10
69.470075804622
20
-34.118360803291
30
0
41
1
10
69.4714916802361
20
-34.1172819158365
30
0
41
1
10
69.4754161685163
20
-34.1142973191238
30
0
41
1
10
69.477928856633
20
-34.1123929879889
30
0
41
1
10
69.4858553152411
20
-34.1064075284521
30
0
41
1
10
69.4912894215204
20
-34.1023364463488
30
0
41
1
10
69.5091166544243
20
-34.0890917635409
30
0
41
1
10
69.5216024730774
20
-34.0799924773389
30
0
41
1
10
69.5340357485912
20
-34.071120871654
30
0
0
SPLINE
5
1E2
100
AcDbEntity
8
1
62
256
6
ByLayer
370
13
48
1
60
0
100
AcDbSpline
70
4
71
3
72
8
73
4
40
0
40
0
40
0
40
0
40
1
40
1
40
1
40
1
41
1
10
69.1553172864458
20
-30.8150521939517
30
0
41
1
10
69.0406647169833
20
-30.7995038263636
30
0
41
1
10
68.9240025737786
20
-30.7830095237295
30
0
41
1
10
68.8080209311119
20
-30.7656982889678
30
0
0
SPLINE
5
1E3
100
AcDbEntity
8
1
62
256
6
ByLayer
370
13
48
1
60
0
100
AcDbSpline
70
4
71
3
72
16
73
12
40
0
40
0
40
0
40
0
40
0.0364169573037049
40
0.0364169573037049
40
0.0997081083467255
40
0.0997081083467255
40
0.211635380228895
40
0.211635380228895
40
0.452209862564279
40
0.452209862564279
40
1
40
1
40
1
40
1
41
1
10
69.4662283541792
20
-30.8786998918667
30
0
41
1
10
69.4670387760248
20
-30.8793201575089
30
0
41
1
10
69.4678500729595
20
-30.8799399872486
30
0
41
1
10
69.470075804622
20
-30.8816391967088
30
0
41
1
10
69.4714916802361
20
-30.8827180841632
30
0
41
1
10
69.4754161685163
20
-30.885702680876
30
0
41
1
10
69.477928856633
20
-30.8876070120109
30
0
41
1
10
69.4858553152411
20
-30.8935924715476
30
0
41
1
10
69.4912894215204
20
-30.897663553651
30
0
41
1
10
69.5091166544244
20
-30.9109082364588
30
0
41
1
10
69.5216024730774
20
-30.9200075226608
30
0
41
1
10
69.5340357485912
20
-30.9288791283458
30
0
0
SPLINE
5
1E4
100
AcDbEntity
8
1
62
256
6
ByLayer
370
13
48
1
60
0
100
AcDbSpline
70
4
71
3
72
10
73
6
40
0
40
0
40
0
40
0
40
0.726515101313405
40
0.726515101313405
40
1
40
1
40
1
40
1
41
1
10
69.5673140428787
20
-33.9477095884683
30
0
41
1
10
69.5467943373434
20
-33.96761692756
30
0
41
1
10
69.527721005355
20
-33.9896397430199
30
0
41
1
10
69.5068496360731
20
-34.0236522037519
30
0
41
1
10
69.5016724865751
20
-34.0334316943917
30
0
41
1
10
69.4973512174149
20
-34.043611143035
30
0
0
SPLINE
5
1E5
100
AcDbEntity
8
1
62
256
6
ByLayer
370
13
48
1
60
0
100
AcDbSpline
70
4
71
3
72
16
73
12
40
0
40
0
40
0
40
0
40
0.0364498729883201
40
0.0364498729883201
40
0.0987306192890671
40
0.0987306192890671
40
0.210020225745924
40
0.210020225745924
40
0.450231110269824
40
0.450231110269824
40
1
40
1
40
1
40
1
41
1
10
69.4662283541792
20
-34.1213001081331
30
0
41
1
10
69.4665920879058
20
-34.1203413514047
30
0
41
1
10
69.4669568390965
20
-34.119382983479
30
0
41
1
10
69.4679468505053
20
-34.1167839893961
30
0
41
1
10
69.4685733701323
20
-34.1151438839981
30
0
41
1
10
69.4703235564761
20
-34.1105759953158
30
0
41
1
10
69.4714506814858
20
-34.1076499775568
30
0
41
1
10
69.4750256156321
20
-34.098424612526
30
0
41
1
10
69.4774931433139
20
-34.0921380034684
30
0
41
1
10
69.4856650049043
20
-34.0715981496583
30
0
41
1
10
69.4914797806527
20
-34.0574422622737
30
0
41
1
10
69.4973512174168
20
-34.0436111430359
30
0
0
SPLINE
5
1E6
100
AcDbEntity
8
1
62
256
6
ByLayer
370
13
48
1
60
0
100
AcDbSpline
70
4
71
3
72
10
73
6
40
0
40
0
40
0
40
0
40
0.726515101313405
40
0.726515101313405
40
1
40
1
40
1
40
1
41
1
10
69.5673140428787
20
-31.0522904115315
30
0
41
1
10
69.5467943373434
20
-31.0323830724397
30
0
41
1
10
69.527721005355
20
-31.0103602569798
30
0
41
1
10
69.5068496360731
20
-30.9763477962478
30
0
41
1
10
69.5016724865751
20
-30.9665683056081
30
0
41
1
10
69.4973512174149
20
-30.9563888569647
30
0
0
SPLINE
5
1E7
100
AcDbEntity
8
1
62
256
6
ByLayer
370
13
48
1
60
0
100
AcDbSpline
70
4
71
3
72
16
73
12
40
0
40
0
40
0
40
0
40
0.0364498729883201
40
0.0364498729883201
40
0.0987306192890671
40
0.0987306192890671
40
0.210020225745924
40
0.210020225745924
40
0.450231110269824
40
0.450231110269824
40
1
40
1
40
1
40
1
41
1
10
69.4662283541792
20
-30.8786998918667
30
0
41
1
10
69.4665920879058
20
-30.879658648595
30
0
41
1
10
69.4669568390965
20
-30.8806170165207
30
0
41
1
10
69.4679468505053
20
-30.8832160106037
30
0
41
1
10
69.4685733701323
20
-30.8848561160017
30
0
41
1
10
69.4703235564761
20
-30.8894240046839
30
0
41
1
10
69.4714506814858
20
-30.8923500224429
30
0
41
1
10
69.4750256156321
20
-30.9015753874738
30
0
41
1
10
69.4774931433139
20
-30.9078619965313
30
0
41
1
10
69.4856650049043
20
-30.9284018503414
30
0
41
1
10
69.4914797806527
20
-30.9425577377261
30
0
41
1
10
69.4973512174168
20
-30.9563888569639
30
0
0
SPLINE
5
1E8
100
AcDbEntity
8
1
62
256
6
ByLayer
370
13
48
1
60
0
100
AcDbSpline
70
4
71
3
72
16
73
12
40
0
40
0
40
0
40
0
40
0.0003118173380686
40
0.0003118173380686
40
0.279489245325511
40
0.279489245325511
40
0.55875761252395
40
0.55875761252395
40
0.999688182661868
40
0.999688182661868
40
1
40
1
40
1
40
1
41
1
10
63.7037729407914
20
-32.0994230366011
30
0
41
1
10
63.7037912567827
20
-32.0994306983102
30
0
41
1
10
63.7038095726709
20
-32.0994383602396
30
0
41
1
10
63.720226713854
20
-32.1063055756697
30
0
41
1
10
63.7367050975242
20
-32.1130140042081
30
0
41
1
10
63.7698094845915
20
-32.1261313121201
30
0
41
1
10
63.786437576077
20
-32.1325409030493
30
0
41
1
10
63.8294858918491
20
-32.1486836430595
30
0
41
1
10
63.8560096249246
20
-32.1581956154145
30
0
41
1
10
63.8826933601576
20
-32.1673456256791
30
0
41
1
10
63.8827122186186
20
-32.1673520919309
30
0
41
1
10
63.8827310770044
20
-32.1673585583831
30
0
0
SPLINE
5
1E9
100
AcDbEntity
8
1
62
256
6
ByLayer
370
13
48
1
60
0
100
AcDbSpline
70
4
71
3
72
9
73
5
40
0
40
0
40
0
40
0
40
0.49971069640967
40
1
40
1
40
1
40
1
41
1
10
63.792885536285
20
-31.988546692631
30
0
41
1
10
63.7739562259549
20
-32.017145478968
30
0
41
1
10
63.7360756873431
20
-32.0743761657282
30
0
41
1
10
63.7145446756413
20
-32.0910708597535
30
0
41
1
10
63.7037729407914
20
-32.0994230366011
30
0
0
SPLINE
5
1EA
100
AcDbEntity
8
1
62
256
6
ByLayer
370
13
48
1
60
0
100
AcDbSpline
70
4
71
3
72
16
73
12
40
0
40
0
40
0
40
0
40
0.0003118144544083
40
0.0003118144544083
40
0.278931528860409
40
0.278931528860409
40
0.55807335791413
40
0.55807335791413
40
0.999688185545606
40
0.999688185545606
40
1
40
1
40
1
40
1
41
1
10
63.8827310030705
20
-32.8326414416167
30
0
41
1
10
63.8827121446849
20
-32.8326479080692
30
0
41
1
10
63.8826932862241
20
-32.832654374321
30
0
41
1
10
63.8658237075292
20
-32.8384390526613
30
0
41
1
10
63.8490299503336
20
-32.8443641894164
30
0
41
1
10
63.8155387444205
20
-32.8565209665095
30
0
41
1
10
63.7988396824678
20
-32.8627538332967
30
0
41
1
10
63.7559042651525
20
-32.8792319905207
30
0
41
1
10
63.7297658847848
20
-32.8897042053354
30
0
41
1
10
63.7038095096562
20
-32.9005616397594
30
0
41
1
10
63.7037911937686
20
-32.9005693016893
30
0
41
1
10
63.7037728777779
20
-32.9005769633987
30
0
0
SPLINE
5
1EB
100
AcDbEntity
8
1
62
256
6
ByLayer
370
13
48
1
60
0
100
AcDbSpline
70
4
71
3
72
24
73
20
40
0
40
0
40
0
40
0
40
0.25
40
0.3125
40
0.3125
40
0.375
40
0.375
40
0.5
40
0.625
40
0.6875
40
0.6875
40
0.75
40
0.75
40
0.875
40
0.875
40
0.9375
40
0.9990234375
40
0.9990234375
40
1
40
1
40
1
40
1
41
1
10
63.7928855278383
20
-33.0114533503742
30
0
41
1
10
63.7832636662611
20
-32.9961585079392
30
0
41
1
10
63.771730379822
20
-32.9786865199447
30
0
41
1
10
63.7608004404685
20
-32.9632182901826
30
0
41
1
10
63.7564782072273
20
-32.9571964588086
30
0
41
1
10
63.7543353507194
20
-32.9542591766928
30
0
41
1
10
63.7480333946262
20
-32.9457687090553
30
0
41
1
10
63.7400009682935
20
-32.9353449576944
30
0
41
1
10
63.7308566270157
20
-32.9244865512124
30
0
41
1
10
63.7257777119109
20
-32.9189592531132
30
0
41
1
10
63.7224844900989
20
-32.9154990325106
30
0
41
1
10
63.7208806452621
20
-32.9138779945067
30
0
41
1
10
63.716263102556
20
-32.9094095510224
30
0
41
1
10
63.713425258485
20
-32.9069332418216
30
0
41
1
10
63.7095321511242
20
-32.9039784551771
30
0
41
1
10
63.7070772953718
20
-32.9022752343209
30
0
41
1
10
63.7048620512314
20
-32.9010724521093
30
0
41
1
10
63.7038058396485
20
-32.9005918876131
30
0
41
1
10
63.7037893512562
20
-32.9005844099342
30
0
41
1
10
63.7037728777784
20
-32.9005769633985
30
0
0
SPLINE
5
1EC
100
AcDbEntity
8
1
62
256
6
ByLayer
370
13
48
1
60
0
100
AcDbSpline
70
4
71
3
72
14
73
10
40
0
40
0
40
0
40
0
40
0.0505559842848517
40
0.0505559842848517
40
0.533727627143306
40
0.533727627143306
40
0.896918867994815
40
0.896918867994815
40
1
40
1
40
1
40
1
41
1
10
69.8700651469456
20
-31.2763858343146
30
0
41
1
10
69.8721585882714
20
-31.2785694478344
30
0
41
1
10
69.8742266116036
20
-31.2807777687565
30
0
41
1
10
69.8955839637868
20
-31.3041537164023
30
0
41
1
10
69.9127357036069
20
-31.3279010147848
30
0
41
1
10
69.9341426255233
20
-31.3732941923515
30
0
41
1
10
69.9406215633697
20
-31.3944521344912
30
0
41
1
10
69.9437467206534
20
-31.422019929414
30
0
41
1
10
69.9441226460485
20
-31.4282232665538
30
0
41
1
10
69.9441651422531
20
-31.4344203881888
30
0
0
SPLINE
5
1ED
100
AcDbEntity
8
1
62
256
6
ByLayer
370
13
48
1
60
0
100
AcDbSpline
70
4
71
3
72
8
73
4
40
0
40
0
40
0
40
0
40
1
40
1
40
1
40
1
41
1
10
69.4213727254144
20
-31.4227457685312
30
0
41
1
10
69.5956640074145
20
-31.4207944068692
30
0
41
1
10
69.7699434366784
20
-31.4286877795675
30
0
41
1
10
69.9441651422587
20
-31.4344203881881
30
0
0
SPLINE
5
1EE
100
AcDbEntity
8
1
62
256
6
ByLayer
370
13
48
1
60
0
100
AcDbSpline
70
4
71
3
72
8
73
4
40
0
40
0
40
0
40
0
40
1
40
1
40
1
40
1
41
1
10
69.4213727254144
20
-33.5772542314685
30
0
41
1
10
69.5956640074145
20
-33.5792055931306
30
0
41
1
10
69.7699434366784
20
-33.5713122204323
30
0
41
1
10
69.9441651422587
20
-33.5655796118116
30
0
0
SPLINE
5
1EF
100
AcDbEntity
8
1
62
256
6
ByLayer
370
13
48
1
60
0
100
AcDbSpline
70
4
71
3
72
16
73
12
40
0
40
0
40
0
40
0
40
0.001953125
40
0.001953125
40
0.25
40
0.5
40
0.75
40
0.9375
40
0.998046875
40
0.998046875
40
1
40
1
40
1
40
1
41
1
10
63.6048054173026
20
-31.9819516762819
30
0
41
1
10
63.6048376062847
20
-31.9820530945381
30
0
41
1
10
63.6048698691533
20
-31.982154483168
30
0
41
1
10
63.6090089675086
20
-31.9951284211643
30
0
41
1
10
63.6196461576043
20
-32.020014777112
30
0
41
1
10
63.6422215823352
20
-32.0530637840465
30
0
41
1
10
63.6681516706902
20
-32.0780979202905
30
0
41
1
10
63.6895266456595
20
-32.0921898947789
30
0
41
1
10
63.7007377477655
20
-32.0979615926384
30
0
41
1
10
63.703594309955
20
-32.0993372931323
30
0
41
1
10
63.7036836094554
20
-32.0993802045226
30
0
41
1
10
63.703772940784
20
-32.0994230365975
30
0
0
SPLINE
5
1F0
100
AcDbEntity
8
1
62
256
6
ByLayer
370
13
48
1
60
0
100
AcDbSpline
70
4
71
3
72
17
73
13
40
0
40
0
40
0
40
0
40
0.001953125
40
0.001953125
40
0.0625
40
0.25
40
0.5
40
0.75
40
0.9375
40
0.998046875
40
0.998046875
40
1
40
1
40
1
40
1
41
1
10
63.7037728777784
20
-32.9005769633985
30
0
41
1
10
63.7036835329031
20
-32.9006198019688
30
0
41
1
10
63.7035942202296
20
-32.9006627196441
30
0
41
1
10
63.7007372482941
20
-32.9020386146151
30
0
41
1
10
63.6895258082259
20
-32.9078103883299
30
0
41
1
10
63.6681578319086
20
-32.9218967394422
30
0
41
1
10
63.6422141768717
20
-32.9469450301024
30
0
41
1
10
63.6214778213815
20
-32.9773024014294
30
0
41
1
10
63.6103018420582
20
-33.0018474097122
30
0
41
1
10
63.605904425656
20
-33.0146025276373
30
0
41
1
10
63.6048697969046
20
-33.0178455471524
30
0
41
1
10
63.6048375387541
20
-33.0179469208311
30
0
41
1
10
63.6048053546529
20
-33.0180483237095
30
0
0
SPLINE
5
1F1
100
AcDbEntity
8
1
62
256
6
ByLayer
370
13
48
1
60
0
100
AcDbSpline
70
4
71
3
72
8
73
4
40
0
40
0
40
0
40
0
40
1
40
1
40
1
40
1
41
1
10
69.7459718007426
20
-31.1754451875985
30
0
41
1
10
69.7806983372205
20
-31.1961413648143
30
0
41
1
10
69.8139636111441
20
-31.2201469971731
30
0
41
1
10
69.8426948714028
20
-31.2485532485234
30
0
0
SPLINE
5
1F2
100
AcDbEntity
8
1
62
256
6
ByLayer
370
13
48
1
60
0
100
AcDbSpline
70
4
71
3
72
8
73
4
40
0
40
0
40
0
40
0
40
1
40
1
40
1
40
1
41
1
10
69.8426948714027
20
-31.2485532485235
30
0
41
1
10
69.8519343190549
20
-31.2576881792569
30
0
41
1
10
69.861052890068
20
-31.2669853864876
30
0
41
1
10
69.8700651469456
20
-31.2763858343146
30
0
0
SPLINE
5
1F3
100
AcDbEntity
8
1
62
256
6
ByLayer
370
13
48
1
60
0
100
AcDbSpline
70
4
71
3
72
14
73
10
40
0
40
0
40
0
40
0
40
0.0505559842848517
40
0.0505559842848517
40
0.533727627143306
40
0.533727627143306
40
0.896918867994815
40
0.896918867994815
40
1
40
1
40
1
40
1
41
1
10
69.8700651469456
20
-33.7236141656852
30
0
41
1
10
69.8721585882714
20
-33.7214305521654
30
0
41
1
10
69.8742266116036
20
-33.7192222312432
30
0
41
1
10
69.8955839637868
20
-33.6958462835974
30
0
41
1
10
69.9127357036069
20
-33.6720989852149
30
0
41
1
10
69.9341426255233
20
-33.6267058076483
30
0
41
1
10
69.9406215633697
20
-33.6055478655086
30
0
41
1
10
69.9437467206534
20
-33.5779800705858
30
0
41
1
10
69.9441226460485
20
-33.5717767334459
30
0
41
1
10
69.9441651422531
20
-33.565579611811
30
0
0
SPLINE
5
1F4
100
AcDbEntity
8
1
62
256
6
ByLayer
370
13
48
1
60
0
100
AcDbSpline
70
4
71
3
72
8
73
4
40
0
40
0
40
0
40
0
40
1
40
1
40
1
40
1
41
1
10
69.7459718007426
20
-33.8245548124013
30
0
41
1
10
69.7806983372205
20
-33.8038586351855
30
0
41
1
10
69.8139636111441
20
-33.7798530028266
30
0
41
1
10
69.8426948714028
20
-33.7514467514764
30
0
0
SPLINE
5
1F5
100
AcDbEntity
8
1
62
256
6
ByLayer
370
13
48
1
60
0
100
AcDbSpline
70
4
71
3
72
8
73
4
40
0
40
0
40
0
40
0
40
1
40
1
40
1
40
1
41
1
10
69.8426948714027
20
-33.7514467514763
30
0
41
1
10
69.8519343190549
20
-33.7423118207429
30
0
41
1
10
69.861052890068
20
-33.7330146135122
30
0
41
1
10
69.8700651469456
20
-33.7236141656852
30
0
0
SPLINE
5
1F6
100
AcDbEntity
8
1
62
256
6
ByLayer
370
13
48
1
60
0
100
AcDbSpline
70
4
71
3
72
10
73
6
40
0
40
0
40
0
40
0
40
0.478455993418637
40
0.478455993418637
40
1
40
1
40
1
40
1
41
1
10
69.9970257409039
20
-31.4344203881877
30
0
41
1
10
69.9970257409039
20
-31.4002471029513
30
0
41
1
10
69.9899219088571
20
-31.3656104221456
30
0
41
1
10
69.9639730710007
20
-31.299008546876
30
0
41
1
10
69.9439829972708
20
-31.2664891139857
30
0
41
1
10
69.9206965706902
20
-31.2373938527189
30
0
0
SPLINE
5
1F7
100
AcDbEntity
8
1
62
256
6
ByLayer
370
13
48
1
60
0
100
AcDbSpline
70
4
71
3
72
8
73
4
40
0
40
0
40
0
40
0
40
1
40
1
40
1
40
1
41
1
10
63.8827310770044
20
-32.1673585583831
30
0
41
1
10
63.886100646763
20
-32.1684987748537
30
0
41
1
10
63.8894703350288
20
-32.1696388421072
30
0
41
1
10
63.8928401405119
20
-32.1707787598164
30
0
0
SPLINE
5
1F8
100
AcDbEntity
8
1
62
256
6
ByLayer
370
13
48
1
60
0
100
AcDbSpline
70
4
71
3
72
8
73
4
40
0
40
0
40
0
40
0
40
1
40
1
40
1
40
1
41
1
10
63.8928400660951
20
-32.8292212401835
30
0
41
1
10
63.8894702607721
20
-32.8303611578917
30
0
41
1
10
63.8861005726669
20
-32.8315012251449
30
0
41
1
10
63.8827310030703
20
-32.8326414416165
30
0
0
SPLINE
5
1F9
100
AcDbEntity
8
1
62
256
6
ByLayer
370
13
48
1
60
0
100
AcDbSpline
70
4
71
3
72
10
73
6
40
0
40
0
40
0
40
0
40
0.478455993418637
40
0.478455993418637
40
1
40
1
40
1
40
1
41
1
10
69.9970257409039
20
-33.565579611812
30
0
41
1
10
69.9970257409039
20
-33.5997528970484
30
0
41
1
10
69.9899219088571
20
-33.6343895778541
30
0
41
1
10
69.9639730710007
20
-33.7009914531237
30
0
41
1
10
69.9439829972708
20
-33.7335108860141
30
0
41
1
10
69.9206965706902
20
-33.7626061472809
30
0
0
SPLINE
5
1FA
100
AcDbEntity
8
1
62
256
6
ByLayer
370
13
48
1
60
0
100
AcDbSpline
70
4
71
3
72
8
73
4
40
0
40
0
40
0
40
0
40
1
40
1
40
1
40
1
41
1
10
69.9206965706901
20
-31.2373938527189
30
0
41
1
10
69.9112950489699
20
-31.2279964561777
30
0
41
1
10
69.901780692966
20
-31.2187466287702
30
0
41
1
10
69.8921442338085
20
-31.2096982440933
30
0
0
SPLINE
5
1FB
100
AcDbEntity
8
1
62
256
6
ByLayer
370
13
48
1
60
0
100
AcDbSpline
70
4
71
3
72
12
73
8
40
0
40
0
40
0
40
0
40
0.398362077603418
40
0.398362077603418
40
0.817187858883142
40
0.817187858883142
40
1
40
1
40
1
40
1
41
1
10
68.5695
20
-33.5811659773773
30
0
41
1
10
68.6862018964713
20
-33.580941980041
30
0
41
1
10
68.8027495698944
20
-33.5779679521855
30
0
41
1
10
69.037745272551
20
-33.5761697022458
30
0
41
1
10
69.1566627089886
20
-33.5758392453203
30
0
41
1
10
69.3224222584759
20
-33.5764548633132
30
0
41
1
10
69.3722793677962
20
-33.5767961912709
30
0
41
1
10
69.4213727254144
20
-33.5772542314686
30
0
0
SPLINE
5
1FC
100
AcDbEntity
8
1
62
256
6
ByLayer
370
13
48
1
60
0
100
AcDbSpline
70
4
71
3
72
8
73
4
40
0
40
0
40
0
40
0
40
1
40
1
40
1
40
1
41
1
10
64.0356912667505
20
-32.3681142101813
30
0
41
1
10
64.0314932792738
20
-32.4554751567926
30
0
41
1
10
64.0314932722284
20
-32.5445248394249
30
0
41
1
10
64.035691245647
20
-32.6318857898185
30
0
0
SPLINE
5
1FD
100
AcDbEntity
8
1
62
256
6
ByLayer
370
13
48
1
60
0
100
AcDbSpline
70
4
71
3
72
8
73
4
40
0
40
0
40
0
40
0
40
1
40
1
40
1
40
1
41
1
10
69.9206965706901
20
-33.7626061472809
30
0
41
1
10
69.9112950489699
20
-33.772003543822
30
0
41
1
10
69.901780692966
20
-33.7812533712296
30
0
41
1
10
69.8921442338085
20
-33.7903017559064
30
0
0
SPLINE
5
1FE
100
AcDbEntity
8
1
62
256
6
ByLayer
370
13
48
1
60
0
100
AcDbSpline
70
4
71
3
72
12
73
8
40
0
40
0
40
0
40
0
40
0.398362077603418
40
0.398362077603418
40
0.817187858883142
40
0.817187858883142
40
1
40
1
40
1
40
1
41
1
10
68.5695
20
-31.4188340226224
30
0
41
1
10
68.6862018964713
20
-31.4190580199588
30
0
41
1
10
68.8027495698944
20
-31.4220320478143
30
0
41
1
10
69.037745272551
20
-31.4238302977539
30
0
41
1
10
69.1566627089886
20
-31.4241607546794
30
0
41
1
10
69.3224222584759
20
-31.4235451366866
30
0
41
1
10
69.3722793677962
20
-31.4232038087289
30
0
41
1
10
69.4213727254144
20
-31.4227457685312
30
0
0
SPLINE
5
1FF
100
AcDbEntity
8
1
62
256
6
ByLayer
370
13
48
1
60
0
100
AcDbSpline
70
4
71
2
72
6
73
3
40
0
40
0
40
0
40
1
40
1
40
1
41
1
10
63.5128526580647
20
-32.0994230366011
30
0
41
1
10
63.608312799428
20
-32.0994230366011
30
0
41
1
10
63.7037729407914
20
-32.0994230366011
30
0
0
SPLINE
5
200
100
AcDbEntity
8
1
62
256
6
ByLayer
370
13
48
1
60
0
100
AcDbSpline
70
4
71
2
72
6
73
3
40
0
40
0
40
0
40
1
40
1
40
1
41
1
10
63.4140087529927
20
-31.9819516762819
30
0
41
0.916194302198623
10
63.4401472908696
20
-32.0645387164002
30
0
41
1
10
63.5128526580647
20
-32.0994230366011
30
0
0
SPLINE
5
201
100
AcDbEntity
8
1
62
256
6
ByLayer
370
13
48
1
60
0
100
AcDbSpline
70
4
71
2
72
6
73
3
40
0
40
0
40
0
40
1
40
1
40
1
41
1
10
63.4140087529927
20
-33.0180483237179
30
0
41
0.916194302198623
10
63.4401472908696
20
-32.9354612835996
30
0
41
1
10
63.5128526580647
20
-32.9005769633987
30
0
0
SPLINE
5
202
100
AcDbEntity
8
1
62
256
6
ByLayer
370
13
48
1
60
0
100
AcDbSpline
70
4
71
2
72
6
73
3
40
0
40
0
40
0
40
1
40
1
40
1
41
1
10
63.5128526580647
20
-32.9005769633987
30
0
41
1
10
63.6083127679213
20
-32.9005769633987
30
0
41
1
10
63.703772877778
20
-32.9005769633987
30
0
0
SPLINE
5
203
100
AcDbEntity
8
1
62
256
6
ByLayer
370
13
48
1
60
0
100
AcDbSpline
70
4
71
2
72
6
73
3
40
0
40
0
40
0
40
1
40
1
40
1
41
1
10
63.5128526580647
20
-32.0994230366011
30
0
41
0.999533107184471
10
63.5890718752233
20
-32.1359933157895
30
0
41
1
10
63.6671732168403
20
-32.1673585583831
30
0
0
SPLINE
5
204
100
AcDbEntity
8
1
62
256
6
ByLayer
370
13
48
1
60
0
100
AcDbSpline
70
4
71
2
72
6
73
3
40
0
40
0
40
0
40
1
40
1
40
1
41
1
10
63.5128526580647
20
-32.9005769633987
30
0
41
0.999533107184471
10
63.5890718752233
20
-32.8640066842103
30
0
41
1
10
63.6671732168403
20
-32.8326414416167
30
0
0
SPLINE
5
205
100
AcDbEntity
8
1
62
256
6
ByLayer
370
13
48
1
60
0
100
AcDbSpline
70
4
71
2
72
6
73
3
40
0
40
0
40
0
40
1
40
1
40
1
41
1
10
63.6756897242366
20
-32.1707787598162
30
0
41
0.819152044288974
10
63.8009195004782
20
-32.2210706271573
30
0
41
1
10
63.8009195004782
20
-32.3681142101813
30
0
0
SPLINE
5
206
100
AcDbEntity
8
1
62
256
6
ByLayer
370
13
48
1
60
0
100
AcDbSpline
70
4
71
2
72
6
73
3
40
0
40
0
40
0
40
1
40
1
40
1
41
1
10
63.6756897242366
20
-32.1707787598162
30
0
41
1
10
63.7842649323743
20
-32.1707787598162
30
0
41
1
10
63.892840140512
20
-32.1707787598162
30
0
0
SPLINE
5
207
100
AcDbEntity
8
1
62
256
6
ByLayer
370
13
48
1
60
0
100
AcDbSpline
70
4
71
2
72
6
73
3
40
0
40
0
40
0
40
1
40
1
40
1
41
1
10
63.6756897242366
20
-32.8292212401835
30
0
41
1
10
63.7842648951658
20
-32.8292212401835
30
0
41
1
10
63.8928400660951
20
-32.8292212401835
30
0
0
SPLINE
5
208
100
AcDbEntity
8
1
62
256
6
ByLayer
370
13
48
1
60
0
100
AcDbSpline
70
4
71
2
72
6
73
3
40
0
40
0
40
0
40
1
40
1
40
1
41
1
10
63.6756897242366
20
-32.8292212401835
30
0
41
0.819152044288974
10
63.8009195004782
20
-32.7789293728425
30
0
41
1
10
63.8009195004782
20
-32.6318857898185
30
0
0
SPLINE
5
209
100
AcDbEntity
8
1
62
256
6
ByLayer
370
13
48
1
60
0
100
AcDbSpline
70
4
71
2
72
6
73
3
40
0
40
0
40
0
40
1
40
1
40
1
41
1
10
63.8009195004782
20
-32.6318857898185
30
0
41
1
10
63.8009195004782
20
-32.5659428949092
30
0
41
1
10
63.8009195004782
20
-32.4999999999999
30
0
0
SPLINE
5
20A
100
AcDbEntity
8
1
62
256
6
ByLayer
370
13
48
1
60
0
100
AcDbSpline
70
4
71
2
72
6
73
3
40
0
40
0
40
0
40
1
40
1
40
1
41
1
10
63.8009195004782
20
-32.3681142101813
30
0
41
1
10
63.8009195004782
20
-32.4340571050906
30
0
41
1
10
63.8009195004782
20
-32.4999999999999
30
0
0
SPLINE
5
20B
100
AcDbEntity
8
1
62
256
6
ByLayer
370
13
48
1
60
0
100
AcDbSpline
70
4
71
2
72
6
73
3
40
0
40
0
40
0
40
1
40
1
40
1
41
0.976988940618391
10
63.3379277529884
20
-31.9819516762819
30
0
41
0.985872486408308
10
63.3808878003268
20
-31.9819516762819
30
0
41
1
10
63.4140087529927
20
-31.9819516762819
30
0
0
SPLINE
5
20C
100
AcDbEntity
8
1
62
256
6
ByLayer
370
13
48
1
60
0
100
AcDbSpline
70
4
71
2
72
6
73
3
40
0
40
0
40
0
40
1
40
1
40
1
41
0.977424468553236
10
63.3400317529927
20
-33.0180483237179
30
0
41
0.986216326739125
10
63.3817051760116
20
-33.0180483237179
30
0
41
1
10
63.4140087529927
20
-33.0180483237179
30
0
0
SPLINE
5
20D
100
AcDbEntity
8
1
62
256
6
ByLayer
370
13
48
1
60
0
100
AcDbSpline
70
4
71
2
72
6
73
3
40
0
40
0
40
0
40
1
40
1
40
1
41
1
10
63.6671732168403
20
-32.1673585583831
30
0
41
1
10
63.6714314705385
20
-32.1690686590997
30
0
41
1
10
63.6756897242366
20
-32.1707787598162
30
0
0
SPLINE
5
20E
100
AcDbEntity
8
1
62
256
6
ByLayer
370
13
48
1
60
0
100
AcDbSpline
70
4
71
2
72
6
73
3
40
0
40
0
40
0
40
1
40
1
40
1
41
1
10
63.6671732168403
20
-32.8326414416167
30
0
41
1
10
63.6714314705385
20
-32.8309313409001
30
0
41
1
10
63.6756897242366
20
-32.8292212401835
30
0
0
SPLINE
5
20F
100
AcDbEntity
8
1
62
256
6
ByLayer
370
13
48
1
60
0
100
AcDbSpline
70
4
71
3
72
10
73
6
40
0
40
0
40
0
40
0
40
0.509182709127215
40
0.509182709127215
40
1
40
1
40
1
40
1
41
1
10
67.9452047820325
20
-31.5262491084918
30
0
41
1
10
68.0291203560375
20
-31.5041481175078
30
0
41
1
10
68.1137414373503
20
-31.4848016976146
30
0
41
1
10
68.2795482262597
20
-31.4460831457828
30
0
41
1
10
68.361943582892
20
-31.4294566784912
30
0
41
1
10
68.4452047820325
20
-31.4232755936799
30
0
0
SPLINE
5
210
100
AcDbEntity
8
1
62
256
6
ByLayer
370
13
48
1
60
0
100
AcDbSpline
70
4
71
3
72
10
73
6
40
0
40
0
40
0
40
0
40
0.509182709127215
40
0.509182709127215
40
1
40
1
40
1
40
1
41
1
10
67.9452047820325
20
-33.473750891508
30
0
41
1
10
68.0291203560375
20
-33.4958518824919
30
0
41
1
10
68.1137414373503
20
-33.5151983023852
30
0
41
1
10
68.2795482262597
20
-33.553916854217
30
0
41
1
10
68.361943582892
20
-33.5705433215086
30
0
41
1
10
68.4452047820325
20
-33.5767244063199
30
0
0
SPLINE
5
211
100
AcDbEntity
8
1
62
256
6
ByLayer
370
13
48
1
60
0
100
AcDbSpline
70
4
71
3
72
20
73
16
40
0
40
0
40
0
40
0
40
0.0004820975609761
40
0.0004820975609761
40
0.133108009856496
40
0.133108009856496
40
0.428100199580249
40
0.428100199580249
40
0.722972669357347
40
0.722972669357347
40
0.911734386886859
40
0.911734386886859
40
0.999517902439265
40
0.999517902439265
40
1
40
1
40
1
40
1
41
1
10
68.4452047820325
20
-33.5767244063199
30
0
41
1
10
68.445224743864
20
-33.5767256413441
30
0
41
1
10
68.4452447056884
20
-33.5767268764828
30
0
41
1
10
68.4507562054647
20
-33.5770678373042
30
0
41
1
10
68.4562482889807
20
-33.577399388124
30
0
41
1
10
68.4739568221937
20
-33.5784381875121
30
0
41
1
10
68.4861760798084
20
-33.5791058677433
30
0
41
1
10
68.5106158530262
20
-33.5801809322908
30
0
41
1
10
68.5228380850944
20
-33.5805866188928
30
0
41
1
10
68.5428824360939
20
-33.5810055516901
30
0
41
1
10
68.5507061717841
20
-33.5811068812933
30
0
41
1
10
68.5621657649981
20
-33.5811669172901
30
0
41
1
10
68.5658031655838
20
-33.5811729319363
30
0
41
1
10
68.5694600537392
20
-33.5811660536757
30
0
41
1
10
68.5694800268757
20
-33.5811660153327
30
0
41
1
10
68.5695
20
-33.5811659773773
30
0
0
SPLINE
5
212
100
AcDbEntity
8
1
62
256
6
ByLayer
370
13
48
1
60
0
100
AcDbSpline
70
4
71
3
72
20
73
16
40
0
40
0
40
0
40
0
40
0.0004820975609761
40
0.0004820975609761
40
0.133108009856496
40
0.133108009856496
40
0.428100199580249
40
0.428100199580249
40
0.722972669357347
40
0.722972669357347
40
0.911734386886859
40
0.911734386886859
40
0.999517902439265
40
0.999517902439265
40
1
40
1
40
1
40
1
41
1
10
68.4452047820325
20
-31.4232755936799
30
0
41
1
10
68.4452247438524
20
-31.4232743584679
30
0
41
1
10
68.4452447056884
20
-31.4232731235169
30
0
41
1
10
68.4507562054647
20
-31.4229321626955
30
0
41
1
10
68.4562482889807
20
-31.4226006118758
30
0
41
1
10
68.4739568221937
20
-31.4215618124876
30
0
41
1
10
68.4861760798084
20
-31.4208941322565
30
0
41
1
10
68.5106158530262
20
-31.419819067709
30
0
41
1
10
68.5228380850944
20
-31.4194133811069
30
0
41
1
10
68.5428824360939
20
-31.4189944483096
30
0
41
1
10
68.5507061717841
20
-31.4188931187065
30
0
41
1
10
68.5621657649981
20
-31.4188330827097
30
0
41
1
10
68.5658031655838
20
-31.4188270680635
30
0
41
1
10
68.5694600537392
20
-31.418833946324
30
0
41
1
10
68.5694800268794
20
-31.4188339843332
30
0
41
1
10
68.5695
20
-31.4188340226224
30
0
0
SPLINE
5
213
100
AcDbEntity
8
1
62
256
6
ByLayer
370
13
48
1
60
0
100
AcDbSpline
70
4
71
3
72
8
73
4
40
0
40
0
40
0
40
0
40
1
40
1
40
1
40
1
41
1
10
68.4452047820325
20
-32.4999999999999
30
0
41
1
10
68.4866365213551
20
-32.4999999999999
30
0
41
1
10
68.5280682606775
20
-32.4999999999999
30
0
41
1
10
68.5695
20
-32.4999999999999
30
0
0
SPLINE
5
214
100
AcDbEntity
8
1
62
256
6
ByLayer
370
13
48
1
60
0
100
AcDbSpline
70
4
71
2
72
6
73
3
40
0
40
0
40
0
40
1
40
1
40
1
41
0.974057334522787
10
63.412207658061
20
-32.0994230366011
30
0
41
0.983415275112494
10
63.4699659992957
20
-32.0994230366011
30
0
41
1
10
63.5128526580647
20
-32.0994230366011
30
0
0
SPLINE
5
215
100
AcDbEntity
8
1
62
256
6
ByLayer
370
13
48
1
60
0
100
AcDbSpline
70
4
71
2
72
6
73
3
40
0
40
0
40
0
40
1
40
1
40
1
41
0.974231088938376
10
63.6749115004858
20
-32.3681142101813
30
0
41
0.983568696287712
10
63.7471545861212
20
-32.3681142101813
30
0
41
1
10
63.8009195004782
20
-32.3681142101813
30
0
0
SPLINE
5
216
100
AcDbEntity
8
1
62
256
6
ByLayer
370
13
48
1
60
0
100
AcDbSpline
70
4
71
2
72
6
73
3
40
0
40
0
40
0
40
1
40
1
40
1
41
0.973878093313457
10
63.550928216837
20
-32.8326414416167
30
0
41
0.983255852161292
10
63.6177065696149
20
-32.8326414416167
30
0
41
1
10
63.6671732168403
20
-32.8326414416167
30
0
0
SPLINE
5
217
100
AcDbEntity
8
1
62
256
6
ByLayer
370
13
48
1
60
0
100
AcDbSpline
70
4
71
2
72
6
73
3
40
0
40
0
40
0
40
1
40
1
40
1
41
0.974057334522787
10
63.412207658061
20
-32.9005769633987
30
0
41
0.983415275112494
10
63.4699659992957
20
-32.9005769633987
30
0
41
1
10
63.5128526580647
20
-32.9005769633987
30
0
0
SPLINE
5
218
100
AcDbEntity
8
1
62
256
6
ByLayer
370
13
48
1
60
0
100
AcDbSpline
70
4
71
2
72
6
73
3
40
0
40
0
40
0
40
1
40
1
40
1
41
0.97390075895657
10
63.5588097242437
20
-32.1707787598162
30
0
41
0.983276077511617
10
63.6259442699043
20
-32.1707787598162
30
0
41
1
10
63.6756897242366
20
-32.1707787598162
30
0
0
SPLINE
5
219
100
AcDbEntity
8
1
62
256
6
ByLayer
370
13
48
1
60
0
100
AcDbSpline
70
4
71
2
72
6
73
3
40
0
40
0
40
0
40
1
40
1
40
1
41
0.973878093313457
10
63.550928216837
20
-32.167358558383
30
0
41
0.983255852161292
10
63.6177065696149
20
-32.167358558383
30
0
41
1
10
63.6671732168403
20
-32.1673585583831
30
0
0
SPLINE
5
21A
100
AcDbEntity
8
1
62
256
6
ByLayer
370
18
48
1
60
0
100
AcDbSpline
70
4
71
3
72
32
73
28
40
0
40
0
40
0
40
0
40
0.0159637529143706
40
0.179969794095309
40
0.261972814685778
40
0.302974324981013
40
0.32347508012863
40
0.333725457702438
40
0.338850646489343
40
0.343975835276247
40
0.354226212850056
40
0.364476590423864
40
0.384977345571482
40
0.405478100719099
40
0.415728478292908
40
0.41829107268636
40
0.420853667079812
40
0.423416261473264
40
0.425978855866716
40
0.436229233440525
40
0.446479611014333
40
0.466980366161951
40
0.507981876457185
40
0.589984897047654
40
0.671987917638124
40
0.835993958819062
40
1
40
1
40
1
40
1
41
1
10
63.2986246430131
20
-30.2999999999999
30
0
41
1
10
63.2927891088829
20
-30.2999999999999
30
0
41
1
10
63.227001343463
20
-30.2999999999999
30
0
41
1
10
63.1312377274569
20
-30.2999999999999
30
0
41
1
10
63.0263192243348
20
-30.2999999999999
30
0
41
1
10
62.9738635552327
20
-30.2999999999999
30
0
41
1
10
62.9476303454673
20
-30.2999999999999
30
0
41
1
10
62.9345221056094
20
-30.2999999999999
30
0
41
1
10
62.9270180784932
20
-30.2999999999999
30
0
41
1
10
62.9192359936359
20
-30.2999999999999
30
0
41
1
10
62.9087130167328
20
-30.2999999999999
30
0
41
1
10
62.8904195472459
20
-30.2999999999999
30
0
41
1
10
62.8648602226396
20
-30.2999999999999
30
0
41
1
10
62.8359461022667
20
-30.2999999999999
30
0
41
1
10
62.8155951127809
20
-30.2999999999999
30
0
41
1
10
62.8059802639588
20
-30.2999999999999
30
0
41
1
10
62.8011232872892
20
-30.2999999999999
30
0
41
1
10
62.7959290759277
20
-30.2999999999999
30
0
41
1
10
62.7849152700956
20
-30.2999999999999
30
0
41
1
10
62.7675575269134
20
-30.2999999999999
30
0
41
1
10
62.7360062518543
20
-30.2999999999999
30
0
41
1
10
62.6797799443196
20
-30.2999999999999
30
0
41
1
10
62.5657936997468
20
-30.2999999999999
30
0
41
1
10
62.4012830771698
20
-30.2999999999999
30
0
41
1
10
62.1367528640094
20
-30.2999999999999
30
0
41
1
10
61.8046523608996
20
-30.2999999999999
30
0
41
1
10
61.5382715128608
20
-30.2999999999999
30
0
41
1
10
61.4049672057156
20
-30.2999999999999
30
0
0
SPLINE
5
21B
100
AcDbEntity
8
1
62
256
6
ByLayer
370
18
48
1
60
0
100
AcDbSpline
70
4
71
3
72
10
73
6
40
0
40
0
40
0
40
0
40
0.496545174713846
40
0.496545174713846
40
1
40
1
40
1
40
1
41
1
10
66.5751468255075
20
-34.8518202897932
30
0
41
1
10
66.5533466896018
20
-34.8519547187432
30
0
41
1
10
66.5282952678048
20
-34.8515224700658
30
0
41
1
10
66.4755077617421
20
-34.8495979948641
30
0
41
1
10
66.4470112578507
20
-34.8480652317678
30
0
41
1
10
66.4189357069485
20
-34.8461019979996
30
0
0
SPLINE
5
21C
100
AcDbEntity
8
1
62
256
6
ByLayer
370
18
48
1
60
0
100
AcDbSpline
70
4
71
2
72
7
73
4
40
0
40
0
40
0
40
0.5
40
1
40
1
40
1
41
1
10
63.2986247883348
20
-30.2999999999999
30
0
41
1
10
63.3201857441014
20
-30.2999999999999
30
0
41
1
10
63.3928014367905
20
-30.2999999999999
30
0
41
1
10
63.4396834701052
20
-30.2999999999999
30
0
0
SPLINE
5
21D
100
AcDbEntity
8
1
62
256
6
ByLayer
370
18
48
1
60
0
100
AcDbSpline
70
4
71
3
72
13
73
9
40
0
40
0
40
0
40
0
40
0.500781235726681
40
0.500781235726681
40
0.500781235726681
40
0.767869301884458
40
0.767869301884458
40
1
40
1
40
1
40
1
41
1
10
68.3080209311119
20
-30.0845529865831
30
0
41
1
10
67.9992740849282
20
-30.1062893818144
30
0
41
1
10
67.6856286536801
20
-30.1232635068586
30
0
41
1
10
67.3930508724
20
-30.134030768815
30
0
41
1
10
67.2354121141052
20
-30.1398320904247
30
0
41
1
10
67.081988013643
20
-30.1439328099504
30
0
41
1
10
66.8101575856409
20
-30.148228791694
30
0
41
1
10
66.6889476378265
20
-30.1488814546261
30
0
41
1
10
66.5751468255075
20
-30.1481797102066
30
0
0
SPLINE
5
21E
100
AcDbEntity
8
1
62
256
6
ByLayer
370
18
48
1
60
0
100
AcDbSpline
70
4
71
3
72
16
73
12
40
0
40
0
40
0
40
0
40
0.201783384739321
40
0.201783384739321
40
0.403377864546656
40
0.403377864546656
40
0.607832959331835
40
0.607832959331835
40
0.816478248427783
40
0.816478248427783
40
1
40
1
40
1
40
1
41
1
10
69.5889153303076
20
-35.0134226531935
30
0
41
1
10
69.6326534239637
20
-35.015980010022
30
0
41
1
10
69.6773706525875
20
-35.0108864728837
30
0
41
1
10
69.7612881167608
20
-34.986485288533
30
0
41
1
10
69.8016398650051
20
-34.9668699683993
30
0
41
1
10
69.8732925878941
20
-34.9158682720378
30
0
41
1
10
69.905434479868
20
-34.8836377162791
30
0
41
1
10
69.957421523965
20
-34.8106512765017
30
0
41
1
10
69.9777200998911
20
-34.7687380628391
30
0
41
1
10
70.0017074509187
20
-34.6867397199392
30
0
41
1
10
70.0073562176765
20
-34.6461629626418
30
0
41
1
10
70.007016558107
20
-34.6060065466128
30
0
0
SPLINE
5
21F
100
AcDbEntity
8
1
62
256
6
ByLayer
370
18
48
1
60
0
100
AcDbSpline
70
4
71
3
72
8
73
4
40
0
40
0
40
0
40
0
40
1
40
1
40
1
40
1
41
1
10
68.8080209311119
20
-34.9506480130383
30
0
41
1
10
68.9243549173321
20
-34.9588381582481
30
0
41
1
10
69.0410108992438
20
-34.9680450467384
30
0
41
1
10
69.1553172864458
20
-34.9780511391227
30
0
0
SPLINE
5
220
100
AcDbEntity
8
1
62
256
6
ByLayer
370
18
48
1
60
0
100
AcDbSpline
70
4
71
3
72
16
73
12
40
0
40
0
40
0
40
0
40
0.211361443762947
40
0.211361443762947
40
0.422716290819755
40
0.422716290819755
40
0.633949151093206
40
0.633949151093206
40
0.842299705562237
40
0.842299705562237
40
1
40
1
40
1
40
1
41
1
10
70.007016558107
20
-30.3939934533869
30
0
41
1
10
70.0074064524711
20
-30.3478980045804
30
0
41
1
10
69.9998556439929
20
-30.3011705705232
30
0
41
1
10
69.9702190740798
20
-30.2141828170586
30
0
41
1
10
69.9477208985697
20
-30.1727120654671
30
0
41
1
10
69.891017377631
20
-30.1007877171565
30
0
41
1
10
69.8560136095223
20
-30.0693208264512
30
0
41
1
10
69.7789786511116
20
-30.0212551311979
30
0
41
1
10
69.735955317775
20
-30.0037930955306
30
0
41
1
10
69.6582018857319
20
-29.987237268878
30
0
41
1
10
69.6232945560288
20
-29.9845672009515
30
0
41
1
10
69.5889153303076
20
-29.9865773468063
30
0
0
SPLINE
5
221
100
AcDbEntity
8
1
62
256
6
ByLayer
370
18
48
1
60
0
100
AcDbSpline
70
4
71
3
72
8
73
4
40
0
40
0
40
0
40
0
40
1
40
1
40
1
40
1
41
1
10
69.1553172864458
20
-30.021948860877
30
0
41
1
10
69.0410108992438
20
-30.0319549532614
30
0
41
1
10
68.9243549173321
20
-30.0411618417516
30
0
41
1
10
68.8080209311119
20
-30.0493519869615
30
0
0
SPLINE
5
222
100
AcDbEntity
8
1
62
256
6
ByLayer
370
18
48
1
60
0
100
AcDbSpline
70
4
71
3
72
13
73
9
40
0
40
0
40
0
40
0
40
0.200250351048004
40
0.200250351048004
40
0.699726211832344
40
0.699726211832344
40
0.699726211832344
40
1
40
1
40
1
40
1
41
1
10
66.5751468255075
20
-34.8518202897932
30
0
41
1
10
66.6734170081302
20
-34.8512143138704
30
0
41
1
10
66.7771679125051
20
-34.8516168751549
30
0
41
1
10
67.1509426949544
20
-34.8564958370737
30
0
41
1
10
67.4473892371082
20
-34.8662987843779
30
0
41
1
10
67.7497500928555
20
-34.8816070075917
30
0
41
1
10
67.9331836738877
20
-34.8908940636042
30
0
41
1
10
68.1211915582716
20
-34.9022938520514
30
0
41
1
10
68.3080209311119
20
-34.9154470134167
30
0
0
SPLINE
5
223
100
AcDbEntity
8
1
62
256
6
ByLayer
370
18
48
1
60
0
100
AcDbSpline
70
4
71
3
72
12
73
8
40
0
40
0
40
0
40
0
40
0.0020745602245391
40
0.0965030327464488
40
0.474216922834087
40
0.851930812921726
40
1
40
1
40
1
40
1
41
1
10
56.6382260241767
20
-30.2999999999999
30
0
41
1
10
56.6395256467883
20
-30.2999999999999
30
0
41
1
10
56.6999814307932
20
-30.2999999999999
30
0
41
1
10
56.997327365087
20
-30.2999999999999
30
0
41
1
10
57.5299646675477
20
-30.2999999999999
30
0
41
1
10
58.0963240516963
20
-30.2999999999999
30
0
41
1
10
58.4259051272088
20
-30.2999999999999
30
0
41
1
10
58.518720237989
20
-30.2999999999999
30
0
0
SPLINE
5
224
100
AcDbEntity
8
1
62
256
6
ByLayer
370
18
48
1
60
0
100
AcDbSpline
70
4
71
3
72
10
73
6
40
0
40
0
40
0
40
0
40
0.496604554236898
40
0.496604554236898
40
1
40
1
40
1
40
1
41
1
10
66.4189357069464
20
-30.1538980020243
30
0
41
1
10
66.4466398380798
20
-30.1519607404565
30
0
41
1
10
66.4747488636876
20
-30.1504426549576
30
0
41
1
10
66.5276169252262
20
-30.14848963148
30
0
41
1
10
66.5530543877322
20
-30.1480434787984
30
0
41
1
10
66.5751468255075
20
-30.1481797102066
30
0
0
SPLINE
5
225
100
AcDbEntity
8
1
62
256
6
ByLayer
370
18
48
1
60
0
100
AcDbSpline
70
4
71
3
72
8
73
4
40
0
40
0
40
0
40
0
40
1
40
1
40
1
40
1
41
1
10
63.2986246429738
20
-34.6999999999998
30
0
41
1
10
63.3262795836385
20
-34.6999999999998
30
0
41
1
10
63.3781764584514
20
-34.6999999999998
30
0
41
1
10
63.4396676644657
20
-34.6999999999998
30
0
0
SPLINE
5
226
100
AcDbEntity
8
1
62
256
6
ByLayer
370
18
48
1
60
0
100
AcDbSpline
70
4
71
3
72
12
73
8
40
0
40
0
40
0
40
0
40
0.148069187078275
40
0.525783077165912
40
0.903496967253549
40
0.997925439775459
40
1
40
1
40
1
40
1
41
1
10
58.518720237989
20
-34.6999999999999
30
0
41
1
10
58.4259051272087
20
-34.6999999999999
30
0
41
1
10
58.0963240516963
20
-34.6999999999999
30
0
41
1
10
57.5299646675477
20
-34.6999999999999
30
0
41
1
10
56.997327365087
20
-34.6999999999999
30
0
41
1
10
56.6999814307932
20
-34.6999999999999
30
0
41
1
10
56.6395256467883
20
-34.6999999999999
30
0
41
1
10
56.6382260241767
20
-34.6999999999999
30
0
0
LINE
5
70
100
AcDbEntity
8
1
62
256
6
ByLayer
370
13
48
1
60
0
100
AcDbLine
10
0.3
20
25
30
0
11
0
21
24.7
31
0
39
0
210
0
220
0
230
1
0
LINE
5
72
100
AcDbEntity
8
1
62
256
6
ByLayer
370
13
48
1
60
0
100
AcDbLine
10
0
20
-24.7
30
0
11
0.3
21
-25
31
0
39
0
210
0
220
0
230
1
0
LINE
5
73
100
AcDbEntity
8
1
62
256
6
ByLayer
370
13
48
1
60
0
100
AcDbLine
10
21.438319
20
-25.889417
30
0
11
23.792408
21
-34.675
31
0
39
0
210
0
220
0
230
1
0
LINE
5
74
100
AcDbEntity
8
1
62
256
6
ByLayer
370
13
48
1
60
0
100
AcDbLine
10
0.3
20
-25
30
0
11
20.279208
21
-25
31
0
39
0
210
0
220
0
230
1
0
LINE
5
75
100
AcDbEntity
8
1
62
256
6
ByLayer
370
13
48
1
60
0
100
AcDbLine
10
20.036368
20
25
30
0
11
0.3
21
25
31
0
39
0
210
0
220
0
230
1
0
LINE
5
76
100
AcDbEntity
8
80
62
256
6
ByLayer
370
18
48
1
60
0
100
AcDbLine
10
0
20
0
30
0
11
-5
21
0
31
0
39
0
210
0
220
0
230
1
0
LINE
5
77
100
AcDbEntity
8
81
62
256
6
ByLayer
370
18
48
1
60
0
100
AcDbLine
10
70
20
-35
30
0
11
75
21
-35
31
0
39
0
210
0
220
0
230
1
0
LINE
5
78
100
AcDbEntity
8
1
62
256
6
ByLayer
370
13
48
1
60
0
100
AcDbLine
10
0.3
20
25
30
0
11
0.3
21
-25
31
0
39
0
210
0
220
0
230
1
0
LINE
5
79
100
AcDbEntity
8
1
62
256
6
ByLayer
370
13
48
1
60
0
100
AcDbLine
10
20.08316
20
19.638117
30
0
11
20.036368
21
25
31
0
39
0
210
0
220
0
230
1
0
LINE
5
7A
100
AcDbEntity
8
1
62
256
6
ByLayer
370
13
48
1
60
0
100
AcDbLine
10
0
20
24.7
30
0
11
0
21
-24.7
31
0
39
0
210
0
220
0
230
1
0
LINE
5
7B
100
AcDbEntity
8
SK1
62
256
6
ByLayer
370
13
48
1
60
0
100
AcDbLine
10
-0.194977
20
-17.36529
30
0
11
-0.194977
21
-17.369987
31
0
39
0
210
0
220
0
230
1
0
LINE
5
7D
100
AcDbEntity
8
SK1
62
256
6
ByLayer
370
13
48
1
60
0
100
AcDbLine
10
-1.315435
20
-3.910269
30
0
11
-1.315435
21
3.910272
31
0
39
0
210
0
220
0
230
1
0
LINE
5
7E
100
AcDbEntity
8
1
62
256
6
ByLayer
370
13
48
1
60
0
100
AcDbLine
10
20.279208
20
-25
30
0
11
20.279208
21
-23.228271
31
0
39
0
210
0
220
0
230
1
0
LINE
5
7F
100
AcDbEntity
8
1
62
256
6
ByLayer
370
13
48
1
60
0
100
AcDbLine
10
20.128305
20
14.465094
30
0
11
20.128305
21
-22.78062
31
0
39
0
210
0
220
0
230
1
0
LINE
5
80
100
AcDbEntity
8
1
62
256
6
ByLayer
370
13
48
1
60
0
100
AcDbLine
10
8.538675
20
-23.83913
30
0
11
8.538675
21
-7.529667
31
0
39
0
210
0
220
0
230
1
0
LINE
5
81
100
AcDbEntity
8
1
62
256
6
ByLayer
370
13
48
1
60
0
100
AcDbLine
10
8.105662
20
-23.666502
30
0
11
8.105662
21
-8.055848
31
0
39
0
210
0
220
0
230
1
0
LINE
5
82
100
AcDbEntity
8
1
62
256
6
ByLayer
370
13
48
1
60
0
100
AcDbLine
10
11.894338
20
8.055848
30
0
11
11.894338
21
23.666502
31
0
39
0
210
0
220
0
230
1
0
LINE
5
83
100
AcDbEntity
8
1
62
256
6
ByLayer
370
13
48
1
60
0
100
AcDbLine
10
11.461325
20
7.529667
30
0
11
11.461325
21
23.83913
31
0
39
0
210
0
220
0
230
1
0
LINE
5
84
100
AcDbEntity
8
1
62
256
6
ByLayer
370
13
48
1
60
0
100
AcDbLine
10
8.538675
20
7.529667
30
0
11
8.538675
21
23.83913
31
0
39
0
210
0
220
0
230
1
0
LINE
5
85
100
AcDbEntity
8
SK1
62
256
6
ByLayer
370
13
48
1
60
0
100
AcDbLine
10
-0.194977
20
17.369987
30
0
11
-0.194977
21
17.365289
31
0
39
0
210
0
220
0
230
1
0
LINE
5
86
100
AcDbEntity
8
SK1
62
256
6
ByLayer
370
13
48
1
60
0
100
AcDbLine
10
-1.79504
20
17.330272
30
0
11
-1.79504
21
17.325755
31
0
39
0
210
0
220
0
230
1
0
LINE
5
87
100
AcDbEntity
8
SK1
62
256
6
ByLayer
370
13
48
1
60
0
100
AcDbLine
10
-1.79504
20
-17.325755
30
0
11
-1.79504
21
-17.330272
31
0
39
0
210
0
220
0
230
1
0
LINE
5
88
100
AcDbEntity
8
1
62
256
6
ByLayer
370
13
48
1
60
0
100
AcDbLine
10
8.105662
20
8.055848
30
0
11
8.105662
21
23.666502
31
0
39
0
210
0
220
0
230
1
0
LINE
5
89
100
AcDbEntity
8
1
62
256
6
ByLayer
370
13
48
1
60
0
100
AcDbLine
10
11.894338
20
-23.666502
30
0
11
11.894338
21
-8.055848
31
0
39
0
210
0
220
0
230
1
0
LINE
5
8A
100
AcDbEntity
8
1
62
256
6
ByLayer
370
13
48
1
60
0
100
AcDbLine
10
11.461325
20
-23.83913
30
0
11
11.461325
21
-7.529667
31
0
39
0
210
0
220
0
230
1
0
LINE
5
8B
100
AcDbEntity
8
1
62
256
6
ByLayer
370
13
48
1
60
0
100
AcDbLine
10
24.128152
20
-33.836642
30
0
11
24.128152
21
10.5
31
0
39
0
210
0
220
0
230
1
0
LINE
5
8C
100
AcDbEntity
8
1
62
256
6
ByLayer
370
13
48
1
60
0
100
AcDbLine
10
21.438319
20
-24.817615
30
0
11
21.438319
21
-25.889417
31
0
39
0
210
0
220
0
230
1
0
LINE
5
8D
100
AcDbEntity
8
1
62
256
6
ByLayer
370
13
48
1
60
0
100
AcDbLine
10
24.128152
20
-33.836642
30
0
11
23.725188
21
-33.836642
31
0
39
0
210
0
220
0
230
1
0
LINE
5
8E
100
AcDbEntity
8
1
62
256
6
ByLayer
370
13
48
1
60
0
100
AcDbLine
10
44.4
20
-34.675
30
0
11
44.4
21
-30.325
31
0
39
0
210
0
220
0
230
1
0
LINE
5
8F
100
AcDbEntity
8
1
62
256
6
ByLayer
370
13
48
1
60
0
100
AcDbLine
10
37.744918
20
-30.325
30
0
11
38
21
-30.325
31
0
39
0
210
0
220
0
230
1
0
LINE
5
90
100
AcDbEntity
8
1
62
256
6
ByLayer
370
13
48
1
60
0
100
AcDbLine
10
53.389175
20
-30.325
30
0
11
53.389175
21
-34.675
31
0
39
0
210
0
220
0
230
1
0
LINE
5
91
100
AcDbEntity
8
1
62
256
6
ByLayer
370
13
48
1
60
0
100
AcDbLine
10
58.389175
20
-34.675
30
0
11
58.389175
21
-30.325
31
0
39
0
210
0
220
0
230
1
0
LINE
5
92
100
AcDbEntity
8
1
62
256
6
ByLayer
370
13
48
1
60
0
100
AcDbLine
10
44.4
20
-30.325
30
0
11
38
21
-30.325
31
0
39
0
210
0
220
0
230
1
0
LINE
5
93
100
AcDbEntity
8
1
62
256
6
ByLayer
370
13
48
1
60
0
100
AcDbLine
10
36.4
20
0
30
0
11
34.548567
21
10.5
31
0
39
0
210
0
220
0
230
1
0
LINE
5
94
100
AcDbEntity
8
1
62
256
6
ByLayer
370
13
48
1
60
0
100
AcDbLine
10
8.538675
20
-7.529667
30
0
11
11.461325
21
-7.529667
31
0
39
0
210
0
220
0
230
1
0
LINE
5
95
100
AcDbEntity
8
1
62
256
6
ByLayer
370
13
48
1
60
0
100
AcDbLine
10
53.389175
20
-34.675
30
0
11
58.389175
21
-34.675
31
0
39
0
210
0
220
0
230
1
0
LINE
5
96
100
AcDbEntity
8
1
62
256
6
ByLayer
370
13
48
1
60
0
100
AcDbLine
10
58.389175
20
-30.325
30
0
11
62.87957
21
-30.325
31
0
39
0
210
0
220
0
230
1
0
LINE
5
97
100
AcDbEntity
8
1
62
256
6
ByLayer
370
13
48
1
60
0
100
AcDbLine
10
11.461325
20
7.529667
30
0
11
8.538675
21
7.529667
31
0
39
0
210
0
220
0
230
1
0
LINE
5
98
100
AcDbEntity
8
1
62
256
6
ByLayer
370
13
48
1
60
0
100
AcDbLine
10
20.08316
20
19.638117
30
0
11
20.128305
21
14.465094
31
0
39
0
210
0
220
0
230
1
0
LINE
5
99
100
AcDbEntity
8
1
62
256
6
ByLayer
370
13
48
1
60
0
100
AcDbLine
10
53.389175
20
-30.325
30
0
11
58.389175
21
-30.325
31
0
39
0
210
0
220
0
230
1
0
LINE
5
9A
100
AcDbEntity
8
1
62
256
6
ByLayer
370
13
48
1
60
0
100
AcDbLine
10
24.128152
20
10.5
30
0
11
34.548567
21
10.5
31
0
39
0
210
0
220
0
230
1
0
LINE
5
9B
100
AcDbEntity
8
1
62
256
6
ByLayer
370
13
48
1
60
0
100
AcDbLine
10
44.4
20
-30.325
30
0
11
53.389175
21
-30.325
31
0
39
0
210
0
220
0
230
1
0
LINE
5
9C
100
AcDbEntity
8
1
62
256
6
ByLayer
370
13
48
1
60
0
100
AcDbLine
10
44.4
20
-34.675
30
0
11
37.744918
21
-34.675
31
0
39
0
210
0
220
0
230
1
0
LINE
5
9D
100
AcDbEntity
8
1
62
256
6
ByLayer
370
13
48
1
60
0
100
AcDbLine
10
58.389175
20
-34.675
30
0
11
62.87957
21
-34.675
31
0
39
0
210
0
220
0
230
1
0
LINE
5
9E
100
AcDbEntity
8
1
62
256
6
ByLayer
370
13
48
1
60
0
100
AcDbLine
10
37.744918
20
-34.675
30
0
11
23.946082
21
-34.675
31
0
39
0
210
0
220
0
230
1
0
LINE
5
9F
100
AcDbEntity
8
1
62
256
6
ByLayer
370
13
48
1
60
0
100
AcDbLine
10
36.4
20
-28.725
30
0
11
36.4
21
0
31
0
39
0
210
0
220
0
230
1
0
LINE
5
A0
100
AcDbEntity
8
1
62
256
6
ByLayer
370
13
48
1
60
0
100
AcDbLine
10
62.87957
20
-30.325
30
0
11
63.254303
21
-31.55936
31
0
39
0
210
0
220
0
230
1
0
LINE
5
A1
100
AcDbEntity
8
1
62
256
6
ByLayer
370
13
48
1
60
0
100
AcDbLine
10
53.389175
20
-34.675
30
0
11
44.4
21
-34.675
31
0
39
0
210
0
220
0
230
1
0
LINE
5
A2
100
AcDbEntity
8
1
62
256
6
ByLayer
370
13
48
1
60
0
100
AcDbLine
10
37.744918
20
-30.325
30
0
11
37.744918
21
-34.675
31
0
39
0
210
0
220
0
230
1
0
LINE
5
A3
100
AcDbEntity
8
1
62
256
6
ByLayer
370
13
48
1
60
0
100
AcDbLine
10
8.538675
20
23.83913
30
0
11
11.461325
21
23.83913
31
0
39
0
210
0
220
0
230
1
0
LINE
5
A4
100
AcDbEntity
8
1
62
256
6
ByLayer
370
13
48
1
60
0
100
AcDbLine
10
11.461325
20
-23.83913
30
0
11
8.538675
21
-23.83913
31
0
39
0
210
0
220
0
230
1
0
LINE
5
A5
100
AcDbEntity
8
1
62
256
6
ByLayer
370
13
48
1
60
0
100
AcDbLine
10
63.254303
20
-33.44064
30
0
11
62.87957
21
-34.675
31
0
39
0
210
0
220
0
230
1
0
LINE
5
A6
100
AcDbEntity
8
1
62
256
6
ByLayer
370
13
48
1
60
0
100
AcDbLine
10
58.609992
20
-34.7
30
0
11
58.609992
21
-34.675
31
0
39
0
210
0
220
0
230
1
0
LINE
5
A7
100
AcDbEntity
8
1
62
256
6
ByLayer
370
13
48
1
60
0
100
AcDbLine
10
58.51872
20
-34.674999
30
0
11
58.51872
21
-34.7
31
0
39
0
210
0
220
0
230
1
0
LINE
5
A8
100
AcDbEntity
8
1
62
256
6
ByLayer
370
13
48
1
60
0
100
AcDbLine
10
58.51872
20
-30.3
30
0
11
58.51872
21
-30.325001
31
0
39
0
210
0
220
0
230
1
0
LINE
5
A9
100
AcDbEntity
8
1
62
256
6
ByLayer
370
13
48
1
60
0
100
AcDbLine
10
56.638226
20
-34.7
30
0
11
56.638226
21
-34.674975
31
0
39
0
210
0
220
0
230
1
0
LINE
5
AA
100
AcDbEntity
8
1
62
256
6
ByLayer
370
13
48
1
60
0
100
AcDbLine
10
56.638226
20
-30.325025
30
0
11
56.638226
21
-30.3
31
0
39
0
210
0
220
0
230
1
0
LINE
5
AB
100
AcDbEntity
8
1
62
256
6
ByLayer
370
13
48
1
60
0
100
AcDbLine
10
58.609992
20
-30.325
30
0
11
58.609992
21
-30.3
31
0
39
0
210
0
220
0
230
1
0
LINE
5
AC
100
AcDbEntity
8
1
62
256
6
ByLayer
370
13
48
1
60
0
100
AcDbLine
10
63.298627
20
-34.554426
30
0
11
63.298627
21
-34.7
31
0
39
0
210
0
220
0
230
1
0
LINE
5
AD
100
AcDbEntity
8
1
62
256
6
ByLayer
370
13
48
1
60
0
100
AcDbLine
10
63.298627
20
-30.3
30
0
11
63.298627
21
-30.445574
31
0
39
0
210
0
220
0
230
1
0
LINE
5
AE
100
AcDbEntity
8
1
62
256
6
ByLayer
370
13
48
1
60
0
100
AcDbLine
10
68.308021
20
-34.233876
30
0
11
68.308021
21
-34.915447
31
0
39
0
210
0
220
0
230
1
0
LINE
5
AF
100
AcDbEntity
8
1
62
256
6
ByLayer
370
13
48
1
60
0
100
AcDbLine
10
68.308021
20
-30.766124
30
0
11
68.308021
21
-30.084553
31
0
39
0
210
0
220
0
230
1
0
LINE
5
B0
100
AcDbEntity
8
1
62
256
6
ByLayer
370
13
48
1
60
0
100
AcDbLine
10
65.082358
20
-34.7
30
0
11
65.082358
21
-33.570087
31
0
39
0
210
0
220
0
230
1
0
LINE
5
B1
100
AcDbEntity
8
1
62
256
6
ByLayer
370
13
48
1
60
0
100
AcDbLine
10
65.082358
20
-31.429913
30
0
11
65.082358
21
-30.3
31
0
39
0
210
0
220
0
230
1
0
LINE
5
B2
100
AcDbEntity
8
1
62
256
6
ByLayer
370
13
48
1
60
0
100
AcDbLine
10
64.744578
20
-33.729148
30
0
11
64.744578
21
-34.7
31
0
39
0
210
0
220
0
230
1
0
LINE
5
B3
100
AcDbEntity
8
1
62
256
6
ByLayer
370
13
48
1
60
0
100
AcDbLine
10
64.181347
20
-34.7
30
0
11
64.181347
21
-33.798614
31
0
39
0
210
0
220
0
230
1
0
LINE
5
B4
100
AcDbEntity
8
1
62
256
6
ByLayer
370
13
48
1
60
0
100
AcDbLine
10
64.744578
20
-30.3
30
0
11
64.744578
21
-31.270853
31
0
39
0
210
0
220
0
230
1
0
LINE
5
B5
100
AcDbEntity
8
1
62
256
6
ByLayer
370
13
48
1
60
0
100
AcDbLine
10
64.181347
20
-30.3
30
0
11
64.181347
21
-31.201386
31
0
39
0
210
0
220
0
230
1
0
LINE
5
B6
100
AcDbEntity
8
1
62
256
6
ByLayer
370
13
48
1
60
0
100
AcDbLine
10
65.63429
20
-31.640237
30
0
11
65.495921
21
-31.486889
31
0
39
0
210
0
220
0
230
1
0
LINE
5
B7
100
AcDbEntity
8
1
62
256
6
ByLayer
370
13
48
1
60
0
100
AcDbLine
10
65.495921
20
-33.513111
30
0
11
65.63429
21
-33.359763
31
0
39
0
210
0
220
0
230
1
0
LINE
5
B8
100
AcDbEntity
8
1
62
256
6
ByLayer
370
13
48
1
60
0
100
AcDbLine
10
67.945205
20
-31.526249
30
0
11
67.868852
21
-31.236345
31
0
39
0
210
0
220
0
230
1
0
LINE
5
B9
100
AcDbEntity
8
1
62
256
6
ByLayer
370
13
48
1
60
0
100
AcDbLine
10
67.945205
20
-33.473751
30
0
11
67.868852
21
-33.763655
31
0
39
0
210
0
220
0
230
1
0
LINE
5
BA
100
AcDbEntity
8
1
62
256
6
ByLayer
370
13
48
1
60
0
100
AcDbLine
10
63.81113
20
-31.207959
30
0
11
63.439699
21
-30.407603
31
0
39
0
210
0
220
0
230
1
0
LINE
5
BB
100
AcDbEntity
8
1
62
256
6
ByLayer
370
13
48
1
60
0
100
AcDbLine
10
63.439699
20
-30.407603
30
0
11
63.439699
21
-30.3
31
0
39
0
210
0
220
0
230
1
0
LINE
5
BC
100
AcDbEntity
8
1
62
256
6
ByLayer
370
13
48
1
60
0
100
AcDbLine
10
65.082358
20
-33.570087
30
0
11
65.052036
21
-33.350105
31
0
39
0
210
0
220
0
230
1
0
LINE
5
BD
100
AcDbEntity
8
1
62
256
6
ByLayer
370
13
48
1
60
0
100
AcDbLine
10
65.082358
20
-31.429913
30
0
11
65.052036
21
-31.649896
31
0
39
0
210
0
220
0
230
1
0
LINE
5
BE
100
AcDbEntity
8
1
62
256
6
ByLayer
370
13
48
1
60
0
100
AcDbLine
10
63.439699
20
-34.7
30
0
11
63.439699
21
-34.592397
31
0
39
0
210
0
220
0
230
1
0
LINE
5
BF
100
AcDbEntity
8
1
62
256
6
ByLayer
370
13
48
1
60
0
100
AcDbLine
10
63.439699
20
-34.592397
30
0
11
63.81113
21
-33.792041
31
0
39
0
210
0
220
0
230
1
0
LINE
5
C0
100
AcDbEntity
8
1
62
256
6
ByLayer
370
13
48
1
60
0
100
AcDbLine
10
65.495921
20
-33.513111
30
0
11
65.465562
21
-33.292646
31
0
39
0
210
0
220
0
230
1
0
LINE
5
C1
100
AcDbEntity
8
1
62
256
6
ByLayer
370
13
48
1
60
0
100
AcDbLine
10
65.495921
20
-31.486889
30
0
11
65.465562
21
-31.707355
31
0
39
0
210
0
220
0
230
1
0
LINE
5
C2
100
AcDbEntity
8
1
62
256
6
ByLayer
370
13
48
1
60
0
100
AcDbLine
10
67.945205
20
-31.526249
30
0
11
67.945205
21
-33.473751
31
0
39
0
210
0
220
0
230
1
0
LINE
5
C3
100
AcDbEntity
8
1
62
256
6
ByLayer
370
13
48
1
60
0
100
AcDbLine
10
63.294206
20
-30.453202
30
0
11
63.682726
21
-31.290382
31
0
39
0
210
0
220
0
230
1
0
LINE
5
C4
100
AcDbEntity
8
1
62
256
6
ByLayer
370
13
48
1
60
0
100
AcDbLine
10
63.682726
20
-33.709618
30
0
11
63.294206
21
-34.546798
31
0
39
0
210
0
220
0
230
1
0
LINE
5
C5
100
AcDbEntity
8
1
62
256
6
ByLayer
370
13
48
1
60
0
100
AcDbLine
10
70.000117
20
-31.209698
30
0
11
69.892144
21
-31.209698
31
0
39
0
210
0
220
0
230
1
0
LINE
5
C6
100
AcDbEntity
8
1
62
256
6
ByLayer
370
13
48
1
60
0
100
AcDbLine
10
69.534036
20
-30.928879
30
0
11
69.534036
21
-29.989786
31
0
39
0
210
0
220
0
230
1
0
LINE
5
C7
100
AcDbEntity
8
1
62
256
6
ByLayer
370
13
48
1
60
0
100
AcDbLine
10
69.534036
20
-34.071121
30
0
11
69.534036
21
-35.010214
31
0
39
0
210
0
220
0
230
1
0
LINE
5
C8
100
AcDbEntity
8
1
62
256
6
ByLayer
370
13
48
1
60
0
100
AcDbLine
10
70.000117
20
-33.790302
30
0
11
69.892144
21
-33.790302
31
0
39
0
210
0
220
0
230
1
0
LINE
5
C9
100
AcDbEntity
8
1
62
256
6
ByLayer
370
13
48
1
60
0
100
AcDbLine
10
69.155317
20
-34.184948
30
0
11
69.155317
21
-34.978051
31
0
39
0
210
0
220
0
230
1
0
LINE
5
CA
100
AcDbEntity
8
1
62
256
6
ByLayer
370
13
48
1
60
0
100
AcDbLine
10
69.466228
20
-35.005268
30
0
11
69.466228
21
-34.1213
31
0
39
0
210
0
220
0
230
1
0
LINE
5
CB
100
AcDbEntity
8
1
62
256
6
ByLayer
370
13
48
1
60
0
100
AcDbLine
10
68.808021
20
-34.234302
30
0
11
68.808021
21
-34.950648
31
0
39
0
210
0
220
0
230
1
0
LINE
5
CC
100
AcDbEntity
8
1
62
256
6
ByLayer
370
13
48
1
60
0
100
AcDbLine
10
68.808021
20
-30.765698
30
0
11
68.808021
21
-30.049352
31
0
39
0
210
0
220
0
230
1
0
LINE
5
CD
100
AcDbEntity
8
1
62
256
6
ByLayer
370
13
48
1
60
0
100
AcDbLine
10
69.466228
20
-29.994732
30
0
11
69.466228
21
-30.8787
31
0
39
0
210
0
220
0
230
1
0
LINE
5
CE
100
AcDbEntity
8
1
62
256
6
ByLayer
370
13
48
1
60
0
100
AcDbLine
10
69.155317
20
-30.815052
30
0
11
69.155317
21
-30.021949
31
0
39
0
210
0
220
0
230
1
0
LINE
5
CF
100
AcDbEntity
8
1
62
256
6
ByLayer
370
13
48
1
60
0
100
AcDbLine
10
69.920697
20
-31.237394
30
0
11
70
21
-31.237394
31
0
39
0
210
0
220
0
230
1
0
LINE
5
D0
100
AcDbEntity
8
1
62
256
6
ByLayer
370
13
48
1
60
0
100
AcDbLine
10
69.944165
20
-33.56558
30
0
11
69.997026
21
-33.56558
31
0
39
0
210
0
220
0
230
1
0
LINE
5
D1
100
AcDbEntity
8
1
62
256
6
ByLayer
370
13
48
1
60
0
100
AcDbLine
10
69.920697
20
-33.762606
30
0
11
70
21
-33.762606
31
0
39
0
210
0
220
0
230
1
0
LINE
5
D2
100
AcDbEntity
8
1
62
256
6
ByLayer
370
13
48
1
60
0
100
AcDbLine
10
69.997026
20
-33.56558
30
0
11
69.997026
21
-31.43442
31
0
39
0
210
0
220
0
230
1
0
LINE
5
D3
100
AcDbEntity
8
1
62
256
6
ByLayer
370
13
48
1
60
0
100
AcDbLine
10
69.944165
20
-31.43442
30
0
11
69.997026
21
-31.43442
31
0
39
0
210
0
220
0
230
1
0
LINE
5
D4
100
AcDbEntity
8
1
62
256
6
ByLayer
370
13
48
1
60
0
100
AcDbLine
10
69.944165
20
-31.43442
30
0
11
69.944165
21
-33.56558
31
0
39
0
210
0
220
0
230
1
0
LINE
5
D5
100
AcDbEntity
8
1
62
256
6
ByLayer
370
13
48
1
60
0
100
AcDbLine
10
69.421373
20
-31.422746
30
0
11
69.421373
21
-33.577254
31
0
39
0
210
0
220
0
230
1
0
LINE
5
D6
100
AcDbEntity
8
1
62
256
6
ByLayer
370
13
48
1
60
0
100
AcDbLine
10
63.667173
20
-32.167359
30
0
11
63.882731
21
-32.167359
31
0
39
0
210
0
220
0
230
1
0
LINE
5
D7
100
AcDbEntity
8
1
62
256
6
ByLayer
370
13
48
1
60
0
100
AcDbLine
10
63.667173
20
-32.832641
30
0
11
63.882731
21
-32.832641
31
0
39
0
210
0
220
0
230
1
0
LINE
5
D8
100
AcDbEntity
8
1
62
256
6
ByLayer
370
13
48
1
60
0
100
AcDbLine
10
63.80092
20
-32.368114
30
0
11
64.035691
21
-32.368114
31
0
39
0
210
0
220
0
230
1
0
LINE
5
D9
100
AcDbEntity
8
1
62
256
6
ByLayer
370
13
48
1
60
0
100
AcDbLine
10
63.80092
20
-32.631886
30
0
11
64.035691
21
-32.631886
31
0
39
0
210
0
220
0
230
1
0
LINE
5
DA
100
AcDbEntity
8
1
62
256
6
ByLayer
370
13
48
1
60
0
100
AcDbLine
10
68.5695
20
-33.581166
30
0
11
68.5695
21
-32.5
31
0
39
0
210
0
220
0
230
1
0
LINE
5
DB
100
AcDbEntity
8
1
62
256
6
ByLayer
370
13
48
1
60
0
100
AcDbLine
10
68.5695
20
-31.418834
30
0
11
68.5695
21
-32.5
31
0
39
0
210
0
220
0
230
1
0
LINE
5
DC
100
AcDbEntity
8
1
62
256
6
ByLayer
370
13
48
1
60
0
100
AcDbLine
10
68.445205
20
-31.423276
30
0
11
68.423178
21
-31.12657
31
0
39
0
210
0
220
0
230
1
0
LINE
5
DD
100
AcDbEntity
8
1
62
256
6
ByLayer
370
13
48
1
60
0
100
AcDbLine
10
68.445205
20
-33.576724
30
0
11
68.423178
21
-33.87343
31
0
39
0
210
0
220
0
230
1
0
LINE
5
DE
100
AcDbEntity
8
1
62
256
6
ByLayer
370
13
48
1
60
0
100
AcDbLine
10
68.445205
20
-31.423276
30
0
11
68.445205
21
-32.5
31
0
39
0
210
0
220
0
230
1
0
LINE
5
DF
100
AcDbEntity
8
1
62
256
6
ByLayer
370
13
48
1
60
0
100
AcDbLine
10
68.445205
20
-33.576724
30
0
11
68.445205
21
-32.5
31
0
39
0
210
0
220
0
230
1
0
LINE
5
E0
100
AcDbEntity
8
1
62
256
6
ByLayer
370
18
48
1
60
0
100
AcDbLine
10
68.308021
20
-34.915447
30
0
11
68.808021
21
-34.950648
31
0
39
0
210
0
220
0
230
1
0
LINE
5
E1
100
AcDbEntity
8
1
62
256
6
ByLayer
370
18
48
1
60
0
100
AcDbLine
10
64.744578
20
-30.3
30
0
11
64.181347
21
-30.3
31
0
39
0
210
0
220
0
230
1
0
LINE
5
E2
100
AcDbEntity
8
1
62
256
6
ByLayer
370
18
48
1
60
0
100
AcDbLine
10
63.439668
20
-34.7
30
0
11
64.181347
21
-34.7
31
0
39
0
210
0
220
0
230
1
0
LINE
5
E3
100
AcDbEntity
8
1
62
256
6
ByLayer
370
18
48
1
60
0
100
AcDbLine
10
66.418936
20
-34.846102
30
0
11
65.671473
21
-34.793834
31
0
39
0
210
0
220
0
230
1
0
LINE
5
E4
100
AcDbEntity
8
1
62
256
6
ByLayer
370
18
48
1
60
0
100
AcDbLine
10
61.404967
20
-34.7
30
0
11
58.609992
21
-34.7
31
0
39
0
210
0
220
0
230
1
0
LINE
5
E5
100
AcDbEntity
8
1
62
256
6
ByLayer
370
18
48
1
60
0
100
AcDbLine
10
69.155317
20
-34.978051
30
0
11
69.466228
21
-35.005268
31
0
39
0
210
0
220
0
230
1
0
LINE
5
E6
100
AcDbEntity
8
1
62
256
6
ByLayer
370
18
48
1
60
0
100
AcDbLine
10
56.4
20
-30.3
30
0
11
56.638226
21
-30.3
31
0
39
0
210
0
220
0
230
1
0
LINE
5
E7
100
AcDbEntity
8
1
62
256
6
ByLayer
370
18
48
1
60
0
100
AcDbLine
10
65.082358
20
-34.7
30
0
11
64.744578
21
-34.7
31
0
39
0
210
0
220
0
230
1
0
LINE
5
E8
100
AcDbEntity
8
1
62
256
6
ByLayer
370
18
48
1
60
0
100
AcDbLine
10
65.476147
20
-30.272408
30
0
11
65.500168
21
-30.258539
31
0
39
0
210
0
220
0
230
1
0
LINE
5
E9
100
AcDbEntity
8
1
62
256
6
ByLayer
370
18
48
1
60
0
100
AcDbLine
10
58.51872
20
-34.7
30
0
11
58.609992
21
-34.7
31
0
39
0
210
0
220
0
230
1
0
LINE
5
EA
100
AcDbEntity
8
1
62
256
6
ByLayer
370
18
48
1
60
0
100
AcDbLine
10
65.671473
20
-30.206166
30
0
11
66.418936
21
-30.153898
31
0
39
0
210
0
220
0
230
1
0
LINE
5
EB
100
AcDbEntity
8
1
62
256
6
ByLayer
370
18
48
1
60
0
100
AcDbLine
10
58.609992
20
-30.3
30
0
11
61.404967
21
-30.3
31
0
39
0
210
0
220
0
230
1
0
LINE
5
EC
100
AcDbEntity
8
1
62
256
6
ByLayer
370
18
48
1
60
0
100
AcDbLine
10
70.000117
20
-31.209698
30
0
11
70.007017
21
-30.393993
31
0
39
0
210
0
220
0
230
1
0
LINE
5
ED
100
AcDbEntity
8
1
62
256
6
ByLayer
370
18
48
1
60
0
100
AcDbLine
10
64.181347
20
-34.7
30
0
11
64.744578
21
-34.7
31
0
39
0
210
0
220
0
230
1
0
LINE
5
EE
100
AcDbEntity
8
1
62
256
6
ByLayer
370
18
48
1
60
0
100
AcDbLine
10
69.534036
20
-35.010214
30
0
11
69.588915
21
-35.013423
31
0
39
0
210
0
220
0
230
1
0
LINE
5
EF
100
AcDbEntity
8
1
62
256
6
ByLayer
370
18
48
1
60
0
100
AcDbLine
10
56.638226
20
-34.7
30
0
11
56.4
21
-34.7
31
0
39
0
210
0
220
0
230
1
0
LINE
5
F0
100
AcDbEntity
8
1
62
256
6
ByLayer
370
18
48
1
60
0
100
AcDbLine
10
68.808021
20
-30.049352
30
0
11
68.308021
21
-30.084553
31
0
39
0
210
0
220
0
230
1
0
LINE
5
F1
100
AcDbEntity
8
1
62
256
6
ByLayer
370
18
48
1
60
0
100
AcDbLine
10
65.372916
20
-30.3
30
0
11
65.082358
21
-30.3
31
0
39
0
210
0
220
0
230
1
0
LINE
5
F2
100
AcDbEntity
8
1
62
256
6
ByLayer
370
18
48
1
60
0
100
AcDbLine
10
65.500168
20
-34.741461
30
0
11
65.476147
21
-34.727592
31
0
39
0
210
0
220
0
230
1
0
LINE
5
F3
100
AcDbEntity
8
1
62
256
6
ByLayer
370
18
48
1
60
0
100
AcDbLine
10
64.181347
20
-30.3
30
0
11
63.439699
21
-30.3
31
0
39
0
210
0
220
0
230
1
0
LINE
5
F4
100
AcDbEntity
8
1
62
256
6
ByLayer
370
18
48
1
60
0
100
AcDbLine
10
69.588915
20
-29.986577
30
0
11
69.534036
21
-29.989786
31
0
39
0
210
0
220
0
230
1
0
LINE
5
F5
100
AcDbEntity
8
1
62
256
6
ByLayer
370
18
48
1
60
0
100
AcDbLine
10
70.007017
20
-34.606007
30
0
11
70.000117
21
-33.790302
31
0
39
0
210
0
220
0
230
1
0
LINE
5
F6
100
AcDbEntity
8
1
62
256
6
ByLayer
370
18
48
1
60
0
100
AcDbLine
10
70
20
-33.762606
30
0
11
70
21
-31.237394
31
0
39
0
210
0
220
0
230
1
0
LINE
5
F7
100
AcDbEntity
8
1
62
256
6
ByLayer
370
18
48
1
60
0
100
AcDbLine
10
58.609992
20
-30.3
30
0
11
58.51872
21
-30.3
31
0
39
0
210
0
220
0
230
1
0
LINE
5
F8
100
AcDbEntity
8
1
62
256
6
ByLayer
370
18
48
1
60
0
100
AcDbLine
10
65.082358
20
-34.7
30
0
11
65.372916
21
-34.7
31
0
39
0
210
0
220
0
230
1
0
LINE
5
F9
100
AcDbEntity
8
1
62
256
6
ByLayer
370
18
48
1
60
0
100
AcDbLine
10
64.744578
20
-30.3
30
0
11
65.082358
21
-30.3
31
0
39
0
210
0
220
0
230
1
0
LINE
5
FA
100
AcDbEntity
8
1
62
256
6
ByLayer
370
18
48
1
60
0
100
AcDbLine
10
69.466228
20
-29.994732
30
0
11
69.155317
21
-30.021949
31
0
39
0
210
0
220
0
230
1
0
MTEXT
5
227
100
AcDbEntity
8
SK6
62
256
6
ByLayer
370
18
48
1
60
0
100
AcDbMText
10
-11.625
20
-55.88204
30
0
210
0
220
0
230
1
1
\W0.7803;C5-QD-LFJ32C35070A
40
3.5
41
0
44
1.084337
50
0
71
7
72
5
7
iso_b_vert
0
DIMENSION
5
239
100
AcDbEntity
8
SK2
62
256
6
ByLayer
370
13
48
1
60
0
100
AcDbDimension
2
DimnDraft3D1
10
70
20
47.6
30
0
11
32.909211
21
47.6
31
0
70
32
71
5
72
1
41
1
210
0
220
0
230
1
3
Standard
100
AcDbAlignedDimension
13
0
23
2
33
0
14
70
24
-33
34
0
50
0
100
AcDbRotatedDimension
1001
ACAD
1000
DSTYLE
1002
{
1070
   279
1070
     0
1070
   172
1070
     1
1070
   173
1070
     1
1070
   340
1005
228
1070
   271
1070
     1
1070
    77
1070
     1
1070
    73
1070
     0
1070
   171
1070
     3
1070
   274
1070
     4
1070
   177
1070
     2
1070
   176
1070
     2
1070
   178
1070
     7
1070
    78
1070
     8
1070
    41
1041
3.175
1070
   147
1041
1.75
1070
    42
1041
2.0
1070
    44
1041
2.0
1070
   140
1041
3.5
1070
   343
1005
23A
1070
   344
1005
23A
1002
}
0
DIMENSION
5
24F
100
AcDbEntity
8
2
62
256
6
ByLayer
370
13
48
1
60
0
100
AcDbDimension
2
DimnDraft3D2
10
38
20
-48.114079
30
0
11
51.909211
21
-48.114079
31
0
70
32
71
5
72
1
41
1
210
0
220
0
230
1
3
Standard
100
AcDbAlignedDimension
13
70
23
-37
33
0
14
38
24
-27
34
0
50
0
100
AcDbRotatedDimension
1001
ACAD
1000
DSTYLE
1002
{
1070
   279
1070
     0
1070
   172
1070
     1
1070
   173
1070
     1
1070
   340
1005
228
1070
   271
1070
     1
1070
    77
1070
     1
1070
    73
1070
     0
1070
   171
1070
     3
1070
   274
1070
     4
1070
   177
1070
     2
1070
   176
1070
     2
1070
   178
1070
     7
1070
    78
1070
     8
1070
    41
1041
3.175
1070
   147
1041
1.75
1070
    42
1041
2.0
1070
    44
1041
2.0
1070
   140
1041
3.5
1070
   343
1005
23A
1070
   344
1005
23A
1002
}
0
DIMENSION
5
25D
100
AcDbEntity
8
SK2
62
256
6
ByLayer
370
13
48
1
60
0
100
AcDbDimension
2
DimnDraft3D3
10
-39.6
20
25
30
0
11
-39.6
21
-2.090789
31
0
70
32
71
5
72
1
41
1
210
0
220
0
230
1
3
Standard
100
AcDbAlignedDimension
13
-2
23
-25
33
0
14
-2
24
25
34
0
50
90
100
AcDbRotatedDimension
1001
ACAD
1000
DSTYLE
1002
{
1070
    74
1070
     0
1070
   279
1070
     0
1070
   172
1070
     1
1070
   173
1070
     1
1070
   340
1005
228
1070
   271
1070
     1
1070
    77
1070
     1
1070
    73
1070
     0
1070
   171
1070
     3
1070
   274
1070
     4
1070
   177
1070
     2
1070
   176
1070
     2
1070
   178
1070
     7
1070
    78
1070
     8
1070
    41
1041
3.175
1070
   147
1041
1.75
1070
    42
1041
2.0
1070
    44
1041
2.0
1070
   140
1041
3.5
1070
   343
1005
23A
1070
   344
1005
23A
1002
}
0
DIMENSION
5
26B
100
AcDbEntity
8
2
62
256
6
ByLayer
370
13
48
1
60
0
100
AcDbDimension
2
DimnDraft3D4
10
95.1
20
-35
30
0
11
95.1
21
-19.590789
31
0
70
32
71
5
72
1
41
1
210
0
220
0
230
1
3
Standard
100
AcDbAlignedDimension
13
63
23
0
33
0
14
72
24
-35
34
0
50
90
100
AcDbRotatedDimension
1001
ACAD
1000
DSTYLE
1002
{
1070
    74
1070
     0
1070
   279
1070
     0
1070
   172
1070
     1
1070
   173
1070
     1
1070
   340
1005
228
1070
   271
1070
     1
1070
    77
1070
     1
1070
    73
1070
     0
1070
   171
1070
     3
1070
   274
1070
     4
1070
   177
1070
     2
1070
   176
1070
     2
1070
   178
1070
     7
1070
    78
1070
     8
1070
    41
1041
3.175
1070
   147
1041
1.75
1070
    42
1041
2.0
1070
    44
1041
2.0
1070
   140
1041
3.5
1070
   343
1005
23A
1070
   344
1005
23A
1002
}
0
DIMENSION
5
279
100
AcDbEntity
8
2
62
256
6
ByLayer
370
13
48
1
60
0
100
AcDbDimension
2
DimnDraft3D5
10
88.1
20
-30
30
0
11
88.1
21
-46.820789
31
0
70
32
71
5
72
1
41
1
210
0
220
0
230
1
3
Standard
100
AcDbAlignedDimension
13
72
23
-35
33
0
14
72
24
-30
34
0
50
90
100
AcDbRotatedDimension
1001
ACAD
1000
DSTYLE
1002
{
1070
    74
1070
     0
1070
   279
1070
     0
1070
   172
1070
     1
1070
   173
1070
     1
1070
   340
1005
228
1070
   271
1070
     1
1070
    77
1070
     1
1070
    73
1070
     0
1070
   171
1070
     3
1070
   274
1070
     4
1070
   177
1070
     2
1070
   176
1070
     2
1070
   178
1070
     7
1070
    78
1070
     8
1070
    41
1041
3.175
1070
   147
1041
1.75
1070
    42
1041
2.0
1070
    44
1041
2.0
1070
   140
1041
3.5
1070
   343
1005
23A
1070
   344
1005
23A
1002
}
0
ENDSEC
0
SECTION
2
OBJECTS
0
DICTIONARY
5
2e3
330
0
100
AcDbDictionary
280
0
281
1
3
ACAD_GROUP
350
2e4
3
ACAD_MLINESTYLE
350
2e5
0
DICTIONARY
5
2e4
330
0
100
AcDbDictionary
280
0
281
1
0
DICTIONARY
5
2e5
330
0
100
AcDbDictionary
280
0
281
1
3
Standard
350
18
0
MLINESTYLE
5
18
330
2e5
100
AcDbMlineStyle
2
Standard
70
0
3

62
256
51
90
52
90
71
2
49
-0.5
62
256
6
ByLayer
49
0.5
62
256
6
ByLayer
0
RASTERVARIABLES
5
2d2
330

100
AcDbRasterVariables
90
0
70
1
71
1
72
1
0
ENDSEC
0
EOF
