  0
SECTION
  2
HEADER
  9
$ACADVER
  1
AC1015
  9
$ACADMAINTVER
 70
    20
  9
$DWGCODEPAGE
  3
ANSI_1252
  9
$INSBASE
 10
0.0
 20
0.0
 30
0.0
  9
$EXTMIN
 10
-41.28559700083633
 20
-26.78039433991114
 30
-2.075839646425203
  9
$EXTMAX
 10
139.0175945456344
 20
47.98538283443235
 30
0.0000000099815534
  9
$LIMMIN
 10
-170.0
 20
-170.0
  9
$LIMMAX
 10
519.0
 20
260.0
  9
$ORTHOMODE
 70
     0
  9
$REGENMODE
 70
     1
  9
$FILLMODE
 70
     1
  9
$QTEXTMODE
 70
     0
  9
$MIRRTEXT
 70
     0
  9
$LTSCALE
 40
1.0
  9
$ATTMODE
 70
     1
  9
$TEXTSIZE
 40
3.5
  9
$TRACEWID
 40
1.0
  9
$TEXTSTYLE
  7
SIMPLEX
  9
$CLAYER
  8
1
  9
$CELTYPE
  6
BYLAYER
  9
$CECOLOR
 62
   256
  9
$CELTSCALE
 40
1.0
  9
$DISPSILH
 70
     0
  9
$DIMSCALE
 40
1.0
  9
$DIMASZ
 40
2.5
  9
$DIMEXO
 40
0.0
  9
$DIMDLI
 40
3.75
  9
$DIMRND
 40
0.0
  9
$DIMDLE
 40
0.0
  9
$DIMEXE
 40
1.25
  9
$DIMTP
 40
0.0
  9
$DIMTM
 40
0.0
  9
$DIMTXT
 40
3.5
  9
$DIMCEN
 40
0.0
  9
$DIMTSZ
 40
0.0
  9
$DIMTOL
 70
     0
  9
$DIMLIM
 70
     0
  9
$DIMTIH
 70
     0
  9
$DIMTOH
 70
     0
  9
$DIMSE1
 70
     0
  9
$DIMSE2
 70
     0
  9
$DIMTAD
 70
     1
  9
$DIMZIN
 70
     8
  9
$DIMBLK
  1

  9
$DIMASO
 70
     1
  9
$DIMSHO
 70
     1
  9
$DIMPOST
  1

  9
$DIMAPOST
  1

  9
$DIMALT
 70
     0
  9
$DIMALTD
 70
     3
  9
$DIMALTF
 40
0.039370078
  9
$DIMLFAC
 40
1.0
  9
$DIMTOFL
 70
     0
  9
$DIMTVP
 40
0.0
  9
$DIMTIX
 70
     0
  9
$DIMSOXD
 70
     0
  9
$DIMSAH
 70
     0
  9
$DIMBLK1
  1

  9
$DIMBLK2
  1

  9
$DIMSTYLE
  2
SANDVIK_STYLE
  9
$DIMCLRD
 70
     0
  9
$DIMCLRE
 70
     0
  9
$DIMCLRT
 70
     0
  9
$DIMTFAC
 40
1.0
  9
$DIMGAP
 40
0.625
  9
$DIMJUST
 70
     0
  9
$DIMSD1
 70
     0
  9
$DIMSD2
 70
     0
  9
$DIMTOLJ
 70
     0
  9
$DIMTZIN
 70
     8
  9
$DIMALTZ
 70
     0
  9
$DIMALTTZ
 70
     0
  9
$DIMUPT
 70
     0
  9
$DIMDEC
 70
     2
  9
$DIMTDEC
 70
     2
  9
$DIMALTU
 70
     2
  9
$DIMALTTD
 70
     3
  9
$DIMTXSTY
  7
SIMPLEX
  9
$DIMAUNIT
 70
     0
  9
$DIMADEC
 70
     2
  9
$DIMALTRND
 40
0.0
  9
$DIMAZIN
 70
     2
  9
$DIMDSEP
 70
    46
  9
$DIMATFIT
 70
     3
  9
$DIMFRAC
 70
     0
  9
$DIMLDRBLK
  1

  9
$DIMLUNIT
 70
     2
  9
$DIMLWD
 70
    -2
  9
$DIMLWE
 70
    -2
  9
$DIMTMOVE
 70
     0
  9
$LUNITS
 70
     2
  9
$LUPREC
 70
     4
  9
$SKETCHINC
 40
1.0
  9
$FILLETRAD
 40
0.0
  9
$AUNITS
 70
     0
  9
$AUPREC
 70
     0
  9
$MENU
  1
c:\tdm21\cad\caduti13\tdm13
  9
$ELEVATION
 40
0.0
  9
$PELEVATION
 40
0.0
  9
$THICKNESS
 40
0.0
  9
$LIMCHECK
 70
     0
  9
$CHAMFERA
 40
0.0
  9
$CHAMFERB
 40
0.0
  9
$CHAMFERC
 40
0.0
  9
$CHAMFERD
 40
0.0
  9
$SKPOLY
 70
     0
  9
$TDCREATE
 40
2455883.643486840
  9
$TDUCREATE
 40
2455883.560153508
  9
$TDUPDATE
 40
2456817.856409965
  9
$TDUUPDATE
 40
2456817.773076632
  9
$TDINDWG
 40
0.0014962500
  9
$TDUSRTIMER
 40
0.0014962037
  9
$USRTIMER
 70
     1
  9
$ANGBASE
 50
0.0
  9
$ANGDIR
 70
     0
  9
$PDMODE
 70
     1
  9
$PDSIZE
 40
0.0
  9
$PLINEWID
 40
0.0
  9
$SPLFRAME
 70
     0
  9
$SPLINETYPE
 70
     6
  9
$SPLINESEGS
 70
     8
  9
$HANDSEED
  5
2EB1F
  9
$SURFTAB1
 70
     6
  9
$SURFTAB2
 70
     6
  9
$SURFTYPE
 70
     6
  9
$SURFU
 70
     6
  9
$SURFV
 70
     6
  9
$UCSBASE
  2

  9
$UCSNAME
  2

  9
$UCSORG
 10
0.0
 20
0.0
 30
0.0
  9
$UCSXDIR
 10
1.0
 20
0.0
 30
0.0
  9
$UCSYDIR
 10
0.0
 20
1.0
 30
0.0
  9
$UCSORTHOREF
  2

  9
$UCSORTHOVIEW
 70
     0
  9
$UCSORGTOP
 10
0.0
 20
0.0
 30
0.0
  9
$UCSORGBOTTOM
 10
0.0
 20
0.0
 30
0.0
  9
$UCSORGLEFT
 10
0.0
 20
0.0
 30
0.0
  9
$UCSORGRIGHT
 10
0.0
 20
0.0
 30
0.0
  9
$UCSORGFRONT
 10
0.0
 20
0.0
 30
0.0
  9
$UCSORGBACK
 10
0.0
 20
0.0
 30
0.0
  9
$PUCSBASE
  2

  9
$PUCSNAME
  2

  9
$PUCSORG
 10
0.0
 20
0.0
 30
0.0
  9
$PUCSXDIR
 10
1.0
 20
0.0
 30
0.0
  9
$PUCSYDIR
 10
0.0
 20
1.0
 30
0.0
  9
$PUCSORTHOREF
  2

  9
$PUCSORTHOVIEW
 70
     0
  9
$PUCSORGTOP
 10
0.0
 20
0.0
 30
0.0
  9
$PUCSORGBOTTOM
 10
0.0
 20
0.0
 30
0.0
  9
$PUCSORGLEFT
 10
0.0
 20
0.0
 30
0.0
  9
$PUCSORGRIGHT
 10
0.0
 20
0.0
 30
0.0
  9
$PUCSORGFRONT
 10
0.0
 20
0.0
 30
0.0
  9
$PUCSORGBACK
 10
0.0
 20
0.0
 30
0.0
  9
$USERI1
 70
     0
  9
$USERI2
 70
     0
  9
$USERI3
 70
     0
  9
$USERI4
 70
     0
  9
$USERI5
 70
     0
  9
$USERR1
 40
0.0
  9
$USERR2
 40
0.0
  9
$USERR3
 40
0.0
  9
$USERR4
 40
0.0
  9
$USERR5
 40
0.0
  9
$WORLDVIEW
 70
     1
  9
$SHADEDGE
 70
     3
  9
$SHADEDIF
 70
    70
  9
$TILEMODE
 70
     1
  9
$MAXACTVP
 70
    64
  9
$PINSBASE
 10
0.0
 20
0.0
 30
0.0
  9
$PLIMCHECK
 70
     0
  9
$PEXTMIN
 10
0.0
 20
0.0
 30
0.0
  9
$PEXTMAX
 10
0.0
 20
0.0
 30
0.0
  9
$PLIMMIN
 10
0.0
 20
0.0
  9
$PLIMMAX
 10
12.0
 20
9.0
  9
$UNITMODE
 70
     0
  9
$VISRETAIN
 70
     0
  9
$PLINEGEN
 70
     0
  9
$PSLTSCALE
 70
     1
  9
$TREEDEPTH
 70
  3020
  9
$CMLSTYLE
  2
STANDARD
  9
$CMLJUST
 70
     0
  9
$CMLSCALE
 40
20.0
  9
$PROXYGRAPHICS
 70
     1
  9
$MEASUREMENT
 70
     1
  9
$CELWEIGHT
370
    -1
  9
$ENDCAPS
280
     0
  9
$JOINSTYLE
280
     0
  9
$LWDISPLAY
290
     0
  9
$INSUNITS
 70
     4
  9
$HYPERLINKBASE
  1

  9
$STYLESHEET
  1
MONOCHROME.CTB
  9
$XEDIT
290
     1
  9
$CEPSNTYPE
380
     0
  9
$PSTYLEMODE
290
     1
  9
$FINGERPRINTGUID
  2
{2541ECFD-A15C-4867-AF57-EDFAAE528261}
  9
$VERSIONGUID
  2
{F62F51C5-E406-4C89-8844-556508B5DA2D}
  9
$EXTNAMES
290
     1
  9
$PSVPSCALE
 40
0.0
  9
$OLESTARTUP
290
     0
  0
ENDSEC
  0
SECTION
  2
CLASSES
  0
CLASS
  1
ACDBDICTIONARYWDFLT
  2
AcDbDictionaryWithDefault
  3
ObjectDBX Classes
 90
        0
280
     0
281
     0
  0
CLASS
  1
ACDBPLACEHOLDER
  2
AcDbPlaceHolder
  3
ObjectDBX Classes
 90
        0
280
     0
281
     0
  0
CLASS
  1
LAYOUT
  2
AcDbLayout
  3
ObjectDBX Classes
 90
        0
280
     0
281
     0
  0
CLASS
  1
DICTIONARYVAR
  2
AcDbDictionaryVar
  3
ObjectDBX Classes
 90
        0
280
     0
281
     0
  0
CLASS
  1
TABLESTYLE
  2
AcDbTableStyle
  3
ObjectDBX Classes
 90
     4095
280
     0
281
     0
  0
CLASS
  1
MATERIAL
  2
AcDbMaterial
  3
ObjectDBX Classes
 90
     1153
280
     0
281
     0
  0
CLASS
  1
VISUALSTYLE
  2
AcDbVisualStyle
  3
ObjectDBX Classes
 90
     4095
280
     0
281
     0
  0
CLASS
  1
SCALE
  2
AcDbScale
  3
ObjectDBX Classes
 90
     1153
280
     0
281
     0
  0
CLASS
  1
MLEADERSTYLE
  2
AcDbMLeaderStyle
  3
ACDB_MLEADERSTYLE_CLASS
 90
     4095
280
     0
281
     0
  0
CLASS
  1
CELLSTYLEMAP
  2
AcDbCellStyleMap
  3
ObjectDBX Classes
 90
     1152
280
     0
281
     0
  0
CLASS
  1
SORTENTSTABLE
  2
AcDbSortentsTable
  3
ObjectDBX Classes
 90
        0
280
     0
281
     0
  0
CLASS
  1
ACDBSECTIONVIEWSTYLE
  2
AcDbSectionViewStyle
  3
ObjectDBX Classes
 90
     1025
280
     0
281
     0
  0
CLASS
  1
ACDBDETAILVIEWSTYLE
  2
AcDbDetailViewStyle
  3
ObjectDBX Classes
 90
     1025
280
     0
281
     0
  0
CLASS
  1
EXACXREFPANELOBJECT
  2
ExAcXREFPanelObject
  3
EXAC_ESW
 90
     1025
280
     0
281
     0
  0
CLASS
  1
NPOCOLLECTION
  2
AcDbImpNonPersistentObjectsCollection
  3
ObjectDBX Classes
 90
     1153
280
     0
281
     0
  0
ENDSEC
  0
SECTION
  2
TABLES
  0
TABLE
  2
VPORT
  5
8
330
0
100
AcDbSymbolTable
 70
     1
  0
VPORT
  5
3ED
330
8
100
AcDbSymbolTableRecord
100
AcDbViewportTableRecord
  2
*Active
 70
     0
 10
0.0
 20
0.0
 11
1.0
 21
1.0
 12
48.86599877239905
 22
10.60249424726061
 13
0.0
 23
0.0
 14
5.0
 24
5.0
 15
5.0
 25
5.0
 16
0.0
 26
0.0
 36
1.0
 17
0.0
 27
0.0
 37
0.0
 40
91.35928912920745
 41
2.2
 42
50.0
 43
0.0
 44
0.0
 50
0.0
 51
0.0
 71
     0
 72
  2000
 73
     1
 74
     1
 75
     0
 76
     0
 77
     0
 78
     0
281
     0
 65
     1
110
0.0
120
0.0
130
0.0
111
1.0
121
0.0
131
0.0
112
0.0
122
1.0
132
0.0
 79
     0
146
0.0
1001
ACAD_NAV_VCDISPLAY
1070
     3
  0
ENDTAB
  0
TABLE
  2
LTYPE
  5
5
330
0
100
AcDbSymbolTable
 70
    28
  0
LTYPE
  5
12
330
5
100
AcDbSymbolTableRecord
100
AcDbLinetypeTableRecord
  2
BYBLOCK
 70
     0
  3

 72
    65
 73
     0
 40
0.0
  0
LTYPE
  5
13
330
5
100
AcDbSymbolTableRecord
100
AcDbLinetypeTableRecord
  2
BYLAYER
 70
     0
  3

 72
    65
 73
     0
 40
0.0
  0
LTYPE
  5
14
330
5
100
AcDbSymbolTableRecord
100
AcDbLinetypeTableRecord
  2
CONTINUOUS
 70
     0
  3
Solid line
 72
    65
 73
     0
 40
0.0
  0
LTYPE
  5
2E746
330
5
100
AcDbSymbolTableRecord
100
AcDbLinetypeTableRecord
  2
BORDER
 70
     0
  3
__ __ . __ __ . __ __ . __ __ . __ __ . __ __ .
 72
    65
 73
     6
 40
44.45
 49
12.7
 74
     0
 49
-6.349999999999997
 74
     0
 49
12.7
 74
     0
 49
-6.349999999999997
 74
     0
 49
0.0
 74
     0
 49
-6.349999999999997
 74
     0
  0
LTYPE
  5
2E747
330
5
100
AcDbSymbolTableRecord
100
AcDbLinetypeTableRecord
  2
BORDER2
 70
     0
  3
__.__.__.__.__.__.__.__.__.__.__.__.__.__.__.__
 72
    65
 73
     6
 40
22.225
 49
6.349999999999997
 74
     0
 49
-3.174999999999998
 74
     0
 49
6.349999999999997
 74
     0
 49
-3.174999999999998
 74
     0
 49
0.0
 74
     0
 49
-3.174999999999998
 74
     0
  0
LTYPE
  5
2E748
330
5
100
AcDbSymbolTableRecord
100
AcDbLinetypeTableRecord
  2
BORDERX2
 70
     0
  3
____  ____  .  ____  ____  .  ____  ____  .  __
 72
    65
 73
     6
 40
88.9
 49
25.4
 74
     0
 49
-12.7
 74
     0
 49
25.4
 74
     0
 49
-12.7
 74
     0
 49
0.0
 74
     0
 49
-12.7
 74
     0
  0
LTYPE
  5
2E749
330
5
100
AcDbSymbolTableRecord
100
AcDbLinetypeTableRecord
  2
CENTER
 70
     0
  3
____ _ ____ _ ____ _ ____ _ ____ _ ____ _ ____ 
 72
    65
 73
     4
 40
50.8
 49
31.75
 74
     0
 49
-6.349999999999997
 74
     0
 49
6.349999999999997
 74
     0
 49
-6.349999999999997
 74
     0
  0
LTYPE
  5
2E74A
330
5
100
AcDbSymbolTableRecord
100
AcDbLinetypeTableRecord
  2
CENTER2
 70
     0
  3
___ _ ___ _ ___ _ ___ _ ___ _ ___ _ ___ _ ___ _
 72
    65
 73
     4
 40
28.57499999999999
 49
19.05
 74
     0
 49
-3.174999999999998
 74
     0
 49
3.174999999999998
 74
     0
 49
-3.174999999999998
 74
     0
  0
LTYPE
  5
2E74B
330
5
100
AcDbSymbolTableRecord
100
AcDbLinetypeTableRecord
  2
CENTERX2
 70
     0
  3
________  __  ________  __  ________  __  _____
 72
    65
 73
     4
 40
101.6
 49
63.5
 74
     0
 49
-12.7
 74
     0
 49
12.7
 74
     0
 49
-12.7
 74
     0
  0
LTYPE
  5
2E74C
330
5
100
AcDbSymbolTableRecord
100
AcDbLinetypeTableRecord
  2
CENTRE
 70
     0
  3
____ _ ____ _ ____ _ ____ _ ____ _ ____ _ ____ 
 72
    65
 73
     4
 40
50.8
 49
31.75
 74
     0
 49
-6.349999999999997
 74
     0
 49
6.349999999999997
 74
     0
 49
-6.349999999999997
 74
     0
  0
LTYPE
  5
2E74D
330
5
100
AcDbSymbolTableRecord
100
AcDbLinetypeTableRecord
  2
CENTRE2
 70
     0
  3
___ _ ___ _ ___ _ ___ _ ___ _ ___ _ ___ _ ___ _
 72
    65
 73
     4
 40
28.57499999999999
 49
19.05
 74
     0
 49
-3.174999999999998
 74
     0
 49
3.174999999999998
 74
     0
 49
-3.174999999999998
 74
     0
  0
LTYPE
  5
2E74E
330
5
100
AcDbSymbolTableRecord
100
AcDbLinetypeTableRecord
  2
CENTREX2
 70
     0
  3
________  __  ________  __  ________  __  _____
 72
    65
 73
     4
 40
101.6
 49
63.5
 74
     0
 49
-12.7
 74
     0
 49
12.7
 74
     0
 49
-12.7
 74
     0
  0
LTYPE
  5
2E74F
330
5
100
AcDbSymbolTableRecord
100
AcDbLinetypeTableRecord
  2
DASHDOT
 70
     0
  3
__ . __ . __ . __ . __ . __ . __ . __ . __ . __
 72
    65
 73
     4
 40
25.4
 49
12.7
 74
     0
 49
-6.349999999999997
 74
     0
 49
0.0
 74
     0
 49
-6.349999999999997
 74
     0
  0
LTYPE
  5
2E750
330
5
100
AcDbSymbolTableRecord
100
AcDbLinetypeTableRecord
  2
DASHDOT2
 70
     0
  3
_._._._._._._._._._._._._._._._._._._._._._._._
 72
    65
 73
     4
 40
12.7
 49
6.349999999999997
 74
     0
 49
-3.174999999999998
 74
     0
 49
0.0
 74
     0
 49
-3.174999999999998
 74
     0
  0
LTYPE
  5
2E751
330
5
100
AcDbSymbolTableRecord
100
AcDbLinetypeTableRecord
  2
DASHDOTX2
 70
     0
  3
____  .  ____  .  ____  .  ____  .  ____  .  __
 72
    65
 73
     4
 40
50.8
 49
25.4
 74
     0
 49
-12.7
 74
     0
 49
0.0
 74
     0
 49
-12.7
 74
     0
  0
LTYPE
  5
2E752
330
5
100
AcDbSymbolTableRecord
100
AcDbLinetypeTableRecord
  2
DASHED
 70
     0
  3
__ __ __ __ __ __ __ __ __ __ __ __ __ __ __ __
 72
    65
 73
     2
 40
19.05
 49
12.7
 74
     0
 49
-6.349999999999997
 74
     0
  0
LTYPE
  5
2E753
330
5
100
AcDbSymbolTableRecord
100
AcDbLinetypeTableRecord
  2
DASHED2
 70
     0
  3
_ _ _ _ _ _ _ _ _ _ _ _ _ _ _ _ _ _ _ _ _ _ _ _
 72
    65
 73
     2
 40
9.525
 49
6.349999999999997
 74
     0
 49
-3.174999999999998
 74
     0
  0
LTYPE
  5
2E754
330
5
100
AcDbSymbolTableRecord
100
AcDbLinetypeTableRecord
  2
DASHEDX2
 70
     0
  3
____  ____  ____  ____  ____  ____  ____  ____ 
 72
    65
 73
     2
 40
38.1
 49
25.4
 74
     0
 49
-12.7
 74
     0
  0
LTYPE
  5
2E755
330
5
100
AcDbSymbolTableRecord
100
AcDbLinetypeTableRecord
  2
DIVIDE
 70
     0
  3
____ . . ____ . . ____ . . ____ . . ____ . . __
 72
    65
 73
     6
 40
31.75
 49
12.7
 74
     0
 49
-6.349999999999997
 74
     0
 49
0.0
 74
     0
 49
-6.349999999999997
 74
     0
 49
0.0
 74
     0
 49
-6.349999999999997
 74
     0
  0
LTYPE
  5
2E756
330
5
100
AcDbSymbolTableRecord
100
AcDbLinetypeTableRecord
  2
DIVIDE2
 70
     0
  3
__..__..__..__..__..__..__..__..__..__..__..__.
 72
    65
 73
     6
 40
15.875
 49
6.349999999999997
 74
     0
 49
-3.174999999999998
 74
     0
 49
0.0
 74
     0
 49
-3.174999999999998
 74
     0
 49
0.0
 74
     0
 49
-3.174999999999998
 74
     0
  0
LTYPE
  5
2E757
330
5
100
AcDbSymbolTableRecord
100
AcDbLinetypeTableRecord
  2
DIVIDEX2
 70
     0
  3
________  .  .  ________  .  .  ________  .  . 
 72
    65
 73
     6
 40
63.5
 49
25.4
 74
     0
 49
-12.7
 74
     0
 49
0.0
 74
     0
 49
-12.7
 74
     0
 49
0.0
 74
     0
 49
-12.7
 74
     0
  0
LTYPE
  5
2E758
330
5
100
AcDbSymbolTableRecord
100
AcDbLinetypeTableRecord
  2
DOT
 70
     0
  3
. . . . . . . . . . . . . . . . . . . . . . . .
 72
    65
 73
     2
 40
6.349999999999997
 49
0.0
 74
     0
 49
-6.349999999999997
 74
     0
  0
LTYPE
  5
2E759
330
5
100
AcDbSymbolTableRecord
100
AcDbLinetypeTableRecord
  2
DOT2
 70
     0
  3
...............................................
 72
    65
 73
     2
 40
3.174999999999998
 49
0.0
 74
     0
 49
-3.174999999999998
 74
     0
  0
LTYPE
  5
2E75A
330
5
100
AcDbSymbolTableRecord
100
AcDbLinetypeTableRecord
  2
DOTX2
 70
     0
  3
.  .  .  .  .  .  .  .  .  .  .  .  .  .  .  . 
 72
    65
 73
     2
 40
12.7
 49
0.0
 74
     0
 49
-12.7
 74
     0
  0
LTYPE
  5
2E75B
330
5
100
AcDbSymbolTableRecord
100
AcDbLinetypeTableRecord
  2
HIDDEN
 70
     0
  3
__ __ __ __ __ __ __ __ __ __ __ __ __ __ __ __
 72
    65
 73
     2
 40
9.525
 49
6.349999999999997
 74
     0
 49
-3.174999999999998
 74
     0
  0
LTYPE
  5
2E75C
330
5
100
AcDbSymbolTableRecord
100
AcDbLinetypeTableRecord
  2
HIDDEN2
 70
     0
  3
_ _ _ _ _ _ _ _ _ _ _ _ _ _ _ _ _ _ _ _ _ _ _ _
 72
    65
 73
     2
 40
4.7625
 49
3.174999999999998
 74
     0
 49
-1.587499999999999
 74
     0
  0
LTYPE
  5
2E75D
330
5
100
AcDbSymbolTableRecord
100
AcDbLinetypeTableRecord
  2
HIDDENX2
 70
     0
  3
____ ____ ____ ____ ____ ____ ____ ____ ____ __
 72
    65
 73
     2
 40
19.05
 49
12.7
 74
     0
 49
-6.349999999999997
 74
     0
  0
LTYPE
  5
2E75E
330
5
100
AcDbSymbolTableRecord
100
AcDbLinetypeTableRecord
  2
PHANTOM
 70
     0
  3
______  __  __  ______  __  __  ______  __  __ 
 72
    65
 73
     6
 40
63.5
 49
31.75
 74
     0
 49
-6.349999999999997
 74
     0
 49
6.349999999999997
 74
     0
 49
-6.349999999999997
 74
     0
 49
6.349999999999997
 74
     0
 49
-6.349999999999997
 74
     0
  0
LTYPE
  5
2E75F
330
5
100
AcDbSymbolTableRecord
100
AcDbLinetypeTableRecord
  2
PHANTOM2
 70
     0
  3
___ _ _ ___ _ _ ___ _ _ ___ _ _ ___ _ _ ___ _ _
 72
    65
 73
     6
 40
31.75
 49
15.875
 74
     0
 49
-3.174999999999998
 74
     0
 49
3.174999999999998
 74
     0
 49
-3.174999999999998
 74
     0
 49
3.174999999999998
 74
     0
 49
-3.174999999999998
 74
     0
  0
LTYPE
  5
2E760
330
5
100
AcDbSymbolTableRecord
100
AcDbLinetypeTableRecord
  2
PHANTOMX2
 70
     0
  3
____________    ____    ____    ____________   
 72
    65
 73
     6
 40
127.0
 49
63.5
 74
     0
 49
-12.7
 74
     0
 49
12.7
 74
     0
 49
-12.7
 74
     0
 49
12.7
 74
     0
 49
-12.7
 74
     0
  0
ENDTAB
  0
TABLE
  2
LAYER
  5
2
330
0
100
AcDbSymbolTable
 70
    25
  0
LAYER
  5
F
102
{ACAD_XDICTIONARY
360
2EAAC
102
}
330
2
100
AcDbSymbolTableRecord
100
AcDbLayerTableRecord
  2
0
 70
     0
 62
     7
  6
CONTINUOUS
370
    -3
390
300
  0
LAYER
  5
23
102
{ACAD_XDICTIONARY
360
2EAAE
102
}
330
2
100
AcDbSymbolTableRecord
100
AcDbLayerTableRecord
  2
1
 70
     0
 62
     4
  6
CONTINUOUS
370
    -3
390
300
  0
LAYER
  5
2E761
102
{ACAD_XDICTIONARY
360
2EAB0
102
}
330
2
100
AcDbSymbolTableRecord
100
AcDbLayerTableRecord
  2
2
 70
     0
 62
     7
  6
CONTINUOUS
370
    -3
390
300
  0
LAYER
  5
2E762
330
2
100
AcDbSymbolTableRecord
100
AcDbLayerTableRecord
  2
DEFPOINTS
 70
     0
 62
     7
  6
CONTINUOUS
290
     0
370
    -3
390
300
  0
LAYER
  5
2E763
102
{ACAD_XDICTIONARY
360
2EAB2
102
}
330
2
100
AcDbSymbolTableRecord
100
AcDbLayerTableRecord
  2
IGES_FRZ
 70
     0
 62
     7
  6
CONTINUOUS
370
    -3
390
300
  0
LAYER
  5
2E764
102
{ACAD_XDICTIONARY
360
2EAB4
102
}
330
2
100
AcDbSymbolTableRecord
100
AcDbLayerTableRecord
  2
95
 70
     0
 62
     7
  6
CONTINUOUS
370
    -3
390
300
  0
LAYER
  5
2E765
102
{ACAD_XDICTIONARY
360
2EAB6
102
}
330
2
100
AcDbSymbolTableRecord
100
AcDbLayerTableRecord
  2
95_TOP
 70
     0
 62
     7
  6
CONTINUOUS
370
    -3
390
300
  0
LAYER
  5
2E766
102
{ACAD_XDICTIONARY
360
2EAB8
102
}
330
2
100
AcDbSymbolTableRecord
100
AcDbLayerTableRecord
  2
90
 70
     0
 62
     7
  6
CONTINUOUS
370
    -3
390
300
  0
LAYER
  5
2E767
102
{ACAD_XDICTIONARY
360
2EABA
102
}
330
2
100
AcDbSymbolTableRecord
100
AcDbLayerTableRecord
  2
90_TOP
 70
     0
 62
     7
  6
CONTINUOUS
370
    -3
390
300
  0
LAYER
  5
2E768
102
{ACAD_XDICTIONARY
360
2EABC
102
}
330
2
100
AcDbSymbolTableRecord
100
AcDbLayerTableRecord
  2
91
 70
     0
 62
     7
  6
CONTINUOUS
370
    -3
390
300
  0
LAYER
  5
2E769
102
{ACAD_XDICTIONARY
360
2EABE
102
}
330
2
100
AcDbSymbolTableRecord
100
AcDbLayerTableRecord
  2
91_TOP
 70
     0
 62
     7
  6
CONTINUOUS
370
    -3
390
300
  0
LAYER
  5
2E76A
102
{ACAD_XDICTIONARY
360
2EAC0
102
}
330
2
100
AcDbSymbolTableRecord
100
AcDbLayerTableRecord
  2
IGES
 70
     0
 62
     7
  6
CONTINUOUS
370
    -3
390
300
  0
LAYER
  5
2E76B
102
{ACAD_XDICTIONARY
360
2EAC2
102
}
330
2
100
AcDbSymbolTableRecord
100
AcDbLayerTableRecord
  2
11
 70
     0
 62
     4
  6
CONTINUOUS
370
    -3
390
300
  0
LAYER
  5
2E76C
102
{ACAD_XDICTIONARY
360
2EAC4
102
}
330
2
100
AcDbSymbolTableRecord
100
AcDbLayerTableRecord
  2
20
 70
     0
 62
     7
  6
CONTINUOUS
370
    -3
390
300
  0
LAYER
  5
2E76D
102
{ACAD_XDICTIONARY
360
2EAC6
102
}
330
2
100
AcDbSymbolTableRecord
100
AcDbLayerTableRecord
  2
12
 70
     0
 62
     7
  6
CONTINUOUS
370
    -3
390
300
  0
LAYER
  5
2E76E
102
{ACAD_XDICTIONARY
360
2EAC8
102
}
330
2
100
AcDbSymbolTableRecord
100
AcDbLayerTableRecord
  2
3
 70
     0
 62
     1
  6
HIDDEN
370
    -3
390
300
  0
LAYER
  5
2E76F
102
{ACAD_XDICTIONARY
360
2EACA
102
}
330
2
100
AcDbSymbolTableRecord
100
AcDbLayerTableRecord
  2
13
 70
     0
 62
     1
  6
HIDDEN
370
    -3
390
300
  0
LAYER
  5
2E770
102
{ACAD_XDICTIONARY
360
2EACC
102
}
330
2
100
AcDbSymbolTableRecord
100
AcDbLayerTableRecord
  2
4
 70
     0
 62
     2
  6
CENTER
370
    -3
390
300
  0
LAYER
  5
2E771
102
{ACAD_XDICTIONARY
360
2EACE
102
}
330
2
100
AcDbSymbolTableRecord
100
AcDbLayerTableRecord
  2
14
 70
     0
 62
     2
  6
CENTER
370
    -3
390
300
  0
LAYER
  5
2E772
102
{ACAD_XDICTIONARY
360
2EAD0
102
}
330
2
100
AcDbSymbolTableRecord
100
AcDbLayerTableRecord
  2
5
 70
     0
 62
    -7
  6
CONTINUOUS
370
    -3
390
300
  0
LAYER
  5
2E773
102
{ACAD_XDICTIONARY
360
2EAD2
102
}
330
2
100
AcDbSymbolTableRecord
100
AcDbLayerTableRecord
  2
6
 70
     0
 62
     5
  6
CONTINUOUS
370
    -3
390
300
  0
LAYER
  5
2E774
102
{ACAD_XDICTIONARY
360
2EAD4
102
}
330
2
100
AcDbSymbolTableRecord
100
AcDbLayerTableRecord
  2
16
 70
     0
 62
     5
  6
CONTINUOUS
370
    -3
390
300
  0
LAYER
  5
2E775
102
{ACAD_XDICTIONARY
360
2EAD6
102
}
330
2
100
AcDbSymbolTableRecord
100
AcDbLayerTableRecord
  2
80
 70
     0
 62
     2
  6
CENTER
370
    -3
390
300
  0
LAYER
  5
2E776
102
{ACAD_XDICTIONARY
360
2EAD8
102
}
330
2
100
AcDbSymbolTableRecord
100
AcDbLayerTableRecord
  2
81
 70
     0
 62
     2
  6
CENTER
370
    -3
390
300
  0
LAYER
  5
2E777
102
{ACAD_XDICTIONARY
360
2EADA
102
}
330
2
100
AcDbSymbolTableRecord
100
AcDbLayerTableRecord
  2
82
 70
     0
 62
     2
  6
CENTER
370
    -3
390
300
  0
ENDTAB
  0
TABLE
  2
STYLE
  5
3
330
0
100
AcDbSymbolTable
 70
     5
  0
STYLE
  5
10
330
3
100
AcDbSymbolTableRecord
100
AcDbTextStyleTableRecord
  2
STANDARD
 70
     0
 40
0.0
 41
1.0
 50
0.0
 71
     0
 42
5.0
  3
txt
  4

  0
STYLE
  5
1E
330
3
100
AcDbSymbolTableRecord
100
AcDbTextStyleTableRecord
  2
SIMPLEX
 70
     0
 40
0.0
 41
1.0
 50
0.0
 71
     0
 42
3.5
  3
simplex
  4

  0
STYLE
  5
2E778
330
3
100
AcDbSymbolTableRecord
100
AcDbTextStyleTableRecord
  2
Annotative
 70
     0
 40
0.0
 41
1.0
 50
0.0
 71
     0
 42
0.2
  3
txt
  4

1001
AcadAnnotative
1000
AnnotativeData
1002
{
1070
     1
1070
     1
1002
}
  0
STYLE
  5
2E779
330
3
100
AcDbSymbolTableRecord
100
AcDbTextStyleTableRecord
  2
TDM_STYLE
 70
     0
 40
0.0
 41
1.0
 50
0.0
 71
     0
 42
0.2
  3
txt
  4

  0
STYLE
  5
2E77A
330
3
100
AcDbSymbolTableRecord
100
AcDbTextStyleTableRecord
  2
SANDVIK_STYLE
 70
     0
 40
4.57
 41
1.0
 50
15.0
 71
     0
 42
4.57
  3
simplex.shx
  4

  0
ENDTAB
  0
TABLE
  2
VIEW
  5
6
330
0
100
AcDbSymbolTable
 70
     0
  0
ENDTAB
  0
TABLE
  2
UCS
  5
7
330
0
100
AcDbSymbolTable
 70
     0
  0
ENDTAB
  0
TABLE
  2
APPID
  5
9
330
0
100
AcDbSymbolTable
 70
    11
  0
APPID
  5
11
330
9
100
AcDbSymbolTableRecord
100
AcDbRegAppTableRecord
  2
ACAD
 70
     0
  0
APPID
  5
3A6
330
9
100
AcDbSymbolTableRecord
100
AcDbRegAppTableRecord
  2
ACAD_PSEXT
 70
     0
  0
APPID
  5
3A8
330
9
100
AcDbSymbolTableRecord
100
AcDbRegAppTableRecord
  2
ACAD_EXEMPT_FROM_CAD_STANDARDS
 70
     0
  0
APPID
  5
43E
330
9
100
AcDbSymbolTableRecord
100
AcDbRegAppTableRecord
  2
ACAD_MLEADERVER
 70
     0
  0
APPID
  5
454
330
9
100
AcDbSymbolTableRecord
100
AcDbRegAppTableRecord
  2
ACAD_DSTYLE_DIMJAG
 70
     0
  0
APPID
  5
455
330
9
100
AcDbSymbolTableRecord
100
AcDbRegAppTableRecord
  2
ACAD_DSTYLE_DIMBREAK
 70
     0
  0
APPID
  5
456
330
9
100
AcDbSymbolTableRecord
100
AcDbRegAppTableRecord
  2
ACAD_DSTYLE_DIMTALN
 70
     0
  0
APPID
  5
58A
330
9
100
AcDbSymbolTableRecord
100
AcDbRegAppTableRecord
  2
AcadAnnotative
 70
     0
  0
APPID
  5
58B
330
9
100
AcDbSymbolTableRecord
100
AcDbRegAppTableRecord
  2
ACADIGES
 70
     0
  0
APPID
  5
58C
330
9
100
AcDbSymbolTableRecord
100
AcDbRegAppTableRecord
  2
ACAD_DSTYLE_DIMJOGGED_JOGANGLE_SYMBOL
 70
     0
  0
APPID
  5
2EADF
330
9
100
AcDbSymbolTableRecord
100
AcDbRegAppTableRecord
  2
ACAD_NAV_VCDISPLAY
 70
     0
  0
ENDTAB
  0
TABLE
  2
DIMSTYLE
  5
A
330
0
100
AcDbSymbolTable
 70
     5
100
AcDbDimStyleTable
 71
     1
340
457
  0
DIMSTYLE
105
457
102
{ACAD_REACTORS
330
2E9EA
330
2E9E9
330
2E9E8
330
2E9E7
330
2E9E6
330
2E9E5
102
}
330
A
100
AcDbSymbolTableRecord
100
AcDbDimStyleTableRecord
  2
SANDVIK_STYLE
 70
     0
 41
2.5
 42
0.0
 43
3.75
 44
1.25
 73
     0
 74
     0
 77
     1
 78
     8
 79
     2
140
3.5
141
0.0
143
0.039370078
147
0.625
171
     3
179
     2
271
     2
272
     2
274
     3
283
     0
284
     8
340
1E
1001
ACAD_DSTYLE_DIMBREAK
1070
   391
1040
3.75
1001
ACAD_DSTYLE_DIMJAG
1070
   388
1040
1.5
1001
ACAD_DSTYLE_DIMTALN
1070
   392
1070
     0
  0
DIMSTYLE
105
2E77B
330
A
100
AcDbSymbolTableRecord
100
AcDbDimStyleTableRecord
  2
ISO-25
 70
     0
 41
2.5
 42
0.625
 43
3.75
 44
1.25
 73
     0
 74
     0
 77
     1
 78
     8
140
2.5
141
2.5
143
0.03937007874016
147
0.625
171
     3
172
     1
271
     2
272
     2
274
     3
278
    44
283
     0
284
     8
340
10
1001
ACAD_DSTYLE_DIMJOGGED_JOGANGLE_SYMBOL
1070
   384
1040
1.570796326794896
  0
DIMSTYLE
105
2E77C
330
A
100
AcDbSymbolTableRecord
100
AcDbDimStyleTableRecord
  2
STANDARD
 70
     0
 41
3.0
 42
2.5
 43
10.0
 44
2.5
 46
1.25
 73
     0
 74
     0
140
3.0
141
-3.0
143
0.039
145
1.5
146
0.75
147
1.5
271
     2
272
     2
279
     2
340
2E779
  0
DIMSTYLE
105
2E77D
330
A
100
AcDbSymbolTableRecord
100
AcDbDimStyleTableRecord
  2
Annotative
 70
     0
340
10
1001
AcadAnnotative
1000
AnnotativeData
1002
{
1070
     1
1070
     1
1002
}
  0
DIMSTYLE
105
2E77E
330
A
100
AcDbSymbolTableRecord
100
AcDbDimStyleTableRecord
  2
SANDVIK_DIM
 70
     0
 41
3.0
 42
2.5
 43
10.0
 44
2.5
 46
1.25
 73
     0
 74
     0
140
3.0
141
-3.0
143
0.039
145
1.5
146
0.75
147
1.5
176
   256
177
   256
178
   256
271
     2
272
     2
279
     2
340
2E779
  0
ENDTAB
  0
TABLE
  2
BLOCK_RECORD
  5
1
330
0
100
AcDbSymbolTable
 70
    31
  0
BLOCK_RECORD
  5
18
330
1
100
AcDbSymbolTableRecord
100
AcDbBlockTableRecord
  2
*MODEL_SPACE
340
303
  0
BLOCK_RECORD
  5
338
330
1
100
AcDbSymbolTableRecord
100
AcDbBlockTableRecord
  2
*Paper_Space
340
33B
  0
BLOCK_RECORD
  5
2E5F4
330
1
100
AcDbSymbolTableRecord
100
AcDbBlockTableRecord
  2
$MODEL_SPACE
340
0
  0
BLOCK_RECORD
  5
2E5F7
330
1
100
AcDbSymbolTableRecord
100
AcDbBlockTableRecord
  2
$PAPER_SPACE
340
0
  0
BLOCK_RECORD
  5
2E5FA
330
1
100
AcDbSymbolTableRecord
100
AcDbBlockTableRecord
  2
IGES_214_02
340
0
102
{BLKREFS
331
2E602
331
2E604
331
2E60C
331
2E60E
331
2E616
331
2E618
331
2E620
331
2E622
331
2E62A
331
2E62C
331
2E634
331
2E636
102
}
  0
BLOCK_RECORD
  5
2E5FF
330
1
100
AcDbSymbolTableRecord
100
AcDbBlockTableRecord
  2
*U3
340
0
  0
BLOCK_RECORD
  5
2E609
330
1
100
AcDbSymbolTableRecord
100
AcDbBlockTableRecord
  2
*U4
340
0
  0
BLOCK_RECORD
  5
2E613
330
1
100
AcDbSymbolTableRecord
100
AcDbBlockTableRecord
  2
*U5
340
0
  0
BLOCK_RECORD
  5
2E61D
330
1
100
AcDbSymbolTableRecord
100
AcDbBlockTableRecord
  2
*U6
340
0
  0
BLOCK_RECORD
  5
2E627
330
1
100
AcDbSymbolTableRecord
100
AcDbBlockTableRecord
  2
*U7
340
0
  0
BLOCK_RECORD
  5
2E631
330
1
100
AcDbSymbolTableRecord
100
AcDbBlockTableRecord
  2
*U8
340
0
  0
BLOCK_RECORD
  5
2E63B
330
1
100
AcDbSymbolTableRecord
100
AcDbBlockTableRecord
  2
DVIEWBLOCK
340
0
  0
BLOCK_RECORD
  5
2E651
330
1
100
AcDbSymbolTableRecord
100
AcDbBlockTableRecord
  2
*D10
340
0
  0
BLOCK_RECORD
  5
2E65D
330
1
100
AcDbSymbolTableRecord
100
AcDbBlockTableRecord
  2
*D11
340
0
  0
BLOCK_RECORD
  5
2E669
330
1
100
AcDbSymbolTableRecord
100
AcDbBlockTableRecord
  2
*D12
340
0
  0
BLOCK_RECORD
  5
2E675
330
1
100
AcDbSymbolTableRecord
100
AcDbBlockTableRecord
  2
*D13
340
0
  0
BLOCK_RECORD
  5
2E681
330
1
100
AcDbSymbolTableRecord
100
AcDbBlockTableRecord
  2
*D14
340
0
  0
BLOCK_RECORD
  5
2E68D
330
1
100
AcDbSymbolTableRecord
100
AcDbBlockTableRecord
  2
*D15
340
0
  0
BLOCK_RECORD
  5
2E69C
330
1
100
AcDbSymbolTableRecord
100
AcDbBlockTableRecord
  2
*D16
340
0
  0
BLOCK_RECORD
  5
2E6A8
330
1
100
AcDbSymbolTableRecord
100
AcDbBlockTableRecord
  2
*D17
340
0
  0
BLOCK_RECORD
  5
2E6B4
330
1
100
AcDbSymbolTableRecord
100
AcDbBlockTableRecord
  2
*D18
340
0
  0
BLOCK_RECORD
  5
2E6C0
330
1
100
AcDbSymbolTableRecord
100
AcDbBlockTableRecord
  2
*U19
340
0
102
{BLKREFS
331
2E6B9
102
}
  0
BLOCK_RECORD
  5
2E6C5
330
1
100
AcDbSymbolTableRecord
100
AcDbBlockTableRecord
  2
*D20
340
0
  0
BLOCK_RECORD
  5
2E6D1
330
1
100
AcDbSymbolTableRecord
100
AcDbBlockTableRecord
  2
*D21
340
0
  0
BLOCK_RECORD
  5
2E6DD
330
1
100
AcDbSymbolTableRecord
100
AcDbBlockTableRecord
  2
*D22
340
0
  0
BLOCK_RECORD
  5
2E6EC
330
1
100
AcDbSymbolTableRecord
100
AcDbBlockTableRecord
  2
*D23
340
0
  0
BLOCK_RECORD
  5
2E6F8
330
1
100
AcDbSymbolTableRecord
100
AcDbBlockTableRecord
  2
*D24
340
0
  0
BLOCK_RECORD
  5
2E704
330
1
100
AcDbSymbolTableRecord
100
AcDbBlockTableRecord
  2
*D25
340
0
  0
BLOCK_RECORD
  5
2E710
330
1
100
AcDbSymbolTableRecord
100
AcDbBlockTableRecord
  2
*D26
340
0
  0
BLOCK_RECORD
  5
2E71D
330
1
100
AcDbSymbolTableRecord
100
AcDbBlockTableRecord
  2
*D27
340
0
  0
BLOCK_RECORD
  5
2E72A
330
1
100
AcDbSymbolTableRecord
100
AcDbBlockTableRecord
  2
*D28
340
0
  0
BLOCK_RECORD
  5
2E739
102
{ACAD_XDICTIONARY
360
2E73A
102
}
330
1
100
AcDbSymbolTableRecord
100
AcDbBlockTableRecord
  2
_Zeropoint.dwg
340
0
102
{BLKREFS
331
2E744
102
}
  0
BLOCK_RECORD
  5
2E742
330
1
100
AcDbSymbolTableRecord
100
AcDbBlockTableRecord
  2
_nullpunkt
340
0
102
{BLKREFS
331
2E9ED
102
}
1001
ACAD
1000
DesignCenter Data
1002
{
1070
     1
1070
     4
1002
}
  0
ENDTAB
  0
ENDSEC
  0
SECTION
  2
BLOCKS
  0
BLOCK
  5
32
330
18
100
AcDbEntity
  8
0
100
AcDbBlockBegin
  2
*MODEL_SPACE
 70
     0
 10
0.0
 20
0.0
 30
0.0
  3
*MODEL_SPACE
  1

  0
ENDBLK
  5
33
330
18
100
AcDbEntity
  8
0
100
AcDbBlockEnd
  0
BLOCK
  5
339
330
338
100
AcDbEntity
 67
     1
  8
0
100
AcDbBlockBegin
  2
*Paper_Space
 70
     0
 10
0.0
 20
0.0
 30
0.0
  3
*Paper_Space
  1

  0
ENDBLK
  5
33A
330
338
100
AcDbEntity
 67
     1
  8
0
100
AcDbBlockEnd
  0
BLOCK
  5
2E5F5
330
2E5F4
100
AcDbEntity
  8
0
100
AcDbBlockBegin
  2
$MODEL_SPACE
 70
     0
 10
0.0
 20
0.0
 30
0.0
  3
$MODEL_SPACE
  1

  0
ENDBLK
  5
2E5F6
330
2E5F4
100
AcDbEntity
  8
0
100
AcDbBlockEnd
  0
BLOCK
  5
2E5F8
330
2E5F7
100
AcDbEntity
  8
0
100
AcDbBlockBegin
  2
$PAPER_SPACE
 70
     0
 10
0.0
 20
0.0
 30
0.0
  3
$PAPER_SPACE
  1

  0
ENDBLK
  5
2E5F9
330
2E5F7
100
AcDbEntity
  8
0
100
AcDbBlockEnd
  0
BLOCK
  5
2E5FB
330
2E5FA
100
AcDbEntity
  8
0
100
AcDbBlockBegin
  2
IGES_214_02
 70
     0
 10
0.0
 20
0.0
 30
0.0
  3
IGES_214_02
  1

  0
LWPOLYLINE
  5
2E5FC
330
2E5FA
100
AcDbEntity
  8
0
100
AcDbPolyline
 90
        3
 70
     1
 43
0.0
 10
-1.0
 20
0.5
 10
0.0
 20
0.0
 10
-1.0
 20
-0.5
  0
LINE
  5
2E5FD
330
2E5FA
100
AcDbEntity
  8
0
100
AcDbLine
 10
0.0
 20
0.0
 30
0.0
 11
-1.0
 21
0.0
 31
0.0
  0
ENDBLK
  5
2E5FE
330
2E5FA
100
AcDbEntity
  8
0
100
AcDbBlockEnd
  0
BLOCK
  5
2E600
330
2E5FF
100
AcDbEntity
  8
0
100
AcDbBlockBegin
  2
*U3
 70
     1
 10
0.0
 20
0.0
 30
0.0
  3
*U3
  1
*IGES
  0
TEXT
  5
2E601
330
2E5FF
100
AcDbEntity
  8
20
100
AcDbText
 10
-5.383377999999997
 20
-25.852503
 30
0.0
 40
3.0
  1
22
 41
0.7379255882352938
  7
SANDVIK_STYLE
 72
     5
 11
-1.799168
 21
-25.852503
 31
0.0
100
AcDbText
  0
INSERT
  5
2E602
330
2E5FF
100
AcDbEntity
  8
20
100
AcDbBlockReference
  2
IGES_214_02
 10
-14.528773
 20
-27.35250300000001
 30
0.0
 41
3.0
 42
0.7899149999999999
 43
3.0
 50
180.0
  0
LINE
  5
2E603
330
2E5FF
100
AcDbEntity
  8
20
100
AcDbLine
 10
-11.52877299999999
 20
-27.35250300000001
 30
0.0
 11
-3.591273
 21
-27.35250300000001
 31
0.0
  0
INSERT
  5
2E604
330
2E5FF
100
AcDbEntity
  8
20
100
AcDbBlockReference
  2
IGES_214_02
 10
7.346226999999997
 20
-27.35250300000001
 30
0.0
 41
3.0
 42
0.7899149999999999
 43
3.0
  0
LINE
  5
2E605
330
2E5FF
100
AcDbEntity
  8
20
100
AcDbLine
 10
4.346226999999998
 20
-27.35250300000001
 30
0.0
 11
-3.591273
 21
-27.35250300000001
 31
0.0
  0
LINE
  5
2E606
330
2E5FF
100
AcDbEntity
  8
20
100
AcDbLine
 10
-14.528773
 20
-13.64417
 30
0.0
 11
-14.528773
 21
-30.352503
 31
0.0
  0
LINE
  5
2E607
330
2E5FF
100
AcDbEntity
  8
20
100
AcDbLine
 10
7.346226999999997
 20
-6.352502999999997
 30
0.0
 11
7.346226999999997
 21
-30.352503
 31
0.0
  0
ENDBLK
  5
2E608
330
2E5FF
100
AcDbEntity
  8
0
100
AcDbBlockEnd
  0
BLOCK
  5
2E60A
330
2E609
100
AcDbEntity
  8
0
100
AcDbBlockBegin
  2
*U4
 70
     1
 10
0.0
 20
0.0
 30
0.0
  3
*U4
  1
*IGES
  0
TEXT
  5
2E60B
330
2E609
100
AcDbEntity
  8
12
100
AcDbText
 10
-18.720878
 20
142.147497
 30
0.0
 40
3.0
  1
D=50
 41
0.724561358024692
  7
SANDVIK_STYLE
 72
     5
 11
-10.33666799999999
 21
142.147497
 31
0.0
100
AcDbText
  0
INSERT
  5
2E60C
330
2E609
100
AcDbEntity
  8
12
100
AcDbBlockReference
  2
IGES_214_02
 10
-39.528773
 20
140.6474969999999
 30
0.0
 41
3.0
 42
0.7899149999999999
 43
3.0
 50
180.0
  0
LINE
  5
2E60D
330
2E609
100
AcDbEntity
  8
12
100
AcDbLine
 10
-36.528773
 20
140.6474969999999
 30
0.0
 11
-14.528773
 21
140.6474969999999
 31
0.0
  0
INSERT
  5
2E60E
330
2E609
100
AcDbEntity
  8
12
100
AcDbBlockReference
  2
IGES_214_02
 10
10.471227
 20
140.6474969999999
 30
0.0
 41
3.0
 42
0.7899149999999999
 43
3.0
  0
LINE
  5
2E60F
330
2E609
100
AcDbEntity
  8
12
100
AcDbLine
 10
7.471226999999997
 20
140.6474969999999
 30
0.0
 11
-14.528773
 21
140.6474969999999
 31
0.0
  0
LINE
  5
2E610
330
2E609
100
AcDbEntity
  8
12
100
AcDbLine
 10
-39.528773
 20
106.647497
 30
0.0
 11
-39.528773
 21
143.6474969999999
 31
0.0
  0
LINE
  5
2E611
330
2E609
100
AcDbEntity
  8
12
100
AcDbLine
 10
10.471227
 20
106.647497
 30
0.0
 11
10.471227
 21
143.6474969999999
 31
0.0
  0
ENDBLK
  5
2E612
330
2E609
100
AcDbEntity
  8
0
100
AcDbBlockEnd
  0
BLOCK
  5
2E614
330
2E613
100
AcDbEntity
  8
0
100
AcDbBlockBegin
  2
*U5
 70
     1
 10
0.0
 20
0.0
 30
0.0
  3
*U5
  1
*IGES
  0
TEXT
  5
2E615
330
2E613
100
AcDbEntity
  8
12
100
AcDbText
 10
-19.653773
 20
44.850661
 30
0.0
 40
3.0
  1
%%c32.0
 41
0.8396004939759039
  7
SANDVIK_STYLE
 72
     5
 11
-9.69851
 21
44.850661
 31
0.0
100
AcDbText
  0
INSERT
  5
2E616
330
2E613
100
AcDbEntity
  8
12
100
AcDbBlockReference
  2
IGES_214_02
 10
-30.528773
 20
43.35066099999997
 30
0.0
 41
3.0
 42
0.7899149999999999
 43
3.0
 50
180.0
  0
LINE
  5
2E617
330
2E613
100
AcDbEntity
  8
12
100
AcDbLine
 10
-27.52877299999999
 20
43.35066099999997
 30
0.0
 11
-14.528773
 21
43.35066099999997
 31
0.0
  0
INSERT
  5
2E618
330
2E613
100
AcDbEntity
  8
12
100
AcDbBlockReference
  2
IGES_214_02
 10
1.471227
 20
43.35066099999997
 30
0.0
 41
3.0
 42
0.7899149999999999
 43
3.0
  0
LINE
  5
2E619
330
2E613
100
AcDbEntity
  8
12
100
AcDbLine
 10
-1.528772999999999
 20
43.35066099999997
 30
0.0
 11
-14.528773
 21
43.35066099999997
 31
0.0
  0
LINE
  5
2E61A
330
2E613
100
AcDbEntity
  8
12
100
AcDbLine
 10
-30.528773
 20
81.73595400000001
 30
0.0
 11
-30.528773
 21
40.35066099999997
 31
0.0
  0
LINE
  5
2E61B
330
2E613
100
AcDbEntity
  8
12
100
AcDbLine
 10
1.471227
 20
81.73595400000001
 30
0.0
 11
1.471227
 21
40.35066099999997
 31
0.0
  0
ENDBLK
  5
2E61C
330
2E613
100
AcDbEntity
  8
0
100
AcDbBlockEnd
  0
BLOCK
  5
2E61E
330
2E61D
100
AcDbEntity
  8
0
100
AcDbBlockBegin
  2
*U6
 70
     1
 10
0.0
 20
0.0
 30
0.0
  3
*U6
  1
*IGES
  0
TEXT
  5
2E61F
330
2E61D
100
AcDbEntity
  8
20
100
AcDbText
 10
27.346227
 20
46.255392
 30
0.0
 40
3.0
  1
110.0
 50
90.0
 41
0.7169667105263161
  7
SANDVIK_STYLE
 72
     5
 11
27.346227
 21
54.039602
 31
0.0
100
AcDbText
  0
INSERT
  5
2E620
330
2E61D
100
AcDbEntity
  8
20
100
AcDbBlockReference
  2
IGES_214_02
 10
28.846227
 20
105.147497
 30
0.0
 41
3.0
 42
0.7899149999999999
 43
3.0
 50
90.0
  0
LINE
  5
2E621
330
2E61D
100
AcDbEntity
  8
20
100
AcDbLine
 10
28.846227
 20
102.147497
 30
0.0
 11
28.846227
 21
50.14749699999999
 31
0.0
  0
INSERT
  5
2E622
330
2E61D
100
AcDbEntity
  8
20
100
AcDbBlockReference
  2
IGES_214_02
 10
28.846227
 20
-4.852502999999996
 30
0.0
 41
3.0
 42
0.7899149999999999
 43
3.0
 50
270.0
  0
LINE
  5
2E623
330
2E61D
100
AcDbEntity
  8
20
100
AcDbLine
 10
28.846227
 20
-1.852502999999995
 30
0.0
 11
28.846227
 21
50.14749699999999
 31
0.0
  0
LINE
  5
2E624
330
2E61D
100
AcDbEntity
  8
20
100
AcDbLine
 10
11.971227
 20
105.147497
 30
0.0
 11
31.846227
 21
105.147497
 31
0.0
  0
LINE
  5
2E625
330
2E61D
100
AcDbEntity
  8
20
100
AcDbLine
 10
8.846227
 20
-4.852502999999996
 30
0.0
 11
31.846227
 21
-4.852502999999996
 31
0.0
  0
ENDBLK
  5
2E626
330
2E61D
100
AcDbEntity
  8
0
100
AcDbBlockEnd
  0
BLOCK
  5
2E628
330
2E627
100
AcDbEntity
  8
0
100
AcDbBlockBegin
  2
*U7
 70
     1
 10
0.0
 20
0.0
 30
0.0
  3
*U7
  1
*IGES
  0
TEXT
  5
2E629
330
2E627
100
AcDbEntity
  8
12
100
AcDbText
 10
17.346227
 20
36.045673
 30
0.0
 40
3.0
  1
88.1
 50
90.0
 41
0.8008133636363634
  7
SANDVIK_STYLE
 72
     5
 11
17.346227
 21
42.337778
 31
0.0
100
AcDbText
  0
INSERT
  5
2E62A
330
2E627
100
AcDbEntity
  8
12
100
AcDbBlockReference
  2
IGES_214_02
 10
18.84622699999999
 20
83.235954
 30
0.0
 41
3.0
 42
0.7899149999999999
 43
3.0
 50
90.0
  0
LINE
  5
2E62B
330
2E627
100
AcDbEntity
  8
12
100
AcDbLine
 10
18.84622699999999
 20
80.23595400000003
 30
0.0
 11
18.84622699999999
 21
39.191726
 31
0.0
  0
INSERT
  5
2E62C
330
2E627
100
AcDbEntity
  8
12
100
AcDbBlockReference
  2
IGES_214_02
 10
18.84622699999999
 20
-4.852502999999996
 30
0.0
 41
3.0
 42
0.7899149999999999
 43
3.0
 50
270.0
  0
LINE
  5
2E62D
330
2E627
100
AcDbEntity
  8
12
100
AcDbLine
 10
18.84622699999999
 20
-1.852502999999995
 30
0.0
 11
18.84622699999999
 21
39.191726
 31
0.0
  0
LINE
  5
2E62E
330
2E627
100
AcDbEntity
  8
12
100
AcDbLine
 10
2.971226999999998
 20
83.235954
 30
0.0
 11
21.84622699999999
 21
83.235954
 31
0.0
  0
LINE
  5
2E62F
330
2E627
100
AcDbEntity
  8
12
100
AcDbLine
 10
8.846227
 20
-4.852502999999996
 30
0.0
 11
21.84622699999999
 21
-4.852502999999996
 31
0.0
  0
ENDBLK
  5
2E630
330
2E627
100
AcDbEntity
  8
0
100
AcDbBlockEnd
  0
BLOCK
  5
2E632
330
2E631
100
AcDbEntity
  8
0
100
AcDbBlockBegin
  2
*U8
 70
     1
 10
0.0
 20
0.0
 30
0.0
  3
*U8
  1
*IGES
  0
TEXT
  5
2E633
330
2E631
100
AcDbEntity
  8
20
100
AcDbText
 10
-35.33751099999999
 20
-19.35182
 30
0.0
 40
3.0
  1
91%%d0'
 50
314.4999999313378
 41
0.8423444748790746
  7
SANDVIK_STYLE
 72
     5
 11
-29.77081599999999
 21
-25.01653
 31
0.0
100
AcDbText
  0
INSERT
  5
2E634
330
2E631
100
AcDbEntity
  8
20
100
AcDbBlockReference
  2
IGES_214_02
 10
-41.296871
 20
-4.003434999999996
 30
0.0
 41
3.0
 42
0.7899149999999999
 43
3.0
 50
92.210187
  0
ARC
  5
2E635
330
2E631
100
AcDbEntity
  8
20
100
AcDbCircle
 10
-14.528773
 20
-4.470673999999998
 30
0.0
 40
26.772175
100
AcDbArc
 50
185.420373
 51
224.5
  0
INSERT
  5
2E636
330
2E631
100
AcDbEntity
  8
20
100
AcDbBlockReference
  2
IGES_214_02
 10
-14.528773
 20
-31.242849
 30
0.0
 41
3.0
 42
0.7899149999999999
 43
3.0
 50
356.789814
  0
ARC
  5
2E637
330
2E631
100
AcDbEntity
  8
20
100
AcDbCircle
 10
-14.528773
 20
-4.470673999999998
 30
0.0
 40
26.772175
100
AcDbArc
 50
224.5
 51
263.579627
  0
LINE
  5
2E638
330
2E631
100
AcDbEntity
  8
20
100
AcDbLine
 10
-16.153545
 20
-4.442312999999998
 30
0.0
 11
-44.296414
 21
-3.951076999999998
 31
0.0
  0
LINE
  5
2E639
330
2E631
100
AcDbEntity
  8
20
100
AcDbLine
 10
-14.528773
 20
-13.64417
 30
0.0
 11
-14.528773
 21
-34.24284899999999
 31
0.0
  0
ENDBLK
  5
2E63A
330
2E631
100
AcDbEntity
  8
0
100
AcDbBlockEnd
  0
BLOCK
  5
2E63C
330
2E63B
100
AcDbEntity
  8
0
100
AcDbBlockBegin
  2
DVIEWBLOCK
 70
     0
 10
0.0
 20
0.0
 30
0.0
  3
DVIEWBLOCK
  1

  0
3DFACE
  5
2E63D
330
2E63B
100
AcDbEntity
  8
IGES
100
AcDbFace
 10
0.1
 20
0.1
 30
0.0
 11
0.9
 21
0.1
 31
0.0
 12
0.9
 22
0.9
 32
0.0
 13
0.1
 23
0.9
 33
0.0
  0
3DFACE
  5
2E63E
330
2E63B
100
AcDbEntity
  8
IGES
100
AcDbFace
 10
0.1
 20
0.1
 30
0.0
 11
0.1
 21
0.1
 31
0.595
 12
0.2
 22
0.1
 32
0.4
 13
0.2
 23
0.1
 33
0.0
 70
    10
  0
3DFACE
  5
2E63F
330
2E63B
100
AcDbEntity
  8
IGES
100
AcDbFace
 10
0.2
 20
0.1
 30
0.4
 11
0.1
 21
0.1
 31
0.595
 12
0.9
 22
0.1
 32
0.595
 13
0.4
 23
0.1
 33
0.4
 70
     5
  0
3DFACE
  5
2E640
330
2E63B
100
AcDbEntity
  8
IGES
100
AcDbFace
 10
0.4
 20
0.1
 30
0.0
 11
0.4
 21
0.1
 31
0.4
 12
0.9
 22
0.1
 32
0.595
 13
0.9
 23
0.1
 33
0.0
 70
    14
  0
3DFACE
  5
2E641
330
2E63B
100
AcDbEntity
  8
IGES
100
AcDbFace
 10
0.2
 20
0.1
 30
0.005
 11
0.2
 21
0.1
 31
0.4
 12
0.34
 22
0.24
 32
0.4
 13
0.34
 23
0.24
 33
0.005
 70
     1
  0
3DFACE
  5
2E642
330
2E63B
100
AcDbEntity
  8
IGES
100
AcDbFace
 10
0.9
 20
0.1
 30
0.0
 11
0.9
 21
0.1
 31
0.595
 12
0.9
 22
0.5
 32
0.9949999999999999
 13
0.9
 23
0.3
 33
0.4
 70
    12
  0
3DFACE
  5
2E643
330
2E63B
100
AcDbEntity
  8
IGES
100
AcDbFace
 10
0.9
 20
0.3
 30
0.4
 11
0.9
 21
0.5
 31
0.9949999999999999
 12
0.9
 22
0.9
 32
0.595
 13
0.9
 23
0.7
 33
0.4
 70
     5
  0
3DFACE
  5
2E644
330
2E63B
100
AcDbEntity
  8
IGES
100
AcDbFace
 10
0.9
 20
0.7
 30
0.4
 11
0.9
 21
0.9
 31
0.595
 12
0.9
 22
0.9
 32
0.0
 13
0.9
 23
0.7
 33
0.2
 70
     7
  0
3DFACE
  5
2E645
330
2E63B
100
AcDbEntity
  8
IGES
100
AcDbFace
 10
0.9
 20
0.7
 30
0.2
 11
0.9
 21
0.9
 31
0.0
 12
0.9
 22
0.1
 32
0.0
 13
0.9
 23
0.3
 33
0.2
 70
     7
  0
3DFACE
  5
2E646
330
2E63B
100
AcDbEntity
  8
IGES
100
AcDbFace
 10
0.9
 20
0.3
 30
0.2
 11
0.9
 21
0.3
 31
0.2
 12
0.9
 22
0.1
 32
0.0
 13
0.9
 23
0.3
 33
0.4
 70
     7
  0
3DFACE
  5
2E647
330
2E63B
100
AcDbEntity
  8
IGES
100
AcDbFace
 10
0.9
 20
0.9
 30
0.0
 11
0.9
 21
0.9
 31
0.595
 12
0.1
 22
0.9
 32
0.595
 13
0.1
 23
0.9
 33
0.0
 70
    12
  0
3DFACE
  5
2E648
330
2E63B
100
AcDbEntity
  8
IGES
100
AcDbFace
 10
0.1
 20
0.9
 30
0.0
 11
0.1
 21
0.9
 31
0.595
 12
0.1
 22
0.5
 32
0.9949999999999999
 13
0.1
 23
0.5
 33
0.0
 70
    12
  0
3DFACE
  5
2E649
330
2E63B
100
AcDbEntity
  8
IGES
100
AcDbFace
 10
0.1
 20
0.5
 30
0.0
 11
0.1
 21
0.5
 31
0.9949999999999999
 12
0.1
 22
0.1
 32
0.595
 13
0.1
 23
0.1
 33
0.0
 70
    13
  0
3DFACE
  5
2E64A
330
2E63B
100
AcDbEntity
  8
IGES
100
AcDbFace
 10
0.2
 20
0.6
 30
0.9
 11
0.2
 21
0.6
 31
1.0
 12
0.3
 22
0.6
 32
1.0
 13
0.3
 23
0.6
 33
0.9
 70
     4
  0
3DFACE
  5
2E64B
330
2E63B
100
AcDbEntity
  8
IGES
100
AcDbFace
 10
0.3
 20
0.6
 30
0.9
 11
0.3
 21
0.6
 31
1.0
 12
0.3
 22
0.7
 32
1.0
 13
0.3
 23
0.7
 33
0.8
 70
     4
  0
3DFACE
  5
2E64C
330
2E63B
100
AcDbEntity
  8
IGES
100
AcDbFace
 10
0.3
 20
0.7
 30
0.8
 11
0.3
 21
0.7
 31
1.0
 12
0.2
 22
0.7
 32
1.0
 13
0.2
 23
0.7
 33
0.8
 70
     4
  0
3DFACE
  5
2E64D
330
2E63B
100
AcDbEntity
  8
IGES
100
AcDbFace
 10
0.2
 20
0.7
 30
0.8
 11
0.2
 21
0.7
 31
1.0
 12
0.2
 22
0.6
 32
1.0
 13
0.2
 23
0.6
 33
0.9
 70
     4
  0
3DFACE
  5
2E64E
330
2E63B
100
AcDbEntity
  8
IGES
100
AcDbFace
 10
0.0
 20
0.0
 30
0.5
 11
1.0
 21
0.0
 31
0.5
 12
1.0
 22
0.5
 32
1.0
 13
0.0
 23
0.5
 33
1.0
  0
3DFACE
  5
2E64F
330
2E63B
100
AcDbEntity
  8
IGES
100
AcDbFace
 10
0.0
 20
0.5
 30
1.0
 11
1.0
 21
0.5
 31
1.0
 12
1.0
 22
1.0
 32
0.5
 13
0.0
 23
1.0
 33
0.5
 70
     1
  0
ENDBLK
  5
2E650
330
2E63B
100
AcDbEntity
  8
0
100
AcDbBlockEnd
  0
BLOCK
  5
2E652
330
2E651
100
AcDbEntity
  8
0
100
AcDbBlockBegin
  2
*D10
 70
     1
 10
0.0
 20
0.0
 30
0.0
  3
*D10
  1

  0
LINE
  5
2E653
330
2E651
100
AcDbEntity
  8
0
100
AcDbLine
 10
-14.528773
 20
-14.64417
 30
0.0
 11
-14.528773
 21
-29.852503
 31
0.0
  0
LINE
  5
2E654
330
2E651
100
AcDbEntity
  8
0
100
AcDbLine
 10
7.346226999999997
 20
-7.352502999999997
 30
0.0
 11
7.346226999999997
 21
-29.852503
 31
0.0
  0
LINE
  5
2E655
330
2E651
100
AcDbEntity
  8
0
100
AcDbLine
 10
-11.52877299999999
 20
-27.35250300000001
 30
0.0
 11
4.346226999999998
 21
-27.35250300000001
 31
0.0
  0
SOLID
  5
2E656
330
2E651
100
AcDbEntity
  8
0
100
AcDbTrace
 10
-11.52877299999999
 20
-26.852503
 30
0.0
 11
-11.52877299999999
 21
-27.852503
 31
0.0
 12
-14.528773
 22
-27.35250300000001
 32
0.0
 13
-14.528773
 23
-27.35250300000001
 33
0.0
  0
SOLID
  5
2E657
330
2E651
100
AcDbEntity
  8
0
100
AcDbTrace
 10
4.346226999999998
 20
-26.852503
 30
0.0
 11
4.346226999999998
 21
-27.852503
 31
0.0
 12
7.346226999999997
 22
-27.35250300000001
 32
0.0
 13
7.346226999999997
 23
-27.35250300000001
 33
0.0
  0
TEXT
  5
2E658
330
2E651
100
AcDbEntity
  8
0
100
AcDbText
 10
-6.019844428571428
 20
-25.85250299999999
 30
0.0
 40
3.0
  1
22
  7
SANDVIK_STYLE
 72
     1
 11
-3.591273
 21
-24.35250299999999
 31
0.0
100
AcDbText
 73
     2
  0
POINT
  5
2E659
330
2E651
100
AcDbEntity
  8
DEFPOINTS
100
AcDbPoint
 10
-14.528773
 20
-12.14417
 30
0.0
  0
POINT
  5
2E65A
330
2E651
100
AcDbEntity
  8
DEFPOINTS
100
AcDbPoint
 10
7.346226999999997
 20
-4.852502999999996
 30
0.0
  0
POINT
  5
2E65B
330
2E651
100
AcDbEntity
  8
DEFPOINTS
100
AcDbPoint
 10
7.346226999999997
 20
-27.35250300000001
 30
0.0
  0
ENDBLK
  5
2E65C
330
2E651
100
AcDbEntity
  8
0
100
AcDbBlockEnd
  0
BLOCK
  5
2E65E
330
2E65D
100
AcDbEntity
  8
0
100
AcDbBlockBegin
  2
*D11
 70
     1
 10
0.0
 20
0.0
 30
0.0
  3
*D11
  1

  0
LINE
  5
2E65F
330
2E65D
100
AcDbEntity
  8
0
100
AcDbLine
 10
-39.528773
 20
107.647497
 30
0.0
 11
-39.528773
 21
143.1474969999999
 31
0.0
  0
LINE
  5
2E660
330
2E65D
100
AcDbEntity
  8
0
100
AcDbLine
 10
10.471227
 20
107.647497
 30
0.0
 11
10.471227
 21
143.1474969999999
 31
0.0
  0
LINE
  5
2E661
330
2E65D
100
AcDbEntity
  8
0
100
AcDbLine
 10
-36.528773
 20
140.6474969999999
 30
0.0
 11
7.471226999999997
 21
140.6474969999999
 31
0.0
  0
SOLID
  5
2E662
330
2E65D
100
AcDbEntity
  8
0
100
AcDbTrace
 10
-36.528773
 20
141.1474969999999
 30
0.0
 11
-36.528773
 21
140.1474969999999
 31
0.0
 12
-39.528773
 22
140.6474969999999
 32
0.0
 13
-39.528773
 23
140.6474969999999
 33
0.0
  0
SOLID
  5
2E663
330
2E65D
100
AcDbEntity
  8
0
100
AcDbTrace
 10
7.471226999999997
 20
141.1474969999999
 30
0.0
 11
7.471226999999997
 21
140.1474969999999
 31
0.0
 12
10.471227
 22
140.6474969999999
 32
0.0
 13
10.471227
 23
140.6474969999999
 33
0.0
  0
TEXT
  5
2E664
330
2E65D
100
AcDbEntity
  8
0
100
AcDbText
 10
-20.31448728571429
 20
142.1474969999999
 30
0.0
 40
3.0
  1
D=50
  7
SANDVIK_STYLE
 72
     1
 11
-14.528773
 21
143.6474969999999
 31
0.0
100
AcDbText
 73
     2
  0
POINT
  5
2E665
330
2E65D
100
AcDbEntity
  8
DEFPOINTS
100
AcDbPoint
 10
-39.528773
 20
105.147497
 30
0.0
  0
POINT
  5
2E666
330
2E65D
100
AcDbEntity
  8
DEFPOINTS
100
AcDbPoint
 10
10.471227
 20
105.147497
 30
0.0
  0
POINT
  5
2E667
330
2E65D
100
AcDbEntity
  8
DEFPOINTS
100
AcDbPoint
 10
10.471227
 20
140.6474969999999
 30
0.0
  0
ENDBLK
  5
2E668
330
2E65D
100
AcDbEntity
  8
0
100
AcDbBlockEnd
  0
BLOCK
  5
2E66A
330
2E669
100
AcDbEntity
  8
0
100
AcDbBlockBegin
  2
*D12
 70
     1
 10
0.0
 20
0.0
 30
0.0
  3
*D12
  1

  0
LINE
  5
2E66B
330
2E669
100
AcDbEntity
  8
0
100
AcDbLine
 10
-30.528773
 20
80.735954
 30
0.0
 11
-30.528773
 21
40.85066099999997
 31
0.0
  0
LINE
  5
2E66C
330
2E669
100
AcDbEntity
  8
0
100
AcDbLine
 10
1.471227
 20
80.735954
 30
0.0
 11
1.471227
 21
40.85066099999997
 31
0.0
  0
LINE
  5
2E66D
330
2E669
100
AcDbEntity
  8
0
100
AcDbLine
 10
-27.52877299999999
 20
43.35066099999997
 30
0.0
 11
-1.528772999999999
 21
43.35066099999997
 31
0.0
  0
SOLID
  5
2E66E
330
2E669
100
AcDbEntity
  8
0
100
AcDbTrace
 10
-27.52877299999999
 20
43.85066099999998
 30
0.0
 11
-27.52877299999999
 21
42.85066099999997
 31
0.0
 12
-30.528773
 22
43.35066099999997
 32
0.0
 13
-30.528773
 23
43.35066099999997
 33
0.0
  0
SOLID
  5
2E66F
330
2E669
100
AcDbEntity
  8
0
100
AcDbTrace
 10
-1.528772999999999
 20
43.85066099999998
 30
0.0
 11
-1.528772999999999
 21
42.85066099999997
 31
0.0
 12
1.471227
 22
43.35066099999997
 32
0.0
 13
1.471227
 23
43.35066099999997
 33
0.0
  0
TEXT
  5
2E670
330
2E669
100
AcDbEntity
  8
0
100
AcDbText
 10
-20.60471242857143
 20
44.85066099999998
 30
0.0
 40
3.0
  1
%%c32.0
  7
SANDVIK_STYLE
 72
     1
 11
-14.676141
 21
46.35066099999998
 31
0.0
100
AcDbText
 73
     2
  0
POINT
  5
2E671
330
2E669
100
AcDbEntity
  8
DEFPOINTS
100
AcDbPoint
 10
-30.528773
 20
83.235954
 30
0.0
  0
POINT
  5
2E672
330
2E669
100
AcDbEntity
  8
DEFPOINTS
100
AcDbPoint
 10
1.471227
 20
83.235954
 30
0.0
  0
POINT
  5
2E673
330
2E669
100
AcDbEntity
  8
DEFPOINTS
100
AcDbPoint
 10
1.471227
 20
43.35066099999997
 30
0.0
  0
ENDBLK
  5
2E674
330
2E669
100
AcDbEntity
  8
0
100
AcDbBlockEnd
  0
BLOCK
  5
2E676
330
2E675
100
AcDbEntity
  8
0
100
AcDbBlockBegin
  2
*D13
 70
     1
 10
0.0
 20
0.0
 30
0.0
  3
*D13
  1

  0
LINE
  5
2E677
330
2E675
100
AcDbEntity
  8
0
100
AcDbLine
 10
12.971227
 20
105.147497
 30
0.0
 11
31.346227
 21
105.147497
 31
0.0
  0
LINE
  5
2E678
330
2E675
100
AcDbEntity
  8
0
100
AcDbLine
 10
9.846227
 20
-4.852502999999996
 30
0.0
 11
31.346227
 21
-4.852502999999996
 31
0.0
  0
LINE
  5
2E679
330
2E675
100
AcDbEntity
  8
0
100
AcDbLine
 10
28.846227
 20
102.147497
 30
0.0
 11
28.846227
 21
-1.852502999999995
 31
0.0
  0
SOLID
  5
2E67A
330
2E675
100
AcDbEntity
  8
0
100
AcDbTrace
 10
28.346227
 20
102.147497
 30
0.0
 11
29.346227
 21
102.147497
 31
0.0
 12
28.846227
 22
105.147497
 32
0.0
 13
28.846227
 23
105.147497
 33
0.0
  0
SOLID
  5
2E67B
330
2E675
100
AcDbEntity
  8
0
100
AcDbTrace
 10
28.346227
 20
-1.852502999999995
 30
0.0
 11
29.346227
 21
-1.852502999999995
 31
0.0
 12
28.846227
 22
-4.852502999999996
 32
0.0
 13
28.846227
 23
-4.852502999999996
 33
0.0
  0
TEXT
  5
2E67C
330
2E675
100
AcDbEntity
  8
0
100
AcDbText
 10
27.34622681050711
 20
44.71892551906868
 30
0.0
 40
3.0
  1
110.0
 50
89.99999800000002
  7
SANDVIK_STYLE
 72
     1
 11
25.846227
 21
50.14749699999999
 31
0.0
100
AcDbText
 73
     2
  0
POINT
  5
2E67D
330
2E675
100
AcDbEntity
  8
DEFPOINTS
100
AcDbPoint
 10
10.471227
 20
105.147497
 30
0.0
  0
POINT
  5
2E67E
330
2E675
100
AcDbEntity
  8
DEFPOINTS
100
AcDbPoint
 10
7.346226999999997
 20
-4.852502999999996
 30
0.0
  0
POINT
  5
2E67F
330
2E675
100
AcDbEntity
  8
DEFPOINTS
100
AcDbPoint
 10
28.846227
 20
-4.852502999999996
 30
0.0
  0
ENDBLK
  5
2E680
330
2E675
100
AcDbEntity
  8
0
100
AcDbBlockEnd
  0
BLOCK
  5
2E682
330
2E681
100
AcDbEntity
  8
0
100
AcDbBlockBegin
  2
*D14
 70
     1
 10
0.0
 20
0.0
 30
0.0
  3
*D14
  1

  0
LINE
  5
2E683
330
2E681
100
AcDbEntity
  8
0
100
AcDbLine
 10
3.971226999999998
 20
83.235954
 30
0.0
 11
21.34622699999999
 21
83.235954
 31
0.0
  0
LINE
  5
2E684
330
2E681
100
AcDbEntity
  8
0
100
AcDbLine
 10
9.846227
 20
-4.852502999999996
 30
0.0
 11
21.34622699999999
 21
-4.852502999999996
 31
0.0
  0
LINE
  5
2E685
330
2E681
100
AcDbEntity
  8
0
100
AcDbLine
 10
18.84622699999999
 20
80.23595400000003
 30
0.0
 11
18.84622699999999
 21
-1.852502999999995
 31
0.0
  0
SOLID
  5
2E686
330
2E681
100
AcDbEntity
  8
0
100
AcDbTrace
 10
18.34622699999999
 20
80.23595400000003
 30
0.0
 11
19.346227
 21
80.23595400000003
 31
0.0
 12
18.84622699999999
 22
83.235954
 32
0.0
 13
18.84622699999999
 23
83.235954
 33
0.0
  0
SOLID
  5
2E687
330
2E681
100
AcDbEntity
  8
0
100
AcDbTrace
 10
18.34622699999999
 20
-1.852502999999995
 30
0.0
 11
19.346227
 21
-1.852502999999995
 31
0.0
 12
18.84622699999999
 22
-4.852502999999996
 32
0.0
 13
18.84622699999999
 23
-4.852502999999996
 33
0.0
  0
TEXT
  5
2E688
330
2E681
100
AcDbEntity
  8
0
100
AcDbText
 10
17.34622686286698
 20
35.2631545190687
 30
0.0
 40
3.0
  1
88.1
 50
89.99999800000002
  7
SANDVIK_STYLE
 72
     1
 11
15.84622699999999
 21
39.191726
 31
0.0
100
AcDbText
 73
     2
  0
POINT
  5
2E689
330
2E681
100
AcDbEntity
  8
DEFPOINTS
100
AcDbPoint
 10
1.471227
 20
83.235954
 30
0.0
  0
POINT
  5
2E68A
330
2E681
100
AcDbEntity
  8
DEFPOINTS
100
AcDbPoint
 10
7.346226999999997
 20
-4.852502999999996
 30
0.0
  0
POINT
  5
2E68B
330
2E681
100
AcDbEntity
  8
DEFPOINTS
100
AcDbPoint
 10
18.84622699999999
 20
-4.852502999999996
 30
0.0
  0
ENDBLK
  5
2E68C
330
2E681
100
AcDbEntity
  8
0
100
AcDbBlockEnd
  0
BLOCK
  5
2E68E
330
2E68D
100
AcDbEntity
  8
0
100
AcDbBlockBegin
  2
*D15
 70
     1
 10
0.0
 20
0.0
 30
0.0
  3
*D15
  1

  0
LINE
  5
2E68F
330
2E68D
100
AcDbEntity
  8
0
100
AcDbLine
 10
-17.153392
 20
-4.424859999999998
 30
0.0
 11
-43.79648999999999
 21
-3.959799999999998
 31
0.0
  0
LINE
  5
2E690
330
2E68D
100
AcDbEntity
  8
0
100
AcDbLine
 10
-14.528773
 20
-14.64417
 30
0.0
 11
-14.528773
 21
-33.742849
 31
0.0
  0
ARC
  5
2E691
330
2E68D
100
AcDbEntity
  8
0
100
AcDbCircle
 10
-14.528773
 20
-4.470673999999998
 30
0.0
 40
26.772175
100
AcDbArc
 50
185.423729
 51
212.957122
  0
ARC
  5
2E692
330
2E68D
100
AcDbEntity
  8
0
100
AcDbCircle
 10
-14.528773
 20
-4.470673999999998
 30
0.0
 40
26.772175
100
AcDbArc
 50
236.0428699999999
 51
263.576264
  0
SOLID
  5
2E693
330
2E68D
100
AcDbEntity
  8
0
100
AcDbTrace
 10
-41.680714
 20
-7.020492999999999
 30
0.0
 11
-40.681459
 21
-6.981899
 31
0.0
 12
-41.29686999999999
 22
-4.003430999999999
 32
0.0
 13
-41.29686999999999
 23
-4.003430999999999
 33
0.0
  0
SOLID
  5
2E694
330
2E68D
100
AcDbEntity
  8
0
100
AcDbTrace
 10
-17.496046
 20
-30.57554899999999
 30
0.0
 11
-17.552075
 21
-31.573978
 31
0.0
 12
-14.528773
 22
-31.242849
 32
0.0
 13
-14.528773
 23
-31.242849
 33
0.0
  0
TEXT
  5
2E695
330
2E68D
100
AcDbEntity
  8
0
100
AcDbText
 10
-37.99820220543058
 20
-20.92443549329435
 30
0.0
 40
3.0
  1
91%%d0'
 50
314.5
  7
SANDVIK_STYLE
 72
     1
 11
-33.62404
 21
-23.235538
 31
0.0
100
AcDbText
 73
     2
  0
POINT
  5
2E696
330
2E68D
100
AcDbEntity
  8
DEFPOINTS
100
AcDbPoint
 10
-14.529773
 20
-31.242849
 30
0.0
  0
POINT
  5
2E697
330
2E68D
100
AcDbEntity
  8
DEFPOINTS
100
AcDbPoint
 10
-14.528773
 20
-4.470673999999998
 30
-2.075718
  0
POINT
  5
2E698
330
2E68D
100
AcDbEntity
  8
DEFPOINTS
100
AcDbPoint
 10
-14.528773
 20
-12.14417
 30
-2.075718
  0
POINT
  5
2E699
330
2E68D
100
AcDbEntity
  8
DEFPOINTS
100
AcDbPoint
 10
-14.528773
 20
-4.470673999999998
 30
-2.075718
  0
POINT
  5
2E69A
330
2E68D
100
AcDbEntity
  8
DEFPOINTS
100
AcDbPoint
 10
-14.653773
 20
-4.468491999999998
 30
-2.075718
  0
ENDBLK
  5
2E69B
330
2E68D
100
AcDbEntity
  8
0
100
AcDbBlockEnd
  0
BLOCK
  5
2E69D
330
2E69C
100
AcDbEntity
  8
0
100
AcDbBlockBegin
  2
*D16
 70
     1
 10
0.0
 20
0.0
 30
0.0
  3
*D16
  1

  0
LINE
  5
2E69E
330
2E69C
100
AcDbEntity
  8
20
100
AcDbLine
 10
-14.528773
 20
-14.64417
 30
0.0
 11
-14.528773
 21
-29.852503
 31
0.0
  0
LINE
  5
2E69F
330
2E69C
100
AcDbEntity
  8
20
100
AcDbLine
 10
7.346226999999997
 20
-7.352502999999997
 30
0.0
 11
7.346226999999997
 21
-29.852503
 31
0.0
  0
LINE
  5
2E6A0
330
2E69C
100
AcDbEntity
  8
20
100
AcDbLine
 10
-11.528773
 20
-27.35250300000001
 30
0.0
 11
4.346226999999998
 21
-27.35250300000001
 31
0.0
  0
TEXT
  5
2E6A1
330
2E69C
100
AcDbEntity
  8
1
100
AcDbText
 10
-6.019844428571428
 20
-25.852503
 30
0.0
 40
3.0
  1
22
  7
TDM_STYLE
100
AcDbText
  0
SOLID
  5
2E6A2
330
2E69C
100
AcDbEntity
  8
20
100
AcDbTrace
 10
-11.528773
 20
-26.852503
 30
0.0
 11
-11.528773
 21
-27.852503
 31
0.0
 12
-14.528773
 22
-27.35250300000001
 32
0.0
 13
-14.528773
 23
-27.35250300000001
 33
0.0
  0
SOLID
  5
2E6A3
330
2E69C
100
AcDbEntity
  8
20
100
AcDbTrace
 10
4.346226999999998
 20
-26.852503
 30
0.0
 11
4.346226999999998
 21
-27.852503
 31
0.0
 12
7.346226999999997
 22
-27.35250300000001
 32
0.0
 13
7.346226999999997
 23
-27.35250300000001
 33
0.0
  0
POINT
  5
2E6A4
330
2E69C
100
AcDbEntity
  8
DEFPOINTS
 62
     0
100
AcDbPoint
 10
-14.528773
 20
-12.14417
 30
0.0
  0
POINT
  5
2E6A5
330
2E69C
100
AcDbEntity
  8
DEFPOINTS
 62
     0
100
AcDbPoint
 10
7.346226999999997
 20
-4.852502999999996
 30
0.0
  0
POINT
  5
2E6A6
330
2E69C
100
AcDbEntity
  8
DEFPOINTS
 62
     0
100
AcDbPoint
 10
7.346226999999997
 20
-27.35250300000001
 30
0.0
  0
ENDBLK
  5
2E6A7
330
2E69C
100
AcDbEntity
  8
0
100
AcDbBlockEnd
  0
BLOCK
  5
2E6A9
330
2E6A8
100
AcDbEntity
  8
0
100
AcDbBlockBegin
  2
*D17
 70
     1
 10
0.0
 20
0.0
 30
0.0
  3
*D17
  1

  0
LINE
  5
2E6AA
330
2E6A8
100
AcDbEntity
  8
12
100
AcDbLine
 10
-39.528773
 20
107.647497
 30
0.0
 11
-39.528773
 21
143.1474969999999
 31
0.0
  0
LINE
  5
2E6AB
330
2E6A8
100
AcDbEntity
  8
12
100
AcDbLine
 10
10.471227
 20
107.647497
 30
0.0
 11
10.471227
 21
143.1474969999999
 31
0.0
  0
LINE
  5
2E6AC
330
2E6A8
100
AcDbEntity
  8
12
100
AcDbLine
 10
-36.528773
 20
140.6474969999999
 30
0.0
 11
7.471227000000001
 21
140.6474969999999
 31
0.0
  0
TEXT
  5
2E6AD
330
2E6A8
100
AcDbEntity
  8
1
100
AcDbText
 10
-20.31448728571428
 20
142.147497
 30
0.0
 40
3.0
  1
D=50
  7
TDM_STYLE
100
AcDbText
  0
SOLID
  5
2E6AE
330
2E6A8
100
AcDbEntity
  8
12
100
AcDbTrace
 10
-36.528773
 20
141.1474969999999
 30
0.0
 11
-36.528773
 21
140.1474969999999
 31
0.0
 12
-39.528773
 22
140.6474969999999
 32
0.0
 13
-39.528773
 23
140.6474969999999
 33
0.0
  0
SOLID
  5
2E6AF
330
2E6A8
100
AcDbEntity
  8
12
100
AcDbTrace
 10
7.471227000000001
 20
141.1474969999999
 30
0.0
 11
7.471227000000001
 21
140.1474969999999
 31
0.0
 12
10.471227
 22
140.6474969999999
 32
0.0
 13
10.471227
 23
140.6474969999999
 33
0.0
  0
POINT
  5
2E6B0
330
2E6A8
100
AcDbEntity
  8
DEFPOINTS
 62
     0
100
AcDbPoint
 10
-39.528773
 20
105.147497
 30
0.0
  0
POINT
  5
2E6B1
330
2E6A8
100
AcDbEntity
  8
DEFPOINTS
 62
     0
100
AcDbPoint
 10
10.471227
 20
105.147497
 30
0.0
  0
POINT
  5
2E6B2
330
2E6A8
100
AcDbEntity
  8
DEFPOINTS
 62
     0
100
AcDbPoint
 10
10.471227
 20
140.6474969999999
 30
0.0
  0
ENDBLK
  5
2E6B3
330
2E6A8
100
AcDbEntity
  8
0
100
AcDbBlockEnd
  0
BLOCK
  5
2E6B5
330
2E6B4
100
AcDbEntity
  8
0
100
AcDbBlockBegin
  2
*D18
 70
     1
 10
0.0
 20
0.0
 30
0.0
  3
*D18
  1

  0
LINE
  5
2E6B6
330
2E6B4
100
AcDbEntity
  8
12
100
AcDbLine
 10
-30.528773
 20
80.735954
 30
0.0
 11
-30.528773
 21
40.85066099999997
 31
0.0
  0
LINE
  5
2E6B7
330
2E6B4
100
AcDbEntity
  8
12
100
AcDbLine
 10
1.471226999999999
 20
80.735954
 30
0.0
 11
1.471226999999995
 21
40.85066099999997
 31
0.0
  0
LINE
  5
2E6B8
330
2E6B4
100
AcDbEntity
  8
12
100
AcDbLine
 10
-27.528773
 20
43.35066099999997
 30
0.0
 11
-1.528772999999999
 21
43.35066099999997
 31
0.0
  0
INSERT
  5
2E6B9
330
2E6B4
100
AcDbEntity
  8
1
100
AcDbBlockReference
  2
*U19
 10
0.0
 20
0.0
 30
0.0
  0
SOLID
  5
2E6BA
330
2E6B4
100
AcDbEntity
  8
12
100
AcDbTrace
 10
-27.528773
 20
43.85066099999998
 30
0.0
 11
-27.528773
 21
42.85066099999997
 31
0.0
 12
-30.528773
 22
43.35066099999997
 32
0.0
 13
-30.528773
 23
43.35066099999997
 33
0.0
  0
SOLID
  5
2E6BB
330
2E6B4
100
AcDbEntity
  8
12
100
AcDbTrace
 10
-1.528772999999999
 20
43.85066099999998
 30
0.0
 11
-1.528772999999999
 21
42.85066099999997
 31
0.0
 12
1.471226999999995
 22
43.35066099999997
 32
0.0
 13
1.471226999999995
 23
43.35066099999997
 33
0.0
  0
POINT
  5
2E6BC
330
2E6B4
100
AcDbEntity
  8
DEFPOINTS
 62
     0
100
AcDbPoint
 10
-30.528773
 20
83.235954
 30
0.0
  0
POINT
  5
2E6BD
330
2E6B4
100
AcDbEntity
  8
DEFPOINTS
 62
     0
100
AcDbPoint
 10
1.471227
 20
83.235954
 30
0.0
  0
POINT
  5
2E6BE
330
2E6B4
100
AcDbEntity
  8
DEFPOINTS
 62
     0
100
AcDbPoint
 10
1.471226999999995
 20
43.35066099999997
 30
0.0
  0
ENDBLK
  5
2E6BF
330
2E6B4
100
AcDbEntity
  8
0
100
AcDbBlockEnd
  0
BLOCK
  5
2E6C1
330
2E6C0
100
AcDbEntity
  8
0
100
AcDbBlockBegin
  2
*U19
 70
     1
 10
0.0
 20
0.0
 30
0.0
  3
*U19
  1

  0
TEXT
  5
2E6C2
330
2E6C0
100
AcDbEntity
  8
1
100
AcDbText
 10
-20.60471242857143
 20
44.850661
 30
0.0
 40
3.0
  1
\U+2205
  7
TDM_STYLE
100
AcDbText
  0
TEXT
  5
2E6C3
330
2E6C0
100
AcDbEntity
  8
1
100
AcDbText
 10
-17.8904267142857
 20
44.850661
 30
0.0
 40
3.0
  1
32.0
  7
TDM_STYLE
100
AcDbText
  0
ENDBLK
  5
2E6C4
330
2E6C0
100
AcDbEntity
  8
0
100
AcDbBlockEnd
  0
BLOCK
  5
2E6C6
330
2E6C5
100
AcDbEntity
  8
0
100
AcDbBlockBegin
  2
*D20
 70
     1
 10
0.0
 20
0.0
 30
0.0
  3
*D20
  1

  0
LINE
  5
2E6C7
330
2E6C5
100
AcDbEntity
  8
20
100
AcDbLine
 10
12.971227
 20
105.147497
 30
0.0
 11
31.34622700000003
 21
105.147497
 31
0.0
  0
LINE
  5
2E6C8
330
2E6C5
100
AcDbEntity
  8
20
100
AcDbLine
 10
9.846227
 20
-4.852502999999996
 30
0.0
 11
31.346227
 21
-4.852503000000004
 31
0.0
  0
LINE
  5
2E6C9
330
2E6C5
100
AcDbEntity
  8
20
100
AcDbLine
 10
28.84622700000002
 20
102.147497
 30
0.0
 11
28.846227
 21
-1.852503000000004
 31
0.0
  0
TEXT
  5
2E6CA
330
2E6C5
100
AcDbEntity
  8
1
100
AcDbText
 10
27.3462268105071
 20
44.71892551906869
 30
0.0
 40
3.0
  1
110.0
 50
89.99999800000002
  7
TDM_STYLE
100
AcDbText
  0
SOLID
  5
2E6CB
330
2E6C5
100
AcDbEntity
  8
20
100
AcDbTrace
 10
28.34622700000002
 20
102.147497
 30
0.0
 11
29.34622700000002
 21
102.147497
 31
0.0
 12
28.84622700000003
 22
105.147497
 32
0.0
 13
28.84622700000003
 23
105.147497
 33
0.0
  0
SOLID
  5
2E6CC
330
2E6C5
100
AcDbEntity
  8
20
100
AcDbTrace
 10
28.346227
 20
-1.852503000000004
 30
0.0
 11
29.346227
 21
-1.852503000000004
 31
0.0
 12
28.846227
 22
-4.852503000000004
 32
0.0
 13
28.846227
 23
-4.852503000000004
 33
0.0
  0
POINT
  5
2E6CD
330
2E6C5
100
AcDbEntity
  8
DEFPOINTS
 62
     0
100
AcDbPoint
 10
10.471227
 20
105.147497
 30
0.0
  0
POINT
  5
2E6CE
330
2E6C5
100
AcDbEntity
  8
DEFPOINTS
 62
     0
100
AcDbPoint
 10
7.346226999999997
 20
-4.852502999999996
 30
0.0
  0
POINT
  5
2E6CF
330
2E6C5
100
AcDbEntity
  8
DEFPOINTS
 62
     0
100
AcDbPoint
 10
28.846227
 20
-4.852503000000004
 30
0.0
  0
ENDBLK
  5
2E6D0
330
2E6C5
100
AcDbEntity
  8
0
100
AcDbBlockEnd
  0
BLOCK
  5
2E6D2
330
2E6D1
100
AcDbEntity
  8
0
100
AcDbBlockBegin
  2
*D21
 70
     1
 10
0.0
 20
0.0
 30
0.0
  3
*D21
  1

  0
LINE
  5
2E6D3
330
2E6D1
100
AcDbEntity
  8
12
100
AcDbLine
 10
3.971226999999998
 20
83.235954
 30
0.0
 11
21.34622700000001
 21
83.235954
 31
0.0
  0
LINE
  5
2E6D4
330
2E6D1
100
AcDbEntity
  8
12
100
AcDbLine
 10
9.846227
 20
-4.852502999999996
 30
0.0
 11
21.34622699999999
 21
-4.852503000000003
 31
0.0
  0
LINE
  5
2E6D5
330
2E6D1
100
AcDbEntity
  8
12
100
AcDbLine
 10
18.84622700000001
 20
80.23595400000003
 30
0.0
 11
18.84622699999999
 21
-1.852503000000002
 31
0.0
  0
TEXT
  5
2E6D6
330
2E6D1
100
AcDbEntity
  8
1
100
AcDbText
 10
17.34622686286698
 20
35.26315451906871
 30
0.0
 40
3.0
  1
88.1
 50
89.99999800000002
  7
TDM_STYLE
100
AcDbText
  0
SOLID
  5
2E6D7
330
2E6D1
100
AcDbEntity
  8
12
100
AcDbTrace
 10
18.34622700000001
 20
80.23595400000003
 30
0.0
 11
19.34622700000001
 21
80.23595400000003
 31
0.0
 12
18.84622700000001
 22
83.235954
 32
0.0
 13
18.84622700000001
 23
83.235954
 33
0.0
  0
SOLID
  5
2E6D8
330
2E6D1
100
AcDbEntity
  8
12
100
AcDbTrace
 10
18.34622699999999
 20
-1.852503000000002
 30
0.0
 11
19.346227
 21
-1.852503000000002
 31
0.0
 12
18.84622699999999
 22
-4.852503000000003
 32
0.0
 13
18.84622699999999
 23
-4.852503000000003
 33
0.0
  0
POINT
  5
2E6D9
330
2E6D1
100
AcDbEntity
  8
DEFPOINTS
 62
     0
100
AcDbPoint
 10
1.471227
 20
83.235954
 30
0.0
  0
POINT
  5
2E6DA
330
2E6D1
100
AcDbEntity
  8
DEFPOINTS
 62
     0
100
AcDbPoint
 10
7.346226999999997
 20
-4.852502999999996
 30
0.0
  0
POINT
  5
2E6DB
330
2E6D1
100
AcDbEntity
  8
DEFPOINTS
 62
     0
100
AcDbPoint
 10
18.84622699999999
 20
-4.852503000000003
 30
0.0
  0
ENDBLK
  5
2E6DC
330
2E6D1
100
AcDbEntity
  8
0
100
AcDbBlockEnd
  0
BLOCK
  5
2E6DE
330
2E6DD
100
AcDbEntity
  8
0
100
AcDbBlockBegin
  2
*D22
 70
     1
 10
0.0
 20
0.0
 30
0.0
  3
*D22
  1

  0
LINE
  5
2E6DF
330
2E6DD
100
AcDbEntity
  8
20
100
AcDbLine
 10
-17.15339219710418
 20
-4.424858647295343
 30
0.0
 11
-43.7964892470705
 21
-3.959776745191089
 31
0.0
  0
LINE
  5
2E6E0
330
2E6DD
100
AcDbEntity
  8
20
100
AcDbLine
 10
-14.528773
 20
-14.64416999999999
 30
0.0
 11
-14.52877300000001
 21
-33.74284901867609
 31
0.0
  0
ARC
  5
2E6E1
330
2E6DD
100
AcDbEntity
  8
20
100
AcDbCircle
 10
-14.52877299999999
 20
-4.470673999999997
 30
0.0
 40
26.77217501867609
100
AcDbArc
 50
185.4236828897387
 51
211.0782126881618
  0
ARC
  5
2E6E2
330
2E6DD
100
AcDbEntity
  8
20
100
AcDbCircle
 10
-14.52877299999999
 20
-4.470673999999997
 30
0.0
 40
26.77217501867609
100
AcDbArc
 50
237.921732248592
 51
263.5762635509137
  0
SOLID
  5
2E6E3
330
2E6DD
100
AcDbEntity
  8
20
100
AcDbTrace
 10
-41.68071595641168
 20
-7.020471966685492
 30
0.0
 11
-40.68146097699631
 21
-6.981878105598067
 31
0.0
 12
-41.29687004996631
 22
-4.003410097895745
 32
0.0
 13
-41.29687004996631
 23
-4.003410097895745
 33
0.0
  0
SOLID
  5
2E6E4
330
2E6DD
100
AcDbEntity
  8
20
100
AcDbTrace
 10
-17.49604637954993
 20
-30.57554946748912
 30
0.0
 11
-17.55207469995922
 21
-31.57397864740731
 31
0.0
 12
-14.528773
 22
-31.24284901867609
 32
0.0
 13
-14.528773
 23
-31.24284901867609
 33
0.0
  0
TEXT
  5
2E6E5
330
2E6DD
100
AcDbEntity
  8
20
100
AcDbText
 10
-39.624
 20
-28.5455
 30
0.0
 40
3.0
  1
91%%d0'
  7
TDM_STYLE
100
AcDbText
  0
POINT
  5
2E6E6
330
2E6DD
100
AcDbEntity
  8
DEFPOINTS
 62
     0
100
AcDbPoint
 10
-37.86834607545064
 20
-17.58607273150352
 30
0.0
  0
POINT
  5
2E6E7
330
2E6DD
100
AcDbEntity
  8
DEFPOINTS
 62
     0
100
AcDbPoint
 10
-14.528773
 20
-4.470673999999998
 30
-2.075718
  0
POINT
  5
2E6E8
330
2E6DD
100
AcDbEntity
  8
DEFPOINTS
 62
     0
100
AcDbPoint
 10
-14.528773
 20
-12.14416999999999
 30
-2.075718
  0
POINT
  5
2E6E9
330
2E6DD
100
AcDbEntity
  8
DEFPOINTS
 62
     0
100
AcDbPoint
 10
-14.528773
 20
-4.470673999999998
 30
-2.075718
  0
POINT
  5
2E6EA
330
2E6DD
100
AcDbEntity
  8
DEFPOINTS
 62
     0
100
AcDbPoint
 10
-14.653773
 20
-4.468491999999998
 30
-2.075718
  0
ENDBLK
  5
2E6EB
330
2E6DD
100
AcDbEntity
  8
0
100
AcDbBlockEnd
  0
BLOCK
  5
2E6ED
330
2E6EC
100
AcDbEntity
  8
0
100
AcDbBlockBegin
  2
*D23
 70
     1
 10
0.0
 20
0.0
 30
0.0
  3
*D23
  1

  0
LINE
  5
2EA5C
330
2E6EC
100
AcDbEntity
  8
20
 62
     0
370
    -2
100
AcDbLine
 10
118.653934
 20
1.265377999999987
 30
0.0
 11
132.112267
 21
1.265377999999982
 31
0.0
  0
LINE
  5
2EA5D
330
2E6EC
100
AcDbEntity
  8
20
 62
     0
370
    -2
100
AcDbLine
 10
111.362267
 20
23.14037799999999
 30
0.0
 11
132.112267
 21
23.14037799999999
 31
0.0
  0
LINE
  5
2EA5E
330
2E6EC
100
AcDbEntity
  8
20
 62
     0
370
    -2
100
AcDbLine
 10
130.862267
 20
3.765377999999982
 30
0.0
 11
130.862267
 21
20.64037799999999
 31
0.0
  0
SOLID
  5
2EA5F
330
2E6EC
100
AcDbEntity
  8
20
 62
     0
100
AcDbTrace
 10
130.4456003333333
 20
3.765377999999982
 30
0.0
 11
131.2789336666666
 21
3.765377999999982
 31
0.0
 12
130.862267
 22
1.265377999999982
 32
0.0
 13
130.862267
 23
1.265377999999982
 33
0.0
  0
SOLID
  5
2EA60
330
2E6EC
100
AcDbEntity
  8
20
 62
     0
100
AcDbTrace
 10
130.4456003333333
 20
20.64037799999999
 30
0.0
 11
131.2789336666666
 21
20.64037799999999
 31
0.0
 12
130.862267
 22
23.14037799999999
 32
0.0
 13
130.862267
 23
23.14037799999999
 33
0.0
  0
MTEXT
  5
2EA61
330
2E6EC
100
AcDbEntity
  8
20
 62
     0
100
AcDbMText
 10
128.487267
 20
12.20287799999999
 30
0.0
 40
3.5
 41
0.0
 71
     5
 72
     1
  1
22
  7
SIMPLEX
 11
0.0000000000000001
 21
1.0
 31
0.0
 73
     1
 44
1.0
1001
ACAD
1000
MTEXTBEGIN
1070
    73
1070
     1
1070
    44
1040
1.0
1070
    74
1070
     0
1000
MTEXTEND
  0
POINT
  5
2EA62
330
2E6EC
100
AcDbEntity
  8
DEFPOINTS
 62
     0
100
AcDbPoint
 10
118.653934
 20
1.265377999999987
 30
0.0
  0
POINT
  5
2EA63
330
2E6EC
100
AcDbEntity
  8
DEFPOINTS
 62
     0
100
AcDbPoint
 10
111.362267
 20
23.14037799999999
 30
0.0
  0
POINT
  5
2EA64
330
2E6EC
100
AcDbEntity
  8
DEFPOINTS
 62
     0
100
AcDbPoint
 10
130.862267
 20
23.14037799999999
 30
0.0
  0
ENDBLK
  5
2E6F7
330
2E6EC
100
AcDbEntity
  8
0
100
AcDbBlockEnd
  0
BLOCK
  5
2E6F9
330
2E6F8
100
AcDbEntity
  8
0
100
AcDbBlockBegin
  2
*D24
 70
     1
 10
0.0
 20
0.0
 30
0.0
  3
*D24
  1

  0
LINE
  5
2EA53
330
2E6F8
100
AcDbEntity
  8
12
 62
     0
370
    -2
100
AcDbLine
 10
1.362267000000002
 20
-23.734622
 30
0.0
 11
-38.38773299999991
 21
-23.73462199999999
 31
0.0
  0
LINE
  5
2EA54
330
2E6F8
100
AcDbEntity
  8
12
 62
     0
370
    -2
100
AcDbLine
 10
1.362267000000002
 20
26.26537799999999
 30
0.0
 11
-38.38773299999989
 21
26.265378
 31
0.0
  0
LINE
  5
2EA55
330
2E6F8
100
AcDbEntity
  8
12
 62
     0
370
    -2
100
AcDbLine
 10
-37.13773299999991
 20
-21.23462199999999
 30
0.0
 11
-37.13773299999989
 21
23.765378
 31
0.0
  0
SOLID
  5
2EA56
330
2E6F8
100
AcDbEntity
  8
12
 62
     0
100
AcDbTrace
 10
-37.55439966666657
 20
-21.23462199999999
 30
0.0
 11
-36.72106633333325
 21
-21.23462199999999
 31
0.0
 12
-37.13773299999991
 22
-23.73462199999999
 32
0.0
 13
-37.13773299999991
 23
-23.73462199999999
 33
0.0
  0
SOLID
  5
2EA57
330
2E6F8
100
AcDbEntity
  8
12
 62
     0
100
AcDbTrace
 10
-37.55439966666656
 20
23.765378
 30
0.0
 11
-36.72106633333323
 21
23.765378
 31
0.0
 12
-37.13773299999989
 22
26.265378
 32
0.0
 13
-37.13773299999989
 23
26.265378
 33
0.0
  0
MTEXT
  5
2EA58
330
2E6F8
100
AcDbEntity
  8
12
 62
     0
100
AcDbMText
 10
-39.5127329999999
 20
1.265377999999998
 30
0.0
 40
3.5
 41
0.0
 71
     5
 72
     1
  1
D=50
  7
SIMPLEX
 11
0.0000000000000001
 21
1.0
 31
0.0
 73
     1
 44
1.0
1001
ACAD
1000
MTEXTBEGIN
1070
    73
1070
     1
1070
    44
1040
1.0
1070
    74
1070
     0
1000
MTEXTEND
  0
POINT
  5
2EA59
330
2E6F8
100
AcDbEntity
  8
DEFPOINTS
 62
     0
100
AcDbPoint
 10
1.362267000000002
 20
-23.734622
 30
0.0
  0
POINT
  5
2EA5A
330
2E6F8
100
AcDbEntity
  8
DEFPOINTS
 62
     0
100
AcDbPoint
 10
1.362267000000002
 20
26.26537799999999
 30
0.0
  0
POINT
  5
2EA5B
330
2E6F8
100
AcDbEntity
  8
DEFPOINTS
 62
     0
100
AcDbPoint
 10
-37.13773299999989
 20
26.265378
 30
0.0
  0
ENDBLK
  5
2E703
330
2E6F8
100
AcDbEntity
  8
0
100
AcDbBlockEnd
  0
BLOCK
  5
2E705
330
2E704
100
AcDbEntity
  8
0
100
AcDbBlockBegin
  2
*D25
 70
     1
 10
0.0
 20
0.0
 30
0.0
  3
*D25
  1

  0
LINE
  5
2EA4A
330
2E704
100
AcDbEntity
  8
12
 62
     0
370
    -2
100
AcDbLine
 10
23.27381
 20
-14.73462200000001
 30
0.0
 11
61.40910300000001
 21
-14.73462200000002
 31
0.0
  0
LINE
  5
2EA4B
330
2E704
100
AcDbEntity
  8
12
 62
     0
370
    -2
100
AcDbLine
 10
23.27381
 20
17.26537799999999
 30
0.0
 11
61.40910300000001
 21
17.26537799999998
 31
0.0
  0
LINE
  5
2EA4C
330
2E704
100
AcDbEntity
  8
12
 62
     0
370
    -2
100
AcDbLine
 10
60.15910300000001
 20
-12.23462200000002
 30
0.0
 11
60.15910300000001
 21
14.76537799999998
 31
0.0
  0
SOLID
  5
2EA4D
330
2E704
100
AcDbEntity
  8
12
 62
     0
100
AcDbTrace
 10
59.74243633333335
 20
-12.23462200000002
 30
0.0
 11
60.57576966666668
 21
-12.23462200000002
 31
0.0
 12
60.15910300000001
 22
-14.73462200000002
 32
0.0
 13
60.15910300000001
 23
-14.73462200000002
 33
0.0
  0
SOLID
  5
2EA4E
330
2E704
100
AcDbEntity
  8
12
 62
     0
100
AcDbTrace
 10
59.74243633333335
 20
14.76537799999998
 30
0.0
 11
60.57576966666668
 21
14.76537799999998
 31
0.0
 12
60.15910300000001
 22
17.26537799999998
 32
0.0
 13
60.15910300000001
 23
17.26537799999998
 33
0.0
  0
MTEXT
  5
2EA4F
330
2E704
100
AcDbEntity
  8
12
 62
     0
100
AcDbMText
 10
57.784103
 20
1.118009999999998
 30
0.0
 40
3.5
 41
0.0
 71
     5
 72
     1
  1
%%c32.0
  7
SIMPLEX
 11
0.0000000000000001
 21
1.0
 31
0.0
 73
     1
 44
1.0
1001
ACAD
1000
MTEXTBEGIN
1070
    73
1070
     1
1070
    44
1040
1.0
1070
    74
1070
     0
1000
MTEXTEND
  0
POINT
  5
2EA50
330
2E704
100
AcDbEntity
  8
DEFPOINTS
 62
     0
100
AcDbPoint
 10
23.27381
 20
-14.73462200000001
 30
0.0
  0
POINT
  5
2EA51
330
2E704
100
AcDbEntity
  8
DEFPOINTS
 62
     0
100
AcDbPoint
 10
23.27381
 20
17.26537799999999
 30
0.0
  0
POINT
  5
2EA52
330
2E704
100
AcDbEntity
  8
DEFPOINTS
 62
     0
100
AcDbPoint
 10
60.15910300000001
 20
17.26537799999998
 30
0.0
  0
ENDBLK
  5
2E70F
330
2E704
100
AcDbEntity
  8
0
100
AcDbBlockEnd
  0
BLOCK
  5
2E711
330
2E710
100
AcDbEntity
  8
0
100
AcDbBlockBegin
  2
*D26
 70
     1
 10
0.0
 20
0.0
 30
0.0
  3
*D26
  1

  0
LINE
  5
2EA40
330
2E710
100
AcDbEntity
  8
20
 62
     0
370
    -2
100
AcDbLine
 10
1.362267000000002
 20
26.26537799999999
 30
0.0
 11
1.362267000000003
 21
42.890378
 31
0.0
  0
LINE
  5
2EA41
330
2E710
100
AcDbEntity
  8
20
 62
     0
370
    -2
100
AcDbLine
 10
111.362267
 20
23.14037799999999
 30
0.0
 11
111.362267
 21
42.890378
 31
0.0
  0
LINE
  5
2EA42
330
2E710
100
AcDbEntity
  8
20
 62
     0
370
    -2
100
AcDbLine
 10
3.862267000000001
 20
41.640378
 30
0.0
 11
53.987267
 21
41.640378
 31
0.0
  0
LINE
  5
2EA43
330
2E710
100
AcDbEntity
  8
20
 62
     0
370
    -2
100
AcDbLine
 10
108.862267
 20
41.640378
 30
0.0
 11
58.73726700000001
 21
41.640378
 31
0.0
  0
SOLID
  5
2EA44
330
2E710
100
AcDbEntity
  8
20
 62
     0
100
AcDbTrace
 10
3.862267000000001
 20
42.05704466666666
 30
0.0
 11
3.862267000000001
 21
41.22371133333333
 31
0.0
 12
1.362267000000003
 22
41.640378
 32
0.0
 13
1.362267000000003
 23
41.640378
 33
0.0
  0
SOLID
  5
2EA45
330
2E710
100
AcDbEntity
  8
20
 62
     0
100
AcDbTrace
 10
108.862267
 20
42.05704466666666
 30
0.0
 11
108.862267
 21
41.22371133333333
 31
0.0
 12
111.362267
 22
41.640378
 32
0.0
 13
111.362267
 23
41.640378
 33
0.0
  0
MTEXT
  5
2EA46
330
2E710
100
AcDbEntity
  8
20
 62
     0
100
AcDbMText
 10
56.36226700000001
 20
41.640378
 30
0.0
 40
3.5
 41
0.0
 71
     5
 72
     1
  1
110.0
  7
SIMPLEX
 11
0.0000000349065848
 21
0.9999999999999994
 31
0.0
 73
     1
 44
1.0
1001
ACAD
1000
MTEXTBEGIN
1070
    73
1070
     1
1070
    44
1040
1.0
1070
    74
1070
     0
1000
MTEXTEND
  0
POINT
  5
2EA47
330
2E710
100
AcDbEntity
  8
DEFPOINTS
 62
     0
100
AcDbPoint
 10
1.362267000000002
 20
26.26537799999999
 30
0.0
  0
POINT
  5
2EA48
330
2E710
100
AcDbEntity
  8
DEFPOINTS
 62
     0
100
AcDbPoint
 10
111.362267
 20
23.14037799999999
 30
0.0
  0
POINT
  5
2EA49
330
2E710
100
AcDbEntity
  8
DEFPOINTS
 62
     0
100
AcDbPoint
 10
111.362267
 20
41.640378
 30
0.0
  0
ENDBLK
  5
2E71C
330
2E710
100
AcDbEntity
  8
0
100
AcDbBlockEnd
  0
BLOCK
  5
2E71E
330
2E71D
100
AcDbEntity
  8
0
100
AcDbBlockBegin
  2
*D27
 70
     1
 10
0.0
 20
0.0
 30
0.0
  3
*D27
  1

  0
LINE
  5
2EA36
330
2E71D
100
AcDbEntity
  8
12
 62
     0
370
    -2
100
AcDbLine
 10
23.27381
 20
17.26537799999999
 30
0.0
 11
23.27381
 21
32.89037799999999
 31
0.0
  0
LINE
  5
2EA37
330
2E71D
100
AcDbEntity
  8
12
 62
     0
370
    -2
100
AcDbLine
 10
111.362267
 20
23.14037799999999
 30
0.0
 11
111.362267
 21
32.89037799999999
 31
0.0
  0
LINE
  5
2EA38
330
2E71D
100
AcDbEntity
  8
12
 62
     0
370
    -2
100
AcDbLine
 10
25.77381
 20
31.64037799999998
 30
0.0
 11
64.943038
 21
31.64037799999998
 31
0.0
  0
LINE
  5
2EA39
330
2E71D
100
AcDbEntity
  8
12
 62
     0
370
    -2
100
AcDbLine
 10
108.862267
 20
31.64037799999998
 30
0.0
 11
69.693038
 21
31.64037799999998
 31
0.0
  0
SOLID
  5
2EA3A
330
2E71D
100
AcDbEntity
  8
12
 62
     0
100
AcDbTrace
 10
25.77381
 20
32.05704466666665
 30
0.0
 11
25.77381
 21
31.22371133333331
 31
0.0
 12
23.27381
 22
31.64037799999998
 32
0.0
 13
23.27381
 23
31.64037799999998
 33
0.0
  0
SOLID
  5
2EA3B
330
2E71D
100
AcDbEntity
  8
12
 62
     0
100
AcDbTrace
 10
108.862267
 20
32.05704466666665
 30
0.0
 11
108.862267
 21
31.22371133333331
 31
0.0
 12
111.362267
 22
31.64037799999998
 32
0.0
 13
111.362267
 23
31.64037799999998
 33
0.0
  0
MTEXT
  5
2EA3C
330
2E71D
100
AcDbEntity
  8
12
 62
     0
100
AcDbMText
 10
67.318038
 20
31.64037799999998
 30
0.0
 40
3.5
 41
0.0
 71
     5
 72
     1
  1
88.1
  7
SIMPLEX
 11
0.0000000349065848
 21
0.9999999999999994
 31
0.0
 73
     1
 44
1.0
1001
ACAD
1000
MTEXTBEGIN
1070
    73
1070
     1
1070
    44
1040
1.0
1070
    74
1070
     0
1000
MTEXTEND
  0
POINT
  5
2EA3D
330
2E71D
100
AcDbEntity
  8
DEFPOINTS
 62
     0
100
AcDbPoint
 10
23.27381
 20
17.26537799999999
 30
0.0
  0
POINT
  5
2EA3E
330
2E71D
100
AcDbEntity
  8
DEFPOINTS
 62
     0
100
AcDbPoint
 10
111.362267
 20
23.14037799999999
 30
0.0
  0
POINT
  5
2EA3F
330
2E71D
100
AcDbEntity
  8
DEFPOINTS
 62
     0
100
AcDbPoint
 10
111.362267
 20
31.64037799999998
 30
0.0
  0
ENDBLK
  5
2E729
330
2E71D
100
AcDbEntity
  8
0
100
AcDbBlockEnd
  0
BLOCK
  5
2E72B
330
2E72A
100
AcDbEntity
  8
0
100
AcDbBlockBegin
  2
*D28
 70
     1
 10
0.0
 20
0.0
 30
0.0
  3
*D28
  1

  0
LINE
  5
2EA2A
330
2E72A
100
AcDbEntity
  8
20
 62
     0
370
    -2
100
AcDbLine
 10
110.978256
 20
1.140377999999984
 30
0.0
 11
110.4913574215485
 21
-26.75252864851854
 31
0.0
  0
LINE
  5
2EA2B
330
2E72A
100
AcDbEntity
  8
20
 62
     0
370
    -2
100
AcDbLine
 10
118.653934
 20
1.265377999999984
 30
0.0
 11
139.0026130186761
 21
1.265377999999941
 31
0.0
  0
ARC
  5
2EA2C
330
2E72A
100
AcDbEntity
  8
20
 62
     0
370
    -2
100
AcDbCircle
 10
110.980438
 20
1.265377999999998
 30
0.0
 40
26.77217501867615
100
AcDbArc
 50
274.3522027671151
 51
308.6938714400378
  0
ARC
  5
2EA2D
330
2E72A
100
AcDbEntity
  8
20
 62
     0
370
    -2
100
AcDbCircle
 10
110.980438
 20
1.265377999999998
 30
0.0
 40
26.77217501867615
100
AcDbArc
 50
320.3060747244457
 51
354.6477436735478
  0
SOLID
  5
2EA2E
330
2E72A
100
AcDbEntity
  8
20
 62
     0
100
AcDbTrace
 10
113.0242915203318
 20
-25.84608532943108
 30
0.0
 11
112.9999174800268
 21
-25.01310852867151
 31
0.0
 12
110.5131740979006
 22
-25.50271904996645
 32
0.0
 13
110.5131740979006
 23
-25.50271904996645
 33
0.0
  0
SOLID
  5
2EA2F
330
2E72A
100
AcDbEntity
  8
20
 62
     0
100
AcDbTrace
 10
137.219675094992
 20
-1.212441259068484
 30
0.0
 11
138.0520996073214
 21
-1.25134981490828
 31
0.0
 12
137.7526130186761
 22
1.265377999999941
 32
0.0
 13
137.7526130186761
 23
1.265377999999941
 33
0.0
  0
MTEXT
  5
2EA30
330
2E72A
100
AcDbEntity
  8
20
 62
     0
100
AcDbMText
 10
129.745294571044
 20
-17.82989662747711
 30
0.0
 40
3.5
 41
0.0
 71
     5
 72
     1
  1
91%%d0'
  7
SIMPLEX
 11
0.7009092642998506
 21
-0.7132504491541822
 31
0.0
 73
     1
 44
1.0
1001
ACAD
1000
MTEXTBEGIN
1070
    73
1070
     1
1070
    44
1040
1.0
1070
    74
1070
     0
1000
MTEXTEND
  0
POINT
  5
2EA31
330
2E72A
100
AcDbEntity
  8
DEFPOINTS
 62
     0
100
AcDbPoint
 10
124.0958367315063
 20
-22.07419507544912
 30
0.0
  0
POINT
  5
2EA32
330
2E72A
100
AcDbEntity
  8
DEFPOINTS
 62
     0
100
AcDbPoint
 10
110.980438
 20
1.265377999999984
 30
-2.075718
  0
POINT
  5
2EA33
330
2E72A
100
AcDbEntity
  8
DEFPOINTS
 62
     0
100
AcDbPoint
 10
118.653934
 20
1.265377999999984
 30
-2.075718
  0
POINT
  5
2EA34
330
2E72A
100
AcDbEntity
  8
DEFPOINTS
 62
     0
100
AcDbPoint
 10
110.980438
 20
1.265377999999984
 30
-2.075718
  0
POINT
  5
2EA35
330
2E72A
100
AcDbEntity
  8
DEFPOINTS
 62
     0
100
AcDbPoint
 10
110.978256
 20
1.140377999999984
 30
-2.075718
  0
ENDBLK
  5
2E738
330
2E72A
100
AcDbEntity
  8
0
100
AcDbBlockEnd
  0
BLOCK
  5
2E73C
330
2E739
100
AcDbEntity
  8
0
100
AcDbBlockBegin
  2
_Zeropoint.dwg
 70
     0
 10
0.0
 20
0.0
 30
0.0
  3
_Zeropoint.dwg
  1

  0
HATCH
  5
2E73D
330
2E739
100
AcDbEntity
  8
2
100
AcDbHatch
 10
0.0
 20
0.0
 30
0.0
210
0.0
220
0.0
230
1.0
  2
_USER
 70
     0
 71
     1
 91
        2
 92
        7
 72
     1
 73
     1
 93
        3
 10
-2.5
 20
0.0
 42
0.4142135623730951
 10
0.0
 20
-2.5
 42
0.0
 10
0.0
 20
0.0
 42
0.0
 97
        3
330
2E73E
330
2E740
330
2E73F
 92
        7
 72
     1
 73
     1
 93
        3
 10
0.0
 20
2.5
 42
0.0
 10
0.0
 20
0.0
 42
0.0
 10
2.5
 20
0.0
 42
0.4142135623730951
 97
        3
330
2E73F
330
2E73E
330
2E740
 75
     0
 76
     0
 52
45.0
 41
0.5
 77
     0
 78
     1
 53
45.0
 43
0.0
 44
0.0
 45
-0.3535533905932737
 46
0.3535533905932738
 79
     0
 47
0.0807540860238484
 98
        2
 10
-1.081351813010084
 20
-0.6749528531090621
 10
1.100054950607727
 20
1.263145885468702
  0
LINE
  5
2E73E
102
{ACAD_REACTORS
330
2E73D
102
}
330
2E739
100
AcDbEntity
  8
2
100
AcDbLine
 10
5.0
 20
0.0
 30
0.0
 11
-5.0
 21
0.0
 31
0.0
  0
LINE
  5
2E73F
102
{ACAD_REACTORS
330
2E73D
102
}
330
2E739
100
AcDbEntity
  8
2
100
AcDbLine
 10
0.0
 20
5.0
 30
0.0
 11
0.0
 21
-5.0
 31
0.0
  0
CIRCLE
  5
2E740
102
{ACAD_REACTORS
330
2E73D
102
}
330
2E739
100
AcDbEntity
  8
2
100
AcDbCircle
 10
0.0
 20
0.0
 30
0.0
 40
2.5
  0
ENDBLK
  5
2E741
330
2E739
100
AcDbEntity
  8
0
100
AcDbBlockEnd
  0
BLOCK
  5
2E743
330
2E742
100
AcDbEntity
  8
0
100
AcDbBlockBegin
  2
_nullpunkt
 70
     0
 10
0.0
 20
0.0
 30
0.0
  3
_nullpunkt
  1

  0
INSERT
  5
2E744
330
2E742
100
AcDbEntity
  8
0
100
AcDbBlockReference
  2
_Zeropoint.dwg
 10
0.0
 20
0.0
 30
0.0
  0
ENDBLK
  5
2E745
330
2E742
100
AcDbEntity
  8
0
100
AcDbBlockEnd
  0
ENDSEC
  0
SECTION
  2
ENTITIES
  0
POINT
  5
2E77F
330
18
100
AcDbEntity
  8
81
100
AcDbPoint
 10
111.362267
 20
23.14037799999999
 30
-2.075717
 50
90.0
  0
POINT
  5
2E780
330
18
100
AcDbEntity
  8
80
100
AcDbPoint
 10
1.362267000000002
 20
1.265377999999998
 30
-2.075717
 50
90.0
  0
LINE
  5
2E781
330
18
100
AcDbEntity
  8
1
100
AcDbLine
 10
110.503171
 20
4.562673999999987
 30
-2.075717
 11
104.297941
 21
-5.470181000000008
 31
-2.075717
  0
LINE
  5
2E782
330
18
100
AcDbEntity
  8
1
100
AcDbLine
 10
104.297941
 20
-5.470181000000008
 30
-2.075717
 11
95.093112
 21
-10.78459200000001
 31
-2.075717
  0
LINE
  5
2E783
330
18
100
AcDbEntity
  8
1
100
AcDbLine
 10
97.77568000000002
 20
15.98436199999999
 30
-2.075717
 11
110.821837
 21
22.81904199999999
 31
-2.075717
  0
LINE
  5
2E784
330
18
100
AcDbEntity
  8
1
100
AcDbLine
 10
106.023072
 20
-2.680922999999999
 30
-2.075717
 11
89.79704899999999
 21
7.263063999999991
 31
-2.075717
  0
LINE
  5
2E785
330
18
100
AcDbEntity
  8
1
100
AcDbLine
 10
20.862267
 20
26.26537799999999
 30
-2.075717
 11
23.27381
 21
17.26537799999999
 31
-2.075717
  0
LINE
  5
2E786
330
18
100
AcDbEntity
  8
1
100
AcDbLine
 10
23.27381
 20
17.26537799999999
 30
-2.075717
 11
92.59560699999999
 21
17.26537799999999
 31
-2.075717
  0
LINE
  5
2E787
330
18
100
AcDbEntity
  8
1
100
AcDbLine
 10
20.862267
 20
-23.734622
 30
-2.075717
 11
23.27381
 21
-14.73462200000001
 31
-2.075717
  0
LINE
  5
2E788
330
18
100
AcDbEntity
  8
1
100
AcDbLine
 10
23.27381
 20
-14.73462200000001
 30
-2.075717
 11
88.251459
 21
-14.73462200000001
 31
-2.075717
  0
LINE
  5
2E789
330
18
100
AcDbEntity
  8
1
100
AcDbLine
 10
20.862267
 20
-23.734622
 30
-2.075717
 11
20.862267
 21
26.26537799999999
 31
-2.075717
  0
LINE
  5
2E78A
330
18
100
AcDbEntity
  8
1
100
AcDbLine
 10
27.87777199999998
 20
17.26537799999999
 30
-2.075717
 11
92.59560699999999
 21
17.26537799999999
 31
-2.075717
  0
LINE
  5
2E78B
330
18
100
AcDbEntity
  8
1
100
AcDbLine
 10
27.87777199999998
 20
-14.73462200000001
 30
-2.075717
 11
88.251459
 21
-14.73462200000001
 31
-2.075717
  0
LINE
  5
2E78C
330
18
100
AcDbEntity
  8
1
100
AcDbLine
 10
20.862267
 20
26.26537799999999
 30
-2.075717
 11
22.082217
 21
21.71246399999999
 31
-2.075717
  0
LINE
  5
2E78D
330
18
100
AcDbEntity
  8
1
100
AcDbLine
 10
20.862267
 20
-23.734622
 30
-2.075717
 11
22.082217
 21
-19.181708
 31
-2.075717
  0
LINE
  5
2E78E
330
18
100
AcDbEntity
  8
1
100
AcDbLine
 10
88.07074700000002
 20
10.77007399999999
 30
-2.075717
 11
88.07074700000002
 21
17.26537799999999
 31
-2.075717
  0
LINE
  5
2E78F
330
18
100
AcDbEntity
  8
1
100
AcDbLine
 10
87.026149
 20
12.14169799999999
 30
-2.075717
 11
87.026149
 21
17.26537799999999
 31
-2.075717
  0
LINE
  5
2E790
330
18
100
AcDbEntity
  8
1
100
AcDbLine
 10
18.800211
 20
1.265377999999998
 30
-2.075717
 11
17.36226700000002
 21
1.265377999999998
 31
-2.075717
  0
LINE
  5
2E791
330
18
100
AcDbEntity
  8
1
100
AcDbLine
 10
1.362267000000002
 20
-4.73188
 30
-2.075717
 11
1.362267000000002
 21
7.262635999999996
 31
-2.075717
  0
LINE
  5
2E792
330
18
100
AcDbEntity
  8
1
100
AcDbLine
 10
9.900942
 20
8.795044999999994
 30
-2.075717
 11
9.900942
 21
25.10450799999999
 31
-2.075717
  0
LINE
  5
2E793
330
18
100
AcDbEntity
  8
1
100
AcDbLine
 10
12.823592
 20
8.795044999999994
 30
-2.075717
 11
12.823592
 21
25.10450799999999
 31
-2.075717
  0
LINE
  5
2E794
330
18
100
AcDbEntity
  8
1
100
AcDbLine
 10
9.467929000000012
 20
9.321225999999995
 30
-2.075717
 11
9.467942000000007
 21
24.93192599999999
 31
-2.075717
  0
LINE
  5
2E795
330
18
100
AcDbEntity
  8
1
100
AcDbLine
 10
13.25660500000001
 20
9.321225999999995
 30
-2.075717
 11
13.25659200000004
 21
24.93192599999999
 31
-2.075717
  0
LINE
  5
2E796
330
18
100
AcDbEntity
  8
1
100
AcDbLine
 10
9.900942
 20
-22.573752
 30
-2.075717
 11
9.900942
 21
-6.264289000000001
 31
-2.075717
  0
LINE
  5
2E797
330
18
100
AcDbEntity
  8
1
100
AcDbLine
 10
12.823592
 20
-22.573752
 30
-2.075717
 11
12.823592
 21
-6.264289000000001
 31
-2.075717
  0
LINE
  5
2E798
330
18
100
AcDbEntity
  8
1
100
AcDbLine
 10
9.467929000000012
 20
-22.401124
 30
-2.075717
 11
9.467942000000007
 21
-6.790394000000002
 31
-2.075717
  0
LINE
  5
2E799
330
18
100
AcDbEntity
  8
1
100
AcDbLine
 10
13.25660500000001
 20
-22.401124
 30
-2.075717
 11
13.25659200000004
 21
-6.790394000000002
 31
-2.075717
  0
LINE
  5
2E79A
330
18
100
AcDbEntity
  8
11
100
AcDbLine
 10
-28.6377329999999
 20
-14.65603399999999
 30
-2.075717
 11
-28.6377329999999
 21
17.18678999999999
 31
-2.075717
  0
LINE
  5
2E79B
330
18
100
AcDbEntity
  8
11
100
AcDbLine
 10
-0.6810869999999058
 20
18.71428999999999
 30
-2.075717
 11
-27.1377329999999
 21
18.05281499999999
 31
-2.075717
  0
LINE
  5
2E79C
330
18
100
AcDbEntity
  8
11
100
AcDbLine
 10
-0.6810869999999058
 20
-16.18353400000001
 30
-2.075717
 11
-27.1377329999999
 21
-15.522059
 31
-2.075717
  0
LINE
  5
2E79D
330
18
100
AcDbEntity
  8
1
100
AcDbLine
 10
20.862267
 20
26.26537799999999
 30
-2.075717
 11
1.362267000000002
 21
26.26537799999999
 31
-2.075717
  0
LINE
  5
2E79E
330
18
100
AcDbEntity
  8
1
100
AcDbLine
 10
20.862267
 20
-23.734622
 30
-2.075717
 11
1.362267000000002
 21
-23.734622
 31
-2.075717
  0
LINE
  5
2E79F
330
18
100
AcDbEntity
  8
11
100
AcDbLine
 10
-0.6810869999999058
 20
-16.18353400000001
 30
-2.075717
 11
-0.6810869999999058
 21
18.71428999999999
 31
-2.075717
  0
LINE
  5
2E7A0
330
18
100
AcDbEntity
  8
11
100
AcDbLine
 10
-27.1377329999999
 20
-15.522059
 30
-2.075717
 11
-27.1377329999999
 21
18.05281499999999
 31
-2.075717
  0
LINE
  5
2E7A1
330
18
100
AcDbEntity
  8
11
100
AcDbLine
 10
-27.1377329999999
 20
-15.522059
 30
-2.075717
 11
-28.6377329999999
 21
-14.65603399999999
 31
-2.075717
  0
LINE
  5
2E7A2
330
18
100
AcDbEntity
  8
11
100
AcDbLine
 10
-27.1377329999999
 20
18.05281499999999
 30
-2.075717
 11
-28.6377329999999
 21
17.18678999999999
 31
-2.075717
  0
LINE
  5
2E7A3
330
18
100
AcDbEntity
  8
1
100
AcDbLine
 10
111.362145
 20
22.33263499999999
 30
-2.075717
 11
111.127464
 21
8.887806999999991
 31
-2.075717
  0
LINE
  5
2E7A4
330
18
100
AcDbEntity
  8
1
100
AcDbLine
 10
109.931593
 20
8.26130899999999
 30
-2.075717
 11
98.21207700000002
 21
15.44351799999999
 31
-2.075717
  0
LINE
  5
2E7A5
330
18
100
AcDbEntity
  8
1
100
AcDbLine
 10
98.23555400000001
 20
16.78850899999999
 30
-2.075717
 11
110.18975
 21
23.05112799999999
 31
-2.075717
  0
LINE
  5
2E7A6
330
18
100
AcDbEntity
  8
1
100
AcDbLine
 10
107.195524
 20
-1.919712000000011
 30
-2.075717
 11
110.326657
 21
3.124379999999987
 31
-2.075717
  0
LINE
  5
2E7A7
330
18
100
AcDbEntity
  8
1
100
AcDbLine
 10
110.92757
 20
4.288063999999987
 30
-2.075717
 11
106.906177
 21
-2.180384999999999
 31
-2.075717
  0
LINE
  5
2E7A8
330
18
100
AcDbEntity
  8
1
100
AcDbLine
 10
106.674073
 20
-2.574783000000009
 30
-2.075717
 11
106.702369
 21
-2.519986999999999
 31
-2.075717
  0
LINE
  5
2E7A9
330
18
100
AcDbEntity
  8
1
100
AcDbLine
 10
95.156383
 20
13.95330799999999
 30
-2.075717
 11
91.13499
 21
7.484857999999992
 31
-2.075717
  0
LINE
  5
2E7AA
330
18
100
AcDbEntity
  8
1
100
AcDbLine
 10
90.90288599999999
 20
7.090460999999991
 30
-2.075717
 11
90.93118200000001
 21
7.145256999999991
 31
-2.075717
  0
LINE
  5
2E7AB
330
18
100
AcDbEntity
  8
1
100
AcDbLine
 10
97.822189
 20
15.30049299999999
 30
-2.075717
 11
102.678915
 21
12.32408699999999
 31
-2.075717
  0
LINE
  5
2E7AC
330
18
100
AcDbEntity
  8
1
100
AcDbLine
 10
98.21207700000002
 20
15.44351799999999
 30
-2.075717
 11
102.85644
 21
12.59725899999999
 31
-2.075717
  0
LINE
  5
2E7AD
330
18
100
AcDbEntity
  8
1
100
AcDbLine
 10
106.702369
 20
-2.519986999999999
 30
-2.075717
 11
90.93118200000001
 21
7.145256999999991
 31
-2.075717
  0
LINE
  5
2E7AE
330
18
100
AcDbEntity
  8
1
100
AcDbLine
 10
106.906177
 20
-2.180384999999999
 30
-2.075717
 11
91.13499
 21
7.484857999999992
 31
-2.075717
  0
LINE
  5
2E7AF
330
18
100
AcDbEntity
  8
1
100
AcDbLine
 10
110.92757
 20
4.288063999999987
 30
-2.075717
 11
110.326657
 21
3.124379999999987
 31
-2.075717
  0
LINE
  5
2E7B0
330
18
100
AcDbEntity
  8
1
100
AcDbLine
 10
110.92757
 20
4.288063999999987
 30
-2.075717
 11
110.945629
 21
7.257898999999986
 31
-2.075717
  0
LINE
  5
2E7B1
330
18
100
AcDbEntity
  8
1
100
AcDbLine
 10
110.910788
 20
7.661216999999987
 30
-2.075717
 11
110.69697
 21
7.648936999999986
 31
-2.075717
  0
LINE
  5
2E7B2
330
18
100
AcDbEntity
  8
1
100
AcDbLine
 10
110.623439
 20
7.50654199999999
 30
-2.075717
 11
110.311529
 21
6.353676999999986
 31
-2.075717
  0
LINE
  5
2E7B3
330
18
100
AcDbEntity
  8
1
100
AcDbLine
 10
110.336112
 20
4.464433999999988
 30
-2.075717
 11
110.309264
 21
5.400366999999986
 31
-2.075717
  0
LINE
  5
2E7B4
330
18
100
AcDbEntity
  8
1
100
AcDbLine
 10
110.337563
 20
4.284228999999998
 30
-2.075717
 11
110.326657
 21
3.124379999999987
 31
-2.075717
  0
LINE
  5
2E7B5
330
18
100
AcDbEntity
  8
1
100
AcDbLine
 10
105.507548
 20
5.227748999999987
 30
-2.075717
 11
105.80689
 21
5.709242999999986
 31
-2.075717
  0
LINE
  5
2E7B6
330
18
100
AcDbEntity
  8
1
100
AcDbLine
 10
98.431826
 20
9.564046999999991
 30
-2.075717
 11
98.731168
 21
10.04554099999999
 31
-2.075717
  0
LINE
  5
2E7B7
330
18
100
AcDbEntity
  8
1
100
AcDbLine
 10
110.945629
 20
7.257898999999986
 30
-2.075717
 11
106.088902
 21
10.23430499999999
 31
-2.075717
  0
LINE
  5
2E7B8
330
18
100
AcDbEntity
  8
1
100
AcDbLine
 10
110.910788
 20
7.661216999999987
 30
-2.075717
 11
106.266426
 21
10.50747599999999
 31
-2.075717
  0
LINE
  5
2E7B9
330
18
100
AcDbEntity
  8
1
100
AcDbLine
 10
105.788077
 20
9.750424999999987
 30
-2.075717
 11
106.088902
 21
10.23430499999999
 31
-2.075717
  0
LINE
  5
2E7BA
330
18
100
AcDbEntity
  8
1
100
AcDbLine
 10
102.37809
 20
11.84020699999999
 30
-2.075717
 11
102.678915
 21
12.32408699999999
 31
-2.075717
  0
LINE
  5
2E7BB
330
18
100
AcDbEntity
  8
1
100
AcDbLine
 10
102.834043
 20
12.51246099999999
 30
-2.075717
 11
106.24403
 21
10.42267799999999
 31
-2.075717
  0
LINE
  5
2E7BC
330
18
100
AcDbEntity
  8
1
100
AcDbLine
 10
95.156383
 20
13.95330799999999
 30
-2.075717
 11
97.822189
 21
15.30049299999999
 31
-2.075717
  0
LINE
  5
2E7BD
330
18
100
AcDbEntity
  8
1
100
AcDbLine
 10
110.978256
 20
1.140377999999987
 30
-2.075717
 11
110.980001
 21
1.240377999999987
 31
-2.075717
  0
LINE
  5
2E7BE
330
18
100
AcDbEntity
  8
1
100
AcDbLine
 10
111.362267
 20
23.14037799999999
 30
-2.075717
 11
111.362267
 21
23.24037799999999
 31
-2.075717
  0
LINE
  5
2E7BF
330
18
100
AcDbEntity
  8
1
100
AcDbLine
 10
1.362267000000002
 20
26.26537799999999
 30
-2.075717
 11
1.362267000000002
 21
-23.734622
 31
-2.075717
  0
LINE
  5
2E7C0
330
18
100
AcDbEntity
  8
1
100
AcDbLine
 10
88.251447
 20
-14.734629
 30
-2.075717
 11
95.093112
 21
-10.78459200000001
 31
-2.075717
  0
ARC
  5
2E7C1
330
18
100
AcDbEntity
  8
1
100
AcDbCircle
 10
27.87777199999998
 20
23.26537799999999
 30
-2.075717
 40
6.0
100
AcDbArc
 50
195.0000000000001
 51
270.0
  0
ARC
  5
2E7C2
330
18
100
AcDbEntity
  8
1
100
AcDbCircle
 10
27.87777199999998
 20
-20.73462200000001
 30
-2.075717
 40
6.0
100
AcDbArc
 50
90.0
 51
165.0
  0
CIRCLE
  5
2E7C3
330
18
100
AcDbEntity
  8
1
100
AcDbCircle
 10
67.65160300000002
 20
1.265377999999987
 30
-2.075717
 40
3.007499999999998
  0
LINE
  5
2E7C4
330
18
100
AcDbEntity
  8
1
100
AcDbLine
 10
91.13499
 20
7.484857999999992
 30
-2.075717
 11
90.93118200000001
 21
7.145256999999991
 31
-2.075717
  0
LWPOLYLINE
  5
2E7C5
330
18
100
AcDbEntity
  8
1
100
AcDbPolyline
 90
        9
 70
     0
 43
0.0
 38
-2.075717
 10
111.362145
 20
22.33263499999999
 10
111.338754
 20
22.53466099999998
 10
111.263159
 20
22.72500899999998
 10
111.140513
 20
22.89070699999999
 10
110.979172
 20
23.02046299999998
 10
110.790133
 20
23.10543399999999
 10
110.586277
 20
23.13983099999999
 10
110.381498
 20
23.12130799999998
 10
110.18975
 20
23.05112799999999
  0
LWPOLYLINE
  5
2E7C6
330
18
100
AcDbEntity
  8
1
100
AcDbPolyline
 90
       32
 70
     1
 43
0.0
 38
-2.075717
 10
106.477244
 20
13.93106399999999
 10
106.847373
 20
13.95250899999999
 10
107.204528
 20
14.04472799999999
 10
107.534983
 20
14.20417599999999
 10
107.82604
 20
14.42472599999999
 10
108.066514
 20
14.69790199999999
 10
108.247162
 20
15.01320699999999
 10
108.361043
 20
15.35852199999999
 10
108.40378
 20
15.72057899999999
 10
108.373732
 20
16.08546299999999
 10
108.272052
 20
16.43915199999999
 10
108.102648
 20
16.76805399999999
 10
107.872031
 20
17.05952899999999
 10
107.589063
 20
17.30237699999999
 10
107.264617
 20
17.48726499999999
 10
106.911164
 20
17.60708599999999
 10
106.542284
 20
17.65723799999999
 10
106.172155
 20
17.63579299999998
 10
105.815
 20
17.54357399999999
 10
105.484545
 20
17.38412599999999
 10
105.193488
 20
17.16357599999999
 10
104.953014
 20
16.89039999999999
 10
104.772366
 20
16.57509499999999
 10
104.658485
 20
16.22977999999999
 10
104.615748
 20
15.86772299999999
 10
104.645796
 20
15.50283899999999
 10
104.747476
 20
15.14914999999999
 10
104.91688
 20
14.82024799999999
 10
105.147497
 20
14.52877299999999
 10
105.430465
 20
14.28592499999998
 10
105.754911
 20
14.10103699999999
 10
106.108364
 20
13.98121599999999
  0
LWPOLYLINE
  5
2E7C7
330
18
100
AcDbEntity
  8
1
100
AcDbPolyline
 90
        9
 70
     0
 43
0.0
 38
-2.075717
 10
109.931593
 20
8.26130899999999
 10
110.120632
 20
8.176336999999987
 10
110.324488
 20
8.141940999999986
 10
110.529267
 20
8.16046399999999
 10
110.721015
 20
8.230643999999987
 10
110.886664
 20
8.34769799999999
 10
111.014925
 20
8.503649999999986
 10
111.097057
 20
8.68787099999999
 10
111.127464
 20
8.887806999999991
  0
LWPOLYLINE
  5
2E7C8
330
18
100
AcDbEntity
  8
1
100
AcDbPolyline
 90
        9
 70
     0
 43
0.0
 38
-2.075717
 10
98.23555400000001
 20
16.78850899999999
 10
98.069906
 20
16.67145499999999
 10
97.94164399999999
 20
16.51550299999999
 10
97.85951199999999
 20
16.33128199999999
 10
97.82910499999999
 20
16.13134599999999
 10
97.852496
 20
15.92931999999999
 10
97.92809
 20
15.73897299999999
 10
98.05073700000001
 20
15.57327499999999
 10
98.21207700000002
 20
15.44351799999999
  0
LINE
  5
2E7C9
330
18
100
AcDbEntity
  8
1
100
AcDbLine
 10
106.906177
 20
-2.180384999999999
 30
-2.075717
 11
106.702369
 21
-2.519986999999999
 31
-2.075717
  0
LWPOLYLINE
  5
2E7CA
330
18
100
AcDbEntity
  8
1
100
AcDbPolyline
 90
        4
 70
     0
 43
0.0
 38
-2.075717
 10
106.674073
 20
-2.574783000000009
 10
106.688583
 20
-2.575913000000014
 10
106.892212
 20
-2.34226800000001
 10
107.195524
 20
-1.919712000000011
  0
LWPOLYLINE
  5
2E7CB
330
18
100
AcDbEntity
  8
1
100
AcDbPolyline
 90
       10
 70
     0
 43
0.0
 38
-2.075717
 10
88.07074700000002
 20
10.77007399999999
 10
88.10367100000002
 20
10.26679199999999
 10
88.20189500000003
 20
9.77039599999999
 10
88.36379500000004
 20
9.289103999999991
 10
88.58669
 20
8.83088399999999
 10
88.86689000000002
 20
8.403321999999992
 10
89.199756
 20
8.01349399999999
 10
89.57977900000001
 20
7.667855999999991
 10
90.00066600000002
 20
7.372127999999992
 10
90.00066600000002
 20
7.372127999999992
  0
LWPOLYLINE
  5
2E7CC
330
18
100
AcDbEntity
  8
1
100
AcDbPolyline
 90
       17
 70
     0
 43
0.0
 38
-2.075717
 10
87.026149
 20
12.14169799999999
 10
87.03797800000002
 20
11.77991199999999
 10
87.07341900000001
 20
11.41910599999999
 10
87.132322
 20
11.06077399999999
 10
87.21444500000002
 20
10.70640099999999
 10
87.31944799999999
 20
10.35745499999999
 10
87.44689500000001
 20
10.01538099999999
 10
87.59625800000002
 20
9.68159799999999
 10
87.766918
 20
9.35748699999999
 10
87.958169
 20
9.044391999999987
 10
88.16921800000001
 20
8.743609999999991
 10
88.39919100000001
 20
8.456385999999991
 10
88.64713400000002
 20
8.183910999999991
 10
88.912022
 20
7.927313999999991
 10
89.19275600000002
 20
7.687657999999991
 10
89.48817299999998
 20
7.465934999999986
 10
89.79704899999999
 20
7.263063999999991
  0
LWPOLYLINE
  5
2E7CD
330
18
100
AcDbEntity
  8
1
100
AcDbPolyline
 90
       18
 70
     0
 43
0.0
 38
-2.075717
 10
92.59560699999999
 20
17.26537799999999
 10
92.81848899999999
 20
16.97779899999999
 10
93.06667100000002
 20
16.71087399999999
 10
93.33808100000002
 20
16.46683299999999
 10
93.63044999999999
 20
16.24771599999999
 10
93.94133600000001
 20
16.05535299999999
 10
94.26814099999999
 20
15.89135199999999
 10
94.60813299999999
 20
15.75708399999999
 10
94.958471
 20
15.65366999999999
 10
95.316229
 20
15.58197399999999
 10
95.678417
 20
15.54259599999999
 10
96.042008
 20
15.53586399999999
 10
96.403964
 20
15.56183499999999
 10
96.76126
 20
15.62029199999999
 10
97.110912
 20
15.71074599999999
 10
97.44999599999999
 20
15.83244199999999
 10
97.77568000000002
 20
15.98436199999999
 10
97.77568000000002
 20
15.98436199999999
  0
POLYLINE
  5
2E7CE
330
18
100
AcDbEntity
  8
11
100
AcDb2dPolyline
 66
     1
 10
0.0
 20
0.0
 30
-2.075717
 70
     4
 75
     6
  0
VERTEX
  5
2E7CF
330
2E7CE
100
AcDbEntity
  8
11
100
AcDbVertex
100
AcDb2dVertex
 10
-0.6810869999999058
 20
-16.18353400000001
 30
-2.075717
 70
    16
  0
VERTEX
  5
2E7D0
330
2E7CE
100
AcDbEntity
  8
11
100
AcDbVertex
100
AcDb2dVertex
 10
-0.6640220000000028
 20
-16.170149
 30
-2.075717
 70
    16
  0
VERTEX
  5
2E7D1
330
2E7CE
100
AcDbEntity
  8
11
100
AcDbVertex
100
AcDb2dVertex
 10
-0.6467029999999028
 20
-16.157094
 30
-2.075717
 70
    16
  0
VERTEX
  5
2E7D2
330
2E7CE
100
AcDbEntity
  8
11
100
AcDbVertex
100
AcDb2dVertex
 10
-0.4091799999999071
 20
-15.986506
 30
-2.075717
 70
    16
  0
VERTEX
  5
2E7D3
330
2E7CE
100
AcDbEntity
  8
11
100
AcDbVertex
100
AcDb2dVertex
 10
-0.124606999999898
 20
-15.94520500000001
 30
-2.075717
 70
    16
  0
VERTEX
  5
2E7D4
330
2E7CE
100
AcDbEntity
  8
11
100
AcDbVertex
100
AcDb2dVertex
 10
0.5460609999999946
 20
-15.80603900000001
 30
-2.075717
 70
    16
  0
VERTEX
  5
2E7D5
330
2E7CE
100
AcDbEntity
  8
11
100
AcDbVertex
100
AcDb2dVertex
 10
0.9488839999999923
 20
-15.734867
 30
-2.075717
 70
    16
  0
VERTEX
  5
2E7D6
330
2E7CE
100
AcDbEntity
  8
11
100
AcDbVertex
100
AcDb2dVertex
 10
1.362267000000002
 20
-15.73920500000001
 30
-2.075717
 70
    16
  0
VERTEX
  5
2E7D7
330
2E7CE
100
AcDbEntity
  8
11
100
AcDbVertex
100
AcDb2dVertex
 10
-0.6810869999999058
 20
-16.18353400000001
 30
-2.075717
 70
     8
  0
VERTEX
  5
2E7D8
330
2E7CE
100
AcDbEntity
  8
11
100
AcDbVertex
100
AcDb2dVertex
 10
-0.6290909999997894
 20
-16.14444500000001
 30
-2.075717
 70
     8
  0
VERTEX
  5
2E7D9
330
2E7CE
100
AcDbEntity
  8
11
100
AcDbVertex
100
AcDb2dVertex
 10
-0.3906779999998946
 20
-16.02054500000001
 30
-2.075717
 70
     8
  0
VERTEX
  5
2E7DA
330
2E7CE
100
AcDbEntity
  8
11
100
AcDbVertex
100
AcDb2dVertex
 10
-0.1274690000000049
 20
-15.94535700000001
 30
-2.075717
 70
     8
  0
VERTEX
  5
2E7DB
330
2E7CE
100
AcDbEntity
  8
11
100
AcDbVertex
100
AcDb2dVertex
 10
0.5461510000000942
 20
-15.81257700000001
 30
-2.075717
 70
     8
  0
VERTEX
  5
2E7DC
330
2E7CE
100
AcDbEntity
  8
11
100
AcDbVertex
100
AcDb2dVertex
 10
0.9519750000001041
 20
-15.75770800000001
 30
-2.075717
 70
     8
  0
VERTEX
  5
2E7DD
330
2E7CE
100
AcDbEntity
  8
11
100
AcDbVertex
100
AcDb2dVertex
 10
1.362267000000002
 20
-15.73920500000001
 30
-2.075717
 70
     8
  0
SEQEND
  5
2E7DE
330
2E7CE
100
AcDbEntity
  8
11
  0
POLYLINE
  5
2E7DF
330
18
100
AcDbEntity
  8
11
100
AcDb2dPolyline
 66
     1
 10
0.0
 20
0.0
 30
-2.075717
 70
     4
 75
     6
  0
VERTEX
  5
2E7E0
330
2E7DF
100
AcDbEntity
  8
11
100
AcDbVertex
100
AcDb2dVertex
 10
-0.6810869999999058
 20
18.71428999999999
 30
-2.075717
 70
    16
  0
VERTEX
  5
2E7E1
330
2E7DF
100
AcDbEntity
  8
11
100
AcDbVertex
100
AcDb2dVertex
 10
-0.6483929999998992
 20
18.68864699999999
 30
-2.075717
 70
    16
  0
VERTEX
  5
2E7E2
330
2E7DF
100
AcDbEntity
  8
11
100
AcDbVertex
100
AcDb2dVertex
 10
-0.6195069999999987
 20
18.66756599999998
 30
-2.075717
 70
    16
  0
VERTEX
  5
2E7E3
330
2E7DF
100
AcDbEntity
  8
11
100
AcDbVertex
100
AcDb2dVertex
 10
-0.351372000000012
 20
18.49106199999999
 30
-2.075717
 70
    16
  0
VERTEX
  5
2E7E4
330
2E7DF
100
AcDbEntity
  8
11
100
AcDbVertex
100
AcDb2dVertex
 10
-0.0763569999999874
 20
18.46646999999999
 30
-2.075717
 70
    16
  0
VERTEX
  5
2E7E5
330
2E7DF
100
AcDbEntity
  8
11
100
AcDbVertex
100
AcDb2dVertex
 10
0.5730339999999928
 20
18.33030299999999
 30
-2.075717
 70
    16
  0
VERTEX
  5
2E7E6
330
2E7DF
100
AcDbEntity
  8
11
100
AcDbVertex
100
AcDb2dVertex
 10
0.9643019999999891
 20
18.26578499999999
 30
-2.075717
 70
    16
  0
VERTEX
  5
2E7E7
330
2E7DF
100
AcDbEntity
  8
11
100
AcDbVertex
100
AcDb2dVertex
 10
1.362267000000002
 20
18.26996099999998
 30
-2.075717
 70
    16
  0
VERTEX
  5
2E7E8
330
2E7DF
100
AcDbEntity
  8
11
100
AcDbVertex
100
AcDb2dVertex
 10
-0.6810869999999058
 20
18.71428999999999
 30
-2.075717
 70
     8
  0
VERTEX
  5
2E7E9
330
2E7DF
100
AcDbEntity
  8
11
100
AcDbVertex
100
AcDb2dVertex
 10
-0.5852110000000012
 20
18.64498999999999
 30
-2.075717
 70
     8
  0
VERTEX
  5
2E7EA
330
2E7DF
100
AcDbEntity
  8
11
100
AcDbVertex
100
AcDb2dVertex
 10
-0.3396120000000025
 20
18.52825099999998
 30
-2.075717
 70
     8
  0
VERTEX
  5
2E7EB
330
2E7DF
100
AcDbEntity
  8
11
100
AcDbVertex
100
AcDb2dVertex
 10
0.5747690000000035
 20
18.33772799999999
 30
-2.075717
 70
     8
  0
VERTEX
  5
2E7EC
330
2E7DF
100
AcDbEntity
  8
11
100
AcDbVertex
100
AcDb2dVertex
 10
0.9664720000002091
 20
18.28674899999999
 30
-2.075717
 70
     8
  0
VERTEX
  5
2E7ED
330
2E7DF
100
AcDbEntity
  8
11
100
AcDbVertex
100
AcDb2dVertex
 10
1.362267000000002
 20
18.26996099999998
 30
-2.075717
 70
     8
  0
SEQEND
  5
2E7EE
330
2E7DF
100
AcDbEntity
  8
11
  0
LINE
  5
2E7EF
330
18
100
AcDbEntity
  8
1
100
AcDbLine
 10
9.900942
 20
-6.264289000000001
 30
-2.075717
 11
12.823592
 21
-6.264289000000001
 31
-2.075717
  0
POLYLINE
  5
2E7F0
330
18
100
AcDbEntity
  8
1
100
AcDb3dPolyline
 66
     1
 10
0.0
 20
0.0
 30
0.0
 70
    12
 75
     6
  0
VERTEX
  5
2E7F1
330
2E7F0
100
AcDbEntity
  8
1
100
AcDbVertex
100
AcDb3dPolylineVertex
 10
9.467942000000007
 20
-6.790394000000002
 30
-2.075717
 70
    48
  0
VERTEX
  5
2E7F2
330
2E7F0
100
AcDbEntity
  8
1
100
AcDbVertex
100
AcDb3dPolylineVertex
 10
9.13055700000001
 20
-8.043277999999999
 30
-2.075717
 70
    48
  0
VERTEX
  5
2E7F3
330
2E7F0
100
AcDbEntity
  8
1
100
AcDbVertex
100
AcDb3dPolylineVertex
 10
8.835684
 20
-9.303314
 30
-2.075717
 70
    48
  0
VERTEX
  5
2E7F4
330
2E7F0
100
AcDbEntity
  8
1
100
AcDbVertex
100
AcDb3dPolylineVertex
 10
8.258091000000009
 20
-12.366186
 30
-2.075717
 70
    48
  0
VERTEX
  5
2E7F5
330
2E7F0
100
AcDbEntity
  8
1
100
AcDbVertex
100
AcDb3dPolylineVertex
 10
8.023767000000006
 20
-14.170613
 30
-2.075717
 70
    48
  0
VERTEX
  5
2E7F6
330
2E7F0
100
AcDbEntity
  8
1
100
AcDbVertex
100
AcDb3dPolylineVertex
 10
7.964388999999997
 20
-17.260124
 30
-2.075717
 70
    48
  0
VERTEX
  5
2E7F7
330
2E7F0
100
AcDbEntity
  8
1
100
AcDbVertex
100
AcDb3dPolylineVertex
 10
8.032572000000001
 20
-18.544961
 30
-2.075717
 70
    48
  0
VERTEX
  5
2E7F8
330
2E7F0
100
AcDbEntity
  8
1
100
AcDbVertex
100
AcDb3dPolylineVertex
 10
8.432631999999982
 20
-20.27737899999999
 30
-2.075717
 70
    48
  0
VERTEX
  5
2E7F9
330
2E7F0
100
AcDbEntity
  8
1
100
AcDbVertex
100
AcDb3dPolylineVertex
 10
8.567216000000001
 20
-20.72350800000001
 30
-2.075717
 70
    48
  0
VERTEX
  5
2E7FA
330
2E7F0
100
AcDbEntity
  8
1
100
AcDbVertex
100
AcDb3dPolylineVertex
 10
8.950861999999997
 20
-21.628031
 30
-2.075717
 70
    48
  0
VERTEX
  5
2E7FB
330
2E7F0
100
AcDbEntity
  8
1
100
AcDbVertex
100
AcDb3dPolylineVertex
 10
9.167120000000011
 20
-22.020922
 30
-2.075717
 70
    48
  0
VERTEX
  5
2E7FC
330
2E7F0
100
AcDbEntity
  8
1
100
AcDbVertex
100
AcDb3dPolylineVertex
 10
9.467942000000007
 20
-22.40117000000001
 30
-2.075717
 70
    48
  0
VERTEX
  5
2E7FD
330
2E7F0
100
AcDbEntity
  8
1
100
AcDbVertex
100
AcDb3dPolylineVertex
 10
9.467942000000007
 20
-6.790394000000002
 30
-2.075717
 70
    40
  0
VERTEX
  5
2E7FE
330
2E7F0
100
AcDbEntity
  8
1
100
AcDbVertex
100
AcDb3dPolylineVertex
 10
9.145149999999999
 20
-8.046052000000003
 30
-2.075717
 70
    40
  0
VERTEX
  5
2E7FF
330
2E7F0
100
AcDbEntity
  8
1
100
AcDbVertex
100
AcDb3dPolylineVertex
 10
8.853234
 20
-9.308824000000011
 30
-2.075717
 70
    40
  0
VERTEX
  5
2E800
330
2E7F0
100
AcDbEntity
  8
1
100
AcDbVertex
100
AcDb3dPolylineVertex
 10
8.594728999999999
 20
-10.581054
 30
-2.075717
 70
    40
  0
VERTEX
  5
2E801
330
2E7F0
100
AcDbEntity
  8
1
100
AcDbVertex
100
AcDb3dPolylineVertex
 10
8.295795999999981
 20
-12.37215400000001
 30
-2.075717
 70
    40
  0
VERTEX
  5
2E802
330
2E7F0
100
AcDbEntity
  8
1
100
AcDbVertex
100
AcDb3dPolylineVertex
 10
8.178657000000042
 20
-13.271659
 30
-2.075717
 70
    40
  0
VERTEX
  5
2E803
330
2E7F0
100
AcDbEntity
  8
1
100
AcDbVertex
100
AcDb3dPolylineVertex
 10
8.086670999999967
 20
-14.173337
 30
-2.075717
 70
    40
  0
VERTEX
  5
2E804
330
2E7F0
100
AcDbEntity
  8
1
100
AcDbVertex
100
AcDb3dPolylineVertex
 10
8.022537999999981
 20
-15.076841
 30
-2.075717
 70
    40
  0
VERTEX
  5
2E805
330
2E7F0
100
AcDbEntity
  8
1
100
AcDbVertex
100
AcDb3dPolylineVertex
 10
7.988956999999999
 20
-15.981824
 30
-2.075717
 70
    40
  0
VERTEX
  5
2E806
330
2E7F0
100
AcDbEntity
  8
1
100
AcDbVertex
100
AcDb3dPolylineVertex
 10
8.000104000000009
 20
-17.261063
 30
-2.075717
 70
    40
  0
VERTEX
  5
2E807
330
2E7F0
100
AcDbEntity
  8
1
100
AcDbVertex
100
AcDb3dPolylineVertex
 10
8.037861000000006
 20
-17.89999199999998
 30
-2.075717
 70
    40
  0
VERTEX
  5
2E808
330
2E7F0
100
AcDbEntity
  8
1
100
AcDbVertex
100
AcDb3dPolylineVertex
 10
8.101872999999981
 20
-18.53722
 30
-2.075717
 70
    40
  0
VERTEX
  5
2E809
330
2E7F0
100
AcDbEntity
  8
1
100
AcDbVertex
100
AcDb3dPolylineVertex
 10
8.195737000000008
 20
-19.17181800000001
 30
-2.075717
 70
    40
  0
VERTEX
  5
2E80A
330
2E7F0
100
AcDbEntity
  8
1
100
AcDbVertex
100
AcDb3dPolylineVertex
 10
8.323052000000004
 20
-19.802856
 30
-2.075717
 70
    40
  0
VERTEX
  5
2E80B
330
2E7F0
100
AcDbEntity
  8
1
100
AcDbVertex
100
AcDb3dPolylineVertex
 10
8.442254000000005
 20
-20.269414
 30
-2.075717
 70
    40
  0
VERTEX
  5
2E80C
330
2E7F0
100
AcDbEntity
  8
1
100
AcDbVertex
100
AcDb3dPolylineVertex
 10
8.585852000000002
 20
-20.72604100000001
 30
-2.075717
 70
    40
  0
VERTEX
  5
2E80D
330
2E7F0
100
AcDbEntity
  8
1
100
AcDbVertex
100
AcDb3dPolylineVertex
 10
8.761570000000006
 20
-21.181737
 30
-2.075717
 70
    40
  0
VERTEX
  5
2E80E
330
2E7F0
100
AcDbEntity
  8
1
100
AcDbVertex
100
AcDb3dPolylineVertex
 10
8.961984000000002
 20
-21.61173999999999
 30
-2.075717
 70
    40
  0
VERTEX
  5
2E80F
330
2E7F0
100
AcDbEntity
  8
1
100
AcDbVertex
100
AcDb3dPolylineVertex
 10
9.193175000000008
 20
-22.015198
 30
-2.075717
 70
    40
  0
VERTEX
  5
2E810
330
2E7F0
100
AcDbEntity
  8
1
100
AcDbVertex
100
AcDb3dPolylineVertex
 10
9.467942000000007
 20
-22.40117000000001
 30
-2.075717
 70
    40
  0
SEQEND
  5
2E811
330
2E7F0
100
AcDbEntity
  8
1
  0
LINE
  5
2E812
330
18
100
AcDbEntity
  8
1
100
AcDbLine
 10
9.900942
 20
25.10450799999999
 30
-2.075717
 11
12.823592
 21
25.10450799999999
 31
-2.075717
  0
POLYLINE
  5
2E813
330
18
100
AcDbEntity
  8
1
100
AcDb3dPolyline
 66
     1
 10
0.0
 20
0.0
 30
0.0
 70
    12
 75
     6
  0
VERTEX
  5
2E814
330
2E813
100
AcDbEntity
  8
1
100
AcDbVertex
100
AcDb3dPolylineVertex
 10
13.25659200000004
 20
24.93192599999999
 30
-2.075717
 70
    48
  0
VERTEX
  5
2E815
330
2E813
100
AcDbEntity
  8
1
100
AcDbVertex
100
AcDb3dPolylineVertex
 10
13.40633600000001
 20
24.742646
 30
-2.075717
 70
    48
  0
VERTEX
  5
2E816
330
2E813
100
AcDbEntity
  8
1
100
AcDbVertex
100
AcDb3dPolylineVertex
 10
13.531625
 20
24.55336799999999
 30
-2.075717
 70
    48
  0
VERTEX
  5
2E817
330
2E813
100
AcDbEntity
  8
1
100
AcDbVertex
100
AcDb3dPolylineVertex
 10
13.967759
 20
23.79228099999999
 30
-2.075717
 70
    48
  0
VERTEX
  5
2E818
330
2E813
100
AcDbEntity
  8
1
100
AcDbVertex
100
AcDb3dPolylineVertex
 10
14.183465
 20
23.19193299999999
 30
-2.075717
 70
    48
  0
VERTEX
  5
2E819
330
2E813
100
AcDbEntity
  8
1
100
AcDbVertex
100
AcDb3dPolylineVertex
 10
14.669634
 20
21.306943
 30
-2.075717
 70
    48
  0
VERTEX
  5
2E81A
330
2E813
100
AcDbEntity
  8
1
100
AcDbVertex
100
AcDb3dPolylineVertex
 10
14.754953
 20
19.97998999999999
 30
-2.075717
 70
    48
  0
VERTEX
  5
2E81B
330
2E813
100
AcDbEntity
  8
1
100
AcDbVertex
100
AcDb3dPolylineVertex
 10
14.73127099999999
 20
18.14260099999999
 30
-2.075717
 70
    48
  0
VERTEX
  5
2E81C
330
2E813
100
AcDbEntity
  8
1
100
AcDbVertex
100
AcDb3dPolylineVertex
 10
14.707807
 20
17.63842699999999
 30
-2.075717
 70
    48
  0
VERTEX
  5
2E81D
330
2E813
100
AcDbEntity
  8
1
100
AcDbVertex
100
AcDb3dPolylineVertex
 10
14.67000899999999
 20
17.12316799999999
 30
-2.075717
 70
    48
  0
VERTEX
  5
2E81E
330
2E813
100
AcDbEntity
  8
1
100
AcDbVertex
100
AcDb3dPolylineVertex
 10
14.67000899999999
 20
17.12316799999999
 30
-2.075717
 70
    48
  0
VERTEX
  5
2E81F
330
2E813
100
AcDbEntity
  8
1
100
AcDbVertex
100
AcDb3dPolylineVertex
 10
14.474929
 20
14.46384299999999
 30
-2.075717
 70
    48
  0
VERTEX
  5
2E820
330
2E813
100
AcDbEntity
  8
1
100
AcDbVertex
100
AcDb3dPolylineVertex
 10
13.94624900000001
 20
11.88220199999999
 30
-2.075717
 70
    48
  0
VERTEX
  5
2E821
330
2E813
100
AcDbEntity
  8
1
100
AcDbVertex
100
AcDb3dPolylineVertex
 10
13.25659200000004
 20
9.321148999999998
 30
-2.075717
 70
    48
  0
VERTEX
  5
2E822
330
2E813
100
AcDbEntity
  8
1
100
AcDbVertex
100
AcDb3dPolylineVertex
 10
13.25659200000004
 20
24.93192599999999
 30
-2.075717
 70
    40
  0
VERTEX
  5
2E823
330
2E813
100
AcDbEntity
  8
1
100
AcDbVertex
100
AcDb3dPolylineVertex
 10
13.528558
 20
24.54844
 30
-2.075717
 70
    40
  0
VERTEX
  5
2E824
330
2E813
100
AcDbEntity
  8
1
100
AcDbVertex
100
AcDb3dPolylineVertex
 10
13.64961900000004
 20
24.34745899999999
 30
-2.075717
 70
    40
  0
VERTEX
  5
2E825
330
2E813
100
AcDbEntity
  8
1
100
AcDbVertex
100
AcDb3dPolylineVertex
 10
13.93527400000001
 20
23.77842999999999
 30
-2.075717
 70
    40
  0
VERTEX
  5
2E826
330
2E813
100
AcDbEntity
  8
1
100
AcDbVertex
100
AcDb3dPolylineVertex
 10
14.162599
 20
23.186526
 30
-2.075717
 70
    40
  0
VERTEX
  5
2E827
330
2E813
100
AcDbEntity
  8
1
100
AcDbVertex
100
AcDb3dPolylineVertex
 10
14.341554
 20
22.57898499999999
 30
-2.075717
 70
    40
  0
VERTEX
  5
2E828
330
2E813
100
AcDbEntity
  8
1
100
AcDbVertex
100
AcDb3dPolylineVertex
 10
14.486014
 20
21.93866499999999
 30
-2.075717
 70
    40
  0
VERTEX
  5
2E829
330
2E813
100
AcDbEntity
  8
1
100
AcDbVertex
100
AcDb3dPolylineVertex
 10
14.593914
 20
21.29085499999999
 30
-2.075717
 70
    40
  0
VERTEX
  5
2E82A
330
2E813
100
AcDbEntity
  8
1
100
AcDbVertex
100
AcDb3dPolylineVertex
 10
14.66915400000002
 20
20.63721799999999
 30
-2.075717
 70
    40
  0
VERTEX
  5
2E82B
330
2E813
100
AcDbEntity
  8
1
100
AcDbVertex
100
AcDb3dPolylineVertex
 10
14.71563300000001
 20
19.97941399999999
 30
-2.075717
 70
    40
  0
VERTEX
  5
2E82C
330
2E813
100
AcDbEntity
  8
1
100
AcDbVertex
100
AcDb3dPolylineVertex
 10
14.73725300000001
 20
19.31910699999999
 30
-2.075717
 70
    40
  0
VERTEX
  5
2E82D
330
2E813
100
AcDbEntity
  8
1
100
AcDbVertex
100
AcDb3dPolylineVertex
 10
14.725756
 20
18.14550399999999
 30
-2.075717
 70
    40
  0
VERTEX
  5
2E82E
330
2E813
100
AcDbEntity
  8
1
100
AcDbVertex
100
AcDb3dPolylineVertex
 10
14.67000899999999
 20
17.12316799999999
 30
-2.075717
 70
    40
  0
VERTEX
  5
2E82F
330
2E813
100
AcDbEntity
  8
1
100
AcDbVertex
100
AcDb3dPolylineVertex
 10
14.67000899999999
 20
17.12316799999999
 30
-2.075717
 70
    40
  0
VERTEX
  5
2E830
330
2E813
100
AcDbEntity
  8
1
100
AcDbVertex
100
AcDb3dPolylineVertex
 10
14.54546800000001
 20
15.79971499999999
 30
-2.075717
 70
    40
  0
VERTEX
  5
2E831
330
2E813
100
AcDbEntity
  8
1
100
AcDbVertex
100
AcDb3dPolylineVertex
 10
14.37012199999997
 20
14.48762299999999
 30
-2.075717
 70
    40
  0
VERTEX
  5
2E832
330
2E813
100
AcDbEntity
  8
1
100
AcDbVertex
100
AcDb3dPolylineVertex
 10
14.148767
 20
13.18530699999999
 30
-2.075717
 70
    40
  0
VERTEX
  5
2E833
330
2E813
100
AcDbEntity
  8
1
100
AcDbVertex
100
AcDb3dPolylineVertex
 10
13.886196
 20
11.89117999999999
 30
-2.075717
 70
    40
  0
VERTEX
  5
2E834
330
2E813
100
AcDbEntity
  8
1
100
AcDbVertex
100
AcDb3dPolylineVertex
 10
13.58720700000001
 20
10.60365599999999
 30
-2.075717
 70
    40
  0
VERTEX
  5
2E835
330
2E813
100
AcDbEntity
  8
1
100
AcDbVertex
100
AcDb3dPolylineVertex
 10
13.25659200000004
 20
9.321148999999998
 30
-2.075717
 70
    40
  0
SEQEND
  5
2E836
330
2E813
100
AcDbEntity
  8
1
  0
POLYLINE
  5
2E837
330
18
100
AcDbEntity
  8
1
100
AcDb3dPolyline
 66
     1
 10
0.0
 20
0.0
 30
0.0
 70
    12
 75
     6
  0
VERTEX
  5
2E838
330
2E837
100
AcDbEntity
  8
1
100
AcDbVertex
100
AcDb3dPolylineVertex
 10
9.467942000000007
 20
24.93192599999999
 30
-2.075717
 70
    48
  0
VERTEX
  5
2E839
330
2E837
100
AcDbEntity
  8
1
100
AcDbVertex
100
AcDb3dPolylineVertex
 10
9.415607000000008
 20
24.86577299999999
 30
-2.075717
 70
    48
  0
VERTEX
  5
2E83A
330
2E837
100
AcDbEntity
  8
1
100
AcDbVertex
100
AcDb3dPolylineVertex
 10
9.365272000000002
 20
24.79808699999999
 30
-2.075717
 70
    48
  0
VERTEX
  5
2E83B
330
2E837
100
AcDbEntity
  8
1
100
AcDbVertex
100
AcDb3dPolylineVertex
 10
8.943782000000011
 20
24.197462
 30
-2.075717
 70
    48
  0
VERTEX
  5
2E83C
330
2E837
100
AcDbEntity
  8
1
100
AcDbVertex
100
AcDb3dPolylineVertex
 10
8.68290499999999
 20
23.59156699999999
 30
-2.075717
 70
    48
  0
VERTEX
  5
2E83D
330
2E837
100
AcDbEntity
  8
1
100
AcDbVertex
100
AcDb3dPolylineVertex
 10
8.406001000000001
 20
22.685073
 30
-2.075717
 70
    48
  0
VERTEX
  5
2E83E
330
2E837
100
AcDbEntity
  8
1
100
AcDbVertex
100
AcDb3dPolylineVertex
 10
8.337084000000004
 20
22.41114099999999
 30
-2.075717
 70
    48
  0
VERTEX
  5
2E83F
330
2E837
100
AcDbEntity
  8
1
100
AcDbVertex
100
AcDb3dPolylineVertex
 10
7.947115000000008
 20
20.550157
 30
-2.075717
 70
    48
  0
VERTEX
  5
2E840
330
2E837
100
AcDbEntity
  8
1
100
AcDbVertex
100
AcDb3dPolylineVertex
 10
7.934779000000006
 20
18.96858199999998
 30
-2.075717
 70
    48
  0
VERTEX
  5
2E841
330
2E837
100
AcDbEntity
  8
1
100
AcDbVertex
100
AcDb3dPolylineVertex
 10
8.037041000000002
 20
17.37717499999999
 30
-2.075717
 70
    48
  0
VERTEX
  5
2E842
330
2E837
100
AcDbEntity
  8
1
100
AcDbVertex
100
AcDb3dPolylineVertex
 10
8.037041000000002
 20
17.37717499999999
 30
-2.075717
 70
    48
  0
VERTEX
  5
2E843
330
2E837
100
AcDbEntity
  8
1
100
AcDbVertex
100
AcDb3dPolylineVertex
 10
8.096169999999997
 20
16.45701099999999
 30
-2.075717
 70
    48
  0
VERTEX
  5
2E844
330
2E837
100
AcDbEntity
  8
1
100
AcDbVertex
100
AcDb3dPolylineVertex
 10
8.197816000000003
 20
15.56013199999999
 30
-2.075717
 70
    48
  0
VERTEX
  5
2E845
330
2E837
100
AcDbEntity
  8
1
100
AcDbVertex
100
AcDb3dPolylineVertex
 10
8.334732999999998
 20
14.64520499999999
 30
-2.075717
 70
    48
  0
VERTEX
  5
2E846
330
2E837
100
AcDbEntity
  8
1
100
AcDbVertex
100
AcDb3dPolylineVertex
 10
8.334732999999998
 20
14.64520499999999
 30
-2.075717
 70
    48
  0
VERTEX
  5
2E847
330
2E837
100
AcDbEntity
  8
1
100
AcDbVertex
100
AcDb3dPolylineVertex
 10
8.605929000000003
 20
12.83298599999999
 30
-2.075717
 70
    48
  0
VERTEX
  5
2E848
330
2E837
100
AcDbEntity
  8
1
100
AcDbVertex
100
AcDb3dPolylineVertex
 10
8.995474000000001
 20
11.07566799999999
 30
-2.075717
 70
    48
  0
VERTEX
  5
2E849
330
2E837
100
AcDbEntity
  8
1
100
AcDbVertex
100
AcDb3dPolylineVertex
 10
9.467942000000007
 20
9.321148999999998
 30
-2.075717
 70
    48
  0
VERTEX
  5
2E84A
330
2E837
100
AcDbEntity
  8
1
100
AcDbVertex
100
AcDb3dPolylineVertex
 10
9.467942000000007
 20
24.93192599999999
 30
-2.075717
 70
    40
  0
VERTEX
  5
2E84B
330
2E837
100
AcDbEntity
  8
1
100
AcDbVertex
100
AcDb3dPolylineVertex
 10
9.316838999999999
 20
24.72906899999999
 30
-2.075717
 70
    40
  0
VERTEX
  5
2E84C
330
2E837
100
AcDbEntity
  8
1
100
AcDbVertex
100
AcDb3dPolylineVertex
 10
9.139459999999999
 20
24.45732
 30
-2.075717
 70
    40
  0
VERTEX
  5
2E84D
330
2E837
100
AcDbEntity
  8
1
100
AcDbVertex
100
AcDb3dPolylineVertex
 10
8.979585999999981
 20
24.174659
 30
-2.075717
 70
    40
  0
VERTEX
  5
2E84E
330
2E837
100
AcDbEntity
  8
1
100
AcDbVertex
100
AcDb3dPolylineVertex
 10
8.707582000000002
 20
23.582478
 30
-2.075717
 70
    40
  0
VERTEX
  5
2E84F
330
2E837
100
AcDbEntity
  8
1
100
AcDbVertex
100
AcDb3dPolylineVertex
 10
8.491290000000006
 20
22.964283
 30
-2.075717
 70
    40
  0
VERTEX
  5
2E850
330
2E837
100
AcDbEntity
  8
1
100
AcDbVertex
100
AcDb3dPolylineVertex
 10
8.340281000000002
 20
22.40741499999999
 30
-2.075717
 70
    40
  0
VERTEX
  5
2E851
330
2E837
100
AcDbEntity
  8
1
100
AcDbVertex
100
AcDb3dPolylineVertex
 10
8.276909000000001
 20
22.12397599999999
 30
-2.075717
 70
    40
  0
VERTEX
  5
2E852
330
2E837
100
AcDbEntity
  8
1
100
AcDbVertex
100
AcDb3dPolylineVertex
 10
8.137527000000002
 20
21.33640999999999
 30
-2.075717
 70
    40
  0
VERTEX
  5
2E853
330
2E837
100
AcDbEntity
  8
1
100
AcDbVertex
100
AcDb3dPolylineVertex
 10
8.045421000000002
 20
20.54749499999999
 30
-2.075717
 70
    40
  0
VERTEX
  5
2E854
330
2E837
100
AcDbEntity
  8
1
100
AcDbVertex
100
AcDb3dPolylineVertex
 10
7.994954000000006
 20
19.75717099999999
 30
-2.075717
 70
    40
  0
VERTEX
  5
2E855
330
2E837
100
AcDbEntity
  8
1
100
AcDbVertex
100
AcDb3dPolylineVertex
 10
7.980491
 20
18.96538199999999
 30
-2.075717
 70
    40
  0
VERTEX
  5
2E856
330
2E837
100
AcDbEntity
  8
1
100
AcDbVertex
100
AcDb3dPolylineVertex
 10
7.996398999999982
 20
18.17206899999999
 30
-2.075717
 70
    40
  0
VERTEX
  5
2E857
330
2E837
100
AcDbEntity
  8
1
100
AcDbVertex
100
AcDb3dPolylineVertex
 10
8.037041000000002
 20
17.37717499999999
 30
-2.075717
 70
    40
  0
VERTEX
  5
2E858
330
2E837
100
AcDbEntity
  8
1
100
AcDbVertex
100
AcDb3dPolylineVertex
 10
8.037041000000002
 20
17.37717499999999
 30
-2.075717
 70
    40
  0
VERTEX
  5
2E859
330
2E837
100
AcDbEntity
  8
1
100
AcDbVertex
100
AcDb3dPolylineVertex
 10
8.110073999999997
 20
16.46324199999999
 30
-2.075717
 70
    40
  0
VERTEX
  5
2E85A
330
2E837
100
AcDbEntity
  8
1
100
AcDbVertex
100
AcDb3dPolylineVertex
 10
8.209841000000011
 20
15.55564699999999
 30
-2.075717
 70
    40
  0
VERTEX
  5
2E85B
330
2E837
100
AcDbEntity
  8
1
100
AcDbVertex
100
AcDb3dPolylineVertex
 10
8.334732999999998
 20
14.64520499999999
 30
-2.075717
 70
    40
  0
VERTEX
  5
2E85C
330
2E837
100
AcDbEntity
  8
1
100
AcDbVertex
100
AcDb3dPolylineVertex
 10
8.334732999999998
 20
14.64520499999999
 30
-2.075717
 70
    40
  0
VERTEX
  5
2E85D
330
2E837
100
AcDbEntity
  8
1
100
AcDbVertex
100
AcDb3dPolylineVertex
 10
8.644067000000006
 20
12.84935699999999
 30
-2.075717
 70
    40
  0
VERTEX
  5
2E85E
330
2E837
100
AcDbEntity
  8
1
100
AcDbVertex
100
AcDb3dPolylineVertex
 10
9.024427000000002
 20
11.07853099999999
 30
-2.075717
 70
    40
  0
VERTEX
  5
2E85F
330
2E837
100
AcDbEntity
  8
1
100
AcDbVertex
100
AcDb3dPolylineVertex
 10
9.467942000000007
 20
9.321148999999998
 30
-2.075717
 70
    40
  0
SEQEND
  5
2E860
330
2E837
100
AcDbEntity
  8
1
  0
POLYLINE
  5
2E861
330
18
100
AcDbEntity
  8
1
100
AcDb2dPolyline
 66
     1
 10
0.0
 20
0.0
 30
-2.075717
 70
     4
 75
     5
  0
VERTEX
  5
2E862
330
2E861
100
AcDbEntity
  8
1
100
AcDbVertex
100
AcDb2dVertex
 10
12.823592
 20
8.795044999999994
 30
-2.075717
 70
    16
  0
VERTEX
  5
2E863
330
2E861
100
AcDbEntity
  8
1
100
AcDbVertex
100
AcDb2dVertex
 10
11.362267
 20
8.795044999999994
 30
-2.075717
 70
    16
  0
VERTEX
  5
2E864
330
2E861
100
AcDbEntity
  8
1
100
AcDbVertex
100
AcDb2dVertex
 10
9.900942
 20
8.795044999999994
 30
-2.075717
 70
    16
  0
VERTEX
  5
2E865
330
2E861
100
AcDbEntity
  8
1
100
AcDbVertex
100
AcDb2dVertex
 10
12.823592
 20
8.795044999999994
 30
-2.075717
 70
     8
  0
VERTEX
  5
2E866
330
2E861
100
AcDbEntity
  8
1
100
AcDbVertex
100
AcDb2dVertex
 10
9.900942
 20
8.795044999999994
 30
-2.075717
 70
     8
  0
SEQEND
  5
2E867
330
2E861
100
AcDbEntity
  8
1
  0
LINE
  5
2E868
330
18
100
AcDbEntity
  8
1
100
AcDbLine
 10
9.900942
 20
8.795044999999994
 30
-2.075717
 11
12.823592
 21
8.795044999999994
 31
-2.075717
  0
POLYLINE
  5
2E869
330
18
100
AcDbEntity
  8
1
100
AcDb2dPolyline
 66
     1
 10
0.0
 20
0.0
 30
-2.075717
 70
     4
 75
     5
  0
VERTEX
  5
2E86A
330
2E869
100
AcDbEntity
  8
1
100
AcDbVertex
100
AcDb2dVertex
 10
12.823592
 20
-22.573752
 30
-2.075717
 70
    16
  0
VERTEX
  5
2E86B
330
2E869
100
AcDbEntity
  8
1
100
AcDbVertex
100
AcDb2dVertex
 10
11.362267
 20
-22.573752
 30
-2.075717
 70
    16
  0
VERTEX
  5
2E86C
330
2E869
100
AcDbEntity
  8
1
100
AcDbVertex
100
AcDb2dVertex
 10
9.900942
 20
-22.573752
 30
-2.075717
 70
    16
  0
VERTEX
  5
2E86D
330
2E869
100
AcDbEntity
  8
1
100
AcDbVertex
100
AcDb2dVertex
 10
12.823592
 20
-22.573752
 30
-2.075717
 70
     8
  0
VERTEX
  5
2E86E
330
2E869
100
AcDbEntity
  8
1
100
AcDbVertex
100
AcDb2dVertex
 10
9.900942
 20
-22.573752
 30
-2.075717
 70
     8
  0
SEQEND
  5
2E86F
330
2E869
100
AcDbEntity
  8
1
  0
POLYLINE
  5
2E870
330
18
100
AcDbEntity
  8
1
100
AcDb3dPolyline
 66
     1
 10
0.0
 20
0.0
 30
0.0
 70
    12
 75
     6
  0
VERTEX
  5
2E871
330
2E870
100
AcDbEntity
  8
1
100
AcDbVertex
100
AcDb3dPolylineVertex
 10
13.25659200000004
 20
-6.790394000000002
 30
-2.075717
 70
    48
  0
VERTEX
  5
2E872
330
2E870
100
AcDbEntity
  8
1
100
AcDbVertex
100
AcDb3dPolylineVertex
 10
13.59397900000002
 20
-8.043285
 30
-2.075717
 70
    48
  0
VERTEX
  5
2E873
330
2E870
100
AcDbEntity
  8
1
100
AcDbVertex
100
AcDb3dPolylineVertex
 10
13.88885400000001
 20
-9.303329000000008
 30
-2.075717
 70
    48
  0
VERTEX
  5
2E874
330
2E870
100
AcDbEntity
  8
1
100
AcDbVertex
100
AcDb3dPolylineVertex
 10
14.46644599999999
 20
-12.36620999999999
 30
-2.075717
 70
    48
  0
VERTEX
  5
2E875
330
2E870
100
AcDbEntity
  8
1
100
AcDbVertex
100
AcDb3dPolylineVertex
 10
14.70077
 20
-14.170636
 30
-2.075717
 70
    48
  0
VERTEX
  5
2E876
330
2E870
100
AcDbEntity
  8
1
100
AcDbVertex
100
AcDb3dPolylineVertex
 10
14.76014400000002
 20
-17.26014800000001
 30
-2.075717
 70
    48
  0
VERTEX
  5
2E877
330
2E870
100
AcDbEntity
  8
1
100
AcDbVertex
100
AcDb3dPolylineVertex
 10
14.69196000000001
 20
-18.544985
 30
-2.075717
 70
    48
  0
VERTEX
  5
2E878
330
2E870
100
AcDbEntity
  8
1
100
AcDbVertex
100
AcDb3dPolylineVertex
 10
14.29189599999998
 20
-20.27740200000001
 30
-2.075717
 70
    48
  0
VERTEX
  5
2E879
330
2E870
100
AcDbEntity
  8
1
100
AcDbVertex
100
AcDb3dPolylineVertex
 10
14.15731100000001
 20
-20.72353000000001
 30
-2.075717
 70
    48
  0
VERTEX
  5
2E87A
330
2E870
100
AcDbEntity
  8
1
100
AcDbVertex
100
AcDb3dPolylineVertex
 10
13.77366500000001
 20
-21.628045
 30
-2.075717
 70
    48
  0
VERTEX
  5
2E87B
330
2E870
100
AcDbEntity
  8
1
100
AcDbVertex
100
AcDb3dPolylineVertex
 10
13.55740899999998
 20
-22.02092900000002
 30
-2.075717
 70
    48
  0
VERTEX
  5
2E87C
330
2E870
100
AcDbEntity
  8
1
100
AcDbVertex
100
AcDb3dPolylineVertex
 10
13.25659200000004
 20
-22.40117000000001
 30
-2.075717
 70
    48
  0
VERTEX
  5
2E87D
330
2E870
100
AcDbEntity
  8
1
100
AcDbVertex
100
AcDb3dPolylineVertex
 10
13.25659200000004
 20
-6.790394000000002
 30
-2.075717
 70
    40
  0
VERTEX
  5
2E87E
330
2E870
100
AcDbEntity
  8
1
100
AcDbVertex
100
AcDb3dPolylineVertex
 10
13.57938599999999
 20
-8.046060000000011
 30
-2.075717
 70
    40
  0
VERTEX
  5
2E87F
330
2E870
100
AcDbEntity
  8
1
100
AcDbVertex
100
AcDb3dPolylineVertex
 10
13.87130300000001
 20
-9.30884
 30
-2.075717
 70
    40
  0
VERTEX
  5
2E880
330
2E870
100
AcDbEntity
  8
1
100
AcDbVertex
100
AcDb3dPolylineVertex
 10
14.12980899999998
 20
-10.58107700000001
 30
-2.075717
 70
    40
  0
VERTEX
  5
2E881
330
2E870
100
AcDbEntity
  8
1
100
AcDbVertex
100
AcDb3dPolylineVertex
 10
14.42874200000001
 20
-12.37217800000001
 30
-2.075717
 70
    40
  0
VERTEX
  5
2E882
330
2E870
100
AcDbEntity
  8
1
100
AcDbVertex
100
AcDb3dPolylineVertex
 10
14.545879
 20
-13.271683
 30
-2.075717
 70
    40
  0
VERTEX
  5
2E883
330
2E870
100
AcDbEntity
  8
1
100
AcDbVertex
100
AcDb3dPolylineVertex
 10
14.63786500000002
 20
-14.173361
 30
-2.075717
 70
    40
  0
VERTEX
  5
2E884
330
2E870
100
AcDbEntity
  8
1
100
AcDbVertex
100
AcDb3dPolylineVertex
 10
14.701998
 20
-15.07686500000001
 30
-2.075717
 70
    40
  0
VERTEX
  5
2E885
330
2E870
100
AcDbEntity
  8
1
100
AcDbVertex
100
AcDb3dPolylineVertex
 10
14.735578
 20
-15.98184699999999
 30
-2.075717
 70
    40
  0
VERTEX
  5
2E886
330
2E870
100
AcDbEntity
  8
1
100
AcDbVertex
100
AcDb3dPolylineVertex
 10
14.724429
 20
-17.26108700000001
 30
-2.075717
 70
    40
  0
VERTEX
  5
2E887
330
2E870
100
AcDbEntity
  8
1
100
AcDbVertex
100
AcDb3dPolylineVertex
 10
14.686671
 20
-17.900016
 30
-2.075717
 70
    40
  0
VERTEX
  5
2E888
330
2E870
100
AcDbEntity
  8
1
100
AcDbVertex
100
AcDb3dPolylineVertex
 10
14.622658
 20
-18.537244
 30
-2.075717
 70
    40
  0
VERTEX
  5
2E889
330
2E870
100
AcDbEntity
  8
1
100
AcDbVertex
100
AcDb3dPolylineVertex
 10
14.52879300000001
 20
-19.17184199999999
 30
-2.075717
 70
    40
  0
VERTEX
  5
2E88A
330
2E870
100
AcDbEntity
  8
1
100
AcDbVertex
100
AcDb3dPolylineVertex
 10
14.40147699999999
 20
-19.80287899999998
 30
-2.075717
 70
    40
  0
VERTEX
  5
2E88B
330
2E870
100
AcDbEntity
  8
1
100
AcDbVertex
100
AcDb3dPolylineVertex
 10
14.282273
 20
-20.26943700000002
 30
-2.075717
 70
    40
  0
VERTEX
  5
2E88C
330
2E870
100
AcDbEntity
  8
1
100
AcDbVertex
100
AcDb3dPolylineVertex
 10
14.138675
 20
-20.72606300000002
 30
-2.075717
 70
    40
  0
VERTEX
  5
2E88D
330
2E870
100
AcDbEntity
  8
1
100
AcDbVertex
100
AcDb3dPolylineVertex
 10
13.96295500000001
 20
-21.18175800000001
 30
-2.075717
 70
    40
  0
VERTEX
  5
2E88E
330
2E870
100
AcDbEntity
  8
1
100
AcDbVertex
100
AcDb3dPolylineVertex
 10
13.76254300000001
 20
-21.61175399999999
 30
-2.075717
 70
    40
  0
VERTEX
  5
2E88F
330
2E870
100
AcDbEntity
  8
1
100
AcDbVertex
100
AcDb3dPolylineVertex
 10
13.53135499999999
 20
-22.015205
 30
-2.075717
 70
    40
  0
VERTEX
  5
2E890
330
2E870
100
AcDbEntity
  8
1
100
AcDbVertex
100
AcDb3dPolylineVertex
 10
13.25659200000004
 20
-22.40117000000001
 30
-2.075717
 70
    40
  0
SEQEND
  5
2E891
330
2E870
100
AcDbEntity
  8
1
  0
POLYLINE
  5
2E892
330
18
100
AcDbEntity
  8
1
100
AcDb2dPolyline
 66
     1
 10
0.0
 20
0.0
 30
-2.075717
 70
     4
 75
     6
  0
VERTEX
  5
2E893
330
2E892
100
AcDbEntity
  8
1
100
AcDbVertex
100
AcDb2dVertex
 10
98.731168
 20
10.04554099999999
 30
-2.075717
 70
    16
  0
VERTEX
  5
2E894
330
2E892
100
AcDbEntity
  8
1
100
AcDbVertex
100
AcDb2dVertex
 10
98.742812
 20
10.06426999999999
 30
-2.075717
 70
    16
  0
VERTEX
  5
2E895
330
2E892
100
AcDbEntity
  8
1
100
AcDbVertex
100
AcDb2dVertex
 10
98.75462500000001
 20
10.08289299999999
 30
-2.075717
 70
    16
  0
VERTEX
  5
2E896
330
2E892
100
AcDbEntity
  8
1
100
AcDbVertex
100
AcDb2dVertex
 10
99.02582200000001
 20
10.50198799999999
 30
-2.075717
 70
    16
  0
VERTEX
  5
2E897
330
2E892
100
AcDbEntity
  8
1
100
AcDbVertex
100
AcDb2dVertex
 10
99.36255700000003
 20
10.85258399999999
 30
-2.075717
 70
    16
  0
VERTEX
  5
2E898
330
2E892
100
AcDbEntity
  8
1
100
AcDbVertex
100
AcDb2dVertex
 10
99.75990000000001
 20
11.13207999999999
 30
-2.075717
 70
    16
  0
VERTEX
  5
2E899
330
2E892
100
AcDbEntity
  8
1
100
AcDbVertex
100
AcDb2dVertex
 10
98.731168
 20
10.04554099999999
 30
-2.075717
 70
     8
  0
VERTEX
  5
2E89A
330
2E892
100
AcDbEntity
  8
1
100
AcDbVertex
100
AcDb2dVertex
 10
98.76660600000001
 20
10.10140699999999
 30
-2.075717
 70
     8
  0
VERTEX
  5
2E89B
330
2E892
100
AcDbEntity
  8
1
100
AcDbVertex
100
AcDb2dVertex
 10
99.05103500000002
 20
10.48454399999999
 30
-2.075717
 70
     8
  0
VERTEX
  5
2E89C
330
2E892
100
AcDbEntity
  8
1
100
AcDbVertex
100
AcDb2dVertex
 10
99.38338600000001
 20
10.82966599999999
 30
-2.075717
 70
     8
  0
VERTEX
  5
2E89D
330
2E892
100
AcDbEntity
  8
1
100
AcDbVertex
100
AcDb2dVertex
 10
99.75990000000001
 20
11.13207999999999
 30
-2.075717
 70
     8
  0
SEQEND
  5
2E89E
330
2E892
100
AcDbEntity
  8
1
  0
POLYLINE
  5
2E89F
330
18
100
AcDbEntity
  8
1
100
AcDb3dPolyline
 66
     1
 10
0.0
 20
0.0
 30
0.0
 70
    12
 75
     6
  0
VERTEX
  5
2E8A0
330
2E89F
100
AcDbEntity
  8
1
100
AcDbVertex
100
AcDb3dPolylineVertex
 10
106.324054
 20
7.109291999999991
 30
-2.075717
 70
    48
  0
VERTEX
  5
2E8A1
330
2E89F
100
AcDbEntity
  8
1
100
AcDbVertex
100
AcDb3dPolylineVertex
 10
106.286045
 20
6.862292999999986
 30
-2.075717
 70
    48
  0
VERTEX
  5
2E8A2
330
2E89F
100
AcDbEntity
  8
1
100
AcDbVertex
100
AcDb3dPolylineVertex
 10
106.224293
 20
6.620071999999991
 30
-2.075717
 70
    48
  0
VERTEX
  5
2E8A3
330
2E89F
100
AcDbEntity
  8
1
100
AcDbVertex
100
AcDb3dPolylineVertex
 10
106.05168
 20
6.150707999999986
 30
-2.075717
 70
    48
  0
VERTEX
  5
2E8A4
330
2E89F
100
AcDbEntity
  8
1
100
AcDbVertex
100
AcDb3dPolylineVertex
 10
105.940302
 20
5.923836999999986
 30
-2.075717
 70
    48
  0
VERTEX
  5
2E8A5
330
2E89F
100
AcDbEntity
  8
1
100
AcDbVertex
100
AcDb3dPolylineVertex
 10
105.80689
 20
5.709242999999986
 30
-2.075717
 70
    48
  0
VERTEX
  5
2E8A6
330
2E89F
100
AcDbEntity
  8
1
100
AcDbVertex
100
AcDb3dPolylineVertex
 10
106.324054
 20
7.109291999999991
 30
-2.075717
 70
    40
  0
VERTEX
  5
2E8A7
330
2E89F
100
AcDbEntity
  8
1
100
AcDbVertex
100
AcDb3dPolylineVertex
 10
106.216277
 20
6.622858999999986
 30
-2.075717
 70
    40
  0
VERTEX
  5
2E8A8
330
2E89F
100
AcDbEntity
  8
1
100
AcDbVertex
100
AcDb3dPolylineVertex
 10
106.043574
 20
6.153852999999986
 30
-2.075717
 70
    40
  0
VERTEX
  5
2E8A9
330
2E89F
100
AcDbEntity
  8
1
100
AcDbVertex
100
AcDb3dPolylineVertex
 10
105.80689
 20
5.709242999999986
 30
-2.075717
 70
    40
  0
SEQEND
  5
2E8AA
330
2E89F
100
AcDbEntity
  8
1
  0
POLYLINE
  5
2E8AB
330
18
100
AcDbEntity
  8
1
100
AcDb3dPolyline
 66
     1
 10
0.0
 20
0.0
 30
0.0
 70
    12
 75
     6
  0
VERTEX
  5
2E8AC
330
2E8AB
100
AcDbEntity
  8
1
100
AcDbVertex
100
AcDb3dPolylineVertex
 10
102.37809
 20
11.84020699999999
 30
-2.075717
 70
    48
  0
VERTEX
  5
2E8AD
330
2E8AB
100
AcDbEntity
  8
1
100
AcDbVertex
100
AcDb3dPolylineVertex
 10
102.247807
 20
11.84954399999999
 30
-2.075717
 70
    48
  0
VERTEX
  5
2E8AE
330
2E8AB
100
AcDbEntity
  8
1
100
AcDbVertex
100
AcDb3dPolylineVertex
 10
102.117231
 20
11.85294399999999
 30
-2.075717
 70
    48
  0
VERTEX
  5
2E8AF
330
2E8AB
100
AcDbEntity
  8
1
100
AcDbVertex
100
AcDb3dPolylineVertex
 10
101.35043
 20
11.83742999999999
 30
-2.075717
 70
    48
  0
VERTEX
  5
2E8B0
330
2E8AB
100
AcDbEntity
  8
1
100
AcDbVertex
100
AcDb3dPolylineVertex
 10
100.715216
 20
11.67912799999999
 30
-2.075717
 70
    48
  0
VERTEX
  5
2E8B1
330
2E8AB
100
AcDbEntity
  8
1
100
AcDbVertex
100
AcDb3dPolylineVertex
 10
99.98600600000001
 20
11.28382199999999
 30
-2.075717
 70
    48
  0
VERTEX
  5
2E8B2
330
2E8AB
100
AcDbEntity
  8
1
100
AcDbVertex
100
AcDb3dPolylineVertex
 10
99.85252500000001
 20
11.20017499999999
 30
-2.075717
 70
    48
  0
VERTEX
  5
2E8B3
330
2E8AB
100
AcDbEntity
  8
1
100
AcDbVertex
100
AcDb3dPolylineVertex
 10
99.70882000000001
 20
11.09551899999999
 30
-2.075717
 70
    48
  0
VERTEX
  5
2E8B4
330
2E8AB
100
AcDbEntity
  8
1
100
AcDbVertex
100
AcDb3dPolylineVertex
 10
102.37809
 20
11.84020699999999
 30
-2.075717
 70
    40
  0
VERTEX
  5
2E8B5
330
2E8AB
100
AcDbEntity
  8
1
100
AcDbVertex
100
AcDb3dPolylineVertex
 10
101.986777
 20
11.85030499999999
 30
-2.075717
 70
    40
  0
VERTEX
  5
2E8B6
330
2E8AB
100
AcDbEntity
  8
1
100
AcDbVertex
100
AcDb3dPolylineVertex
 10
101.668968
 20
11.83170999999999
 30
-2.075717
 70
    40
  0
VERTEX
  5
2E8B7
330
2E8AB
100
AcDbEntity
  8
1
100
AcDbVertex
100
AcDb3dPolylineVertex
 10
101.35297
 20
11.78864399999999
 30
-2.075717
 70
    40
  0
VERTEX
  5
2E8B8
330
2E8AB
100
AcDbEntity
  8
1
100
AcDbVertex
100
AcDb3dPolylineVertex
 10
101.040403
 20
11.72087699999999
 30
-2.075717
 70
    40
  0
VERTEX
  5
2E8B9
330
2E8AB
100
AcDbEntity
  8
1
100
AcDbVertex
100
AcDb3dPolylineVertex
 10
100.732891
 20
11.62817499999999
 30
-2.075717
 70
    40
  0
VERTEX
  5
2E8BA
330
2E8AB
100
AcDbEntity
  8
1
100
AcDbVertex
100
AcDb3dPolylineVertex
 10
100.432053
 20
11.51030599999999
 30
-2.075717
 70
    40
  0
VERTEX
  5
2E8BB
330
2E8AB
100
AcDbEntity
  8
1
100
AcDbVertex
100
AcDb3dPolylineVertex
 10
100.139513
 20
11.36703799999999
 30
-2.075717
 70
    40
  0
VERTEX
  5
2E8BC
330
2E8AB
100
AcDbEntity
  8
1
100
AcDbVertex
100
AcDb3dPolylineVertex
 10
99.85023700000001
 20
11.19393399999999
 30
-2.075717
 70
    40
  0
VERTEX
  5
2E8BD
330
2E8AB
100
AcDbEntity
  8
1
100
AcDbVertex
100
AcDb3dPolylineVertex
 10
99.70882000000001
 20
11.09551899999999
 30
-2.075717
 70
    40
  0
SEQEND
  5
2E8BE
330
2E8AB
100
AcDbEntity
  8
1
  0
POLYLINE
  5
2E8BF
330
18
100
AcDbEntity
  8
1
100
AcDb3dPolyline
 66
     1
 10
0.0
 20
0.0
 30
0.0
 70
    12
 75
     6
  0
VERTEX
  5
2E8C0
330
2E8BF
100
AcDbEntity
  8
1
100
AcDbVertex
100
AcDb3dPolylineVertex
 10
105.788077
 20
9.750424999999987
 30
-2.075717
 70
    48
  0
VERTEX
  5
2E8C1
330
2E8BF
100
AcDbEntity
  8
1
100
AcDbVertex
100
AcDb3dPolylineVertex
 10
105.969801
 20
9.44725799999999
 30
-2.075717
 70
    48
  0
VERTEX
  5
2E8C2
330
2E8BF
100
AcDbEntity
  8
1
100
AcDbVertex
100
AcDb3dPolylineVertex
 10
106.11209
 20
9.123562999999988
 30
-2.075717
 70
    48
  0
VERTEX
  5
2E8C3
330
2E8BF
100
AcDbEntity
  8
1
100
AcDbVertex
100
AcDb3dPolylineVertex
 10
106.372582
 20
8.229279999999986
 30
-2.075717
 70
    48
  0
VERTEX
  5
2E8C4
330
2E8BF
100
AcDbEntity
  8
1
100
AcDbVertex
100
AcDb3dPolylineVertex
 10
106.414432
 20
7.635021999999986
 30
-2.075717
 70
    48
  0
VERTEX
  5
2E8C5
330
2E8BF
100
AcDbEntity
  8
1
100
AcDbVertex
100
AcDb3dPolylineVertex
 10
106.314031
 20
7.047568999999986
 30
-2.075717
 70
    48
  0
VERTEX
  5
2E8C6
330
2E8BF
100
AcDbEntity
  8
1
100
AcDbVertex
100
AcDb3dPolylineVertex
 10
105.788077
 20
9.750424999999987
 30
-2.075717
 70
    40
  0
VERTEX
  5
2E8C7
330
2E8BF
100
AcDbEntity
  8
1
100
AcDbVertex
100
AcDb3dPolylineVertex
 10
105.956478
 20
9.440695999999988
 30
-2.075717
 70
    40
  0
VERTEX
  5
2E8C8
330
2E8BF
100
AcDbEntity
  8
1
100
AcDbVertex
100
AcDb3dPolylineVertex
 10
106.097524
 20
9.11896699999999
 30
-2.075717
 70
    40
  0
VERTEX
  5
2E8C9
330
2E8BF
100
AcDbEntity
  8
1
100
AcDbVertex
100
AcDb3dPolylineVertex
 10
106.210149
 20
8.786921999999986
 30
-2.075717
 70
    40
  0
VERTEX
  5
2E8CA
330
2E8BF
100
AcDbEntity
  8
1
100
AcDbVertex
100
AcDb3dPolylineVertex
 10
106.281217
 20
8.50525099999999
 30
-2.075717
 70
    40
  0
VERTEX
  5
2E8CB
330
2E8BF
100
AcDbEntity
  8
1
100
AcDbVertex
100
AcDb3dPolylineVertex
 10
106.331585
 20
8.218682999999991
 30
-2.075717
 70
    40
  0
VERTEX
  5
2E8CC
330
2E8BF
100
AcDbEntity
  8
1
100
AcDbVertex
100
AcDb3dPolylineVertex
 10
106.360653
 20
7.92842499999999
 30
-2.075717
 70
    40
  0
VERTEX
  5
2E8CD
330
2E8BF
100
AcDbEntity
  8
1
100
AcDbVertex
100
AcDb3dPolylineVertex
 10
106.367817
 20
7.635681999999986
 30
-2.075717
 70
    40
  0
VERTEX
  5
2E8CE
330
2E8BF
100
AcDbEntity
  8
1
100
AcDbVertex
100
AcDb3dPolylineVertex
 10
106.352477
 20
7.341660999999986
 30
-2.075717
 70
    40
  0
VERTEX
  5
2E8CF
330
2E8BF
100
AcDbEntity
  8
1
100
AcDbVertex
100
AcDb3dPolylineVertex
 10
106.314031
 20
7.047568999999986
 30
-2.075717
 70
    40
  0
SEQEND
  5
2E8D0
330
2E8BF
100
AcDbEntity
  8
1
  0
POLYLINE
  5
2E8D1
330
18
100
AcDbEntity
  8
1
100
AcDb3dPolyline
 66
     1
 10
0.0
 20
0.0
 30
0.0
 70
    12
 75
     6
  0
VERTEX
  5
2E8D2
330
2E8D1
100
AcDbEntity
  8
1
100
AcDbVertex
100
AcDb3dPolylineVertex
 10
87.026149
 20
16.15454099999999
 30
-2.075717
 70
    48
  0
VERTEX
  5
2E8D3
330
2E8D1
100
AcDbEntity
  8
1
100
AcDbVertex
100
AcDb3dPolylineVertex
 10
86.32254800000003
 20
16.09220399999999
 30
-2.075717
 70
    48
  0
VERTEX
  5
2E8D4
330
2E8D1
100
AcDbEntity
  8
1
100
AcDbVertex
100
AcDb3dPolylineVertex
 10
85.620509
 20
16.01351299999999
 30
-2.075717
 70
    48
  0
VERTEX
  5
2E8D5
330
2E8D1
100
AcDbEntity
  8
1
100
AcDbVertex
100
AcDb3dPolylineVertex
 10
83.154213
 20
15.65116099999999
 30
-2.075717
 70
    48
  0
VERTEX
  5
2E8D6
330
2E8D1
100
AcDbEntity
  8
1
100
AcDbVertex
100
AcDb3dPolylineVertex
 10
81.401037
 20
15.24209799999999
 30
-2.075717
 70
    48
  0
VERTEX
  5
2E8D7
330
2E8D1
100
AcDbEntity
  8
1
100
AcDbVertex
100
AcDb3dPolylineVertex
 10
79.13274700000002
 20
14.24583899999999
 30
-2.075717
 70
    48
  0
VERTEX
  5
2E8D8
330
2E8D1
100
AcDbEntity
  8
1
100
AcDbVertex
100
AcDb3dPolylineVertex
 10
78.56518300000002
 20
13.94942899999999
 30
-2.075717
 70
    48
  0
VERTEX
  5
2E8D9
330
2E8D1
100
AcDbEntity
  8
1
100
AcDbVertex
100
AcDb3dPolylineVertex
 10
77.21485100000002
 20
13.09420999999999
 30
-2.075717
 70
    48
  0
VERTEX
  5
2E8DA
330
2E8D1
100
AcDbEntity
  8
1
100
AcDbVertex
100
AcDb3dPolylineVertex
 10
76.53093100000003
 20
12.57644499999999
 30
-2.075717
 70
    48
  0
VERTEX
  5
2E8DB
330
2E8D1
100
AcDbEntity
  8
1
100
AcDbVertex
100
AcDb3dPolylineVertex
 10
75.108276
 20
11.01971399999999
 30
-2.075717
 70
    48
  0
VERTEX
  5
2E8DC
330
2E8D1
100
AcDbEntity
  8
1
100
AcDbVertex
100
AcDb3dPolylineVertex
 10
74.52693900000001
 20
10.06886199999999
 30
-2.075717
 70
    48
  0
VERTEX
  5
2E8DD
330
2E8D1
100
AcDbEntity
  8
1
100
AcDbVertex
100
AcDb3dPolylineVertex
 10
73.400766
 20
7.445810999999991
 30
-2.075717
 70
    48
  0
VERTEX
  5
2E8DE
330
2E8D1
100
AcDbEntity
  8
1
100
AcDbVertex
100
AcDb3dPolylineVertex
 10
73.15092000000001
 20
5.997940999999991
 30
-2.075717
 70
    48
  0
VERTEX
  5
2E8DF
330
2E8D1
100
AcDbEntity
  8
1
100
AcDbVertex
100
AcDb3dPolylineVertex
 10
73.25042800000002
 20
3.217970999999987
 30
-2.075717
 70
    48
  0
VERTEX
  5
2E8E0
330
2E8D1
100
AcDbEntity
  8
1
100
AcDbVertex
100
AcDb3dPolylineVertex
 10
73.401861
 20
2.306468999999987
 30
-2.075717
 70
    48
  0
VERTEX
  5
2E8E1
330
2E8D1
100
AcDbEntity
  8
1
100
AcDbVertex
100
AcDb3dPolylineVertex
 10
73.65910300000002
 20
1.265377999999987
 30
-2.075717
 70
    48
  0
VERTEX
  5
2E8E2
330
2E8D1
100
AcDbEntity
  8
1
100
AcDbVertex
100
AcDb3dPolylineVertex
 10
87.026149
 20
16.15454099999999
 30
-2.075717
 70
    40
  0
VERTEX
  5
2E8E3
330
2E8D1
100
AcDbEntity
  8
1
100
AcDbVertex
100
AcDb3dPolylineVertex
 10
85.62158600000001
 20
16.00581199999999
 30
-2.075717
 70
    40
  0
VERTEX
  5
2E8E4
330
2E8D1
100
AcDbEntity
  8
1
100
AcDbVertex
100
AcDb3dPolylineVertex
 10
84.92190800000001
 20
15.91087299999999
 30
-2.075717
 70
    40
  0
VERTEX
  5
2E8E5
330
2E8D1
100
AcDbEntity
  8
1
100
AcDbVertex
100
AcDb3dPolylineVertex
 10
84.03966100000003
 20
15.76779299999999
 30
-2.075717
 70
    40
  0
VERTEX
  5
2E8E6
330
2E8D1
100
AcDbEntity
  8
1
100
AcDbVertex
100
AcDb3dPolylineVertex
 10
83.16217599999998
 20
15.59514799999999
 30
-2.075717
 70
    40
  0
VERTEX
  5
2E8E7
330
2E8D1
100
AcDbEntity
  8
1
100
AcDbVertex
100
AcDb3dPolylineVertex
 10
82.291796
 20
15.38826899999999
 30
-2.075717
 70
    40
  0
VERTEX
  5
2E8E8
330
2E8D1
100
AcDbEntity
  8
1
100
AcDbVertex
100
AcDb3dPolylineVertex
 10
81.430863
 20
15.14248199999999
 30
-2.075717
 70
    40
  0
VERTEX
  5
2E8E9
330
2E8D1
100
AcDbEntity
  8
1
100
AcDbVertex
100
AcDb3dPolylineVertex
 10
80.58171900000003
 20
14.85311499999999
 30
-2.075717
 70
    40
  0
VERTEX
  5
2E8EA
330
2E8D1
100
AcDbEntity
  8
1
100
AcDbVertex
100
AcDb3dPolylineVertex
 10
79.74670800000001
 20
14.51549799999999
 30
-2.075717
 70
    40
  0
VERTEX
  5
2E8EB
330
2E8D1
100
AcDbEntity
  8
1
100
AcDbVertex
100
AcDb3dPolylineVertex
 10
79.146169
 20
14.23537199999999
 30
-2.075717
 70
    40
  0
VERTEX
  5
2E8EC
330
2E8D1
100
AcDbEntity
  8
1
100
AcDbVertex
100
AcDb3dPolylineVertex
 10
78.5643
 20
13.92810899999999
 30
-2.075717
 70
    40
  0
VERTEX
  5
2E8ED
330
2E8D1
100
AcDbEntity
  8
1
100
AcDbVertex
100
AcDb3dPolylineVertex
 10
77.98884000000002
 20
13.58440799999999
 30
-2.075717
 70
    40
  0
VERTEX
  5
2E8EE
330
2E8D1
100
AcDbEntity
  8
1
100
AcDbVertex
100
AcDb3dPolylineVertex
 10
77.244025
 20
13.08022199999999
 30
-2.075717
 70
    40
  0
VERTEX
  5
2E8EF
330
2E8D1
100
AcDbEntity
  8
1
100
AcDbVertex
100
AcDb3dPolylineVertex
 10
76.892543
 20
12.81223899999999
 30
-2.075717
 70
    40
  0
VERTEX
  5
2E8F0
330
2E8D1
100
AcDbEntity
  8
1
100
AcDbVertex
100
AcDb3dPolylineVertex
 10
76.554161
 20
12.52886399999999
 30
-2.075717
 70
    40
  0
VERTEX
  5
2E8F1
330
2E8D1
100
AcDbEntity
  8
1
100
AcDbVertex
100
AcDb3dPolylineVertex
 10
76.22824399999998
 20
12.22649799999999
 30
-2.075717
 70
    40
  0
VERTEX
  5
2E8F2
330
2E8D1
100
AcDbEntity
  8
1
100
AcDbVertex
100
AcDb3dPolylineVertex
 10
75.91415400000002
 20
11.90154099999999
 30
-2.075717
 70
    40
  0
VERTEX
  5
2E8F3
330
2E8D1
100
AcDbEntity
  8
1
100
AcDbVertex
100
AcDb3dPolylineVertex
 10
75.52935900000001
 20
11.45442699999999
 30
-2.075717
 70
    40
  0
VERTEX
  5
2E8F4
330
2E8D1
100
AcDbEntity
  8
1
100
AcDbVertex
100
AcDb3dPolylineVertex
 10
75.17858100000002
 20
10.99311999999999
 30
-2.075717
 70
    40
  0
VERTEX
  5
2E8F5
330
2E8D1
100
AcDbEntity
  8
1
100
AcDbVertex
100
AcDb3dPolylineVertex
 10
74.858413
 20
10.51492999999999
 30
-2.075717
 70
    40
  0
VERTEX
  5
2E8F6
330
2E8D1
100
AcDbEntity
  8
1
100
AcDbVertex
100
AcDb3dPolylineVertex
 10
74.565449
 20
10.01716999999999
 30
-2.075717
 70
    40
  0
VERTEX
  5
2E8F7
330
2E8D1
100
AcDbEntity
  8
1
100
AcDbVertex
100
AcDb3dPolylineVertex
 10
74.29628200000002
 20
9.497147999999992
 30
-2.075717
 70
    40
  0
VERTEX
  5
2E8F8
330
2E8D1
100
AcDbEntity
  8
1
100
AcDbVertex
100
AcDb3dPolylineVertex
 10
74.047505
 20
8.952176999999991
 30
-2.075717
 70
    40
  0
VERTEX
  5
2E8F9
330
2E8D1
100
AcDbEntity
  8
1
100
AcDbVertex
100
AcDb3dPolylineVertex
 10
73.75680700000002
 20
8.202525999999991
 30
-2.075717
 70
    40
  0
VERTEX
  5
2E8FA
330
2E8D1
100
AcDbEntity
  8
1
100
AcDbVertex
100
AcDb3dPolylineVertex
 10
73.529844
 20
7.45457099999999
 30
-2.075717
 70
    40
  0
VERTEX
  5
2E8FB
330
2E8D1
100
AcDbEntity
  8
1
100
AcDbVertex
100
AcDb3dPolylineVertex
 10
73.364199
 20
6.700254999999986
 30
-2.075717
 70
    40
  0
VERTEX
  5
2E8FC
330
2E8D1
100
AcDbEntity
  8
1
100
AcDbVertex
100
AcDb3dPolylineVertex
 10
73.25745900000002
 20
5.931525999999991
 30
-2.075717
 70
    40
  0
VERTEX
  5
2E8FD
330
2E8D1
100
AcDbEntity
  8
1
100
AcDbVertex
100
AcDb3dPolylineVertex
 10
73.20720800000002
 20
5.140327999999987
 30
-2.075717
 70
    40
  0
VERTEX
  5
2E8FE
330
2E8D1
100
AcDbEntity
  8
1
100
AcDbVertex
100
AcDb3dPolylineVertex
 10
73.21103100000001
 20
4.318607999999986
 30
-2.075717
 70
    40
  0
VERTEX
  5
2E8FF
330
2E8D1
100
AcDbEntity
  8
1
100
AcDbVertex
100
AcDb3dPolylineVertex
 10
73.240037
 20
3.782574999999988
 30
-2.075717
 70
    40
  0
VERTEX
  5
2E900
330
2E8D1
100
AcDbEntity
  8
1
100
AcDbVertex
100
AcDb3dPolylineVertex
 10
73.28754299999999
 20
3.269210999999998
 30
-2.075717
 70
    40
  0
VERTEX
  5
2E901
330
2E8D1
100
AcDbEntity
  8
1
100
AcDbVertex
100
AcDb3dPolylineVertex
 10
73.437361
 20
2.275077000000008
 30
-2.075717
 70
    40
  0
VERTEX
  5
2E902
330
2E8D1
100
AcDbEntity
  8
1
100
AcDbVertex
100
AcDb3dPolylineVertex
 10
73.65910300000002
 20
1.265377999999987
 30
-2.075717
 70
    40
  0
VERTEX
  5
2E903
330
2E8D1
100
AcDbEntity
  8
1
100
AcDbVertex
100
AcDb3dPolylineVertex
 10
73.65910300000002
 20
1.265377999999987
 30
-2.075717
 70
    40
  0
SEQEND
  5
2E904
330
2E8D1
100
AcDbEntity
  8
1
  0
POLYLINE
  5
2E905
330
18
100
AcDbEntity
  8
1
100
AcDb3dPolyline
 66
     1
 10
0.0
 20
0.0
 30
0.0
 70
    12
 75
     6
  0
VERTEX
  5
2E906
330
2E905
100
AcDbEntity
  8
1
100
AcDbVertex
100
AcDb3dPolylineVertex
 10
105.507548
 20
5.227748999999987
 30
-2.075717
 70
    48
  0
VERTEX
  5
2E907
330
2E905
100
AcDbEntity
  8
1
100
AcDbVertex
100
AcDb3dPolylineVertex
 10
105.340697
 20
4.959367999999988
 30
-2.075717
 70
    48
  0
VERTEX
  5
2E908
330
2E905
100
AcDbEntity
  8
1
100
AcDbVertex
100
AcDb3dPolylineVertex
 10
105.147905
 20
4.721398999999987
 30
-2.075717
 70
    48
  0
VERTEX
  5
2E909
330
2E905
100
AcDbEntity
  8
1
100
AcDbVertex
100
AcDb3dPolylineVertex
 10
104.756469
 20
4.348158999999988
 30
-2.075717
 70
    48
  0
VERTEX
  5
2E90A
330
2E905
100
AcDbEntity
  8
1
100
AcDbVertex
100
AcDb3dPolylineVertex
 10
104.598182
 20
4.221154999999995
 30
-2.075717
 70
    48
  0
VERTEX
  5
2E90B
330
2E905
100
AcDbEntity
  8
1
100
AcDbVertex
100
AcDb3dPolylineVertex
 10
104.060444
 20
3.857614999999998
 30
-2.075717
 70
    48
  0
VERTEX
  5
2E90C
330
2E905
100
AcDbEntity
  8
1
100
AcDbVertex
100
AcDb3dPolylineVertex
 10
103.66377
 20
3.678699999999988
 30
-2.075717
 70
    48
  0
VERTEX
  5
2E90D
330
2E905
100
AcDbEntity
  8
1
100
AcDbVertex
100
AcDb3dPolylineVertex
 10
102.632995
 20
3.397994999999987
 30
-2.075717
 70
    48
  0
VERTEX
  5
2E90E
330
2E905
100
AcDbEntity
  8
1
100
AcDbVertex
100
AcDb3dPolylineVertex
 10
101.976639
 20
3.376764999999988
 30
-2.075717
 70
    48
  0
VERTEX
  5
2E90F
330
2E905
100
AcDbEntity
  8
1
100
AcDbVertex
100
AcDb3dPolylineVertex
 10
101.047387
 20
3.560593999999986
 30
-2.075717
 70
    48
  0
VERTEX
  5
2E910
330
2E905
100
AcDbEntity
  8
1
100
AcDbVertex
100
AcDb3dPolylineVertex
 10
100.793463
 20
3.637202999999987
 30
-2.075717
 70
    48
  0
VERTEX
  5
2E911
330
2E905
100
AcDbEntity
  8
1
100
AcDbVertex
100
AcDb3dPolylineVertex
 10
100.143796
 20
3.905616999999997
 30
-2.075717
 70
    48
  0
VERTEX
  5
2E912
330
2E905
100
AcDbEntity
  8
1
100
AcDbVertex
100
AcDb3dPolylineVertex
 10
99.83208600000001
 20
4.086802999999997
 30
-2.075717
 70
    48
  0
VERTEX
  5
2E913
330
2E905
100
AcDbEntity
  8
1
100
AcDbVertex
100
AcDb3dPolylineVertex
 10
99.122658
 20
4.632812999999988
 30
-2.075717
 70
    48
  0
VERTEX
  5
2E914
330
2E905
100
AcDbEntity
  8
1
100
AcDbVertex
100
AcDb3dPolylineVertex
 10
98.80239899999999
 20
4.973984999999988
 30
-2.075717
 70
    48
  0
VERTEX
  5
2E915
330
2E905
100
AcDbEntity
  8
1
100
AcDbVertex
100
AcDb3dPolylineVertex
 10
98.16420499999999
 20
5.961770999999987
 30
-2.075717
 70
    48
  0
VERTEX
  5
2E916
330
2E905
100
AcDbEntity
  8
1
100
AcDbVertex
100
AcDb3dPolylineVertex
 10
97.95822499999999
 20
6.514599999999987
 30
-2.075717
 70
    48
  0
VERTEX
  5
2E917
330
2E905
100
AcDbEntity
  8
1
100
AcDbVertex
100
AcDb3dPolylineVertex
 10
97.80246400000001
 20
8.073934999999991
 30
-2.075717
 70
    48
  0
VERTEX
  5
2E918
330
2E905
100
AcDbEntity
  8
1
100
AcDbVertex
100
AcDb3dPolylineVertex
 10
97.93570500000001
 20
8.766030999999991
 30
-2.075717
 70
    48
  0
VERTEX
  5
2E919
330
2E905
100
AcDbEntity
  8
1
100
AcDbVertex
100
AcDb3dPolylineVertex
 10
98.431826
 20
9.564046999999991
 30
-2.075717
 70
    48
  0
VERTEX
  5
2E91A
330
2E905
100
AcDbEntity
  8
1
100
AcDbVertex
100
AcDb3dPolylineVertex
 10
105.507548
 20
5.227748999999987
 30
-2.075717
 70
    40
  0
VERTEX
  5
2E91B
330
2E905
100
AcDbEntity
  8
1
100
AcDbVertex
100
AcDb3dPolylineVertex
 10
105.331485
 20
4.968928999999987
 30
-2.075717
 70
    40
  0
VERTEX
  5
2E91C
330
2E905
100
AcDbEntity
  8
1
100
AcDbVertex
100
AcDb3dPolylineVertex
 10
105.134736
 20
4.726924999999988
 30
-2.075717
 70
    40
  0
VERTEX
  5
2E91D
330
2E905
100
AcDbEntity
  8
1
100
AcDbVertex
100
AcDb3dPolylineVertex
 10
104.91391
 20
4.498280999999998
 30
-2.075717
 70
    40
  0
VERTEX
  5
2E91E
330
2E905
100
AcDbEntity
  8
1
100
AcDbVertex
100
AcDb3dPolylineVertex
 10
104.592564
 20
4.224157999999997
 30
-2.075717
 70
    40
  0
VERTEX
  5
2E91F
330
2E905
100
AcDbEntity
  8
1
100
AcDbVertex
100
AcDb3dPolylineVertex
 10
104.421042
 20
4.101397999999988
 30
-2.075717
 70
    40
  0
VERTEX
  5
2E920
330
2E905
100
AcDbEntity
  8
1
100
AcDbVertex
100
AcDb3dPolylineVertex
 10
104.049102
 20
3.879282999999998
 30
-2.075717
 70
    40
  0
VERTEX
  5
2E921
330
2E905
100
AcDbEntity
  8
1
100
AcDbVertex
100
AcDb3dPolylineVertex
 10
103.657212
 20
3.700684999999986
 30
-2.075717
 70
    40
  0
VERTEX
  5
2E922
330
2E905
100
AcDbEntity
  8
1
100
AcDbVertex
100
AcDb3dPolylineVertex
 10
103.249471
 20
3.565875999999988
 30
-2.075717
 70
    40
  0
VERTEX
  5
2E923
330
2E905
100
AcDbEntity
  8
1
100
AcDbVertex
100
AcDb3dPolylineVertex
 10
102.938156
 20
3.494163999999988
 30
-2.075717
 70
    40
  0
VERTEX
  5
2E924
330
2E905
100
AcDbEntity
  8
1
100
AcDbVertex
100
AcDb3dPolylineVertex
 10
102.621675
 20
3.446943999999986
 30
-2.075717
 70
    40
  0
VERTEX
  5
2E925
330
2E905
100
AcDbEntity
  8
1
100
AcDbVertex
100
AcDb3dPolylineVertex
 10
102.301508
 20
3.424263999999987
 30
-2.075717
 70
    40
  0
VERTEX
  5
2E926
330
2E905
100
AcDbEntity
  8
1
100
AcDbVertex
100
AcDb3dPolylineVertex
 10
101.979136
 20
3.426172999999998
 30
-2.075717
 70
    40
  0
VERTEX
  5
2E927
330
2E905
100
AcDbEntity
  8
1
100
AcDbVertex
100
AcDb3dPolylineVertex
 10
101.656037
 20
3.452719999999988
 30
-2.075717
 70
    40
  0
VERTEX
  5
2E928
330
2E905
100
AcDbEntity
  8
1
100
AcDbVertex
100
AcDb3dPolylineVertex
 10
101.333694
 20
3.503954999999995
 30
-2.075717
 70
    40
  0
VERTEX
  5
2E929
330
2E905
100
AcDbEntity
  8
1
100
AcDbVertex
100
AcDb3dPolylineVertex
 10
100.787932
 20
3.649108999999988
 30
-2.075717
 70
    40
  0
VERTEX
  5
2E92A
330
2E905
100
AcDbEntity
  8
1
100
AcDbVertex
100
AcDb3dPolylineVertex
 10
100.516825
 20
3.751497999999988
 30
-2.075717
 70
    40
  0
VERTEX
  5
2E92B
330
2E905
100
AcDbEntity
  8
1
100
AcDbVertex
100
AcDb3dPolylineVertex
 10
100.161952
 20
3.915820999999988
 30
-2.075717
 70
    40
  0
VERTEX
  5
2E92C
330
2E905
100
AcDbEntity
  8
1
100
AcDbVertex
100
AcDb3dPolylineVertex
 10
99.834261
 20
4.105277999999998
 30
-2.075717
 70
    40
  0
VERTEX
  5
2E92D
330
2E905
100
AcDbEntity
  8
1
100
AcDbVertex
100
AcDb3dPolylineVertex
 10
99.52004999999999
 20
4.326960999999998
 30
-2.075717
 70
    40
  0
VERTEX
  5
2E92E
330
2E905
100
AcDbEntity
  8
1
100
AcDbVertex
100
AcDb3dPolylineVertex
 10
99.14709999999999
 20
4.646542999999995
 30
-2.075717
 70
    40
  0
VERTEX
  5
2E92F
330
2E905
100
AcDbEntity
  8
1
100
AcDbVertex
100
AcDb3dPolylineVertex
 10
98.817962
 20
5.001410999999988
 30
-2.075717
 70
    40
  0
VERTEX
  5
2E930
330
2E905
100
AcDbEntity
  8
1
100
AcDbVertex
100
AcDb3dPolylineVertex
 10
98.52502300000001
 20
5.403302999999986
 30
-2.075717
 70
    40
  0
VERTEX
  5
2E931
330
2E905
100
AcDbEntity
  8
1
100
AcDbVertex
100
AcDb3dPolylineVertex
 10
98.357436
 20
5.682711999999987
 30
-2.075717
 70
    40
  0
VERTEX
  5
2E932
330
2E905
100
AcDbEntity
  8
1
100
AcDbVertex
100
AcDb3dPolylineVertex
 10
98.21517200000002
 20
5.965050999999986
 30
-2.075717
 70
    40
  0
VERTEX
  5
2E933
330
2E905
100
AcDbEntity
  8
1
100
AcDbVertex
100
AcDb3dPolylineVertex
 10
98.097746
 20
6.254188999999986
 30
-2.075717
 70
    40
  0
VERTEX
  5
2E934
330
2E905
100
AcDbEntity
  8
1
100
AcDbVertex
100
AcDb3dPolylineVertex
 10
98.00467300000001
 20
6.553994999999991
 30
-2.075717
 70
    40
  0
VERTEX
  5
2E935
330
2E905
100
AcDbEntity
  8
1
100
AcDbVertex
100
AcDb3dPolylineVertex
 10
97.93547000000003
 20
6.868339999999991
 30
-2.075717
 70
    40
  0
VERTEX
  5
2E936
330
2E905
100
AcDbEntity
  8
1
100
AcDbVertex
100
AcDb3dPolylineVertex
 10
97.88965199999999
 20
7.201091999999986
 30
-2.075717
 70
    40
  0
VERTEX
  5
2E937
330
2E905
100
AcDbEntity
  8
1
100
AcDbVertex
100
AcDb3dPolylineVertex
 10
97.86508600000001
 20
7.623778999999986
 30
-2.075717
 70
    40
  0
VERTEX
  5
2E938
330
2E905
100
AcDbEntity
  8
1
100
AcDbVertex
100
AcDb3dPolylineVertex
 10
97.88121600000001
 20
8.02430299999999
 30
-2.075717
 70
    40
  0
VERTEX
  5
2E939
330
2E905
100
AcDbEntity
  8
1
100
AcDbVertex
100
AcDb3dPolylineVertex
 10
97.94199800000001
 20
8.410629999999986
 30
-2.075717
 70
    40
  0
VERTEX
  5
2E93A
330
2E905
100
AcDbEntity
  8
1
100
AcDbVertex
100
AcDb3dPolylineVertex
 10
98.05138900000001
 20
8.790719999999991
 30
-2.075717
 70
    40
  0
VERTEX
  5
2E93B
330
2E905
100
AcDbEntity
  8
1
100
AcDbVertex
100
AcDb3dPolylineVertex
 10
98.213346
 20
9.172538999999988
 30
-2.075717
 70
    40
  0
VERTEX
  5
2E93C
330
2E905
100
AcDbEntity
  8
1
100
AcDbVertex
100
AcDb3dPolylineVertex
 10
98.431826
 20
9.564046999999991
 30
-2.075717
 70
    40
  0
SEQEND
  5
2E93D
330
2E905
100
AcDbEntity
  8
1
  0
POLYLINE
  5
2E93E
330
18
100
AcDbEntity
  8
1
100
AcDb3dPolyline
 66
     1
 10
0.0
 20
0.0
 30
0.0
 70
    12
 75
     6
  0
VERTEX
  5
2E93F
330
2E93E
100
AcDbEntity
  8
1
100
AcDbVertex
100
AcDb3dPolylineVertex
 10
89.718069
 20
-10.33770900000001
 30
-2.075717
 70
    48
  0
VERTEX
  5
2E940
330
2E93E
100
AcDbEntity
  8
1
100
AcDbVertex
100
AcDb3dPolylineVertex
 10
90.5554
 20
-10.40978600000001
 30
-2.075717
 70
    48
  0
VERTEX
  5
2E941
330
2E93E
100
AcDbEntity
  8
1
100
AcDbVertex
100
AcDb3dPolylineVertex
 10
91.39283199999999
 20
-10.48069200000001
 30
-2.075717
 70
    48
  0
VERTEX
  5
2E942
330
2E93E
100
AcDbEntity
  8
1
100
AcDbVertex
100
AcDb3dPolylineVertex
 10
93.18448899999999
 20
-10.629955
 30
-2.075717
 70
    48
  0
VERTEX
  5
2E943
330
2E93E
100
AcDbEntity
  8
1
100
AcDbVertex
100
AcDb3dPolylineVertex
 10
94.138744
 20
-10.70797600000001
 30
-2.075717
 70
    48
  0
VERTEX
  5
2E944
330
2E93E
100
AcDbEntity
  8
1
100
AcDbVertex
100
AcDb3dPolylineVertex
 10
95.093112
 20
-10.78459200000001
 30
-2.075717
 70
    48
  0
VERTEX
  5
2E945
330
2E93E
100
AcDbEntity
  8
1
100
AcDbVertex
100
AcDb3dPolylineVertex
 10
89.718069
 20
-10.33770900000001
 30
-2.075717
 70
    40
  0
VERTEX
  5
2E946
330
2E93E
100
AcDbEntity
  8
1
100
AcDbVertex
100
AcDb3dPolylineVertex
 10
95.093112
 20
-10.78459200000001
 30
-2.075717
 70
    40
  0
SEQEND
  5
2E947
330
2E93E
100
AcDbEntity
  8
1
  0
POLYLINE
  5
2E948
330
18
100
AcDbEntity
  8
1
100
AcDb3dPolyline
 66
     1
 10
0.0
 20
0.0
 30
0.0
 70
    12
 75
     6
  0
VERTEX
  5
2E949
330
2E948
100
AcDbEntity
  8
1
100
AcDbVertex
100
AcDb3dPolylineVertex
 10
85.85198199999998
 20
11.36265699999999
 30
-2.075717
 70
    48
  0
VERTEX
  5
2E94A
330
2E948
100
AcDbEntity
  8
1
100
AcDbVertex
100
AcDb3dPolylineVertex
 10
85.98541199999997
 20
11.35149499999999
 30
-2.075717
 70
    48
  0
VERTEX
  5
2E94B
330
2E948
100
AcDbEntity
  8
1
100
AcDbVertex
100
AcDb3dPolylineVertex
 10
86.09970600000002
 20
11.34291299999999
 30
-2.075717
 70
    48
  0
VERTEX
  5
2E94C
330
2E948
100
AcDbEntity
  8
1
100
AcDbVertex
100
AcDb3dPolylineVertex
 10
86.55088799999999
 20
11.27405199999999
 30
-2.075717
 70
    48
  0
VERTEX
  5
2E94D
330
2E948
100
AcDbEntity
  8
1
100
AcDbVertex
100
AcDb3dPolylineVertex
 10
86.75205100000004
 20
11.24031499999999
 30
-2.075717
 70
    48
  0
VERTEX
  5
2E94E
330
2E948
100
AcDbEntity
  8
1
100
AcDbVertex
100
AcDb3dPolylineVertex
 10
87.13310400000002
 20
10.86331099999999
 30
-2.075717
 70
    48
  0
VERTEX
  5
2E94F
330
2E948
100
AcDbEntity
  8
1
100
AcDbVertex
100
AcDb3dPolylineVertex
 10
87.17902300000002
 20
10.79603099999999
 30
-2.075717
 70
    48
  0
VERTEX
  5
2E950
330
2E948
100
AcDbEntity
  8
1
100
AcDbVertex
100
AcDb3dPolylineVertex
 10
87.225722
 20
10.55919499999999
 30
-2.075717
 70
    48
  0
VERTEX
  5
2E951
330
2E948
100
AcDbEntity
  8
1
100
AcDbVertex
100
AcDb3dPolylineVertex
 10
87.22134399999999
 20
10.44524999999999
 30
-2.075717
 70
    48
  0
VERTEX
  5
2E952
330
2E948
100
AcDbEntity
  8
1
100
AcDbVertex
100
AcDb3dPolylineVertex
 10
87.17244599999999
 20
10.08814299999999
 30
-2.075717
 70
    48
  0
VERTEX
  5
2E953
330
2E948
100
AcDbEntity
  8
1
100
AcDbVertex
100
AcDb3dPolylineVertex
 10
87.06489500000001
 20
9.929691999999988
 30
-2.075717
 70
    48
  0
VERTEX
  5
2E954
330
2E948
100
AcDbEntity
  8
1
100
AcDbVertex
100
AcDb3dPolylineVertex
 10
86.68395700000003
 20
9.426744999999991
 30
-2.075717
 70
    48
  0
VERTEX
  5
2E955
330
2E948
100
AcDbEntity
  8
1
100
AcDbVertex
100
AcDb3dPolylineVertex
 10
86.42277699999999
 20
9.078428999999987
 30
-2.075717
 70
    48
  0
VERTEX
  5
2E956
330
2E948
100
AcDbEntity
  8
1
100
AcDbVertex
100
AcDb3dPolylineVertex
 10
85.47044500000001
 20
8.116255999999991
 30
-2.075717
 70
    48
  0
VERTEX
  5
2E957
330
2E948
100
AcDbEntity
  8
1
100
AcDbVertex
100
AcDb3dPolylineVertex
 10
84.68777199999998
 20
7.60535299999999
 30
-2.075717
 70
    48
  0
VERTEX
  5
2E958
330
2E948
100
AcDbEntity
  8
1
100
AcDbVertex
100
AcDb3dPolylineVertex
 10
83.53980699999999
 20
6.98067099999999
 30
-2.075717
 70
    48
  0
VERTEX
  5
2E959
330
2E948
100
AcDbEntity
  8
1
100
AcDbVertex
100
AcDb3dPolylineVertex
 10
83.21268400000002
 20
6.807994999999992
 30
-2.075717
 70
    48
  0
VERTEX
  5
2E95A
330
2E948
100
AcDbEntity
  8
1
100
AcDbVertex
100
AcDb3dPolylineVertex
 10
82.40917300000003
 20
6.440770999999991
 30
-2.075717
 70
    48
  0
VERTEX
  5
2E95B
330
2E948
100
AcDbEntity
  8
1
100
AcDbVertex
100
AcDb3dPolylineVertex
 10
81.947702
 20
6.27657999999999
 30
-2.075717
 70
    48
  0
VERTEX
  5
2E95C
330
2E948
100
AcDbEntity
  8
1
100
AcDbVertex
100
AcDb3dPolylineVertex
 10
81.14978599999998
 20
6.117875999999991
 30
-2.075717
 70
    48
  0
VERTEX
  5
2E95D
330
2E948
100
AcDbEntity
  8
1
100
AcDbVertex
100
AcDb3dPolylineVertex
 10
80.858041
 20
6.06314899999999
 30
-2.075717
 70
    48
  0
VERTEX
  5
2E95E
330
2E948
100
AcDbEntity
  8
1
100
AcDbVertex
100
AcDb3dPolylineVertex
 10
80.25761000000001
 20
6.00788599999999
 30
-2.075717
 70
    48
  0
VERTEX
  5
2E95F
330
2E948
100
AcDbEntity
  8
1
100
AcDbVertex
100
AcDb3dPolylineVertex
 10
79.98871500000001
 20
6.012451999999991
 30
-2.075717
 70
    48
  0
VERTEX
  5
2E960
330
2E948
100
AcDbEntity
  8
1
100
AcDbVertex
100
AcDb3dPolylineVertex
 10
79.510152
 20
6.344928999999991
 30
-2.075717
 70
    48
  0
VERTEX
  5
2E961
330
2E948
100
AcDbEntity
  8
1
100
AcDbVertex
100
AcDb3dPolylineVertex
 10
79.431145
 20
6.44031599999999
 30
-2.075717
 70
    48
  0
VERTEX
  5
2E962
330
2E948
100
AcDbEntity
  8
1
100
AcDbVertex
100
AcDb3dPolylineVertex
 10
79.22829400000002
 20
6.710455999999991
 30
-2.075717
 70
    48
  0
VERTEX
  5
2E963
330
2E948
100
AcDbEntity
  8
1
100
AcDbVertex
100
AcDb3dPolylineVertex
 10
79.14647600000002
 20
6.82576199999999
 30
-2.075717
 70
    48
  0
VERTEX
  5
2E964
330
2E948
100
AcDbEntity
  8
1
100
AcDbVertex
100
AcDb3dPolylineVertex
 10
78.97266400000003
 20
7.306691999999991
 30
-2.075717
 70
    48
  0
VERTEX
  5
2E965
330
2E948
100
AcDbEntity
  8
1
100
AcDbVertex
100
AcDb3dPolylineVertex
 10
79.01514399999998
 20
7.515747999999991
 30
-2.075717
 70
    48
  0
VERTEX
  5
2E966
330
2E948
100
AcDbEntity
  8
1
100
AcDbVertex
100
AcDb3dPolylineVertex
 10
79.110068
 20
8.208160999999986
 30
-2.075717
 70
    48
  0
VERTEX
  5
2E967
330
2E948
100
AcDbEntity
  8
1
100
AcDbVertex
100
AcDb3dPolylineVertex
 10
79.31495900000001
 20
8.528580999999991
 30
-2.075717
 70
    48
  0
VERTEX
  5
2E968
330
2E948
100
AcDbEntity
  8
1
100
AcDbVertex
100
AcDb3dPolylineVertex
 10
79.745446
 20
9.241485999999991
 30
-2.075717
 70
    48
  0
VERTEX
  5
2E969
330
2E948
100
AcDbEntity
  8
1
100
AcDbVertex
100
AcDb3dPolylineVertex
 10
80.019244
 20
9.489519999999991
 30
-2.075717
 70
    48
  0
VERTEX
  5
2E96A
330
2E948
100
AcDbEntity
  8
1
100
AcDbVertex
100
AcDb3dPolylineVertex
 10
81.00658299999997
 20
10.15244599999999
 30
-2.075717
 70
    48
  0
VERTEX
  5
2E96B
330
2E948
100
AcDbEntity
  8
1
100
AcDbVertex
100
AcDb3dPolylineVertex
 10
81.558133
 20
10.50128899999999
 30
-2.075717
 70
    48
  0
VERTEX
  5
2E96C
330
2E948
100
AcDbEntity
  8
1
100
AcDbVertex
100
AcDb3dPolylineVertex
 10
82.65425900000002
 20
10.92150799999999
 30
-2.075717
 70
    48
  0
VERTEX
  5
2E96D
330
2E948
100
AcDbEntity
  8
1
100
AcDbVertex
100
AcDb3dPolylineVertex
 10
83.044589
 20
11.04666399999999
 30
-2.075717
 70
    48
  0
VERTEX
  5
2E96E
330
2E948
100
AcDbEntity
  8
1
100
AcDbVertex
100
AcDb3dPolylineVertex
 10
84.01326199999997
 20
11.28807299999999
 30
-2.075717
 70
    48
  0
VERTEX
  5
2E96F
330
2E948
100
AcDbEntity
  8
1
100
AcDbVertex
100
AcDb3dPolylineVertex
 10
84.547702
 20
11.36925399999999
 30
-2.075717
 70
    48
  0
VERTEX
  5
2E970
330
2E948
100
AcDbEntity
  8
1
100
AcDbVertex
100
AcDb3dPolylineVertex
 10
85.36185200000002
 20
11.39046299999999
 30
-2.075717
 70
    48
  0
VERTEX
  5
2E971
330
2E948
100
AcDbEntity
  8
1
100
AcDbVertex
100
AcDb3dPolylineVertex
 10
85.60189600000002
 20
11.38357599999999
 30
-2.075717
 70
    48
  0
VERTEX
  5
2E972
330
2E948
100
AcDbEntity
  8
1
100
AcDbVertex
100
AcDb3dPolylineVertex
 10
85.85198199999998
 20
11.36265699999999
 30
-2.075717
 70
    48
  0
VERTEX
  5
2E973
330
2E948
100
AcDbEntity
  8
1
100
AcDbVertex
100
AcDb3dPolylineVertex
 10
85.85198199999998
 20
11.36265699999999
 30
-2.075717
 70
    40
  0
VERTEX
  5
2E974
330
2E948
100
AcDbEntity
  8
1
100
AcDbVertex
100
AcDb3dPolylineVertex
 10
86.24024600000002
 20
11.32146299999999
 30
-2.075717
 70
    40
  0
VERTEX
  5
2E975
330
2E948
100
AcDbEntity
  8
1
100
AcDbVertex
100
AcDb3dPolylineVertex
 10
86.52120000000001
 20
11.26925999999999
 30
-2.075717
 70
    40
  0
VERTEX
  5
2E976
330
2E948
100
AcDbEntity
  8
1
100
AcDbVertex
100
AcDb3dPolylineVertex
 10
86.77000000000004
 20
11.17007699999999
 30
-2.075717
 70
    40
  0
VERTEX
  5
2E977
330
2E948
100
AcDbEntity
  8
1
100
AcDbVertex
100
AcDb3dPolylineVertex
 10
86.89510100000005
 20
11.08533799999999
 30
-2.075717
 70
    40
  0
VERTEX
  5
2E978
330
2E948
100
AcDbEntity
  8
1
100
AcDbVertex
100
AcDb3dPolylineVertex
 10
87.11451700000003
 20
10.87275099999999
 30
-2.075717
 70
    40
  0
VERTEX
  5
2E979
330
2E948
100
AcDbEntity
  8
1
100
AcDbVertex
100
AcDb3dPolylineVertex
 10
87.169644
 20
10.78469099999999
 30
-2.075717
 70
    40
  0
VERTEX
  5
2E97A
330
2E948
100
AcDbEntity
  8
1
100
AcDbVertex
100
AcDb3dPolylineVertex
 10
87.20075300000003
 20
10.68582499999999
 30
-2.075717
 70
    40
  0
VERTEX
  5
2E97B
330
2E948
100
AcDbEntity
  8
1
100
AcDbVertex
100
AcDb3dPolylineVertex
 10
87.21588600000002
 20
10.43808299999999
 30
-2.075717
 70
    40
  0
VERTEX
  5
2E97C
330
2E948
100
AcDbEntity
  8
1
100
AcDbVertex
100
AcDb3dPolylineVertex
 10
87.20221200000002
 20
10.30552999999999
 30
-2.075717
 70
    40
  0
VERTEX
  5
2E97D
330
2E948
100
AcDbEntity
  8
1
100
AcDbVertex
100
AcDb3dPolylineVertex
 10
87.148967
 20
10.10564599999999
 30
-2.075717
 70
    40
  0
VERTEX
  5
2E97E
330
2E948
100
AcDbEntity
  8
1
100
AcDbVertex
100
AcDb3dPolylineVertex
 10
87.058566
 20
9.932196999999991
 30
-2.075717
 70
    40
  0
VERTEX
  5
2E97F
330
2E948
100
AcDbEntity
  8
1
100
AcDbVertex
100
AcDb3dPolylineVertex
 10
86.682514
 20
9.42743399999999
 30
-2.075717
 70
    40
  0
VERTEX
  5
2E980
330
2E948
100
AcDbEntity
  8
1
100
AcDbVertex
100
AcDb3dPolylineVertex
 10
86.409905
 20
9.090319999999987
 30
-2.075717
 70
    40
  0
VERTEX
  5
2E981
330
2E948
100
AcDbEntity
  8
1
100
AcDbVertex
100
AcDb3dPolylineVertex
 10
86.11808400000002
 20
8.77058699999999
 30
-2.075717
 70
    40
  0
VERTEX
  5
2E982
330
2E948
100
AcDbEntity
  8
1
100
AcDbVertex
100
AcDb3dPolylineVertex
 10
85.783488
 20
8.45502199999999
 30
-2.075717
 70
    40
  0
VERTEX
  5
2E983
330
2E948
100
AcDbEntity
  8
1
100
AcDbVertex
100
AcDb3dPolylineVertex
 10
85.42924500000003
 20
8.16125399999999
 30
-2.075717
 70
    40
  0
VERTEX
  5
2E984
330
2E948
100
AcDbEntity
  8
1
100
AcDbVertex
100
AcDb3dPolylineVertex
 10
85.05821199999997
 20
7.88717199999999
 30
-2.075717
 70
    40
  0
VERTEX
  5
2E985
330
2E948
100
AcDbEntity
  8
1
100
AcDbVertex
100
AcDb3dPolylineVertex
 10
84.673248
 20
7.630667999999992
 30
-2.075717
 70
    40
  0
VERTEX
  5
2E986
330
2E948
100
AcDbEntity
  8
1
100
AcDbVertex
100
AcDb3dPolylineVertex
 10
83.87295999999997
 20
7.161960999999991
 30
-2.075717
 70
    40
  0
VERTEX
  5
2E987
330
2E948
100
AcDbEntity
  8
1
100
AcDbVertex
100
AcDb3dPolylineVertex
 10
83.20726400000003
 20
6.812600999999991
 30
-2.075717
 70
    40
  0
VERTEX
  5
2E988
330
2E948
100
AcDbEntity
  8
1
100
AcDbVertex
100
AcDb3dPolylineVertex
 10
82.866513
 20
6.649786999999991
 30
-2.075717
 70
    40
  0
VERTEX
  5
2E989
330
2E948
100
AcDbEntity
  8
1
100
AcDbVertex
100
AcDb3dPolylineVertex
 10
82.406652
 20
6.456475999999987
 30
-2.075717
 70
    40
  0
VERTEX
  5
2E98A
330
2E948
100
AcDbEntity
  8
1
100
AcDbVertex
100
AcDb3dPolylineVertex
 10
81.93717000000003
 20
6.297628999999991
 30
-2.075717
 70
    40
  0
VERTEX
  5
2E98B
330
2E948
100
AcDbEntity
  8
1
100
AcDbVertex
100
AcDb3dPolylineVertex
 10
81.45120099999997
 20
6.177826999999991
 30
-2.075717
 70
    40
  0
VERTEX
  5
2E98C
330
2E948
100
AcDbEntity
  8
1
100
AcDbVertex
100
AcDb3dPolylineVertex
 10
80.85556999999999
 20
6.071340999999986
 30
-2.075717
 70
    40
  0
VERTEX
  5
2E98D
330
2E948
100
AcDbEntity
  8
1
100
AcDbVertex
100
AcDb3dPolylineVertex
 10
80.55674899999997
 20
6.035417999999991
 30
-2.075717
 70
    40
  0
VERTEX
  5
2E98E
330
2E948
100
AcDbEntity
  8
1
100
AcDbVertex
100
AcDb3dPolylineVertex
 10
80.26503600000003
 20
6.025212999999991
 30
-2.075717
 70
    40
  0
VERTEX
  5
2E98F
330
2E948
100
AcDbEntity
  8
1
100
AcDbVertex
100
AcDb3dPolylineVertex
 10
80.121763
 20
6.040560999999986
 30
-2.075717
 70
    40
  0
VERTEX
  5
2E990
330
2E948
100
AcDbEntity
  8
1
100
AcDbVertex
100
AcDb3dPolylineVertex
 10
79.97755600000002
 20
6.076170999999991
 30
-2.075717
 70
    40
  0
VERTEX
  5
2E991
330
2E948
100
AcDbEntity
  8
1
100
AcDbVertex
100
AcDb3dPolylineVertex
 10
79.830425
 20
6.137011999999987
 30
-2.075717
 70
    40
  0
VERTEX
  5
2E992
330
2E948
100
AcDbEntity
  8
1
100
AcDbVertex
100
AcDb3dPolylineVertex
 10
79.67837800000002
 20
6.228055999999991
 30
-2.075717
 70
    40
  0
VERTEX
  5
2E993
330
2E948
100
AcDbEntity
  8
1
100
AcDbVertex
100
AcDb3dPolylineVertex
 10
79.53586200000002
 20
6.339891999999991
 30
-2.075717
 70
    40
  0
VERTEX
  5
2E994
330
2E948
100
AcDbEntity
  8
1
100
AcDbVertex
100
AcDb3dPolylineVertex
 10
79.33256000000001
 20
6.571603999999991
 30
-2.075717
 70
    40
  0
VERTEX
  5
2E995
330
2E948
100
AcDbEntity
  8
1
100
AcDbVertex
100
AcDb3dPolylineVertex
 10
79.15084499999998
 20
6.848014999999991
 30
-2.075717
 70
    40
  0
VERTEX
  5
2E996
330
2E948
100
AcDbEntity
  8
1
100
AcDbVertex
100
AcDb3dPolylineVertex
 10
79.07659600000002
 20
7.01911499999999
 30
-2.075717
 70
    40
  0
VERTEX
  5
2E997
330
2E948
100
AcDbEntity
  8
1
100
AcDbVertex
100
AcDb3dPolylineVertex
 10
79.01584200000002
 20
7.285674999999991
 30
-2.075717
 70
    40
  0
VERTEX
  5
2E998
330
2E948
100
AcDbEntity
  8
1
100
AcDbVertex
100
AcDb3dPolylineVertex
 10
79.01893699999998
 20
7.530822999999991
 30
-2.075717
 70
    40
  0
VERTEX
  5
2E999
330
2E948
100
AcDbEntity
  8
1
100
AcDbVertex
100
AcDb3dPolylineVertex
 10
79.092715
 20
7.988957999999991
 30
-2.075717
 70
    40
  0
VERTEX
  5
2E99A
330
2E948
100
AcDbEntity
  8
1
100
AcDbVertex
100
AcDb3dPolylineVertex
 10
79.15403900000002
 20
8.179279999999991
 30
-2.075717
 70
    40
  0
VERTEX
  5
2E99B
330
2E948
100
AcDbEntity
  8
1
100
AcDbVertex
100
AcDb3dPolylineVertex
 10
79.32385
 20
8.53610199999999
 30
-2.075717
 70
    40
  0
VERTEX
  5
2E99C
330
2E948
100
AcDbEntity
  8
1
100
AcDbVertex
100
AcDb3dPolylineVertex
 10
79.53149000000002
 20
8.887165999999988
 30
-2.075717
 70
    40
  0
VERTEX
  5
2E99D
330
2E948
100
AcDbEntity
  8
1
100
AcDbVertex
100
AcDb3dPolylineVertex
 10
79.76608300000002
 20
9.20956799999999
 30
-2.075717
 70
    40
  0
VERTEX
  5
2E99E
330
2E948
100
AcDbEntity
  8
1
100
AcDbVertex
100
AcDb3dPolylineVertex
 10
80.04470900000002
 20
9.482171999999991
 30
-2.075717
 70
    40
  0
VERTEX
  5
2E99F
330
2E948
100
AcDbEntity
  8
1
100
AcDbVertex
100
AcDb3dPolylineVertex
 10
80.37150600000002
 20
9.726038999999991
 30
-2.075717
 70
    40
  0
VERTEX
  5
2E9A0
330
2E948
100
AcDbEntity
  8
1
100
AcDbVertex
100
AcDb3dPolylineVertex
 10
80.986782
 20
10.12627199999999
 30
-2.075717
 70
    40
  0
VERTEX
  5
2E9A1
330
2E948
100
AcDbEntity
  8
1
100
AcDbVertex
100
AcDb3dPolylineVertex
 10
81.594619
 20
10.47287999999999
 30
-2.075717
 70
    40
  0
VERTEX
  5
2E9A2
330
2E948
100
AcDbEntity
  8
1
100
AcDbVertex
100
AcDb3dPolylineVertex
 10
82.24326299999999
 20
10.76394599999999
 30
-2.075717
 70
    40
  0
VERTEX
  5
2E9A3
330
2E948
100
AcDbEntity
  8
1
100
AcDbVertex
100
AcDb3dPolylineVertex
 10
83.05336600000002
 20
11.03958099999999
 30
-2.075717
 70
    40
  0
VERTEX
  5
2E9A4
330
2E948
100
AcDbEntity
  8
1
100
AcDbVertex
100
AcDb3dPolylineVertex
 10
83.46712600000001
 20
11.15196699999999
 30
-2.075717
 70
    40
  0
VERTEX
  5
2E9A5
330
2E948
100
AcDbEntity
  8
1
100
AcDbVertex
100
AcDb3dPolylineVertex
 10
84.01084000000002
 20
11.26933499999999
 30
-2.075717
 70
    40
  0
VERTEX
  5
2E9A6
330
2E948
100
AcDbEntity
  8
1
100
AcDbVertex
100
AcDb3dPolylineVertex
 10
84.55561199999998
 20
11.34750799999999
 30
-2.075717
 70
    40
  0
VERTEX
  5
2E9A7
330
2E948
100
AcDbEntity
  8
1
100
AcDbVertex
100
AcDb3dPolylineVertex
 10
85.11030100000002
 20
11.38390999999999
 30
-2.075717
 70
    40
  0
VERTEX
  5
2E9A8
330
2E948
100
AcDbEntity
  8
1
100
AcDbVertex
100
AcDb3dPolylineVertex
 10
85.604445
 20
11.37892099999999
 30
-2.075717
 70
    40
  0
VERTEX
  5
2E9A9
330
2E948
100
AcDbEntity
  8
1
100
AcDbVertex
100
AcDb3dPolylineVertex
 10
85.85198199999998
 20
11.36265699999999
 30
-2.075717
 70
    40
  0
SEQEND
  5
2E9AA
330
2E948
100
AcDbEntity
  8
1
  0
POLYLINE
  5
2E9AB
330
18
100
AcDbEntity
  8
1
100
AcDb3dPolyline
 66
     1
 10
0.0
 20
0.0
 30
0.0
 70
    12
 75
     6
  0
VERTEX
  5
2E9AC
330
2E9AB
100
AcDbEntity
  8
1
100
AcDbVertex
100
AcDb3dPolylineVertex
 10
73.65910300000002
 20
1.265377999999987
 30
-2.075717
 70
    48
  0
VERTEX
  5
2E9AD
330
2E9AB
100
AcDbEntity
  8
1
100
AcDbVertex
100
AcDb3dPolylineVertex
 10
73.79045600000002
 20
0.7349589999999875
 30
-2.075717
 70
    48
  0
VERTEX
  5
2E9AE
330
2E9AB
100
AcDbEntity
  8
1
100
AcDbVertex
100
AcDb3dPolylineVertex
 10
73.94519200000002
 20
0.2231089999999867
 30
-2.075717
 70
    48
  0
VERTEX
  5
2E9AF
330
2E9AB
100
AcDbEntity
  8
1
100
AcDbVertex
100
AcDb3dPolylineVertex
 10
74.370765
 20
-0.9280630000000016
 30
-2.075717
 70
    48
  0
VERTEX
  5
2E9B0
330
2E9AB
100
AcDbEntity
  8
1
100
AcDbVertex
100
AcDb3dPolylineVertex
 10
74.646143
 20
-1.528931
 30
-2.075717
 70
    48
  0
VERTEX
  5
2E9B1
330
2E9AB
100
AcDbEntity
  8
1
100
AcDbVertex
100
AcDb3dPolylineVertex
 10
75.22676700000002
 20
-2.579595000000009
 30
-2.075717
 70
    48
  0
VERTEX
  5
2E9B2
330
2E9AB
100
AcDbEntity
  8
1
100
AcDbVertex
100
AcDb3dPolylineVertex
 10
75.486626
 20
-2.996216
 30
-2.075717
 70
    48
  0
VERTEX
  5
2E9B3
330
2E9AB
100
AcDbEntity
  8
1
100
AcDbVertex
100
AcDb3dPolylineVertex
 10
76.52521
 20
-4.489599000000011
 30
-2.075717
 70
    48
  0
VERTEX
  5
2E9B4
330
2E9AB
100
AcDbEntity
  8
1
100
AcDbVertex
100
AcDb3dPolylineVertex
 10
77.42414100000002
 20
-5.441339000000008
 30
-2.075717
 70
    48
  0
VERTEX
  5
2E9B5
330
2E9AB
100
AcDbEntity
  8
1
100
AcDbVertex
100
AcDb3dPolylineVertex
 10
78.429025
 20
-6.261220000000013
 30
-2.075717
 70
    48
  0
VERTEX
  5
2E9B6
330
2E9AB
100
AcDbEntity
  8
1
100
AcDbVertex
100
AcDb3dPolylineVertex
 10
78.429025
 20
-6.261220000000013
 30
-2.075717
 70
    48
  0
VERTEX
  5
2E9B7
330
2E9AB
100
AcDbEntity
  8
1
100
AcDbVertex
100
AcDb3dPolylineVertex
 10
79.43384100000002
 20
-7.081046000000013
 30
-2.075717
 70
    48
  0
VERTEX
  5
2E9B8
330
2E9AB
100
AcDbEntity
  8
1
100
AcDbVertex
100
AcDb3dPolylineVertex
 10
80.54928000000002
 20
-7.762931000000013
 30
-2.075717
 70
    48
  0
VERTEX
  5
2E9B9
330
2E9AB
100
AcDbEntity
  8
1
100
AcDbVertex
100
AcDb3dPolylineVertex
 10
81.73028
 20
-8.319773000000013
 30
-2.075717
 70
    48
  0
VERTEX
  5
2E9BA
330
2E9AB
100
AcDbEntity
  8
1
100
AcDbVertex
100
AcDb3dPolylineVertex
 10
81.73028
 20
-8.319773000000013
 30
-2.075717
 70
    48
  0
VERTEX
  5
2E9BB
330
2E9AB
100
AcDbEntity
  8
1
100
AcDbVertex
100
AcDb3dPolylineVertex
 10
82.187879
 20
-8.535531000000013
 30
-2.075717
 70
    48
  0
VERTEX
  5
2E9BC
330
2E9AB
100
AcDbEntity
  8
1
100
AcDbVertex
100
AcDb3dPolylineVertex
 10
82.64314099999998
 20
-8.727201000000011
 30
-2.075717
 70
    48
  0
VERTEX
  5
2E9BD
330
2E9AB
100
AcDbEntity
  8
1
100
AcDbVertex
100
AcDb3dPolylineVertex
 10
84.597849
 20
-9.463190000000011
 30
-2.075717
 70
    48
  0
VERTEX
  5
2E9BE
330
2E9AB
100
AcDbEntity
  8
1
100
AcDbVertex
100
AcDb3dPolylineVertex
 10
86.105064
 20
-9.835809000000011
 30
-2.075717
 70
    48
  0
VERTEX
  5
2E9BF
330
2E9AB
100
AcDbEntity
  8
1
100
AcDbVertex
100
AcDb3dPolylineVertex
 10
88.341598
 20
-10.19510200000001
 30
-2.075717
 70
    48
  0
VERTEX
  5
2E9C0
330
2E9AB
100
AcDbEntity
  8
1
100
AcDbVertex
100
AcDb3dPolylineVertex
 10
89.02188
 20
-10.277789
 30
-2.075717
 70
    48
  0
VERTEX
  5
2E9C1
330
2E9AB
100
AcDbEntity
  8
1
100
AcDbVertex
100
AcDb3dPolylineVertex
 10
89.718069
 20
-10.33770900000001
 30
-2.075717
 70
    48
  0
VERTEX
  5
2E9C2
330
2E9AB
100
AcDbEntity
  8
1
100
AcDbVertex
100
AcDb3dPolylineVertex
 10
73.65910300000002
 20
1.265377999999987
 30
-2.075717
 70
    40
  0
VERTEX
  5
2E9C3
330
2E9AB
100
AcDbEntity
  8
1
100
AcDbVertex
100
AcDb3dPolylineVertex
 10
73.95636700000001
 20
0.2235529999999883
 30
-2.075717
 70
    40
  0
VERTEX
  5
2E9C4
330
2E9AB
100
AcDbEntity
  8
1
100
AcDbVertex
100
AcDb3dPolylineVertex
 10
74.13471999999998
 20
-0.2895630000000118
 30
-2.075717
 70
    40
  0
VERTEX
  5
2E9C5
330
2E9AB
100
AcDbEntity
  8
1
100
AcDbVertex
100
AcDb3dPolylineVertex
 10
74.38453299999998
 20
-0.9169390000000028
 30
-2.075717
 70
    40
  0
VERTEX
  5
2E9C6
330
2E9AB
100
AcDbEntity
  8
1
100
AcDbVertex
100
AcDb3dPolylineVertex
 10
74.66451000000002
 20
-1.527749
 30
-2.075717
 70
    40
  0
VERTEX
  5
2E9C7
330
2E9AB
100
AcDbEntity
  8
1
100
AcDbVertex
100
AcDb3dPolylineVertex
 10
74.978593
 20
-2.130513999999998
 30
-2.075717
 70
    40
  0
VERTEX
  5
2E9C8
330
2E9AB
100
AcDbEntity
  8
1
100
AcDbVertex
100
AcDb3dPolylineVertex
 10
75.49617399999998
 20
-2.995388999999999
 30
-2.075717
 70
    40
  0
VERTEX
  5
2E9C9
330
2E9AB
100
AcDbEntity
  8
1
100
AcDbVertex
100
AcDb3dPolylineVertex
 10
75.77725
 20
-3.41410499999999
 30
-2.075717
 70
    40
  0
VERTEX
  5
2E9CA
330
2E9AB
100
AcDbEntity
  8
1
100
AcDbVertex
100
AcDb3dPolylineVertex
 10
76.16360199999999
 20
-3.94150199999999
 30
-2.075717
 70
    40
  0
VERTEX
  5
2E9CB
330
2E9AB
100
AcDbEntity
  8
1
100
AcDbVertex
100
AcDb3dPolylineVertex
 10
76.57386600000002
 20
-4.448047000000012
 30
-2.075717
 70
    40
  0
VERTEX
  5
2E9CC
330
2E9AB
100
AcDbEntity
  8
1
100
AcDbVertex
100
AcDb3dPolylineVertex
 10
77.00679100000002
 20
-4.933516999999998
 30
-2.075717
 70
    40
  0
VERTEX
  5
2E9CD
330
2E9AB
100
AcDbEntity
  8
1
100
AcDbVertex
100
AcDb3dPolylineVertex
 10
77.461126
 20
-5.397686000000008
 30
-2.075717
 70
    40
  0
VERTEX
  5
2E9CE
330
2E9AB
100
AcDbEntity
  8
1
100
AcDbVertex
100
AcDb3dPolylineVertex
 10
77.93562099999999
 20
-5.840329000000012
 30
-2.075717
 70
    40
  0
VERTEX
  5
2E9CF
330
2E9AB
100
AcDbEntity
  8
1
100
AcDbVertex
100
AcDb3dPolylineVertex
 10
78.429025
 20
-6.261220000000013
 30
-2.075717
 70
    40
  0
VERTEX
  5
2E9D0
330
2E9AB
100
AcDbEntity
  8
1
100
AcDbVertex
100
AcDb3dPolylineVertex
 10
78.429025
 20
-6.261220000000013
 30
-2.075717
 70
    40
  0
VERTEX
  5
2E9D1
330
2E9AB
100
AcDbEntity
  8
1
100
AcDbVertex
100
AcDb3dPolylineVertex
 10
78.940443
 20
-6.659698000000002
 30
-2.075717
 70
    40
  0
VERTEX
  5
2E9D2
330
2E9AB
100
AcDbEntity
  8
1
100
AcDbVertex
100
AcDb3dPolylineVertex
 10
79.46904600000002
 20
-7.035543000000012
 30
-2.075717
 70
    40
  0
VERTEX
  5
2E9D3
330
2E9AB
100
AcDbEntity
  8
1
100
AcDbVertex
100
AcDb3dPolylineVertex
 10
80.01358300000003
 20
-7.389115000000008
 30
-2.075717
 70
    40
  0
VERTEX
  5
2E9D4
330
2E9AB
100
AcDbEntity
  8
1
100
AcDbVertex
100
AcDb3dPolylineVertex
 10
80.572803
 20
-7.720772
 30
-2.075717
 70
    40
  0
VERTEX
  5
2E9D5
330
2E9AB
100
AcDbEntity
  8
1
100
AcDbVertex
100
AcDb3dPolylineVertex
 10
81.145452
 20
-8.030872000000012
 30
-2.075717
 70
    40
  0
VERTEX
  5
2E9D6
330
2E9AB
100
AcDbEntity
  8
1
100
AcDbVertex
100
AcDb3dPolylineVertex
 10
81.73028
 20
-8.319773000000013
 30
-2.075717
 70
    40
  0
VERTEX
  5
2E9D7
330
2E9AB
100
AcDbEntity
  8
1
100
AcDbVertex
100
AcDb3dPolylineVertex
 10
81.73028
 20
-8.319773000000013
 30
-2.075717
 70
    40
  0
VERTEX
  5
2E9D8
330
2E9AB
100
AcDbEntity
  8
1
100
AcDbVertex
100
AcDb3dPolylineVertex
 10
82.649132
 20
-8.722596000000002
 30
-2.075717
 70
    40
  0
VERTEX
  5
2E9D9
330
2E9AB
100
AcDbEntity
  8
1
100
AcDbVertex
100
AcDb3dPolylineVertex
 10
83.11891499999999
 20
-8.906340000000009
 30
-2.075717
 70
    40
  0
VERTEX
  5
2E9DA
330
2E9AB
100
AcDbEntity
  8
1
100
AcDbVertex
100
AcDb3dPolylineVertex
 10
83.860802
 20
-9.169692000000011
 30
-2.075717
 70
    40
  0
VERTEX
  5
2E9DB
330
2E9AB
100
AcDbEntity
  8
1
100
AcDbVertex
100
AcDb3dPolylineVertex
 10
84.60778000000003
 20
-9.404019000000012
 30
-2.075717
 70
    40
  0
VERTEX
  5
2E9DC
330
2E9AB
100
AcDbEntity
  8
1
100
AcDbVertex
100
AcDb3dPolylineVertex
 10
85.36022900000002
 20
-9.611000999999999
 30
-2.075717
 70
    40
  0
VERTEX
  5
2E9DD
330
2E9AB
100
AcDbEntity
  8
1
100
AcDbVertex
100
AcDb3dPolylineVertex
 10
86.118526
 20
-9.792316000000012
 30
-2.075717
 70
    40
  0
VERTEX
  5
2E9DE
330
2E9AB
100
AcDbEntity
  8
1
100
AcDbVertex
100
AcDb3dPolylineVertex
 10
86.883049
 20
-9.949646000000011
 30
-2.075717
 70
    40
  0
VERTEX
  5
2E9DF
330
2E9AB
100
AcDbEntity
  8
1
100
AcDbVertex
100
AcDb3dPolylineVertex
 10
87.65417700000002
 20
-10.08467
 30
-2.075717
 70
    40
  0
VERTEX
  5
2E9E0
330
2E9AB
100
AcDbEntity
  8
1
100
AcDbVertex
100
AcDb3dPolylineVertex
 10
89.026329
 20
-10.27001600000001
 30
-2.075717
 70
    40
  0
VERTEX
  5
2E9E1
330
2E9AB
100
AcDbEntity
  8
1
100
AcDbVertex
100
AcDb3dPolylineVertex
 10
89.718069
 20
-10.33770900000001
 30
-2.075717
 70
    40
  0
VERTEX
  5
2E9E2
330
2E9AB
100
AcDbEntity
  8
1
100
AcDbVertex
100
AcDb3dPolylineVertex
 10
89.718069
 20
-10.33770900000001
 30
-2.075717
 70
    40
  0
SEQEND
  5
2E9E3
330
2E9AB
100
AcDbEntity
  8
1
  0
TEXT
  5
2E9E4
330
18
100
AcDbEntity
  8
16
100
AcDbText
 10
5.362267000000001
 20
-18.641201
 30
-2.075718
 40
3.0
  1
C5-PTFNR-22110-16W
 50
90.0
 41
0.7593790354223432
  7
SANDVIK_STYLE
 72
     5
 11
5.362267000000001
 21
21.17195699999999
 31
-2.075718
100
AcDbText
  0
DIMENSION
  5
2E9E5
330
18
100
AcDbEntity
  8
20
100
AcDbDimension
  2
*D23
 10
130.862267
 20
23.14037799999999
 30
-2.075718
 11
130.862267
 21
12.20287799999999
 31
-2.075718
 70
   160
  1
22
 71
     5
 42
21.875
  3
SANDVIK_STYLE
100
AcDbAlignedDimension
 13
118.653934
 23
1.265377999999987
 33
-2.075718
 14
111.362267
 24
23.14037799999999
 34
-2.075718
 50
90.0
100
AcDbRotatedDimension
  0
DIMENSION
  5
2E9E6
330
18
100
AcDbEntity
  8
12
100
AcDbDimension
  2
*D24
 10
-37.13773299999989
 20
26.265378
 30
-2.075718
 11
-37.1377329999999
 21
1.265377999999998
 31
-2.075718
 70
   160
  1
D=50
 71
     5
 42
50.0
  3
SANDVIK_STYLE
100
AcDbAlignedDimension
 13
1.362267000000002
 23
-23.734622
 33
-2.075718
 14
1.362267000000002
 24
26.26537799999999
 34
-2.075718
 50
90.0
100
AcDbRotatedDimension
  0
DIMENSION
  5
2E9E7
330
18
100
AcDbEntity
  8
12
100
AcDbDimension
  2
*D25
 10
60.15910300000001
 20
17.26537799999998
 30
-2.075718
 11
60.15910300000001
 21
1.118009999999998
 31
-2.075718
 70
   160
  1
%%c32.0
 71
     5
 42
32.0
  3
SANDVIK_STYLE
100
AcDbAlignedDimension
 13
23.27381
 23
-14.73462200000001
 33
-2.075718
 14
23.27381
 24
17.26537799999999
 34
-2.075718
 50
90.0
100
AcDbRotatedDimension
  0
DIMENSION
  5
2E9E8
330
18
100
AcDbEntity
  8
20
100
AcDbDimension
  2
*D26
 10
111.362267
 20
41.640378
 30
-2.075718
 11
56.36226700000001
 21
41.640378
 31
-2.075718
 70
   160
  1
110.0
 71
     5
 42
110.0
 53
89.99999800000002
  3
SANDVIK_STYLE
100
AcDbAlignedDimension
 13
1.362267000000002
 23
26.26537799999999
 33
-2.075718
 14
111.362267
 24
23.14037799999999
 34
-2.075718
100
AcDbRotatedDimension
  0
DIMENSION
  5
2E9E9
330
18
100
AcDbEntity
  8
12
100
AcDbDimension
  2
*D27
 10
111.362267
 20
31.64037799999998
 30
-2.075718
 11
67.318038
 21
31.64037799999998
 31
-2.075718
 70
   160
  1
88.1
 71
     5
 42
88.08845699999997
 53
89.99999800000002
  3
SANDVIK_STYLE
100
AcDbAlignedDimension
 13
23.27381
 23
17.26537799999999
 33
-2.075718
 14
111.362267
 24
23.14037799999999
 34
-2.075718
100
AcDbRotatedDimension
  0
DIMENSION
  5
2E9EA
330
18
100
AcDbEntity
  8
20
100
AcDbDimension
  2
*D28
 10
110.978256
 20
1.140377999999987
 30
-2.075718
 11
129.745294571044
 21
-17.82989662747711
 31
0.0
 70
    34
  1
91%%d0'
 71
     5
 42
1.588250554101615
 52
201.75
 53
314.5
  3
SANDVIK_STYLE
100
AcDb2LineAngularDimension
 13
118.653934
 23
1.265377999999987
 33
-2.075718
 14
110.980438
 24
1.265377999999987
 34
-2.075718
 15
110.980438
 25
1.265377999999987
 35
-2.075718
 16
124.0958367315063
 26
-22.07419507544912
 36
0.0
  0
LINE
  5
2E9EB
330
18
100
AcDbEntity
  8
80
100
AcDbLine
 10
1.362267000000002
 20
1.265377999999998
 30
-2.075717
 11
-30.46445016443322
 21
1.265377999999998
 31
-2.075717
  0
LINE
  5
2E9EC
330
18
100
AcDbEntity
  8
81
100
AcDbLine
 10
1.362267000000002
 20
1.265378000000007
 30
-2.075717
 11
114.6253911865993
 21
1.265377999999998
 31
-2.075717
  0
INSERT
  5
2E9ED
330
18
100
AcDbEntity
  8
5
100
AcDbBlockReference
  2
_nullpunkt
 10
1.362266999999999
 20
1.265377999999999
 30
-2.075717
  0
TEXT
  5
2E9EE
330
18
100
AcDbEntity
  8
5
100
AcDbText
 10
-1.137732999999998
 20
1.265378
 30
-2.075717
 40
0.1
  1
ISOORIENTED
100
AcDbText
  0
ENDSEC
  0
SECTION
  2
OBJECTS
  0
DICTIONARY
  5
C
330
0
100
AcDbDictionary
281
     1
  3
ACAD_2007HEADERVARS_RT
350
2EAE3
  3
ACAD_CIP_PREVIOUS_PRODUCT_INFO
350
2EAA9
  3
ACAD_COLOR
350
387
  3
ACAD_DETAILVIEWSTYLE
350
2EAA6
  3
ACAD_GROUP
350
D
  3
ACAD_LAYOUT
350
301
  3
ACAD_MATERIAL
350
386
  3
ACAD_MLEADERSTYLE
350
43C
  3
ACAD_MLINESTYLE
350
E
  3
ACAD_PLOTSETTINGS
350
302
  3
ACAD_PLOTSTYLENAME
350
2FF
  3
ACAD_SCALELIST
350
41A
  3
ACAD_SECTIONVIEWSTYLE
350
2EAA4
  3
ACAD_TABLESTYLE
350
388
  3
ACAD_VISUALSTYLE
350
3F2
  3
ACDB_RECOMPOSE_DATA
350
2EAE1
  3
AcDbVariableDictionary
350
357
  3
DWGPROPS
350
2EAE2
  0
DICTIONARY
  5
2EAAC
330
F
100
AcDbDictionary
280
     1
281
     1
  3
ADSK_XREC_LAYER_RECONCILED
360
2EAAD
  0
DICTIONARY
  5
2EAAE
330
23
100
AcDbDictionary
280
     1
281
     1
  3
ADSK_XREC_LAYER_RECONCILED
360
2EAAF
  0
DICTIONARY
  5
2EAB0
330
2E761
100
AcDbDictionary
280
     1
281
     1
  3
ADSK_XREC_LAYER_RECONCILED
360
2EAB1
  0
DICTIONARY
  5
2EAB2
330
2E763
100
AcDbDictionary
280
     1
281
     1
  3
ADSK_XREC_LAYER_RECONCILED
360
2EAB3
  0
DICTIONARY
  5
2EAB4
330
2E764
100
AcDbDictionary
280
     1
281
     1
  3
ADSK_XREC_LAYER_RECONCILED
360
2EAB5
  0
DICTIONARY
  5
2EAB6
330
2E765
100
AcDbDictionary
280
     1
281
     1
  3
ADSK_XREC_LAYER_RECONCILED
360
2EAB7
  0
DICTIONARY
  5
2EAB8
330
2E766
100
AcDbDictionary
280
     1
281
     1
  3
ADSK_XREC_LAYER_RECONCILED
360
2EAB9
  0
DICTIONARY
  5
2EABA
330
2E767
100
AcDbDictionary
280
     1
281
     1
  3
ADSK_XREC_LAYER_RECONCILED
360
2EABB
  0
DICTIONARY
  5
2EABC
330
2E768
100
AcDbDictionary
280
     1
281
     1
  3
ADSK_XREC_LAYER_RECONCILED
360
2EABD
  0
DICTIONARY
  5
2EABE
330
2E769
100
AcDbDictionary
280
     1
281
     1
  3
ADSK_XREC_LAYER_RECONCILED
360
2EABF
  0
DICTIONARY
  5
2EAC0
330
2E76A
100
AcDbDictionary
280
     1
281
     1
  3
ADSK_XREC_LAYER_RECONCILED
360
2EAC1
  0
DICTIONARY
  5
2EAC2
330
2E76B
100
AcDbDictionary
280
     1
281
     1
  3
ADSK_XREC_LAYER_RECONCILED
360
2EAC3
  0
DICTIONARY
  5
2EAC4
330
2E76C
100
AcDbDictionary
280
     1
281
     1
  3
ADSK_XREC_LAYER_RECONCILED
360
2EAC5
  0
DICTIONARY
  5
2EAC6
330
2E76D
100
AcDbDictionary
280
     1
281
     1
  3
ADSK_XREC_LAYER_RECONCILED
360
2EAC7
  0
DICTIONARY
  5
2EAC8
330
2E76E
100
AcDbDictionary
280
     1
281
     1
  3
ADSK_XREC_LAYER_RECONCILED
360
2EAC9
  0
DICTIONARY
  5
2EACA
330
2E76F
100
AcDbDictionary
280
     1
281
     1
  3
ADSK_XREC_LAYER_RECONCILED
360
2EACB
  0
DICTIONARY
  5
2EACC
330
2E770
100
AcDbDictionary
280
     1
281
     1
  3
ADSK_XREC_LAYER_RECONCILED
360
2EACD
  0
DICTIONARY
  5
2EACE
330
2E771
100
AcDbDictionary
280
     1
281
     1
  3
ADSK_XREC_LAYER_RECONCILED
360
2EACF
  0
DICTIONARY
  5
2EAD0
330
2E772
100
AcDbDictionary
280
     1
281
     1
  3
ADSK_XREC_LAYER_RECONCILED
360
2EAD1
  0
DICTIONARY
  5
2EAD2
330
2E773
100
AcDbDictionary
280
     1
281
     1
  3
ADSK_XREC_LAYER_RECONCILED
360
2EAD3
  0
DICTIONARY
  5
2EAD4
330
2E774
100
AcDbDictionary
280
     1
281
     1
  3
ADSK_XREC_LAYER_RECONCILED
360
2EAD5
  0
DICTIONARY
  5
2EAD6
330
2E775
100
AcDbDictionary
280
     1
281
     1
  3
ADSK_XREC_LAYER_RECONCILED
360
2EAD7
  0
DICTIONARY
  5
2EAD8
330
2E776
100
AcDbDictionary
280
     1
281
     1
  3
ADSK_XREC_LAYER_RECONCILED
360
2EAD9
  0
DICTIONARY
  5
2EADA
330
2E777
100
AcDbDictionary
280
     1
281
     1
  3
ADSK_XREC_LAYER_RECONCILED
360
2EADB
  0
DICTIONARY
  5
2E73A
330
2E739
100
AcDbDictionary
280
     1
281
     1
  3
ACAD_SORTENTS
360
2E73B
  0
DICTIONARY
  5
2EAE3
102
{ACAD_REACTORS
330
C
102
}
330
C
100
AcDbDictionary
281
     1
  3
DIMJOGANG
350
2EAE4
  0
XRECORD
  5
2EAA9
102
{ACAD_REACTORS
330
C
102
}
330
C
100
AcDbXrecord
280
     1
300
AMECH_PP
300
2013
300
PDSU_F_S
  0
DICTIONARY
  5
387
102
{ACAD_REACTORS
330
C
102
}
330
C
100
AcDbDictionary
281
     1
  0
DICTIONARY
  5
2EAA6
102
{ACAD_REACTORS
330
C
102
}
330
C
100
AcDbDictionary
281
     1
  3
Metric50
350
2EAA7
  0
DICTIONARY
  5
D
102
{ACAD_REACTORS
330
C
102
}
330
C
100
AcDbDictionary
281
     1
  0
DICTIONARY
  5
301
102
{ACAD_REACTORS
330
C
102
}
330
C
100
AcDbDictionary
281
     1
  3
Layout1
350
33B
  3
Model
350
303
  0
DICTIONARY
  5
386
102
{ACAD_REACTORS
330
C
102
}
330
C
100
AcDbDictionary
281
     1
  3
ByBlock
350
3F0
  3
ByLayer
350
3EF
  3
Global
350
3F1
  0
DICTIONARY
  5
43C
102
{ACAD_REACTORS
330
C
102
}
330
C
100
AcDbDictionary
281
     1
  3
Standard
350
43D
  0
DICTIONARY
  5
E
102
{ACAD_REACTORS
330
C
102
}
330
C
100
AcDbDictionary
281
     1
  3
STANDARD
350
1B
  0
DICTIONARY
  5
302
102
{ACAD_REACTORS
330
C
102
}
330
C
100
AcDbDictionary
281
     1
  0
ACDBDICTIONARYWDFLT
  5
2FF
102
{ACAD_REACTORS
330
C
102
}
330
C
100
AcDbDictionary
281
     1
  3
Normal
350
300
100
AcDbDictionaryWithDefault
340
300
  0
DICTIONARY
  5
41A
102
{ACAD_REACTORS
330
C
102
}
330
C
100
AcDbDictionary
281
     1
  3
A0
350
41B
  3
A1
350
41C
  3
A2
350
41D
  3
A3
350
41E
  3
A4
350
41F
  3
A5
350
420
  3
A6
350
421
  3
A7
350
422
  3
A8
350
423
  3
A9
350
424
  3
B0
350
425
  3
B1
350
426
  3
B2
350
427
  3
B3
350
428
  3
B4
350
429
  3
B5
350
42A
  3
B6
350
42B
  3
B7
350
42C
  3
B8
350
42D
  3
B9
350
42E
  3
C0
350
42F
  3
C1
350
430
  3
C2
350
431
  3
C3
350
432
  3
C4
350
433
  3
C5
350
434
  3
C6
350
435
  3
C7
350
436
  3
C8
350
437
  3
C9
350
438
  3
D0
350
439
  3
D1
350
43A
  3
D2
350
43B
  0
DICTIONARY
  5
2EAA4
102
{ACAD_REACTORS
330
C
102
}
330
C
100
AcDbDictionary
281
     1
  3
Metric50
350
2EAA5
  0
DICTIONARY
  5
388
102
{ACAD_REACTORS
330
C
102
}
330
C
100
AcDbDictionary
281
     1
  3
Standard
350
389
  0
DICTIONARY
  5
3F2
102
{ACAD_REACTORS
330
C
102
}
330
C
100
AcDbDictionary
281
     1
  3
2dWireframe
350
3F8
  3
3D Hidden
350
3FA
  3
3dWireframe
350
3F9
  3
Basic
350
3F7
  3
Brighten
350
3FE
  3
ColorChange
350
402
  3
Conceptual
350
3FB
  3
Dim
350
3FD
  3
EdgeColorOff
350
44E
  3
Facepattern
350
401
  3
Flat
350
3F3
  3
FlatWithEdges
350
3F4
  3
Gouraud
350
3F5
  3
GouraudWithEdges
350
3F6
  3
Hidden
350
2EA9E
  3
JitterOff
350
44C
  3
Linepattern
350
400
  3
OverhangOff
350
44D
  3
Realistic
350
3FC
  3
Shaded
350
2EAA3
  3
Shaded with edges
350
2EAA2
  3
Shades of Gray
350
2EA9F
  3
Sketchy
350
2EAA0
  3
Thicken
350
3FF
  3
Wireframe
350
2EA9D
  3
X-Ray
350
2EAA1
  0
XRECORD
  5
2EAE1
102
{ACAD_REACTORS
330
C
102
}
330
C
100
AcDbXrecord
280
     1
 90
        1
330
389
  0
DICTIONARY
  5
357
102
{ACAD_REACTORS
330
C
102
}
330
C
100
AcDbDictionary
281
     1
  3
CANNOSCALE
350
449
  3
CMLEADERSTYLE
350
447
  3
CTABLESTYLE
350
38E
  3
CVIEWDETAILSTYLE
350
2EADC
  3
CVIEWSECTIONSTYLE
350
2EADD
  3
DIMASSOC
350
359
  3
HIDETEXT
350
358
  3
INDEXCTL
350
728
  3
LAYEREVAL
350
458
  3
LAYERNOTIFY
350
459
  3
LIGHTINGUNITS
350
44A
  3
MSLTSCALE
350
448
  3
SORTENTS
350
727
  3
XCLIPFRAME
350
2EADE
  0
XRECORD
  5
2EAE2
102
{ACAD_REACTORS
330
C
102
}
330
C
100
AcDbXrecord
280
     1
  1
DWGPROPS COOKIE
  2

  3

  4

  6

  7

  8
Micke
  9

300
=
301
=
302
=
303
=
304
=
305
=
306
=
307
=
308
=
309
=
 40
0.0014942476851852
 41
2455883.64348684
 42
2456817.856409965
  1

 90
        0
  0
XRECORD
  5
2EAAD
102
{ACAD_REACTORS
330
2EAAC
102
}
330
2EAAC
100
AcDbXrecord
280
     1
290
     1
  0
XRECORD
  5
2EAAF
102
{ACAD_REACTORS
330
2EAAE
102
}
330
2EAAE
100
AcDbXrecord
280
     1
290
     1
  0
XRECORD
  5
2EAB1
102
{ACAD_REACTORS
330
2EAB0
102
}
330
2EAB0
100
AcDbXrecord
280
     1
290
     1
  0
XRECORD
  5
2EAB3
102
{ACAD_REACTORS
330
2EAB2
102
}
330
2EAB2
100
AcDbXrecord
280
     1
290
     1
  0
XRECORD
  5
2EAB5
102
{ACAD_REACTORS
330
2EAB4
102
}
330
2EAB4
100
AcDbXrecord
280
     1
290
     1
  0
XRECORD
  5
2EAB7
102
{ACAD_REACTORS
330
2EAB6
102
}
330
2EAB6
100
AcDbXrecord
280
     1
290
     1
  0
XRECORD
  5
2EAB9
102
{ACAD_REACTORS
330
2EAB8
102
}
330
2EAB8
100
AcDbXrecord
280
     1
290
     1
  0
XRECORD
  5
2EABB
102
{ACAD_REACTORS
330
2EABA
102
}
330
2EABA
100
AcDbXrecord
280
     1
290
     1
  0
XRECORD
  5
2EABD
102
{ACAD_REACTORS
330
2EABC
102
}
330
2EABC
100
AcDbXrecord
280
     1
290
     1
  0
XRECORD
  5
2EABF
102
{ACAD_REACTORS
330
2EABE
102
}
330
2EABE
100
AcDbXrecord
280
     1
290
     1
  0
XRECORD
  5
2EAC1
102
{ACAD_REACTORS
330
2EAC0
102
}
330
2EAC0
100
AcDbXrecord
280
     1
290
     1
  0
XRECORD
  5
2EAC3
102
{ACAD_REACTORS
330
2EAC2
102
}
330
2EAC2
100
AcDbXrecord
280
     1
290
     1
  0
XRECORD
  5
2EAC5
102
{ACAD_REACTORS
330
2EAC4
102
}
330
2EAC4
100
AcDbXrecord
280
     1
290
     1
  0
XRECORD
  5
2EAC7
102
{ACAD_REACTORS
330
2EAC6
102
}
330
2EAC6
100
AcDbXrecord
280
     1
290
     1
  0
XRECORD
  5
2EAC9
102
{ACAD_REACTORS
330
2EAC8
102
}
330
2EAC8
100
AcDbXrecord
280
     1
290
     1
  0
XRECORD
  5
2EACB
102
{ACAD_REACTORS
330
2EACA
102
}
330
2EACA
100
AcDbXrecord
280
     1
290
     1
  0
XRECORD
  5
2EACD
102
{ACAD_REACTORS
330
2EACC
102
}
330
2EACC
100
AcDbXrecord
280
     1
290
     1
  0
XRECORD
  5
2EACF
102
{ACAD_REACTORS
330
2EACE
102
}
330
2EACE
100
AcDbXrecord
280
     1
290
     1
  0
XRECORD
  5
2EAD1
102
{ACAD_REACTORS
330
2EAD0
102
}
330
2EAD0
100
AcDbXrecord
280
     1
290
     1
  0
XRECORD
  5
2EAD3
102
{ACAD_REACTORS
330
2EAD2
102
}
330
2EAD2
100
AcDbXrecord
280
     1
290
     1
  0
XRECORD
  5
2EAD5
102
{ACAD_REACTORS
330
2EAD4
102
}
330
2EAD4
100
AcDbXrecord
280
     1
290
     1
  0
XRECORD
  5
2EAD7
102
{ACAD_REACTORS
330
2EAD6
102
}
330
2EAD6
100
AcDbXrecord
280
     1
290
     1
  0
XRECORD
  5
2EAD9
102
{ACAD_REACTORS
330
2EAD8
102
}
330
2EAD8
100
AcDbXrecord
280
     1
290
     1
  0
XRECORD
  5
2EADB
102
{ACAD_REACTORS
330
2EADA
102
}
330
2EADA
100
AcDbXrecord
280
     1
290
     1
  0
SORTENTSTABLE
  5
2E73B
102
{ACAD_REACTORS
330
2E73A
102
}
330
2E73A
100
AcDbSortentsTable
330
2E739
  0
XRECORD
  5
2EAE4
102
{ACAD_REACTORS
330
2EAE3
102
}
330
2EAE3
100
AcDbXrecord
280
     1
 40
1.570796326794896
  0
ACDBDETAILVIEWSTYLE
  5
2EAA7
102
{ACAD_REACTORS
330
2EAA6
102
}
330
2EAA6
100
AcDbModelDocViewStyle
 70
     0
  3
Metric50
290
     0
100
AcDbDetailViewStyle
 70
     0
 71
     0
 90
        3
 71
     1
340
10
 40
5.0
340
0
 40
5.0
300

 40
0.0
280
     1
 71
     2
340
14
 90
       25
 71
     3
340
10
 40
5.0
 90
        0
 40
15.0
 90
        1
300
%<\AcVar ViewDetailId>% (%<\AcVar ViewScale \f "%sn">%)
 71
     4
340
14
 90
       25
340
14
 90
       25
280
     0
  0
LAYOUT
  5
33B
102
{ACAD_XDICTIONARY
360
2EAE7
102
}
102
{ACAD_REACTORS
330
301
102
}
330
301
100
AcDbPlotSettings
  1

  2
Lexmark Optra PS2
  4

  6

 40
0.0
 41
0.0
 42
0.0
 43
0.0
 44
0.0
 45
0.0
 46
0.0
 47
0.0
 48
0.0
 49
0.0
140
0.0
141
0.0
142
1.0
143
1.0
 70
   688
 72
     0
 73
     0
 74
     5
  7
monochrome.ctb
 75
    16
147
1.0
148
0.0
149
0.0
100
AcDbLayout
  1
Layout1
 70
     1
 71
     1
 10
0.0
 20
0.0
 11
12.0
 21
9.0
 12
0.0
 22
0.0
 32
0.0
 14
0.0
 24
0.0
 34
0.0
 15
0.0
 25
0.0
 35
0.0
146
0.0
 13
0.0
 23
0.0
 33
0.0
 16
1.0
 26
0.0
 36
0.0
 17
0.0
 27
1.0
 37
0.0
 76
     0
330
338
  0
LAYOUT
  5
303
102
{ACAD_XDICTIONARY
360
2EAE5
102
}
102
{ACAD_REACTORS
330
301
102
}
330
301
100
AcDbPlotSettings
  1

  2
Default Windows System Printer.pc3
  4
A4
  6

 40
6.805083274841307
 41
5.535083293914794
 42
6.974411010742187
 43
7.14373779296875
 44
209.9733276367186
 45
296.9259948730469
 46
67.83299579489725
 47
0.0
 48
0.0
 49
0.0
140
0.0
141
0.0
142
1.0
143
0.3604333568168785
 70
  3764
 72
     1
 73
     1
 74
     1
  7
monochrome.ctb
 75
     0
147
2.774437995504559
148
-82.35087775247029
149
-53.69369632994493
100
AcDbLayout
  1
Model
 70
     1
 71
     0
 10
0.0
 20
0.0
 11
12.0
 21
9.0
 12
0.0
 22
0.0
 32
0.0
 14
0.0
 24
0.0
 34
0.0
 15
0.0
 25
0.0
 35
0.0
146
0.0
 13
0.0
 23
0.0
 33
0.0
 16
1.0
 26
0.0
 36
0.0
 17
0.0
 27
1.0
 37
0.0
 76
     0
330
18
331
3ED
1001
ACAD_PSEXT
1000
Default Windows System Printer.pc3
1000
Lexmark Optra Rx
1000
Lexmark Rx
1000
Erstellt von Lexmark Benutzerdefinierte Installation,Nov 13,2005,10:03
1070
     0
  0
MATERIAL
  5
3F0
102
{ACAD_XDICTIONARY
360
2EA6F
102
}
102
{ACAD_REACTORS
330
386
102
}
330
386
100
AcDbMaterial
  1
ByBlock
 73
     1
 78
     1
172
     1
176
     1
270
     1
274
     1
  0
MATERIAL
  5
3EF
102
{ACAD_XDICTIONARY
360
2EA6D
102
}
102
{ACAD_REACTORS
330
386
102
}
330
386
100
AcDbMaterial
  1
ByLayer
 73
     1
 78
     1
172
     1
176
     1
270
     1
274
     1
  0
MATERIAL
  5
3F1
102
{ACAD_XDICTIONARY
360
2EA71
102
}
102
{ACAD_REACTORS
330
386
102
}
330
386
100
AcDbMaterial
  1
Global
 73
     1
 78
     1
172
     1
176
     1
270
     1
274
     1
  0
MLEADERSTYLE
  5
43D
102
{ACAD_REACTORS
330
43C
102
}
330
43C
100
AcDbMLeaderStyle
170
     2
171
     1
172
     0
 90
        2
 40
0.0
 41
0.0
173
     1
 91
-1056964608
340
12
 92
       -2
290
     1
 42
2.0
291
     1
 43
0.36
  3
Standard
 44
4.0
300

342
10
174
     1
178
     6
175
     1
176
     0
 93
-1056964608
 45
4.0
292
     0
297
     0
 46
4.0
 94
-1056964608
 47
1.0
 49
1.0
140
1.0
293
     1
141
0.0
294
     1
177
     0
142
1.0
295
     0
296
     0
143
0.125
1001
ACAD_MLEADERVER
1070
     2
  0
MLINESTYLE
  5
1B
102
{ACAD_REACTORS
330
E
102
}
330
E
100
AcDbMlineStyle
  2
STANDARD
 70
     0
  3

 62
     0
 51
90.0
 52
90.0
 71
     2
 49
0.5
 62
   256
  6
BYLAYER
 49
-0.5
 62
   256
  6
BYLAYER
  0
ACDBPLACEHOLDER
  5
300
102
{ACAD_REACTORS
330
2FF
102
}
330
2FF
  0
SCALE
  5
41B
102
{ACAD_REACTORS
330
41A
102
}
330
41A
100
AcDbScale
 70
     0
300
1:1
140
1.0
141
1.0
290
     1
  0
SCALE
  5
41C
102
{ACAD_REACTORS
330
41A
102
}
330
41A
100
AcDbScale
 70
     0
300
1:2
140
1.0
141
2.0
290
     0
  0
SCALE
  5
41D
102
{ACAD_REACTORS
330
41A
102
}
330
41A
100
AcDbScale
 70
     0
300
1:4
140
1.0
141
4.0
290
     0
  0
SCALE
  5
41E
102
{ACAD_REACTORS
330
41A
102
}
330
41A
100
AcDbScale
 70
     0
300
1:5
140
1.0
141
5.0
290
     0
  0
SCALE
  5
41F
102
{ACAD_REACTORS
330
41A
102
}
330
41A
100
AcDbScale
 70
     0
300
1:8
140
1.0
141
8.0
290
     0
  0
SCALE
  5
420
102
{ACAD_REACTORS
330
41A
102
}
330
41A
100
AcDbScale
 70
     0
300
1:10
140
1.0
141
10.0
290
     0
  0
SCALE
  5
421
102
{ACAD_REACTORS
330
41A
102
}
330
41A
100
AcDbScale
 70
     0
300
1:16
140
1.0
141
16.0
290
     0
  0
SCALE
  5
422
102
{ACAD_REACTORS
330
41A
102
}
330
41A
100
AcDbScale
 70
     0
300
1:20
140
1.0
141
20.0
290
     0
  0
SCALE
  5
423
102
{ACAD_REACTORS
330
41A
102
}
330
41A
100
AcDbScale
 70
     0
300
1:30
140
1.0
141
30.0
290
     0
  0
SCALE
  5
424
102
{ACAD_REACTORS
330
41A
102
}
330
41A
100
AcDbScale
 70
     0
300
1:40
140
1.0
141
40.0
290
     0
  0
SCALE
  5
425
102
{ACAD_REACTORS
330
41A
102
}
330
41A
100
AcDbScale
 70
     0
300
1:50
140
1.0
141
50.0
290
     0
  0
SCALE
  5
426
102
{ACAD_REACTORS
330
41A
102
}
330
41A
100
AcDbScale
 70
     0
300
1:100
140
1.0
141
100.0
290
     0
  0
SCALE
  5
427
102
{ACAD_REACTORS
330
41A
102
}
330
41A
100
AcDbScale
 70
     0
300
2:1
140
2.0
141
1.0
290
     0
  0
SCALE
  5
428
102
{ACAD_REACTORS
330
41A
102
}
330
41A
100
AcDbScale
 70
     0
300
4:1
140
4.0
141
1.0
290
     0
  0
SCALE
  5
429
102
{ACAD_REACTORS
330
41A
102
}
330
41A
100
AcDbScale
 70
     0
300
8:1
140
8.0
141
1.0
290
     0
  0
SCALE
  5
42A
102
{ACAD_REACTORS
330
41A
102
}
330
41A
100
AcDbScale
 70
     0
300
10:1
140
10.0
141
1.0
290
     0
  0
SCALE
  5
42B
102
{ACAD_REACTORS
330
41A
102
}
330
41A
100
AcDbScale
 70
     0
300
100:1
140
100.0
141
1.0
290
     0
  0
SCALE
  5
42C
102
{ACAD_REACTORS
330
41A
102
}
330
41A
100
AcDbScale
 70
     0
300
1/128" = 1'-0"
140
0.0078125
141
12.0
290
     0
  0
SCALE
  5
42D
102
{ACAD_REACTORS
330
41A
102
}
330
41A
100
AcDbScale
 70
     0
300
1/64" = 1'-0"
140
0.015625
141
12.0
290
     0
  0
SCALE
  5
42E
102
{ACAD_REACTORS
330
41A
102
}
330
41A
100
AcDbScale
 70
     0
300
1/32" = 1'-0"
140
0.03125
141
12.0
290
     0
  0
SCALE
  5
42F
102
{ACAD_REACTORS
330
41A
102
}
330
41A
100
AcDbScale
 70
     0
300
1/16" = 1'-0"
140
0.0625
141
12.0
290
     0
  0
SCALE
  5
430
102
{ACAD_REACTORS
330
41A
102
}
330
41A
100
AcDbScale
 70
     0
300
3/32" = 1'-0"
140
0.09375
141
12.0
290
     0
  0
SCALE
  5
431
102
{ACAD_REACTORS
330
41A
102
}
330
41A
100
AcDbScale
 70
     0
300
1/8" = 1'-0"
140
0.125
141
12.0
290
     0
  0
SCALE
  5
432
102
{ACAD_REACTORS
330
41A
102
}
330
41A
100
AcDbScale
 70
     0
300
3/16" = 1'-0"
140
0.1875
141
12.0
290
     0
  0
SCALE
  5
433
102
{ACAD_REACTORS
330
41A
102
}
330
41A
100
AcDbScale
 70
     0
300
1/4" = 1'-0"
140
0.25
141
12.0
290
     0
  0
SCALE
  5
434
102
{ACAD_REACTORS
330
41A
102
}
330
41A
100
AcDbScale
 70
     0
300
3/8" = 1'-0"
140
0.375
141
12.0
290
     0
  0
SCALE
  5
435
102
{ACAD_REACTORS
330
41A
102
}
330
41A
100
AcDbScale
 70
     0
300
1/2" = 1'-0"
140
0.5
141
12.0
290
     0
  0
SCALE
  5
436
102
{ACAD_REACTORS
330
41A
102
}
330
41A
100
AcDbScale
 70
     0
300
3/4" = 1'-0"
140
0.75
141
12.0
290
     0
  0
SCALE
  5
437
102
{ACAD_REACTORS
330
41A
102
}
330
41A
100
AcDbScale
 70
     0
300
1" = 1'-0"
140
1.0
141
12.0
290
     0
  0
SCALE
  5
438
102
{ACAD_REACTORS
330
41A
102
}
330
41A
100
AcDbScale
 70
     0
300
1-1/2" = 1'-0"
140
1.5
141
12.0
290
     0
  0
SCALE
  5
439
102
{ACAD_REACTORS
330
41A
102
}
330
41A
100
AcDbScale
 70
     0
300
3" = 1'-0"
140
3.0
141
12.0
290
     0
  0
SCALE
  5
43A
102
{ACAD_REACTORS
330
41A
102
}
330
41A
100
AcDbScale
 70
     0
300
6" = 1'-0"
140
6.0
141
12.0
290
     0
  0
SCALE
  5
43B
102
{ACAD_REACTORS
330
41A
102
}
330
41A
100
AcDbScale
 70
     0
300
1'-0" = 1'-0"
140
12.0
141
12.0
290
     0
  0
ACDBSECTIONVIEWSTYLE
  5
2EAA5
102
{ACAD_REACTORS
330
2EAA4
102
}
330
2EAA4
100
AcDbModelDocViewStyle
 70
     0
  3
Metric50
290
     0
100
AcDbSectionViewStyle
 70
     0
 71
     0
 90
      102
 71
     1
340
10
 40
5.0
340
0
340
0
 40
5.0
300
I, O, Q, S, X, Z
 40
10.0
 90
        0
 40
2.5
 90
        0
 71
     2
340
14
 90
       25
340
14
 90
       50
 40
5.0
 40
2.5
 40
5.0
 71
     3
340
10
 40
5.0
 90
        0
 40
15.0
 90
        1
300
%<\AcVar ViewSectionStartId>%-%<\AcVar ViewSectionEndId>% (%<\AcVar ViewScale \f "%sn">%)
 71
     4
300
ANSI31
 40
1.0
 90
        0
290
     0
290
     0
 90
        6
 40
0.0
 40
1.570796326794896
 40
0.2617993877991494
 40
1.308996938995747
 40
-0.2617993877991494
 40
1.832595714594046
  0
TABLESTYLE
  5
389
102
{ACAD_XDICTIONARY
360
444
102
}
102
{ACAD_REACTORS
330
388
102
}
330
388
100
AcDbTableStyle
  3
Standard
 70
     0
 71
     0
 40
1.5
 41
1.5
280
     0
281
     0
  7
STANDARD
140
4.5
170
     2
 62
     0
 63
     7
283
     0
274
    -2
284
     1
 64
     0
275
    -2
285
     1
 65
     0
276
    -2
286
     1
 66
     0
277
    -2
287
     1
 67
     0
278
    -2
288
     1
 68
     0
279
    -2
289
     1
 69
     0
  7
STANDARD
140
6.0
170
     5
 62
     0
 63
     7
283
     0
274
    -2
284
     1
 64
     0
275
    -2
285
     1
 65
     0
276
    -2
286
     1
 66
     0
277
    -2
287
     1
 67
     0
278
    -2
288
     1
 68
     0
279
    -2
289
     1
 69
     0
  7
STANDARD
140
4.5
170
     5
 62
     0
 63
     7
283
     0
274
    -2
284
     1
 64
     0
275
    -2
285
     1
 65
     0
276
    -2
286
     1
 66
     0
277
    -2
287
     1
 67
     0
278
    -2
288
     1
 68
     0
279
    -2
289
     1
 69
     0
  0
VISUALSTYLE
  5
3F8
102
{ACAD_XDICTIONARY
360
2EAF4
102
}
102
{ACAD_REACTORS
330
3F2
102
}
330
3F2
100
AcDbVisualStyle
  2

 70
     4
 71
     0
 72
     2
 73
     0
 90
        0
 40
-0.6
 41
-30.0
 62
     5
 63
     7
 74
     1
 91
        4
 64
     7
 65
   257
 75
     1
175
     1
 42
1.0
 92
        0
 66
   257
 43
1.0
 76
     1
 77
     6
 78
     2
 67
     7
 79
     5
170
     0
171
     0
290
     0
174
     0
 93
        1
 44
0.0
173
     0
291
     0
 45
0.0
1001
ACAD
1000
AcDbSavedByObjectVersion
1070
     0
  0
VISUALSTYLE
  5
3FA
102
{ACAD_XDICTIONARY
360
2EAF8
102
}
102
{ACAD_REACTORS
330
3F2
102
}
330
3F2
100
AcDbVisualStyle
  2

 70
     6
 71
     1
 72
     2
 73
     2
 90
        0
 40
-0.6
 41
-30.0
 62
     5
 63
     7
 74
     2
 91
        2
 64
     7
 65
   257
 75
     2
175
     1
 42
40.0
 92
        0
 66
   257
 43
1.0
 76
     1
 77
     6
 78
     2
 67
     7
 79
     3
170
     0
171
     0
290
     0
174
     0
 93
        1
 44
0.0
173
     0
291
     0
 45
0.0
1001
ACAD
1000
AcDbSavedByObjectVersion
1070
     0
  0
VISUALSTYLE
  5
3F9
102
{ACAD_XDICTIONARY
360
2EAF6
102
}
102
{ACAD_REACTORS
330
3F2
102
}
330
3F2
100
AcDbVisualStyle
  2

 70
     5
 71
     0
 72
     2
 73
     0
 90
        0
 40
-0.6
 41
-30.0
 62
     5
 63
     7
 74
     1
 91
        4
 64
     7
 65
   257
 75
     1
175
     1
 42
1.0
 92
        0
 66
   257
 43
1.0
 76
     1
 77
     6
 78
     2
 67
     7
 79
     5
170
     0
171
     0
290
     0
174
     0
 93
        1
 44
0.0
173
     0
291
     0
 45
0.0
1001
ACAD
1000
AcDbSavedByObjectVersion
1070
     0
  0
VISUALSTYLE
  5
3F7
102
{ACAD_XDICTIONARY
360
2EAF2
102
}
102
{ACAD_REACTORS
330
3F2
102
}
330
3F2
100
AcDbVisualStyle
  2

 70
     7
 71
     1
 72
     0
 73
     1
 90
        0
 40
-0.6
 41
-30.0
 62
     5
 63
     7
 74
     0
 91
        4
 64
     7
 65
   257
 75
     1
175
     1
 42
1.0
 92
        8
 66
     7
 43
1.0
 76
     1
 77
     6
 78
     2
 67
     7
 79
     5
170
     0
171
     0
290
     0
174
     0
 93
        1
 44
0.0
173
     0
291
     1
 45
0.0
1001
ACAD
1000
AcDbSavedByObjectVersion
1070
     0
  0
VISUALSTYLE
  5
3FE
102
{ACAD_XDICTIONARY
360
2EB00
102
}
102
{ACAD_REACTORS
330
3F2
102
}
330
3F2
100
AcDbVisualStyle
  2

 70
    12
 71
     2
 72
     2
 73
     0
 90
        0
 40
-0.6
 41
-30.0
 62
     5
 63
     7
 74
     1
 91
        4
 64
     7
 65
   257
 75
     1
175
     1
 42
1.0
 92
        8
 66
     7
 43
1.0
 76
     1
 77
     6
 78
     2
 67
     7
 79
     5
170
     0
171
     0
290
     0
174
     0
 93
        1
 44
50.0
173
     0
291
     1
 45
0.0
1001
ACAD
1000
AcDbSavedByObjectVersion
1070
     0
  0
VISUALSTYLE
  5
402
102
{ACAD_XDICTIONARY
360
2EB08
102
}
102
{ACAD_REACTORS
330
3F2
102
}
330
3F2
100
AcDbVisualStyle
  2

 70
    16
 71
     2
 72
     2
 73
     3
 90
        0
 40
-0.6
 41
-30.0
 62
     5
 63
     8
 74
     1
 91
        4
 64
     7
 65
   257
 75
     1
175
     1
 42
1.0
 92
        8
 66
     8
 43
1.0
 76
     1
 77
     6
 78
     2
 67
     7
 79
     5
170
     0
171
     0
290
     0
174
     0
 93
        1
 44
0.0
173
     0
291
     1
 45
0.0
1001
ACAD
1000
AcDbSavedByObjectVersion
1070
     0
  0
VISUALSTYLE
  5
3FB
102
{ACAD_XDICTIONARY
360
2EAFA
102
}
102
{ACAD_REACTORS
330
3F2
102
}
330
3F2
100
AcDbVisualStyle
  2

 70
     9
 71
     3
 72
     2
 73
     0
 90
        0
 40
-0.6
 41
-30.0
 62
     5
 63
     7
 74
     2
 91
        2
 64
     7
 65
   257
 75
     1
175
     1
 42
40.0
 92
        8
 66
     7
 43
1.0
 76
     1
 77
     6
 78
     2
 67
     7
 79
     3
170
     0
171
     0
290
     0
174
     0
 93
        1
 44
0.0
173
     0
291
     0
 45
0.0
1001
ACAD
1000
AcDbSavedByObjectVersion
1070
     0
  0
VISUALSTYLE
  5
3FD
102
{ACAD_XDICTIONARY
360
2EAFE
102
}
102
{ACAD_REACTORS
330
3F2
102
}
330
3F2
100
AcDbVisualStyle
  2

 70
    11
 71
     2
 72
     2
 73
     0
 90
        0
 40
-0.6
 41
-30.0
 62
     5
 63
     7
 74
     1
 91
        4
 64
     7
 65
   257
 75
     1
175
     1
 42
1.0
 92
        8
 66
     7
 43
1.0
 76
     1
 77
     6
 78
     2
 67
     7
 79
     5
170
     0
171
     0
290
     0
174
     0
 93
        1
 44
-50.0
173
     0
291
     1
 45
0.0
1001
ACAD
1000
AcDbSavedByObjectVersion
1070
     0
  0
VISUALSTYLE
  5
44E
102
{ACAD_XDICTIONARY
360
2EB0E
102
}
102
{ACAD_REACTORS
330
3F2
102
}
330
3F2
100
AcDbVisualStyle
  2

 70
    22
 71
     2
 72
     2
 73
     0
 90
        0
 40
-0.6
 41
-30.0
 62
     5
 63
     7
 74
     1
 91
        4
 64
     7
 65
   257
 75
     1
175
     1
 42
1.0
 92
        8
 66
     7
 43
1.0
 76
     1
 77
     6
 78
     2
 67
     7
 79
     5
170
     0
171
     0
290
     0
174
     0
 93
        1
 44
0.0
173
     0
291
     1
 45
0.0
1001
ACAD
1000
AcDbSavedByObjectVersion
1070
     0
  0
VISUALSTYLE
  5
401
102
{ACAD_XDICTIONARY
360
2EB06
102
}
102
{ACAD_REACTORS
330
3F2
102
}
330
3F2
100
AcDbVisualStyle
  2

 70
    15
 71
     2
 72
     2
 73
     0
 90
        0
 40
-0.6
 41
-30.0
 62
     5
 63
     7
 74
     1
 91
        4
 64
     7
 65
   257
 75
     1
175
     1
 42
1.0
 92
        8
 66
     7
 43
1.0
 76
     1
 77
     6
 78
     2
 67
     7
 79
     5
170
     0
171
     0
290
     0
174
     0
 93
        1
 44
0.0
173
     0
291
     1
 45
0.0
1001
ACAD
1000
AcDbSavedByObjectVersion
1070
     0
  0
VISUALSTYLE
  5
3F3
102
{ACAD_XDICTIONARY
360
2EAEA
102
}
102
{ACAD_REACTORS
330
3F2
102
}
330
3F2
100
AcDbVisualStyle
  2

 70
     0
 71
     2
 72
     1
 73
     1
 90
        2
 40
-0.6
 41
30.0
 62
     5
 63
     7
 74
     0
 91
        4
 64
     7
 65
   257
 75
     1
175
     1
 42
1.0
 92
        8
 66
     7
 43
1.0
 76
     1
 77
     6
 78
     2
 67
     7
 79
     5
170
     0
171
     0
290
     0
174
     0
 93
       13
 44
0.0
173
     0
291
     1
 45
0.0
1001
ACAD
1000
AcDbSavedByObjectVersion
1070
     0
  0
VISUALSTYLE
  5
3F4
102
{ACAD_XDICTIONARY
360
2EAEC
102
}
102
{ACAD_REACTORS
330
3F2
102
}
330
3F2
100
AcDbVisualStyle
  2

 70
     1
 71
     2
 72
     1
 73
     1
 90
        2
 40
-0.6
 41
30.0
 62
     5
 63
     7
 74
     1
 91
        4
 64
     7
 65
   257
 75
     1
175
     1
 42
1.0
 92
        0
 66
   257
 43
1.0
 76
     1
 77
     6
 78
     2
 67
     7
 79
     5
170
     0
171
     0
290
     0
174
     0
 93
       13
 44
0.0
173
     0
291
     1
 45
0.0
1001
ACAD
1000
AcDbSavedByObjectVersion
1070
     0
  0
VISUALSTYLE
  5
3F5
102
{ACAD_XDICTIONARY
360
2EAEE
102
}
102
{ACAD_REACTORS
330
3F2
102
}
330
3F2
100
AcDbVisualStyle
  2

 70
     2
 71
     2
 72
     2
 73
     1
 90
        2
 40
-0.6
 41
30.0
 62
     5
 63
     7
 74
     0
 91
        4
 64
     7
 65
   257
 75
     1
175
     1
 42
1.0
 92
        0
 66
     7
 43
1.0
 76
     1
 77
     6
 78
     2
 67
     7
 79
     5
170
     0
171
     0
290
     0
174
     0
 93
       13
 44
0.0
173
     0
291
     1
 45
0.0
1001
ACAD
1000
AcDbSavedByObjectVersion
1070
     0
  0
VISUALSTYLE
  5
3F6
102
{ACAD_XDICTIONARY
360
2EAF0
102
}
102
{ACAD_REACTORS
330
3F2
102
}
330
3F2
100
AcDbVisualStyle
  2

 70
     3
 71
     2
 72
     2
 73
     1
 90
        2
 40
-0.6
 41
30.0
 62
     5
 63
     7
 74
     1
 91
        4
 64
     7
 65
   257
 75
     1
175
     1
 42
1.0
 92
        0
 66
   257
 43
1.0
 76
     1
 77
     6
 78
     2
 67
     7
 79
     5
170
     0
171
     0
290
     0
174
     0
 93
       13
 44
0.0
173
     0
291
     1
 45
0.0
1001
ACAD
1000
AcDbSavedByObjectVersion
1070
     0
  0
VISUALSTYLE
  5
2EA9E
102
{ACAD_XDICTIONARY
360
2EB13
102
}
102
{ACAD_REACTORS
330
3F2
102
}
330
3F2
100
AcDbVisualStyle
  2
Hidden
 70
     6
 71
     1
 72
     2
 73
     2
 90
        0
 40
-0.6
 41
-30.0
 62
     5
 63
     7
 74
     2
 91
        2
 64
     7
 65
   257
 75
     2
175
     1
 42
40.0
 92
        0
 66
   257
 43
1.0
 76
     1
 77
     6
 78
     2
 67
     7
 79
     3
170
     0
171
     0
290
     0
174
     0
 93
        1
 44
0.0
173
     0
291
     0
 45
0.0
1001
ACAD
1000
AcDbSavedByObjectVersion
1070
     0
  0
VISUALSTYLE
  5
44C
102
{ACAD_XDICTIONARY
360
2EB0A
102
}
102
{ACAD_REACTORS
330
3F2
102
}
330
3F2
100
AcDbVisualStyle
  2

 70
    20
 71
     2
 72
     2
 73
     0
 90
        0
 40
-0.6
 41
-30.0
 62
     5
 63
     7
 74
     1
 91
        4
 64
     7
 65
   257
 75
     1
175
     1
 42
1.0
 92
       10
 66
     7
 43
1.0
 76
     1
 77
     6
 78
     2
 67
     7
 79
     5
170
     0
171
     0
290
     0
174
     0
 93
        1
 44
0.0
173
     0
291
     1
 45
0.0
1001
ACAD
1000
AcDbSavedByObjectVersion
1070
     0
  0
VISUALSTYLE
  5
400
102
{ACAD_XDICTIONARY
360
2EB04
102
}
102
{ACAD_REACTORS
330
3F2
102
}
330
3F2
100
AcDbVisualStyle
  2

 70
    14
 71
     2
 72
     2
 73
     0
 90
        0
 40
-0.6
 41
-30.0
 62
     5
 63
     7
 74
     1
 91
        4
 64
     7
 65
   257
 75
     7
175
     7
 42
1.0
 92
        8
 66
     7
 43
1.0
 76
     1
 77
     6
 78
     2
 67
     7
 79
     5
170
     0
171
     0
290
     0
174
     0
 93
        1
 44
0.0
173
     0
291
     1
 45
0.0
1001
ACAD
1000
AcDbSavedByObjectVersion
1070
     0
  0
VISUALSTYLE
  5
44D
102
{ACAD_XDICTIONARY
360
2EB0C
102
}
102
{ACAD_REACTORS
330
3F2
102
}
330
3F2
100
AcDbVisualStyle
  2

 70
    21
 71
     2
 72
     2
 73
     0
 90
        0
 40
-0.6
 41
-30.0
 62
     5
 63
     7
 74
     1
 91
        4
 64
     7
 65
   257
 75
     1
175
     1
 42
1.0
 92
        9
 66
     7
 43
1.0
 76
     1
 77
     6
 78
     2
 67
     7
 79
     5
170
     0
171
     0
290
     0
174
     0
 93
        1
 44
0.0
173
     0
291
     1
 45
0.0
1001
ACAD
1000
AcDbSavedByObjectVersion
1070
     0
  0
VISUALSTYLE
  5
3FC
102
{ACAD_XDICTIONARY
360
2EAFC
102
}
102
{ACAD_REACTORS
330
3F2
102
}
330
3F2
100
AcDbVisualStyle
  2

 70
     8
 71
     2
 72
     2
 73
     0
 90
        0
 40
-0.6
 41
-30.0
 62
     5
 63
     7
 74
     1
 91
        0
 64
     7
 65
   257
 75
     1
175
     1
 42
1.0
 92
        8
 66
     8
 43
1.0
 76
     1
 77
     6
 78
     2
 67
     7
 79
     5
170
     0
171
     0
290
     0
174
     0
 93
       13
 44
0.0
173
     0
291
     0
 45
0.0
1001
ACAD
1000
AcDbSavedByObjectVersion
1070
     0
  0
VISUALSTYLE
  5
2EAA3
102
{ACAD_XDICTIONARY
360
2EB1D
102
}
102
{ACAD_REACTORS
330
3F2
102
}
330
3F2
100
AcDbVisualStyle
  2
Shaded
 70
    27
 71
     2
 72
     2
 73
     1
 90
        2
 40
-0.6
 41
30.0
 62
     5
 63
     7
 74
     0
 91
        4
 64
     7
 65
   257
 75
     1
175
     1
 42
1.0
 92
        8
 66
   257
 43
1.0
 76
     1
 77
     6
 78
     2
 67
     8
 79
     3
170
     0
171
     0
290
     0
174
     0
 93
        5
 44
0.0
173
     0
291
     0
 45
0.0
1001
ACAD
1000
AcDbSavedByObjectVersion
1070
     0
  0
VISUALSTYLE
  5
2EAA2
102
{ACAD_XDICTIONARY
360
2EB1B
102
}
102
{ACAD_REACTORS
330
3F2
102
}
330
3F2
100
AcDbVisualStyle
  2
Shaded with edges
 70
    26
 71
     2
 72
     2
 73
     1
 90
        2
 40
-0.6
 41
30.0
 62
     5
 63
     7
 74
     1
 91
       10
 64
     7
 65
   257
 75
     2
175
     1
 42
1.0
 92
        8
 66
   257
 43
1.0
 76
     1
 77
     6
 78
     2
 67
     7
 79
     3
170
     0
171
     0
290
     0
174
     0
 93
        5
 44
0.0
173
     0
291
     0
 45
0.0
1001
ACAD
1000
AcDbSavedByObjectVersion
1070
     0
  0
VISUALSTYLE
  5
2EA9F
102
{ACAD_XDICTIONARY
360
2EB15
102
}
102
{ACAD_REACTORS
330
3F2
102
}
330
3F2
100
AcDbVisualStyle
  2
Shades of Gray
 70
    23
 71
     2
 72
     2
 73
     3
 90
        0
 40
-0.6
 41
-30.0
 62
     5
 63
     7
 74
     2
 91
        2
 64
     7
 65
     7
 75
     1
175
     1
 42
40.0
 92
        8
 66
     7
 43
1.0
 76
     1
 77
     6
 78
     2
 67
     7
 79
     3
170
     0
171
     0
290
     0
174
     0
 93
        1
 44
0.0
173
     0
291
     0
 45
0.0
1001
ACAD
1000
AcDbSavedByObjectVersion
1070
     0
  0
VISUALSTYLE
  5
2EAA0
102
{ACAD_XDICTIONARY
360
2EB17
102
}
102
{ACAD_REACTORS
330
3F2
102
}
330
3F2
100
AcDbVisualStyle
  2
Sketchy
 70
    24
 71
     1
 72
     2
 73
     2
 90
        0
 40
-0.6
 41
-30.0
 62
     5
 63
     7
 74
     2
 91
        2
 64
     7
 65
     7
 75
     1
175
     1
 42
40.0
 92
       11
 66
     7
 43
1.0
 76
     1
 77
     6
 78
     2
 67
     7
 79
     6
170
     0
171
     0
290
     0
174
     0
 93
        1
 44
0.0
173
     0
291
     0
 45
0.0
1001
ACAD
1000
AcDbSavedByObjectVersion
1070
     0
  0
VISUALSTYLE
  5
3FF
102
{ACAD_XDICTIONARY
360
2EB02
102
}
102
{ACAD_REACTORS
330
3F2
102
}
330
3F2
100
AcDbVisualStyle
  2

 70
    13
 71
     2
 72
     2
 73
     0
 90
        0
 40
-0.6
 41
-30.0
 62
     5
 63
     7
 74
     1
 91
        4
 64
     7
 65
   257
 75
     1
175
     1
 42
1.0
 92
       12
 66
     7
 43
1.0
 76
     1
 77
     6
 78
     2
 67
     7
 79
     5
170
     0
171
     0
290
     0
174
     0
 93
        1
 44
0.0
173
     0
291
     1
 45
0.0
1001
ACAD
1000
AcDbSavedByObjectVersion
1070
     0
  0
VISUALSTYLE
  5
2EA9D
102
{ACAD_XDICTIONARY
360
2EB11
102
}
102
{ACAD_REACTORS
330
3F2
102
}
330
3F2
100
AcDbVisualStyle
  2
Wireframe
 70
     5
 71
     0
 72
     2
 73
     0
 90
        0
 40
-0.6
 41
-30.0
 62
     5
 63
     7
 74
     1
 91
        4
 64
     7
 65
   257
 75
     1
175
     1
 42
1.0
 92
        0
 66
   257
 43
1.0
 76
     1
 77
     6
 78
     2
 67
     7
 79
     3
170
     0
171
     0
290
     0
174
     0
 93
        1
 44
0.0
173
     0
291
     0
 45
0.0
1001
ACAD
1000
AcDbSavedByObjectVersion
1070
     0
  0
VISUALSTYLE
  5
2EAA1
102
{ACAD_XDICTIONARY
360
2EB19
102
}
102
{ACAD_REACTORS
330
3F2
102
}
330
3F2
100
AcDbVisualStyle
  2
X-Ray
 70
    25
 71
     2
 72
     2
 73
     1
 90
        1
 40
0.5
 41
-30.0
 62
     5
 63
     7
 74
     1
 91
        0
 64
     7
 65
   257
 75
     1
175
     1
 42
1.0
 92
        8
 66
     7
 43
1.0
 76
     1
 77
     6
 78
     2
 67
     7
 79
     3
170
     0
171
     0
290
     0
174
     0
 93
       13
 44
0.0
173
     0
291
     0
 45
0.0
1001
ACAD
1000
AcDbSavedByObjectVersion
1070
     0
  0
DICTIONARYVAR
  5
449
102
{ACAD_REACTORS
330
357
102
}
330
357
100
DictionaryVariables
280
     0
  1
1:1
  0
DICTIONARYVAR
  5
447
102
{ACAD_REACTORS
330
357
102
}
330
357
100
DictionaryVariables
280
     0
  1
STANDARD
  0
DICTIONARYVAR
  5
38E
102
{ACAD_REACTORS
330
357
102
}
330
357
100
DictionaryVariables
280
     0
  1
STANDARD
  0
DICTIONARYVAR
  5
2EADC
102
{ACAD_REACTORS
330
357
102
}
330
357
100
DictionaryVariables
280
     0
  1
Metric50
  0
DICTIONARYVAR
  5
2EADD
102
{ACAD_REACTORS
330
357
102
}
330
357
100
DictionaryVariables
280
     0
  1
Metric50
  0
DICTIONARYVAR
  5
359
102
{ACAD_REACTORS
330
357
102
}
330
357
100
DictionaryVariables
280
     0
  1
2
  0
DICTIONARYVAR
  5
358
102
{ACAD_REACTORS
330
357
102
}
330
357
100
DictionaryVariables
280
     0
  1
1
  0
DICTIONARYVAR
  5
728
102
{ACAD_REACTORS
330
357
102
}
330
357
100
DictionaryVariables
280
     0
  1
0
  0
DICTIONARYVAR
  5
458
102
{ACAD_REACTORS
330
357
102
}
330
357
100
DictionaryVariables
280
     0
  1
1
  0
DICTIONARYVAR
  5
459
102
{ACAD_REACTORS
330
357
102
}
330
357
100
DictionaryVariables
280
     0
  1
15
  0
DICTIONARYVAR
  5
44A
102
{ACAD_REACTORS
330
357
102
}
330
357
100
DictionaryVariables
280
     0
  1
0
  0
DICTIONARYVAR
  5
448
102
{ACAD_REACTORS
330
357
102
}
330
357
100
DictionaryVariables
280
     0
  1
0
  0
DICTIONARYVAR
  5
727
102
{ACAD_REACTORS
330
357
102
}
330
357
100
DictionaryVariables
280
     0
  1
127
  0
DICTIONARYVAR
  5
2EADE
102
{ACAD_REACTORS
330
357
102
}
330
357
100
DictionaryVariables
280
     0
  1
2
  0
DICTIONARY
  5
2EAE7
330
33B
100
AcDbDictionary
280
     1
281
     1
  3
ACAD_XREC_ROUNDTRIP
360
2EAE8
  0
DICTIONARY
  5
2EAE5
330
303
100
AcDbDictionary
280
     1
281
     1
  3
ACAD_XREC_ROUNDTRIP
360
2EAE6
  0
DICTIONARY
  5
2EA6F
330
3F0
100
AcDbDictionary
280
     1
281
     1
  3
ACAD_XREC_ROUNDTRIP
360
2EA70
  0
DICTIONARY
  5
2EA6D
330
3EF
100
AcDbDictionary
280
     1
281
     1
  3
ACAD_XREC_ROUNDTRIP
360
2EA6E
  0
DICTIONARY
  5
2EA71
330
3F1
100
AcDbDictionary
280
     1
281
     1
  3
ACAD_XREC_ROUNDTRIP
360
2EA72
  0
DICTIONARY
  5
444
330
389
100
AcDbDictionary
280
     1
281
     1
  3
ACAD_ROUNDTRIP_2008_TABLESTYLE_CELLSTYLEMAP
360
2EAE0
  3
ACAD_XREC_ROUNDTRIP
360
2EAE9
  0
DICTIONARY
  5
2EAF4
330
3F8
100
AcDbDictionary
280
     1
281
     1
  3
ACAD_XREC_ROUNDTRIP
360
2EAF5
  0
DICTIONARY
  5
2EAF8
330
3FA
100
AcDbDictionary
280
     1
281
     1
  3
ACAD_XREC_ROUNDTRIP
360
2EAF9
  0
DICTIONARY
  5
2EAF6
330
3F9
100
AcDbDictionary
280
     1
281
     1
  3
ACAD_XREC_ROUNDTRIP
360
2EAF7
  0
DICTIONARY
  5
2EAF2
330
3F7
100
AcDbDictionary
280
     1
281
     1
  3
ACAD_XREC_ROUNDTRIP
360
2EAF3
  0
DICTIONARY
  5
2EB00
330
3FE
100
AcDbDictionary
280
     1
281
     1
  3
ACAD_XREC_ROUNDTRIP
360
2EB01
  0
DICTIONARY
  5
2EB08
330
402
100
AcDbDictionary
280
     1
281
     1
  3
ACAD_XREC_ROUNDTRIP
360
2EB09
  0
DICTIONARY
  5
2EAFA
330
3FB
100
AcDbDictionary
280
     1
281
     1
  3
ACAD_XREC_ROUNDTRIP
360
2EAFB
  0
DICTIONARY
  5
2EAFE
330
3FD
100
AcDbDictionary
280
     1
281
     1
  3
ACAD_XREC_ROUNDTRIP
360
2EAFF
  0
DICTIONARY
  5
2EB0E
330
44E
100
AcDbDictionary
280
     1
281
     1
  3
ACAD_XREC_ROUNDTRIP
360
2EB0F
  0
DICTIONARY
  5
2EB06
330
401
100
AcDbDictionary
280
     1
281
     1
  3
ACAD_XREC_ROUNDTRIP
360
2EB07
  0
DICTIONARY
  5
2EAEA
330
3F3
100
AcDbDictionary
280
     1
281
     1
  3
ACAD_XREC_ROUNDTRIP
360
2EAEB
  0
DICTIONARY
  5
2EAEC
330
3F4
100
AcDbDictionary
280
     1
281
     1
  3
ACAD_XREC_ROUNDTRIP
360
2EAED
  0
DICTIONARY
  5
2EAEE
330
3F5
100
AcDbDictionary
280
     1
281
     1
  3
ACAD_XREC_ROUNDTRIP
360
2EAEF
  0
DICTIONARY
  5
2EAF0
330
3F6
100
AcDbDictionary
280
     1
281
     1
  3
ACAD_XREC_ROUNDTRIP
360
2EAF1
  0
DICTIONARY
  5
2EB13
330
2EA9E
100
AcDbDictionary
280
     1
281
     1
  3
ACAD_XREC_ROUNDTRIP
360
2EB14
  0
DICTIONARY
  5
2EB0A
330
44C
100
AcDbDictionary
280
     1
281
     1
  3
ACAD_XREC_ROUNDTRIP
360
2EB0B
  0
DICTIONARY
  5
2EB04
330
400
100
AcDbDictionary
280
     1
281
     1
  3
ACAD_XREC_ROUNDTRIP
360
2EB05
  0
DICTIONARY
  5
2EB0C
330
44D
100
AcDbDictionary
280
     1
281
     1
  3
ACAD_XREC_ROUNDTRIP
360
2EB0D
  0
DICTIONARY
  5
2EAFC
330
3FC
100
AcDbDictionary
280
     1
281
     1
  3
ACAD_XREC_ROUNDTRIP
360
2EAFD
  0
DICTIONARY
  5
2EB1D
330
2EAA3
100
AcDbDictionary
280
     1
281
     1
  3
ACAD_XREC_ROUNDTRIP
360
2EB1E
  0
DICTIONARY
  5
2EB1B
330
2EAA2
100
AcDbDictionary
280
     1
281
     1
  3
ACAD_XREC_ROUNDTRIP
360
2EB1C
  0
DICTIONARY
  5
2EB15
330
2EA9F
100
AcDbDictionary
280
     1
281
     1
  3
ACAD_XREC_ROUNDTRIP
360
2EB16
  0
DICTIONARY
  5
2EB17
330
2EAA0
100
AcDbDictionary
280
     1
281
     1
  3
ACAD_XREC_ROUNDTRIP
360
2EB18
  0
DICTIONARY
  5
2EB02
330
3FF
100
AcDbDictionary
280
     1
281
     1
  3
ACAD_XREC_ROUNDTRIP
360
2EB03
  0
DICTIONARY
  5
2EB11
330
2EA9D
100
AcDbDictionary
280
     1
281
     1
  3
ACAD_XREC_ROUNDTRIP
360
2EB12
  0
DICTIONARY
  5
2EB19
330
2EAA1
100
AcDbDictionary
280
     1
281
     1
  3
ACAD_XREC_ROUNDTRIP
360
2EB1A
  0
XRECORD
  5
2EAE8
102
{ACAD_REACTORS
330
2EAE7
102
}
330
2EAE7
100
AcDbXrecord
280
     1
102
SHADEPLOT
 70
     0
102
SHADEPLOTRESLEVEL
 70
     2
102
SHADEPLOTCUSTOMDPI
 70
   300
  0
XRECORD
  5
2EAE6
102
{ACAD_REACTORS
330
2EAE5
102
}
330
2EAE5
100
AcDbXrecord
280
     1
102
SHADEPLOT
 70
     1
102
SHADEPLOTRESLEVEL
 70
     2
102
SHADEPLOTCUSTOMDPI
 70
   300
  0
XRECORD
  5
2EA70
102
{ACAD_REACTORS
330
2EA6F
102
}
330
2EA6F
100
AcDbXrecord
280
     1
102
MATERIAL
148
0.0
149
0.0
149
0.0
 93
        0
 94
      127
282
     0
 72
     1
 77
     1
171
     1
175
     1
179
     1
273
     0
  0
XRECORD
  5
2EA6E
102
{ACAD_REACTORS
330
2EA6D
102
}
330
2EA6D
100
AcDbXrecord
280
     1
102
MATERIAL
148
0.0
149
0.0
149
0.0
 93
        0
 94
      127
282
     0
 72
     1
 77
     1
171
     1
175
     1
179
     1
273
     0
  0
XRECORD
  5
2EA72
102
{ACAD_REACTORS
330
2EA71
102
}
330
2EA71
100
AcDbXrecord
280
     1
102
MATERIAL
148
0.0
149
0.0
149
0.0
 93
        0
 94
      127
282
     0
 72
     1
 77
     1
171
     1
175
     1
179
     1
273
     0
  0
CELLSTYLEMAP
  5
2EAE0
102
{ACAD_REACTORS
330
444
102
}
330
444
100
AcDbCellStyleMap
 90
        3
300
CELLSTYLE
  1
TABLEFORMAT_BEGIN
 90
        5
170
     1
 91
        0
 92
    32768
 62
   257
 93
        1
300
CONTENTFORMAT
  1
CONTENTFORMAT_BEGIN
 90
        0
 91
        0
 92
        4
 93
        0
300

 40
0.0
140
1.0
 94
        5
 62
     0
340
10
144
6.0
309
CONTENTFORMAT_END
171
     1
301
MARGIN
  1
CELLMARGIN_BEGIN
 40
1.5
 40
1.5
 40
1.5
 40
1.5
 40
0.18
 40
0.18
309
CELLMARGIN_END
 94
        6
 95
        1
302
GRIDFORMAT
  1
GRIDFORMAT_BEGIN
 90
        0
 91
        1
 62
     0
 92
       -2
340
0
 93
        0
 40
0.045
309
GRIDFORMAT_END
 95
        2
302
GRIDFORMAT
  1
GRIDFORMAT_BEGIN
 90
        0
 91
        1
 62
     0
 92
       -2
340
0
 93
        0
 40
0.045
309
GRIDFORMAT_END
 95
        4
302
GRIDFORMAT
  1
GRIDFORMAT_BEGIN
 90
        0
 91
        1
 62
     0
 92
       -2
340
0
 93
        0
 40
0.045
309
GRIDFORMAT_END
 95
        8
302
GRIDFORMAT
  1
GRIDFORMAT_BEGIN
 90
        0
 91
        1
 62
     0
 92
       -2
340
0
 93
        0
 40
0.045
309
GRIDFORMAT_END
 95
       16
302
GRIDFORMAT
  1
GRIDFORMAT_BEGIN
 90
        0
 91
        1
 62
     0
 92
       -2
340
0
 93
        0
 40
0.045
309
GRIDFORMAT_END
 95
       32
302
GRIDFORMAT
  1
GRIDFORMAT_BEGIN
 90
        0
 91
        1
 62
     0
 92
       -2
340
0
 93
        0
 40
0.045
309
GRIDFORMAT_END
309
TABLEFORMAT_END
  1
CELLSTYLE_BEGIN
 90
        1
 91
        1
300
_TITLE
309
CELLSTYLE_END
300
CELLSTYLE
  1
TABLEFORMAT_BEGIN
 90
        5
170
     1
 91
        0
 92
        0
 62
   257
 93
        1
300
CONTENTFORMAT
  1
CONTENTFORMAT_BEGIN
 90
        0
 91
        0
 92
        4
 93
        0
300

 40
0.0
140
1.0
 94
        5
 62
     0
340
10
144
4.5
309
CONTENTFORMAT_END
171
     1
301
MARGIN
  1
CELLMARGIN_BEGIN
 40
1.5
 40
1.5
 40
1.5
 40
1.5
 40
0.18
 40
0.18
309
CELLMARGIN_END
 94
        6
 95
        1
302
GRIDFORMAT
  1
GRIDFORMAT_BEGIN
 90
        0
 91
        1
 62
     0
 92
       -2
340
0
 93
        0
 40
0.045
309
GRIDFORMAT_END
 95
        2
302
GRIDFORMAT
  1
GRIDFORMAT_BEGIN
 90
        0
 91
        1
 62
     0
 92
       -2
340
0
 93
        0
 40
0.045
309
GRIDFORMAT_END
 95
        4
302
GRIDFORMAT
  1
GRIDFORMAT_BEGIN
 90
        0
 91
        1
 62
     0
 92
       -2
340
0
 93
        0
 40
0.045
309
GRIDFORMAT_END
 95
        8
302
GRIDFORMAT
  1
GRIDFORMAT_BEGIN
 90
        0
 91
        1
 62
     0
 92
       -2
340
0
 93
        0
 40
0.045
309
GRIDFORMAT_END
 95
       16
302
GRIDFORMAT
  1
GRIDFORMAT_BEGIN
 90
        0
 91
        1
 62
     0
 92
       -2
340
0
 93
        0
 40
0.045
309
GRIDFORMAT_END
 95
       32
302
GRIDFORMAT
  1
GRIDFORMAT_BEGIN
 90
        0
 91
        1
 62
     0
 92
       -2
340
0
 93
        0
 40
0.045
309
GRIDFORMAT_END
309
TABLEFORMAT_END
  1
CELLSTYLE_BEGIN
 90
        2
 91
        1
300
_HEADER
309
CELLSTYLE_END
300
CELLSTYLE
  1
TABLEFORMAT_BEGIN
 90
        5
170
     1
 91
        0
 92
        0
 62
   257
 93
        1
300
CONTENTFORMAT
  1
CONTENTFORMAT_BEGIN
 90
        0
 91
        0
 92
        4
 93
        0
300

 40
0.0
140
1.0
 94
        2
 62
     0
340
10
144
4.5
309
CONTENTFORMAT_END
171
     1
301
MARGIN
  1
CELLMARGIN_BEGIN
 40
1.5
 40
1.5
 40
1.5
 40
1.5
 40
0.18
 40
0.18
309
CELLMARGIN_END
 94
        6
 95
        1
302
GRIDFORMAT
  1
GRIDFORMAT_BEGIN
 90
        0
 91
        1
 62
     0
 92
       -2
340
0
 93
        0
 40
0.045
309
GRIDFORMAT_END
 95
        2
302
GRIDFORMAT
  1
GRIDFORMAT_BEGIN
 90
        0
 91
        1
 62
     0
 92
       -2
340
0
 93
        0
 40
0.045
309
GRIDFORMAT_END
 95
        4
302
GRIDFORMAT
  1
GRIDFORMAT_BEGIN
 90
        0
 91
        1
 62
     0
 92
       -2
340
0
 93
        0
 40
0.045
309
GRIDFORMAT_END
 95
        8
302
GRIDFORMAT
  1
GRIDFORMAT_BEGIN
 90
        0
 91
        1
 62
     0
 92
       -2
340
0
 93
        0
 40
0.045
309
GRIDFORMAT_END
 95
       16
302
GRIDFORMAT
  1
GRIDFORMAT_BEGIN
 90
        0
 91
        1
 62
     0
 92
       -2
340
0
 93
        0
 40
0.045
309
GRIDFORMAT_END
 95
       32
302
GRIDFORMAT
  1
GRIDFORMAT_BEGIN
 90
        0
 91
        1
 62
     0
 92
       -2
340
0
 93
        0
 40
0.045
309
GRIDFORMAT_END
309
TABLEFORMAT_END
  1
CELLSTYLE_BEGIN
 90
        3
 91
        2
300
_DATA
309
CELLSTYLE_END
  0
XRECORD
  5
2EAE9
102
{ACAD_REACTORS
330
444
102
}
330
444
100
AcDbXrecord
280
     1
102
ACAD_ROUNDTRIP_PRE2007_TABLESTYLE
 90
        4
 91
        0
  1

 92
        4
 93
        0
  2

 94
        4
 95
        0
  3

  0
XRECORD
  5
2EAF5
102
{ACAD_REACTORS
330
2EAF4
102
}
330
2EAF4
100
AcDbXrecord
280
     1
102
RTVSPost2010Prop28
280
     1
102
RTVSPost2010PropOp28
 70
     1
102
RTVSPost2010Prop29
280
     1
102
RTVSPost2010PropOp29
 70
     1
102
RTVSPost2010Prop30
280
     0
102
RTVSPost2010PropOp30
 70
     1
102
RTVSPost2010Prop31
280
     0
102
RTVSPost2010PropOp31
 70
     1
102
RTVSPost2010Prop32
280
     0
102
RTVSPost2010PropOp32
 70
     1
102
RTVSPost2010Prop33
280
     0
102
RTVSPost2010PropOp33
 70
     1
102
RTVSPost2010Prop34
280
     0
102
RTVSPost2010PropOp34
 70
     1
102
RTVSPost2010Prop35
280
     0
102
RTVSPost2010PropOp35
 70
     1
102
RTVSPost2010Prop36
280
     0
102
RTVSPost2010PropOp36
 70
     1
102
RTVSPost2010Prop37
 90
       50
102
RTVSPost2010PropOp37
 70
     1
102
RTVSPost2010Prop38
140
0.0
102
RTVSPost2010PropOp38
 70
     1
102
RTVSPost2010Prop39
140
1.0
102
RTVSPost2010PropOp39
 70
     1
102
RTVSPost2010Prop40
 90
        0
102
RTVSPost2010PropOp40
 70
     1
102
RTVSPost2010Prop41ColorIndex
 90
       18
102
RTVSPost2010Prop41ColorRGB
 90
        0
102
RTVSPost2010PropOp41
 70
     1
102
RTVSPost2010Prop42
 90
       50
102
RTVSPost2010PropOp42
 70
     1
102
RTVSPost2010Prop43
 90
        3
102
RTVSPost2010PropOp43
 70
     1
102
RTVSPost2010Prop44ColorIndex
 90
        5
102
RTVSPost2010Prop44ColorRGB
 90
      255
102
RTVSPost2010PropOp44
 70
     1
102
RTVSPost2010Prop45
280
     0
102
RTVSPost2010PropOp45
 70
     1
102
RTVSPost2010Prop46
 90
       50
102
RTVSPost2010PropOp46
 70
     1
102
RTVSPost2010Prop47
 90
       50
102
RTVSPost2010PropOp47
 70
     1
102
RTVSPost2010Prop48
 90
       50
102
RTVSPost2010PropOp48
 70
     1
102
RTVSPost2010Prop49
280
     0
102
RTVSPost2010PropOp49
 70
     1
102
RTVSPost2010Prop50
 90
       50
102
RTVSPost2010PropOp50
 70
     1
102
RTVSPost2010Prop51ColorIndex
 90
      256
102
RTVSPost2010Prop51ColorRGB
 90
-16777216
102
RTVSPost2010PropOp51
 70
     0
102
RTVSPost2010Prop52
140
1.0
102
RTVSPost2010PropOp52
 70
     0
102
RTVSPost2010Prop53
 90
        2
102
RTVSPost2010PropOp53
 70
     1
102
RTVSPost2010Prop54
  1
strokes_ogs.tif
102
RTVSPost2010PropOp54
 70
     1
102
RTVSPost2010Prop55
280
     0
102
RTVSPost2010PropOp55
 70
     1
102
RTVSPost2010Prop56
140
1.0
102
RTVSPost2010PropOp56
 70
     1
102
RTVSPost2010Prop57
140
1.0
102
RTVSPost2010PropOp57
 70
     1
102
RTVSPropertyOp0
 70
     1
102
RTVSPropertyOp1
 70
     1
102
RTVSPropertyOp2
 70
     1
102
RTVSPropertyOp3
 70
     1
102
RTVSPropertyOp4
 70
     1
102
RTVSPropertyOp5
 70
     1
102
RTVSPropertyOp6
 70
     1
102
RTVSPropertyOp7
 70
     1
102
RTVSPropertyOp8
 70
     1
102
RTVSPropertyOp9
 70
     1
102
RTVSPropertyOp10
 70
     1
102
RTVSPropertyOp11
 70
     1
102
RTVSPropertyOp12
 70
     1
102
RTVSPropertyOp13
 70
     1
102
RTVSPropertyOp14
 70
     1
102
RTVSPropertyOp15
 70
     1
102
RTVSPropertyOp16
 70
     1
102
RTVSPropertyOp17
 70
     1
102
RTVSPropertyOp18
 70
     1
102
RTVSPropertyOp19
 70
     1
102
RTVSPropertyOp20
 70
     1
102
RTVSPropertyOp21
 70
     1
102
RTVSPropertyOp22
 70
     1
102
RTVSPropertyOp23
 70
     1
102
RTVSPropertyOp24
 70
     1
102
RTVSPropertyOp25
 70
     1
102
RTVSPropertyOp26
 70
     1
102
RTVSPropertyOp27
 70
     1
102
RTVSPropertyOp28
 70
     1
102
RTVSPropertyOp29
 70
     1
102
RTVSPropertyOp30
 70
     1
102
RTVSPropertyOp31
 70
     1
102
RTVSPropertyOp32
 70
     1
102
RTVSPropertyOp33
 70
     1
102
RTVSPropertyOp34
 70
     1
102
RTVSPropertyOp35
 70
     1
102
RTVSPropertyOp36
 70
     1
102
RTVSPropertyOp37
 70
     1
102
RTVSPropertyOp38
 70
     1
102
RTVSPropertyOp39
 70
     1
102
RTVSPropertyOp40
 70
     1
102
RTVSPropertyOp41
 70
     1
102
RTVSPropertyOp42
 70
     1
102
RTVSPropertyOp43
 70
     1
102
RTVSPropertyOp44
 70
     1
102
RTVSPropertyOp45
 70
     1
102
RTVSPropertyOp46
 70
     1
102
RTVSPropertyOp47
 70
     1
102
RTVSPropertyOp48
 70
     1
102
RTVSPropertyOp49
 70
     1
102
RTVSPropertyOp50
 70
     1
102
RTVSPropertyOp51
 70
     0
102
RTVSPropertyOp52
 70
     0
102
RTVSPropertyOp53
 70
     1
102
RTVSPropertyOp54
 70
     1
102
RTVSPropertyOp55
 70
     1
102
RTVSPropertyOp56
 70
     1
102
RTVSPropertyOp57
 70
     1
102
RTVSPropertyOp58
 70
     1
102
RTVSPropertyOp59
 70
     1
102
RTVSPropertyOp60
 70
     1
102
RTVSPropertyOp61
 70
     1
102
RTVSPropertyOp62
 70
     1
  0
XRECORD
  5
2EAF9
102
{ACAD_REACTORS
330
2EAF8
102
}
330
2EAF8
100
AcDbXrecord
280
     1
102
RTVSPost2010Prop28
280
     0
102
RTVSPost2010PropOp28
 70
     1
102
RTVSPost2010Prop29
280
     1
102
RTVSPost2010PropOp29
 70
     1
102
RTVSPost2010Prop30
280
     1
102
RTVSPost2010PropOp30
 70
     1
102
RTVSPost2010Prop31
280
     0
102
RTVSPost2010PropOp31
 70
     1
102
RTVSPost2010Prop32
280
     0
102
RTVSPost2010PropOp32
 70
     1
102
RTVSPost2010Prop33
280
     0
102
RTVSPost2010PropOp33
 70
     1
102
RTVSPost2010Prop34
280
     0
102
RTVSPost2010PropOp34
 70
     1
102
RTVSPost2010Prop35
280
     0
102
RTVSPost2010PropOp35
 70
     1
102
RTVSPost2010Prop36
280
     0
102
RTVSPost2010PropOp36
 70
     1
102
RTVSPost2010Prop37
 90
       50
102
RTVSPost2010PropOp37
 70
     1
102
RTVSPost2010Prop38
140
0.0
102
RTVSPost2010PropOp38
 70
     1
102
RTVSPost2010Prop39
140
1.0
102
RTVSPost2010PropOp39
 70
     1
102
RTVSPost2010Prop40
 90
        0
102
RTVSPost2010PropOp40
 70
     1
102
RTVSPost2010Prop41ColorIndex
 90
       18
102
RTVSPost2010Prop41ColorRGB
 90
        0
102
RTVSPost2010PropOp41
 70
     1
102
RTVSPost2010Prop42
 90
       50
102
RTVSPost2010PropOp42
 70
     1
102
RTVSPost2010Prop43
 90
        3
102
RTVSPost2010PropOp43
 70
     1
102
RTVSPost2010Prop44ColorIndex
 90
        5
102
RTVSPost2010Prop44ColorRGB
 90
      255
102
RTVSPost2010PropOp44
 70
     1
102
RTVSPost2010Prop45
280
     0
102
RTVSPost2010PropOp45
 70
     1
102
RTVSPost2010Prop46
 90
       50
102
RTVSPost2010PropOp46
 70
     1
102
RTVSPost2010Prop47
 90
       50
102
RTVSPost2010PropOp47
 70
     1
102
RTVSPost2010Prop48
 90
       50
102
RTVSPost2010PropOp48
 70
     1
102
RTVSPost2010Prop49
280
     0
102
RTVSPost2010PropOp49
 70
     1
102
RTVSPost2010Prop50
 90
       50
102
RTVSPost2010PropOp50
 70
     1
102
RTVSPost2010Prop51ColorIndex
 90
      256
102
RTVSPost2010Prop51ColorRGB
 90
-16777216
102
RTVSPost2010PropOp51
 70
     0
102
RTVSPost2010Prop52
140
1.0
102
RTVSPost2010PropOp52
 70
     0
102
RTVSPost2010Prop53
 90
        2
102
RTVSPost2010PropOp53
 70
     1
102
RTVSPost2010Prop54
  1
strokes_ogs.tif
102
RTVSPost2010PropOp54
 70
     1
102
RTVSPost2010Prop55
280
     0
102
RTVSPost2010PropOp55
 70
     1
102
RTVSPost2010Prop56
140
1.0
102
RTVSPost2010PropOp56
 70
     1
102
RTVSPost2010Prop57
140
1.0
102
RTVSPost2010PropOp57
 70
     1
102
RTVSPropertyOp0
 70
     1
102
RTVSPropertyOp1
 70
     1
102
RTVSPropertyOp2
 70
     1
102
RTVSPropertyOp3
 70
     1
102
RTVSPropertyOp4
 70
     1
102
RTVSPropertyOp5
 70
     1
102
RTVSPropertyOp6
 70
     1
102
RTVSPropertyOp7
 70
     1
102
RTVSPropertyOp8
 70
     1
102
RTVSPropertyOp9
 70
     1
102
RTVSPropertyOp10
 70
     1
102
RTVSPropertyOp11
 70
     1
102
RTVSPropertyOp12
 70
     1
102
RTVSPropertyOp13
 70
     1
102
RTVSPropertyOp14
 70
     1
102
RTVSPropertyOp15
 70
     1
102
RTVSPropertyOp16
 70
     1
102
RTVSPropertyOp17
 70
     1
102
RTVSPropertyOp18
 70
     1
102
RTVSPropertyOp19
 70
     1
102
RTVSPropertyOp20
 70
     1
102
RTVSPropertyOp21
 70
     1
102
RTVSPropertyOp22
 70
     1
102
RTVSPropertyOp23
 70
     1
102
RTVSPropertyOp24
 70
     1
102
RTVSPropertyOp25
 70
     1
102
RTVSPropertyOp26
 70
     1
102
RTVSPropertyOp27
 70
     1
102
RTVSPropertyOp28
 70
     1
102
RTVSPropertyOp29
 70
     1
102
RTVSPropertyOp30
 70
     1
102
RTVSPropertyOp31
 70
     1
102
RTVSPropertyOp32
 70
     1
102
RTVSPropertyOp33
 70
     1
102
RTVSPropertyOp34
 70
     1
102
RTVSPropertyOp35
 70
     1
102
RTVSPropertyOp36
 70
     1
102
RTVSPropertyOp37
 70
     1
102
RTVSPropertyOp38
 70
     1
102
RTVSPropertyOp39
 70
     1
102
RTVSPropertyOp40
 70
     1
102
RTVSPropertyOp41
 70
     1
102
RTVSPropertyOp42
 70
     1
102
RTVSPropertyOp43
 70
     1
102
RTVSPropertyOp44
 70
     1
102
RTVSPropertyOp45
 70
     1
102
RTVSPropertyOp46
 70
     1
102
RTVSPropertyOp47
 70
     1
102
RTVSPropertyOp48
 70
     1
102
RTVSPropertyOp49
 70
     1
102
RTVSPropertyOp50
 70
     1
102
RTVSPropertyOp51
 70
     0
102
RTVSPropertyOp52
 70
     0
102
RTVSPropertyOp53
 70
     1
102
RTVSPropertyOp54
 70
     1
102
RTVSPropertyOp55
 70
     1
102
RTVSPropertyOp56
 70
     1
102
RTVSPropertyOp57
 70
     1
102
RTVSPropertyOp58
 70
     1
102
RTVSPropertyOp59
 70
     1
102
RTVSPropertyOp60
 70
     1
102
RTVSPropertyOp61
 70
     1
102
RTVSPropertyOp62
 70
     1
  0
XRECORD
  5
2EAF7
102
{ACAD_REACTORS
330
2EAF6
102
}
330
2EAF6
100
AcDbXrecord
280
     1
102
RTVSPost2010Prop28
280
     0
102
RTVSPost2010PropOp28
 70
     1
102
RTVSPost2010Prop29
280
     1
102
RTVSPost2010PropOp29
 70
     1
102
RTVSPost2010Prop30
280
     1
102
RTVSPost2010PropOp30
 70
     1
102
RTVSPost2010Prop31
280
     0
102
RTVSPost2010PropOp31
 70
     1
102
RTVSPost2010Prop32
280
     0
102
RTVSPost2010PropOp32
 70
     1
102
RTVSPost2010Prop33
280
     0
102
RTVSPost2010PropOp33
 70
     1
102
RTVSPost2010Prop34
280
     0
102
RTVSPost2010PropOp34
 70
     1
102
RTVSPost2010Prop35
280
     0
102
RTVSPost2010PropOp35
 70
     1
102
RTVSPost2010Prop36
280
     0
102
RTVSPost2010PropOp36
 70
     1
102
RTVSPost2010Prop37
 90
       50
102
RTVSPost2010PropOp37
 70
     1
102
RTVSPost2010Prop38
140
0.0
102
RTVSPost2010PropOp38
 70
     1
102
RTVSPost2010Prop39
140
1.0
102
RTVSPost2010PropOp39
 70
     1
102
RTVSPost2010Prop40
 90
        0
102
RTVSPost2010PropOp40
 70
     1
102
RTVSPost2010Prop41ColorIndex
 90
       18
102
RTVSPost2010Prop41ColorRGB
 90
        0
102
RTVSPost2010PropOp41
 70
     1
102
RTVSPost2010Prop42
 90
       50
102
RTVSPost2010PropOp42
 70
     1
102
RTVSPost2010Prop43
 90
        3
102
RTVSPost2010PropOp43
 70
     1
102
RTVSPost2010Prop44ColorIndex
 90
        5
102
RTVSPost2010Prop44ColorRGB
 90
      255
102
RTVSPost2010PropOp44
 70
     1
102
RTVSPost2010Prop45
280
     0
102
RTVSPost2010PropOp45
 70
     1
102
RTVSPost2010Prop46
 90
       50
102
RTVSPost2010PropOp46
 70
     1
102
RTVSPost2010Prop47
 90
       50
102
RTVSPost2010PropOp47
 70
     1
102
RTVSPost2010Prop48
 90
       50
102
RTVSPost2010PropOp48
 70
     1
102
RTVSPost2010Prop49
280
     0
102
RTVSPost2010PropOp49
 70
     1
102
RTVSPost2010Prop50
 90
       50
102
RTVSPost2010PropOp50
 70
     1
102
RTVSPost2010Prop51ColorIndex
 90
      256
102
RTVSPost2010Prop51ColorRGB
 90
-16777216
102
RTVSPost2010PropOp51
 70
     0
102
RTVSPost2010Prop52
140
1.0
102
RTVSPost2010PropOp52
 70
     0
102
RTVSPost2010Prop53
 90
        2
102
RTVSPost2010PropOp53
 70
     1
102
RTVSPost2010Prop54
  1
strokes_ogs.tif
102
RTVSPost2010PropOp54
 70
     1
102
RTVSPost2010Prop55
280
     0
102
RTVSPost2010PropOp55
 70
     1
102
RTVSPost2010Prop56
140
1.0
102
RTVSPost2010PropOp56
 70
     1
102
RTVSPost2010Prop57
140
1.0
102
RTVSPost2010PropOp57
 70
     1
102
RTVSPropertyOp0
 70
     1
102
RTVSPropertyOp1
 70
     1
102
RTVSPropertyOp2
 70
     1
102
RTVSPropertyOp3
 70
     1
102
RTVSPropertyOp4
 70
     1
102
RTVSPropertyOp5
 70
     1
102
RTVSPropertyOp6
 70
     1
102
RTVSPropertyOp7
 70
     1
102
RTVSPropertyOp8
 70
     1
102
RTVSPropertyOp9
 70
     1
102
RTVSPropertyOp10
 70
     1
102
RTVSPropertyOp11
 70
     1
102
RTVSPropertyOp12
 70
     1
102
RTVSPropertyOp13
 70
     1
102
RTVSPropertyOp14
 70
     1
102
RTVSPropertyOp15
 70
     1
102
RTVSPropertyOp16
 70
     1
102
RTVSPropertyOp17
 70
     1
102
RTVSPropertyOp18
 70
     1
102
RTVSPropertyOp19
 70
     1
102
RTVSPropertyOp20
 70
     1
102
RTVSPropertyOp21
 70
     1
102
RTVSPropertyOp22
 70
     1
102
RTVSPropertyOp23
 70
     1
102
RTVSPropertyOp24
 70
     1
102
RTVSPropertyOp25
 70
     1
102
RTVSPropertyOp26
 70
     1
102
RTVSPropertyOp27
 70
     1
102
RTVSPropertyOp28
 70
     1
102
RTVSPropertyOp29
 70
     1
102
RTVSPropertyOp30
 70
     1
102
RTVSPropertyOp31
 70
     1
102
RTVSPropertyOp32
 70
     1
102
RTVSPropertyOp33
 70
     1
102
RTVSPropertyOp34
 70
     1
102
RTVSPropertyOp35
 70
     1
102
RTVSPropertyOp36
 70
     1
102
RTVSPropertyOp37
 70
     1
102
RTVSPropertyOp38
 70
     1
102
RTVSPropertyOp39
 70
     1
102
RTVSPropertyOp40
 70
     1
102
RTVSPropertyOp41
 70
     1
102
RTVSPropertyOp42
 70
     1
102
RTVSPropertyOp43
 70
     1
102
RTVSPropertyOp44
 70
     1
102
RTVSPropertyOp45
 70
     1
102
RTVSPropertyOp46
 70
     1
102
RTVSPropertyOp47
 70
     1
102
RTVSPropertyOp48
 70
     1
102
RTVSPropertyOp49
 70
     1
102
RTVSPropertyOp50
 70
     1
102
RTVSPropertyOp51
 70
     0
102
RTVSPropertyOp52
 70
     0
102
RTVSPropertyOp53
 70
     1
102
RTVSPropertyOp54
 70
     1
102
RTVSPropertyOp55
 70
     1
102
RTVSPropertyOp56
 70
     1
102
RTVSPropertyOp57
 70
     1
102
RTVSPropertyOp58
 70
     1
102
RTVSPropertyOp59
 70
     1
102
RTVSPropertyOp60
 70
     1
102
RTVSPropertyOp61
 70
     1
102
RTVSPropertyOp62
 70
     1
  0
XRECORD
  5
2EAF3
102
{ACAD_REACTORS
330
2EAF2
102
}
330
2EAF2
100
AcDbXrecord
280
     1
102
RTVSPost2010Prop28
280
     0
102
RTVSPost2010PropOp28
 70
     1
102
RTVSPost2010Prop29
280
     1
102
RTVSPost2010PropOp29
 70
     1
102
RTVSPost2010Prop30
280
     1
102
RTVSPost2010PropOp30
 70
     1
102
RTVSPost2010Prop31
280
     0
102
RTVSPost2010PropOp31
 70
     1
102
RTVSPost2010Prop32
280
     0
102
RTVSPost2010PropOp32
 70
     1
102
RTVSPost2010Prop33
280
     0
102
RTVSPost2010PropOp33
 70
     1
102
RTVSPost2010Prop34
280
     0
102
RTVSPost2010PropOp34
 70
     1
102
RTVSPost2010Prop35
280
     0
102
RTVSPost2010PropOp35
 70
     1
102
RTVSPost2010Prop36
280
     0
102
RTVSPost2010PropOp36
 70
     1
102
RTVSPost2010Prop37
 90
       50
102
RTVSPost2010PropOp37
 70
     1
102
RTVSPost2010Prop38
140
0.0
102
RTVSPost2010PropOp38
 70
     1
102
RTVSPost2010Prop39
140
1.0
102
RTVSPost2010PropOp39
 70
     1
102
RTVSPost2010Prop40
 90
        0
102
RTVSPost2010PropOp40
 70
     1
102
RTVSPost2010Prop41ColorIndex
 90
       18
102
RTVSPost2010Prop41ColorRGB
 90
        0
102
RTVSPost2010PropOp41
 70
     1
102
RTVSPost2010Prop42
 90
       50
102
RTVSPost2010PropOp42
 70
     1
102
RTVSPost2010Prop43
 90
        3
102
RTVSPost2010PropOp43
 70
     1
102
RTVSPost2010Prop44ColorIndex
 90
        5
102
RTVSPost2010Prop44ColorRGB
 90
      255
102
RTVSPost2010PropOp44
 70
     1
102
RTVSPost2010Prop45
280
     0
102
RTVSPost2010PropOp45
 70
     1
102
RTVSPost2010Prop46
 90
       50
102
RTVSPost2010PropOp46
 70
     1
102
RTVSPost2010Prop47
 90
       50
102
RTVSPost2010PropOp47
 70
     1
102
RTVSPost2010Prop48
 90
       50
102
RTVSPost2010PropOp48
 70
     1
102
RTVSPost2010Prop49
280
     0
102
RTVSPost2010PropOp49
 70
     1
102
RTVSPost2010Prop50
 90
       50
102
RTVSPost2010PropOp50
 70
     1
102
RTVSPost2010Prop51ColorIndex
 90
      256
102
RTVSPost2010Prop51ColorRGB
 90
-16777216
102
RTVSPost2010PropOp51
 70
     0
102
RTVSPost2010Prop52
140
1.0
102
RTVSPost2010PropOp52
 70
     0
102
RTVSPost2010Prop53
 90
        2
102
RTVSPost2010PropOp53
 70
     1
102
RTVSPost2010Prop54
  1
strokes_ogs.tif
102
RTVSPost2010PropOp54
 70
     1
102
RTVSPost2010Prop55
280
     0
102
RTVSPost2010PropOp55
 70
     1
102
RTVSPost2010Prop56
140
1.0
102
RTVSPost2010PropOp56
 70
     1
102
RTVSPost2010Prop57
140
1.0
102
RTVSPost2010PropOp57
 70
     1
102
RTVSPropertyOp0
 70
     1
102
RTVSPropertyOp1
 70
     1
102
RTVSPropertyOp2
 70
     1
102
RTVSPropertyOp3
 70
     1
102
RTVSPropertyOp4
 70
     1
102
RTVSPropertyOp5
 70
     1
102
RTVSPropertyOp6
 70
     1
102
RTVSPropertyOp7
 70
     1
102
RTVSPropertyOp8
 70
     1
102
RTVSPropertyOp9
 70
     1
102
RTVSPropertyOp10
 70
     1
102
RTVSPropertyOp11
 70
     1
102
RTVSPropertyOp12
 70
     1
102
RTVSPropertyOp13
 70
     1
102
RTVSPropertyOp14
 70
     1
102
RTVSPropertyOp15
 70
     1
102
RTVSPropertyOp16
 70
     1
102
RTVSPropertyOp17
 70
     1
102
RTVSPropertyOp18
 70
     1
102
RTVSPropertyOp19
 70
     1
102
RTVSPropertyOp20
 70
     1
102
RTVSPropertyOp21
 70
     1
102
RTVSPropertyOp22
 70
     1
102
RTVSPropertyOp23
 70
     1
102
RTVSPropertyOp24
 70
     1
102
RTVSPropertyOp25
 70
     1
102
RTVSPropertyOp26
 70
     1
102
RTVSPropertyOp27
 70
     1
102
RTVSPropertyOp28
 70
     1
102
RTVSPropertyOp29
 70
     1
102
RTVSPropertyOp30
 70
     1
102
RTVSPropertyOp31
 70
     1
102
RTVSPropertyOp32
 70
     1
102
RTVSPropertyOp33
 70
     1
102
RTVSPropertyOp34
 70
     1
102
RTVSPropertyOp35
 70
     1
102
RTVSPropertyOp36
 70
     1
102
RTVSPropertyOp37
 70
     1
102
RTVSPropertyOp38
 70
     1
102
RTVSPropertyOp39
 70
     1
102
RTVSPropertyOp40
 70
     1
102
RTVSPropertyOp41
 70
     1
102
RTVSPropertyOp42
 70
     1
102
RTVSPropertyOp43
 70
     1
102
RTVSPropertyOp44
 70
     1
102
RTVSPropertyOp45
 70
     1
102
RTVSPropertyOp46
 70
     1
102
RTVSPropertyOp47
 70
     1
102
RTVSPropertyOp48
 70
     1
102
RTVSPropertyOp49
 70
     1
102
RTVSPropertyOp50
 70
     1
102
RTVSPropertyOp51
 70
     0
102
RTVSPropertyOp52
 70
     0
102
RTVSPropertyOp53
 70
     1
102
RTVSPropertyOp54
 70
     1
102
RTVSPropertyOp55
 70
     1
102
RTVSPropertyOp56
 70
     1
102
RTVSPropertyOp57
 70
     1
102
RTVSPropertyOp58
 70
     1
102
RTVSPropertyOp59
 70
     1
102
RTVSPropertyOp60
 70
     1
102
RTVSPropertyOp61
 70
     1
102
RTVSPropertyOp62
 70
     1
  0
XRECORD
  5
2EB01
102
{ACAD_REACTORS
330
2EB00
102
}
330
2EB00
100
AcDbXrecord
280
     1
102
RTVSPost2010Prop28
280
     0
102
RTVSPost2010PropOp28
 70
     1
102
RTVSPost2010Prop29
280
     1
102
RTVSPost2010PropOp29
 70
     1
102
RTVSPost2010Prop30
280
     1
102
RTVSPost2010PropOp30
 70
     1
102
RTVSPost2010Prop31
280
     0
102
RTVSPost2010PropOp31
 70
     1
102
RTVSPost2010Prop32
280
     0
102
RTVSPost2010PropOp32
 70
     1
102
RTVSPost2010Prop33
280
     0
102
RTVSPost2010PropOp33
 70
     1
102
RTVSPost2010Prop34
280
     0
102
RTVSPost2010PropOp34
 70
     1
102
RTVSPost2010Prop35
280
     0
102
RTVSPost2010PropOp35
 70
     1
102
RTVSPost2010Prop36
280
     0
102
RTVSPost2010PropOp36
 70
     1
102
RTVSPost2010Prop37
 90
       50
102
RTVSPost2010PropOp37
 70
     1
102
RTVSPost2010Prop38
140
0.0
102
RTVSPost2010PropOp38
 70
     1
102
RTVSPost2010Prop39
140
1.0
102
RTVSPost2010PropOp39
 70
     1
102
RTVSPost2010Prop40
 90
        0
102
RTVSPost2010PropOp40
 70
     1
102
RTVSPost2010Prop41ColorIndex
 90
       18
102
RTVSPost2010Prop41ColorRGB
 90
        0
102
RTVSPost2010PropOp41
 70
     1
102
RTVSPost2010Prop42
 90
       50
102
RTVSPost2010PropOp42
 70
     1
102
RTVSPost2010Prop43
 90
        3
102
RTVSPost2010PropOp43
 70
     1
102
RTVSPost2010Prop44ColorIndex
 90
        5
102
RTVSPost2010Prop44ColorRGB
 90
      255
102
RTVSPost2010PropOp44
 70
     1
102
RTVSPost2010Prop45
280
     0
102
RTVSPost2010PropOp45
 70
     1
102
RTVSPost2010Prop46
 90
       50
102
RTVSPost2010PropOp46
 70
     1
102
RTVSPost2010Prop47
 90
       50
102
RTVSPost2010PropOp47
 70
     1
102
RTVSPost2010Prop48
 90
       50
102
RTVSPost2010PropOp48
 70
     1
102
RTVSPost2010Prop49
280
     0
102
RTVSPost2010PropOp49
 70
     1
102
RTVSPost2010Prop50
 90
       50
102
RTVSPost2010PropOp50
 70
     1
102
RTVSPost2010Prop51ColorIndex
 90
      256
102
RTVSPost2010Prop51ColorRGB
 90
-16777216
102
RTVSPost2010PropOp51
 70
     0
102
RTVSPost2010Prop52
140
1.0
102
RTVSPost2010PropOp52
 70
     0
102
RTVSPost2010Prop53
 90
        2
102
RTVSPost2010PropOp53
 70
     1
102
RTVSPost2010Prop54
  1
strokes_ogs.tif
102
RTVSPost2010PropOp54
 70
     1
102
RTVSPost2010Prop55
280
     0
102
RTVSPost2010PropOp55
 70
     1
102
RTVSPost2010Prop56
140
1.0
102
RTVSPost2010PropOp56
 70
     1
102
RTVSPost2010Prop57
140
1.0
102
RTVSPost2010PropOp57
 70
     1
102
RTVSPropertyOp0
 70
     1
102
RTVSPropertyOp1
 70
     1
102
RTVSPropertyOp2
 70
     1
102
RTVSPropertyOp3
 70
     1
102
RTVSPropertyOp4
 70
     1
102
RTVSPropertyOp5
 70
     1
102
RTVSPropertyOp6
 70
     1
102
RTVSPropertyOp7
 70
     1
102
RTVSPropertyOp8
 70
     1
102
RTVSPropertyOp9
 70
     1
102
RTVSPropertyOp10
 70
     1
102
RTVSPropertyOp11
 70
     1
102
RTVSPropertyOp12
 70
     1
102
RTVSPropertyOp13
 70
     1
102
RTVSPropertyOp14
 70
     1
102
RTVSPropertyOp15
 70
     1
102
RTVSPropertyOp16
 70
     1
102
RTVSPropertyOp17
 70
     1
102
RTVSPropertyOp18
 70
     1
102
RTVSPropertyOp19
 70
     1
102
RTVSPropertyOp20
 70
     1
102
RTVSPropertyOp21
 70
     1
102
RTVSPropertyOp22
 70
     1
102
RTVSPropertyOp23
 70
     1
102
RTVSPropertyOp24
 70
     1
102
RTVSPropertyOp25
 70
     1
102
RTVSPropertyOp26
 70
     1
102
RTVSPropertyOp27
 70
     1
102
RTVSPropertyOp28
 70
     1
102
RTVSPropertyOp29
 70
     1
102
RTVSPropertyOp30
 70
     1
102
RTVSPropertyOp31
 70
     1
102
RTVSPropertyOp32
 70
     1
102
RTVSPropertyOp33
 70
     1
102
RTVSPropertyOp34
 70
     1
102
RTVSPropertyOp35
 70
     1
102
RTVSPropertyOp36
 70
     1
102
RTVSPropertyOp37
 70
     1
102
RTVSPropertyOp38
 70
     1
102
RTVSPropertyOp39
 70
     1
102
RTVSPropertyOp40
 70
     1
102
RTVSPropertyOp41
 70
     1
102
RTVSPropertyOp42
 70
     1
102
RTVSPropertyOp43
 70
     1
102
RTVSPropertyOp44
 70
     1
102
RTVSPropertyOp45
 70
     1
102
RTVSPropertyOp46
 70
     1
102
RTVSPropertyOp47
 70
     1
102
RTVSPropertyOp48
 70
     1
102
RTVSPropertyOp49
 70
     1
102
RTVSPropertyOp50
 70
     1
102
RTVSPropertyOp51
 70
     0
102
RTVSPropertyOp52
 70
     0
102
RTVSPropertyOp53
 70
     1
102
RTVSPropertyOp54
 70
     1
102
RTVSPropertyOp55
 70
     1
102
RTVSPropertyOp56
 70
     1
102
RTVSPropertyOp57
 70
     1
102
RTVSPropertyOp58
 70
     1
102
RTVSPropertyOp59
 70
     1
102
RTVSPropertyOp60
 70
     1
102
RTVSPropertyOp61
 70
     1
102
RTVSPropertyOp62
 70
     1
  0
XRECORD
  5
2EB09
102
{ACAD_REACTORS
330
2EB08
102
}
330
2EB08
100
AcDbXrecord
280
     1
102
RTVSPost2010Prop28
280
     0
102
RTVSPost2010PropOp28
 70
     1
102
RTVSPost2010Prop29
280
     1
102
RTVSPost2010PropOp29
 70
     1
102
RTVSPost2010Prop30
280
     1
102
RTVSPost2010PropOp30
 70
     1
102
RTVSPost2010Prop31
280
     0
102
RTVSPost2010PropOp31
 70
     1
102
RTVSPost2010Prop32
280
     0
102
RTVSPost2010PropOp32
 70
     1
102
RTVSPost2010Prop33
280
     0
102
RTVSPost2010PropOp33
 70
     1
102
RTVSPost2010Prop34
280
     0
102
RTVSPost2010PropOp34
 70
     1
102
RTVSPost2010Prop35
280
     0
102
RTVSPost2010PropOp35
 70
     1
102
RTVSPost2010Prop36
280
     0
102
RTVSPost2010PropOp36
 70
     1
102
RTVSPost2010Prop37
 90
       50
102
RTVSPost2010PropOp37
 70
     1
102
RTVSPost2010Prop38
140
0.0
102
RTVSPost2010PropOp38
 70
     1
102
RTVSPost2010Prop39
140
1.0
102
RTVSPost2010PropOp39
 70
     1
102
RTVSPost2010Prop40
 90
        0
102
RTVSPost2010PropOp40
 70
     1
102
RTVSPost2010Prop41ColorIndex
 90
       18
102
RTVSPost2010Prop41ColorRGB
 90
        0
102
RTVSPost2010PropOp41
 70
     1
102
RTVSPost2010Prop42
 90
       50
102
RTVSPost2010PropOp42
 70
     1
102
RTVSPost2010Prop43
 90
        3
102
RTVSPost2010PropOp43
 70
     1
102
RTVSPost2010Prop44ColorIndex
 90
        5
102
RTVSPost2010Prop44ColorRGB
 90
      255
102
RTVSPost2010PropOp44
 70
     1
102
RTVSPost2010Prop45
280
     0
102
RTVSPost2010PropOp45
 70
     1
102
RTVSPost2010Prop46
 90
       50
102
RTVSPost2010PropOp46
 70
     1
102
RTVSPost2010Prop47
 90
       50
102
RTVSPost2010PropOp47
 70
     1
102
RTVSPost2010Prop48
 90
       50
102
RTVSPost2010PropOp48
 70
     1
102
RTVSPost2010Prop49
280
     0
102
RTVSPost2010PropOp49
 70
     1
102
RTVSPost2010Prop50
 90
       50
102
RTVSPost2010PropOp50
 70
     1
102
RTVSPost2010Prop51ColorIndex
 90
      256
102
RTVSPost2010Prop51ColorRGB
 90
-16777216
102
RTVSPost2010PropOp51
 70
     0
102
RTVSPost2010Prop52
140
1.0
102
RTVSPost2010PropOp52
 70
     0
102
RTVSPost2010Prop53
 90
        2
102
RTVSPost2010PropOp53
 70
     1
102
RTVSPost2010Prop54
  1
strokes_ogs.tif
102
RTVSPost2010PropOp54
 70
     1
102
RTVSPost2010Prop55
280
     0
102
RTVSPost2010PropOp55
 70
     1
102
RTVSPost2010Prop56
140
1.0
102
RTVSPost2010PropOp56
 70
     1
102
RTVSPost2010Prop57
140
1.0
102
RTVSPost2010PropOp57
 70
     1
102
RTVSPropertyOp0
 70
     1
102
RTVSPropertyOp1
 70
     1
102
RTVSPropertyOp2
 70
     1
102
RTVSPropertyOp3
 70
     1
102
RTVSPropertyOp4
 70
     1
102
RTVSPropertyOp5
 70
     1
102
RTVSPropertyOp6
 70
     1
102
RTVSPropertyOp7
 70
     1
102
RTVSPropertyOp8
 70
     1
102
RTVSPropertyOp9
 70
     1
102
RTVSPropertyOp10
 70
     1
102
RTVSPropertyOp11
 70
     1
102
RTVSPropertyOp12
 70
     1
102
RTVSPropertyOp13
 70
     1
102
RTVSPropertyOp14
 70
     1
102
RTVSPropertyOp15
 70
     1
102
RTVSPropertyOp16
 70
     1
102
RTVSPropertyOp17
 70
     1
102
RTVSPropertyOp18
 70
     1
102
RTVSPropertyOp19
 70
     1
102
RTVSPropertyOp20
 70
     1
102
RTVSPropertyOp21
 70
     1
102
RTVSPropertyOp22
 70
     1
102
RTVSPropertyOp23
 70
     1
102
RTVSPropertyOp24
 70
     1
102
RTVSPropertyOp25
 70
     1
102
RTVSPropertyOp26
 70
     1
102
RTVSPropertyOp27
 70
     1
102
RTVSPropertyOp28
 70
     1
102
RTVSPropertyOp29
 70
     1
102
RTVSPropertyOp30
 70
     1
102
RTVSPropertyOp31
 70
     1
102
RTVSPropertyOp32
 70
     1
102
RTVSPropertyOp33
 70
     1
102
RTVSPropertyOp34
 70
     1
102
RTVSPropertyOp35
 70
     1
102
RTVSPropertyOp36
 70
     1
102
RTVSPropertyOp37
 70
     1
102
RTVSPropertyOp38
 70
     1
102
RTVSPropertyOp39
 70
     1
102
RTVSPropertyOp40
 70
     1
102
RTVSPropertyOp41
 70
     1
102
RTVSPropertyOp42
 70
     1
102
RTVSPropertyOp43
 70
     1
102
RTVSPropertyOp44
 70
     1
102
RTVSPropertyOp45
 70
     1
102
RTVSPropertyOp46
 70
     1
102
RTVSPropertyOp47
 70
     1
102
RTVSPropertyOp48
 70
     1
102
RTVSPropertyOp49
 70
     1
102
RTVSPropertyOp50
 70
     1
102
RTVSPropertyOp51
 70
     0
102
RTVSPropertyOp52
 70
     0
102
RTVSPropertyOp53
 70
     1
102
RTVSPropertyOp54
 70
     1
102
RTVSPropertyOp55
 70
     1
102
RTVSPropertyOp56
 70
     1
102
RTVSPropertyOp57
 70
     1
102
RTVSPropertyOp58
 70
     1
102
RTVSPropertyOp59
 70
     1
102
RTVSPropertyOp60
 70
     1
102
RTVSPropertyOp61
 70
     1
102
RTVSPropertyOp62
 70
     1
  0
XRECORD
  5
2EAFB
102
{ACAD_REACTORS
330
2EAFA
102
}
330
2EAFA
100
AcDbXrecord
280
     1
102
RTVSPost2010Prop28
280
     0
102
RTVSPost2010PropOp28
 70
     1
102
RTVSPost2010Prop29
280
     1
102
RTVSPost2010PropOp29
 70
     1
102
RTVSPost2010Prop30
280
     1
102
RTVSPost2010PropOp30
 70
     1
102
RTVSPost2010Prop31
280
     0
102
RTVSPost2010PropOp31
 70
     1
102
RTVSPost2010Prop32
280
     0
102
RTVSPost2010PropOp32
 70
     1
102
RTVSPost2010Prop33
280
     0
102
RTVSPost2010PropOp33
 70
     1
102
RTVSPost2010Prop34
280
     0
102
RTVSPost2010PropOp34
 70
     1
102
RTVSPost2010Prop35
280
     0
102
RTVSPost2010PropOp35
 70
     1
102
RTVSPost2010Prop36
280
     0
102
RTVSPost2010PropOp36
 70
     1
102
RTVSPost2010Prop37
 90
       50
102
RTVSPost2010PropOp37
 70
     1
102
RTVSPost2010Prop38
140
0.0
102
RTVSPost2010PropOp38
 70
     1
102
RTVSPost2010Prop39
140
1.0
102
RTVSPost2010PropOp39
 70
     1
102
RTVSPost2010Prop40
 90
        0
102
RTVSPost2010PropOp40
 70
     1
102
RTVSPost2010Prop41ColorIndex
 90
       18
102
RTVSPost2010Prop41ColorRGB
 90
        0
102
RTVSPost2010PropOp41
 70
     1
102
RTVSPost2010Prop42
 90
       50
102
RTVSPost2010PropOp42
 70
     1
102
RTVSPost2010Prop43
 90
        3
102
RTVSPost2010PropOp43
 70
     1
102
RTVSPost2010Prop44ColorIndex
 90
        5
102
RTVSPost2010Prop44ColorRGB
 90
      255
102
RTVSPost2010PropOp44
 70
     1
102
RTVSPost2010Prop45
280
     0
102
RTVSPost2010PropOp45
 70
     1
102
RTVSPost2010Prop46
 90
       50
102
RTVSPost2010PropOp46
 70
     1
102
RTVSPost2010Prop47
 90
       50
102
RTVSPost2010PropOp47
 70
     1
102
RTVSPost2010Prop48
 90
       50
102
RTVSPost2010PropOp48
 70
     1
102
RTVSPost2010Prop49
280
     0
102
RTVSPost2010PropOp49
 70
     1
102
RTVSPost2010Prop50
 90
       50
102
RTVSPost2010PropOp50
 70
     1
102
RTVSPost2010Prop51ColorIndex
 90
      256
102
RTVSPost2010Prop51ColorRGB
 90
-16777216
102
RTVSPost2010PropOp51
 70
     0
102
RTVSPost2010Prop52
140
1.0
102
RTVSPost2010PropOp52
 70
     0
102
RTVSPost2010Prop53
 90
        2
102
RTVSPost2010PropOp53
 70
     1
102
RTVSPost2010Prop54
  1
strokes_ogs.tif
102
RTVSPost2010PropOp54
 70
     1
102
RTVSPost2010Prop55
280
     0
102
RTVSPost2010PropOp55
 70
     1
102
RTVSPost2010Prop56
140
1.0
102
RTVSPost2010PropOp56
 70
     1
102
RTVSPost2010Prop57
140
1.0
102
RTVSPost2010PropOp57
 70
     1
102
RTVSPropertyOp0
 70
     1
102
RTVSPropertyOp1
 70
     1
102
RTVSPropertyOp2
 70
     1
102
RTVSPropertyOp3
 70
     1
102
RTVSPropertyOp4
 70
     1
102
RTVSPropertyOp5
 70
     1
102
RTVSPropertyOp6
 70
     1
102
RTVSPropertyOp7
 70
     1
102
RTVSPropertyOp8
 70
     1
102
RTVSPropertyOp9
 70
     1
102
RTVSPropertyOp10
 70
     1
102
RTVSPropertyOp11
 70
     1
102
RTVSPropertyOp12
 70
     1
102
RTVSPropertyOp13
 70
     1
102
RTVSPropertyOp14
 70
     1
102
RTVSPropertyOp15
 70
     1
102
RTVSPropertyOp16
 70
     1
102
RTVSPropertyOp17
 70
     1
102
RTVSPropertyOp18
 70
     1
102
RTVSPropertyOp19
 70
     1
102
RTVSPropertyOp20
 70
     1
102
RTVSPropertyOp21
 70
     1
102
RTVSPropertyOp22
 70
     1
102
RTVSPropertyOp23
 70
     1
102
RTVSPropertyOp24
 70
     1
102
RTVSPropertyOp25
 70
     1
102
RTVSPropertyOp26
 70
     1
102
RTVSPropertyOp27
 70
     1
102
RTVSPropertyOp28
 70
     1
102
RTVSPropertyOp29
 70
     1
102
RTVSPropertyOp30
 70
     1
102
RTVSPropertyOp31
 70
     1
102
RTVSPropertyOp32
 70
     1
102
RTVSPropertyOp33
 70
     1
102
RTVSPropertyOp34
 70
     1
102
RTVSPropertyOp35
 70
     1
102
RTVSPropertyOp36
 70
     1
102
RTVSPropertyOp37
 70
     1
102
RTVSPropertyOp38
 70
     1
102
RTVSPropertyOp39
 70
     1
102
RTVSPropertyOp40
 70
     1
102
RTVSPropertyOp41
 70
     1
102
RTVSPropertyOp42
 70
     1
102
RTVSPropertyOp43
 70
     1
102
RTVSPropertyOp44
 70
     1
102
RTVSPropertyOp45
 70
     1
102
RTVSPropertyOp46
 70
     1
102
RTVSPropertyOp47
 70
     1
102
RTVSPropertyOp48
 70
     1
102
RTVSPropertyOp49
 70
     1
102
RTVSPropertyOp50
 70
     1
102
RTVSPropertyOp51
 70
     0
102
RTVSPropertyOp52
 70
     0
102
RTVSPropertyOp53
 70
     1
102
RTVSPropertyOp54
 70
     1
102
RTVSPropertyOp55
 70
     1
102
RTVSPropertyOp56
 70
     1
102
RTVSPropertyOp57
 70
     1
102
RTVSPropertyOp58
 70
     1
102
RTVSPropertyOp59
 70
     1
102
RTVSPropertyOp60
 70
     1
102
RTVSPropertyOp61
 70
     1
102
RTVSPropertyOp62
 70
     1
  0
XRECORD
  5
2EAFF
102
{ACAD_REACTORS
330
2EAFE
102
}
330
2EAFE
100
AcDbXrecord
280
     1
102
RTVSPost2010Prop28
280
     0
102
RTVSPost2010PropOp28
 70
     1
102
RTVSPost2010Prop29
280
     1
102
RTVSPost2010PropOp29
 70
     1
102
RTVSPost2010Prop30
280
     1
102
RTVSPost2010PropOp30
 70
     1
102
RTVSPost2010Prop31
280
     0
102
RTVSPost2010PropOp31
 70
     1
102
RTVSPost2010Prop32
280
     0
102
RTVSPost2010PropOp32
 70
     1
102
RTVSPost2010Prop33
280
     0
102
RTVSPost2010PropOp33
 70
     1
102
RTVSPost2010Prop34
280
     0
102
RTVSPost2010PropOp34
 70
     1
102
RTVSPost2010Prop35
280
     0
102
RTVSPost2010PropOp35
 70
     1
102
RTVSPost2010Prop36
280
     0
102
RTVSPost2010PropOp36
 70
     1
102
RTVSPost2010Prop37
 90
       50
102
RTVSPost2010PropOp37
 70
     1
102
RTVSPost2010Prop38
140
0.0
102
RTVSPost2010PropOp38
 70
     1
102
RTVSPost2010Prop39
140
1.0
102
RTVSPost2010PropOp39
 70
     1
102
RTVSPost2010Prop40
 90
        0
102
RTVSPost2010PropOp40
 70
     1
102
RTVSPost2010Prop41ColorIndex
 90
       18
102
RTVSPost2010Prop41ColorRGB
 90
        0
102
RTVSPost2010PropOp41
 70
     1
102
RTVSPost2010Prop42
 90
       50
102
RTVSPost2010PropOp42
 70
     1
102
RTVSPost2010Prop43
 90
        3
102
RTVSPost2010PropOp43
 70
     1
102
RTVSPost2010Prop44ColorIndex
 90
        5
102
RTVSPost2010Prop44ColorRGB
 90
      255
102
RTVSPost2010PropOp44
 70
     1
102
RTVSPost2010Prop45
280
     0
102
RTVSPost2010PropOp45
 70
     1
102
RTVSPost2010Prop46
 90
       50
102
RTVSPost2010PropOp46
 70
     1
102
RTVSPost2010Prop47
 90
       50
102
RTVSPost2010PropOp47
 70
     1
102
RTVSPost2010Prop48
 90
       50
102
RTVSPost2010PropOp48
 70
     1
102
RTVSPost2010Prop49
280
     0
102
RTVSPost2010PropOp49
 70
     1
102
RTVSPost2010Prop50
 90
       50
102
RTVSPost2010PropOp50
 70
     1
102
RTVSPost2010Prop51ColorIndex
 90
      256
102
RTVSPost2010Prop51ColorRGB
 90
-16777216
102
RTVSPost2010PropOp51
 70
     0
102
RTVSPost2010Prop52
140
1.0
102
RTVSPost2010PropOp52
 70
     0
102
RTVSPost2010Prop53
 90
        2
102
RTVSPost2010PropOp53
 70
     1
102
RTVSPost2010Prop54
  1
strokes_ogs.tif
102
RTVSPost2010PropOp54
 70
     1
102
RTVSPost2010Prop55
280
     0
102
RTVSPost2010PropOp55
 70
     1
102
RTVSPost2010Prop56
140
1.0
102
RTVSPost2010PropOp56
 70
     1
102
RTVSPost2010Prop57
140
1.0
102
RTVSPost2010PropOp57
 70
     1
102
RTVSPropertyOp0
 70
     1
102
RTVSPropertyOp1
 70
     1
102
RTVSPropertyOp2
 70
     1
102
RTVSPropertyOp3
 70
     1
102
RTVSPropertyOp4
 70
     1
102
RTVSPropertyOp5
 70
     1
102
RTVSPropertyOp6
 70
     1
102
RTVSPropertyOp7
 70
     1
102
RTVSPropertyOp8
 70
     1
102
RTVSPropertyOp9
 70
     1
102
RTVSPropertyOp10
 70
     1
102
RTVSPropertyOp11
 70
     1
102
RTVSPropertyOp12
 70
     1
102
RTVSPropertyOp13
 70
     1
102
RTVSPropertyOp14
 70
     1
102
RTVSPropertyOp15
 70
     1
102
RTVSPropertyOp16
 70
     1
102
RTVSPropertyOp17
 70
     1
102
RTVSPropertyOp18
 70
     1
102
RTVSPropertyOp19
 70
     1
102
RTVSPropertyOp20
 70
     1
102
RTVSPropertyOp21
 70
     1
102
RTVSPropertyOp22
 70
     1
102
RTVSPropertyOp23
 70
     1
102
RTVSPropertyOp24
 70
     1
102
RTVSPropertyOp25
 70
     1
102
RTVSPropertyOp26
 70
     1
102
RTVSPropertyOp27
 70
     1
102
RTVSPropertyOp28
 70
     1
102
RTVSPropertyOp29
 70
     1
102
RTVSPropertyOp30
 70
     1
102
RTVSPropertyOp31
 70
     1
102
RTVSPropertyOp32
 70
     1
102
RTVSPropertyOp33
 70
     1
102
RTVSPropertyOp34
 70
     1
102
RTVSPropertyOp35
 70
     1
102
RTVSPropertyOp36
 70
     1
102
RTVSPropertyOp37
 70
     1
102
RTVSPropertyOp38
 70
     1
102
RTVSPropertyOp39
 70
     1
102
RTVSPropertyOp40
 70
     1
102
RTVSPropertyOp41
 70
     1
102
RTVSPropertyOp42
 70
     1
102
RTVSPropertyOp43
 70
     1
102
RTVSPropertyOp44
 70
     1
102
RTVSPropertyOp45
 70
     1
102
RTVSPropertyOp46
 70
     1
102
RTVSPropertyOp47
 70
     1
102
RTVSPropertyOp48
 70
     1
102
RTVSPropertyOp49
 70
     1
102
RTVSPropertyOp50
 70
     1
102
RTVSPropertyOp51
 70
     0
102
RTVSPropertyOp52
 70
     0
102
RTVSPropertyOp53
 70
     1
102
RTVSPropertyOp54
 70
     1
102
RTVSPropertyOp55
 70
     1
102
RTVSPropertyOp56
 70
     1
102
RTVSPropertyOp57
 70
     1
102
RTVSPropertyOp58
 70
     1
102
RTVSPropertyOp59
 70
     1
102
RTVSPropertyOp60
 70
     1
102
RTVSPropertyOp61
 70
     1
102
RTVSPropertyOp62
 70
     1
  0
XRECORD
  5
2EB0F
102
{ACAD_REACTORS
330
2EB0E
102
}
330
2EB0E
100
AcDbXrecord
280
     1
102
RTVSPost2010Prop28
280
     0
102
RTVSPost2010PropOp28
 70
     1
102
RTVSPost2010Prop29
280
     1
102
RTVSPost2010PropOp29
 70
     1
102
RTVSPost2010Prop30
280
     1
102
RTVSPost2010PropOp30
 70
     1
102
RTVSPost2010Prop31
280
     0
102
RTVSPost2010PropOp31
 70
     1
102
RTVSPost2010Prop32
280
     0
102
RTVSPost2010PropOp32
 70
     1
102
RTVSPost2010Prop33
280
     0
102
RTVSPost2010PropOp33
 70
     1
102
RTVSPost2010Prop34
280
     0
102
RTVSPost2010PropOp34
 70
     1
102
RTVSPost2010Prop35
280
     0
102
RTVSPost2010PropOp35
 70
     1
102
RTVSPost2010Prop36
280
     0
102
RTVSPost2010PropOp36
 70
     1
102
RTVSPost2010Prop37
 90
       50
102
RTVSPost2010PropOp37
 70
     1
102
RTVSPost2010Prop38
140
0.0
102
RTVSPost2010PropOp38
 70
     1
102
RTVSPost2010Prop39
140
1.0
102
RTVSPost2010PropOp39
 70
     1
102
RTVSPost2010Prop40
 90
        0
102
RTVSPost2010PropOp40
 70
     1
102
RTVSPost2010Prop41ColorIndex
 90
       18
102
RTVSPost2010Prop41ColorRGB
 90
        0
102
RTVSPost2010PropOp41
 70
     1
102
RTVSPost2010Prop42
 90
       50
102
RTVSPost2010PropOp42
 70
     1
102
RTVSPost2010Prop43
 90
        3
102
RTVSPost2010PropOp43
 70
     1
102
RTVSPost2010Prop44ColorIndex
 90
        5
102
RTVSPost2010Prop44ColorRGB
 90
      255
102
RTVSPost2010PropOp44
 70
     1
102
RTVSPost2010Prop45
280
     0
102
RTVSPost2010PropOp45
 70
     1
102
RTVSPost2010Prop46
 90
       50
102
RTVSPost2010PropOp46
 70
     1
102
RTVSPost2010Prop47
 90
       50
102
RTVSPost2010PropOp47
 70
     1
102
RTVSPost2010Prop48
 90
       50
102
RTVSPost2010PropOp48
 70
     1
102
RTVSPost2010Prop49
280
     0
102
RTVSPost2010PropOp49
 70
     1
102
RTVSPost2010Prop50
 90
       50
102
RTVSPost2010PropOp50
 70
     1
102
RTVSPost2010Prop51ColorIndex
 90
      256
102
RTVSPost2010Prop51ColorRGB
 90
-16777216
102
RTVSPost2010PropOp51
 70
     0
102
RTVSPost2010Prop52
140
1.0
102
RTVSPost2010PropOp52
 70
     0
102
RTVSPost2010Prop53
 90
        2
102
RTVSPost2010PropOp53
 70
     1
102
RTVSPost2010Prop54
  1
strokes_ogs.tif
102
RTVSPost2010PropOp54
 70
     1
102
RTVSPost2010Prop55
280
     0
102
RTVSPost2010PropOp55
 70
     1
102
RTVSPost2010Prop56
140
1.0
102
RTVSPost2010PropOp56
 70
     1
102
RTVSPost2010Prop57
140
1.0
102
RTVSPost2010PropOp57
 70
     1
102
RTVSPropertyOp0
 70
     0
102
RTVSPropertyOp1
 70
     0
102
RTVSPropertyOp2
 70
     0
102
RTVSPropertyOp3
 70
     0
102
RTVSPropertyOp4
 70
     0
102
RTVSPropertyOp5
 70
     0
102
RTVSPropertyOp6
 70
     0
102
RTVSPropertyOp7
 70
     0
102
RTVSPropertyOp8
 70
     0
102
RTVSPropertyOp9
 70
     0
102
RTVSPropertyOp10
 70
     0
102
RTVSPropertyOp11
 70
     0
102
RTVSPropertyOp12
 70
     0
102
RTVSPropertyOp13
 70
     0
102
RTVSPropertyOp14
 70
     2
102
RTVSPropertyOp15
 70
     0
102
RTVSPropertyOp16
 70
     0
102
RTVSPropertyOp17
 70
     0
102
RTVSPropertyOp18
 70
     0
102
RTVSPropertyOp19
 70
     0
102
RTVSPropertyOp20
 70
     0
102
RTVSPropertyOp21
 70
     0
102
RTVSPropertyOp22
 70
     0
102
RTVSPropertyOp23
 70
     0
102
RTVSPropertyOp24
 70
     0
102
RTVSPropertyOp25
 70
     0
102
RTVSPropertyOp26
 70
     0
102
RTVSPropertyOp27
 70
     0
102
RTVSPropertyOp28
 70
     1
102
RTVSPropertyOp29
 70
     1
102
RTVSPropertyOp30
 70
     1
102
RTVSPropertyOp31
 70
     1
102
RTVSPropertyOp32
 70
     1
102
RTVSPropertyOp33
 70
     1
102
RTVSPropertyOp34
 70
     1
102
RTVSPropertyOp35
 70
     1
102
RTVSPropertyOp36
 70
     1
102
RTVSPropertyOp37
 70
     1
102
RTVSPropertyOp38
 70
     1
102
RTVSPropertyOp39
 70
     1
102
RTVSPropertyOp40
 70
     1
102
RTVSPropertyOp41
 70
     1
102
RTVSPropertyOp42
 70
     1
102
RTVSPropertyOp43
 70
     1
102
RTVSPropertyOp44
 70
     1
102
RTVSPropertyOp45
 70
     1
102
RTVSPropertyOp46
 70
     1
102
RTVSPropertyOp47
 70
     1
102
RTVSPropertyOp48
 70
     1
102
RTVSPropertyOp49
 70
     1
102
RTVSPropertyOp50
 70
     1
102
RTVSPropertyOp51
 70
     0
102
RTVSPropertyOp52
 70
     0
102
RTVSPropertyOp53
 70
     1
102
RTVSPropertyOp54
 70
     1
102
RTVSPropertyOp55
 70
     1
102
RTVSPropertyOp56
 70
     1
102
RTVSPropertyOp57
 70
     1
102
RTVSPropertyOp58
 70
     1
102
RTVSPropertyOp59
 70
     1
102
RTVSPropertyOp60
 70
     1
102
RTVSPropertyOp61
 70
     1
102
RTVSPropertyOp62
 70
     1
  0
XRECORD
  5
2EB07
102
{ACAD_REACTORS
330
2EB06
102
}
330
2EB06
100
AcDbXrecord
280
     1
102
RTVSPost2010Prop28
280
     0
102
RTVSPost2010PropOp28
 70
     1
102
RTVSPost2010Prop29
280
     1
102
RTVSPost2010PropOp29
 70
     1
102
RTVSPost2010Prop30
280
     1
102
RTVSPost2010PropOp30
 70
     1
102
RTVSPost2010Prop31
280
     0
102
RTVSPost2010PropOp31
 70
     1
102
RTVSPost2010Prop32
280
     0
102
RTVSPost2010PropOp32
 70
     1
102
RTVSPost2010Prop33
280
     0
102
RTVSPost2010PropOp33
 70
     1
102
RTVSPost2010Prop34
280
     0
102
RTVSPost2010PropOp34
 70
     1
102
RTVSPost2010Prop35
280
     0
102
RTVSPost2010PropOp35
 70
     1
102
RTVSPost2010Prop36
280
     0
102
RTVSPost2010PropOp36
 70
     1
102
RTVSPost2010Prop37
 90
       50
102
RTVSPost2010PropOp37
 70
     1
102
RTVSPost2010Prop38
140
0.0
102
RTVSPost2010PropOp38
 70
     1
102
RTVSPost2010Prop39
140
1.0
102
RTVSPost2010PropOp39
 70
     1
102
RTVSPost2010Prop40
 90
        0
102
RTVSPost2010PropOp40
 70
     1
102
RTVSPost2010Prop41ColorIndex
 90
       18
102
RTVSPost2010Prop41ColorRGB
 90
        0
102
RTVSPost2010PropOp41
 70
     1
102
RTVSPost2010Prop42
 90
       50
102
RTVSPost2010PropOp42
 70
     1
102
RTVSPost2010Prop43
 90
        3
102
RTVSPost2010PropOp43
 70
     1
102
RTVSPost2010Prop44ColorIndex
 90
        5
102
RTVSPost2010Prop44ColorRGB
 90
      255
102
RTVSPost2010PropOp44
 70
     1
102
RTVSPost2010Prop45
280
     0
102
RTVSPost2010PropOp45
 70
     1
102
RTVSPost2010Prop46
 90
       50
102
RTVSPost2010PropOp46
 70
     1
102
RTVSPost2010Prop47
 90
       50
102
RTVSPost2010PropOp47
 70
     1
102
RTVSPost2010Prop48
 90
       50
102
RTVSPost2010PropOp48
 70
     1
102
RTVSPost2010Prop49
280
     0
102
RTVSPost2010PropOp49
 70
     1
102
RTVSPost2010Prop50
 90
       50
102
RTVSPost2010PropOp50
 70
     1
102
RTVSPost2010Prop51ColorIndex
 90
      256
102
RTVSPost2010Prop51ColorRGB
 90
-16777216
102
RTVSPost2010PropOp51
 70
     0
102
RTVSPost2010Prop52
140
1.0
102
RTVSPost2010PropOp52
 70
     0
102
RTVSPost2010Prop53
 90
        2
102
RTVSPost2010PropOp53
 70
     1
102
RTVSPost2010Prop54
  1
strokes_ogs.tif
102
RTVSPost2010PropOp54
 70
     1
102
RTVSPost2010Prop55
280
     0
102
RTVSPost2010PropOp55
 70
     1
102
RTVSPost2010Prop56
140
1.0
102
RTVSPost2010PropOp56
 70
     1
102
RTVSPost2010Prop57
140
1.0
102
RTVSPost2010PropOp57
 70
     1
102
RTVSPropertyOp0
 70
     1
102
RTVSPropertyOp1
 70
     1
102
RTVSPropertyOp2
 70
     1
102
RTVSPropertyOp3
 70
     1
102
RTVSPropertyOp4
 70
     1
102
RTVSPropertyOp5
 70
     1
102
RTVSPropertyOp6
 70
     1
102
RTVSPropertyOp7
 70
     1
102
RTVSPropertyOp8
 70
     1
102
RTVSPropertyOp9
 70
     1
102
RTVSPropertyOp10
 70
     1
102
RTVSPropertyOp11
 70
     1
102
RTVSPropertyOp12
 70
     1
102
RTVSPropertyOp13
 70
     1
102
RTVSPropertyOp14
 70
     1
102
RTVSPropertyOp15
 70
     1
102
RTVSPropertyOp16
 70
     1
102
RTVSPropertyOp17
 70
     1
102
RTVSPropertyOp18
 70
     1
102
RTVSPropertyOp19
 70
     1
102
RTVSPropertyOp20
 70
     1
102
RTVSPropertyOp21
 70
     1
102
RTVSPropertyOp22
 70
     1
102
RTVSPropertyOp23
 70
     1
102
RTVSPropertyOp24
 70
     1
102
RTVSPropertyOp25
 70
     1
102
RTVSPropertyOp26
 70
     1
102
RTVSPropertyOp27
 70
     1
102
RTVSPropertyOp28
 70
     1
102
RTVSPropertyOp29
 70
     1
102
RTVSPropertyOp30
 70
     1
102
RTVSPropertyOp31
 70
     1
102
RTVSPropertyOp32
 70
     1
102
RTVSPropertyOp33
 70
     1
102
RTVSPropertyOp34
 70
     1
102
RTVSPropertyOp35
 70
     1
102
RTVSPropertyOp36
 70
     1
102
RTVSPropertyOp37
 70
     1
102
RTVSPropertyOp38
 70
     1
102
RTVSPropertyOp39
 70
     1
102
RTVSPropertyOp40
 70
     1
102
RTVSPropertyOp41
 70
     1
102
RTVSPropertyOp42
 70
     1
102
RTVSPropertyOp43
 70
     1
102
RTVSPropertyOp44
 70
     1
102
RTVSPropertyOp45
 70
     1
102
RTVSPropertyOp46
 70
     1
102
RTVSPropertyOp47
 70
     1
102
RTVSPropertyOp48
 70
     1
102
RTVSPropertyOp49
 70
     1
102
RTVSPropertyOp50
 70
     1
102
RTVSPropertyOp51
 70
     0
102
RTVSPropertyOp52
 70
     0
102
RTVSPropertyOp53
 70
     1
102
RTVSPropertyOp54
 70
     1
102
RTVSPropertyOp55
 70
     1
102
RTVSPropertyOp56
 70
     1
102
RTVSPropertyOp57
 70
     1
102
RTVSPropertyOp58
 70
     1
102
RTVSPropertyOp59
 70
     1
102
RTVSPropertyOp60
 70
     1
102
RTVSPropertyOp61
 70
     1
102
RTVSPropertyOp62
 70
     1
  0
XRECORD
  5
2EAEB
102
{ACAD_REACTORS
330
2EAEA
102
}
330
2EAEA
100
AcDbXrecord
280
     1
102
RTVSPost2010Prop28
280
     0
102
RTVSPost2010PropOp28
 70
     1
102
RTVSPost2010Prop29
280
     1
102
RTVSPost2010PropOp29
 70
     1
102
RTVSPost2010Prop30
280
     1
102
RTVSPost2010PropOp30
 70
     1
102
RTVSPost2010Prop31
280
     0
102
RTVSPost2010PropOp31
 70
     1
102
RTVSPost2010Prop32
280
     0
102
RTVSPost2010PropOp32
 70
     1
102
RTVSPost2010Prop33
280
     0
102
RTVSPost2010PropOp33
 70
     1
102
RTVSPost2010Prop34
280
     0
102
RTVSPost2010PropOp34
 70
     1
102
RTVSPost2010Prop35
280
     0
102
RTVSPost2010PropOp35
 70
     1
102
RTVSPost2010Prop36
280
     0
102
RTVSPost2010PropOp36
 70
     1
102
RTVSPost2010Prop37
 90
       50
102
RTVSPost2010PropOp37
 70
     1
102
RTVSPost2010Prop38
140
0.0
102
RTVSPost2010PropOp38
 70
     1
102
RTVSPost2010Prop39
140
1.0
102
RTVSPost2010PropOp39
 70
     1
102
RTVSPost2010Prop40
 90
        0
102
RTVSPost2010PropOp40
 70
     1
102
RTVSPost2010Prop41ColorIndex
 90
       18
102
RTVSPost2010Prop41ColorRGB
 90
        0
102
RTVSPost2010PropOp41
 70
     1
102
RTVSPost2010Prop42
 90
       50
102
RTVSPost2010PropOp42
 70
     1
102
RTVSPost2010Prop43
 90
        3
102
RTVSPost2010PropOp43
 70
     1
102
RTVSPost2010Prop44ColorIndex
 90
        5
102
RTVSPost2010Prop44ColorRGB
 90
      255
102
RTVSPost2010PropOp44
 70
     1
102
RTVSPost2010Prop45
280
     0
102
RTVSPost2010PropOp45
 70
     1
102
RTVSPost2010Prop46
 90
       50
102
RTVSPost2010PropOp46
 70
     1
102
RTVSPost2010Prop47
 90
       50
102
RTVSPost2010PropOp47
 70
     1
102
RTVSPost2010Prop48
 90
       50
102
RTVSPost2010PropOp48
 70
     1
102
RTVSPost2010Prop49
280
     0
102
RTVSPost2010PropOp49
 70
     1
102
RTVSPost2010Prop50
 90
       50
102
RTVSPost2010PropOp50
 70
     1
102
RTVSPost2010Prop51ColorIndex
 90
      256
102
RTVSPost2010Prop51ColorRGB
 90
-16777216
102
RTVSPost2010PropOp51
 70
     0
102
RTVSPost2010Prop52
140
1.0
102
RTVSPost2010PropOp52
 70
     0
102
RTVSPost2010Prop53
 90
        2
102
RTVSPost2010PropOp53
 70
     1
102
RTVSPost2010Prop54
  1
strokes_ogs.tif
102
RTVSPost2010PropOp54
 70
     1
102
RTVSPost2010Prop55
280
     0
102
RTVSPost2010PropOp55
 70
     1
102
RTVSPost2010Prop56
140
1.0
102
RTVSPost2010PropOp56
 70
     1
102
RTVSPost2010Prop57
140
1.0
102
RTVSPost2010PropOp57
 70
     1
102
RTVSPropertyOp0
 70
     1
102
RTVSPropertyOp1
 70
     1
102
RTVSPropertyOp2
 70
     1
102
RTVSPropertyOp3
 70
     1
102
RTVSPropertyOp4
 70
     1
102
RTVSPropertyOp5
 70
     1
102
RTVSPropertyOp6
 70
     1
102
RTVSPropertyOp7
 70
     1
102
RTVSPropertyOp8
 70
     1
102
RTVSPropertyOp9
 70
     1
102
RTVSPropertyOp10
 70
     1
102
RTVSPropertyOp11
 70
     1
102
RTVSPropertyOp12
 70
     1
102
RTVSPropertyOp13
 70
     1
102
RTVSPropertyOp14
 70
     1
102
RTVSPropertyOp15
 70
     1
102
RTVSPropertyOp16
 70
     1
102
RTVSPropertyOp17
 70
     1
102
RTVSPropertyOp18
 70
     1
102
RTVSPropertyOp19
 70
     1
102
RTVSPropertyOp20
 70
     1
102
RTVSPropertyOp21
 70
     1
102
RTVSPropertyOp22
 70
     1
102
RTVSPropertyOp23
 70
     1
102
RTVSPropertyOp24
 70
     1
102
RTVSPropertyOp25
 70
     1
102
RTVSPropertyOp26
 70
     1
102
RTVSPropertyOp27
 70
     1
102
RTVSPropertyOp28
 70
     1
102
RTVSPropertyOp29
 70
     1
102
RTVSPropertyOp30
 70
     1
102
RTVSPropertyOp31
 70
     1
102
RTVSPropertyOp32
 70
     1
102
RTVSPropertyOp33
 70
     1
102
RTVSPropertyOp34
 70
     1
102
RTVSPropertyOp35
 70
     1
102
RTVSPropertyOp36
 70
     1
102
RTVSPropertyOp37
 70
     1
102
RTVSPropertyOp38
 70
     1
102
RTVSPropertyOp39
 70
     1
102
RTVSPropertyOp40
 70
     1
102
RTVSPropertyOp41
 70
     1
102
RTVSPropertyOp42
 70
     1
102
RTVSPropertyOp43
 70
     1
102
RTVSPropertyOp44
 70
     1
102
RTVSPropertyOp45
 70
     1
102
RTVSPropertyOp46
 70
     1
102
RTVSPropertyOp47
 70
     1
102
RTVSPropertyOp48
 70
     1
102
RTVSPropertyOp49
 70
     1
102
RTVSPropertyOp50
 70
     1
102
RTVSPropertyOp51
 70
     0
102
RTVSPropertyOp52
 70
     0
102
RTVSPropertyOp53
 70
     1
102
RTVSPropertyOp54
 70
     1
102
RTVSPropertyOp55
 70
     1
102
RTVSPropertyOp56
 70
     1
102
RTVSPropertyOp57
 70
     1
102
RTVSPropertyOp58
 70
     1
102
RTVSPropertyOp59
 70
     1
102
RTVSPropertyOp60
 70
     1
102
RTVSPropertyOp61
 70
     1
102
RTVSPropertyOp62
 70
     1
  0
XRECORD
  5
2EAED
102
{ACAD_REACTORS
330
2EAEC
102
}
330
2EAEC
100
AcDbXrecord
280
     1
102
RTVSPost2010Prop28
280
     0
102
RTVSPost2010PropOp28
 70
     1
102
RTVSPost2010Prop29
280
     1
102
RTVSPost2010PropOp29
 70
     1
102
RTVSPost2010Prop30
280
     1
102
RTVSPost2010PropOp30
 70
     1
102
RTVSPost2010Prop31
280
     0
102
RTVSPost2010PropOp31
 70
     1
102
RTVSPost2010Prop32
280
     0
102
RTVSPost2010PropOp32
 70
     1
102
RTVSPost2010Prop33
280
     0
102
RTVSPost2010PropOp33
 70
     1
102
RTVSPost2010Prop34
280
     0
102
RTVSPost2010PropOp34
 70
     1
102
RTVSPost2010Prop35
280
     0
102
RTVSPost2010PropOp35
 70
     1
102
RTVSPost2010Prop36
280
     0
102
RTVSPost2010PropOp36
 70
     1
102
RTVSPost2010Prop37
 90
       50
102
RTVSPost2010PropOp37
 70
     1
102
RTVSPost2010Prop38
140
0.0
102
RTVSPost2010PropOp38
 70
     1
102
RTVSPost2010Prop39
140
1.0
102
RTVSPost2010PropOp39
 70
     1
102
RTVSPost2010Prop40
 90
        0
102
RTVSPost2010PropOp40
 70
     1
102
RTVSPost2010Prop41ColorIndex
 90
       18
102
RTVSPost2010Prop41ColorRGB
 90
        0
102
RTVSPost2010PropOp41
 70
     1
102
RTVSPost2010Prop42
 90
       50
102
RTVSPost2010PropOp42
 70
     1
102
RTVSPost2010Prop43
 90
        3
102
RTVSPost2010PropOp43
 70
     1
102
RTVSPost2010Prop44ColorIndex
 90
        5
102
RTVSPost2010Prop44ColorRGB
 90
      255
102
RTVSPost2010PropOp44
 70
     1
102
RTVSPost2010Prop45
280
     0
102
RTVSPost2010PropOp45
 70
     1
102
RTVSPost2010Prop46
 90
       50
102
RTVSPost2010PropOp46
 70
     1
102
RTVSPost2010Prop47
 90
       50
102
RTVSPost2010PropOp47
 70
     1
102
RTVSPost2010Prop48
 90
       50
102
RTVSPost2010PropOp48
 70
     1
102
RTVSPost2010Prop49
280
     0
102
RTVSPost2010PropOp49
 70
     1
102
RTVSPost2010Prop50
 90
       50
102
RTVSPost2010PropOp50
 70
     1
102
RTVSPost2010Prop51ColorIndex
 90
      256
102
RTVSPost2010Prop51ColorRGB
 90
-16777216
102
RTVSPost2010PropOp51
 70
     0
102
RTVSPost2010Prop52
140
1.0
102
RTVSPost2010PropOp52
 70
     0
102
RTVSPost2010Prop53
 90
        2
102
RTVSPost2010PropOp53
 70
     1
102
RTVSPost2010Prop54
  1
strokes_ogs.tif
102
RTVSPost2010PropOp54
 70
     1
102
RTVSPost2010Prop55
280
     0
102
RTVSPost2010PropOp55
 70
     1
102
RTVSPost2010Prop56
140
1.0
102
RTVSPost2010PropOp56
 70
     1
102
RTVSPost2010Prop57
140
1.0
102
RTVSPost2010PropOp57
 70
     1
102
RTVSPropertyOp0
 70
     1
102
RTVSPropertyOp1
 70
     1
102
RTVSPropertyOp2
 70
     1
102
RTVSPropertyOp3
 70
     1
102
RTVSPropertyOp4
 70
     1
102
RTVSPropertyOp5
 70
     1
102
RTVSPropertyOp6
 70
     1
102
RTVSPropertyOp7
 70
     1
102
RTVSPropertyOp8
 70
     1
102
RTVSPropertyOp9
 70
     1
102
RTVSPropertyOp10
 70
     1
102
RTVSPropertyOp11
 70
     1
102
RTVSPropertyOp12
 70
     1
102
RTVSPropertyOp13
 70
     1
102
RTVSPropertyOp14
 70
     1
102
RTVSPropertyOp15
 70
     1
102
RTVSPropertyOp16
 70
     1
102
RTVSPropertyOp17
 70
     1
102
RTVSPropertyOp18
 70
     1
102
RTVSPropertyOp19
 70
     1
102
RTVSPropertyOp20
 70
     1
102
RTVSPropertyOp21
 70
     1
102
RTVSPropertyOp22
 70
     1
102
RTVSPropertyOp23
 70
     1
102
RTVSPropertyOp24
 70
     1
102
RTVSPropertyOp25
 70
     1
102
RTVSPropertyOp26
 70
     1
102
RTVSPropertyOp27
 70
     1
102
RTVSPropertyOp28
 70
     1
102
RTVSPropertyOp29
 70
     1
102
RTVSPropertyOp30
 70
     1
102
RTVSPropertyOp31
 70
     1
102
RTVSPropertyOp32
 70
     1
102
RTVSPropertyOp33
 70
     1
102
RTVSPropertyOp34
 70
     1
102
RTVSPropertyOp35
 70
     1
102
RTVSPropertyOp36
 70
     1
102
RTVSPropertyOp37
 70
     1
102
RTVSPropertyOp38
 70
     1
102
RTVSPropertyOp39
 70
     1
102
RTVSPropertyOp40
 70
     1
102
RTVSPropertyOp41
 70
     1
102
RTVSPropertyOp42
 70
     1
102
RTVSPropertyOp43
 70
     1
102
RTVSPropertyOp44
 70
     1
102
RTVSPropertyOp45
 70
     1
102
RTVSPropertyOp46
 70
     1
102
RTVSPropertyOp47
 70
     1
102
RTVSPropertyOp48
 70
     1
102
RTVSPropertyOp49
 70
     1
102
RTVSPropertyOp50
 70
     1
102
RTVSPropertyOp51
 70
     0
102
RTVSPropertyOp52
 70
     0
102
RTVSPropertyOp53
 70
     1
102
RTVSPropertyOp54
 70
     1
102
RTVSPropertyOp55
 70
     1
102
RTVSPropertyOp56
 70
     1
102
RTVSPropertyOp57
 70
     1
102
RTVSPropertyOp58
 70
     1
102
RTVSPropertyOp59
 70
     1
102
RTVSPropertyOp60
 70
     1
102
RTVSPropertyOp61
 70
     1
102
RTVSPropertyOp62
 70
     1
  0
XRECORD
  5
2EAEF
102
{ACAD_REACTORS
330
2EAEE
102
}
330
2EAEE
100
AcDbXrecord
280
     1
102
RTVSPost2010Prop28
280
     0
102
RTVSPost2010PropOp28
 70
     1
102
RTVSPost2010Prop29
280
     1
102
RTVSPost2010PropOp29
 70
     1
102
RTVSPost2010Prop30
280
     1
102
RTVSPost2010PropOp30
 70
     1
102
RTVSPost2010Prop31
280
     0
102
RTVSPost2010PropOp31
 70
     1
102
RTVSPost2010Prop32
280
     0
102
RTVSPost2010PropOp32
 70
     1
102
RTVSPost2010Prop33
280
     0
102
RTVSPost2010PropOp33
 70
     1
102
RTVSPost2010Prop34
280
     0
102
RTVSPost2010PropOp34
 70
     1
102
RTVSPost2010Prop35
280
     0
102
RTVSPost2010PropOp35
 70
     1
102
RTVSPost2010Prop36
280
     0
102
RTVSPost2010PropOp36
 70
     1
102
RTVSPost2010Prop37
 90
       50
102
RTVSPost2010PropOp37
 70
     1
102
RTVSPost2010Prop38
140
0.0
102
RTVSPost2010PropOp38
 70
     1
102
RTVSPost2010Prop39
140
1.0
102
RTVSPost2010PropOp39
 70
     1
102
RTVSPost2010Prop40
 90
        0
102
RTVSPost2010PropOp40
 70
     1
102
RTVSPost2010Prop41ColorIndex
 90
       18
102
RTVSPost2010Prop41ColorRGB
 90
        0
102
RTVSPost2010PropOp41
 70
     1
102
RTVSPost2010Prop42
 90
       50
102
RTVSPost2010PropOp42
 70
     1
102
RTVSPost2010Prop43
 90
        3
102
RTVSPost2010PropOp43
 70
     1
102
RTVSPost2010Prop44ColorIndex
 90
        5
102
RTVSPost2010Prop44ColorRGB
 90
      255
102
RTVSPost2010PropOp44
 70
     1
102
RTVSPost2010Prop45
280
     0
102
RTVSPost2010PropOp45
 70
     1
102
RTVSPost2010Prop46
 90
       50
102
RTVSPost2010PropOp46
 70
     1
102
RTVSPost2010Prop47
 90
       50
102
RTVSPost2010PropOp47
 70
     1
102
RTVSPost2010Prop48
 90
       50
102
RTVSPost2010PropOp48
 70
     1
102
RTVSPost2010Prop49
280
     0
102
RTVSPost2010PropOp49
 70
     1
102
RTVSPost2010Prop50
 90
       50
102
RTVSPost2010PropOp50
 70
     1
102
RTVSPost2010Prop51ColorIndex
 90
      256
102
RTVSPost2010Prop51ColorRGB
 90
-16777216
102
RTVSPost2010PropOp51
 70
     0
102
RTVSPost2010Prop52
140
1.0
102
RTVSPost2010PropOp52
 70
     0
102
RTVSPost2010Prop53
 90
        2
102
RTVSPost2010PropOp53
 70
     1
102
RTVSPost2010Prop54
  1
strokes_ogs.tif
102
RTVSPost2010PropOp54
 70
     1
102
RTVSPost2010Prop55
280
     0
102
RTVSPost2010PropOp55
 70
     1
102
RTVSPost2010Prop56
140
1.0
102
RTVSPost2010PropOp56
 70
     1
102
RTVSPost2010Prop57
140
1.0
102
RTVSPost2010PropOp57
 70
     1
102
RTVSPropertyOp0
 70
     1
102
RTVSPropertyOp1
 70
     1
102
RTVSPropertyOp2
 70
     1
102
RTVSPropertyOp3
 70
     1
102
RTVSPropertyOp4
 70
     1
102
RTVSPropertyOp5
 70
     1
102
RTVSPropertyOp6
 70
     1
102
RTVSPropertyOp7
 70
     1
102
RTVSPropertyOp8
 70
     1
102
RTVSPropertyOp9
 70
     1
102
RTVSPropertyOp10
 70
     1
102
RTVSPropertyOp11
 70
     1
102
RTVSPropertyOp12
 70
     1
102
RTVSPropertyOp13
 70
     1
102
RTVSPropertyOp14
 70
     1
102
RTVSPropertyOp15
 70
     1
102
RTVSPropertyOp16
 70
     1
102
RTVSPropertyOp17
 70
     1
102
RTVSPropertyOp18
 70
     1
102
RTVSPropertyOp19
 70
     1
102
RTVSPropertyOp20
 70
     1
102
RTVSPropertyOp21
 70
     1
102
RTVSPropertyOp22
 70
     1
102
RTVSPropertyOp23
 70
     1
102
RTVSPropertyOp24
 70
     1
102
RTVSPropertyOp25
 70
     1
102
RTVSPropertyOp26
 70
     1
102
RTVSPropertyOp27
 70
     1
102
RTVSPropertyOp28
 70
     1
102
RTVSPropertyOp29
 70
     1
102
RTVSPropertyOp30
 70
     1
102
RTVSPropertyOp31
 70
     1
102
RTVSPropertyOp32
 70
     1
102
RTVSPropertyOp33
 70
     1
102
RTVSPropertyOp34
 70
     1
102
RTVSPropertyOp35
 70
     1
102
RTVSPropertyOp36
 70
     1
102
RTVSPropertyOp37
 70
     1
102
RTVSPropertyOp38
 70
     1
102
RTVSPropertyOp39
 70
     1
102
RTVSPropertyOp40
 70
     1
102
RTVSPropertyOp41
 70
     1
102
RTVSPropertyOp42
 70
     1
102
RTVSPropertyOp43
 70
     1
102
RTVSPropertyOp44
 70
     1
102
RTVSPropertyOp45
 70
     1
102
RTVSPropertyOp46
 70
     1
102
RTVSPropertyOp47
 70
     1
102
RTVSPropertyOp48
 70
     1
102
RTVSPropertyOp49
 70
     1
102
RTVSPropertyOp50
 70
     1
102
RTVSPropertyOp51
 70
     0
102
RTVSPropertyOp52
 70
     0
102
RTVSPropertyOp53
 70
     1
102
RTVSPropertyOp54
 70
     1
102
RTVSPropertyOp55
 70
     1
102
RTVSPropertyOp56
 70
     1
102
RTVSPropertyOp57
 70
     1
102
RTVSPropertyOp58
 70
     1
102
RTVSPropertyOp59
 70
     1
102
RTVSPropertyOp60
 70
     1
102
RTVSPropertyOp61
 70
     1
102
RTVSPropertyOp62
 70
     1
  0
XRECORD
  5
2EAF1
102
{ACAD_REACTORS
330
2EAF0
102
}
330
2EAF0
100
AcDbXrecord
280
     1
102
RTVSPost2010Prop28
280
     0
102
RTVSPost2010PropOp28
 70
     1
102
RTVSPost2010Prop29
280
     1
102
RTVSPost2010PropOp29
 70
     1
102
RTVSPost2010Prop30
280
     1
102
RTVSPost2010PropOp30
 70
     1
102
RTVSPost2010Prop31
280
     0
102
RTVSPost2010PropOp31
 70
     1
102
RTVSPost2010Prop32
280
     0
102
RTVSPost2010PropOp32
 70
     1
102
RTVSPost2010Prop33
280
     0
102
RTVSPost2010PropOp33
 70
     1
102
RTVSPost2010Prop34
280
     0
102
RTVSPost2010PropOp34
 70
     1
102
RTVSPost2010Prop35
280
     0
102
RTVSPost2010PropOp35
 70
     1
102
RTVSPost2010Prop36
280
     0
102
RTVSPost2010PropOp36
 70
     1
102
RTVSPost2010Prop37
 90
       50
102
RTVSPost2010PropOp37
 70
     1
102
RTVSPost2010Prop38
140
0.0
102
RTVSPost2010PropOp38
 70
     1
102
RTVSPost2010Prop39
140
1.0
102
RTVSPost2010PropOp39
 70
     1
102
RTVSPost2010Prop40
 90
        0
102
RTVSPost2010PropOp40
 70
     1
102
RTVSPost2010Prop41ColorIndex
 90
       18
102
RTVSPost2010Prop41ColorRGB
 90
        0
102
RTVSPost2010PropOp41
 70
     1
102
RTVSPost2010Prop42
 90
       50
102
RTVSPost2010PropOp42
 70
     1
102
RTVSPost2010Prop43
 90
        3
102
RTVSPost2010PropOp43
 70
     1
102
RTVSPost2010Prop44ColorIndex
 90
        5
102
RTVSPost2010Prop44ColorRGB
 90
      255
102
RTVSPost2010PropOp44
 70
     1
102
RTVSPost2010Prop45
280
     0
102
RTVSPost2010PropOp45
 70
     1
102
RTVSPost2010Prop46
 90
       50
102
RTVSPost2010PropOp46
 70
     1
102
RTVSPost2010Prop47
 90
       50
102
RTVSPost2010PropOp47
 70
     1
102
RTVSPost2010Prop48
 90
       50
102
RTVSPost2010PropOp48
 70
     1
102
RTVSPost2010Prop49
280
     0
102
RTVSPost2010PropOp49
 70
     1
102
RTVSPost2010Prop50
 90
       50
102
RTVSPost2010PropOp50
 70
     1
102
RTVSPost2010Prop51ColorIndex
 90
      256
102
RTVSPost2010Prop51ColorRGB
 90
-16777216
102
RTVSPost2010PropOp51
 70
     0
102
RTVSPost2010Prop52
140
1.0
102
RTVSPost2010PropOp52
 70
     0
102
RTVSPost2010Prop53
 90
        2
102
RTVSPost2010PropOp53
 70
     1
102
RTVSPost2010Prop54
  1
strokes_ogs.tif
102
RTVSPost2010PropOp54
 70
     1
102
RTVSPost2010Prop55
280
     0
102
RTVSPost2010PropOp55
 70
     1
102
RTVSPost2010Prop56
140
1.0
102
RTVSPost2010PropOp56
 70
     1
102
RTVSPost2010Prop57
140
1.0
102
RTVSPost2010PropOp57
 70
     1
102
RTVSPropertyOp0
 70
     1
102
RTVSPropertyOp1
 70
     1
102
RTVSPropertyOp2
 70
     1
102
RTVSPropertyOp3
 70
     1
102
RTVSPropertyOp4
 70
     1
102
RTVSPropertyOp5
 70
     1
102
RTVSPropertyOp6
 70
     1
102
RTVSPropertyOp7
 70
     1
102
RTVSPropertyOp8
 70
     1
102
RTVSPropertyOp9
 70
     1
102
RTVSPropertyOp10
 70
     1
102
RTVSPropertyOp11
 70
     1
102
RTVSPropertyOp12
 70
     1
102
RTVSPropertyOp13
 70
     1
102
RTVSPropertyOp14
 70
     1
102
RTVSPropertyOp15
 70
     1
102
RTVSPropertyOp16
 70
     1
102
RTVSPropertyOp17
 70
     1
102
RTVSPropertyOp18
 70
     1
102
RTVSPropertyOp19
 70
     1
102
RTVSPropertyOp20
 70
     1
102
RTVSPropertyOp21
 70
     1
102
RTVSPropertyOp22
 70
     1
102
RTVSPropertyOp23
 70
     1
102
RTVSPropertyOp24
 70
     1
102
RTVSPropertyOp25
 70
     1
102
RTVSPropertyOp26
 70
     1
102
RTVSPropertyOp27
 70
     1
102
RTVSPropertyOp28
 70
     1
102
RTVSPropertyOp29
 70
     1
102
RTVSPropertyOp30
 70
     1
102
RTVSPropertyOp31
 70
     1
102
RTVSPropertyOp32
 70
     1
102
RTVSPropertyOp33
 70
     1
102
RTVSPropertyOp34
 70
     1
102
RTVSPropertyOp35
 70
     1
102
RTVSPropertyOp36
 70
     1
102
RTVSPropertyOp37
 70
     1
102
RTVSPropertyOp38
 70
     1
102
RTVSPropertyOp39
 70
     1
102
RTVSPropertyOp40
 70
     1
102
RTVSPropertyOp41
 70
     1
102
RTVSPropertyOp42
 70
     1
102
RTVSPropertyOp43
 70
     1
102
RTVSPropertyOp44
 70
     1
102
RTVSPropertyOp45
 70
     1
102
RTVSPropertyOp46
 70
     1
102
RTVSPropertyOp47
 70
     1
102
RTVSPropertyOp48
 70
     1
102
RTVSPropertyOp49
 70
     1
102
RTVSPropertyOp50
 70
     1
102
RTVSPropertyOp51
 70
     0
102
RTVSPropertyOp52
 70
     0
102
RTVSPropertyOp53
 70
     1
102
RTVSPropertyOp54
 70
     1
102
RTVSPropertyOp55
 70
     1
102
RTVSPropertyOp56
 70
     1
102
RTVSPropertyOp57
 70
     1
102
RTVSPropertyOp58
 70
     1
102
RTVSPropertyOp59
 70
     1
102
RTVSPropertyOp60
 70
     1
102
RTVSPropertyOp61
 70
     1
102
RTVSPropertyOp62
 70
     1
  0
XRECORD
  5
2EB14
102
{ACAD_REACTORS
330
2EB13
102
}
330
2EB13
100
AcDbXrecord
280
     1
102
RTVSPost2010Prop28
280
     0
102
RTVSPost2010PropOp28
 70
     1
102
RTVSPost2010Prop29
280
     1
102
RTVSPost2010PropOp29
 70
     1
102
RTVSPost2010Prop30
280
     1
102
RTVSPost2010PropOp30
 70
     1
102
RTVSPost2010Prop31
280
     0
102
RTVSPost2010PropOp31
 70
     1
102
RTVSPost2010Prop32
280
     0
102
RTVSPost2010PropOp32
 70
     1
102
RTVSPost2010Prop33
280
     0
102
RTVSPost2010PropOp33
 70
     1
102
RTVSPost2010Prop34
280
     0
102
RTVSPost2010PropOp34
 70
     1
102
RTVSPost2010Prop35
280
     0
102
RTVSPost2010PropOp35
 70
     1
102
RTVSPost2010Prop36
280
     0
102
RTVSPost2010PropOp36
 70
     1
102
RTVSPost2010Prop37
 90
       50
102
RTVSPost2010PropOp37
 70
     1
102
RTVSPost2010Prop38
140
0.0
102
RTVSPost2010PropOp38
 70
     1
102
RTVSPost2010Prop39
140
1.0
102
RTVSPost2010PropOp39
 70
     1
102
RTVSPost2010Prop40
 90
        0
102
RTVSPost2010PropOp40
 70
     1
102
RTVSPost2010Prop41ColorIndex
 90
       18
102
RTVSPost2010Prop41ColorRGB
 90
        0
102
RTVSPost2010PropOp41
 70
     1
102
RTVSPost2010Prop42
 90
       50
102
RTVSPost2010PropOp42
 70
     1
102
RTVSPost2010Prop43
 90
        3
102
RTVSPost2010PropOp43
 70
     1
102
RTVSPost2010Prop44ColorIndex
 90
        5
102
RTVSPost2010Prop44ColorRGB
 90
      255
102
RTVSPost2010PropOp44
 70
     1
102
RTVSPost2010Prop45
280
     0
102
RTVSPost2010PropOp45
 70
     1
102
RTVSPost2010Prop46
 90
       50
102
RTVSPost2010PropOp46
 70
     1
102
RTVSPost2010Prop47
 90
       50
102
RTVSPost2010PropOp47
 70
     1
102
RTVSPost2010Prop48
 90
       50
102
RTVSPost2010PropOp48
 70
     1
102
RTVSPost2010Prop49
280
     0
102
RTVSPost2010PropOp49
 70
     1
102
RTVSPost2010Prop50
 90
       50
102
RTVSPost2010PropOp50
 70
     1
102
RTVSPost2010Prop51ColorIndex
 90
      256
102
RTVSPost2010Prop51ColorRGB
 90
-16777216
102
RTVSPost2010PropOp51
 70
     0
102
RTVSPost2010Prop52
140
1.0
102
RTVSPost2010PropOp52
 70
     0
102
RTVSPost2010Prop53
 90
        2
102
RTVSPost2010PropOp53
 70
     1
102
RTVSPost2010Prop54
  1
strokes_ogs.tif
102
RTVSPost2010PropOp54
 70
     1
102
RTVSPost2010Prop55
280
     0
102
RTVSPost2010PropOp55
 70
     1
102
RTVSPost2010Prop56
140
1.0
102
RTVSPost2010PropOp56
 70
     1
102
RTVSPost2010Prop57
140
1.0
102
RTVSPost2010PropOp57
 70
     1
102
RTVSPropertyOp0
 70
     1
102
RTVSPropertyOp1
 70
     1
102
RTVSPropertyOp2
 70
     1
102
RTVSPropertyOp3
 70
     1
102
RTVSPropertyOp4
 70
     1
102
RTVSPropertyOp5
 70
     1
102
RTVSPropertyOp6
 70
     1
102
RTVSPropertyOp7
 70
     1
102
RTVSPropertyOp8
 70
     1
102
RTVSPropertyOp9
 70
     1
102
RTVSPropertyOp10
 70
     1
102
RTVSPropertyOp11
 70
     1
102
RTVSPropertyOp12
 70
     1
102
RTVSPropertyOp13
 70
     1
102
RTVSPropertyOp14
 70
     1
102
RTVSPropertyOp15
 70
     1
102
RTVSPropertyOp16
 70
     1
102
RTVSPropertyOp17
 70
     1
102
RTVSPropertyOp18
 70
     1
102
RTVSPropertyOp19
 70
     1
102
RTVSPropertyOp20
 70
     1
102
RTVSPropertyOp21
 70
     1
102
RTVSPropertyOp22
 70
     1
102
RTVSPropertyOp23
 70
     1
102
RTVSPropertyOp24
 70
     1
102
RTVSPropertyOp25
 70
     1
102
RTVSPropertyOp26
 70
     1
102
RTVSPropertyOp27
 70
     1
102
RTVSPropertyOp28
 70
     1
102
RTVSPropertyOp29
 70
     1
102
RTVSPropertyOp30
 70
     1
102
RTVSPropertyOp31
 70
     1
102
RTVSPropertyOp32
 70
     1
102
RTVSPropertyOp33
 70
     1
102
RTVSPropertyOp34
 70
     1
102
RTVSPropertyOp35
 70
     1
102
RTVSPropertyOp36
 70
     1
102
RTVSPropertyOp37
 70
     1
102
RTVSPropertyOp38
 70
     1
102
RTVSPropertyOp39
 70
     1
102
RTVSPropertyOp40
 70
     1
102
RTVSPropertyOp41
 70
     1
102
RTVSPropertyOp42
 70
     1
102
RTVSPropertyOp43
 70
     1
102
RTVSPropertyOp44
 70
     1
102
RTVSPropertyOp45
 70
     1
102
RTVSPropertyOp46
 70
     1
102
RTVSPropertyOp47
 70
     1
102
RTVSPropertyOp48
 70
     1
102
RTVSPropertyOp49
 70
     1
102
RTVSPropertyOp50
 70
     1
102
RTVSPropertyOp51
 70
     0
102
RTVSPropertyOp52
 70
     0
102
RTVSPropertyOp53
 70
     1
102
RTVSPropertyOp54
 70
     1
102
RTVSPropertyOp55
 70
     1
102
RTVSPropertyOp56
 70
     1
102
RTVSPropertyOp57
 70
     1
102
RTVSPropertyOp58
 70
     1
102
RTVSPropertyOp59
 70
     1
102
RTVSPropertyOp60
 70
     1
102
RTVSPropertyOp61
 70
     1
102
RTVSPropertyOp62
 70
     1
  0
XRECORD
  5
2EB0B
102
{ACAD_REACTORS
330
2EB0A
102
}
330
2EB0A
100
AcDbXrecord
280
     1
102
RTVSPost2010Prop28
280
     0
102
RTVSPost2010PropOp28
 70
     1
102
RTVSPost2010Prop29
280
     1
102
RTVSPost2010PropOp29
 70
     1
102
RTVSPost2010Prop30
280
     1
102
RTVSPost2010PropOp30
 70
     1
102
RTVSPost2010Prop31
280
     0
102
RTVSPost2010PropOp31
 70
     1
102
RTVSPost2010Prop32
280
     0
102
RTVSPost2010PropOp32
 70
     1
102
RTVSPost2010Prop33
280
     0
102
RTVSPost2010PropOp33
 70
     1
102
RTVSPost2010Prop34
280
     0
102
RTVSPost2010PropOp34
 70
     1
102
RTVSPost2010Prop35
280
     0
102
RTVSPost2010PropOp35
 70
     1
102
RTVSPost2010Prop36
280
     0
102
RTVSPost2010PropOp36
 70
     1
102
RTVSPost2010Prop37
 90
       50
102
RTVSPost2010PropOp37
 70
     1
102
RTVSPost2010Prop38
140
0.0
102
RTVSPost2010PropOp38
 70
     1
102
RTVSPost2010Prop39
140
1.0
102
RTVSPost2010PropOp39
 70
     1
102
RTVSPost2010Prop40
 90
        0
102
RTVSPost2010PropOp40
 70
     1
102
RTVSPost2010Prop41ColorIndex
 90
       18
102
RTVSPost2010Prop41ColorRGB
 90
        0
102
RTVSPost2010PropOp41
 70
     1
102
RTVSPost2010Prop42
 90
       50
102
RTVSPost2010PropOp42
 70
     1
102
RTVSPost2010Prop43
 90
        3
102
RTVSPost2010PropOp43
 70
     1
102
RTVSPost2010Prop44ColorIndex
 90
        5
102
RTVSPost2010Prop44ColorRGB
 90
      255
102
RTVSPost2010PropOp44
 70
     1
102
RTVSPost2010Prop45
280
     0
102
RTVSPost2010PropOp45
 70
     1
102
RTVSPost2010Prop46
 90
       50
102
RTVSPost2010PropOp46
 70
     1
102
RTVSPost2010Prop47
 90
       50
102
RTVSPost2010PropOp47
 70
     1
102
RTVSPost2010Prop48
 90
       50
102
RTVSPost2010PropOp48
 70
     1
102
RTVSPost2010Prop49
280
     0
102
RTVSPost2010PropOp49
 70
     1
102
RTVSPost2010Prop50
 90
       50
102
RTVSPost2010PropOp50
 70
     1
102
RTVSPost2010Prop51ColorIndex
 90
      256
102
RTVSPost2010Prop51ColorRGB
 90
-16777216
102
RTVSPost2010PropOp51
 70
     0
102
RTVSPost2010Prop52
140
1.0
102
RTVSPost2010PropOp52
 70
     0
102
RTVSPost2010Prop53
 90
        2
102
RTVSPost2010PropOp53
 70
     1
102
RTVSPost2010Prop54
  1
strokes_ogs.tif
102
RTVSPost2010PropOp54
 70
     1
102
RTVSPost2010Prop55
280
     0
102
RTVSPost2010PropOp55
 70
     1
102
RTVSPost2010Prop56
140
1.0
102
RTVSPost2010PropOp56
 70
     1
102
RTVSPost2010Prop57
140
1.0
102
RTVSPost2010PropOp57
 70
     1
102
RTVSPropertyOp0
 70
     0
102
RTVSPropertyOp1
 70
     0
102
RTVSPropertyOp2
 70
     0
102
RTVSPropertyOp3
 70
     0
102
RTVSPropertyOp4
 70
     0
102
RTVSPropertyOp5
 70
     0
102
RTVSPropertyOp6
 70
     0
102
RTVSPropertyOp7
 70
     0
102
RTVSPropertyOp8
 70
     0
102
RTVSPropertyOp9
 70
     0
102
RTVSPropertyOp10
 70
     0
102
RTVSPropertyOp11
 70
     0
102
RTVSPropertyOp12
 70
     0
102
RTVSPropertyOp13
 70
     0
102
RTVSPropertyOp14
 70
     2
102
RTVSPropertyOp15
 70
     0
102
RTVSPropertyOp16
 70
     0
102
RTVSPropertyOp17
 70
     0
102
RTVSPropertyOp18
 70
     0
102
RTVSPropertyOp19
 70
     0
102
RTVSPropertyOp20
 70
     0
102
RTVSPropertyOp21
 70
     0
102
RTVSPropertyOp22
 70
     0
102
RTVSPropertyOp23
 70
     0
102
RTVSPropertyOp24
 70
     0
102
RTVSPropertyOp25
 70
     0
102
RTVSPropertyOp26
 70
     0
102
RTVSPropertyOp27
 70
     0
102
RTVSPropertyOp28
 70
     1
102
RTVSPropertyOp29
 70
     1
102
RTVSPropertyOp30
 70
     1
102
RTVSPropertyOp31
 70
     1
102
RTVSPropertyOp32
 70
     1
102
RTVSPropertyOp33
 70
     1
102
RTVSPropertyOp34
 70
     1
102
RTVSPropertyOp35
 70
     1
102
RTVSPropertyOp36
 70
     1
102
RTVSPropertyOp37
 70
     1
102
RTVSPropertyOp38
 70
     1
102
RTVSPropertyOp39
 70
     1
102
RTVSPropertyOp40
 70
     1
102
RTVSPropertyOp41
 70
     1
102
RTVSPropertyOp42
 70
     1
102
RTVSPropertyOp43
 70
     1
102
RTVSPropertyOp44
 70
     1
102
RTVSPropertyOp45
 70
     1
102
RTVSPropertyOp46
 70
     1
102
RTVSPropertyOp47
 70
     1
102
RTVSPropertyOp48
 70
     1
102
RTVSPropertyOp49
 70
     1
102
RTVSPropertyOp50
 70
     1
102
RTVSPropertyOp51
 70
     0
102
RTVSPropertyOp52
 70
     0
102
RTVSPropertyOp53
 70
     1
102
RTVSPropertyOp54
 70
     1
102
RTVSPropertyOp55
 70
     1
102
RTVSPropertyOp56
 70
     1
102
RTVSPropertyOp57
 70
     1
102
RTVSPropertyOp58
 70
     1
102
RTVSPropertyOp59
 70
     1
102
RTVSPropertyOp60
 70
     1
102
RTVSPropertyOp61
 70
     1
102
RTVSPropertyOp62
 70
     1
  0
XRECORD
  5
2EB05
102
{ACAD_REACTORS
330
2EB04
102
}
330
2EB04
100
AcDbXrecord
280
     1
102
RTVSPost2010Prop28
280
     0
102
RTVSPost2010PropOp28
 70
     1
102
RTVSPost2010Prop29
280
     1
102
RTVSPost2010PropOp29
 70
     1
102
RTVSPost2010Prop30
280
     1
102
RTVSPost2010PropOp30
 70
     1
102
RTVSPost2010Prop31
280
     0
102
RTVSPost2010PropOp31
 70
     1
102
RTVSPost2010Prop32
280
     0
102
RTVSPost2010PropOp32
 70
     1
102
RTVSPost2010Prop33
280
     0
102
RTVSPost2010PropOp33
 70
     1
102
RTVSPost2010Prop34
280
     0
102
RTVSPost2010PropOp34
 70
     1
102
RTVSPost2010Prop35
280
     0
102
RTVSPost2010PropOp35
 70
     1
102
RTVSPost2010Prop36
280
     0
102
RTVSPost2010PropOp36
 70
     1
102
RTVSPost2010Prop37
 90
       50
102
RTVSPost2010PropOp37
 70
     1
102
RTVSPost2010Prop38
140
0.0
102
RTVSPost2010PropOp38
 70
     1
102
RTVSPost2010Prop39
140
1.0
102
RTVSPost2010PropOp39
 70
     1
102
RTVSPost2010Prop40
 90
        0
102
RTVSPost2010PropOp40
 70
     1
102
RTVSPost2010Prop41ColorIndex
 90
       18
102
RTVSPost2010Prop41ColorRGB
 90
        0
102
RTVSPost2010PropOp41
 70
     1
102
RTVSPost2010Prop42
 90
       50
102
RTVSPost2010PropOp42
 70
     1
102
RTVSPost2010Prop43
 90
        3
102
RTVSPost2010PropOp43
 70
     1
102
RTVSPost2010Prop44ColorIndex
 90
        5
102
RTVSPost2010Prop44ColorRGB
 90
      255
102
RTVSPost2010PropOp44
 70
     1
102
RTVSPost2010Prop45
280
     0
102
RTVSPost2010PropOp45
 70
     1
102
RTVSPost2010Prop46
 90
       50
102
RTVSPost2010PropOp46
 70
     1
102
RTVSPost2010Prop47
 90
       50
102
RTVSPost2010PropOp47
 70
     1
102
RTVSPost2010Prop48
 90
       50
102
RTVSPost2010PropOp48
 70
     1
102
RTVSPost2010Prop49
280
     0
102
RTVSPost2010PropOp49
 70
     1
102
RTVSPost2010Prop50
 90
       50
102
RTVSPost2010PropOp50
 70
     1
102
RTVSPost2010Prop51ColorIndex
 90
      256
102
RTVSPost2010Prop51ColorRGB
 90
-16777216
102
RTVSPost2010PropOp51
 70
     0
102
RTVSPost2010Prop52
140
1.0
102
RTVSPost2010PropOp52
 70
     0
102
RTVSPost2010Prop53
 90
        2
102
RTVSPost2010PropOp53
 70
     1
102
RTVSPost2010Prop54
  1
strokes_ogs.tif
102
RTVSPost2010PropOp54
 70
     1
102
RTVSPost2010Prop55
280
     0
102
RTVSPost2010PropOp55
 70
     1
102
RTVSPost2010Prop56
140
1.0
102
RTVSPost2010PropOp56
 70
     1
102
RTVSPost2010Prop57
140
1.0
102
RTVSPost2010PropOp57
 70
     1
102
RTVSPropertyOp0
 70
     1
102
RTVSPropertyOp1
 70
     1
102
RTVSPropertyOp2
 70
     1
102
RTVSPropertyOp3
 70
     1
102
RTVSPropertyOp4
 70
     1
102
RTVSPropertyOp5
 70
     1
102
RTVSPropertyOp6
 70
     1
102
RTVSPropertyOp7
 70
     1
102
RTVSPropertyOp8
 70
     1
102
RTVSPropertyOp9
 70
     1
102
RTVSPropertyOp10
 70
     1
102
RTVSPropertyOp11
 70
     1
102
RTVSPropertyOp12
 70
     1
102
RTVSPropertyOp13
 70
     1
102
RTVSPropertyOp14
 70
     1
102
RTVSPropertyOp15
 70
     1
102
RTVSPropertyOp16
 70
     1
102
RTVSPropertyOp17
 70
     1
102
RTVSPropertyOp18
 70
     1
102
RTVSPropertyOp19
 70
     1
102
RTVSPropertyOp20
 70
     1
102
RTVSPropertyOp21
 70
     1
102
RTVSPropertyOp22
 70
     1
102
RTVSPropertyOp23
 70
     1
102
RTVSPropertyOp24
 70
     1
102
RTVSPropertyOp25
 70
     1
102
RTVSPropertyOp26
 70
     1
102
RTVSPropertyOp27
 70
     1
102
RTVSPropertyOp28
 70
     1
102
RTVSPropertyOp29
 70
     1
102
RTVSPropertyOp30
 70
     1
102
RTVSPropertyOp31
 70
     1
102
RTVSPropertyOp32
 70
     1
102
RTVSPropertyOp33
 70
     1
102
RTVSPropertyOp34
 70
     1
102
RTVSPropertyOp35
 70
     1
102
RTVSPropertyOp36
 70
     1
102
RTVSPropertyOp37
 70
     1
102
RTVSPropertyOp38
 70
     1
102
RTVSPropertyOp39
 70
     1
102
RTVSPropertyOp40
 70
     1
102
RTVSPropertyOp41
 70
     1
102
RTVSPropertyOp42
 70
     1
102
RTVSPropertyOp43
 70
     1
102
RTVSPropertyOp44
 70
     1
102
RTVSPropertyOp45
 70
     1
102
RTVSPropertyOp46
 70
     1
102
RTVSPropertyOp47
 70
     1
102
RTVSPropertyOp48
 70
     1
102
RTVSPropertyOp49
 70
     1
102
RTVSPropertyOp50
 70
     1
102
RTVSPropertyOp51
 70
     0
102
RTVSPropertyOp52
 70
     0
102
RTVSPropertyOp53
 70
     1
102
RTVSPropertyOp54
 70
     1
102
RTVSPropertyOp55
 70
     1
102
RTVSPropertyOp56
 70
     1
102
RTVSPropertyOp57
 70
     1
102
RTVSPropertyOp58
 70
     1
102
RTVSPropertyOp59
 70
     1
102
RTVSPropertyOp60
 70
     1
102
RTVSPropertyOp61
 70
     1
102
RTVSPropertyOp62
 70
     1
  0
XRECORD
  5
2EB0D
102
{ACAD_REACTORS
330
2EB0C
102
}
330
2EB0C
100
AcDbXrecord
280
     1
102
RTVSPost2010Prop28
280
     0
102
RTVSPost2010PropOp28
 70
     1
102
RTVSPost2010Prop29
280
     1
102
RTVSPost2010PropOp29
 70
     1
102
RTVSPost2010Prop30
280
     1
102
RTVSPost2010PropOp30
 70
     1
102
RTVSPost2010Prop31
280
     0
102
RTVSPost2010PropOp31
 70
     1
102
RTVSPost2010Prop32
280
     0
102
RTVSPost2010PropOp32
 70
     1
102
RTVSPost2010Prop33
280
     0
102
RTVSPost2010PropOp33
 70
     1
102
RTVSPost2010Prop34
280
     0
102
RTVSPost2010PropOp34
 70
     1
102
RTVSPost2010Prop35
280
     0
102
RTVSPost2010PropOp35
 70
     1
102
RTVSPost2010Prop36
280
     0
102
RTVSPost2010PropOp36
 70
     1
102
RTVSPost2010Prop37
 90
       50
102
RTVSPost2010PropOp37
 70
     1
102
RTVSPost2010Prop38
140
0.0
102
RTVSPost2010PropOp38
 70
     1
102
RTVSPost2010Prop39
140
1.0
102
RTVSPost2010PropOp39
 70
     1
102
RTVSPost2010Prop40
 90
        0
102
RTVSPost2010PropOp40
 70
     1
102
RTVSPost2010Prop41ColorIndex
 90
       18
102
RTVSPost2010Prop41ColorRGB
 90
        0
102
RTVSPost2010PropOp41
 70
     1
102
RTVSPost2010Prop42
 90
       50
102
RTVSPost2010PropOp42
 70
     1
102
RTVSPost2010Prop43
 90
        3
102
RTVSPost2010PropOp43
 70
     1
102
RTVSPost2010Prop44ColorIndex
 90
        5
102
RTVSPost2010Prop44ColorRGB
 90
      255
102
RTVSPost2010PropOp44
 70
     1
102
RTVSPost2010Prop45
280
     0
102
RTVSPost2010PropOp45
 70
     1
102
RTVSPost2010Prop46
 90
       50
102
RTVSPost2010PropOp46
 70
     1
102
RTVSPost2010Prop47
 90
       50
102
RTVSPost2010PropOp47
 70
     1
102
RTVSPost2010Prop48
 90
       50
102
RTVSPost2010PropOp48
 70
     1
102
RTVSPost2010Prop49
280
     0
102
RTVSPost2010PropOp49
 70
     1
102
RTVSPost2010Prop50
 90
       50
102
RTVSPost2010PropOp50
 70
     1
102
RTVSPost2010Prop51ColorIndex
 90
      256
102
RTVSPost2010Prop51ColorRGB
 90
-16777216
102
RTVSPost2010PropOp51
 70
     0
102
RTVSPost2010Prop52
140
1.0
102
RTVSPost2010PropOp52
 70
     0
102
RTVSPost2010Prop53
 90
        2
102
RTVSPost2010PropOp53
 70
     1
102
RTVSPost2010Prop54
  1
strokes_ogs.tif
102
RTVSPost2010PropOp54
 70
     1
102
RTVSPost2010Prop55
280
     0
102
RTVSPost2010PropOp55
 70
     1
102
RTVSPost2010Prop56
140
1.0
102
RTVSPost2010PropOp56
 70
     1
102
RTVSPost2010Prop57
140
1.0
102
RTVSPost2010PropOp57
 70
     1
102
RTVSPropertyOp0
 70
     0
102
RTVSPropertyOp1
 70
     0
102
RTVSPropertyOp2
 70
     0
102
RTVSPropertyOp3
 70
     0
102
RTVSPropertyOp4
 70
     0
102
RTVSPropertyOp5
 70
     0
102
RTVSPropertyOp6
 70
     0
102
RTVSPropertyOp7
 70
     0
102
RTVSPropertyOp8
 70
     0
102
RTVSPropertyOp9
 70
     0
102
RTVSPropertyOp10
 70
     0
102
RTVSPropertyOp11
 70
     0
102
RTVSPropertyOp12
 70
     0
102
RTVSPropertyOp13
 70
     0
102
RTVSPropertyOp14
 70
     2
102
RTVSPropertyOp15
 70
     0
102
RTVSPropertyOp16
 70
     0
102
RTVSPropertyOp17
 70
     0
102
RTVSPropertyOp18
 70
     0
102
RTVSPropertyOp19
 70
     0
102
RTVSPropertyOp20
 70
     0
102
RTVSPropertyOp21
 70
     0
102
RTVSPropertyOp22
 70
     0
102
RTVSPropertyOp23
 70
     0
102
RTVSPropertyOp24
 70
     0
102
RTVSPropertyOp25
 70
     0
102
RTVSPropertyOp26
 70
     0
102
RTVSPropertyOp27
 70
     0
102
RTVSPropertyOp28
 70
     1
102
RTVSPropertyOp29
 70
     1
102
RTVSPropertyOp30
 70
     1
102
RTVSPropertyOp31
 70
     1
102
RTVSPropertyOp32
 70
     1
102
RTVSPropertyOp33
 70
     1
102
RTVSPropertyOp34
 70
     1
102
RTVSPropertyOp35
 70
     1
102
RTVSPropertyOp36
 70
     1
102
RTVSPropertyOp37
 70
     1
102
RTVSPropertyOp38
 70
     1
102
RTVSPropertyOp39
 70
     1
102
RTVSPropertyOp40
 70
     1
102
RTVSPropertyOp41
 70
     1
102
RTVSPropertyOp42
 70
     1
102
RTVSPropertyOp43
 70
     1
102
RTVSPropertyOp44
 70
     1
102
RTVSPropertyOp45
 70
     1
102
RTVSPropertyOp46
 70
     1
102
RTVSPropertyOp47
 70
     1
102
RTVSPropertyOp48
 70
     1
102
RTVSPropertyOp49
 70
     1
102
RTVSPropertyOp50
 70
     1
102
RTVSPropertyOp51
 70
     0
102
RTVSPropertyOp52
 70
     0
102
RTVSPropertyOp53
 70
     1
102
RTVSPropertyOp54
 70
     1
102
RTVSPropertyOp55
 70
     1
102
RTVSPropertyOp56
 70
     1
102
RTVSPropertyOp57
 70
     1
102
RTVSPropertyOp58
 70
     1
102
RTVSPropertyOp59
 70
     1
102
RTVSPropertyOp60
 70
     1
102
RTVSPropertyOp61
 70
     1
102
RTVSPropertyOp62
 70
     1
  0
XRECORD
  5
2EAFD
102
{ACAD_REACTORS
330
2EAFC
102
}
330
2EAFC
100
AcDbXrecord
280
     1
102
RTVSPost2010Prop28
280
     0
102
RTVSPost2010PropOp28
 70
     1
102
RTVSPost2010Prop29
280
     1
102
RTVSPost2010PropOp29
 70
     1
102
RTVSPost2010Prop30
280
     1
102
RTVSPost2010PropOp30
 70
     1
102
RTVSPost2010Prop31
280
     0
102
RTVSPost2010PropOp31
 70
     1
102
RTVSPost2010Prop32
280
     0
102
RTVSPost2010PropOp32
 70
     1
102
RTVSPost2010Prop33
280
     0
102
RTVSPost2010PropOp33
 70
     1
102
RTVSPost2010Prop34
280
     0
102
RTVSPost2010PropOp34
 70
     1
102
RTVSPost2010Prop35
280
     0
102
RTVSPost2010PropOp35
 70
     1
102
RTVSPost2010Prop36
280
     0
102
RTVSPost2010PropOp36
 70
     1
102
RTVSPost2010Prop37
 90
       50
102
RTVSPost2010PropOp37
 70
     1
102
RTVSPost2010Prop38
140
0.0
102
RTVSPost2010PropOp38
 70
     1
102
RTVSPost2010Prop39
140
1.0
102
RTVSPost2010PropOp39
 70
     1
102
RTVSPost2010Prop40
 90
        0
102
RTVSPost2010PropOp40
 70
     1
102
RTVSPost2010Prop41ColorIndex
 90
       18
102
RTVSPost2010Prop41ColorRGB
 90
        0
102
RTVSPost2010PropOp41
 70
     1
102
RTVSPost2010Prop42
 90
       50
102
RTVSPost2010PropOp42
 70
     1
102
RTVSPost2010Prop43
 90
        3
102
RTVSPost2010PropOp43
 70
     1
102
RTVSPost2010Prop44ColorIndex
 90
        5
102
RTVSPost2010Prop44ColorRGB
 90
      255
102
RTVSPost2010PropOp44
 70
     1
102
RTVSPost2010Prop45
280
     0
102
RTVSPost2010PropOp45
 70
     1
102
RTVSPost2010Prop46
 90
       50
102
RTVSPost2010PropOp46
 70
     1
102
RTVSPost2010Prop47
 90
       50
102
RTVSPost2010PropOp47
 70
     1
102
RTVSPost2010Prop48
 90
       50
102
RTVSPost2010PropOp48
 70
     1
102
RTVSPost2010Prop49
280
     0
102
RTVSPost2010PropOp49
 70
     1
102
RTVSPost2010Prop50
 90
       50
102
RTVSPost2010PropOp50
 70
     1
102
RTVSPost2010Prop51ColorIndex
 90
      256
102
RTVSPost2010Prop51ColorRGB
 90
-16777216
102
RTVSPost2010PropOp51
 70
     0
102
RTVSPost2010Prop52
140
1.0
102
RTVSPost2010PropOp52
 70
     0
102
RTVSPost2010Prop53
 90
        2
102
RTVSPost2010PropOp53
 70
     1
102
RTVSPost2010Prop54
  1
strokes_ogs.tif
102
RTVSPost2010PropOp54
 70
     1
102
RTVSPost2010Prop55
280
     0
102
RTVSPost2010PropOp55
 70
     1
102
RTVSPost2010Prop56
140
1.0
102
RTVSPost2010PropOp56
 70
     1
102
RTVSPost2010Prop57
140
1.0
102
RTVSPost2010PropOp57
 70
     1
102
RTVSPropertyOp0
 70
     1
102
RTVSPropertyOp1
 70
     1
102
RTVSPropertyOp2
 70
     1
102
RTVSPropertyOp3
 70
     1
102
RTVSPropertyOp4
 70
     1
102
RTVSPropertyOp5
 70
     1
102
RTVSPropertyOp6
 70
     1
102
RTVSPropertyOp7
 70
     1
102
RTVSPropertyOp8
 70
     1
102
RTVSPropertyOp9
 70
     1
102
RTVSPropertyOp10
 70
     1
102
RTVSPropertyOp11
 70
     1
102
RTVSPropertyOp12
 70
     1
102
RTVSPropertyOp13
 70
     1
102
RTVSPropertyOp14
 70
     1
102
RTVSPropertyOp15
 70
     1
102
RTVSPropertyOp16
 70
     1
102
RTVSPropertyOp17
 70
     1
102
RTVSPropertyOp18
 70
     1
102
RTVSPropertyOp19
 70
     1
102
RTVSPropertyOp20
 70
     1
102
RTVSPropertyOp21
 70
     1
102
RTVSPropertyOp22
 70
     1
102
RTVSPropertyOp23
 70
     1
102
RTVSPropertyOp24
 70
     1
102
RTVSPropertyOp25
 70
     1
102
RTVSPropertyOp26
 70
     1
102
RTVSPropertyOp27
 70
     1
102
RTVSPropertyOp28
 70
     1
102
RTVSPropertyOp29
 70
     1
102
RTVSPropertyOp30
 70
     1
102
RTVSPropertyOp31
 70
     1
102
RTVSPropertyOp32
 70
     1
102
RTVSPropertyOp33
 70
     1
102
RTVSPropertyOp34
 70
     1
102
RTVSPropertyOp35
 70
     1
102
RTVSPropertyOp36
 70
     1
102
RTVSPropertyOp37
 70
     1
102
RTVSPropertyOp38
 70
     1
102
RTVSPropertyOp39
 70
     1
102
RTVSPropertyOp40
 70
     1
102
RTVSPropertyOp41
 70
     1
102
RTVSPropertyOp42
 70
     1
102
RTVSPropertyOp43
 70
     1
102
RTVSPropertyOp44
 70
     1
102
RTVSPropertyOp45
 70
     1
102
RTVSPropertyOp46
 70
     1
102
RTVSPropertyOp47
 70
     1
102
RTVSPropertyOp48
 70
     1
102
RTVSPropertyOp49
 70
     1
102
RTVSPropertyOp50
 70
     1
102
RTVSPropertyOp51
 70
     0
102
RTVSPropertyOp52
 70
     0
102
RTVSPropertyOp53
 70
     1
102
RTVSPropertyOp54
 70
     1
102
RTVSPropertyOp55
 70
     1
102
RTVSPropertyOp56
 70
     1
102
RTVSPropertyOp57
 70
     1
102
RTVSPropertyOp58
 70
     1
102
RTVSPropertyOp59
 70
     1
102
RTVSPropertyOp60
 70
     1
102
RTVSPropertyOp61
 70
     1
102
RTVSPropertyOp62
 70
     1
  0
XRECORD
  5
2EB1E
102
{ACAD_REACTORS
330
2EB1D
102
}
330
2EB1D
100
AcDbXrecord
280
     1
102
RTVSPost2010Prop28
280
     0
102
RTVSPost2010PropOp28
 70
     1
102
RTVSPost2010Prop29
280
     1
102
RTVSPost2010PropOp29
 70
     1
102
RTVSPost2010Prop30
280
     1
102
RTVSPost2010PropOp30
 70
     1
102
RTVSPost2010Prop31
280
     0
102
RTVSPost2010PropOp31
 70
     1
102
RTVSPost2010Prop32
280
     0
102
RTVSPost2010PropOp32
 70
     1
102
RTVSPost2010Prop33
280
     0
102
RTVSPost2010PropOp33
 70
     1
102
RTVSPost2010Prop34
280
     0
102
RTVSPost2010PropOp34
 70
     1
102
RTVSPost2010Prop35
280
     0
102
RTVSPost2010PropOp35
 70
     1
102
RTVSPost2010Prop36
280
     0
102
RTVSPost2010PropOp36
 70
     1
102
RTVSPost2010Prop37
 90
       50
102
RTVSPost2010PropOp37
 70
     1
102
RTVSPost2010Prop38
140
0.0
102
RTVSPost2010PropOp38
 70
     1
102
RTVSPost2010Prop39
140
1.0
102
RTVSPost2010PropOp39
 70
     1
102
RTVSPost2010Prop40
 90
        0
102
RTVSPost2010PropOp40
 70
     1
102
RTVSPost2010Prop41ColorIndex
 90
       18
102
RTVSPost2010Prop41ColorRGB
 90
        0
102
RTVSPost2010PropOp41
 70
     1
102
RTVSPost2010Prop42
 90
       50
102
RTVSPost2010PropOp42
 70
     1
102
RTVSPost2010Prop43
 90
        3
102
RTVSPost2010PropOp43
 70
     1
102
RTVSPost2010Prop44ColorIndex
 90
        5
102
RTVSPost2010Prop44ColorRGB
 90
      255
102
RTVSPost2010PropOp44
 70
     1
102
RTVSPost2010Prop45
280
     0
102
RTVSPost2010PropOp45
 70
     1
102
RTVSPost2010Prop46
 90
       50
102
RTVSPost2010PropOp46
 70
     1
102
RTVSPost2010Prop47
 90
       50
102
RTVSPost2010PropOp47
 70
     1
102
RTVSPost2010Prop48
 90
       50
102
RTVSPost2010PropOp48
 70
     1
102
RTVSPost2010Prop49
280
     0
102
RTVSPost2010PropOp49
 70
     1
102
RTVSPost2010Prop50
 90
       50
102
RTVSPost2010PropOp50
 70
     1
102
RTVSPost2010Prop51ColorIndex
 90
      256
102
RTVSPost2010Prop51ColorRGB
 90
-16777216
102
RTVSPost2010PropOp51
 70
     0
102
RTVSPost2010Prop52
140
1.0
102
RTVSPost2010PropOp52
 70
     0
102
RTVSPost2010Prop53
 90
        2
102
RTVSPost2010PropOp53
 70
     1
102
RTVSPost2010Prop54
  1
strokes_ogs.tif
102
RTVSPost2010PropOp54
 70
     1
102
RTVSPost2010Prop55
280
     0
102
RTVSPost2010PropOp55
 70
     1
102
RTVSPost2010Prop56
140
1.0
102
RTVSPost2010PropOp56
 70
     1
102
RTVSPost2010Prop57
140
1.0
102
RTVSPost2010PropOp57
 70
     1
102
RTVSPropertyOp0
 70
     1
102
RTVSPropertyOp1
 70
     1
102
RTVSPropertyOp2
 70
     1
102
RTVSPropertyOp3
 70
     1
102
RTVSPropertyOp4
 70
     1
102
RTVSPropertyOp5
 70
     1
102
RTVSPropertyOp6
 70
     1
102
RTVSPropertyOp7
 70
     1
102
RTVSPropertyOp8
 70
     1
102
RTVSPropertyOp9
 70
     1
102
RTVSPropertyOp10
 70
     1
102
RTVSPropertyOp11
 70
     1
102
RTVSPropertyOp12
 70
     1
102
RTVSPropertyOp13
 70
     1
102
RTVSPropertyOp14
 70
     1
102
RTVSPropertyOp15
 70
     1
102
RTVSPropertyOp16
 70
     1
102
RTVSPropertyOp17
 70
     1
102
RTVSPropertyOp18
 70
     1
102
RTVSPropertyOp19
 70
     1
102
RTVSPropertyOp20
 70
     1
102
RTVSPropertyOp21
 70
     1
102
RTVSPropertyOp22
 70
     1
102
RTVSPropertyOp23
 70
     1
102
RTVSPropertyOp24
 70
     1
102
RTVSPropertyOp25
 70
     1
102
RTVSPropertyOp26
 70
     1
102
RTVSPropertyOp27
 70
     1
102
RTVSPropertyOp28
 70
     1
102
RTVSPropertyOp29
 70
     1
102
RTVSPropertyOp30
 70
     1
102
RTVSPropertyOp31
 70
     1
102
RTVSPropertyOp32
 70
     1
102
RTVSPropertyOp33
 70
     1
102
RTVSPropertyOp34
 70
     1
102
RTVSPropertyOp35
 70
     1
102
RTVSPropertyOp36
 70
     1
102
RTVSPropertyOp37
 70
     1
102
RTVSPropertyOp38
 70
     1
102
RTVSPropertyOp39
 70
     1
102
RTVSPropertyOp40
 70
     1
102
RTVSPropertyOp41
 70
     1
102
RTVSPropertyOp42
 70
     1
102
RTVSPropertyOp43
 70
     1
102
RTVSPropertyOp44
 70
     1
102
RTVSPropertyOp45
 70
     1
102
RTVSPropertyOp46
 70
     1
102
RTVSPropertyOp47
 70
     1
102
RTVSPropertyOp48
 70
     1
102
RTVSPropertyOp49
 70
     1
102
RTVSPropertyOp50
 70
     1
102
RTVSPropertyOp51
 70
     0
102
RTVSPropertyOp52
 70
     0
102
RTVSPropertyOp53
 70
     1
102
RTVSPropertyOp54
 70
     1
102
RTVSPropertyOp55
 70
     1
102
RTVSPropertyOp56
 70
     1
102
RTVSPropertyOp57
 70
     1
102
RTVSPropertyOp58
 70
     1
102
RTVSPropertyOp59
 70
     1
102
RTVSPropertyOp60
 70
     1
102
RTVSPropertyOp61
 70
     1
102
RTVSPropertyOp62
 70
     1
  0
XRECORD
  5
2EB1C
102
{ACAD_REACTORS
330
2EB1B
102
}
330
2EB1B
100
AcDbXrecord
280
     1
102
RTVSPost2010Prop28
280
     0
102
RTVSPost2010PropOp28
 70
     1
102
RTVSPost2010Prop29
280
     1
102
RTVSPost2010PropOp29
 70
     1
102
RTVSPost2010Prop30
280
     1
102
RTVSPost2010PropOp30
 70
     1
102
RTVSPost2010Prop31
280
     0
102
RTVSPost2010PropOp31
 70
     1
102
RTVSPost2010Prop32
280
     0
102
RTVSPost2010PropOp32
 70
     1
102
RTVSPost2010Prop33
280
     0
102
RTVSPost2010PropOp33
 70
     1
102
RTVSPost2010Prop34
280
     0
102
RTVSPost2010PropOp34
 70
     1
102
RTVSPost2010Prop35
280
     0
102
RTVSPost2010PropOp35
 70
     1
102
RTVSPost2010Prop36
280
     0
102
RTVSPost2010PropOp36
 70
     1
102
RTVSPost2010Prop37
 90
       50
102
RTVSPost2010PropOp37
 70
     1
102
RTVSPost2010Prop38
140
0.0
102
RTVSPost2010PropOp38
 70
     1
102
RTVSPost2010Prop39
140
1.0
102
RTVSPost2010PropOp39
 70
     1
102
RTVSPost2010Prop40
 90
        0
102
RTVSPost2010PropOp40
 70
     1
102
RTVSPost2010Prop41ColorIndex
 90
       18
102
RTVSPost2010Prop41ColorRGB
 90
        0
102
RTVSPost2010PropOp41
 70
     1
102
RTVSPost2010Prop42
 90
       50
102
RTVSPost2010PropOp42
 70
     1
102
RTVSPost2010Prop43
 90
        3
102
RTVSPost2010PropOp43
 70
     1
102
RTVSPost2010Prop44ColorIndex
 90
        5
102
RTVSPost2010Prop44ColorRGB
 90
      255
102
RTVSPost2010PropOp44
 70
     1
102
RTVSPost2010Prop45
280
     0
102
RTVSPost2010PropOp45
 70
     1
102
RTVSPost2010Prop46
 90
       50
102
RTVSPost2010PropOp46
 70
     1
102
RTVSPost2010Prop47
 90
       50
102
RTVSPost2010PropOp47
 70
     1
102
RTVSPost2010Prop48
 90
       50
102
RTVSPost2010PropOp48
 70
     1
102
RTVSPost2010Prop49
280
     0
102
RTVSPost2010PropOp49
 70
     1
102
RTVSPost2010Prop50
 90
       50
102
RTVSPost2010PropOp50
 70
     1
102
RTVSPost2010Prop51ColorIndex
 90
      256
102
RTVSPost2010Prop51ColorRGB
 90
-16777216
102
RTVSPost2010PropOp51
 70
     0
102
RTVSPost2010Prop52
140
1.0
102
RTVSPost2010PropOp52
 70
     0
102
RTVSPost2010Prop53
 90
        2
102
RTVSPost2010PropOp53
 70
     1
102
RTVSPost2010Prop54
  1
strokes_ogs.tif
102
RTVSPost2010PropOp54
 70
     1
102
RTVSPost2010Prop55
280
     0
102
RTVSPost2010PropOp55
 70
     1
102
RTVSPost2010Prop56
140
1.0
102
RTVSPost2010PropOp56
 70
     1
102
RTVSPost2010Prop57
140
1.0
102
RTVSPost2010PropOp57
 70
     1
102
RTVSPropertyOp0
 70
     1
102
RTVSPropertyOp1
 70
     1
102
RTVSPropertyOp2
 70
     1
102
RTVSPropertyOp3
 70
     1
102
RTVSPropertyOp4
 70
     1
102
RTVSPropertyOp5
 70
     1
102
RTVSPropertyOp6
 70
     1
102
RTVSPropertyOp7
 70
     1
102
RTVSPropertyOp8
 70
     1
102
RTVSPropertyOp9
 70
     1
102
RTVSPropertyOp10
 70
     1
102
RTVSPropertyOp11
 70
     1
102
RTVSPropertyOp12
 70
     1
102
RTVSPropertyOp13
 70
     1
102
RTVSPropertyOp14
 70
     1
102
RTVSPropertyOp15
 70
     1
102
RTVSPropertyOp16
 70
     1
102
RTVSPropertyOp17
 70
     1
102
RTVSPropertyOp18
 70
     1
102
RTVSPropertyOp19
 70
     1
102
RTVSPropertyOp20
 70
     1
102
RTVSPropertyOp21
 70
     1
102
RTVSPropertyOp22
 70
     1
102
RTVSPropertyOp23
 70
     1
102
RTVSPropertyOp24
 70
     1
102
RTVSPropertyOp25
 70
     1
102
RTVSPropertyOp26
 70
     1
102
RTVSPropertyOp27
 70
     1
102
RTVSPropertyOp28
 70
     1
102
RTVSPropertyOp29
 70
     1
102
RTVSPropertyOp30
 70
     1
102
RTVSPropertyOp31
 70
     1
102
RTVSPropertyOp32
 70
     1
102
RTVSPropertyOp33
 70
     1
102
RTVSPropertyOp34
 70
     1
102
RTVSPropertyOp35
 70
     1
102
RTVSPropertyOp36
 70
     1
102
RTVSPropertyOp37
 70
     1
102
RTVSPropertyOp38
 70
     1
102
RTVSPropertyOp39
 70
     1
102
RTVSPropertyOp40
 70
     1
102
RTVSPropertyOp41
 70
     1
102
RTVSPropertyOp42
 70
     1
102
RTVSPropertyOp43
 70
     1
102
RTVSPropertyOp44
 70
     1
102
RTVSPropertyOp45
 70
     1
102
RTVSPropertyOp46
 70
     1
102
RTVSPropertyOp47
 70
     1
102
RTVSPropertyOp48
 70
     1
102
RTVSPropertyOp49
 70
     1
102
RTVSPropertyOp50
 70
     1
102
RTVSPropertyOp51
 70
     0
102
RTVSPropertyOp52
 70
     0
102
RTVSPropertyOp53
 70
     1
102
RTVSPropertyOp54
 70
     1
102
RTVSPropertyOp55
 70
     1
102
RTVSPropertyOp56
 70
     1
102
RTVSPropertyOp57
 70
     1
102
RTVSPropertyOp58
 70
     1
102
RTVSPropertyOp59
 70
     1
102
RTVSPropertyOp60
 70
     1
102
RTVSPropertyOp61
 70
     1
102
RTVSPropertyOp62
 70
     1
  0
XRECORD
  5
2EB16
102
{ACAD_REACTORS
330
2EB15
102
}
330
2EB15
100
AcDbXrecord
280
     1
102
RTVSPost2010Prop28
280
     0
102
RTVSPost2010PropOp28
 70
     1
102
RTVSPost2010Prop29
280
     1
102
RTVSPost2010PropOp29
 70
     1
102
RTVSPost2010Prop30
280
     1
102
RTVSPost2010PropOp30
 70
     1
102
RTVSPost2010Prop31
280
     0
102
RTVSPost2010PropOp31
 70
     1
102
RTVSPost2010Prop32
280
     0
102
RTVSPost2010PropOp32
 70
     1
102
RTVSPost2010Prop33
280
     0
102
RTVSPost2010PropOp33
 70
     1
102
RTVSPost2010Prop34
280
     0
102
RTVSPost2010PropOp34
 70
     1
102
RTVSPost2010Prop35
280
     0
102
RTVSPost2010PropOp35
 70
     1
102
RTVSPost2010Prop36
280
     0
102
RTVSPost2010PropOp36
 70
     1
102
RTVSPost2010Prop37
 90
       50
102
RTVSPost2010PropOp37
 70
     1
102
RTVSPost2010Prop38
140
0.0
102
RTVSPost2010PropOp38
 70
     1
102
RTVSPost2010Prop39
140
1.0
102
RTVSPost2010PropOp39
 70
     1
102
RTVSPost2010Prop40
 90
        0
102
RTVSPost2010PropOp40
 70
     1
102
RTVSPost2010Prop41ColorIndex
 90
       18
102
RTVSPost2010Prop41ColorRGB
 90
        0
102
RTVSPost2010PropOp41
 70
     1
102
RTVSPost2010Prop42
 90
       50
102
RTVSPost2010PropOp42
 70
     1
102
RTVSPost2010Prop43
 90
        3
102
RTVSPost2010PropOp43
 70
     1
102
RTVSPost2010Prop44ColorIndex
 90
        5
102
RTVSPost2010Prop44ColorRGB
 90
      255
102
RTVSPost2010PropOp44
 70
     1
102
RTVSPost2010Prop45
280
     0
102
RTVSPost2010PropOp45
 70
     1
102
RTVSPost2010Prop46
 90
       50
102
RTVSPost2010PropOp46
 70
     1
102
RTVSPost2010Prop47
 90
       50
102
RTVSPost2010PropOp47
 70
     1
102
RTVSPost2010Prop48
 90
       50
102
RTVSPost2010PropOp48
 70
     1
102
RTVSPost2010Prop49
280
     0
102
RTVSPost2010PropOp49
 70
     1
102
RTVSPost2010Prop50
 90
       50
102
RTVSPost2010PropOp50
 70
     1
102
RTVSPost2010Prop51ColorIndex
 90
      256
102
RTVSPost2010Prop51ColorRGB
 90
-16777216
102
RTVSPost2010PropOp51
 70
     0
102
RTVSPost2010Prop52
140
1.0
102
RTVSPost2010PropOp52
 70
     0
102
RTVSPost2010Prop53
 90
        2
102
RTVSPost2010PropOp53
 70
     1
102
RTVSPost2010Prop54
  1
strokes_ogs.tif
102
RTVSPost2010PropOp54
 70
     1
102
RTVSPost2010Prop55
280
     0
102
RTVSPost2010PropOp55
 70
     1
102
RTVSPost2010Prop56
140
1.0
102
RTVSPost2010PropOp56
 70
     1
102
RTVSPost2010Prop57
140
1.0
102
RTVSPost2010PropOp57
 70
     1
102
RTVSPropertyOp0
 70
     1
102
RTVSPropertyOp1
 70
     1
102
RTVSPropertyOp2
 70
     1
102
RTVSPropertyOp3
 70
     1
102
RTVSPropertyOp4
 70
     1
102
RTVSPropertyOp5
 70
     1
102
RTVSPropertyOp6
 70
     1
102
RTVSPropertyOp7
 70
     1
102
RTVSPropertyOp8
 70
     1
102
RTVSPropertyOp9
 70
     1
102
RTVSPropertyOp10
 70
     1
102
RTVSPropertyOp11
 70
     1
102
RTVSPropertyOp12
 70
     1
102
RTVSPropertyOp13
 70
     1
102
RTVSPropertyOp14
 70
     1
102
RTVSPropertyOp15
 70
     1
102
RTVSPropertyOp16
 70
     1
102
RTVSPropertyOp17
 70
     1
102
RTVSPropertyOp18
 70
     1
102
RTVSPropertyOp19
 70
     1
102
RTVSPropertyOp20
 70
     1
102
RTVSPropertyOp21
 70
     1
102
RTVSPropertyOp22
 70
     1
102
RTVSPropertyOp23
 70
     1
102
RTVSPropertyOp24
 70
     1
102
RTVSPropertyOp25
 70
     1
102
RTVSPropertyOp26
 70
     1
102
RTVSPropertyOp27
 70
     1
102
RTVSPropertyOp28
 70
     1
102
RTVSPropertyOp29
 70
     1
102
RTVSPropertyOp30
 70
     1
102
RTVSPropertyOp31
 70
     1
102
RTVSPropertyOp32
 70
     1
102
RTVSPropertyOp33
 70
     1
102
RTVSPropertyOp34
 70
     1
102
RTVSPropertyOp35
 70
     1
102
RTVSPropertyOp36
 70
     1
102
RTVSPropertyOp37
 70
     1
102
RTVSPropertyOp38
 70
     1
102
RTVSPropertyOp39
 70
     1
102
RTVSPropertyOp40
 70
     1
102
RTVSPropertyOp41
 70
     1
102
RTVSPropertyOp42
 70
     1
102
RTVSPropertyOp43
 70
     1
102
RTVSPropertyOp44
 70
     1
102
RTVSPropertyOp45
 70
     1
102
RTVSPropertyOp46
 70
     1
102
RTVSPropertyOp47
 70
     1
102
RTVSPropertyOp48
 70
     1
102
RTVSPropertyOp49
 70
     1
102
RTVSPropertyOp50
 70
     1
102
RTVSPropertyOp51
 70
     0
102
RTVSPropertyOp52
 70
     0
102
RTVSPropertyOp53
 70
     1
102
RTVSPropertyOp54
 70
     1
102
RTVSPropertyOp55
 70
     1
102
RTVSPropertyOp56
 70
     1
102
RTVSPropertyOp57
 70
     1
102
RTVSPropertyOp58
 70
     1
102
RTVSPropertyOp59
 70
     1
102
RTVSPropertyOp60
 70
     1
102
RTVSPropertyOp61
 70
     1
102
RTVSPropertyOp62
 70
     1
  0
XRECORD
  5
2EB18
102
{ACAD_REACTORS
330
2EB17
102
}
330
2EB17
100
AcDbXrecord
280
     1
102
RTVSPost2010Prop28
280
     0
102
RTVSPost2010PropOp28
 70
     1
102
RTVSPost2010Prop29
280
     1
102
RTVSPost2010PropOp29
 70
     1
102
RTVSPost2010Prop30
280
     1
102
RTVSPost2010PropOp30
 70
     1
102
RTVSPost2010Prop31
280
     0
102
RTVSPost2010PropOp31
 70
     1
102
RTVSPost2010Prop32
280
     0
102
RTVSPost2010PropOp32
 70
     1
102
RTVSPost2010Prop33
280
     0
102
RTVSPost2010PropOp33
 70
     1
102
RTVSPost2010Prop34
280
     0
102
RTVSPost2010PropOp34
 70
     1
102
RTVSPost2010Prop35
280
     0
102
RTVSPost2010PropOp35
 70
     1
102
RTVSPost2010Prop36
280
     0
102
RTVSPost2010PropOp36
 70
     1
102
RTVSPost2010Prop37
 90
       50
102
RTVSPost2010PropOp37
 70
     1
102
RTVSPost2010Prop38
140
0.0
102
RTVSPost2010PropOp38
 70
     1
102
RTVSPost2010Prop39
140
1.0
102
RTVSPost2010PropOp39
 70
     1
102
RTVSPost2010Prop40
 90
        0
102
RTVSPost2010PropOp40
 70
     1
102
RTVSPost2010Prop41ColorIndex
 90
       18
102
RTVSPost2010Prop41ColorRGB
 90
        0
102
RTVSPost2010PropOp41
 70
     1
102
RTVSPost2010Prop42
 90
       50
102
RTVSPost2010PropOp42
 70
     1
102
RTVSPost2010Prop43
 90
        3
102
RTVSPost2010PropOp43
 70
     1
102
RTVSPost2010Prop44ColorIndex
 90
        5
102
RTVSPost2010Prop44ColorRGB
 90
      255
102
RTVSPost2010PropOp44
 70
     1
102
RTVSPost2010Prop45
280
     0
102
RTVSPost2010PropOp45
 70
     1
102
RTVSPost2010Prop46
 90
       50
102
RTVSPost2010PropOp46
 70
     1
102
RTVSPost2010Prop47
 90
       50
102
RTVSPost2010PropOp47
 70
     1
102
RTVSPost2010Prop48
 90
       50
102
RTVSPost2010PropOp48
 70
     1
102
RTVSPost2010Prop49
280
     0
102
RTVSPost2010PropOp49
 70
     1
102
RTVSPost2010Prop50
 90
       50
102
RTVSPost2010PropOp50
 70
     1
102
RTVSPost2010Prop51ColorIndex
 90
      256
102
RTVSPost2010Prop51ColorRGB
 90
-16777216
102
RTVSPost2010PropOp51
 70
     0
102
RTVSPost2010Prop52
140
1.0
102
RTVSPost2010PropOp52
 70
     0
102
RTVSPost2010Prop53
 90
        2
102
RTVSPost2010PropOp53
 70
     1
102
RTVSPost2010Prop54
  1
strokes_ogs.tif
102
RTVSPost2010PropOp54
 70
     1
102
RTVSPost2010Prop55
280
     0
102
RTVSPost2010PropOp55
 70
     1
102
RTVSPost2010Prop56
140
1.0
102
RTVSPost2010PropOp56
 70
     1
102
RTVSPost2010Prop57
140
1.0
102
RTVSPost2010PropOp57
 70
     1
102
RTVSPropertyOp0
 70
     1
102
RTVSPropertyOp1
 70
     1
102
RTVSPropertyOp2
 70
     1
102
RTVSPropertyOp3
 70
     1
102
RTVSPropertyOp4
 70
     1
102
RTVSPropertyOp5
 70
     1
102
RTVSPropertyOp6
 70
     1
102
RTVSPropertyOp7
 70
     1
102
RTVSPropertyOp8
 70
     1
102
RTVSPropertyOp9
 70
     1
102
RTVSPropertyOp10
 70
     1
102
RTVSPropertyOp11
 70
     1
102
RTVSPropertyOp12
 70
     1
102
RTVSPropertyOp13
 70
     1
102
RTVSPropertyOp14
 70
     1
102
RTVSPropertyOp15
 70
     1
102
RTVSPropertyOp16
 70
     1
102
RTVSPropertyOp17
 70
     1
102
RTVSPropertyOp18
 70
     1
102
RTVSPropertyOp19
 70
     1
102
RTVSPropertyOp20
 70
     1
102
RTVSPropertyOp21
 70
     1
102
RTVSPropertyOp22
 70
     1
102
RTVSPropertyOp23
 70
     1
102
RTVSPropertyOp24
 70
     1
102
RTVSPropertyOp25
 70
     1
102
RTVSPropertyOp26
 70
     1
102
RTVSPropertyOp27
 70
     1
102
RTVSPropertyOp28
 70
     1
102
RTVSPropertyOp29
 70
     1
102
RTVSPropertyOp30
 70
     1
102
RTVSPropertyOp31
 70
     1
102
RTVSPropertyOp32
 70
     1
102
RTVSPropertyOp33
 70
     1
102
RTVSPropertyOp34
 70
     1
102
RTVSPropertyOp35
 70
     1
102
RTVSPropertyOp36
 70
     1
102
RTVSPropertyOp37
 70
     1
102
RTVSPropertyOp38
 70
     1
102
RTVSPropertyOp39
 70
     1
102
RTVSPropertyOp40
 70
     1
102
RTVSPropertyOp41
 70
     1
102
RTVSPropertyOp42
 70
     1
102
RTVSPropertyOp43
 70
     1
102
RTVSPropertyOp44
 70
     1
102
RTVSPropertyOp45
 70
     1
102
RTVSPropertyOp46
 70
     1
102
RTVSPropertyOp47
 70
     1
102
RTVSPropertyOp48
 70
     1
102
RTVSPropertyOp49
 70
     1
102
RTVSPropertyOp50
 70
     1
102
RTVSPropertyOp51
 70
     0
102
RTVSPropertyOp52
 70
     0
102
RTVSPropertyOp53
 70
     1
102
RTVSPropertyOp54
 70
     1
102
RTVSPropertyOp55
 70
     1
102
RTVSPropertyOp56
 70
     1
102
RTVSPropertyOp57
 70
     1
102
RTVSPropertyOp58
 70
     1
102
RTVSPropertyOp59
 70
     1
102
RTVSPropertyOp60
 70
     1
102
RTVSPropertyOp61
 70
     1
102
RTVSPropertyOp62
 70
     1
  0
XRECORD
  5
2EB03
102
{ACAD_REACTORS
330
2EB02
102
}
330
2EB02
100
AcDbXrecord
280
     1
102
RTVSPost2010Prop28
280
     0
102
RTVSPost2010PropOp28
 70
     1
102
RTVSPost2010Prop29
280
     1
102
RTVSPost2010PropOp29
 70
     1
102
RTVSPost2010Prop30
280
     1
102
RTVSPost2010PropOp30
 70
     1
102
RTVSPost2010Prop31
280
     0
102
RTVSPost2010PropOp31
 70
     1
102
RTVSPost2010Prop32
280
     0
102
RTVSPost2010PropOp32
 70
     1
102
RTVSPost2010Prop33
280
     0
102
RTVSPost2010PropOp33
 70
     1
102
RTVSPost2010Prop34
280
     0
102
RTVSPost2010PropOp34
 70
     1
102
RTVSPost2010Prop35
280
     0
102
RTVSPost2010PropOp35
 70
     1
102
RTVSPost2010Prop36
280
     0
102
RTVSPost2010PropOp36
 70
     1
102
RTVSPost2010Prop37
 90
       50
102
RTVSPost2010PropOp37
 70
     1
102
RTVSPost2010Prop38
140
0.0
102
RTVSPost2010PropOp38
 70
     1
102
RTVSPost2010Prop39
140
1.0
102
RTVSPost2010PropOp39
 70
     1
102
RTVSPost2010Prop40
 90
        0
102
RTVSPost2010PropOp40
 70
     1
102
RTVSPost2010Prop41ColorIndex
 90
       18
102
RTVSPost2010Prop41ColorRGB
 90
        0
102
RTVSPost2010PropOp41
 70
     1
102
RTVSPost2010Prop42
 90
       50
102
RTVSPost2010PropOp42
 70
     1
102
RTVSPost2010Prop43
 90
        3
102
RTVSPost2010PropOp43
 70
     1
102
RTVSPost2010Prop44ColorIndex
 90
        5
102
RTVSPost2010Prop44ColorRGB
 90
      255
102
RTVSPost2010PropOp44
 70
     1
102
RTVSPost2010Prop45
280
     0
102
RTVSPost2010PropOp45
 70
     1
102
RTVSPost2010Prop46
 90
       50
102
RTVSPost2010PropOp46
 70
     1
102
RTVSPost2010Prop47
 90
       50
102
RTVSPost2010PropOp47
 70
     1
102
RTVSPost2010Prop48
 90
       50
102
RTVSPost2010PropOp48
 70
     1
102
RTVSPost2010Prop49
280
     0
102
RTVSPost2010PropOp49
 70
     1
102
RTVSPost2010Prop50
 90
       50
102
RTVSPost2010PropOp50
 70
     1
102
RTVSPost2010Prop51ColorIndex
 90
      256
102
RTVSPost2010Prop51ColorRGB
 90
-16777216
102
RTVSPost2010PropOp51
 70
     0
102
RTVSPost2010Prop52
140
1.0
102
RTVSPost2010PropOp52
 70
     0
102
RTVSPost2010Prop53
 90
        2
102
RTVSPost2010PropOp53
 70
     1
102
RTVSPost2010Prop54
  1
strokes_ogs.tif
102
RTVSPost2010PropOp54
 70
     1
102
RTVSPost2010Prop55
280
     0
102
RTVSPost2010PropOp55
 70
     1
102
RTVSPost2010Prop56
140
1.0
102
RTVSPost2010PropOp56
 70
     1
102
RTVSPost2010Prop57
140
1.0
102
RTVSPost2010PropOp57
 70
     1
102
RTVSPropertyOp0
 70
     1
102
RTVSPropertyOp1
 70
     1
102
RTVSPropertyOp2
 70
     1
102
RTVSPropertyOp3
 70
     1
102
RTVSPropertyOp4
 70
     1
102
RTVSPropertyOp5
 70
     1
102
RTVSPropertyOp6
 70
     1
102
RTVSPropertyOp7
 70
     1
102
RTVSPropertyOp8
 70
     1
102
RTVSPropertyOp9
 70
     1
102
RTVSPropertyOp10
 70
     1
102
RTVSPropertyOp11
 70
     1
102
RTVSPropertyOp12
 70
     1
102
RTVSPropertyOp13
 70
     1
102
RTVSPropertyOp14
 70
     1
102
RTVSPropertyOp15
 70
     1
102
RTVSPropertyOp16
 70
     1
102
RTVSPropertyOp17
 70
     1
102
RTVSPropertyOp18
 70
     1
102
RTVSPropertyOp19
 70
     1
102
RTVSPropertyOp20
 70
     1
102
RTVSPropertyOp21
 70
     1
102
RTVSPropertyOp22
 70
     1
102
RTVSPropertyOp23
 70
     1
102
RTVSPropertyOp24
 70
     1
102
RTVSPropertyOp25
 70
     1
102
RTVSPropertyOp26
 70
     1
102
RTVSPropertyOp27
 70
     1
102
RTVSPropertyOp28
 70
     1
102
RTVSPropertyOp29
 70
     1
102
RTVSPropertyOp30
 70
     1
102
RTVSPropertyOp31
 70
     1
102
RTVSPropertyOp32
 70
     1
102
RTVSPropertyOp33
 70
     1
102
RTVSPropertyOp34
 70
     1
102
RTVSPropertyOp35
 70
     1
102
RTVSPropertyOp36
 70
     1
102
RTVSPropertyOp37
 70
     1
102
RTVSPropertyOp38
 70
     1
102
RTVSPropertyOp39
 70
     1
102
RTVSPropertyOp40
 70
     1
102
RTVSPropertyOp41
 70
     1
102
RTVSPropertyOp42
 70
     1
102
RTVSPropertyOp43
 70
     1
102
RTVSPropertyOp44
 70
     1
102
RTVSPropertyOp45
 70
     1
102
RTVSPropertyOp46
 70
     1
102
RTVSPropertyOp47
 70
     1
102
RTVSPropertyOp48
 70
     1
102
RTVSPropertyOp49
 70
     1
102
RTVSPropertyOp50
 70
     1
102
RTVSPropertyOp51
 70
     0
102
RTVSPropertyOp52
 70
     0
102
RTVSPropertyOp53
 70
     1
102
RTVSPropertyOp54
 70
     1
102
RTVSPropertyOp55
 70
     1
102
RTVSPropertyOp56
 70
     1
102
RTVSPropertyOp57
 70
     1
102
RTVSPropertyOp58
 70
     1
102
RTVSPropertyOp59
 70
     1
102
RTVSPropertyOp60
 70
     1
102
RTVSPropertyOp61
 70
     1
102
RTVSPropertyOp62
 70
     1
  0
XRECORD
  5
2EB12
102
{ACAD_REACTORS
330
2EB11
102
}
330
2EB11
100
AcDbXrecord
280
     1
102
RTVSPost2010Prop28
280
     0
102
RTVSPost2010PropOp28
 70
     1
102
RTVSPost2010Prop29
280
     1
102
RTVSPost2010PropOp29
 70
     1
102
RTVSPost2010Prop30
280
     1
102
RTVSPost2010PropOp30
 70
     1
102
RTVSPost2010Prop31
280
     0
102
RTVSPost2010PropOp31
 70
     1
102
RTVSPost2010Prop32
280
     0
102
RTVSPost2010PropOp32
 70
     1
102
RTVSPost2010Prop33
280
     0
102
RTVSPost2010PropOp33
 70
     1
102
RTVSPost2010Prop34
280
     0
102
RTVSPost2010PropOp34
 70
     1
102
RTVSPost2010Prop35
280
     0
102
RTVSPost2010PropOp35
 70
     1
102
RTVSPost2010Prop36
280
     0
102
RTVSPost2010PropOp36
 70
     1
102
RTVSPost2010Prop37
 90
       50
102
RTVSPost2010PropOp37
 70
     1
102
RTVSPost2010Prop38
140
0.0
102
RTVSPost2010PropOp38
 70
     1
102
RTVSPost2010Prop39
140
1.0
102
RTVSPost2010PropOp39
 70
     1
102
RTVSPost2010Prop40
 90
        0
102
RTVSPost2010PropOp40
 70
     1
102
RTVSPost2010Prop41ColorIndex
 90
       18
102
RTVSPost2010Prop41ColorRGB
 90
        0
102
RTVSPost2010PropOp41
 70
     1
102
RTVSPost2010Prop42
 90
       50
102
RTVSPost2010PropOp42
 70
     1
102
RTVSPost2010Prop43
 90
        3
102
RTVSPost2010PropOp43
 70
     1
102
RTVSPost2010Prop44ColorIndex
 90
        5
102
RTVSPost2010Prop44ColorRGB
 90
      255
102
RTVSPost2010PropOp44
 70
     1
102
RTVSPost2010Prop45
280
     0
102
RTVSPost2010PropOp45
 70
     1
102
RTVSPost2010Prop46
 90
       50
102
RTVSPost2010PropOp46
 70
     1
102
RTVSPost2010Prop47
 90
       50
102
RTVSPost2010PropOp47
 70
     1
102
RTVSPost2010Prop48
 90
       50
102
RTVSPost2010PropOp48
 70
     1
102
RTVSPost2010Prop49
280
     0
102
RTVSPost2010PropOp49
 70
     1
102
RTVSPost2010Prop50
 90
       50
102
RTVSPost2010PropOp50
 70
     1
102
RTVSPost2010Prop51ColorIndex
 90
      256
102
RTVSPost2010Prop51ColorRGB
 90
-16777216
102
RTVSPost2010PropOp51
 70
     0
102
RTVSPost2010Prop52
140
1.0
102
RTVSPost2010PropOp52
 70
     0
102
RTVSPost2010Prop53
 90
        2
102
RTVSPost2010PropOp53
 70
     1
102
RTVSPost2010Prop54
  1
strokes_ogs.tif
102
RTVSPost2010PropOp54
 70
     1
102
RTVSPost2010Prop55
280
     0
102
RTVSPost2010PropOp55
 70
     1
102
RTVSPost2010Prop56
140
1.0
102
RTVSPost2010PropOp56
 70
     1
102
RTVSPost2010Prop57
140
1.0
102
RTVSPost2010PropOp57
 70
     1
102
RTVSPropertyOp0
 70
     1
102
RTVSPropertyOp1
 70
     1
102
RTVSPropertyOp2
 70
     1
102
RTVSPropertyOp3
 70
     1
102
RTVSPropertyOp4
 70
     1
102
RTVSPropertyOp5
 70
     1
102
RTVSPropertyOp6
 70
     1
102
RTVSPropertyOp7
 70
     1
102
RTVSPropertyOp8
 70
     1
102
RTVSPropertyOp9
 70
     1
102
RTVSPropertyOp10
 70
     1
102
RTVSPropertyOp11
 70
     1
102
RTVSPropertyOp12
 70
     1
102
RTVSPropertyOp13
 70
     1
102
RTVSPropertyOp14
 70
     1
102
RTVSPropertyOp15
 70
     1
102
RTVSPropertyOp16
 70
     1
102
RTVSPropertyOp17
 70
     1
102
RTVSPropertyOp18
 70
     1
102
RTVSPropertyOp19
 70
     1
102
RTVSPropertyOp20
 70
     1
102
RTVSPropertyOp21
 70
     1
102
RTVSPropertyOp22
 70
     1
102
RTVSPropertyOp23
 70
     1
102
RTVSPropertyOp24
 70
     1
102
RTVSPropertyOp25
 70
     1
102
RTVSPropertyOp26
 70
     1
102
RTVSPropertyOp27
 70
     1
102
RTVSPropertyOp28
 70
     1
102
RTVSPropertyOp29
 70
     1
102
RTVSPropertyOp30
 70
     1
102
RTVSPropertyOp31
 70
     1
102
RTVSPropertyOp32
 70
     1
102
RTVSPropertyOp33
 70
     1
102
RTVSPropertyOp34
 70
     1
102
RTVSPropertyOp35
 70
     1
102
RTVSPropertyOp36
 70
     1
102
RTVSPropertyOp37
 70
     1
102
RTVSPropertyOp38
 70
     1
102
RTVSPropertyOp39
 70
     1
102
RTVSPropertyOp40
 70
     1
102
RTVSPropertyOp41
 70
     1
102
RTVSPropertyOp42
 70
     1
102
RTVSPropertyOp43
 70
     1
102
RTVSPropertyOp44
 70
     1
102
RTVSPropertyOp45
 70
     1
102
RTVSPropertyOp46
 70
     1
102
RTVSPropertyOp47
 70
     1
102
RTVSPropertyOp48
 70
     1
102
RTVSPropertyOp49
 70
     1
102
RTVSPropertyOp50
 70
     1
102
RTVSPropertyOp51
 70
     0
102
RTVSPropertyOp52
 70
     0
102
RTVSPropertyOp53
 70
     1
102
RTVSPropertyOp54
 70
     1
102
RTVSPropertyOp55
 70
     1
102
RTVSPropertyOp56
 70
     1
102
RTVSPropertyOp57
 70
     1
102
RTVSPropertyOp58
 70
     1
102
RTVSPropertyOp59
 70
     1
102
RTVSPropertyOp60
 70
     1
102
RTVSPropertyOp61
 70
     1
102
RTVSPropertyOp62
 70
     1
  0
XRECORD
  5
2EB1A
102
{ACAD_REACTORS
330
2EB19
102
}
330
2EB19
100
AcDbXrecord
280
     1
102
RTVSPost2010Prop28
280
     0
102
RTVSPost2010PropOp28
 70
     1
102
RTVSPost2010Prop29
280
     1
102
RTVSPost2010PropOp29
 70
     1
102
RTVSPost2010Prop30
280
     1
102
RTVSPost2010PropOp30
 70
     1
102
RTVSPost2010Prop31
280
     0
102
RTVSPost2010PropOp31
 70
     1
102
RTVSPost2010Prop32
280
     0
102
RTVSPost2010PropOp32
 70
     1
102
RTVSPost2010Prop33
280
     0
102
RTVSPost2010PropOp33
 70
     1
102
RTVSPost2010Prop34
280
     0
102
RTVSPost2010PropOp34
 70
     1
102
RTVSPost2010Prop35
280
     0
102
RTVSPost2010PropOp35
 70
     1
102
RTVSPost2010Prop36
280
     0
102
RTVSPost2010PropOp36
 70
     1
102
RTVSPost2010Prop37
 90
       50
102
RTVSPost2010PropOp37
 70
     1
102
RTVSPost2010Prop38
140
0.0
102
RTVSPost2010PropOp38
 70
     1
102
RTVSPost2010Prop39
140
1.0
102
RTVSPost2010PropOp39
 70
     1
102
RTVSPost2010Prop40
 90
        0
102
RTVSPost2010PropOp40
 70
     1
102
RTVSPost2010Prop41ColorIndex
 90
       18
102
RTVSPost2010Prop41ColorRGB
 90
        0
102
RTVSPost2010PropOp41
 70
     1
102
RTVSPost2010Prop42
 90
       50
102
RTVSPost2010PropOp42
 70
     1
102
RTVSPost2010Prop43
 90
        3
102
RTVSPost2010PropOp43
 70
     1
102
RTVSPost2010Prop44ColorIndex
 90
        5
102
RTVSPost2010Prop44ColorRGB
 90
      255
102
RTVSPost2010PropOp44
 70
     1
102
RTVSPost2010Prop45
280
     0
102
RTVSPost2010PropOp45
 70
     1
102
RTVSPost2010Prop46
 90
       50
102
RTVSPost2010PropOp46
 70
     1
102
RTVSPost2010Prop47
 90
       50
102
RTVSPost2010PropOp47
 70
     1
102
RTVSPost2010Prop48
 90
       50
102
RTVSPost2010PropOp48
 70
     1
102
RTVSPost2010Prop49
280
     0
102
RTVSPost2010PropOp49
 70
     1
102
RTVSPost2010Prop50
 90
       50
102
RTVSPost2010PropOp50
 70
     1
102
RTVSPost2010Prop51ColorIndex
 90
      256
102
RTVSPost2010Prop51ColorRGB
 90
-16777216
102
RTVSPost2010PropOp51
 70
     0
102
RTVSPost2010Prop52
140
1.0
102
RTVSPost2010PropOp52
 70
     0
102
RTVSPost2010Prop53
 90
        2
102
RTVSPost2010PropOp53
 70
     1
102
RTVSPost2010Prop54
  1
strokes_ogs.tif
102
RTVSPost2010PropOp54
 70
     1
102
RTVSPost2010Prop55
280
     0
102
RTVSPost2010PropOp55
 70
     1
102
RTVSPost2010Prop56
140
1.0
102
RTVSPost2010PropOp56
 70
     1
102
RTVSPost2010Prop57
140
1.0
102
RTVSPost2010PropOp57
 70
     1
102
RTVSPropertyOp0
 70
     1
102
RTVSPropertyOp1
 70
     1
102
RTVSPropertyOp2
 70
     1
102
RTVSPropertyOp3
 70
     1
102
RTVSPropertyOp4
 70
     1
102
RTVSPropertyOp5
 70
     1
102
RTVSPropertyOp6
 70
     1
102
RTVSPropertyOp7
 70
     1
102
RTVSPropertyOp8
 70
     1
102
RTVSPropertyOp9
 70
     1
102
RTVSPropertyOp10
 70
     1
102
RTVSPropertyOp11
 70
     1
102
RTVSPropertyOp12
 70
     1
102
RTVSPropertyOp13
 70
     1
102
RTVSPropertyOp14
 70
     1
102
RTVSPropertyOp15
 70
     1
102
RTVSPropertyOp16
 70
     1
102
RTVSPropertyOp17
 70
     1
102
RTVSPropertyOp18
 70
     1
102
RTVSPropertyOp19
 70
     1
102
RTVSPropertyOp20
 70
     1
102
RTVSPropertyOp21
 70
     1
102
RTVSPropertyOp22
 70
     1
102
RTVSPropertyOp23
 70
     1
102
RTVSPropertyOp24
 70
     1
102
RTVSPropertyOp25
 70
     1
102
RTVSPropertyOp26
 70
     1
102
RTVSPropertyOp27
 70
     1
102
RTVSPropertyOp28
 70
     1
102
RTVSPropertyOp29
 70
     1
102
RTVSPropertyOp30
 70
     1
102
RTVSPropertyOp31
 70
     1
102
RTVSPropertyOp32
 70
     1
102
RTVSPropertyOp33
 70
     1
102
RTVSPropertyOp34
 70
     1
102
RTVSPropertyOp35
 70
     1
102
RTVSPropertyOp36
 70
     1
102
RTVSPropertyOp37
 70
     1
102
RTVSPropertyOp38
 70
     1
102
RTVSPropertyOp39
 70
     1
102
RTVSPropertyOp40
 70
     1
102
RTVSPropertyOp41
 70
     1
102
RTVSPropertyOp42
 70
     1
102
RTVSPropertyOp43
 70
     1
102
RTVSPropertyOp44
 70
     1
102
RTVSPropertyOp45
 70
     1
102
RTVSPropertyOp46
 70
     1
102
RTVSPropertyOp47
 70
     1
102
RTVSPropertyOp48
 70
     1
102
RTVSPropertyOp49
 70
     1
102
RTVSPropertyOp50
 70
     1
102
RTVSPropertyOp51
 70
     0
102
RTVSPropertyOp52
 70
     0
102
RTVSPropertyOp53
 70
     1
102
RTVSPropertyOp54
 70
     1
102
RTVSPropertyOp55
 70
     1
102
RTVSPropertyOp56
 70
     1
102
RTVSPropertyOp57
 70
     1
102
RTVSPropertyOp58
 70
     1
102
RTVSPropertyOp59
 70
     1
102
RTVSPropertyOp60
 70
     1
102
RTVSPropertyOp61
 70
     1
102
RTVSPropertyOp62
 70
     1
  0
ENDSEC
  0
EOF
