0
SECTION
2
HEADER
9
$ACADVER
1
AC1015
9
$DWGCODEPAGE
3
ANSI_1252
9
$HANDSEED
5
211
9
$ANGBASE
50
0
9
$ANGDIR
70
0
9
$ATTMODE
70
1
9
$AUNITS
70
0
9
$AUPREC
70
0
9
$CECOLOR
62
256
9
$CELTSCALE
40
1
9
$CELTYPE
6
ByLayer
9
$CELWEIGHT
370
18
9
$CLAYER
8
0
9
$CMLJUST
70
0
9
$CMLSCALE
40
1
9
$CMLSTYLE
2
Standard
9
$DIMSTYLE
2
Standard
9
$TEXTSIZE
40
0.2
9
$TEXTSTYLE
7
Standard
9
$LUNITS
70
2
9
$LUPREC
70
4
9
$EXTNAMES
290
1
9
$INSUNITS
70
4
9
$LTSCALE
40
1
9
$LWDISPLAY
290
1
9
$PDMODE
70
0
9
$PDSIZE
40
0
9
$PLINEGEN
70
0
0
ENDSEC
0
SECTION
2
CLASSES
0
CLASS
1
RASTERVARIABLES
2
AcDbRasterVariables
3
ISM
90
0
280
0
281
0
0
ENDSEC
0
SECTION
2
TABLES
0
TABLE
2
VPORT
5
207
100
AcDbSymbolTable
0
VPORT
5
1
100
AcDbSymbolTableRecord
100
AcDbViewportTableRecord
2
*Active
70
0
10
0
20
0
11
1
21
1
12
-1
22
1
13
0
23
0
14
0.5
24
0.5
15
10
25
10
16
0
26
0
36
1
17
0
27
0
37
0
0
ENDTAB
0
TABLE
2
LTYPE
5
208
100
AcDbSymbolTable
0
LTYPE
5
14
100
AcDbSymbolTableRecord
100
AcDbLinetypeTableRecord
70
0
2
ByBlock
3

72
65
73
0
40
0
0
LTYPE
5
15
100
AcDbSymbolTableRecord
100
AcDbLinetypeTableRecord
70
0
2
ByLayer
3

72
65
73
0
40
0
0
LTYPE
5
16
100
AcDbSymbolTableRecord
100
AcDbLinetypeTableRecord
70
0
2
CONTINUOUS
3
Solid line
72
65
73
0
40
0
0
LTYPE
5
6A
100
AcDbSymbolTableRecord
100
AcDbLinetypeTableRecord
70
0
2
CENTER
3
____ _ ____ _ ____ _ ____
72
65
73
4
40
47.5
49
22
74
0
49
-8.5
74
0
49
8.5
74
0
49
-8.5
74
0
0
LTYPE
5
6B
100
AcDbSymbolTableRecord
100
AcDbLinetypeTableRecord
70
0
2
DASHED
3
__ __ __ __ __ __ __ __ __
72
65
73
2
40
25.72
49
12.86
74
0
49
-12.86
74
0
0
ENDTAB
0
TABLE
2
LAYER
5
209
100
AcDbSymbolTable
0
LAYER
5
10
100
AcDbSymbolTableRecord
100
AcDbLayerTableRecord
2
0
70
0
62
7
6
CONTINUOUS
290
1
370
-3
390
0
0
LAYER
5
6D
100
AcDbSymbolTableRecord
100
AcDbLayerTableRecord
2
80
70
0
62
-6
6
CONTINUOUS
290
1
370
-3
390
0
0
LAYER
5
6F
100
AcDbSymbolTableRecord
100
AcDbLayerTableRecord
2
81
70
0
62
-3
6
CONTINUOUS
290
1
370
-3
390
0
0
LAYER
5
71
100
AcDbSymbolTableRecord
100
AcDbLayerTableRecord
2
1
70
0
62
4
6
CONTINUOUS
290
1
370
-3
390
0
0
LAYER
5
C0
100
AcDbSymbolTableRecord
100
AcDbLayerTableRecord
2
4
70
0
62
-2
6
CENTER
290
1
370
-3
390
0
0
LAYER
5
15D
100
AcDbSymbolTableRecord
100
AcDbLayerTableRecord
2
2
70
0
62
7
6
CONTINUOUS
290
1
370
-3
390
0
0
LAYER
5
1f3
100
AcDbSymbolTableRecord
100
AcDbLayerTableRecord
2
SK1
70
0
62
4
6
CONTINUOUS
290
1
370
-3
390
0
0
LAYER
5
1f4
100
AcDbSymbolTableRecord
100
AcDbLayerTableRecord
2
SK4
70
0
62
2
6
CENTER
290
1
370
-3
390
0
0
LAYER
5
1f5
100
AcDbSymbolTableRecord
100
AcDbLayerTableRecord
2
SK6
70
0
62
5
6
CONTINUOUS
290
1
370
-3
390
0
0
LAYER
5
1f6
100
AcDbSymbolTableRecord
100
AcDbLayerTableRecord
2
SK2
70
0
62
7
6
CONTINUOUS
290
1
370
-3
390
0
0
ENDTAB
0
TABLE
2
STYLE
5
20a
100
AcDbSymbolTable
0
STYLE
5
11
100
AcDbSymbolTableRecord
100
AcDbTextStyleTableRecord
2
Standard
3
txt
70
0
71
0
40
0
41
1
42
0
50
0
0
STYLE
5
156
100
AcDbSymbolTableRecord
100
AcDbTextStyleTableRecord
2
iso_b_vert
3
simplex.shx
70
0
71
0
40
0
41
1
42
0
50
0
0
STYLE
5
157
100
AcDbSymbolTableRecord
100
AcDbTextStyleTableRecord
2
DWGDirectTextStyle
3
simplex
70
0
71
0
40
0
41
1
42
0
50
0
0
ENDTAB
0
TABLE
2
DIMSTYLE
5
20b
100
AcDbSymbolTable
100
AcDbDimStyleTable
0
DIMSTYLE
105
27
100
AcDbSymbolTableRecord
100
AcDbDimStyleTableRecord
2
Standard
70
0
3
<>
41
0.18
42
0.0625
44
0.18
140
0.18
147
0.09
73
0
74
0
77
1
271
2
275
0
278
52
280
0
340
11
0
ENDTAB
0
TABLE
2
VIEW
5
20c
100
AcDbSymbolTable
0
ENDTAB
0
TABLE
2
UCS
5
20d
100
AcDbSymbolTable
0
ENDTAB
0
TABLE
2
APPID
5
20e
100
AcDbSymbolTable
0
APPID
5
12
100
AcDbSymbolTableRecord
100
AcDbRegAppTableRecord
2
ACAD
70
0
0
ENDTAB
0
TABLE
2
BLOCK_RECORD
5
20f
100
AcDbSymbolTable
0
BLOCK_RECORD
5
1F
100
AcDbSymbolTableRecord
100
AcDbBlockTableRecord
2
*Model_Space
340
0
70
0
0
BLOCK_RECORD
5
1B
100
AcDbSymbolTableRecord
100
AcDbBlockTableRecord
2
*Paper_Space
340
0
70
0
0
BLOCK_RECORD
5
23
100
AcDbSymbolTableRecord
100
AcDbBlockTableRecord
2
*Paper_Space0
340
0
70
0
0
BLOCK_RECORD
5
159
100
AcDbSymbolTableRecord
100
AcDbBlockTableRecord
2
DimnDraft3D11
340
0
70
0
0
BLOCK_RECORD
5
168
100
AcDbSymbolTableRecord
100
AcDbBlockTableRecord
2
DimnDraft3D2
340
0
70
0
0
BLOCK_RECORD
5
177
100
AcDbSymbolTableRecord
100
AcDbBlockTableRecord
2
_CLOSED
340
0
70
0
0
BLOCK_RECORD
5
17E
100
AcDbSymbolTableRecord
100
AcDbBlockTableRecord
2
DimnDraft3D3
340
0
70
0
0
BLOCK_RECORD
5
18C
100
AcDbSymbolTableRecord
100
AcDbBlockTableRecord
2
DimnDraft3D4
340
0
70
0
0
ENDTAB
0
ENDSEC
0
SECTION
2
BLOCKS
0
BLOCK
5
20
100
AcDbEntity
8
0
100
AcDbBlockBegin
2
*Model_Space
70
0
10
0
20
0
30
0
3
*Model_Space
0
ENDBLK
5
21
100
AcDbEntity
8
0
100
AcDbBlockEnd
0
BLOCK
5
1C
100
AcDbEntity
8
0
100
AcDbBlockBegin
2
*Paper_Space
70
0
10
0
20
0
30
0
3
*Paper_Space
0
ENDBLK
5
1D
100
AcDbEntity
8
0
100
AcDbBlockEnd
0
BLOCK
5
24
100
AcDbEntity
8
0
100
AcDbBlockBegin
2
*Paper_Space0
70
0
10
0
20
0
30
0
3
*Paper_Space0
0
ENDBLK
5
25
100
AcDbEntity
8
0
100
AcDbBlockEnd
0
BLOCK
5
15A
100
AcDbEntity
8
0
100
AcDbBlockBegin
2
DimnDraft3D11
70
0
10
0
20
0
30
0
3
DimnDraft3D11
0
LINE
5
15C
100
AcDbEntity
8
2
62
256
6
ByLayer
370
25
48
1
60
0
100
AcDbLine
10
51.5875
20
0
30
0
11
77.425
21
0
31
0
39
0
210
0
220
0
230
1
0
LINE
5
15E
100
AcDbEntity
8
2
62
256
6
ByLayer
370
25
48
1
60
0
100
AcDbLine
10
61.5875
20
35
30
0
11
77.425
21
35
31
0
39
0
210
0
220
0
230
1
0
LINE
5
15F
100
AcDbEntity
8
2
62
256
6
ByLayer
370
25
48
1
60
0
100
AcDbLine
10
74.25
20
0
30
0
11
74.25
21
35
31
0
39
0
210
0
220
0
230
1
0
LINE
5
160
100
AcDbEntity
8
2
62
256
6
ByLayer
370
25
48
1
60
0
100
AcDbLine
10
74.25
20
0
30
0
11
73.399261
21
3.174997
31
0
39
0
210
0
220
0
230
1
0
LINE
5
161
100
AcDbEntity
8
2
62
256
6
ByLayer
370
25
48
1
60
0
100
AcDbLine
10
74.25
20
0
30
0
11
75.100739
21
3.175003
31
0
39
0
210
0
220
0
230
1
0
LINE
5
162
100
AcDbEntity
8
2
62
256
6
ByLayer
370
25
48
1
60
0
100
AcDbLine
10
73.399261
20
3.174997
30
0
11
75.100739
21
3.175003
31
0
39
0
210
0
220
0
230
1
0
LINE
5
163
100
AcDbEntity
8
2
62
256
6
ByLayer
370
25
48
1
60
0
100
AcDbLine
10
74.25
20
35
30
0
11
75.100739
21
31.825003
31
0
39
0
210
0
220
0
230
1
0
LINE
5
164
100
AcDbEntity
8
2
62
256
6
ByLayer
370
25
48
1
60
0
100
AcDbLine
10
74.25
20
35
30
0
11
73.399261
21
31.824997
31
0
39
0
210
0
220
0
230
1
0
LINE
5
165
100
AcDbEntity
8
2
62
256
6
ByLayer
370
25
48
1
60
0
100
AcDbLine
10
75.100739
20
31.825003
30
0
11
73.399261
21
31.824997
31
0
39
0
210
0
220
0
230
1
0
MTEXT
5
166
100
AcDbEntity
8
2
62
256
6
ByLayer
370
13
48
1
60
0
100
AcDbMText
10
73.125
20
15.936842
30
0
210
0
220
0
230
1
1
\W0.6740;35
40
4.5
41
0
44
1.084337
50
90
71
7
72
5
7
iso_b_vert
0
ENDBLK
5
15B
100
AcDbEntity
8
0
100
AcDbBlockEnd
0
BLOCK
5
174
100
AcDbEntity
8
0
100
AcDbBlockBegin
2
DimnDraft3D2
70
0
10
0
20
0
30
0
3
DimnDraft3D2
0
MTEXT
5
169
100
AcDbEntity
8
SK2
62
256
6
ByLayer
370
13
48
1
60
0
100
AcDbMText
10
-40.875
20
-1.563158
30
0
210
0
220
0
230
1
1
\W0.6740;50
40
4.5
41
0
44
1.084337
50
90
71
7
72
5
7
iso_b_vert
0
LINE
5
16B
100
AcDbEntity
8
SK2
62
256
6
ByLayer
370
13
48
1
60
0
100
AcDbLine
10
-1.5875
20
25
30
0
11
-42.925
21
25
31
0
39
0
210
0
220
0
230
1
0
LINE
5
16C
100
AcDbEntity
8
SK2
62
256
6
ByLayer
370
13
48
1
60
0
100
AcDbLine
10
-1.5875
20
-25
30
0
11
-42.925
21
-25
31
0
39
0
210
0
220
0
230
1
0
LINE
5
16D
100
AcDbEntity
8
SK2
62
256
6
ByLayer
370
13
48
1
60
0
100
AcDbLine
10
-39.75
20
25
30
0
11
-39.75
21
-25
31
0
39
0
210
0
220
0
230
1
0
LINE
5
16E
100
AcDbEntity
8
SK2
62
256
6
ByLayer
370
13
48
1
60
0
100
AcDbLine
10
-39.75
20
25
30
0
11
-38.899261
21
21.825003
31
0
39
0
210
0
220
0
230
1
0
LINE
5
16F
100
AcDbEntity
8
SK2
62
256
6
ByLayer
370
13
48
1
60
0
100
AcDbLine
10
-39.75
20
25
30
0
11
-40.600739
21
21.824997
31
0
39
0
210
0
220
0
230
1
0
LINE
5
170
100
AcDbEntity
8
SK2
62
256
6
ByLayer
370
13
48
1
60
0
100
AcDbLine
10
-38.899261
20
21.825003
30
0
11
-40.600739
21
21.824997
31
0
39
0
210
0
220
0
230
1
0
LINE
5
171
100
AcDbEntity
8
SK2
62
256
6
ByLayer
370
13
48
1
60
0
100
AcDbLine
10
-39.75
20
-25
30
0
11
-40.600739
21
-21.825003
31
0
39
0
210
0
220
0
230
1
0
LINE
5
172
100
AcDbEntity
8
SK2
62
256
6
ByLayer
370
13
48
1
60
0
100
AcDbLine
10
-39.75
20
-25
30
0
11
-38.899261
21
-21.824997
31
0
39
0
210
0
220
0
230
1
0
LINE
5
173
100
AcDbEntity
8
SK2
62
256
6
ByLayer
370
13
48
1
60
0
100
AcDbLine
10
-40.600739
20
-21.825003
30
0
11
-38.899261
21
-21.824997
31
0
39
0
210
0
220
0
230
1
0
ENDBLK
5
175
100
AcDbEntity
8
0
100
AcDbBlockEnd
0
BLOCK
5
178
100
AcDbEntity
8
0
100
AcDbBlockBegin
2
_CLOSED
70
0
10
0
20
0
30
0
3
_CLOSED
0
LINE
5
17A
100
AcDbEntity
8
0
62
256
6
ByLayer
370
-2
48
1
60
0
100
AcDbLine
10
-1
20
0.166667
30
0
11
0
21
0
31
0
39
0
210
0
220
0
230
1
0
LINE
5
17B
100
AcDbEntity
8
0
62
256
6
ByLayer
370
-2
48
1
60
0
100
AcDbLine
10
0
20
0
30
0
11
-1
21
-0.166667
31
0
39
0
210
0
220
0
230
1
0
LINE
5
17C
100
AcDbEntity
8
0
62
256
6
ByLayer
370
-2
48
1
60
0
100
AcDbLine
10
-1
20
0.166667
30
0
11
-1
21
-0.166667
31
0
39
0
210
0
220
0
230
1
0
LINE
5
17D
100
AcDbEntity
8
0
62
256
6
ByLayer
370
-2
48
1
60
0
100
AcDbLine
10
0
20
0
30
0
11
-1
21
0
31
0
39
0
210
0
220
0
230
1
0
ENDBLK
5
179
100
AcDbEntity
8
0
100
AcDbBlockEnd
0
BLOCK
5
189
100
AcDbEntity
8
0
100
AcDbBlockBegin
2
DimnDraft3D3
70
0
10
0
20
0
30
0
3
DimnDraft3D3
0
MTEXT
5
17F
100
AcDbEntity
8
2
62
256
6
ByLayer
370
13
48
1
60
0
100
AcDbMText
10
28.436842
20
53.625
30
0
210
0
220
0
230
1
1
\W0.6740;60
40
4.5
41
0
44
1.084337
50
0
71
7
72
5
7
iso_b_vert
0
LINE
5
180
100
AcDbEntity
8
2
62
256
6
ByLayer
370
13
48
1
60
0
100
AcDbLine
10
60
20
36.5875
30
0
11
60
21
55.675
31
0
39
0
210
0
220
0
230
1
0
LINE
5
181
100
AcDbEntity
8
2
62
256
6
ByLayer
370
13
48
1
60
0
100
AcDbLine
10
0
20
26.5875
30
0
11
0
21
55.675
31
0
39
0
210
0
220
0
230
1
0
LINE
5
182
100
AcDbEntity
8
2
62
256
6
ByLayer
370
13
48
1
60
0
100
AcDbLine
10
60
20
52.5
30
0
11
0
21
52.5
31
0
39
0
210
0
220
0
230
1
0
LINE
5
183
100
AcDbEntity
8
2
62
256
6
ByLayer
370
13
48
1
60
0
100
AcDbLine
10
60
20
52.5
30
0
11
56.825003
21
51.649261
31
0
39
0
210
0
220
0
230
1
0
LINE
5
184
100
AcDbEntity
8
2
62
256
6
ByLayer
370
13
48
1
60
0
100
AcDbLine
10
60
20
52.5
30
0
11
56.824997
21
53.350739
31
0
39
0
210
0
220
0
230
1
0
LINE
5
185
100
AcDbEntity
8
2
62
256
6
ByLayer
370
13
48
1
60
0
100
AcDbLine
10
56.825003
20
51.649261
30
0
11
56.824997
21
53.350739
31
0
39
0
210
0
220
0
230
1
0
LINE
5
186
100
AcDbEntity
8
2
62
256
6
ByLayer
370
13
48
1
60
0
100
AcDbLine
10
0
20
52.5
30
0
11
3.174997
21
53.350739
31
0
39
0
210
0
220
0
230
1
0
LINE
5
187
100
AcDbEntity
8
2
62
256
6
ByLayer
370
13
48
1
60
0
100
AcDbLine
10
0
20
52.5
30
0
11
3.175003
21
51.649261
31
0
39
0
210
0
220
0
230
1
0
LINE
5
188
100
AcDbEntity
8
2
62
256
6
ByLayer
370
13
48
1
60
0
100
AcDbLine
10
3.174997
20
53.350739
30
0
11
3.175003
21
51.649261
31
0
39
0
210
0
220
0
230
1
0
ENDBLK
5
18A
100
AcDbEntity
8
0
100
AcDbBlockEnd
0
BLOCK
5
197
100
AcDbEntity
8
0
100
AcDbBlockBegin
2
DimnDraft3D4
70
0
10
0
20
0
30
0
3
DimnDraft3D4
0
MTEXT
5
18D
100
AcDbEntity
8
2
62
256
6
ByLayer
370
13
48
1
60
0
100
AcDbMText
10
46.396017
20
40.414082
30
0
210
0
220
0
230
1
1
\W0.8292;93%%d0'
40
4.5
41
0
44
1.084337
50
46.5000000000001
71
7
72
5
7
iso_b_vert
0
LINE
5
18E
100
AcDbEntity
8
2
62
256
6
ByLayer
370
13
48
1
60
0
100
AcDbLine
10
60
20
36.5875
30
0
11
60
21
50.658093
31
0
39
0
210
0
220
0
230
1
0
LINE
5
18F
100
AcDbEntity
8
2
62
256
6
ByLayer
370
13
48
1
60
0
100
AcDbLine
10
46.594459
20
34.340133
30
0
11
44.405996
21
34.225441
31
0
39
0
210
0
220
0
230
1
0
ARC
5
190
100
AcDbEntity
8
2
62
256
6
ByLayer
370
13
48
1
60
0
100
AcDbCircle
39
0
10
60
20
35.042688
30
0
40
12.440404684557
210
0
220
0
230
1
100
AcDbArc
50
90
51
183
0
LINE
5
191
100
AcDbEntity
8
2
62
256
6
ByLayer
370
13
48
1
60
0
100
AcDbLine
10
60
20
47.483093
30
0
11
56.885347
21
46.432713
31
0
39
0
210
0
220
0
230
1
0
LINE
5
192
100
AcDbEntity
8
2
62
256
6
ByLayer
370
13
48
1
60
0
100
AcDbLine
10
60
20
47.483093
30
0
11
56.777435
21
48.130764
31
0
39
0
210
0
220
0
230
1
0
LINE
5
193
100
AcDbEntity
8
2
62
256
6
ByLayer
370
13
48
1
60
0
100
AcDbLine
10
56.885347
20
46.432713
30
0
11
56.777435
21
48.130764
31
0
39
0
210
0
220
0
230
1
0
LINE
5
194
100
AcDbEntity
8
2
62
256
6
ByLayer
370
13
48
1
60
0
100
AcDbLine
10
47.576644
20
34.391607
30
0
11
46.761204
21
37.575853
31
0
39
0
210
0
220
0
230
1
0
LINE
5
195
100
AcDbEntity
8
2
62
256
6
ByLayer
370
13
48
1
60
0
100
AcDbLine
10
47.576644
20
34.391607
30
0
11
48.462577
21
37.556971
31
0
39
0
210
0
220
0
230
1
0
LINE
5
196
100
AcDbEntity
8
2
62
256
6
ByLayer
370
13
48
1
60
0
100
AcDbLine
10
46.761204
20
37.575853
30
0
11
48.462577
21
37.556971
31
0
39
0
210
0
220
0
230
1
0
ENDBLK
5
198
100
AcDbEntity
8
0
100
AcDbBlockEnd
0
ENDSEC
0
SECTION
2
ENTITIES
0
ARC
5
D8
100
AcDbEntity
8
1
62
256
6
ByLayer
370
18
48
1
60
0
100
AcDbCircle
39
0
10
12.965406
20
1.061158
30
0
40
4
210
0
220
0
230
1
100
AcDbArc
50
336.717804
51
348.141451
0
ARC
5
D9
100
AcDbEntity
8
1
62
256
6
ByLayer
370
18
48
1
60
0
100
AcDbCircle
39
0
10
-20.186138
20
25.8
30
0
40
0.8
210
0
220
0
230
-1
100
AcDbArc
50
195
51
270
0
ARC
5
DA
100
AcDbEntity
8
1
62
256
6
ByLayer
370
18
48
1
60
0
100
AcDbCircle
39
0
10
-20.186138
20
-25.8
30
0
40
0.8
210
0
220
0
230
-1
100
AcDbArc
50
90
51
125.659088
0
ARC
5
DB
100
AcDbEntity
8
1
62
256
6
ByLayer
370
18
48
1
60
0
100
AcDbCircle
39
0
10
50.612327
20
28.613699
30
0
40
2.3
210
0
220
0
230
1
100
AcDbArc
50
350.65118
51
358.052823
0
ARC
5
DC
100
AcDbEntity
8
SK1
62
256
6
ByLayer
370
18
48
1
60
0
100
AcDbCircle
39
0
10
0.6
20
-18.75
30
0
40
1.00000000000001
210
0
220
0
230
-1
100
AcDbArc
50
113.578178
51
126.869898
0
ARC
5
DD
100
AcDbEntity
8
SK1
62
256
6
ByLayer
370
18
48
1
60
0
100
AcDbCircle
39
0
10
0.6
20
18.75
30
0
40
1.00000000000001
210
0
220
0
230
-1
100
AcDbArc
50
233.130102
51
246.421822
0
ELLIPSE
5
DE
100
AcDbEntity
8
1
62
256
6
ByLayer
370
18
48
1
60
0
100
AcDbEllipse
10
44.930587
20
23.760729
30
0
11
-1.41836384932066
21
1.45579686372044
31
0
210
0
220
0
230
1
40
0.987534
41
0.246129575276505
42
1.81692590207141
0
ELLIPSE
5
DF
100
AcDbEntity
8
1
62
256
6
ByLayer
370
18
48
1
60
0
100
AcDbEllipse
10
17.078947
20
2.167588
30
0
11
0.0223533399804677
21
5.69994510067597
31
0
210
0
220
0
230
-1
40
0.085306
41
-2.10129995032846
42
0.924368346378362
0
ELLIPSE
5
E0
100
AcDbEntity
8
1
62
256
6
ByLayer
370
18
48
1
60
0
100
AcDbEllipse
10
44.681157
20
22.698264
30
0
11
1.39567650671223
21
-1.43251076387285
31
0
210
0
220
0
230
1
40
0.987534
41
-2.89546307831329
42
-2.82748001630097
0
ELLIPSE
5
E1
100
AcDbEntity
8
1
62
256
6
ByLayer
370
18
48
1
60
0
100
AcDbEllipse
10
47.1719
20
27.771371
30
0
11
-1.39567650671223
21
1.43251076387284
31
0
210
0
220
0
230
1
40
0.987534
41
0.246129575276511
42
0.635890308073994
0
ELLIPSE
5
E2
100
AcDbEntity
8
1
62
256
6
ByLayer
370
18
48
1
60
0
100
AcDbEllipse
10
45.335072
20
23.335365
30
0
11
1.34858002398505
21
-1.3841713255268
31
0
210
0
220
0
230
1
40
0.987534
41
-1.55263789438062
42
0.246129575276513
0
ELLIPSE
5
E3
100
AcDbEntity
8
1
62
256
6
ByLayer
370
18
48
1
60
0
100
AcDbEllipse
10
44.534589
20
22.555465
30
0
11
-1.30033177823262
21
1.33464972718654
31
0
210
0
220
0
230
1
40
0.987534
41
0.246129575276514
42
0.268611506430997
0
ELLIPSE
5
E4
100
AcDbEntity
8
1
62
256
6
ByLayer
370
18
48
1
60
0
100
AcDbEllipse
10
-1.056258
20
0
30
0
11
11.7092723497275
21
24.6771864409378
31
0
210
0
220
0
230
-1
40
0.341999
41
0.167213071908975
42
1.08183270048926
0
ELLIPSE
5
E5
100
AcDbEntity
8
1
62
256
6
ByLayer
370
18
48
1
60
0
100
AcDbEllipse
10
48.025445
20
24.32577
30
0
11
0.0958602922545054
21
0.155667897648708
31
0
210
0
220
0
230
-1
40
0.022144
41
3.01106452656029
42
-1.68968892548981
0
ELLIPSE
5
E6
100
AcDbEntity
8
1
62
256
6
ByLayer
370
18
48
1
60
0
100
AcDbEllipse
10
18.237443
20
0
30
0
11
-1.53075794227797E-15
21
25
31
0
210
0
220
0
230
-1
40
0.087489
41
-2.78822953818749
42
-0.353363115402314
0
ELLIPSE
5
E7
100
AcDbEntity
8
1
62
256
6
ByLayer
370
18
48
1
60
0
100
AcDbEllipse
10
22.696821
20
57.127018
30
0
11
0.459413454324975
21
-36.6485921670695
31
0
210
1.60974432551434E-15
220
8.95735615968565E-17
230
1
40
0.109136
41
-0.425231084538989
42
-0.114361208820267
0
ELLIPSE
5
E8
100
AcDbEntity
8
1
62
256
6
ByLayer
370
18
48
1
60
0
100
AcDbEllipse
10
42.969222
20
23.55349
30
0
11
-0.127932668372599
21
0.0783149561901601
31
0
210
0
220
0
230
1
40
0.152664
41
1.30648049219753
42
1.53197899149798
0
ELLIPSE
5
E9
100
AcDbEntity
8
1
62
256
6
ByLayer
370
18
48
1
60
0
100
AcDbEllipse
10
21.056258
20
0
30
0
11
11.7092723497286
21
24.6771864409391
31
0
210
0
220
0
230
-1
40
0.341999
41
-2.97437958168082
42
-2.05975995310057
0
ELLIPSE
5
EA
100
AcDbEntity
8
1
62
256
6
ByLayer
370
18
48
1
60
0
100
AcDbEllipse
10
21.056258
20
0
30
0
11
11.7092723497283
21
-24.6771864409387
31
0
210
0
220
0
230
-1
40
0.341999
41
2.05975995310056
42
2.97437958168082
0
ELLIPSE
5
EB
100
AcDbEntity
8
1
62
256
6
ByLayer
370
18
48
1
60
0
100
AcDbEllipse
10
17.078947
20
2.167588
30
0
11
0.0223533399806466
21
5.69994510067126
31
0
210
0
220
0
230
-1
40
0.085306
41
2.12534494944314
42
-3.07766853435356
0
ELLIPSE
5
EC
100
AcDbEntity
8
1
62
256
6
ByLayer
370
18
48
1
60
0
100
AcDbEllipse
10
-1.056258
20
0
30
0
11
11.7092723497275
21
-24.6771864409378
31
0
210
0
220
0
230
-1
40
0.341999
41
-1.08183270048927
42
-0.167213071908975
0
ELLIPSE
5
ED
100
AcDbEntity
8
1
62
256
6
ByLayer
370
18
48
1
60
0
100
AcDbEllipse
10
48.277364
20
29.577219
30
0
11
-1.39567650671222
21
1.43251076387284
31
0
210
0
220
0
230
1
40
0.987534
41
-0.143631157520962
42
0.246129575276514
0
ELLIPSE
5
EE
100
AcDbEntity
8
1
62
256
6
ByLayer
370
18
48
1
60
0
100
AcDbEllipse
10
44.066695
20
25.016898
30
0
11
0.553909113601414
21
-0.568527709412035
31
0
210
0
220
0
230
1
40
0.987534
41
-2.25998540663936
42
-0.713801513320357
0
ELLIPSE
5
EF
100
AcDbEntity
8
1
62
256
6
ByLayer
370
18
48
1
60
0
100
AcDbEllipse
10
51.370531
20
29.352407
30
0
11
-1.3293818726434
21
1.36446650258888
31
0
210
0
220
0
230
1
40
0.987534
41
-2.94097144768561
42
-2.6122823041085
0
ELLIPSE
5
F0
100
AcDbEntity
8
1
62
256
6
ByLayer
370
18
48
1
60
0
100
AcDbEllipse
10
51.370531
20
29.352407
30
0
11
-1.3293818726434
21
1.36446650258888
31
0
210
0
220
0
230
1
40
0.987534
41
-0.715644076794147
42
-0.200619193829607
0
ELLIPSE
5
F1
100
AcDbEntity
8
1
62
256
6
ByLayer
370
18
48
1
60
0
100
AcDbEllipse
10
53.945824
20
26.74105
30
0
11
0.837405904027335
21
-0.859506458323707
31
0
210
0
220
0
230
1
40
0.987534
41
-0.233835969021924
42
4.61459182901279E-06
0
ELLIPSE
5
F2
100
AcDbEntity
8
1
62
256
6
ByLayer
370
18
48
1
60
0
100
AcDbEllipse
10
51.711024
20
30.019098
30
0
11
1.32589268137661
21
-1.3608852256792
31
0
210
0
220
0
230
1
40
0.987534
41
-1.35785663140781
42
0.423977161123641
0
ELLIPSE
5
F3
100
AcDbEntity
8
1
62
256
6
ByLayer
370
18
48
1
60
0
100
AcDbEllipse
10
51.181127
20
29.502826
30
0
11
-1.32589268137661
21
1.3608852256792
31
0
210
0
220
0
230
1
40
0.987534
41
3.05967268255671
42
3.14159001299818
0
ELLIPSE
5
F4
100
AcDbEntity
8
1
62
256
6
ByLayer
370
18
48
1
60
0
100
AcDbEllipse
10
50.657425
20
28.657637
30
0
11
1.58056898263115
21
-1.62228286409748
31
0
210
0
220
0
230
1
40
0.987534
41
0.615823014003984
42
0.748171794884025
0
ELLIPSE
5
F5
100
AcDbEntity
8
1
62
256
6
ByLayer
370
18
48
1
60
0
100
AcDbEllipse
10
39.9632
20
28.045733
30
0
11
0.903700538096165
21
-0.927550719607667
31
0
210
0
220
0
230
1
40
0.987534
41
0.184520620402686
42
0.804690360736422
0
ELLIPSE
5
F6
100
AcDbEntity
8
1
62
256
6
ByLayer
370
18
48
1
60
0
100
AcDbEllipse
10
39.9632
20
28.045733
30
0
11
0.903700538096165
21
-0.927550719607667
31
0
210
0
220
0
230
1
40
0.987534
41
0.804690360736422
42
2.88118484663025
0
ELLIPSE
5
F7
100
AcDbEntity
8
1
62
256
6
ByLayer
370
18
48
1
60
0
100
AcDbEllipse
10
40.06467
20
28.144593
30
0
11
-0.903700538096166
21
0.927550719607666
31
0
210
0
220
0
230
1
40
0.987534
41
-0.423856761591219
42
-0.203567902848555
0
ELLIPSE
5
F8
100
AcDbEntity
8
1
62
256
6
ByLayer
370
18
48
1
60
0
100
AcDbEllipse
10
40.06467
20
28.144593
30
0
11
-0.903700538096166
21
0.927550719607666
31
0
210
0
220
0
230
1
40
0.987534
41
-3.04015723248269
42
-2.95851502728317
0
ELLIPSE
5
F9
100
AcDbEntity
8
1
62
256
6
ByLayer
370
18
48
1
60
0
100
AcDbEllipse
10
16.385349
20
1.981029
30
0
11
0.476701332565738
21
-1.7723036810321
31
0
210
0
220
0
230
1
40
0.084186
41
0.164441546650738
42
1.44699798603381
0
ELLIPSE
5
FA
100
AcDbEntity
8
1
62
256
6
ByLayer
370
18
48
1
60
0
100
AcDbEllipse
10
16.719377
20
2.070874
30
0
11
0.450259565784295
21
-1.67399717882973
31
0
210
0
220
0
230
1
40
0.084186
41
0
42
2.12784028004087
0
ELLIPSE
5
FB
100
AcDbEntity
8
1
62
256
6
ByLayer
370
18
48
1
60
0
100
AcDbEllipse
10
17.163554
20
2.190345
30
0
11
-0.519482221385741
21
1.9313565754837
31
0
210
0
220
0
230
1
40
0.084186
41
3.09280198343593
42
-2.63754786930169E-15
0
ELLIPSE
5
FC
100
AcDbEntity
8
1
62
256
6
ByLayer
370
18
48
1
60
0
100
AcDbEllipse
10
19.955288
20
2.941246
30
0
11
0.51948222138574
21
-1.9313565754837
31
0
210
0
220
0
230
1
40
0.084186
41
0
42
3.14159216320593
0
ELLIPSE
5
FD
100
AcDbEntity
8
1
62
256
6
ByLayer
370
18
48
1
60
0
100
AcDbEllipse
10
20.147738
20
2.993009
30
0
11
-0.467533999247167
21
1.73822091793533
31
0
210
0
220
0
230
1
40
0.084186
41
-3.05706413675321
42
-0.0846243017047633
0
ELLIPSE
5
FE
100
AcDbEntity
8
1
62
256
6
ByLayer
370
18
48
1
60
0
100
AcDbEllipse
10
50.778625
20
28.77572
30
0
11
1.57013607005125
21
-1.61157460935695
31
0
210
0
220
0
230
1
40
0.987534
41
2.37804372805655
42
2.55407115406886
0
ELLIPSE
5
FF
100
AcDbEntity
8
1
62
256
6
ByLayer
370
18
48
1
60
0
100
AcDbEllipse
10
50.778625
20
28.77572
30
0
11
1.57013607005125
21
-1.61157460935695
31
0
210
0
220
0
230
1
40
0.987534
41
0.602411340147355
42
0.741001413981971
0
ELLIPSE
5
100
100
AcDbEntity
8
1
62
256
6
ByLayer
370
18
48
1
60
0
100
AcDbEllipse
10
59.211311
20
34.211053
30
0
11
-0.553909113601415
21
0.568527709412035
31
0
210
0
220
0
230
1
40
0.987534
41
-2.89546307831329
42
-0.713801513320353
0
ELLIPSE
5
101
100
AcDbEntity
8
1
62
256
6
ByLayer
370
18
48
1
60
0
100
AcDbEllipse
10
53.001209
20
26.384744
30
0
11
-0.837405904027336
21
0.859506458323706
31
0
210
0
220
0
230
1
40
0.987534
41
2.42779114026943
42
2.90775668456787
0
ELLIPSE
5
102
100
AcDbEntity
8
1
62
256
6
ByLayer
370
18
48
1
60
0
100
AcDbEllipse
10
50.81374
20
33.366345
30
0
11
-0.837405904027336
21
0.859506458323706
31
0
210
0
220
0
230
1
40
0.987534
41
-0.713801513320381
42
-0.233835969021934
0
ELLIPSE
5
103
100
AcDbEntity
8
1
62
256
6
ByLayer
370
18
48
1
60
0
100
AcDbEllipse
10
49.332181
20
32.486901
30
0
11
-0.837405904027336
21
0.859506458323706
31
0
210
0
220
0
230
1
40
0.987534
41
-0.233835969021927
42
0.246129575276509
0
ELLIPSE
5
104
100
AcDbEntity
8
1
62
256
6
ByLayer
370
18
48
1
60
0
100
AcDbEllipse
10
54.482768
20
27.264187
30
0
11
-0.837405904027336
21
0.859506458323706
31
0
210
0
220
0
230
1
40
0.987534
41
2.90775668456787
42
-2.89546307831327
0
ELLIPSE
5
105
100
AcDbEntity
8
1
62
256
6
ByLayer
370
18
48
1
60
0
100
AcDbEllipse
10
51.907475
20
29.875544
30
0
11
-1.3293818726434
21
1.36446650258888
31
0
210
0
220
0
230
1
40
0.987534
41
0
42
6.28318530717959
0
ELLIPSE
5
106
100
AcDbEntity
8
1
62
256
6
ByLayer
370
18
48
1
60
0
100
AcDbEllipse
10
44.603639
20
25.540035
30
0
11
-0.553909113601415
21
0.568527709412035
31
0
210
0
220
0
230
1
40
0.987534
41
0.246129575276502
42
2.42779114026944
0
ELLIPSE
5
107
100
AcDbEntity
8
1
62
256
6
ByLayer
370
18
48
1
60
0
100
AcDbEllipse
10
51.751042
20
29.723134
30
0
11
1.2386628997071
21
-1.27135330293715
31
0
210
0
220
0
230
1
40
0.987534
41
0.572617740167079
42
1.28099822694152
0
ELLIPSE
5
108
100
AcDbEntity
8
1
62
256
6
ByLayer
370
18
48
1
60
0
100
AcDbEllipse
10
51.784866
20
29.756088
30
0
11
-1.02931142370027
21
1.05647668835622
31
0
210
0
220
0
230
1
40
0.987534
41
-2.55387262478587
42
-1.87569671528512
0
ELLIPSE
5
109
100
AcDbEntity
8
1
62
256
6
ByLayer
370
18
48
1
60
0
100
AcDbEllipse
10
51.784866
20
29.756088
30
0
11
-1.02931142370027
21
1.05647668835622
31
0
210
0
220
0
230
1
40
0.987534
41
0.587720028803919
42
1.26589593830467
0
ELLIPSE
5
10A
100
AcDbEntity
8
1
62
256
6
ByLayer
370
18
48
1
60
0
100
AcDbEllipse
10
51.744847
20
30.052052
30
0
11
-1.11654120536978
21
1.14600861109828
31
0
210
0
220
0
230
1
40
0.987534
41
1.44365404764602
42
-2.7316307341272
0
ELLIPSE
5
10B
100
AcDbEntity
8
1
62
256
6
ByLayer
370
18
48
1
60
0
100
AcDbEllipse
10
51.824884
20
29.460124
30
0
11
-1.11654120536978
21
1.14600861109828
31
0
210
0
220
0
230
1
40
0.987534
41
-1.69793860594378
42
0.409961919462585
0
ELLIPSE
5
10C
100
AcDbEntity
8
1
62
256
6
ByLayer
370
18
48
1
60
0
100
AcDbEllipse
10
51.791061
20
29.42717
30
0
11
1.32589268137661
21
-1.3608852256792
31
0
210
0
220
0
230
1
40
0.987534
41
1.42963880598496
42
-2.71761549246615
0
ELLIPSE
5
10D
100
AcDbEntity
8
1
62
256
6
ByLayer
370
18
48
1
60
0
100
AcDbEllipse
10
40.435034
20
28.505435
30
0
11
-0.903700538096166
21
0.927550719607666
31
0
210
0
220
0
230
1
40
0.987534
41
-0.864119924892011
42
-0.423856761591217
0
ELLIPSE
5
10E
100
AcDbEntity
8
1
62
256
6
ByLayer
370
18
48
1
60
0
100
AcDbEllipse
10
40.435034
20
28.505435
30
0
11
-0.903700538096166
21
0.927550719607666
31
0
210
0
220
0
230
1
40
0.987534
41
-2.95851502728317
42
-2.51825186398443
0
ELLIPSE
5
10F
100
AcDbEntity
8
1
62
256
6
ByLayer
370
18
48
1
60
0
100
AcDbEllipse
10
40.435034
20
28.505435
30
0
11
-0.903700538096166
21
0.927550719607666
31
0
210
0
220
0
230
1
40
0.987534
41
1.23027517750321
42
1.67053834080197
0
ELLIPSE
5
110
100
AcDbEntity
8
1
62
256
6
ByLayer
370
18
48
1
60
0
100
AcDbEllipse
10
40.459274
20
28.529051
30
0
11
1.55966849625091
21
-1.6008307786279
31
0
210
0
220
0
230
1
40
0.987534
41
0
42
6.28318530717959
0
ELLIPSE
5
111
100
AcDbEntity
8
1
62
256
6
ByLayer
370
18
48
1
60
0
100
AcDbEllipse
10
40.06467
20
28.144593
30
0
11
-0.903700538096166
21
0.927550719607666
31
0
210
0
220
0
230
1
40
0.987534
41
-2.51825186398442
42
-1.9113174760866
0
ELLIPSE
5
112
100
AcDbEntity
8
1
62
256
6
ByLayer
370
18
48
1
60
0
100
AcDbEllipse
10
40.435034
20
28.505435
30
0
11
-0.903700538096166
21
0.927550719607666
31
0
210
0
220
0
230
1
40
0.987534
41
2.27747272869981
42
2.71773589199856
0
ELLIPSE
5
113
100
AcDbEntity
8
1
62
256
6
ByLayer
370
18
48
1
60
0
100
AcDbEllipse
10
40.459274
20
28.529051
30
0
11
1.16356916980591
21
-1.19427772284
31
0
210
0
220
0
230
1
40
0.987534
41
0
42
6.28318530717959
0
ELLIPSE
5
114
100
AcDbEntity
8
1
62
256
6
ByLayer
370
18
48
1
60
0
100
AcDbEllipse
10
40.06467
20
28.144593
30
0
11
-0.903700538096166
21
0.927550719607666
31
0
210
0
220
0
230
1
40
0.987534
41
-1.47105431278782
42
-0.864119924890007
0
ELLIPSE
5
115
100
AcDbEntity
8
1
62
256
6
ByLayer
370
18
48
1
60
0
100
AcDbEllipse
10
40.373025
20
28.44502
30
0
11
2.09351476006834
21
-2.14876614580927
31
0
210
0
220
0
230
1
40
0.987534
41
0
42
6.28318530717959
0
ELLIPSE
5
116
100
AcDbEntity
8
1
62
256
6
ByLayer
370
18
48
1
60
0
100
AcDbEllipse
10
40.435034
20
28.505435
30
0
11
-0.903700538096166
21
0.927550719607666
31
0
210
0
220
0
230
1
40
0.987534
41
0.183077626306615
42
0.623340789605369
0
ELLIPSE
5
117
100
AcDbEntity
8
1
62
256
6
ByLayer
370
18
48
1
60
0
100
AcDbEllipse
10
40.435034
20
28.505435
30
0
11
-0.903700538096166
21
0.927550719607666
31
0
210
0
220
0
230
1
40
0.987534
41
-1.91131747608658
42
-1.47105431278782
0
POINT
5
6C
100
AcDbEntity
8
80
62
256
6
ByLayer
370
18
48
1
60
0
100
AcDbPoint
10
0
20
0
30
0
39
0
210
0
220
0
230
1
50
360
0
POINT
5
6E
100
AcDbEntity
8
81
62
256
6
ByLayer
370
18
48
1
60
0
100
AcDbPoint
10
60
20
35
30
0
39
0
210
0
220
0
230
1
50
360
0
POINT
5
70
100
AcDbEntity
8
1
62
256
6
ByLayer
370
18
48
1
60
0
100
AcDbPoint
10
0
20
0
30
0
39
0
210
0
220
0
230
1
50
360
0
SPLINE
5
118
100
AcDbEntity
8
1
62
256
6
ByLayer
370
18
48
1
60
0
100
AcDbSpline
70
4
71
3
72
10
73
6
40
0
40
0
40
0
40
0
40
0.0718731223581618
40
0.507349420419526
40
1
40
1
40
1
40
1
41
1
10
16.9152912058398
20
0.310638245694434
30
0
41
1
10
16.9169138229705
20
0.313787171516736
30
0
41
1
10
16.9299864309609
20
0.335709603891274
30
0
41
1
10
16.9954382630877
20
0.389006529396198
30
0
41
1
10
17.0604691564764
20
0.402883780909065
30
0
41
1
10
17.1018718839037
20
0.404965947344294
30
0
0
SPLINE
5
119
100
AcDbEntity
8
SK1
62
256
6
ByLayer
370
18
48
1
60
0
100
AcDbSpline
70
4
71
2
72
6
73
3
40
0
40
0
40
0
40
1
40
1
40
1
41
1
10
-28.5
20
-16.8542724489282
30
0
41
1
10
-15.3499999999286
20
-17.1845422635703
30
0
41
1
10
-2.19999999999999
20
-17.5148116792767
30
0
0
SPLINE
5
11A
100
AcDbEntity
8
SK1
62
256
6
ByLayer
370
18
48
1
60
0
100
AcDbSpline
70
4
71
2
72
6
73
3
40
0
40
0
40
0
40
1
40
1
40
1
41
1
10
-2.20000000000002
20
17.5148117187522
30
0
41
1
10
-15.3499999999294
20
17.1845422725479
30
0
41
1
10
-28.5
20
16.854272429841
30
0
0
SPLINE
5
11B
100
AcDbEntity
8
SK1
62
256
6
ByLayer
370
18
48
1
60
0
100
AcDbSpline
70
4
71
3
72
13
73
9
40
0
40
0
40
0
40
0
40
0.239456135733025
40
0.368359721896544
40
0.499998983985277
40
0.631638415256071
40
0.760542467762382
40
1
40
1
40
1
40
1
41
1
10
-2.19999999999999
20
-17.520098551796
30
0
41
1
10
-2.19909198642199
20
-17.4940410756899
30
0
41
1
10
-2.19103284106865
20
-17.4566684913667
30
0
41
1
10
-2.16563592203264
20
-17.410449317548
30
0
41
1
10
-2.13886378679183
20
-17.3791677636995
30
0
41
1
10
-2.10627712749809
20
-17.3540003935064
30
0
41
1
10
-2.05884064234172
20
-17.3309565910454
30
0
41
1
10
-2.02111030873064
20
-17.3247843360228
30
0
41
1
10
-1.99503997793928
20
-17.3251859759625
30
0
0
SPLINE
5
11C
100
AcDbEntity
8
SK1
62
256
6
ByLayer
370
18
48
1
60
0
100
AcDbSpline
70
4
71
3
72
13
73
9
40
0
40
0
40
0
40
0
40
0.239457532283031
40
0.368361584804911
40
0.50000101608173
40
0.631640278165298
40
0.760543864313664
40
1
40
1
40
1
40
1
41
1
10
-1.99503997793931
20
17.3251861589552
30
0
41
1
10
-2.02111030872967
20
17.324784519015
30
0
41
1
10
-2.05884064233987
20
17.3309567740351
30
0
41
1
10
-2.10627712749675
20
17.3540005764862
30
0
41
1
10
-2.13886378679055
20
17.3791679466685
30
0
41
1
10
-2.1656359220317
20
17.4104495005038
30
0
41
1
10
-2.19103284106794
20
17.4566686743028
30
0
41
1
10
-2.19909198642128
20
17.4940412586114
30
0
41
1
10
-2.20000000000002
20
17.5200987347078
30
0
0
SPLINE
5
11D
100
AcDbEntity
8
SK1
62
256
6
ByLayer
370
18
48
1
60
0
100
AcDbSpline
70
4
71
2
72
6
73
3
40
0
40
0
40
0
40
1
40
1
40
1
41
1
10
-1.99503997793928
20
-17.3199593099743
30
0
41
1
10
-1.19500843340703
20
-17.340052552406
30
0
41
1
10
-0.394976888875277
20
-17.3601457933935
30
0
0
SPLINE
5
11E
100
AcDbEntity
8
SK1
62
256
6
ByLayer
370
18
48
1
60
0
100
AcDbSpline
70
4
71
2
72
6
73
3
40
0
40
0
40
0
40
1
40
1
40
1
41
1
10
-0.394976888875306
20
17.3601458189993
30
0
41
1
10
-1.19500843340705
20
17.3400525762132
30
0
41
1
10
-1.99503997793928
20
17.3199593319919
30
0
0
SPLINE
5
11F
100
AcDbEntity
8
SK1
62
256
6
ByLayer
370
18
48
1
60
0
100
AcDbSpline
70
4
71
2
72
6
73
3
40
0
40
0
40
0
40
1
40
1
40
1
41
1
10
-30
20
-15.9924794145163
30
0
41
1
10
-29.2499999991495
20
-16.4254650261933
30
0
41
1
10
-28.5
20
-16.8584504491481
30
0
0
SPLINE
5
120
100
AcDbEntity
8
SK1
62
256
6
ByLayer
370
18
48
1
60
0
100
AcDbSpline
70
4
71
2
72
6
73
3
40
0
40
0
40
0
40
1
40
1
40
1
41
1
10
-28.5
20
16.8584505716142
30
0
41
1
10
-29.2499999991496
20
16.4254651505507
30
0
41
1
10
-30
20
15.9924795407901
30
0
0
SPLINE
5
121
100
AcDbEntity
8
SK1
62
256
6
ByLayer
370
18
48
1
60
0
100
AcDbSpline
70
4
71
2
72
6
73
3
40
0
40
0
40
0
40
1
40
1
40
1
41
1
10
-0.394976888875277
20
-17.3596967958969
30
0
41
1
10
-0.305277226309698
20
-17.3671842624703
30
0
41
1
10
-0.25865874061563
20
-17.4310145299902
30
0
0
SPLINE
5
122
100
AcDbEntity
8
SK1
62
256
6
ByLayer
370
18
48
1
60
0
100
AcDbSpline
70
4
71
2
72
6
73
3
40
0
40
0
40
0
40
1
40
1
40
1
41
1
10
-0.258442643302402
20
17.4312381196179
30
0
41
1
10
-0.305123774552584
20
17.3672404580573
30
0
41
1
10
-0.394976888875306
20
17.3596982935394
30
0
0
SPLINE
5
123
100
AcDbEntity
8
SK1
62
256
6
ByLayer
370
18
48
1
60
0
100
AcDbSpline
70
4
71
3
72
26
73
22
40
0
40
0
40
0
40
0
40
0.250000000000001
40
0.250000000000001
40
0.500000000000001
40
0.500000000000001
40
0.625
40
0.625
40
0.749999999999998
40
0.749999999999998
40
0.812499999999999
40
0.812499999999999
40
0.875
40
0.875
40
0.90625
40
0.90625
40
0.9375
40
0.9375
40
0.96875
40
0.96875
40
1
40
1
40
1
40
1
41
1
10
-0.19999999999996
20
-6.10344849123027
30
0
41
1
10
-0.19999999999996
20
-6.03658343849219
30
0
41
1
10
-0.201307915401486
20
-5.96945919325967
30
0
41
1
10
-0.207636972094065
20
-5.8346088643938
30
0
41
1
10
-0.21257985055334
20
-5.76680281418172
30
0
41
1
10
-0.224951590332722
20
-5.66479408005202
30
0
41
1
10
-0.229904281870205
20
-5.6308003160577
30
0
41
1
10
-0.24252152347114
20
-5.5629053131494
30
0
41
1
10
-0.250117086737532
20
-5.52896458934296
30
0
41
1
10
-0.265414899342289
20
-5.47925984090531
30
0
41
1
10
-0.271171206812227
20
-5.4628674131271
30
0
41
1
10
-0.285126828250384
20
-5.43075649789989
30
0
41
1
10
-0.293370777796014
20
-5.41464883184736
30
0
41
1
10
-0.309754325583356
20
-5.39312762647262
30
0
41
1
10
-0.315906755851415
20
-5.38639867120835
30
0
41
1
10
-0.330433281773452
20
-5.37534138513308
30
0
41
1
10
-0.338822824507844
20
-5.37123289411582
30
0
41
1
10
-0.356328976513851
20
-5.36848804676438
30
0
41
1
10
-0.365355266428594
20
-5.36994612574296
30
0
41
1
10
-0.381274177460796
20
-5.37639293798046
30
0
41
1
10
-0.388439708709171
20
-5.38122846522199
30
0
41
1
10
-0.394976888875306
20
-5.38678189578178
30
0
0
SPLINE
5
124
100
AcDbEntity
8
SK1
62
256
6
ByLayer
370
18
48
1
60
0
100
AcDbSpline
70
4
71
3
72
286
73
282
40
0
40
0
40
0
40
0
40
0.0005417882292994
40
0.0040840381297264
40
0.0076262880301533
40
0.0111685379305803
40
0.0147107878310073
40
0.0182530377314343
40
0.0217952876318613
40
0.0253375375322882
40
0.0288797874327152
40
0.0324220373331422
40
0.0359642872335691
40
0.0395065371339961
40
0.04659103693485
40
0.050133286835277
40
0.053675536735704
40
0.057217786636131
40
0.0607600365365579
40
0.0678445363374119
40
0.0713867862378389
40
0.0749290361382659
40
0.0820135359391198
40
0.0855557858395467
40
0.0890980357399737
40
0.0961825355408276
40
0.0997247854412545
40
0.103267035341682
40
0.106809285242109
40
0.110351535142535
40
0.113893785042963
40
0.117436034943389
40
0.120978284843816
40
0.124520534744243
40
0.131605034545097
40
0.135147284445524
40
0.138689534345951
40
0.142231784246378
40
0.145774034146805
40
0.152858533947659
40
0.156400783848086
40
0.159943033748513
40
0.16348528364894
40
0.167027533549367
40
0.174112033350221
40
0.177654283250648
40
0.181196533151075
40
0.184738783051502
40
0.188281032951929
40
0.195365532752783
40
0.19890778265321
40
0.202450032553637
40
0.205992282454064
40
0.209534532354491
40
0.216619032155345
40
0.220161282055772
40
0.223703531956199
40
0.227245781856626
40
0.230788031757053
40
0.237872531557906
40
0.241414781458334
40
0.244957031358761
40
0.248499281259187
40
0.252041531159614
40
0.259126030960468
40
0.262668280860895
40
0.266210530761322
40
0.273295030562176
40
0.28037953036303
40
0.283921780263457
40
0.287464030163884
40
0.294548529964738
40
0.298090779865165
40
0.301633029765592
40
0.305175279666019
40
0.308717529566446
40
0.312259779466873
40
0.3158020293673
40
0.322886529168154
40
0.329971028969008
40
0.333513278869435
40
0.337055528769862
40
0.340597778670289
40
0.344140028570716
40
0.347682278471143
40
0.35122452837157
40
0.358309028172424
40
0.365393527973278
40
0.372478027774132
40
0.376020277674558
40
0.379562527574985
40
0.383104777475412
40
0.386647027375839
40
0.390189277276266
40
0.393731527176693
40
0.39727377707712
40
0.400816026977547
40
0.404358276877974
40
0.407900526778401
40
0.411442776678828
40
0.414985026579255
40
0.418527276479682
40
0.422069526380109
40
0.425611776280536
40
0.429154026180963
40
0.43269627608139
40
0.434467401031603
40
0.436238525981817
40
0.43800965093203
40
0.439780775882244
40
0.443323025782671
40
0.446865275683098
40
0.448636400633311
40
0.450407525583525
40
0.452178650533738
40
0.453949775483952
40
0.455720900434165
40
0.457492025384379
40
0.461034275284806
40
0.462805400235019
40
0.464576525185233
40
0.466347650135446
40
0.46811877508566
40
0.469889900035873
40
0.471661024986087
40
0.4734321499363
40
0.475203274886514
40
0.476974399836727
40
0.478745524786941
40
0.480516649737154
40
0.482287774687368
40
0.484058899637581
40
0.485830024587795
40
0.487601149538008
40
0.489372274488222
40
0.491143399438435
40
0.492914524388649
40
0.494685649338862
40
0.496456774289076
40
0.498227899239289
40
0.499999024189502
40
0.501770149139716
40
0.50354127408993
40
0.505312399040143
40
0.507083523990357
40
0.50885464894057
40
0.510625773890783
40
0.512396898840997
40
0.514168023791211
40
0.515939148741424
40
0.517710273691637
40
0.519481398641851
40
0.521252523592064
40
0.523023648542278
40
0.524794773492491
40
0.526565898442705
40
0.528337023392918
40
0.530108148343132
40
0.531879273293345
40
0.533650398243559
40
0.535421523193772
40
0.537192648143986
40
0.538963773094199
40
0.540734898044413
40
0.542506022994626
40
0.54427714794484
40
0.546048272895053
40
0.54959052279548
40
0.551361647745694
40
0.553132772695907
40
0.556675022596334
40
0.560217272496761
40
0.561988397446975
40
0.563759522397188
40
0.565530647347402
40
0.567301772297615
40
0.570844022198042
40
0.574386272098469
40
0.577928521998896
40
0.581470771899323
40
0.58501302179975
40
0.588555271700177
40
0.592097521600604
40
0.595639771501031
40
0.599182021401458
40
0.602724271301885
40
0.606266521202312
40
0.609808771102739
40
0.613351021003166
40
0.616893270903593
40
0.62043552080402
40
0.623977770704447
40
0.627520020604874
40
0.634604520405727
40
0.641689020206581
40
0.648773520007435
40
0.652315769907862
40
0.655858019808289
40
0.659400269708716
40
0.662942519609143
40
0.66648476950957
40
0.670027019409997
40
0.677111519210851
40
0.684196019011705
40
0.687738268912132
40
0.691280518812559
40
0.694822768712986
40
0.698365018613413
40
0.70190726851384
40
0.705449518414267
40
0.712534018215121
40
0.716076268115548
40
0.719618518015975
40
0.726703017816829
40
0.733787517617683
40
0.73732976751811
40
0.740872017418537
40
0.747956517219391
40
0.751498767119818
40
0.755041017020245
40
0.758583266920671
40
0.762125516821099
40
0.769210016621953
40
0.772752266522379
40
0.776294516422806
40
0.779836766323234
40
0.78337901622366
40
0.790463516024514
40
0.794005765924941
40
0.797548015825368
40
0.801090265725795
40
0.804632515626222
40
0.811717015427076
40
0.815259265327503
40
0.81880151522793
40
0.822343765128357
40
0.825886015028784
40
0.832970514829638
40
0.836512764730065
40
0.840055014630492
40
0.841826139580706
40
0.843597264530919
40
0.847139514431346
40
0.8542240142322
40
0.857766264132627
40
0.861308514033054
40
0.864850763933481
40
0.868393013833908
40
0.875477513634762
40
0.879019763535189
40
0.882562013435616
40
0.886104263336043
40
0.88964651323647
40
0.893188763136897
40
0.896731013037323
40
0.900273262937751
40
0.903815512838178
40
0.910900012639031
40
0.914442262539458
40
0.917984512439885
40
0.925069012240739
40
0.928611262141166
40
0.932153512041593
40
0.939238011842447
40
0.942780261742874
40
0.946322511643301
40
0.949864761543728
40
0.953407011444155
40
0.960491511245009
40
0.964033761145436
40
0.967576011045863
40
0.97111826094629
40
0.974660510846717
40
0.978202760747144
40
0.981745010647571
40
0.985287260547998
40
0.988829510448425
40
0.992371760348852
40
0.995914010249279
40
0.999456260149706
40
1
40
1
40
1
40
1
41
1
10
-30
20
15.9926520784928
30
0
41
1
10
-30
20
15.9925599371171
30
0
41
1
10
-30
20
15.9917953947809
30
0
41
1
10
-30
20
15.9893850921089
30
0
41
1
10
-30
20
15.9836860314146
30
0
41
1
10
-30
20
15.9756808210229
30
0
41
1
10
-30
20
15.9654018084481
30
0
41
1
10
-30
20
15.9528811264941
30
0
41
1
10
-30
20
15.9381491278438
30
0
41
1
10
-30
20
15.9212355486336
30
0
41
1
10
-30
20
15.9021692443494
30
0
41
1
10
-30
20
15.8809772874923
30
0
41
1
10
-30
20
15.85768719628
30
0
41
1
10
-30
20
15.8237020449635
30
0
41
1
10
-30
20
15.786151572388
30
0
41
1
10
-30
20
15.7440467976174
30
0
41
1
10
-30
20
15.7106366986067
30
0
41
1
10
-30
20
15.6752710038507
30
0
41
1
10
-30
20
15.6253102414823
30
0
41
1
10
-30
20
15.5722298833996
30
0
41
1
10
-30
20
15.5146768571488
30
0
41
1
10
-30
20
15.454635155867
30
0
41
1
10
-30
20
15.3917322415494
30
0
41
1
10
-30
20
15.3243986601424
30
0
41
1
10
-30
20
15.2546726017927
30
0
41
1
10
-30
20
15.1823145630236
30
0
41
1
10
-30
20
15.1055630554725
30
0
41
1
10
-30
20
15.0465122402176
30
0
41
1
10
-30
20
14.985753516587
30
0
41
1
10
-30
20
14.9233034368069
30
0
41
1
10
-30
20
14.8591738020485
30
0
41
1
10
-30
20
14.7933781380804
30
0
41
1
10
-30
20
14.7259318150055
30
0
41
1
10
-30
20
14.6334478809413
30
0
41
1
10
-30
20
14.5388306139923
30
0
41
1
10
-30
20
14.4398724968665
30
0
41
1
10
-30
20
14.3643499358607
30
0
41
1
10
-30
20
14.2872489988171
30
0
41
1
10
-30
20
14.1819460940194
30
0
41
1
10
-30
20
14.0747689624993
30
0
41
1
10
-30
20
13.9632604256822
30
0
41
1
10
-30
20
13.8784200007502
30
0
41
1
10
-30
20
13.7920640526129
30
0
41
1
10
-30
20
13.674463030797
30
0
41
1
10
-30
20
13.5552283874056
30
0
41
1
10
-30
20
13.4316550911985
30
0
41
1
10
-30
20
13.337853067095
30
0
41
1
10
-30
20
13.2425907988595
30
0
41
1
10
-30
20
13.1131460860381
30
0
41
1
10
-30
20
12.9822967545723
30
0
41
1
10
-30
20
12.847084683004
30
0
41
1
10
-30
20
12.7446351532221
30
0
41
1
10
-30
20
12.6407746180399
30
0
41
1
10
-30
20
12.499887311655
30
0
41
1
10
-30
20
12.3578191289812
30
0
41
1
10
-30
20
12.2113468162578
30
0
41
1
10
-30
20
12.100530667573
30
0
41
1
10
-30
20
11.9883478761207
30
0
41
1
10
-30
20
11.836377249174
30
0
41
1
10
-30
20
11.6834503922585
30
0
41
1
10
-30
20
11.5260594948948
30
0
41
1
10
-30
20
11.4071324366749
30
0
41
1
10
-30
20
11.2868794886981
30
0
41
1
10
-30
20
11.1241532157817
30
0
41
1
10
-30
20
10.9607029988619
30
0
41
1
10
-30
20
10.7927086404326
30
0
41
1
10
-30
20
10.6229844866849
30
0
41
1
10
-30
20
10.4091173939315
30
0
41
1
10
-30
20
10.1909959678347
30
0
41
1
10
-30
20
10.0126979588287
30
0
41
1
10
-30
20
9.83272430289384
30
0
41
1
10
-30
20
9.65245023276196
30
0
41
1
10
-30
20
9.46744871362009
30
0
41
1
10
-30
20
9.32804093460692
30
0
41
1
10
-30
20
9.18740563851225
30
0
41
1
10
-30
20
9.0455543785921
30
0
41
1
10
-30
20
8.90249044231982
30
0
41
1
10
-30
20
8.70931958714519
30
0
41
1
10
-30
20
8.46674616603482
30
0
41
1
10
-30
20
8.22021686294167
30
0
41
1
10
-30
20
8.01906836645577
30
0
41
1
10
-30
20
7.86773085832667
30
0
41
1
10
-30
20
7.71524241280142
30
0
41
1
10
-30
20
7.56161298420645
30
0
41
1
10
-30
20
7.40685260452798
30
0
41
1
10
-30
20
7.19804202206524
30
0
41
1
10
-30
20
6.93651252502835
30
0
41
1
10
-30
20
6.61705894701072
30
0
41
1
10
-30
20
6.34834996432815
30
0
41
1
10
-30
20
6.12929373929515
30
0
41
1
10
-30
20
5.96484945115364
30
0
41
1
10
-30
20
5.7993974381898
30
0
41
1
10
-30
20
5.63295542814623
30
0
41
1
10
-30
20
5.46554083189747
30
0
41
1
10
-30
20
5.29717335727497
30
0
41
1
10
-30
20
5.12787591307327
30
0
41
1
10
-30
20
4.9576706384986
30
0
41
1
10
-30
20
4.78658071628462
30
0
41
1
10
-30
20
4.6146335506248
30
0
41
1
10
-30
20
4.44186113006069
30
0
41
1
10
-30
20
4.26829321973949
30
0
41
1
10
-30
20
4.09396155182321
30
0
41
1
10
-30
20
3.91890592173868
30
0
41
1
10
-30
20
3.74316620306936
30
0
41
1
10
-30
20
3.56678705857649
30
0
41
1
10
-30
20
3.42015123791836
30
0
41
1
10
-30
20
3.3009810984795
30
0
41
1
10
-30
20
3.21216327477833
30
0
41
1
10
-30
20
3.12322377081893
30
0
41
1
10
-30
20
3.00356413190352
30
0
41
1
10
-30
20
2.85589664233001
30
0
41
1
10
-30
20
2.70788037697056
30
0
41
1
10
-30
20
2.58749550859633
30
0
41
1
10
-30
20
2.49793822974365
30
0
41
1
10
-30
20
2.40833000131903
30
0
41
1
10
-30
20
2.31867596083526
30
0
41
1
10
-30
20
2.22899146909501
30
0
41
1
10
-30
20
2.10827328924756
30
0
41
1
10
-30
20
1.99097459417121
30
0
41
1
10
-30
20
1.87012467714987
30
0
41
1
10
-30
20
1.78043031683035
30
0
41
1
10
-30
20
1.69076251244053
30
0
41
1
10
-30
20
1.60113247848605
30
0
41
1
10
-30
20
1.51155313609783
30
0
41
1
10
-30
20
1.422025757727
30
0
41
1
10
-30
20
1.33256776537959
30
0
41
1
10
-30
20
1.24317741509074
30
0
41
1
10
-30
20
1.15386860885192
30
0
41
1
10
-30
20
1.06464013673647
30
0
41
1
10
-30
20
0.975500136218244
30
0
41
1
10
-30
20
0.886447988926847
30
0
41
1
10
-30
20
0.797485776681128
30
0
41
1
10
-30
20
0.708610852102623
30
0
41
1
10
-30
20
0.61982073744278
30
0
41
1
10
-30
20
0.531109764951225
30
0
41
1
10
-30
20
0.442471434007643
30
0
41
1
10
-30
20
0.35389600796347
30
0
41
1
10
-30
20
0.265373879214224
30
0
41
1
10
-30
20
0.176892371692162
30
0
41
1
10
-30
20
0.0884392148653887
30
0
41
1
10
-30
20
2.04973958E-08
30
0
41
1
10
-30
20
-0.0884392031952927
30
0
41
1
10
-30
20
-0.17689241471993
30
0
41
1
10
-30
20
-0.265373915570137
30
0
41
1
10
-30
20
-0.353895962579486
30
0
41
1
10
-30
20
-0.442471374506823
30
0
41
1
10
-30
20
-0.531109813902646
30
0
41
1
10
-30
20
-0.61982082298212
30
0
41
1
10
-30
20
-0.70861080655007
30
0
41
1
10
-30
20
-0.797485667180183
30
0
41
1
10
-30
20
-0.886448026006832
30
0
41
1
10
-30
20
-0.97550027278379
30
0
41
1
10
-30
20
-1.06464012636249
30
0
41
1
10
-30
20
-1.1538684580087
30
0
41
1
10
-30
20
-1.24317738635406
30
0
41
1
10
-30
20
-1.33256791795026
30
0
41
1
10
-30
20
-1.42202585063245
30
0
41
1
10
-30
20
-1.5115530207047
30
0
41
1
10
-30
20
-1.60113232466117
30
0
41
1
10
-30
20
-1.69076256252154
30
0
41
1
10
-30
20
-1.78043050963589
30
0
41
1
10
-30
20
-1.87012473193457
30
0
41
1
10
-30
20
-1.95984062320625
30
0
41
1
10
-30
20
-2.04956121840738
30
0
41
1
10
-30
20
-2.13928298465069
30
0
41
1
10
-30
20
-2.22899154181988
30
0
41
1
10
-30
20
-2.34971237639814
30
0
41
1
10
-30
20
-2.4670581044816
30
0
41
1
10
-30
20
-2.58749567267543
30
0
41
1
10
-30
20
-2.70788056755165
30
0
41
1
10
-30
20
-2.85589666602098
30
0
41
1
10
-30
20
-3.00356394920902
30
0
41
1
10
-30
20
-3.12322374659235
30
0
41
1
10
-30
20
-3.21216341650842
30
0
41
1
10
-30
20
-3.3009812939207
30
0
41
1
10
-30
20
-3.4201512431562
30
0
41
1
10
-30
20
-3.56678672363679
30
0
41
1
10
-30
20
-3.74316585626101
30
0
41
1
10
-30
20
-3.91890584757377
30
0
41
1
10
-30
20
-4.09396100129445
30
0
41
1
10
-30
20
-4.26829259541552
30
0
41
1
10
-30
20
-4.44186183082067
30
0
41
1
10
-30
20
-4.61463414914383
30
0
41
1
10
-30
20
-4.78658021025493
30
0
41
1
10
-30
20
-4.95767123056282
30
0
41
1
10
-30
20
-5.1278778625566
30
0
41
1
10
-30
20
-5.29717415068043
30
0
41
1
10
-30
20
-5.46553992297876
30
0
41
1
10
-30
20
-5.63295448869491
30
0
41
1
10
-30
20
-5.79939725011727
30
0
41
1
10
-30
20
-5.96484950556561
30
0
41
1
10
-30
20
-6.1292936535483
30
0
41
1
10
-30
20
-6.34834993475855
30
0
41
1
10
-30
20
-6.61705901965072
30
0
41
1
10
-30
20
-6.93651248001382
30
0
41
1
10
-30
20
-7.19804203228608
30
0
41
1
10
-30
20
-7.40685270744595
30
0
41
1
10
-30
20
-7.56161297986856
30
0
41
1
10
-30
20
-7.71524232371232
30
0
41
1
10
-30
20
-7.86773082006812
30
0
41
1
10
-30
20
-8.01906843480592
30
0
41
1
10
-30
20
-8.22021692135615
30
0
41
1
10
-30
20
-8.46674612315107
30
0
41
1
10
-30
20
-8.70931957903713
30
0
41
1
10
-30
20
-8.9024905245744
30
0
41
1
10
-30
20
-9.04555441784282
30
0
41
1
10
-30
20
-9.18740560593943
30
0
41
1
10
-30
20
-9.32804088163152
30
0
41
1
10
-30
20
-9.46744870809565
30
0
41
1
10
-30
20
-9.65245029192155
30
0
41
1
10
-30
20
-9.83272433616031
30
0
41
1
10
-30
20
-10.0126979221092
30
0
41
1
10
-30
20
-10.1909959517429
30
0
41
1
10
-30
20
-10.4091174330404
30
0
41
1
10
-30
20
-10.6229845090751
30
0
41
1
10
-30
20
-10.7927086151923
30
0
41
1
10
-30
20
-10.9607029915804
30
0
41
1
10
-30
20
-11.1241532476502
30
0
41
1
10
-30
20
-11.286879520772
30
0
41
1
10
-30
20
-11.4071324437642
30
0
41
1
10
-30
20
-11.526059483736
30
0
41
1
10
-30
20
-11.6834503898541
30
0
41
1
10
-30
20
-11.8363772717575
30
0
41
1
10
-30
20
-11.9883479026383
30
0
41
1
10
-30
20
-12.100530681097
30
0
41
1
10
-30
20
-12.211346817793
30
0
41
1
10
-30
20
-12.3578191303265
30
0
41
1
10
-30
20
-12.4998873251014
30
0
41
1
10
-30
20
-12.640774639564
30
0
41
1
10
-30
20
-12.7446351726738
30
0
41
1
10
-30
20
-12.8470846962099
30
0
41
1
10
-30
20
-12.9822967603461
30
0
41
1
10
-30
20
-13.1131460918651
30
0
41
1
10
-30
20
-13.2425908150843
30
0
41
1
10
-30
20
-13.3378530905647
30
0
41
1
10
-30
20
-13.431655102243
30
0
41
1
10
-30
20
-13.5552284439381
30
0
41
1
10
-30
20
-13.6744629632361
30
0
41
1
10
-30
20
-13.7920640428987
30
0
41
1
10
-30
20
-13.8638084100541
30
0
41
1
10
-30
20
-13.9208384799595
30
0
41
1
10
-30
20
-13.9773600368974
30
0
41
1
10
-30
20
-14.0747689786766
30
0
41
1
10
-30
20
-14.1819460903518
30
0
41
1
10
-30
20
-14.2872490063531
30
0
41
1
10
-30
20
-14.3643499644422
30
0
41
1
10
-30
20
-14.4398725346097
30
0
41
1
10
-30
20
-14.5388306330265
30
0
41
1
10
-30
20
-14.6334478734244
30
0
41
1
10
-30
20
-14.7259318226356
30
0
41
1
10
-30
20
-14.793378171537
30
0
41
1
10
-30
20
-14.8591738437125
30
0
41
1
10
-30
20
-14.9233034607296
30
0
41
1
10
-30
20
-14.9857535133679
30
0
41
1
10
-30
20
-15.0465122321639
30
0
41
1
10
-30
20
-15.1055630695376
30
0
41
1
10
-30
20
-15.1823146060513
30
0
41
1
10
-30
20
-15.2546726312332
30
0
41
1
10
-30
20
-15.3243986497297
30
0
41
1
10
-30
20
-15.3917322452796
30
0
41
1
10
-30
20
-15.4546352005829
30
0
41
1
10
-30
20
-15.5146768877911
30
0
41
1
10
-30
20
-15.5722298782127
30
0
41
1
10
-30
20
-15.6253102421943
30
0
41
1
10
-30
20
-15.6752710489662
30
0
41
1
10
-30
20
-15.7106367362118
30
0
41
1
10
-30
20
-15.7440468008705
30
0
41
1
10
-30
20
-15.7861515665346
30
0
41
1
10
-30
20
-15.8237020814766
30
0
41
1
10
-30
20
-15.8576872273509
30
0
41
1
10
-30
20
-15.8809772969169
30
0
41
1
10
-30
20
-15.9021692417172
30
0
41
1
10
-30
20
-15.921235563756
30
0
41
1
10
-30
20
-15.9381491696965
30
0
41
1
10
-30
20
-15.9528811556007
30
0
41
1
10
-30
20
-15.9654018081648
30
0
41
1
10
-30
20
-15.9756808201301
30
0
41
1
10
-30
20
-15.9836860510364
30
0
41
1
10
-30
20
-15.989385071505
30
0
41
1
10
-30
20
-15.9917958986117
30
0
41
1
10
-30
20
-15.992560519425
30
0
41
1
10
-30
20
-15.9926529212287
30
0
0
SPLINE
5
125
100
AcDbEntity
8
SK1
62
256
6
ByLayer
370
18
48
1
60
0
100
AcDbSpline
70
4
71
3
72
26
73
22
40
0
40
0
40
0
40
0
40
0.249999999999999
40
0.249999999999999
40
0.499999999999999
40
0.499999999999999
40
0.624999999999999
40
0.624999999999999
40
0.687499999999999
40
0.687499999999999
40
0.749999999999999
40
0.749999999999999
40
0.8125
40
0.8125
40
0.875
40
0.875
40
0.906250000000001
40
0.906250000000001
40
0.937500000000001
40
0.937500000000001
40
1
40
1
40
1
40
1
41
1
10
-1.30710678118655
20
3.91806548153784
30
0
41
1
10
-1.27769319780742
20
4.08052093037068
30
0
41
1
10
-1.24421801411859
20
4.24088838641725
30
0
41
1
10
-1.16485205097931
20
4.55692134673149
30
0
41
1
10
-1.11915053894165
20
4.71298625674962
30
0
41
1
10
-1.03398506252569
20
4.93920991648992
30
0
41
1
10
-1.0027921606592
20
5.01338233454953
30
0
41
1
10
-0.948686084795497
20
5.12180889714571
30
0
41
1
10
-0.929413948146362
20
5.15747348575945
30
0
41
1
10
-0.887192676607157
20
5.22746225617757
30
0
41
1
10
-0.864103743652976
20
5.2620159396939
30
0
41
1
10
-0.813044425251093
20
5.32730624386841
30
0
41
1
10
-0.785168859850643
20
5.35822757002165
30
0
41
1
10
-0.720036760130682
20
5.41334643052002
30
0
41
1
10
-0.681932962873304
20
5.43781069903423
30
0
41
1
10
-0.618164109731538
20
5.45755608765845
30
0
41
1
10
-0.59561546133466
20
5.4612647451805
30
0
41
1
10
-0.550411294006381
20
5.46132444639048
30
0
41
1
10
-0.528101012291188
20
5.45772738244958
30
0
41
1
10
-0.464215280713546
20
5.43805975377177
30
0
41
1
10
-0.427403975867747
20
5.41432955957453
30
0
41
1
10
-0.394976888875362
20
5.38678223323953
30
0
0
SPLINE
5
126
100
AcDbEntity
8
SK1
62
256
6
ByLayer
370
18
48
1
60
0
100
AcDbSpline
70
4
71
3
72
20
73
16
40
0
40
0
40
0
40
0
40
0.25
40
0.25
40
0.375
40
0.375
40
0.4375
40
0.4375
40
0.5
40
0.5
40
0.75
40
0.75
40
0.875
40
0.875
40
1
40
1
40
1
40
1
41
1
10
-1.30710678118652
20
3.91806548153784
30
0
41
1
10
-1.41969318564739
20
3.29623458683108
30
0
41
1
10
-1.52084354897502
20
2.6611724312836
30
0
41
1
10
-1.63284681317137
20
1.68012366058505
30
0
41
1
10
-1.66339462407876
20
1.34828924094128
30
0
41
1
10
-1.69495092810291
20
0.841576693078565
30
0
41
1
10
-1.70306621291687
20
0.670912483956357
30
0
41
1
10
-1.71379105874195
20
0.332128346739864
30
0
41
1
10
-1.71645137733401
20
0.163332447807704
30
0
41
1
10
-1.71619101064624
20
-0.677685636180854
30
0
41
1
10
-1.67125810013107
20
-1.34087191657744
30
0
41
1
10
-1.55943898894102
20
-2.32447859217891
30
0
41
1
10
-1.5148339448983
20
-2.65120399662453
30
0
41
1
10
-1.4168770320716
20
-3.29188260724436
30
0
41
1
10
-1.36340682815231
20
-3.60711221095696
30
0
41
1
10
-1.30710678118652
20
-3.91806548057696
30
0
0
SPLINE
5
127
100
AcDbEntity
8
SK1
62
256
6
ByLayer
370
18
48
1
60
0
100
AcDbSpline
70
4
71
3
72
103
73
99
40
0
40
0
40
0
40
0
40
0.0079700776487587
40
0.0168024508199599
40
0.0256348239911611
40
0.0344671971623623
40
0.0432995703335636
40
0.0521319435047648
40
0.060964316675966
40
0.0697966898471672
40
0.0786290630183684
40
0.0874614361895696
40
0.105126182531972
40
0.113958555703173
40
0.122790928874374
40
0.131623302045576
40
0.140455675216777
40
0.158120421559179
40
0.166952794730381
40
0.175785167901582
40
0.193449914243984
40
0.202282287415185
40
0.211114660586387
40
0.228779406928789
40
0.23761178009999
40
0.246444153271192
40
0.255276526442393
40
0.264108899613594
40
0.272941272784795
40
0.281773645955996
40
0.290606019127198
40
0.299438392298399
40
0.317103138640801
40
0.325935511812002
40
0.334767884983204
40
0.343600258154405
40
0.352432631325606
40
0.370097377668008
40
0.37892975083921
40
0.38334593742481
40
0.387762124010411
40
0.396594497181612
40
0.405426870352813
40
0.423091616695216
40
0.431923989866417
40
0.440756363037618
40
0.44958873620882
40
0.458421109380021
40
0.476085855722423
40
0.484918228893624
40
0.493750602064826
40
0.502582975236027
40
0.511415348407228
40
0.52908009474963
40
0.537912467920832
40
0.546744841092033
40
0.555577214263234
40
0.564409587434435
40
0.582074333776838
40
0.590906706948039
40
0.59973908011924
40
0.608571453290441
40
0.617403826461643
40
0.635068572804045
40
0.643900945975246
40
0.652733319146448
40
0.67039806548885
40
0.688062811831252
40
0.696895185002454
40
0.705727558173655
40
0.723392304516057
40
0.732224677687259
40
0.74105705085846
40
0.749889424029661
40
0.758721797200862
40
0.767554170372063
40
0.776386543543265
40
0.794051289885667
40
0.811716036228069
40
0.820548409399271
40
0.829380782570472
40
0.838213155741673
40
0.847045528912874
40
0.855877902084076
40
0.864710275255277
40
0.882375021597679
40
0.900039767940082
40
0.917704514282484
40
0.926536887453685
40
0.935369260624886
40
0.944201633796088
40
0.953034006967289
40
0.96186638013849
40
0.970698753309691
40
0.979531126480892
40
0.988363499652094
40
0.997195872823295
40
1
40
1
40
1
40
1
41
1
10
-0.394976888875306
20
-17.3601928954875
30
0
41
1
10
-0.394976888875306
20
-17.3586442946339
30
0
41
1
10
-0.394976888875277
20
-17.3546578462609
30
0
41
1
10
-0.394976888875277
20
-17.3462909802274
30
0
41
1
10
-0.394976888875277
20
-17.3352007360526
30
0
41
1
10
-0.394976888875277
20
-17.3217086355548
30
0
41
1
10
-0.394976888875277
20
-17.3058521626298
30
0
41
1
10
-0.394976888875277
20
-17.2876678382251
30
0
41
1
10
-0.394976888875277
20
-17.2671905287463
30
0
41
1
10
-0.394976888875277
20
-17.2444531170066
30
0
41
1
10
-0.394976888875277
20
-17.2194882612007
30
0
41
1
10
-0.394976888875277
20
-17.1832568369982
30
0
41
1
10
-0.394976888875277
20
-17.1427382787905
30
0
41
1
10
-0.394976888875277
20
-17.0979462837243
30
0
41
1
10
-0.394976888875277
20
-17.0622798511847
30
0
41
1
10
-0.394976888875277
20
-17.024552403858
30
0
41
1
10
-0.394976888875277
20
-16.9715145305624
30
0
41
1
10
-0.394976888875277
20
-16.9145141001581
30
0
41
1
10
-0.394976888875277
20
-16.8535135500206
30
0
41
1
10
-0.394976888875277
20
-16.7899145981056
30
0
41
1
10
-0.394976888875277
20
-16.7225357579897
30
0
41
1
10
-0.394976888875277
20
-16.6513062771915
30
0
41
1
10
-0.394976888875277
20
-16.5775834628441
30
0
41
1
10
-0.394976888875277
20
-16.5002370830775
30
0
41
1
10
-0.394976888875277
20
-16.4191737297992
30
0
41
1
10
-0.394976888875277
20
-16.3565947902754
30
0
41
1
10
-0.394976888875277
20
-16.2922298358683
30
0
41
1
10
-0.394976888875277
20
-16.2260943811825
30
0
41
1
10
-0.394976888875277
20
-16.1582019472912
30
0
41
1
10
-0.394976888875277
20
-16.0885678110446
30
0
41
1
10
-0.394976888875277
20
-16.0172057969154
30
0
41
1
10
-0.394976888875277
20
-15.9197362187748
30
0
41
1
10
-0.394976888875277
20
-15.8189643831875
30
0
41
1
10
-0.394976888875277
20
-15.7147364921469
30
0
41
1
10
-0.394976888875277
20
-15.6349267624759
30
0
41
1
10
-0.394976888875277
20
-15.5534637367265
30
0
41
1
10
-0.394976888875277
20
-15.4426196109061
30
0
41
1
10
-0.394976888875277
20
-15.3286250474485
30
0
41
1
10
-0.394976888875277
20
-15.2259771214207
30
0
41
1
10
-0.394976888875277
20
-15.1665127141503
30
0
41
1
10
-0.394976888875277
20
-15.1065165223896
30
0
41
1
10
-0.394976888875277
20
-15.0305708978545
30
0
41
1
10
-0.394976888875277
20
-14.9068780878822
30
0
41
1
10
-0.394976888875277
20
-14.780164253239
30
0
41
1
10
-0.394976888875277
20
-14.6502180419884
30
0
41
1
10
-0.394976888875277
20
-14.5512443837086
30
0
41
1
10
-0.394976888875277
20
-14.4507333681675
30
0
41
1
10
-0.394976888875277
20
-14.3146351237356
30
0
41
1
10
-0.394976888875277
20
-14.1756274475866
30
0
41
1
10
-0.394976888875277
20
-14.0334711580348
30
0
41
1
10
-0.394976888875277
20
-13.9253889718329
30
0
41
1
10
-0.394976888875277
20
-13.8158144768541
30
0
41
1
10
-0.394976888875277
20
-13.6676860552913
30
0
41
1
10
-0.394976888875277
20
-13.5167448476072
30
0
41
1
10
-0.394976888875277
20
-13.3627236547322
30
0
41
1
10
-0.394976888875277
20
-13.2457849051211
30
0
41
1
10
-0.394976888875277
20
-13.1273919665529
30
0
41
1
10
-0.394976888875277
20
-12.9675509360494
30
0
41
1
10
-0.394976888875277
20
-12.8049814458532
30
0
41
1
10
-0.394976888875277
20
-12.6393872302303
30
0
41
1
10
-0.394976888875277
20
-12.5138050519686
30
0
41
1
10
-0.394976888875277
20
-12.3868007979199
30
0
41
1
10
-0.394976888875277
20
-12.2155153161813
30
0
41
1
10
-0.394976888875277
20
-12.0415756040849
30
0
41
1
10
-0.394976888875277
20
-11.864654349678
30
0
41
1
10
-0.394976888875277
20
-11.685867652055
30
0
41
1
10
-0.394976888875277
20
-11.4590305143918
30
0
41
1
10
-0.394976888875277
20
-11.2275701299333
30
0
41
1
10
-0.394976888875277
20
-11.0395280782787
30
0
41
1
10
-0.394976888875277
20
-10.8496518506122
30
0
41
1
10
-0.394976888875277
20
-10.6572263081632
30
0
41
1
10
-0.394976888875277
20
-10.4618684189216
30
0
41
1
10
-0.394976888875277
20
-10.3140380843155
30
0
41
1
10
-0.394976888875277
20
-10.1648480067744
30
0
41
1
10
-0.394976888875277
20
-10.0143015815252
30
0
41
1
10
-0.394976888875277
20
-9.86240080704215
30
0
41
1
10
-0.394976888875277
20
-9.65799296546987
30
0
41
1
10
-0.394976888875277
20
-9.39928045092248
30
0
41
1
10
-0.394976888875277
20
-9.1360908691222
30
0
41
1
10
-0.394976888875249
20
-8.922721214403
30
0
41
1
10
-0.394976888875277
20
-8.76141979186249
30
0
41
1
10
-0.394976888875277
20
-8.59878513137221
30
0
41
1
10
-0.394976888875277
20
-8.434820354761
30
0
41
1
10
-0.394976888875277
20
-8.2695273659856
30
0
41
1
10
-0.394976888875277
20
-8.04728288344245
30
0
41
1
10
-0.394976888875277
20
-7.76637138106327
30
0
41
1
10
-0.394976888875277
20
-7.42389186204954
30
0
41
1
10
-0.394976888875249
20
-7.13420903787926
30
0
41
1
10
-0.394976888875277
20
-6.89966740060396
30
0
41
1
10
-0.394976888875277
20
-6.72253430941348
30
0
41
1
10
-0.394976888875277
20
-6.54409937286439
30
0
41
1
10
-0.394976888875277
20
-6.3643662218949
30
0
41
1
10
-0.394976888875277
20
-6.18333830919048
30
0
41
1
10
-0.394976888875277
20
-6.00101977124669
30
0
41
1
10
-0.394976888875249
20
-5.8174145162354
30
0
41
1
10
-0.394976888875277
20
-5.63252719489225
30
0
41
1
10
-0.394976888875277
20
-5.48871660168979
30
0
41
1
10
-0.394976888875277
20
-5.4065930765673
30
0
41
1
10
-0.394976888875277
20
-5.38678189578286
30
0
0
SPLINE
5
128
100
AcDbEntity
8
SK1
62
256
6
ByLayer
370
18
48
1
60
0
100
AcDbSpline
70
4
71
3
72
284
73
280
40
0
40
0
40
0
40
0
40
0.0001426084589539
40
0.0037130159717901
40
0.0072834234846263
40
0.0108538309974625
40
0.0144242385102988
40
0.017994646023135
40
0.0215650535359712
40
0.0251354610488074
40
0.0287058685616437
40
0.0322762760744799
40
0.0358466835873161
40
0.0429874986129886
40
0.0465579061258248
40
0.050128313638661
40
0.0536987211514972
40
0.0572691286643335
40
0.0644099436900059
40
0.0679803512028421
40
0.0715507587156783
40
0.0786915737413508
40
0.082261981254187
40
0.0858323887670232
40
0.0929732037926957
40
0.0965436113055319
40
0.100114018818368
40
0.103684426331204
40
0.107254833844041
40
0.110825241356877
40
0.114395648869713
40
0.117966056382549
40
0.121536463895385
40
0.128677278921058
40
0.132247686433894
40
0.13581809394673
40
0.139388501459567
40
0.142958908972403
40
0.150099723998075
40
0.153670131510911
40
0.15545533526733
40
0.157240539023748
40
0.160810946536584
40
0.16438135404942
40
0.171522169075093
40
0.175092576587929
40
0.178662984100765
40
0.182233391613601
40
0.185803799126437
40
0.19294461415211
40
0.196515021664946
40
0.200085429177782
40
0.203655836690619
40
0.207226244203455
40
0.214367059229127
40
0.217937466741963
40
0.2215078742548
40
0.225078281767636
40
0.228648689280472
40
0.235789504306145
40
0.239359911818981
40
0.242930319331817
40
0.246500726844653
40
0.25007113435749
40
0.257211949383162
40
0.260782356895998
40
0.264352764408834
40
0.271493579434507
40
0.278634394460179
40
0.282204801973016
40
0.285775209485852
40
0.292916024511524
40
0.29648643202436
40
0.300056839537197
40
0.303627247050033
40
0.307197654562869
40
0.310768062075705
40
0.314338469588542
40
0.321479284614214
40
0.328620099639886
40
0.332190507152723
40
0.335760914665559
40
0.339331322178395
40
0.342901729691231
40
0.346472137204068
40
0.350042544716904
40
0.357183359742576
40
0.364324174768249
40
0.371464989793921
40
0.375035397306757
40
0.378605804819594
40
0.38217621233243
40
0.385746619845266
40
0.389317027358102
40
0.392887434870939
40
0.396457842383775
40
0.400028249896611
40
0.403598657409447
40
0.407169064922283
40
0.41073947243512
40
0.414309879947956
40
0.417880287460792
40
0.421450694973628
40
0.425021102486465
40
0.428591509999301
40
0.432161917512137
40
0.433947121268555
40
0.435732325024973
40
0.437517528781391
40
0.439302732537809
40
0.442873140050646
40
0.446443547563482
40
0.4482287513199
40
0.450013955076318
40
0.453584362589154
40
0.455369566345573
40
0.457154770101991
40
0.458939973858409
40
0.460725177614827
40
0.462510381371245
40
0.464295585127663
40
0.466080788884081
40
0.467865992640499
40
0.469651196396917
40
0.471436400153335
40
0.473221603909753
40
0.475006807666172
40
0.47679201142259
40
0.478577215179008
40
0.480362418935426
40
0.482147622691844
40
0.483932826448262
40
0.48571803020468
40
0.487503233961099
40
0.489288437717517
40
0.491073641473935
40
0.492858845230353
40
0.494644048986771
40
0.496429252743189
40
0.498214456499607
40
0.499999660256025
40
0.501784864012443
40
0.503570067768861
40
0.50535527152528
40
0.507140475281698
40
0.508925679038116
40
0.510710882794534
40
0.512496086550952
40
0.51428129030737
40
0.516066494063788
40
0.517851697820206
40
0.519636901576624
40
0.521422105333043
40
0.523207309089461
40
0.524992512845879
40
0.526777716602297
40
0.528562920358715
40
0.530348124115133
40
0.532133327871551
40
0.533918531627969
40
0.535703735384388
40
0.537488939140806
40
0.539274142897224
40
0.54284455041006
40
0.544629754166478
40
0.546414957922896
40
0.548200161679314
40
0.549985365435732
40
0.551770569192151
40
0.553555772948569
40
0.557126180461405
40
0.560696587974241
40
0.562481791730659
40
0.564266995487077
40
0.566052199243495
40
0.567837402999913
40
0.57140781051275
40
0.574978218025586
40
0.578548625538422
40
0.582119033051258
40
0.585689440564095
40
0.589259848076931
40
0.592830255589767
40
0.596400663102603
40
0.59997107061544
40
0.603541478128276
40
0.607111885641112
40
0.610682293153948
40
0.614252700666784
40
0.617823108179621
40
0.621393515692457
40
0.624963923205293
40
0.628534330718129
40
0.635675145743802
40
0.642815960769474
40
0.649956775795147
40
0.653527183307983
40
0.657097590820819
40
0.660667998333655
40
0.664238405846492
40
0.667808813359328
40
0.671379220872164
40
0.678520035897836
40
0.685660850923509
40
0.689231258436345
40
0.692801665949181
40
0.696372073462018
40
0.699942480974854
40
0.70351288848769
40
0.707083296000526
40
0.714224111026199
40
0.717794518539035
40
0.721364926051871
40
0.728505741077544
40
0.735646556103216
40
0.739216963616052
40
0.742787371128888
40
0.749928186154561
40
0.753498593667397
40
0.757069001180233
40
0.76063940869307
40
0.764209816205906
40
0.771350631231578
40
0.774921038744415
40
0.778491446257251
40
0.782061853770087
40
0.785632261282923
40
0.792773076308596
40
0.796343483821432
40
0.799913891334268
40
0.803484298847104
40
0.807054706359941
40
0.814195521385613
40
0.817765928898449
40
0.821336336411285
40
0.824906743924122
40
0.828477151436958
40
0.83561796646263
40
0.839188373975467
40
0.842758781488303
40
0.846329189001139
40
0.849899596513975
40
0.857040411539648
40
0.860610819052484
40
0.86418122656532
40
0.867751634078156
40
0.871322041590993
40
0.878462856616665
40
0.882033264129501
40
0.885603671642337
40
0.889174079155174
40
0.89274448666801
40
0.896314894180846
40
0.899885301693682
40
0.903455709206519
40
0.907026116719355
40
0.914166931745027
40
0.917737339257863
40
0.9213077467707
40
0.928448561796372
40
0.932018969309208
40
0.935589376822045
40
0.942730191847717
40
0.946300599360553
40
0.94987100687339
40
0.953441414386226
40
0.957011821899062
40
0.964152636924734
40
0.967723044437571
40
0.971293451950407
40
0.974863859463243
40
0.978434266976079
40
0.982004674488915
40
0.985575082001752
40
0.989145489514588
40
0.992715897027424
40
0.99628630454026
40
0.999856712053097
40
1
40
1
40
1
40
1
41
1
10
-1.99503997793928
20
-17.3206885286567
30
0
41
1
10
-1.99503997793928
20
-17.3206247511037
30
0
41
1
10
-1.99503997793931
20
-17.3189467440148
30
0
41
1
10
-1.99503997793928
20
-17.3147637210185
30
0
41
1
10
-1.99503997793928
20
-17.3061342543252
30
0
41
1
10
-1.99503997793928
20
-17.2950677779805
30
0
41
1
10
-1.99503997793928
20
-17.2816041393821
30
0
41
1
10
-1.99503997793928
20
-17.2657806121613
30
0
41
1
10
-1.99503997793928
20
-17.2476335178127
30
0
41
1
10
-1.99503997793928
20
-17.2271975480507
30
0
41
1
10
-1.99503997793928
20
-17.204505416066
30
0
41
1
10
-1.99503997793928
20
-17.1795896288677
30
0
41
1
10
-1.99503997793928
20
-17.1434240170936
30
0
41
1
10
-1.99503997793928
20
-17.1029924178939
30
0
41
1
10
-1.99503997793928
20
-17.0582791544304
30
0
41
1
10
-1.99503997793928
20
-17.0226788299273
30
0
41
1
10
-1.99503997793928
20
-16.9850205784631
30
0
41
1
10
-1.99503997793928
20
-16.9320728583858
30
0
41
1
10
-1.99503997793928
20
-16.8751872797734
30
0
41
1
10
-1.99503997793928
20
-16.8142877377232
30
0
41
1
10
-1.99503997793928
20
-16.7507930080793
30
0
41
1
10
-1.99503997793928
20
-16.6835453043615
30
0
41
1
10
-1.99503997793928
20
-16.6124299668847
30
0
41
1
10
-1.99503997793928
20
-16.538824252381
30
0
41
1
10
-1.99503997793928
20
-16.4616240235723
30
0
41
1
10
-1.99503997793928
20
-16.3806869997558
30
0
41
1
10
-1.99503997793928
20
-16.3182114280861
30
0
41
1
10
-1.99503997793928
20
-16.2539521307207
30
0
41
1
10
-1.99503997793928
20
-16.1879246525291
30
0
41
1
10
-1.99503997793928
20
-16.1201424632647
30
0
41
1
10
-1.99503997793926
20
-16.0506207879892
30
0
41
1
10
-1.99503997793928
20
-15.9793734967038
30
0
41
1
10
-1.99503997793928
20
-15.8820499896637
30
0
41
1
10
-1.99503997793928
20
-15.781458474053
30
0
41
1
10
-1.99503997793928
20
-15.677384979663
30
0
41
1
10
-1.99503997793928
20
-15.5977008570348
30
0
41
1
10
-1.99503997793928
20
-15.5163656330196
30
0
41
1
10
-1.99503997793928
20
-15.4056838559475
30
0
41
1
10
-1.99503997793928
20
-15.2918890331241
30
0
41
1
10
-1.99503997793928
20
-15.1893946011098
30
0
41
1
10
-1.99503997793928
20
-15.130016414734
30
0
41
1
10
-1.99503997793928
20
-15.070107125687
30
0
41
1
10
-1.99503997793928
20
-14.9942845913974
30
0
41
1
10
-1.99503997793928
20
-14.8707702595594
30
0
41
1
10
-1.99503997793928
20
-14.7442755571137
30
0
41
1
10
-1.99503997793928
20
-14.614516060936
30
0
41
1
10
-1.99503997793928
20
-14.5156939237825
30
0
41
1
10
-1.99503997793928
20
-14.4153366880849
30
0
41
1
10
-1.99503997793928
20
-14.2794333813788
30
0
41
1
10
-1.99503997793928
20
-14.1406647319193
30
0
41
1
10
-1.99503997793928
20
-13.99871189727
30
0
41
1
10
-1.99503997793928
20
-13.8907947392413
30
0
41
1
10
-1.99503997793926
20
-13.7813876543746
30
0
41
1
10
-1.99503997793928
20
-13.6334713858817
30
0
41
1
10
-1.99503997793928
20
-13.4827901435456
30
0
41
1
10
-1.99503997793928
20
-13.3289901210133
30
0
41
1
10
-1.99503997793928
20
-13.2122307543484
30
0
41
1
10
-1.99503997793928
20
-13.0940197637218
30
0
41
1
10
-1.99503997793926
20
-12.9344093235711
30
0
41
1
10
-1.99503997793926
20
-12.7721223466594
30
0
41
1
10
-1.99503997793928
20
-12.6067684751262
30
0
41
1
10
-1.99503997793926
20
-12.4813812819682
30
0
41
1
10
-1.99503997793928
20
-12.3545748313203
30
0
41
1
10
-1.99503997793928
20
-12.1835401209566
30
0
41
1
10
-1.99503997793926
20
-12.0099077334538
30
0
41
1
10
-1.99503997793928
20
-11.8332480225582
30
0
41
1
10
-1.99503997793926
20
-11.6547268446385
30
0
41
1
10
-1.99503997793928
20
-11.4282697094187
30
0
41
1
10
-1.99503997793926
20
-11.1972001338813
30
0
41
1
10
-1.99503997793928
20
-11.0094435667743
30
0
41
1
10
-1.99503997793928
20
-10.8198574709635
30
0
41
1
10
-1.99503997793928
20
-10.6277879483349
30
0
41
1
10
-1.99503997793928
20
-10.432733482583
30
0
41
1
10
-1.99503997793926
20
-10.2851499142426
30
0
41
1
10
-1.99503997793926
20
-10.1362104789651
30
0
41
1
10
-1.99503997793928
20
-9.98591881051331
30
0
41
1
10
-1.99503997793928
20
-9.83427694277646
30
0
41
1
10
-1.99503997793928
20
-9.6301983246166
30
0
41
1
10
-1.99503997793928
20
-9.37195865915049
30
0
41
1
10
-1.99503997793926
20
-9.10925720032841
30
0
41
1
10
-1.99503997793928
20
-8.89624560664996
30
0
41
1
10
-1.99503997793926
20
-8.73523610803539
30
0
41
1
10
-1.99503997793926
20
-8.57289871422526
30
0
41
1
10
-1.99503997793928
20
-8.40923674956807
30
0
41
1
10
-1.99503997793926
20
-8.24425235284596
30
0
41
1
10
-1.99503997793926
20
-8.02240145976876
30
0
41
1
10
-1.99503997793926
20
-7.74205781809903
30
0
41
1
10
-1.99503997793928
20
-7.40025292645402
30
0
41
1
10
-1.99503997793926
20
-7.11118459991687
30
0
41
1
10
-1.99503997793926
20
-6.87709665926303
30
0
41
1
10
-1.99503997793928
20
-6.70033533418757
30
0
41
1
10
-1.99503997793926
20
-6.52228076981257
30
0
41
1
10
-1.99503997793926
20
-6.34293700639154
30
0
41
1
10
-1.99503997793926
20
-6.16230794338162
30
0
41
1
10
-1.99503997793926
20
-5.98039819956611
30
0
41
1
10
-1.99503997793926
20
-5.79721217482026
30
0
41
1
10
-1.99503997793926
20
-5.61275497462711
30
0
41
1
10
-1.99503997793926
20
-5.42703263168386
30
0
41
1
10
-1.99503997793926
20
-5.24005183821342
30
0
41
1
10
-1.99503997793926
20
-5.05181944357969
30
0
41
1
10
-1.99503997793928
20
-4.86234315765489
30
0
41
1
10
-1.99503997793926
20
-4.67163198724225
30
0
41
1
10
-1.99503997793926
20
-4.47969611179559
30
0
41
1
10
-1.99503997793928
20
-4.28654650347451
30
0
41
1
10
-1.99503997793926
20
-4.09219631216945
30
0
41
1
10
-1.99503997793926
20
-3.92934662557204
30
0
41
1
10
-1.99503997793926
20
-3.79829732832761
30
0
41
1
10
-1.99503997793926
20
-3.69979996514493
30
0
41
1
10
-1.99503997793928
20
-3.60101470543907
30
0
41
1
10
-1.99503997793926
20
-3.46881383607317
30
0
41
1
10
-1.99503997793926
20
-3.30310842941955
30
0
41
1
10
-1.99503997793926
20
-3.13647582573117
30
0
41
1
10
-1.99503997793926
20
-3.00241855173454
30
0
41
1
10
-1.99503997793926
20
-2.86801083241156
30
0
41
1
10
-1.99503997793926
20
-2.73345090264118
30
0
41
1
10
-1.99503997793928
20
-2.59800197223714
30
0
41
1
10
-1.99503997793926
20
-2.4962670319988
30
0
41
1
10
-1.99503997793926
20
-2.3942897393672
30
0
41
1
10
-1.99503997793928
20
-2.29207637206397
30
0
41
1
10
-1.99503997793926
20
-2.18963189754737
30
0
41
1
10
-1.99503997793926
20
-2.08696370566375
30
0
41
1
10
-1.99503997793926
20
-1.98407766278626
30
0
41
1
10
-1.99503997793926
20
-1.88098142742643
30
0
41
1
10
-1.99503997793926
20
-1.77768276258209
30
0
41
1
10
-1.99503997793926
20
-1.67418896894682
30
0
41
1
10
-1.99503997793928
20
-1.57050948928742
30
0
41
1
10
-1.99503997793928
20
-1.46665210416356
30
0
41
1
10
-1.99503997793926
20
-1.36262723194542
30
0
41
1
10
-1.99503997793926
20
-1.25844373877695
30
0
41
1
10
-1.99503997793928
20
-1.15411258033262
30
0
41
1
10
-1.99503997793926
20
-1.04964379294299
30
0
41
1
10
-1.99503997793926
20
-0.945048896197648
30
0
41
1
10
-1.99503997793928
20
-0.840338966235578
30
0
41
1
10
-1.99503997793926
20
-0.735526093018478
30
0
41
1
10
-1.99503997793928
20
-0.630622120770198
30
0
41
1
10
-1.99503997793926
20
-0.525639723935797
30
0
41
1
10
-1.99503997793926
20
-0.420591355720489
30
0
41
1
10
-1.99503997793926
20
-0.315490140896515
30
0
41
1
10
-1.99503997793926
20
-0.21034895445402
30
0
41
1
10
-1.99503997793926
20
-0.105181173899382
30
0
41
1
10
-1.99503997793926
20
-2.6093687E-09
30
0
41
1
10
-1.99503997793926
20
0.105181165306249
30
0
41
1
10
-1.99503997793926
20
0.210348939519463
30
0
41
1
10
-1.99503997793928
20
0.315490126623814
30
0
41
1
10
-1.99503997793926
20
0.420591350928731
30
0
41
1
10
-1.99503997793926
20
0.525639721157262
30
0
41
1
10
-1.99503997793926
20
0.630622105582688
30
0
41
1
10
-1.99503997793928
20
0.735526073032332
30
0
41
1
10
-1.99503997793926
20
0.840338961204225
30
0
41
1
10
-1.99503997793926
20
0.945048899580655
30
0
41
1
10
-1.99503997793926
20
1.04964378000579
30
0
41
1
10
-1.99503997793926
20
1.15411255471389
30
0
41
1
10
-1.99503997793926
20
1.2584437292094
30
0
41
1
10
-1.99503997793926
20
1.36262724011794
30
0
41
1
10
-1.99503997793926
20
1.46665209995737
30
0
41
1
10
-1.99503997793926
20
1.57050946303122
30
0
41
1
10
-1.99503997793928
20
1.67418894734925
30
0
41
1
10
-1.99503997793926
20
1.777682765474
30
0
41
1
10
-1.99503997793926
20
1.88098143773604
30
0
41
1
10
-1.99503997793926
20
1.98407765086858
30
0
41
1
10
-1.99503997793928
20
2.08696367451518
30
0
41
1
10
-1.99503997793926
20
2.18963187963749
30
0
41
1
10
-1.99503997793926
20
2.3263670801044
30
0
41
1
10
-1.99503997793928
20
2.46222694501739
30
0
41
1
10
-1.99503997793926
20
2.59800197345763
30
0
41
1
10
-1.99503997793926
20
2.69948931487849
30
0
41
1
10
-1.99503997793926
20
2.80072442890969
30
0
41
1
10
-1.99503997793926
20
2.90170218623106
30
0
41
1
10
-1.99503997793926
20
3.00241852965871
30
0
41
1
10
-1.99503997793926
20
3.13647579824178
30
0
41
1
10
-1.99503997793926
20
3.30310841087518
30
0
41
1
10
-1.99503997793926
20
3.46881385164502
30
0
41
1
10
-1.99503997793926
20
3.6010147061962
30
0
41
1
10
-1.99503997793928
20
3.69979994526253
30
0
41
1
10
-1.99503997793926
20
3.7982972967292
30
0
41
1
10
-1.99503997793926
20
3.92934661081907
30
0
41
1
10
-1.99503997793926
20
4.09219634432211
30
0
41
1
10
-1.99503997793926
20
4.28654656517494
30
0
41
1
10
-1.99503997793926
20
4.47969614999016
30
0
41
1
10
-1.99503997793926
20
4.67163207713236
30
0
41
1
10
-1.99503997793926
20
4.86234332329403
30
0
41
1
10
-1.99503997793926
20
5.05181945337139
30
0
41
1
10
-1.99503997793928
20
5.24005175731475
30
0
41
1
10
-1.99503997793928
20
5.42703270327695
30
0
41
1
10
-1.99503997793928
20
5.61275496243289
30
0
41
1
10
-1.99503997793926
20
5.79721186805693
30
0
41
1
10
-1.99503997793928
20
5.98039789106801
30
0
41
1
10
-1.99503997793928
20
6.16230788845579
30
0
41
1
10
-1.99503997793928
20
6.3429370741791
30
0
41
1
10
-1.99503997793926
20
6.52228078287746
30
0
41
1
10
-1.99503997793926
20
6.70033531356589
30
0
41
1
10
-1.99503997793928
20
6.87709665618266
30
0
41
1
10
-1.99503997793928
20
7.11118461088941
30
0
41
1
10
-1.99503997793928
20
7.40025290593451
30
0
41
1
10
-1.99503997793928
20
7.7420578132905
30
0
41
1
10
-1.99503997793926
20
8.0224014648056
30
0
41
1
10
-1.99503997793926
20
8.24425232954013
30
0
41
1
10
-1.99503997793928
20
8.40923673354897
30
0
41
1
10
-1.99503997793928
20
8.57289871794615
30
0
41
1
10
-1.99503997793928
20
8.73523611643316
30
0
41
1
10
-1.99503997793928
20
8.89624559944804
30
0
41
1
10
-1.99503997793928
20
9.10925717826123
30
0
41
1
10
-1.99503997793926
20
9.37195865327328
30
0
41
1
10
-1.99503997793928
20
9.63019833168178
30
0
41
1
10
-1.99503997793926
20
9.83427692622885
30
0
41
1
10
-1.99503997793928
20
9.98591879047714
30
0
41
1
10
-1.99503997793926
20
10.13621047024
30
0
41
1
10
-1.99503997793928
20
10.2851499168301
30
0
41
1
10
-1.99503997793928
20
10.4327334855784
30
0
41
1
10
-1.99503997793928
20
10.627787937013
30
0
41
1
10
-1.99503997793928
20
10.8198574498995
30
0
41
1
10
-1.99503997793928
20
11.00944356136
30
0
41
1
10
-1.99503997793928
20
11.197200136596
30
0
41
1
10
-1.99503997793928
20
11.4282697000141
30
0
41
1
10
-1.99503997793928
20
11.6547268261542
30
0
41
1
10
-1.99503997793928
20
11.8332480165124
30
0
41
1
10
-1.99503997793928
20
12.0099077332894
30
0
41
1
10
-1.99503997793928
20
12.1835401119863
30
0
41
1
10
-1.99503997793928
20
12.3545748152048
30
0
41
1
10
-1.99503997793928
20
12.4813812679684
30
0
41
1
10
-1.99503997793928
20
12.606768466692
30
0
41
1
10
-1.99503997793928
20
12.7721223429484
30
0
41
1
10
-1.99503997793928
20
12.9344093145834
30
0
41
1
10
-1.99503997793928
20
13.09401974916
30
0
41
1
10
-1.99503997793928
20
13.2122307400427
30
0
41
1
10
-1.99503997793928
20
13.328990109671
30
0
41
1
10
-1.99503997793928
20
13.482790135872
30
0
41
1
10
-1.99503997793928
20
13.6334713769854
30
0
41
1
10
-1.99503997793928
20
13.7813876415877
30
0
41
1
10
-1.99503997793928
20
13.8907947247769
30
0
41
1
10
-1.99503997793928
20
13.9987118830366
30
0
41
1
10
-1.99503997793928
20
14.1406647198644
30
0
41
1
10
-1.99503997793928
20
14.2794333721973
30
0
41
1
10
-1.99503997793928
20
14.4153366771621
30
0
41
1
10
-1.99503997793928
20
14.5156939096276
30
0
41
1
10
-1.99503997793928
20
14.6145160455858
30
0
41
1
10
-1.99503997793928
20
14.7442755428493
30
0
41
1
10
-1.99503997793928
20
14.8707702235387
30
0
41
1
10
-1.99503997793928
20
14.9942846604514
30
0
41
1
10
-1.99503997793928
20
15.0853020659337
30
0
41
1
10
-1.99503997793928
20
15.1747311694574
30
0
41
1
10
-1.99503997793928
20
15.2918890118945
30
0
41
1
10
-1.99503997793928
20
15.4056838451686
30
0
41
1
10
-1.99503997793928
20
15.5163656256123
30
0
41
1
10
-1.99503997793928
20
15.5977008436634
30
0
41
1
10
-1.99503997793928
20
15.677384958149
30
0
41
1
10
-1.99503997793928
20
15.7814584486047
30
0
41
1
10
-1.99503997793928
20
15.8820499794418
30
0
41
1
10
-1.99503997793928
20
15.979373490825
30
0
41
1
10
-1.99503997793928
20
16.0506207732709
30
0
41
1
10
-1.99503997793928
20
16.1201424382026
30
0
41
1
10
-1.99503997793928
20
16.1879246249361
30
0
41
1
10
-1.99503997793928
20
16.2539521138773
30
0
41
1
10
-1.99503997793928
20
16.3182114219941
30
0
41
1
10
-1.99503997793928
20
16.3806869939664
30
0
41
1
10
-1.99503997793928
20
16.4616240004255
30
0
41
1
10
-1.99503997793928
20
16.5388242186582
30
0
41
1
10
-1.99503997793928
20
16.6124299551483
30
0
41
1
10
-1.99503997793928
20
16.6835453056651
30
0
41
1
10
-1.99503997793928
20
16.7507929832779
30
0
41
1
10
-1.99503997793928
20
16.8142877036056
30
0
41
1
10
-1.99503997793928
20
16.8751872660894
30
0
41
1
10
-1.99503997793928
20
16.9320728615657
30
0
41
1
10
-1.99503997793928
20
16.9850205529168
30
0
41
1
10
-1.99503997793928
20
17.0226787925821
30
0
41
1
10
-1.99503997793928
20
17.0582791326422
30
0
41
1
10
-1.99503997793928
20
17.1029924242497
30
0
41
1
10
-1.99503997793928
20
17.143423992764
30
0
41
1
10
-1.99503997793928
20
17.1795895960111
30
0
41
1
10
-1.99503997793928
20
17.2045053960087
30
0
41
1
10
-1.99503997793928
20
17.2271975457698
30
0
41
1
10
-1.99503997793928
20
17.2476335117891
30
0
41
1
10
-1.99503997793931
20
17.2657805776118
30
0
41
1
10
-1.99503997793931
20
17.2816041041457
30
0
41
1
10
-1.99503997793931
20
17.295067771448
30
0
41
1
10
-1.99503997793931
20
17.3061342577567
30
0
41
1
10
-1.99503997793931
20
17.314763700365
30
0
41
1
10
-1.99503997793928
20
17.3189471323616
30
0
41
1
10
-1.99503997793928
20
17.320625392495
30
0
41
1
10
-1.99503997793926
20
17.3206894686581
30
0
0
SPLINE
5
129
100
AcDbEntity
8
SK1
62
256
6
ByLayer
370
18
48
1
60
0
100
AcDbSpline
70
4
71
3
72
24
73
20
40
0
40
0
40
0
40
0
40
0.031249999999999
40
0.031249999999999
40
0.062499999999998
40
0.062499999999998
40
0.093749999999997
40
0.093749999999997
40
0.124999999999996
40
0.124999999999996
40
0.187499999999996
40
0.187499999999996
40
0.249999999999997
40
0.249999999999997
40
0.499999999999998
40
0.499999999999998
40
0.749999999999999
40
0.749999999999999
40
1
40
1
40
1
40
1
41
1
10
-0.394976888872918
20
5.38678223324206
30
0
41
1
10
-0.388503745329018
20
5.38128319480973
30
0
41
1
10
-0.381388986847952
20
5.37647349151382
30
0
41
1
10
-0.36564513072949
20
5.37003095057872
30
0
41
1
10
-0.356875018489404
20
5.36852559182833
30
0
41
1
10
-0.339464630966916
20
5.3710178369144
30
0
41
1
10
-0.33098524294985
20
5.37503833637228
30
0
41
1
10
-0.31651065282108
20
5.38583151921282
30
0
41
1
10
-0.310292654930208
20
5.39251318392277
30
0
41
1
10
-0.293803612204755
20
5.41390802600509
30
0
41
1
10
-0.285544077573888
20
5.42989034626174
30
0
41
1
10
-0.271326596659975
20
5.462420470936
30
0
41
1
10
-0.265514310429893
20
5.47895729783244
30
0
41
1
10
-0.239827472074296
20
5.56231823892315
30
0
41
1
10
-0.229021554776978
20
5.63115874840238
30
0
41
1
10
-0.212565919448878
20
5.76699630063504
30
0
41
1
10
-0.207636724465999
20
5.8346241685793
30
0
41
1
10
-0.201310577492052
20
5.96939105744727
30
0
41
1
10
-0.20000000000033
20
6.03652860978244
30
0
41
1
10
-0.20000000000033
20
6.10344667966001
30
0
0
SPLINE
5
12A
100
AcDbEntity
8
SK1
62
256
6
ByLayer
370
18
48
1
60
0
100
AcDbSpline
70
4
71
3
72
282
73
278
40
0
40
0
40
0
40
0
40
0.0031738306170009
40
0.0067481174376171
40
0.0103224042582332
40
0.0138966910788494
40
0.0174709778994655
40
0.0210452647200817
40
0.0246195515406979
40
0.028193838361314
40
0.0317681251819302
40
0.0353424120025463
40
0.0424909856437786
40
0.0460652724643948
40
0.049639559285011
40
0.0532138461056271
40
0.0567881329262433
40
0.0639367065674756
40
0.0675109933880917
40
0.0710852802087079
40
0.0782338538499402
40
0.0818081406705564
40
0.0853824274911725
40
0.0925310011324048
40
0.096105287953021
40
0.0996795747736372
40
0.103253861594253
40
0.106828148414869
40
0.110402435235486
40
0.113976722056102
40
0.117551008876718
40
0.121125295697334
40
0.128273869338566
40
0.131848156159183
40
0.135422442979799
40
0.138996729800415
40
0.142571016621031
40
0.149719590262263
40
0.15329387708288
40
0.155081020493188
40
0.156868163903496
40
0.160442450724112
40
0.164016737544728
40
0.17116531118596
40
0.174739598006577
40
0.178313884827193
40
0.181888171647809
40
0.185462458468425
40
0.192611032109657
40
0.196185318930273
40
0.19975960575089
40
0.203333892571506
40
0.206908179392122
40
0.214056753033354
40
0.21763103985397
40
0.221205326674587
40
0.224779613495203
40
0.228353900315819
40
0.235502473957051
40
0.239076760777667
40
0.242651047598283
40
0.2462253344189
40
0.249799621239516
40
0.256948194880748
40
0.260522481701364
40
0.26409676852198
40
0.271245342163213
40
0.278393915804445
40
0.281968202625061
40
0.285542489445677
40
0.29269106308691
40
0.296265349907526
40
0.299839636728142
40
0.303413923548758
40
0.306988210369374
40
0.310562497189991
40
0.314136784010607
40
0.321285357651839
40
0.328433931293071
40
0.332008218113687
40
0.335582504934304
40
0.33915679175492
40
0.342731078575536
40
0.346305365396152
40
0.349879652216768
40
0.357028225858
40
0.364176799499233
40
0.371325373140465
40
0.374899659961081
40
0.378473946781697
40
0.382048233602314
40
0.38562252042293
40
0.389196807243546
40
0.392771094064162
40
0.396345380884778
40
0.399919667705394
40
0.403493954526011
40
0.407068241346627
40
0.410642528167243
40
0.414216814987859
40
0.417791101808475
40
0.421365388629091
40
0.424939675449708
40
0.428513962270324
40
0.43208824909094
40
0.433875392501248
40
0.435662535911556
40
0.437449679321864
40
0.439236822732172
40
0.442811109552788
40
0.446385396373404
40
0.448172539783713
40
0.449959683194021
40
0.453533970014637
40
0.455321113424945
40
0.457108256835253
40
0.458895400245561
40
0.460682543655869
40
0.462469687066177
40
0.464256830476485
40
0.466043973886793
40
0.467831117297101
40
0.469618260707409
40
0.471405404117717
40
0.473192547528026
40
0.474979690938334
40
0.476766834348642
40
0.47855397775895
40
0.480341121169258
40
0.482128264579566
40
0.483915407989874
40
0.485702551400182
40
0.48748969481049
40
0.489276838220798
40
0.491063981631106
40
0.492851125041414
40
0.494638268451722
40
0.496425411862031
40
0.498212555272339
40
0.499999698682647
40
0.501786842092955
40
0.503573985503263
40
0.505361128913571
40
0.507148272323879
40
0.508935415734187
40
0.510722559144495
40
0.512509702554803
40
0.514296845965111
40
0.516083989375419
40
0.517871132785728
40
0.519658276196036
40
0.521445419606344
40
0.523232563016652
40
0.52501970642696
40
0.526806849837268
40
0.528593993247576
40
0.530381136657884
40
0.532168280068192
40
0.5339554234785
40
0.535742566888808
40
0.537529710299116
40
0.539316853709425
40
0.542891140530041
40
0.544678283940349
40
0.546465427350657
40
0.548252570760965
40
0.550039714171273
40
0.551826857581581
40
0.553614000991889
40
0.557188287812505
40
0.560762574633122
40
0.562549718043429
40
0.564336861453738
40
0.566124004864046
40
0.567911148274354
40
0.57148543509497
40
0.575059721915586
40
0.578634008736202
40
0.582208295556818
40
0.585782582377435
40
0.589356869198051
40
0.592931156018667
40
0.596505442839283
40
0.600079729659899
40
0.603654016480515
40
0.607228303301132
40
0.610802590121748
40
0.614376876942364
40
0.61795116376298
40
0.621525450583596
40
0.625099737404212
40
0.628674024224828
40
0.635822597866061
40
0.642971171507293
40
0.650119745148525
40
0.653694031969142
40
0.657268318789758
40
0.660842605610374
40
0.66441689243099
40
0.667991179251606
40
0.671565466072222
40
0.678714039713455
40
0.685862613354687
40
0.689436900175303
40
0.693011186995919
40
0.696585473816535
40
0.700159760637152
40
0.703734047457768
40
0.707308334278384
40
0.714456907919616
40
0.718031194740232
40
0.721605481560848
40
0.728754055202081
40
0.735902628843313
40
0.739476915663929
40
0.743051202484545
40
0.750199776125778
40
0.753774062946394
40
0.75734834976701
40
0.760922636587626
40
0.764496923408242
40
0.771645497049475
40
0.775219783870091
40
0.778794070690707
40
0.782368357511323
40
0.785942644331939
40
0.793091217973172
40
0.796665504793788
40
0.800239791614404
40
0.80381407843502
40
0.807388365255636
40
0.814536938896869
40
0.818111225717485
40
0.821685512538101
40
0.825259799358717
40
0.828834086179333
40
0.835982659820566
40
0.839556946641182
40
0.843131233461798
40
0.846705520282414
40
0.85027980710303
40
0.857428380744263
40
0.861002667564879
40
0.864576954385495
40
0.868151241206111
40
0.871725528026727
40
0.878874101667959
40
0.882448388488576
40
0.886022675309192
40
0.889596962129808
40
0.893171248950424
40
0.89674553577104
40
0.900319822591656
40
0.903894109412273
40
0.907468396232889
40
0.914616969874121
40
0.918191256694737
40
0.921765543515353
40
0.928914117156586
40
0.932488403977202
40
0.936062690797818
40
0.94321126443905
40
0.946785551259667
40
0.950359838080283
40
0.953934124900899
40
0.957508411721515
40
0.964656985362747
40
0.968231272183363
40
0.97180555900398
40
0.975379845824596
40
0.978954132645212
40
0.982528419465828
40
0.986102706286444
40
0.98967699310706
40
0.993251279927676
40
0.996825566748293
40
1
40
1
40
1
40
1
41
1
10
-2.19999999999999
20
-17.5147865519249
30
0
41
1
10
-2.20000000000002
20
-17.5132387716727
30
0
41
1
10
-2.19999999999999
20
-17.5092374659287
30
0
41
1
10
-2.19999999999999
20
-17.5008423321234
30
0
41
1
10
-2.19999999999999
20
-17.4896606126054
30
0
41
1
10
-2.19999999999999
20
-17.4760589706817
30
0
41
1
10
-2.19999999999999
20
-17.4600756994924
30
0
41
1
10
-2.19999999999999
20
-17.4417480876219
30
0
41
1
10
-2.19999999999999
20
-17.4211116738093
30
0
41
1
10
-2.19999999999999
20
-17.398199993695
30
0
41
1
10
-2.19999999999999
20
-17.3730462873428
30
0
41
1
10
-2.19999999999999
20
-17.3365615705832
30
0
41
1
10
-2.19999999999999
20
-17.2957083328928
30
0
41
1
10
-2.19999999999999
20
-17.250613323192
30
0
41
1
10
-2.19999999999999
20
-17.2146924603873
30
0
41
1
10
-2.19999999999999
20
-17.1766986986672
30
0
41
1
10
-2.19999999999999
20
-17.123313852319
30
0
41
1
10
-2.19999999999999
20
-17.0658713913631
30
0
41
1
10
-2.19999999999999
20
-17.0044820909957
30
0
41
1
10
-2.19999999999999
20
-16.9404820184079
30
0
41
1
10
-2.19999999999999
20
-16.8725984731112
30
0
41
1
10
-2.19999999999999
20
-16.8009296884544
30
0
41
1
10
-2.19999999999999
20
-16.7267561914694
30
0
41
1
10
-2.19999999999999
20
-16.6488473199257
30
0
41
1
10
-2.19999999999999
20
-16.5672977619412
30
0
41
1
10
-2.19999999999999
20
-16.5043209901434
30
0
41
1
10
-2.19999999999999
20
-16.439549393056
30
0
41
1
10
-2.19999999999999
20
-16.3729983688048
30
0
41
1
10
-2.19999999999996
20
-16.3046816359758
30
0
41
1
10
-2.19999999999999
20
-16.2346146707391
30
0
41
1
10
-2.19999999999999
20
-16.1628111223414
30
0
41
1
10
-2.19999999999999
20
-16.0647793597711
30
0
41
1
10
-2.19999999999999
20
-15.9633135259672
30
0
41
1
10
-2.19999999999999
20
-15.8584914079188
30
0
41
1
10
-2.19999999999996
20
-15.7781982539187
30
0
41
1
10
-2.19999999999999
20
-15.6962433571227
30
0
41
1
10
-2.19999999999999
20
-15.5847743990242
30
0
41
1
10
-2.19999999999996
20
-15.4700110929875
30
0
41
1
10
-2.19999999999999
20
-15.3667724139347
30
0
41
1
10
-2.19999999999999
20
-15.3069761679616
30
0
41
1
10
-2.19999999999999
20
-15.2466455133785
30
0
41
1
10
-2.19999999999999
20
-15.1702261509224
30
0
41
1
10
-2.19999999999999
20
-15.0458464314392
30
0
41
1
10
-2.19999999999999
20
-14.9182892218295
30
0
41
1
10
-2.19999999999999
20
-14.7876243995297
30
0
41
1
10
-2.19999999999999
20
-14.6880675812844
30
0
41
1
10
-2.19999999999999
20
-14.5869647126432
30
0
41
1
10
-2.19999999999999
20
-14.4501162106047
30
0
41
1
10
-2.19999999999999
20
-14.3101885914782
30
0
41
1
10
-2.19999999999999
20
-14.1672492642274
30
0
41
1
10
-2.19999999999996
20
-14.0585319334344
30
0
41
1
10
-2.19999999999999
20
-13.9483131264862
30
0
41
1
10
-2.19999999999996
20
-13.7993681905533
30
0
41
1
10
-2.19999999999996
20
-13.6474264531923
30
0
41
1
10
-2.19999999999999
20
-13.4925540411334
30
0
41
1
10
-2.19999999999999
20
-13.3749248996582
30
0
41
1
10
-2.19999999999999
20
-13.2558316973182
30
0
41
1
10
-2.19999999999996
20
-13.0951031927999
30
0
41
1
10
-2.19999999999999
20
-12.9314463925932
30
0
41
1
10
-2.19999999999999
20
-12.7649271637091
30
0
41
1
10
-2.19999999999996
20
-12.6385945454976
30
0
41
1
10
-2.19999999999999
20
-12.510829004708
30
0
41
1
10
-2.19999999999996
20
-12.3385783781737
30
0
41
1
10
-2.19999999999996
20
-12.1634558646821
30
0
41
1
10
-2.19999999999996
20
-11.9855280067157
30
0
41
1
10
-2.19999999999996
20
-11.8057194023465
30
0
41
1
10
-2.19999999999999
20
-11.5774197477568
30
0
41
1
10
-2.19999999999999
20
-11.3444552554371
30
0
41
1
10
-2.19999999999996
20
-11.1553144582602
30
0
41
1
10
-2.19999999999999
20
-10.9643215989582
30
0
41
1
10
-2.19999999999996
20
-10.7705258416001
30
0
41
1
10
-2.19999999999996
20
-10.5740001651573
30
0
41
1
10
-2.19999999999999
20
-10.4252201002359
30
0
41
1
10
-2.19999999999999
20
-10.2750653748105
30
0
41
1
10
-2.19999999999996
20
-10.123538466054
30
0
41
1
10
-2.19999999999996
20
-9.97064123613964
30
0
41
1
10
-2.19999999999996
20
-9.76496631110049
30
0
41
1
10
-2.19999999999996
20
-9.50443394039922
30
0
41
1
10
-2.19999999999996
20
-9.23936571773672
30
0
41
1
10
-2.19999999999999
20
-9.02461799205523
30
0
41
1
10
-2.19999999999996
20
-8.86219304073114
30
0
41
1
10
-2.19999999999996
20
-8.69841428877766
30
0
41
1
10
-2.19999999999996
20
-8.53328407858575
30
0
41
1
10
-2.19999999999996
20
-8.36680341033821
30
0
41
1
10
-2.19999999999996
20
-8.14304411844032
30
0
41
1
10
-2.19999999999996
20
-7.85994708827315
30
0
41
1
10
-2.19999999999999
20
-7.51487112820209
30
0
41
1
10
-2.19999999999996
20
-7.22282328452869
30
0
41
1
10
-2.19999999999996
20
-6.98653550324826
30
0
41
1
10
-2.19999999999996
20
-6.80797159432129
30
0
41
1
10
-2.19999999999996
20
-6.6280727178615
30
0
41
1
10
-2.19999999999996
20
-6.44684092947375
30
0
41
1
10
-2.19999999999996
20
-6.26427796235188
30
0
41
1
10
-2.19999999999996
20
-6.0803860968085
30
0
41
1
10
-2.19999999999996
20
-5.89516734859464
30
0
41
1
10
-2.19999999999996
20
-5.70862461825791
30
0
41
1
10
-2.19999999999996
20
-5.52076102284181
30
0
41
1
10
-2.19999999999996
20
-5.33157993903225
30
0
41
1
10
-2.19999999999996
20
-5.14108500618136
30
0
41
1
10
-2.19999999999996
20
-4.94928076863457
30
0
41
1
10
-2.19999999999996
20
-4.75617249379653
30
0
41
1
10
-2.19999999999996
20
-4.56176617271481
30
0
41
1
10
-2.19999999999996
20
-4.36606871643775
30
0
41
1
10
-2.19999999999999
20
-4.169088511784
30
0
41
1
10
-2.19999999999996
20
-4.00386592221611
30
0
41
1
10
-2.19999999999996
20
-3.87107811616198
30
0
41
1
10
-2.19999999999996
20
-3.77116418775421
30
0
41
1
10
-2.19999999999996
20
-3.67093805397229
30
0
41
1
10
-2.19999999999996
20
-3.53690183437425
30
0
41
1
10
-2.19999999999999
20
-3.36855659963138
30
0
41
1
10
-2.19999999999996
20
-3.19919952332833
30
0
41
1
10
-2.19999999999996
20
-3.06314133551615
30
0
41
1
10
-2.19999999999996
20
-2.92668912429062
30
0
41
1
10
-2.19999999999999
20
-2.78960994504098
30
0
41
1
10
-2.19999999999996
20
-2.65200559968281
30
0
41
1
10
-2.19999999999996
20
-2.54851063247165
30
0
41
1
10
-2.19999999999996
20
-2.44473977839388
30
0
41
1
10
-2.19999999999996
20
-2.34069812940874
30
0
41
1
10
-2.19999999999996
20
-2.23639086291988
30
0
41
1
10
-2.19999999999996
20
-2.13182396747069
30
0
41
1
10
-2.19999999999999
20
-2.02700349385552
30
0
41
1
10
-2.19999999999996
20
-1.92193654804359
30
0
41
1
10
-2.19999999999999
20
-1.81663009373557
30
0
41
1
10
-2.19999999999996
20
-1.71109232444704
30
0
41
1
10
-2.19999999999996
20
-1.60533156181745
30
0
41
1
10
-2.19999999999996
20
-1.49935699380708
30
0
41
1
10
-2.19999999999996
20
-1.39317848503856
30
0
41
1
10
-2.19999999999996
20
-1.2868063464968
30
0
41
1
10
-2.19999999999996
20
-1.18025198377217
30
0
41
1
10
-2.19999999999996
20
-1.07352702949097
30
0
41
1
10
-2.19999999999996
20
-0.966644355262389
30
0
41
1
10
-2.19999999999996
20
-0.859617007920491
30
0
41
1
10
-2.19999999999996
20
-0.752459230354134
30
0
41
1
10
-2.19999999999999
20
-0.645185463980482
30
0
41
1
10
-2.19999999999996
20
-0.537811175438549
30
0
41
1
10
-2.19999999999999
20
-0.430352036900842
30
0
41
1
10
-2.19999999999996
20
-0.322824507999513
30
0
41
1
10
-2.19999999999996
20
-0.21524522393176
30
0
41
1
10
-2.19999999999996
20
-0.107631313716809
30
0
41
1
10
-2.19999999999996
20
-5.9909553E-09
30
0
41
1
10
-2.19999999999996
20
0.107631302158211
30
0
41
1
10
-2.19999999999996
20
0.215245213108545
30
0
41
1
10
-2.19999999999996
20
0.322824496958617
30
0
41
1
10
-2.19999999999996
20
0.430352024765995
30
0
41
1
10
-2.19999999999996
20
0.537811163545626
30
0
41
1
10
-2.19999999999996
20
0.6451854537342
30
0
41
1
10
-2.19999999999996
20
0.752459219961509
30
0
41
1
10
-2.19999999999996
20
0.859616995486334
30
0
41
1
10
-2.19999999999996
20
0.96664434311532
30
0
41
1
10
-2.19999999999996
20
1.073527020087
30
0
41
1
10
-2.19999999999996
20
1.18025197439016
30
0
41
1
10
-2.19999999999996
20
1.28680633401083
30
0
41
1
10
-2.19999999999996
20
1.39317847233164
30
0
41
1
10
-2.19999999999996
20
1.49935698477981
30
0
41
1
10
-2.19999999999996
20
1.60533155404698
30
0
41
1
10
-2.19999999999996
20
1.71109231328521
30
0
41
1
10
-2.19999999999996
20
1.81663008016324
30
0
41
1
10
-2.19999999999996
20
1.92193653735018
30
0
41
1
10
-2.19999999999996
20
2.02700348752293
30
0
41
1
10
-2.19999999999996
20
2.13182395998015
30
0
41
1
10
-2.19999999999996
20
2.23639085040648
30
0
41
1
10
-2.19999999999996
20
2.375450816946
30
0
41
1
10
-2.19999999999996
20
2.51402705629775
30
0
41
1
10
-2.19999999999996
20
2.65200561172494
30
0
41
1
10
-2.19999999999996
20
2.75522026664271
30
0
41
1
10
-2.19999999999996
20
2.85815023786418
30
0
41
1
10
-2.19999999999996
20
2.96079189341756
30
0
41
1
10
-2.19999999999996
20
3.06314133422208
30
0
41
1
10
-2.19999999999996
20
3.19919951970698
30
0
41
1
10
-2.19999999999996
20
3.36855658184021
30
0
41
1
10
-2.19999999999996
20
3.5369018254882
30
0
41
1
10
-2.19999999999996
20
3.67093805129474
30
0
41
1
10
-2.19999999999996
20
3.7711641857039
30
0
41
1
10
-2.19999999999996
20
3.87107810854147
30
0
41
1
10
-2.19999999999996
20
4.00386590607064
30
0
41
1
10
-2.19999999999996
20
4.16908849962462
30
0
41
1
10
-2.19999999999996
20
4.36606873641344
30
0
41
1
10
-2.19999999999996
20
4.56176620564526
30
0
41
1
10
-2.19999999999996
20
4.75617251627347
30
0
41
1
10
-2.19999999999999
20
4.94928086714648
30
0
41
1
10
-2.19999999999996
20
5.14108511996025
30
0
41
1
10
-2.19999999999996
20
5.33157993388585
30
0
41
1
10
-2.19999999999996
20
5.52076103085633
30
0
41
1
10
-2.19999999999996
20
5.70862469092603
30
0
41
1
10
-2.19999999999996
20
5.89516728223867
30
0
41
1
10
-2.19999999999996
20
6.0803858592752
30
0
41
1
10
-2.19999999999999
20
6.26427776637016
30
0
41
1
10
-2.19999999999996
20
6.44684086969582
30
0
41
1
10
-2.19999999999999
20
6.62807270531454
30
0
41
1
10
-2.19999999999999
20
6.80797157864473
30
0
41
1
10
-2.19999999999996
20
6.98653548716828
30
0
41
1
10
-2.19999999999996
20
7.22282329277962
30
0
41
1
10
-2.19999999999999
20
7.51487111531026
30
0
41
1
10
-2.19999999999996
20
7.85994707617317
30
0
41
1
10
-2.19999999999999
20
8.14304412571011
30
0
41
1
10
-2.19999999999999
20
8.36680339868337
30
0
41
1
10
-2.19999999999999
20
8.53328405958746
30
0
41
1
10
-2.19999999999996
20
8.69841428000512
30
0
41
1
10
-2.19999999999999
20
8.86219304475887
30
0
41
1
10
-2.19999999999996
20
9.02461799380217
30
0
41
1
10
-2.19999999999999
20
9.23936570098886
30
0
41
1
10
-2.19999999999999
20
9.50443392738597
30
0
41
1
10
-2.19999999999996
20
9.76496631801305
30
0
41
1
10
-2.19999999999999
20
9.9706412292081
30
0
41
1
10
-2.19999999999999
20
10.1235384488298
30
0
41
1
10
-2.19999999999999
20
10.2750653600417
30
0
41
1
10
-2.19999999999996
20
10.4252200954492
30
0
41
1
10
-2.19999999999999
20
10.5740001677826
30
0
41
1
10
-2.19999999999999
20
10.7705258372791
30
0
41
1
10
-2.19999999999999
20
10.96432157968
30
0
41
1
10
-2.19999999999999
20
11.1553144466797
30
0
41
1
10
-2.19999999999999
20
11.3444552561941
30
0
41
1
10
-2.19999999999999
20
11.5774197426994
30
0
41
1
10
-2.19999999999999
20
11.8057193844339
30
0
41
1
10
-2.19999999999999
20
11.9855279960913
30
0
41
1
10
-2.19999999999999
20
12.1634558634281
30
0
41
1
10
-2.19999999999999
20
12.3385783725546
30
0
41
1
10
-2.19999999999999
20
12.510828990928
30
0
41
1
10
-2.19999999999999
20
12.6385945304865
30
0
41
1
10
-2.19999999999999
20
12.7649271524075
30
0
41
1
10
-2.19999999999999
20
12.9314463879873
30
0
41
1
10
-2.19999999999999
20
13.0951031858018
30
0
41
1
10
-2.19999999999999
20
13.2558316845062
30
0
41
1
10
-2.19999999999999
20
13.3749248852381
30
0
41
1
10
-2.19999999999999
20
13.4925540283558
30
0
41
1
10
-2.19999999999999
20
13.6474264445926
30
0
41
1
10
-2.19999999999999
20
13.7993681823229
30
0
41
1
10
-2.19999999999999
20
13.9483131149779
30
0
41
1
10
-2.19999999999999
20
14.0585319196999
30
0
41
1
10
-2.19999999999999
20
14.1672492498436
30
0
41
1
10
-2.19999999999999
20
14.310188578504
30
0
41
1
10
-2.19999999999999
20
14.4501162009323
30
0
41
1
10
-2.19999999999999
20
14.5869647024964
30
0
41
1
10
-2.19999999999999
20
14.6880675684927
30
0
41
1
10
-2.19999999999999
20
14.7876243835494
30
0
41
1
10
-2.19999999999999
20
14.9182892137509
30
0
41
1
10
-2.19999999999999
20
15.0458463802595
30
0
41
1
10
-2.19999999999999
20
15.1702262286607
30
0
41
1
10
-2.19999999999999
20
15.2619258251736
30
0
41
1
10
-2.19999999999999
20
15.3520264687641
30
0
41
1
10
-2.19999999999999
20
15.4700110710185
30
0
41
1
10
-2.19999999999999
20
15.5847743861311
30
0
41
1
10
-2.19999999999999
20
15.6962433497342
30
0
41
1
10
-2.19999999999999
20
15.7781982427732
30
0
41
1
10
-2.19999999999999
20
15.8584913887799
30
0
41
1
10
-2.19999999999999
20
15.9633134995801
30
0
41
1
10
-2.19999999999999
20
16.0647793469533
30
0
41
1
10
-2.19999999999999
20
16.1628111167189
30
0
41
1
10
-2.19999999999999
20
16.2346146587631
30
0
41
1
10
-2.19999999999999
20
16.3046816133433
30
0
41
1
10
-2.19999999999999
20
16.3729983406747
30
0
41
1
10
-2.19999999999999
20
16.4395493732765
30
0
41
1
10
-2.19999999999999
20
16.5043209819811
30
0
41
1
10
-2.19999999999999
20
16.5672977573629
30
0
41
1
10
-2.19999999999999
20
16.6488472996885
30
0
41
1
10
-2.19999999999999
20
16.72675615712
30
0
41
1
10
-2.19999999999999
20
16.8009296734765
30
0
41
1
10
-2.19999999999999
20
16.8725984751516
30
0
41
1
10
-2.19999999999999
20
16.940481996521
30
0
41
1
10
-2.19999999999999
20
17.0044820563696
30
0
41
1
10
-2.19999999999999
20
17.0658713749174
30
0
41
1
10
-2.20000000000002
20
17.1233138560685
30
0
41
1
10
-2.19999999999999
20
17.1766986759848
30
0
41
1
10
-2.19999999999999
20
17.2146924230801
30
0
41
1
10
-2.19999999999999
20
17.2506132986913
30
0
41
1
10
-2.19999999999999
20
17.2957083393221
30
0
41
1
10
-2.19999999999999
20
17.3365615480365
30
0
41
1
10
-2.19999999999999
20
17.373046254225
30
0
41
1
10
-2.19999999999999
20
17.3981999720817
30
0
41
1
10
-2.20000000000002
20
17.4211116708093
30
0
41
1
10
-2.19999999999999
20
17.4417480829298
30
0
41
1
10
-2.20000000000002
20
17.4600756660117
30
0
41
1
10
-2.20000000000002
20
17.4760589345483
30
0
41
1
10
-2.20000000000002
20
17.4896606050755
30
0
41
1
10
-2.19999999999999
20
17.5008423359265
30
0
41
1
10
-2.19999999999999
20
17.5092379361602
30
0
41
1
10
-2.20000000000002
20
17.513239480862
30
0
41
1
10
-2.20000000000002
20
17.5147874486336
30
0
0
SPLINE
5
12B
100
AcDbEntity
8
SK1
62
256
6
ByLayer
370
18
48
1
60
0
100
AcDbSpline
70
4
71
3
72
30
73
26
40
0
40
0
40
0
40
0
40
0.0312500000000003
40
0.0312500000000003
40
0.0625000000000006
40
0.0625000000000006
40
0.093750000000001
40
0.093750000000001
40
0.125000000000001
40
0.125000000000001
40
0.156250000000002
40
0.156250000000002
40
0.187500000000002
40
0.187500000000002
40
0.250000000000001
40
0.250000000000001
40
0.3125
40
0.3125
40
0.375
40
0.375
40
0.5
40
0.5
40
0.75
40
0.75
40
1
40
1
40
1
40
1
41
1
10
-0.394976888875277
20
-5.38678189578292
30
0
41
1
10
-0.411121004362627
20
-5.4004965589908
30
0
41
1
10
-0.428233279222695
20
-5.41311535582494
30
0
41
1
10
-0.465309612185848
20
-5.4351486545529
30
0
41
1
10
-0.485247093192101
20
-5.44447298609398
30
0
41
1
10
-0.527143852803988
20
-5.45749158572377
30
0
41
1
10
-0.549766809572617
20
-5.46123817959725
30
0
41
1
10
-0.594625996823424
20
-5.46134910310997
30
0
41
1
10
-0.617367334499079
20
-5.45772890381818
30
0
41
1
10
-0.660019264070229
20
-5.44466656582571
30
0
41
1
10
-0.680396026591723
20
-5.43519415358125
30
0
41
1
10
-0.717834279017922
20
-5.41311904009152
30
0
41
1
10
-0.735191453829231
20
-5.40043958603152
30
0
41
1
10
-0.784451320222132
20
-5.35899057781569
30
0
41
1
10
-0.812480141629834
20
-5.32795417138178
30
0
41
1
10
-0.863579984272121
20
-5.26275715404719
30
0
41
1
10
-0.886669998197959
20
-5.22827369564408
30
0
41
1
10
-0.929038370947637
20
-5.15814871783951
30
0
41
1
10
-0.948360494973514
20
-5.12242801873617
30
0
41
1
10
-1.00258384146315
20
-5.01386242026871
30
0
41
1
10
-1.03381196991217
20
-4.9396358591267
30
0
41
1
10
-1.11904493500302
20
-4.71333034940324
30
0
41
1
10
-1.16474908109109
20
-4.55729858564035
30
0
41
1
10
-1.24418351237222
20
-4.24105736808264
30
0
41
1
10
-1.27767890904266
20
-4.0805998576204
30
0
41
1
10
-1.30710678118655
20
-3.91806548057696
30
0
0
SPLINE
5
12C
100
AcDbEntity
8
SK1
62
256
6
ByLayer
370
18
48
1
60
0
100
AcDbSpline
70
4
71
3
72
290
73
286
40
0
40
0
40
0
40
0
40
0.0008596839772039
40
0.004350179161667
40
0.0078406743461302
40
0.0113311695305933
40
0.0148216647150564
40
0.0183121598995195
40
0.0218026550839826
40
0.0252931502684458
40
0.0287836454529089
40
0.032274140637372
40
0.0357646358218351
40
0.0392551310062983
40
0.0427456261907614
40
0.0462361213752245
40
0.0532171117441507
40
0.0567076069286139
40
0.060198102113077
40
0.0636885972975401
40
0.0671790924820032
40
0.0741600828509295
40
0.0776505780353926
40
0.0811410732198557
40
0.0881220635887819
40
0.0916125587732451
40
0.0951030539577082
40
0.102084044326634
40
0.105574539511098
40
0.109065034695561
40
0.112555529880024
40
0.116046025064487
40
0.11953652024895
40
0.123027015433413
40
0.126517510617876
40
0.130008005802339
40
0.136988996171266
40
0.140479491355729
40
0.143969986540192
40
0.147460481724655
40
0.150950976909118
40
0.157931967278045
40
0.161422462462507
40
0.163167710054739
40
0.164912957646971
40
0.168403452831434
40
0.171893948015897
40
0.178874938384823
40
0.182365433569286
40
0.185855928753749
40
0.189346423938212
40
0.192836919122676
40
0.199817909491602
40
0.203308404676065
40
0.206798899860528
40
0.210289395044991
40
0.213779890229455
40
0.220760880598381
40
0.224251375782844
40
0.227741870967307
40
0.23123236615177
40
0.234722861336233
40
0.241703851705159
40
0.245194346889622
40
0.248684842074086
40
0.252175337258549
40
0.255665832443012
40
0.262646822811938
40
0.266137317996401
40
0.269627813180864
40
0.276608803549791
40
0.283589793918717
40
0.28708028910318
40
0.290570784287643
40
0.297551774656569
40
0.301042269841033
40
0.304532765025496
40
0.308023260209959
40
0.311513755394422
40
0.315004250578885
40
0.318494745763348
40
0.325475736132274
40
0.332456726501201
40
0.335947221685664
40
0.339437716870127
40
0.34292821205459
40
0.346418707239053
40
0.349909202423516
40
0.353399697607979
40
0.360380687976905
40
0.367361678345832
40
0.374342668714758
40
0.377833163899221
40
0.381323659083684
40
0.384814154268148
40
0.388304649452611
40
0.391795144637074
40
0.395285639821537
40
0.398776135006
40
0.402266630190463
40
0.405757125374926
40
0.409247620559389
40
0.412738115743852
40
0.416228610928315
40
0.419719106112779
40
0.423209601297242
40
0.426700096481705
40
0.430190591666168
40
0.433681086850631
40
0.435426334442863
40
0.437171582035094
40
0.438916829627326
40
0.440662077219558
40
0.444152572404021
40
0.447643067588484
40
0.449388315180715
40
0.451133562772947
40
0.45462405795741
40
0.456369305549642
40
0.458114553141873
40
0.459859800734104
40
0.461605048326336
40
0.463350295918568
40
0.465095543510799
40
0.466840791103031
40
0.468586038695262
40
0.470331286287494
40
0.472076533879725
40
0.473821781471957
40
0.475567029064189
40
0.47731227665642
40
0.479057524248652
40
0.480802771840883
40
0.482548019433115
40
0.484293267025346
40
0.486038514617578
40
0.48778376220981
40
0.489529009802041
40
0.491274257394273
40
0.493019504986504
40
0.494764752578736
40
0.496510000170967
40
0.498255247763199
40
0.500000495355431
40
0.501745742947662
40
0.503490990539894
40
0.505236238132125
40
0.506981485724357
40
0.508726733316588
40
0.51047198090882
40
0.512217228501051
40
0.513962476093283
40
0.515707723685515
40
0.517452971277746
40
0.519198218869978
40
0.520943466462209
40
0.522688714054441
40
0.524433961646672
40
0.526179209238904
40
0.527924456831136
40
0.529669704423367
40
0.531414952015599
40
0.53316019960783
40
0.534905447200062
40
0.536650694792293
40
0.538395942384525
40
0.541886437568988
40
0.543631685161219
40
0.545376932753451
40
0.547122180345683
40
0.548867427937914
40
0.550612675530146
40
0.552357923122377
40
0.555848418306841
40
0.559338913491304
40
0.561084161083535
40
0.562829408675767
40
0.564574656267998
40
0.56631990386023
40
0.569810399044693
40
0.573300894229156
40
0.576791389413619
40
0.580281884598082
40
0.583772379782545
40
0.587262874967008
40
0.590753370151472
40
0.594243865335935
40
0.597734360520398
40
0.601224855704861
40
0.604715350889324
40
0.608205846073787
40
0.61169634125825
40
0.615186836442713
40
0.618677331627177
40
0.62216782681164
40
0.625658321996103
40
0.632639312365029
40
0.639620302733955
40
0.646601293102882
40
0.650091788287345
40
0.653582283471808
40
0.657072778656271
40
0.660563273840734
40
0.664053769025197
40
0.66754426420966
40
0.674525254578587
40
0.681506244947513
40
0.684996740131976
40
0.688487235316439
40
0.691977730500902
40
0.695468225685365
40
0.698958720869828
40
0.702449216054292
40
0.709430206423218
40
0.712920701607681
40
0.716411196792144
40
0.723392187161071
40
0.730373177529997
40
0.73386367271446
40
0.737354167898923
40
0.744335158267849
40
0.747825653452312
40
0.751316148636775
40
0.754806643821238
40
0.758297139005702
40
0.765278129374628
40
0.768768624559091
40
0.772259119743554
40
0.775749614928017
40
0.77924011011248
40
0.786221100481407
40
0.78971159566587
40
0.793202090850333
40
0.796692586034796
40
0.800183081219259
40
0.807164071588185
40
0.810654566772648
40
0.814145061957111
40
0.817635557141575
40
0.821126052326038
40
0.828107042694964
40
0.831597537879427
40
0.83508803306389
40
0.838578528248353
40
0.842069023432816
40
0.849050013801743
40
0.852540508986206
40
0.856031004170669
40
0.859521499355132
40
0.863011994539595
40
0.869992984908522
40
0.873483480092985
40
0.876973975277448
40
0.880464470461911
40
0.883954965646374
40
0.887445460830837
40
0.8909359560153
40
0.894426451199763
40
0.897916946384227
40
0.904897936753153
40
0.908388431937616
40
0.911878927122079
40
0.918859917491005
40
0.922350412675468
40
0.925840907859932
40
0.932821898228858
40
0.936312393413321
40
0.939802888597784
40
0.943293383782247
40
0.94678387896671
40
0.953764869335637
40
0.9572553645201
40
0.960745859704563
40
0.964236354889026
40
0.967726850073489
40
0.971217345257952
40
0.974707840442415
40
0.978198335626878
40
0.981688830811341
40
0.985179325995805
40
0.988669821180268
40
0.992160316364731
40
0.995650811549194
40
0.999141306733657
40
1
40
1
40
1
40
1
41
1
10
-28.5
20
-16.8570615102664
30
0
41
1
10
-28.5
20
-16.8573439103113
30
0
41
1
10
-28.5
20
-16.8586399004367
30
0
41
1
10
-28.5
20
-16.8597680746869
30
0
41
1
10
-28.5
20
-16.8587319423622
30
0
41
1
10
-28.5
20
-16.8551966659016
30
0
41
1
10
-28.5
20
-16.8492033090471
30
0
41
1
10
-28.5
20
-16.8407921763224
30
0
41
1
10
-28.5
20
-16.8300011251081
30
0
41
1
10
-28.5
20
-16.816867307208
30
0
41
1
10
-28.5
20
-16.8014255596809
30
0
41
1
10
-28.5
20
-16.7837098927271
30
0
41
1
10
-28.5
20
-16.7637529737167
30
0
41
1
10
-28.5
20
-16.741585550229
30
0
41
1
10
-28.5
20
-16.7172383773105
30
0
41
1
10
-28.5
20
-16.6818354096897
30
0
41
1
10
-28.5
20
-16.642411504334
30
0
41
1
10
-28.5
20
-16.5986105943247
30
0
41
1
10
-28.5
20
-16.5637763395248
30
0
41
1
10
-28.5
20
-16.5269199399481
30
0
41
1
10
-28.5
20
-16.4750169286961
30
0
41
1
10
-28.5
20
-16.4194622696319
30
0
41
1
10
-28.5
20
-16.3597332242326
30
0
41
1
10
-28.5
20
-16.2974462376793
30
0
41
1
10
-28.5
20
-16.2317181619347
30
0
41
1
10
-28.5
20
-16.1619255341458
30
0
41
1
10
-28.5
20
-16.0896767899468
30
0
41
1
10
-28.5
20
-16.0141701800502
30
0
41
1
10
-28.5
20
-15.9346970807191
30
0
41
1
10
-28.5
20
-15.8734193510279
30
0
41
1
10
-28.5
20
-15.810384423087
30
0
41
1
10
-28.5
20
-15.7456081924762
30
0
41
1
10
-28.5
20
-15.679103534252
30
0
41
1
10
-28.5
20
-15.6108850733398
30
0
41
1
10
-28.5
20
-15.5409672073329
30
0
41
1
10
-28.5
20
-15.4453363938053
30
0
41
1
10
-28.5
20
-15.3468344527491
30
0
41
1
10
-28.5
20
-15.2445501295776
30
0
41
1
10
-28.5
20
-15.1663215599361
30
0
41
1
10
-28.5
20
-15.086467321316
30
0
41
1
10
-28.5
20
-14.9776668655465
30
0
41
1
10
-28.5
20
-14.8661866667289
30
0
41
1
10
-28.5
20
-14.7654709460418
30
0
41
1
10
-28.5
20
-14.7070919001429
30
0
41
1
10
-28.5
20
-14.6481896525931
30
0
41
1
10
-28.5
20
-14.5737935062701
30
0
41
1
10
-28.5
20
-14.452347405446
30
0
41
1
10
-28.5
20
-14.328392039309
30
0
41
1
10
-28.5
20
-14.2007962250068
30
0
41
1
10
-28.5
20
-14.1037299370702
30
0
41
1
10
-28.5
20
-14.0051547249398
30
0
41
1
10
-28.5
20
-13.8715103854275
30
0
41
1
10
-28.5
20
-13.7355116125921
30
0
41
1
10
-28.5
20
-13.5959164434403
30
0
41
1
10
-28.5
20
-13.4899116562855
30
0
41
1
10
-28.5
20
-13.3824445445542
30
0
41
1
10
-28.5
20
-13.2369867372074
30
0
41
1
10
-28.5
20
-13.0893180117675
30
0
41
1
10
-28.5
20
-12.9380809438717
30
0
41
1
10
-28.5
20
-12.8234002933141
30
0
41
1
10
-28.5
20
-12.7072977423403
30
0
41
1
10
-28.5
20
-12.5503594172971
30
0
41
1
10
-28.5
20
-12.3913462461042
30
0
41
1
10
-28.5
20
-12.2287775174238
30
0
41
1
10
-28.5
20
-12.1056498404809
30
0
41
1
10
-28.5
20
-11.9811355648908
30
0
41
1
10
-28.5
20
-11.8130068303033
30
0
41
1
10
-28.5
20
-11.6429357656381
30
0
41
1
10
-28.5
20
-11.4693068596265
30
0
41
1
10
-28.5
20
-11.2938625632929
30
0
41
1
10
-28.5
20
-11.0718089525805
30
0
41
1
10
-28.5
20
-10.8452681286137
30
0
41
1
10
-28.5
20
-10.6608197986608
30
0
41
1
10
-28.5
20
-10.4745957936973
30
0
41
1
10
-28.5
20
-10.2866518813937
30
0
41
1
10
-28.5
20
-10.095113531911
30
0
41
1
10
-28.5
20
-9.95038952754788
30
0
41
1
10
-28.5
20
-9.80435457188474
30
0
41
1
10
-28.5
20
-9.65701506287493
30
0
41
1
10
-28.5
20
-9.50837344479851
30
0
41
1
10
-28.5
20
-9.30810991622684
30
0
41
1
10
-28.5
20
-9.05534969583792
30
0
41
1
10
-28.5
20
-8.79830467826932
30
0
41
1
10
-28.5
20
-8.58944234887983
30
0
41
1
10
-28.5
20
-8.43181570788789
30
0
41
1
10
-28.5
20
-8.27292308432649
30
0
41
1
10
-28.5
20
-8.11277014937085
30
0
41
1
10
-28.5
20
-7.95136176299604
30
0
41
1
10
-28.5
20
-7.73407184285281
30
0
41
1
10
-28.5
20
-7.46030865505762
30
0
41
1
10
-28.5
20
-7.12632144512301
30
0
41
1
10
-28.5
20
-6.84437400802861
30
0
41
1
10
-28.5
20
-6.61554357091572
30
0
41
1
10
-28.5
20
-6.4430903265563
30
0
41
1
10
-28.5
20
-6.26944357118299
30
0
41
1
10
-28.5
20
-6.09461208825527
30
0
41
1
10
-28.5
20
-5.91860495448572
30
0
41
1
10
-28.5
20
-5.74143237747984
30
0
41
1
10
-28.5
20
-5.56310445504442
30
0
41
1
10
-28.5
20
-5.38363156234237
30
0
41
1
10
-28.5
20
-5.2030267003301
30
0
41
1
10
-28.5
20
-5.0213044851898
30
0
41
1
10
-28.5
20
-4.83847943804494
30
0
41
1
10
-28.5
20
-4.65456683421039
30
0
41
1
10
-28.5
20
-4.4695846174555
30
0
41
1
10
-28.5
20
-4.28355297730505
30
0
41
1
10
-28.5
20
-4.09649259176146
30
0
41
1
10
-28.5
20
-3.90842799420625
30
0
41
1
10
-28.5
20
-3.75124942106058
30
0
41
1
10
-28.5
20
-3.62435506854831
30
0
41
1
10
-28.5
20
-3.52924322184191
30
0
41
1
10
-28.5
20
-3.43390157548936
30
0
41
1
10
-28.5
20
-3.30608709676801
30
0
41
1
10
-28.5
20
-3.14669074057869
30
0
41
1
10
-28.5
20
-2.98656948332388
30
0
41
1
10
-28.5
20
-2.8572942882393
30
0
41
1
10
-28.5
20
-2.72777279716706
30
0
41
1
10
-28.5
20
-2.59923374131699
30
0
41
1
10
-28.5
20
-2.46893613943033
30
0
41
1
10
-28.5
20
-2.37140757120355
30
0
41
1
10
-28.5
20
-2.27371679621317
30
0
41
1
10
-28.5
20
-2.17587292609082
30
0
41
1
10
-28.5
20
-2.0778804265363
30
0
41
1
10
-28.5
20
-1.9797500364362
30
0
41
1
10
-28.5
20
-1.88148718140701
30
0
41
1
10
-28.5
20
-1.78310084050699
30
0
41
1
10
-28.5
20
-1.6846006870125
30
0
41
1
10
-28.5
20
-1.58599188781932
30
0
41
1
10
-28.5
20
-1.48728656512978
30
0
41
1
10
-28.5
20
-1.38848913588993
30
0
41
1
10
-28.5
20
-1.28961134189754
30
0
41
1
10
-28.5
20
-1.19065859620264
30
0
41
1
10
-28.5
20
-1.09164077920423
30
0
41
1
10
-28.5
20
-0.992564112169873
30
0
41
1
10
-28.5
20
-0.89343688343348
30
0
41
1
10
-28.5
20
-0.794265459276176
30
0
41
1
10
-28.5
20
-0.695056784277028
30
0
41
1
10
-28.5
20
-0.595816495504096
30
0
41
1
10
-28.5
20
-0.496550594205559
30
0
41
1
10
-28.5
20
-0.397263840424017
30
0
41
1
10
-28.5
20
-0.297961388791691
30
0
41
1
10
-28.5
20
-0.198647127601248
30
0
41
1
10
-28.5
20
-0.0993254684405827
30
0
41
1
10
-28.5
20
5.4725149E-09
30
0
41
1
10
-28.5
20
0.0993254669347436
30
0
41
1
10
-28.5
20
0.198647102840738
30
0
41
1
10
-28.5
20
0.297961366795107
30
0
41
1
10
-28.5
20
0.397263853181812
30
0
41
1
10
-28.5
20
0.49655061320999
30
0
41
1
10
-28.5
20
0.595816468507252
30
0
41
1
10
-28.5
20
0.695056741362833
30
0
41
1
10
-28.5
20
0.794265471937138
30
0
41
1
10
-28.5
20
0.893436923932541
30
0
41
1
10
-28.5
20
0.992564090788449
30
0
41
1
10
-28.5
20
1.09164071478048
30
0
41
1
10
-28.5
20
1.19065859360987
30
0
41
1
10
-28.5
20
1.28961139997082
30
0
41
1
10
-28.5
20
1.38848914320587
30
0
41
1
10
-28.5
20
1.48728649469356
30
0
41
1
10
-28.5
20
1.58599184128096
30
0
41
1
10
-28.5
20
1.68460072925305
30
0
41
1
10
-28.5
20
1.78310090101277
30
0
41
1
10
-28.5
20
1.88148715614122
30
0
41
1
10
-28.5
20
1.97974994874616
30
0
41
1
10
-28.5
20
2.07788039572898
30
0
41
1
10
-28.5
20
2.20905952740142
30
0
41
1
10
-28.5
20
2.33842740009587
30
0
41
1
10
-28.5
20
2.46893611478751
30
0
41
1
10
-28.5
20
2.56629526768592
30
0
41
1
10
-28.5
20
2.66347976206254
30
0
41
1
10
-28.5
20
2.76048089001324
30
0
41
1
10
-28.5
20
2.85729421649611
30
0
41
1
10
-28.5
20
2.9865693987912
30
0
41
1
10
-28.5
20
3.14669072023423
30
0
41
1
10
-28.5
20
3.30608717079301
30
0
41
1
10
-28.5
20
3.43390158445521
30
0
41
1
10
-28.5
20
3.5292431593418
30
0
41
1
10
-28.5
20
3.6243549796439
30
0
41
1
10
-28.5
20
3.75124940963562
30
0
41
1
10
-28.5
20
3.90842813226232
30
0
41
1
10
-28.5
20
4.09649275318182
30
0
41
1
10
-28.5
20
4.28355302808069
30
0
41
1
10
-28.5
20
4.46958486845949
30
0
41
1
10
-28.5
20
4.65456716028004
30
0
41
1
10
-28.5
20
4.83847919931264
30
0
41
1
10
-28.5
20
5.0213042232472
30
0
41
1
10
-28.5
20
5.20302692387261
30
0
41
1
10
-28.5
20
5.38363134733163
30
0
41
1
10
-28.5
20
5.56310357372001
30
0
41
1
10
-28.5
20
5.74143189937953
30
0
41
1
10
-28.5
20
5.91860523667609
30
0
41
1
10
-28.5
20
6.09461246091772
30
0
41
1
10
-28.5
20
6.26944364545889
30
0
41
1
10
-28.5
20
6.44309029411608
30
0
41
1
10
-28.5
20
6.61554359890371
30
0
41
1
10
-28.5
20
6.84437402550569
30
0
41
1
10
-28.5
20
7.12632140637373
30
0
41
1
10
-28.5
20
7.46030866767529
30
0
41
1
10
-28.5
20
7.73407184255308
30
0
41
1
10
-28.5
20
7.9513617118449
30
0
41
1
10
-28.5
20
8.11277014047184
30
0
41
1
10
-28.5
20
8.27292311790592
30
0
41
1
10
-28.5
20
8.43181572672981
30
0
41
1
10
-28.5
20
8.58944232029054
30
0
41
1
10
-28.5
20
8.79830464348922
30
0
41
1
10
-28.5
20
9.05534970701541
30
0
41
1
10
-28.5
20
9.30810992365679
30
0
41
1
10
-28.5
20
9.50837340526911
30
0
41
1
10
-28.5
20
9.65701503611822
30
0
41
1
10
-28.5
20
9.8043545776041
30
0
41
1
10
-28.5
20
9.9503895477591
30
0
41
1
10
-28.5
20
10.0951135357909
30
0
41
1
10
-28.5
20
10.2866518533399
30
0
41
1
10
-28.5
20
10.4745957683654
30
0
41
1
10
-28.5
20
10.6608198079832
30
0
41
1
10
-28.5
20
10.8452681360072
30
0
41
1
10
-28.5
20
11.0718089327865
30
0
41
1
10
-28.5
20
11.2938625434425
30
0
41
1
10
-28.5
20
11.4693068645233
30
0
41
1
10
-28.5
20
11.642935768078
30
0
41
1
10
-28.5
20
11.8130068133241
30
0
41
1
10
-28.5
20
11.9811355431936
30
0
41
1
10
-28.5
20
12.1056498288981
30
0
41
1
10
-28.5
20
12.2287775158425
30
0
41
1
10
-28.5
20
12.3913462445321
30
0
41
1
10
-28.5
20
12.550359403554
30
0
41
1
10
-28.5
20
12.7072977235968
30
0
41
1
10
-28.5
20
12.8234002792818
30
0
41
1
10
-28.5
20
12.9380809359595
30
0
41
1
10
-28.5
20
13.0893180063072
30
0
41
1
10
-28.5
20
13.2369867267196
30
0
41
1
10
-28.5
20
13.3824445287113
30
0
41
1
10
-28.5
20
13.4899116400767
30
0
41
1
10
-28.5
20
13.5959164295663
30
0
41
1
10
-28.5
20
13.7355116027341
30
0
41
1
10
-28.5
20
13.8715103774192
30
0
41
1
10
-28.5
20
14.0051547121626
30
0
41
1
10
-28.5
20
14.1037299196573
30
0
41
1
10
-28.5
20
14.2007962111626
30
0
41
1
10
-28.5
20
14.3283920102608
30
0
41
1
10
-28.5
20
14.4523474056541
30
0
41
1
10
-28.5
20
14.5737935545692
30
0
41
1
10
-28.5
20
14.6631805593238
30
0
41
1
10
-28.5
20
14.7510047173632
30
0
41
1
10
-28.5
20
14.8661866472663
30
0
41
1
10
-28.5
20
14.9776668598204
30
0
41
1
10
-28.5
20
15.0864673138636
30
0
41
1
10
-28.5
20
15.1663215412447
30
0
41
1
10
-28.5
20
15.2445501023872
30
0
41
1
10
-28.5
20
15.3468344295442
30
0
41
1
10
-28.5
20
15.4453363897878
30
0
41
1
10
-28.5
20
15.5409672008416
30
0
41
1
10
-28.5
20
15.6108850520675
30
0
41
1
10
-28.5
20
15.6791035033831
30
0
41
1
10
-28.5
20
15.745608166167
30
0
41
1
10
-28.5
20
15.8103844132608
30
0
41
1
10
-28.5
20
15.8734193498834
30
0
41
1
10
-28.5
20
15.9346970720351
30
0
41
1
10
-28.5
20
16.0141701499498
30
0
41
1
10
-28.5
20
16.0896767577218
30
0
41
1
10
-28.5
20
16.1619255301563
30
0
41
1
10
-28.5
20
16.2317181614776
30
0
41
1
10
-28.5
20
16.2974462059125
30
0
41
1
10
-28.5
20
16.3597331913305
30
0
41
1
10
-28.5
20
16.4194622625482
30
0
41
1
10
-28.5
20
16.4750169305147
30
0
41
1
10
-28.5
20
16.5269199075572
30
0
41
1
10
-28.5
20
16.5637763020887
30
0
41
1
10
-28.5
20
16.5986105790194
30
0
41
1
10
-28.5
20
16.642411510514
30
0
41
1
10
-28.5
20
16.6818353810987
30
0
41
1
10
-28.5
20
16.7172383450784
30
0
41
1
10
-28.5
20
16.7415855338906
30
0
41
1
10
-28.5
20
16.7637529731541
30
0
41
1
10
-28.5
20
16.783709883521
30
0
41
1
10
-28.5
20
16.8014255225769
30
0
41
1
10
-28.5
20
16.8168672741156
30
0
41
1
10
-28.5
20
16.8300011209595
30
0
41
1
10
-28.5
20
16.8407921788659
30
0
41
1
10
-28.5
20
16.8492032887544
30
0
41
1
10
-28.5
20
16.8551966776124
30
0
41
1
10
-28.5
20
16.8587320876464
30
0
41
1
10
-28.5
20
16.8597682913316
30
0
41
1
10
-28.5
20
16.8586401516711
30
0
41
1
10
-28.5
20
16.8573445211157
30
0
41
1
10
-28.5
20
16.8570624887946
30
0
0
SPLINE
5
12D
100
AcDbEntity
8
SK1
62
256
6
ByLayer
370
18
48
1
60
0
100
AcDbSpline
70
4
71
3
72
102
73
98
40
0
40
0
40
0
40
0
40
0.002804110273553
40
0.011636478719954
40
0.020468847166355
40
0.029301215612756
40
0.038133584059157
40
0.046965952505558
40
0.055798320951959
40
0.06463068939836
40
0.073463057844761
40
0.082295426291162
40
0.099960163183964
40
0.117624900076766
40
0.135289636969568
40
0.144122005415969
40
0.15295437386237
40
0.161786742308771
40
0.170619110755172
40
0.179451479201573
40
0.188283847647974
40
0.205948584540776
40
0.223613321433578
40
0.232445689879979
40
0.24127805832638
40
0.250110426772781
40
0.258942795219182
40
0.267775163665583
40
0.276607532111984
40
0.294272269004786
40
0.303104637451187
40
0.311937005897588
40
0.32960174279039
40
0.347266479683192
40
0.356098848129593
40
0.364931216575994
40
0.382595953468796
40
0.391428321915197
40
0.400260690361598
40
0.409093058807999
40
0.4179254272544
40
0.435590164147202
40
0.444422532593603
40
0.453254901040004
40
0.462087269486405
40
0.470919637932806
40
0.488584374825608
40
0.497416743272009
40
0.50624911171841
40
0.515081480164811
40
0.523913848611212
40
0.541578585504014
40
0.550410953950415
40
0.559243322396816
40
0.568075690843217
40
0.576908059289618
40
0.59457279618242
40
0.603405164628821
40
0.612237533075222
40
0.621069901521623
40
0.629902269968024
40
0.647567006860826
40
0.656399375307227
40
0.665231743753628
40
0.674064112200029
40
0.68289648064643
40
0.700561217539232
40
0.709393585985633
40
0.718225954432034
40
0.727058322878435
40
0.735890691324836
40
0.744723059771237
40
0.753555428217638
40
0.762387796664039
40
0.77122016511044
40
0.788884902003242
40
0.797717270449643
40
0.806549638896044
40
0.824214375788846
40
0.833046744235247
40
0.841879112681648
40
0.85954384957445
40
0.868376218020851
40
0.877208586467252
40
0.886040954913653
40
0.894873323360054
40
0.912538060252856
40
0.921370428699257
40
0.930202797145658
40
0.939035165592058
40
0.94786753403846
40
0.95669990248486
40
0.965532270931262
40
0.974364639377662
40
0.983197007824064
40
0.992029376270465
40
1
40
1
40
1
40
1
41
1
10
-0.394976888875277
20
5.38678223324203
30
0
41
1
10
-0.394976888875277
20
5.40659331253005
30
0
41
1
10
-0.394976888875277
20
5.48871675629277
30
0
41
1
10
-0.394976888875277
20
5.63252720020009
30
0
41
1
10
-0.394976888875277
20
5.81741425905383
30
0
41
1
10
-0.394976888875277
20
6.0010194773844
30
0
41
1
10
-0.394976888875277
20
6.18333822517317
30
0
41
1
10
-0.394976888875277
20
6.36436626337326
30
0
41
1
10
-0.394976888875277
20
6.54409938064708
30
0
41
1
10
-0.394976888875277
20
6.7225342898117
30
0
41
1
10
-0.394976888875277
20
6.89966739484254
30
0
41
1
10
-0.394976888875277
20
7.1342090482905
30
0
41
1
10
-0.394976888875277
20
7.42389184310318
30
0
41
1
10
-0.394976888875277
20
7.76637137475097
30
0
41
1
10
-0.394976888875277
20
8.04728288893983
30
0
41
1
10
-0.394976888875277
20
8.26952734508268
30
0
41
1
10
-0.394976888875277
20
8.43482033812748
30
0
41
1
10
-0.394976888875277
20
8.59878513251644
30
0
41
1
10
-0.394976888875277
20
8.76141979935898
30
0
41
1
10
-0.394976888875277
20
8.9227212090467
30
0
41
1
10
-0.394976888875277
20
9.13609084815207
30
0
41
1
10
-0.394976888875277
20
9.3992804435735
30
0
41
1
10
-0.394976888875277
20
9.65799297250354
30
0
41
1
10
-0.394976888875277
20
9.86240079247781
30
0
41
1
10
-0.394976888875277
20
10.0143015620689
30
0
41
1
10
-0.394976888875277
20
10.1648479968029
30
0
41
1
10
-0.394976888875277
20
10.3140380853821
30
0
41
1
10
-0.394976888875277
20
10.4618684218406
30
0
41
1
10
-0.394976888875277
20
10.6572262982852
30
0
41
1
10
-0.394976888875277
20
10.8496518299165
30
0
41
1
10
-0.394976888875277
20
11.0395280715927
30
0
41
1
10
-0.394976888875277
20
11.2275701322441
30
0
41
1
10
-0.394976888875277
20
11.4590305058839
30
0
41
1
10
-0.394976888875277
20
11.6858676336886
30
0
41
1
10
-0.394976888875277
20
11.8646543426879
30
0
41
1
10
-0.394976888875277
20
12.0415756036957
30
0
41
1
10
-0.394976888875277
20
12.2155153079022
30
0
41
1
10
-0.394976888875277
20
12.3868007822861
30
0
41
1
10
-0.394976888875277
20
12.5138050377602
30
0
41
1
10
-0.394976888875277
20
12.6393872212047
30
0
41
1
10
-0.394976888875277
20
12.8049814419576
30
0
41
1
10
-0.394976888875277
20
12.9675509274721
30
0
41
1
10
-0.394976888875277
20
13.127391952352
30
0
41
1
10
-0.394976888875277
20
13.2457848907918
30
0
41
1
10
-0.394976888875277
20
13.3627236430939
30
0
41
1
10
-0.394976888875277
20
13.5167448397426
30
0
41
1
10
-0.394976888875277
20
13.6676860465324
30
0
41
1
10
-0.394976888875277
20
13.8158144643309
30
0
41
1
10
-0.394976888875277
20
13.9253889575191
30
0
41
1
10
-0.394976888875277
20
14.0334711437704
30
0
41
1
10
-0.394976888875277
20
14.1756274353422
30
0
41
1
10
-0.394976888875277
20
14.3146351144528
30
0
41
1
10
-0.394976888875277
20
14.4507333574048
30
0
41
1
10
-0.394976888875277
20
14.5512443698349
30
0
41
1
10
-0.394976888875277
20
14.6502180265082
30
0
41
1
10
-0.394976888875277
20
14.7801642402503
30
0
41
1
10
-0.394976888875277
20
14.906878048735
30
0
41
1
10
-0.394976888875277
20
15.0305709686995
30
0
41
1
10
-0.394976888875277
20
15.1217290697223
30
0
41
1
10
-0.394976888875277
20
15.2112966721244
30
0
41
1
10
-0.394976888875277
20
15.3286250260664
30
0
41
1
10
-0.394976888875277
20
15.4426195996911
30
0
41
1
10
-0.394976888875277
20
15.553463729323
30
0
41
1
10
-0.394976888875277
20
15.6349267495635
30
0
41
1
10
-0.394976888875277
20
15.7147364711228
30
0
41
1
10
-0.394976888875277
20
15.8189643575456
30
0
41
1
10
-0.394976888875277
20
15.9197362080176
30
0
41
1
10
-0.394976888875277
20
16.0172057910895
30
0
41
1
10
-0.394976888875277
20
16.0885677968918
30
0
41
1
10
-0.394976888875277
20
16.1582019227301
30
0
41
1
10
-0.394976888875277
20
16.2260943534788
30
0
41
1
10
-0.394976888875277
20
16.2922298184193
30
0
41
1
10
-0.394976888875277
20
16.3565947837564
30
0
41
1
10
-0.394976888875277
20
16.4191737242595
30
0
41
1
10
-0.394976888875277
20
16.5002370605308
30
0
41
1
10
-0.394976888875277
20
16.5775834289921
30
0
41
1
10
-0.394976888875277
20
16.6513062647865
30
0
41
1
10
-0.394976888875277
20
16.7225357594453
30
0
41
1
10
-0.394976888875277
20
16.7899145739052
30
0
41
1
10
-0.394976888875277
20
16.8535135157982
30
0
41
1
10
-0.394976888875277
20
16.9145140859045
30
0
41
1
10
-0.394976888875306
20
16.9715145338597
30
0
41
1
10
-0.394976888875277
20
17.0245523789023
30
0
41
1
10
-0.394976888875306
20
17.0622798138473
30
0
41
1
10
-0.394976888875277
20
17.0979462613767
30
0
41
1
10
-0.394976888875277
20
17.1427382851614
30
0
41
1
10
-0.394976888875306
20
17.1832568130363
30
0
41
1
10
-0.394976888875277
20
17.2194882282903
30
0
41
1
10
-0.394976888875306
20
17.2444530966284
30
0
41
1
10
-0.394976888875306
20
17.267190526317
30
0
41
1
10
-0.394976888875306
20
17.2876678324761
30
0
41
1
10
-0.394976888875277
20
17.3058521283006
30
0
41
1
10
-0.394976888875277
20
17.3217086001335
30
0
41
1
10
-0.394976888875306
20
17.3352007293143
30
0
41
1
10
-0.394976888875306
20
17.3462909837355
30
0
41
1
10
-0.394976888875306
20
17.3546580059882
30
0
41
1
10
-0.394976888875306
20
17.3586445515356
30
0
41
1
10
-0.394976888875277
20
17.3601932335293
30
0
0
SPLINE
5
12E
100
AcDbEntity
8
1
62
256
6
ByLayer
370
18
48
1
60
0
100
AcDbSpline
70
4
71
3
72
26
73
22
40
0
40
0
40
0
40
0
40
0.250000000000001
40
0.250000000000001
40
0.312500000000002
40
0.312500000000002
40
0.375000000000003
40
0.375000000000003
40
0.500000000000004
40
0.500000000000004
40
0.562500000000004
40
0.562500000000004
40
0.625000000000004
40
0.625000000000004
40
0.750000000000003
40
0.750000000000003
40
0.875000000000001
40
0.875000000000001
40
0.937500000000001
40
0.937500000000001
40
1
40
1
40
1
40
1
41
1
10
17.4805459037027
20
23.455354942996
30
0
41
1
10
17.5132295526957
20
23.5931463025129
30
0
41
1
10
17.5970786091206
20
23.7175139616736
30
0
41
1
10
17.7683571849975
20
23.8581331832177
30
0
41
1
10
17.8061327689969
20
23.8855976649294
30
0
41
1
10
17.8880998732675
20
23.9386462476626
30
0
41
1
10
17.9320793753884
20
23.9641154346713
30
0
41
1
10
18.0728781088744
20
24.0375644506611
30
0
41
1
10
18.1785155770369
20
24.0825952055134
30
0
41
1
10
18.3548812225314
20
24.1448699874539
30
0
41
1
10
18.4166649854795
20
24.1647472130421
30
0
41
1
10
18.5463993679392
20
24.2028166709777
30
0
41
1
10
18.6146716622531
20
24.2210823936193
30
0
41
1
10
18.826172951865
20
24.27274185269
30
0
41
1
10
18.9760625673709
20
24.3030971348791
30
0
41
1
10
19.2932394712732
20
24.3568312835793
30
0
41
1
10
19.4605239317897
20
24.3802077652505
30
0
41
1
10
19.7250448630537
20
24.4105308324637
30
0
41
1
10
19.8154109028425
20
24.4198272939052
30
0
41
1
10
19.9985632170112
20
24.4366871634301
30
0
41
1
10
20.0916099109014
20
24.4442818433541
30
0
41
1
10
20.1861384096169
20
24.4510802622659
30
0
0
SPLINE
5
12F
100
AcDbEntity
8
1
62
256
6
ByLayer
370
18
48
1
60
0
100
AcDbSpline
70
4
71
3
72
16
73
12
40
0
40
0
40
0
40
0
40
0.249999999999999
40
0.249999999999999
40
0.499999999999999
40
0.499999999999999
40
0.749999999999998
40
0.749999999999998
40
0.874999999999999
40
0.874999999999999
40
1
40
1
40
1
40
1
41
1
10
8.10566243270264
20
8.05584836782776
30
0
41
1
10
8.12110769698504
20
7.99849169434913
30
0
41
1
10
8.13959628273545
20
7.94218253951257
30
0
41
1
10
8.18485781079318
20
7.83248598676806
30
0
41
1
10
8.21171210490067
20
7.77870179643028
30
0
41
1
10
8.27812666032534
20
7.67767014498892
30
0
41
1
10
8.31777781748548
20
7.63015704912695
30
0
41
1
10
8.39058907041832
20
7.57464889660895
30
0
41
1
10
8.4177007223274
20
7.55854989603586
30
0
41
1
10
8.47563983861085
20
7.53610198950841
30
0
41
1
10
8.50697323176121
20
7.52966679426473
30
0
41
1
10
8.53867513459477
20
7.52966679426473
30
0
0
SPLINE
5
130
100
AcDbEntity
8
1
62
256
6
ByLayer
370
18
48
1
60
0
100
AcDbSpline
70
4
71
3
72
8
73
4
40
0
40
0
40
0
40
0
40
1
40
1
40
1
40
1
41
1
10
22.6457587032089
20
31.6627064840295
30
0
41
1
10
22.618327662613
20
31.5578323522526
30
0
41
1
10
22.5909052751431
20
31.452955916088
30
0
41
1
10
22.5634917947511
20
31.3480771079064
30
0
0
SPLINE
5
131
100
AcDbEntity
8
1
62
256
6
ByLayer
370
18
48
1
60
0
100
AcDbSpline
70
4
71
3
72
8
73
4
40
0
40
0
40
0
40
0
40
1
40
1
40
1
40
1
41
1
10
46.9300016786346
20
31.0509979380348
30
0
41
1
10
46.9774859992019
20
31.0907965202857
30
0
41
1
10
47.0249695081954
20
31.1305937771242
30
0
41
1
10
47.0724521969972
20
31.1703896944776
30
0
0
SPLINE
5
132
100
AcDbEntity
8
1
62
256
6
ByLayer
370
18
48
1
60
0
100
AcDbSpline
70
4
71
3
72
10
73
6
40
0
40
0
40
0
40
0
40
0.619192052005909
40
0.619192052005909
40
1
40
1
40
1
40
1
41
1
10
17.4805459037027
20
5.59936495393325
30
0
41
1
10
17.494830952955
20
5.36298797916507
30
0
41
1
10
17.5173783212929
20
5.11847633961202
30
0
41
1
10
17.5571528354637
20
4.70958692976561
30
0
41
1
10
17.5730963719532
20
4.55060074722854
30
0
41
1
10
17.588657273958
20
4.38814154757358
30
0
0
SPLINE
5
133
100
AcDbEntity
8
1
62
256
6
ByLayer
370
18
48
1
60
0
100
AcDbSpline
70
4
71
3
72
10
73
6
40
0
40
0
40
0
40
0
40
0.322320999298336
40
0.322320999298336
40
1
40
1
40
1
40
1
41
1
10
17.5729831138448
20
0.29019940779412
30
0
41
1
10
17.5614008645382
20
0.163500345402724
30
0
41
1
10
17.549764814593
20
0.0379175498887321
30
0
41
1
10
17.5153581007564
20
-0.344363672874863
30
0
41
1
10
17.4942217633957
20
-0.594495153637723
30
0
41
1
10
17.4805459037027
20
-0.835393737292861
30
0
0
SPLINE
5
134
100
AcDbEntity
8
1
62
256
6
ByLayer
370
18
48
1
60
0
100
AcDbSpline
70
4
71
3
72
16
73
12
40
0
40
0
40
0
40
0
40
0.125000000000004
40
0.125000000000004
40
0.250000000000007
40
0.250000000000007
40
0.500000000000005
40
0.500000000000005
40
0.750000000000002
40
0.750000000000002
40
1
40
1
40
1
40
1
41
1
10
11.4613248654052
20
7.52966679426504
30
0
41
1
10
11.4930777586347
20
7.52966679426504
30
0
41
1
10
11.5239906705311
20
7.53597576299649
30
0
41
1
10
11.5824040005111
20
7.55857361750105
30
0
41
1
10
11.6089650834003
20
7.57431556968109
30
0
41
1
10
11.6829561422921
20
7.63070347545337
30
0
41
1
10
11.7219265489987
20
7.67774765104232
30
0
41
1
10
11.7882603826482
20
7.77866338250453
30
0
41
1
10
11.8148780607233
20
7.83191947486046
30
0
41
1
10
11.8602443227468
20
7.94172327888188
30
0
41
1
10
11.8788862370738
20
7.99846916820707
30
0
41
1
10
11.8943375672976
20
8.05584836782771
30
0
0
SPLINE
5
135
100
AcDbEntity
8
1
62
256
6
ByLayer
370
18
48
1
60
0
100
AcDbSpline
70
4
71
3
72
9
73
5
40
0
40
0
40
0
40
0
40
0.5
40
1
40
1
40
1
40
1
41
1
10
21.0452253340647
20
25.4239167686148
30
0
41
1
10
21.0308217957575
20
25.3688228280569
30
0
41
1
10
21.0020270428437
20
25.2586333637082
30
0
41
1
10
20.9732574467353
20
25.1484406029303
30
0
41
1
10
20.9588790706481
20
25.0933433647626
30
0
0
SPLINE
5
136
100
AcDbEntity
8
1
62
256
6
ByLayer
370
18
48
1
60
0
100
AcDbSpline
70
4
71
3
72
16
73
12
40
0
40
0
40
0
40
0
40
0.124999999999999
40
0.124999999999999
40
0.249999999999998
40
0.249999999999998
40
0.499999999999999
40
0.499999999999999
40
0.749999999999999
40
0.749999999999999
40
1
40
1
40
1
40
1
41
1
10
8.53867513459485
20
-7.52966679426501
30
0
41
1
10
8.50692224136543
20
-7.52966679426501
30
0
41
1
10
8.47600932946904
20
-7.53597576299646
30
0
41
1
10
8.41759599948898
20
-7.55857361750105
30
0
41
1
10
8.39103491659975
20
-7.57431556968109
30
0
41
1
10
8.31704385770794
20
-7.63070347545337
30
0
41
1
10
8.27807345100135
20
-7.6777476510423
30
0
41
1
10
8.21173961735192
20
-7.77866338250453
30
0
41
1
10
8.18512193927677
20
-7.83191947486046
30
0
41
1
10
8.13975567725331
20
-7.94172327888185
30
0
41
1
10
8.12111376292623
20
-7.99846916820704
30
0
41
1
10
8.10566243270247
20
-8.05584836782771
30
0
0
SPLINE
5
137
100
AcDbEntity
8
1
62
256
6
ByLayer
370
18
48
1
60
0
100
AcDbSpline
70
4
71
3
72
24
73
20
40
0
40
0
40
0
40
0
40
0.249999999999998
40
0.249999999999998
40
0.312499999999998
40
0.312499999999998
40
0.374999999999998
40
0.374999999999998
40
0.499999999999997
40
0.499999999999997
40
0.624999999999997
40
0.624999999999997
40
0.749999999999996
40
0.749999999999996
40
0.812499999999997
40
0.812499999999997
40
0.874999999999997
40
0.874999999999997
40
1
40
1
40
1
40
1
41
1
10
20.1861384096169
20
-24.4510802622659
30
0
41
1
10
19.8083596497378
20
-24.4239106964679
30
0
41
1
10
19.4597227013267
20
-24.3848307391631
30
0
41
1
10
19.0593989732772
20
-24.3172648356309
30
0
41
1
10
18.9809180732328
20
-24.3027371546806
30
0
41
1
10
18.8300805681711
20
-24.2720841956442
30
0
41
1
10
18.7574473683759
20
-24.2559202683117
30
0
41
1
10
18.5476863234895
20
-24.2047899324295
30
0
41
1
10
18.4186582860757
20
-24.1671979347443
30
0
41
1
10
18.1820657735841
20
-24.0840337349168
30
0
41
1
10
18.0740794567935
20
-24.0381197949997
30
0
41
1
10
17.8859186535685
20
-23.9401058549198
30
0
41
1
10
17.8048552046705
20
-23.8877840533452
30
0
41
1
10
17.7021209083793
20
-23.8039026671751
30
0
41
1
10
17.6710311167712
20
-23.7750409156336
30
0
41
1
10
17.6151844549163
20
-23.7154234189869
30
0
41
1
10
17.5903867790172
20
-23.6845870971686
30
0
41
1
10
17.5262577470872
20
-23.5900777840899
30
0
41
1
10
17.4968783275268
20
-23.5242109903549
30
0
41
1
10
17.4805459037027
20
-23.455354942996
30
0
0
SPLINE
5
138
100
AcDbEntity
8
1
62
256
6
ByLayer
370
18
48
1
60
0
100
AcDbSpline
70
4
71
3
72
10
73
6
40
0
40
0
40
0
40
0
40
0.5
40
0.5
40
1
40
1
40
1
40
1
41
1
10
20.6525073622852
20
-24.6308950197743
30
0
41
1
10
20.5840055222784
20
-24.5777756727879
30
0
41
1
10
20.5096943982729
20
-24.5361179859904
30
0
41
1
10
20.3503159066328
20
-24.4750464322894
30
0
41
1
10
20.2686738291626
20
-24.4570161478958
30
0
41
1
10
20.1861384096169
20
-24.451080262266
30
0
0
SPLINE
5
139
100
AcDbEntity
8
1
62
256
6
ByLayer
370
18
48
1
60
0
100
AcDbSpline
70
4
71
3
72
16
73
12
40
0
40
0
40
0
40
0
40
0.125000000000004
40
0.125000000000004
40
0.250000000000007
40
0.250000000000007
40
0.500000000000007
40
0.500000000000007
40
0.750000000000003
40
0.750000000000003
40
1
40
1
40
1
40
1
41
1
10
8.53867513459483
20
23.8391299750503
30
0
41
1
10
8.5069222413654
20
23.8391299750503
30
0
41
1
10
8.47600932946901
20
23.8371392949586
30
0
41
1
10
8.41759599948895
20
23.8299833264009
30
0
41
1
10
8.39103491659969
20
23.824989671385
30
0
41
1
10
8.31704385770789
20
23.8070141183761
30
0
41
1
10
8.27807345100132
20
23.7919105160783
30
0
41
1
10
8.21173961735187
20
23.7591079584198
30
0
41
1
10
8.18512193927674
20
23.7416171457992
30
0
41
1
10
8.13975567725328
20
23.7051129235882
30
0
41
1
10
8.1211137629262
20
23.6860331168061
30
0
41
1
10
8.10566243270245
20
23.6665017920809
30
0
0
SPLINE
5
13A
100
AcDbEntity
8
1
62
256
6
ByLayer
370
18
48
1
60
0
100
AcDbSpline
70
4
71
3
72
16
73
12
40
0
40
0
40
0
40
0
40
0.250000000000003
40
0.250000000000003
40
0.500000000000005
40
0.500000000000005
40
0.750000000000008
40
0.750000000000008
40
0.875000000000004
40
0.875000000000004
40
1
40
1
40
1
40
1
41
1
10
11.8943375672974
20
23.6665017920809
30
0
41
1
10
11.878892303015
20
23.6860254491252
30
0
41
1
10
11.8604037172646
20
23.7049589195931
30
0
41
1
10
11.8151421892069
20
23.7414301198899
30
0
41
1
10
11.7882878950994
20
23.7590955179201
30
0
41
1
10
11.7218733396747
20
23.7919356634172
30
0
41
1
10
11.6822221825146
20
23.8071882416308
30
0
41
1
10
11.6094109295817
20
23.8248834464053
30
0
41
1
10
11.5822992776727
20
23.8299908115613
30
0
41
1
10
11.5243601613892
20
23.8370993498304
30
0
41
1
10
11.4930267682388
20
23.8391299750505
30
0
41
1
10
11.4613248654053
20
23.8391299750505
30
0
0
SPLINE
5
13B
100
AcDbEntity
8
1
62
256
6
ByLayer
370
18
48
1
60
0
100
AcDbSpline
70
4
71
3
72
10
73
6
40
0
40
0
40
0
40
0
40
0.5
40
0.5
40
1
40
1
40
1
40
1
41
1
10
22.5634917947511
20
31.3480771079064
30
0
41
1
10
22.3040164848634
20
30.3553734867518
30
0
41
1
10
22.0469670328176
20
29.3653623584491
30
0
41
1
10
21.5398673944089
20
27.3906153427925
30
0
41
1
10
21.2897708636417
20
26.4058760718501
30
0
41
1
10
21.0452253340647
20
25.4239167686148
30
0
0
SPLINE
5
13C
100
AcDbEntity
8
1
62
256
6
ByLayer
370
18
48
1
60
0
100
AcDbSpline
70
4
71
3
72
16
73
12
40
0
40
0
40
0
40
0
40
0.250000000000001
40
0.250000000000001
40
0.500000000000002
40
0.500000000000002
40
0.750000000000004
40
0.750000000000004
40
0.875000000000002
40
0.875000000000002
40
1
40
1
40
1
40
1
41
1
10
11.8943375672974
20
-8.05584836782774
30
0
41
1
10
11.878892303015
20
-7.9984916943491
30
0
41
1
10
11.8604037172646
20
-7.94218253951252
30
0
41
1
10
11.8151421892069
20
-7.83248598676804
30
0
41
1
10
11.7882878950994
20
-7.77870179643025
30
0
41
1
10
11.7218733396747
20
-7.67767014498889
30
0
41
1
10
11.6822221825146
20
-7.63015704912692
30
0
41
1
10
11.6094109295817
20
-7.57464889660892
30
0
41
1
10
11.5822992776727
20
-7.55854989603583
30
0
41
1
10
11.5243601613892
20
-7.53610198950838
30
0
41
1
10
11.4930267682389
20
-7.5296667942647
30
0
41
1
10
11.4613248654053
20
-7.5296667942647
30
0
0
SPLINE
5
13D
100
AcDbEntity
8
1
62
256
6
ByLayer
370
18
48
1
60
0
100
AcDbSpline
70
4
71
3
72
8
73
4
40
0
40
0
40
0
40
0
40
1
40
1
40
1
40
1
41
1
10
21.4653246960697
20
23.7215398359957
30
0
41
1
10
21.3212183131692
20
24.2882271524751
30
0
41
1
10
21.1804877223352
20
24.855510105981
30
0
41
1
10
21.0452253340647
20
25.4239167686148
30
0
0
SPLINE
5
13E
100
AcDbEntity
8
1
62
256
6
ByLayer
370
18
48
1
60
0
100
AcDbSpline
70
4
71
3
72
20
73
16
40
0
40
0
40
0
40
0
40
0.250000000000004
40
0.250000000000004
40
0.375000000000003
40
0.375000000000003
40
0.500000000000003
40
0.500000000000003
40
0.625000000000002
40
0.625000000000002
40
0.750000000000001
40
0.750000000000001
40
0.875000000000001
40
0.875000000000001
40
1
40
1
40
1
40
1
41
1
10
20.1861384096169
20
24.4510802622659
30
0
41
1
10
20.2726312034784
20
24.457300759296
30
0
41
1
10
20.3578306619109
20
24.4768256140666
30
0
41
1
10
20.4810979289547
20
24.5258171265302
30
0
41
1
10
20.5215399630262
20
24.5455898488239
30
0
41
1
10
20.5981629466775
20
24.5906357985365
30
0
41
1
10
20.6347247226721
20
24.6160384725588
30
0
41
1
10
20.704198446843
20
24.6727255849315
30
0
41
1
10
20.7373344615666
20
24.704314901902
30
0
41
1
10
20.7975837253051
20
24.7715451263291
30
0
41
1
10
20.8249283534248
20
24.8073013947024
30
0
41
1
10
20.8739871317702
20
24.8831049942854
30
0
41
1
10
20.8958607036489
20
24.9235500297762
30
0
41
1
10
20.9325748453929
20
25.006839132386
30
0
41
1
10
20.9474531277902
20
25.0495597071981
30
0
41
1
10
20.9588790706481
20
25.0933433647626
30
0
0
SPLINE
5
13F
100
AcDbEntity
8
1
62
256
6
ByLayer
370
18
48
1
60
0
100
AcDbSpline
70
4
71
3
72
10
73
6
40
0
40
0
40
0
40
0
40
0.5
40
0.5
40
1
40
1
40
1
40
1
41
1
10
20.6525073622906
20
-24.6308950197643
30
0
41
1
10
20.7849758930948
20
-24.6365689143689
30
0
41
1
10
20.9199134647708
20
-24.6408497900134
30
0
41
1
10
21.1919580630322
20
-24.6465525821622
30
0
41
1
10
21.3284205890068
20
-24.6479715189709
30
0
41
1
10
21.4653246960697
20
-24.6479715189709
30
0
0
SPLINE
5
140
100
AcDbEntity
8
1
62
256
6
ByLayer
370
18
48
1
60
0
100
AcDbSpline
70
4
71
3
72
8
73
4
40
0
40
0
40
0
40
0
40
1
40
1
40
1
40
1
41
1
10
22.6457587032088
20
31.6627064840294
30
0
41
1
10
22.6049776069057
20
31.6605692373355
30
0
41
1
10
22.5844643362088
20
31.6594941823724
30
0
41
1
10
22.5844128908888
20
31.6594914862374
30
0
0
SPLINE
5
141
100
AcDbEntity
8
1
62
256
6
ByLayer
370
18
48
1
60
0
100
AcDbSpline
70
4
71
3
72
16
73
12
40
0
40
0
40
0
40
0
40
0.125000000000003
40
0.125000000000003
40
0.250000000000006
40
0.250000000000006
40
0.500000000000004
40
0.500000000000004
40
0.750000000000002
40
0.750000000000002
40
1
40
1
40
1
40
1
41
1
10
11.4613248654052
20
-23.8391299750503
30
0
41
1
10
11.4930777586346
20
-23.8391299750503
30
0
41
1
10
11.523990670531
20
-23.8371392949586
30
0
41
1
10
11.5824040005111
20
-23.8299833264009
30
0
41
1
10
11.6089650834003
20
-23.824989671385
30
0
41
1
10
11.6829561422921
20
-23.8070141183761
30
0
41
1
10
11.7219265489987
20
-23.7919105160783
30
0
41
1
10
11.7882603826481
20
-23.7591079584198
30
0
41
1
10
11.8148780607233
20
-23.7416171457992
30
0
41
1
10
11.8602443227468
20
-23.7051129235882
30
0
41
1
10
11.8788862370739
20
-23.6860331168061
30
0
41
1
10
11.8943375672976
20
-23.6665017920809
30
0
0
SPLINE
5
142
100
AcDbEntity
8
1
62
256
6
ByLayer
370
18
48
1
60
0
100
AcDbSpline
70
4
71
3
72
16
73
12
40
0
40
0
40
0
40
0
40
0.25
40
0.25
40
0.5
40
0.5
40
0.75
40
0.75
40
0.875
40
0.875
40
1
40
1
40
1
40
1
41
1
10
8.10566243270262
20
-23.6665017920809
30
0
41
1
10
8.12110769698501
20
-23.6860254491252
30
0
41
1
10
8.13959628273543
20
-23.7049589195931
30
0
41
1
10
8.18485781079315
20
-23.7414301198899
30
0
41
1
10
8.21171210490064
20
-23.7590955179201
30
0
41
1
10
8.27812666032531
20
-23.7919356634172
30
0
41
1
10
8.31777781748548
20
-23.8071882416308
30
0
41
1
10
8.39058907041829
20
-23.8248834464053
30
0
41
1
10
8.41770072232737
20
-23.8299908115613
30
0
41
1
10
8.47563983861082
20
-23.8370993498304
30
0
41
1
10
8.50697323176121
20
-23.8391299750505
30
0
41
1
10
8.53867513459477
20
-23.8391299750505
30
0
0
SPLINE
5
143
100
AcDbEntity
8
1
62
256
6
ByLayer
370
18
48
1
60
0
100
AcDbSpline
70
4
71
3
72
8
73
4
40
0
40
0
40
0
40
0
40
1
40
1
40
1
40
1
41
1
10
50.4806823919105
20
29.103643563222
30
0
41
1
10
50.4133117247163
20
29.0591659634076
30
0
41
1
10
50.3459637711347
20
29.0146814926739
30
0
41
1
10
50.2786317780585
20
28.9701922033465
30
0
0
SPLINE
5
144
100
AcDbEntity
8
1
62
256
6
ByLayer
370
18
48
1
60
0
100
AcDbSpline
70
4
71
3
72
10
73
6
40
0
40
0
40
0
40
0
40
0.816042615049721
40
0.816042615049721
40
1
40
1
40
1
40
1
41
1
10
52.6203439828506
20
28.1331270234298
30
0
41
1
10
52.6709445857912
20
28.2039767042422
30
0
41
1
10
52.7169624784633
20
28.2788230565213
30
0
41
1
10
52.7666297665374
20
28.3727891957898
30
0
41
1
10
52.7754978680204
20
28.3901809318739
30
0
41
1
10
52.7840908508905
20
28.4076311090501
30
0
0
SPLINE
5
145
100
AcDbEntity
8
1
62
256
6
ByLayer
370
18
48
1
60
0
100
AcDbSpline
70
4
71
3
72
10
73
6
40
0
40
0
40
0
40
0
40
0.621661637030607
40
0.621661637030607
40
1
40
1
40
1
40
1
41
1
10
50.6269465952131
20
30.8900321340734
30
0
41
1
10
50.5575157906016
20
30.8762990905361
30
0
41
1
10
50.4892028661556
20
30.8625533251944
30
0
41
1
10
50.3795471108357
20
30.8404393568066
30
0
41
1
10
50.3381107950329
20
30.8320722176465
30
0
41
1
10
50.2966474752356
20
30.8237053857997
30
0
0
SPLINE
5
146
100
AcDbEntity
8
1
62
256
6
ByLayer
370
18
48
1
60
0
100
AcDbSpline
70
4
71
3
72
8
73
4
40
0
40
0
40
0
40
0
40
1
40
1
40
1
40
1
41
1
10
53.2199426572001
20
29.4404828900537
30
0
41
1
10
53.3041366467145
20
29.3994650098443
30
0
41
1
10
53.3882805468375
20
29.3584215016155
30
0
41
1
10
53.4723955011242
20
29.3173632081782
30
0
0
SPLINE
5
147
100
AcDbEntity
8
1
62
256
6
ByLayer
370
18
48
1
60
0
100
AcDbSpline
70
4
71
3
72
8
73
4
40
0
40
0
40
0
40
0
40
1
40
1
40
1
40
1
41
1
10
53.3081528184757
20
30.5320488270281
30
0
41
1
10
53.2351571429573
20
30.4908725405492
30
0
41
1
10
53.1621300932189
20
30.4496994284008
30
0
41
1
10
53.089048742602
20
30.4085318350255
30
0
0
SPLINE
5
148
100
AcDbEntity
8
1
62
256
6
ByLayer
370
18
48
1
60
0
100
AcDbSpline
70
4
71
3
72
8
73
4
40
0
40
0
40
0
40
0
40
1
40
1
40
1
40
1
41
1
10
50.0296891850005
20
30.1289051399038
30
0
41
1
10
50.1363590869296
20
30.1098218370413
30
0
41
1
10
50.2430530088295
20
30.0907485201812
30
0
41
1
10
50.3497884773124
20
30.0716925081938
30
0
0
SPLINE
5
149
100
AcDbEntity
8
1
62
256
6
ByLayer
370
18
48
1
60
0
100
AcDbSpline
70
4
71
3
72
10
73
6
40
0
40
0
40
0
40
0
40
0.5
40
0.5
40
1
40
1
40
1
40
1
41
1
10
41.3327149313084
20
27.3574439620239
30
0
41
1
10
41.3579661117753
20
27.4222290875623
30
0
41
1
10
41.3838620519624
20
27.488235781793
30
0
41
1
10
41.4364510575493
20
27.6211894919464
30
0
41
1
10
41.4631702471331
20
27.6882046714877
30
0
41
1
10
41.490393367358
20
27.7558586234109
30
0
0
SPLINE
5
14A
100
AcDbEntity
8
1
62
256
6
ByLayer
370
18
48
1
60
0
100
AcDbSpline
70
4
71
3
72
8
73
4
40
0
40
0
40
0
40
0
40
1
40
1
40
1
40
1
41
1
10
41.3327149313084
20
27.3574439620239
30
0
41
1
10
41.18415808667
20
27.3351297128508
30
0
41
1
10
41.0322180942381
20
27.3132099653807
30
0
41
1
10
40.8820390149007
20
27.2929235431001
30
0
0
SPLINE
5
14B
100
AcDbEntity
8
1
62
256
6
ByLayer
370
18
48
1
60
0
100
AcDbSpline
70
4
71
3
72
10
73
6
40
0
40
0
40
0
40
0
40
0.5
40
0.5
40
1
40
1
40
1
40
1
41
1
10
40.3251846666934
20
27.2244486901735
30
0
41
1
10
40.251751901595
20
27.2163345092073
30
0
41
1
10
40.1785502669748
20
27.2086068250908
30
0
41
1
10
40.0354789821901
20
27.1940971311325
30
0
41
1
10
39.9652065352244
20
27.1872680223139
30
0
41
1
10
39.89589210862
20
27.1807617976807
30
0
0
SPLINE
5
14C
100
AcDbEntity
8
1
62
256
6
ByLayer
370
18
48
1
60
0
100
AcDbSpline
70
4
71
3
72
10
73
6
40
0
40
0
40
0
40
0
40
0.5
40
0.5
40
1
40
1
40
1
40
1
41
1
10
41.8825483201574
20
28.6925334306497
30
0
41
1
10
41.8355745605917
20
28.7484372532723
30
0
41
1
10
41.788179011531
20
28.8054314939536
30
0
41
1
10
41.6938908184127
20
28.9203241175553
30
0
41
1
10
41.6469475299094
20
28.9782812240665
30
0
41
1
10
41.6002425189665
20
29.0368444363284
30
0
0
SPLINE
5
14D
100
AcDbEntity
8
1
62
256
6
ByLayer
370
18
48
1
60
0
100
AcDbSpline
70
4
71
3
72
10
73
6
40
0
40
0
40
0
40
0
40
0.5
40
0.5
40
1
40
1
40
1
40
1
41
1
10
39.0089026747807
20
28.3391691019632
30
0
41
1
10
39.0511017173964
20
28.278613335047
30
0
41
1
10
39.0941957896398
20
28.2174282217458
30
0
41
1
10
39.1812500992522
20
28.0954877200296
30
0
41
1
10
39.2252544748616
20
28.0346672691131
30
0
41
1
10
39.2698251176373
20
27.9740245698534
30
0
0
SPLINE
5
14E
100
AcDbEntity
8
1
62
256
6
ByLayer
370
18
48
1
60
0
100
AcDbSpline
70
4
71
3
72
10
73
6
40
0
40
0
40
0
40
0
40
0.5
40
0.5
40
1
40
1
40
1
40
1
41
1
10
39.9880286217031
20
29.7179454630817
30
0
41
1
10
39.9145958566048
20
29.7098312821156
30
0
41
1
10
39.8413942219845
20
29.702103597999
30
0
41
1
10
39.6983229371999
20
29.6875939040408
30
0
41
1
10
39.6280504902341
20
29.6807647952221
30
0
41
1
10
39.5587360636298
20
29.6742585705889
30
0
0
SPLINE
5
14F
100
AcDbEntity
8
1
62
256
6
ByLayer
370
18
48
1
60
0
100
AcDbSpline
70
4
71
3
72
10
73
6
40
0
40
0
40
0
40
0
40
0.5
40
0.5
40
1
40
1
40
1
40
1
41
1
10
39.5587360636298
20
29.6742585705889
30
0
41
1
10
39.5287101662128
20
29.604821500757
30
0
41
1
10
39.4985127492085
20
29.5346239339064
30
0
41
1
10
39.4386898601157
20
29.3946223456386
30
0
41
1
10
39.409031757638
20
29.324743821692
30
0
41
1
10
39.3796742692458
20
29.2550103827709
30
0
0
SPLINE
5
150
100
AcDbEntity
8
1
62
256
6
ByLayer
370
18
48
1
60
0
100
AcDbSpline
70
4
71
3
72
8
73
4
40
0
40
0
40
0
40
0
40
1
40
1
40
1
40
1
41
1
10
41.7034865257735
20
28.2732852428316
30
0
41
1
10
41.7631536569859
20
28.4150137924409
30
0
41
1
10
41.8228439775829
20
28.5544627995859
30
0
41
1
10
41.8825483201574
20
28.6925334306497
30
0
0
SPLINE
5
151
100
AcDbEntity
8
1
62
256
6
ByLayer
370
18
48
1
60
0
100
AcDbSpline
70
4
71
3
72
8
73
4
40
0
40
0
40
0
40
0
40
1
40
1
40
1
40
1
41
1
10
40.9955588863181
20
29.8509407349321
30
0
41
1
10
40.8470020416805
20
29.8286264857592
30
0
41
1
10
40.6950620492495
20
29.8067067382892
30
0
41
1
10
40.544882969913
20
29.7864203160087
30
0
0
SPLINE
5
152
100
AcDbEntity
8
1
62
256
6
ByLayer
370
18
48
1
60
0
100
AcDbSpline
70
4
71
3
72
8
73
4
40
0
40
0
40
0
40
0
40
1
40
1
40
1
40
1
41
1
10
39.6135863074291
20
27.5250728033594
30
0
41
1
10
39.7085111177188
20
27.4060469921738
30
0
41
1
10
39.8024881582176
20
27.2919225377159
30
0
41
1
10
39.89589210862
20
27.1807617976807
30
0
0
SPLINE
5
153
100
AcDbEntity
8
1
62
256
6
ByLayer
370
18
48
1
60
0
100
AcDbSpline
70
4
71
3
72
8
73
4
40
0
40
0
40
0
40
0
40
1
40
1
40
1
40
1
41
1
10
41.2564813291746
20
29.4857962028224
30
0
41
1
10
41.1658944794009
20
29.6090484322184
30
0
41
1
10
41.0794686546642
20
29.7305299374589
30
0
41
1
10
40.9955588863181
20
29.8509407349321
30
0
0
SPLINE
5
154
100
AcDbEntity
8
1
62
256
6
ByLayer
370
18
48
1
60
0
100
AcDbSpline
70
4
71
3
72
8
73
4
40
0
40
0
40
0
40
0
40
1
40
1
40
1
40
1
41
1
10
39.1665811108303
20
28.7375837633502
30
0
41
1
10
39.1112519401338
20
28.6000816319513
30
0
41
1
10
39.059112835299
20
28.4679896755889
30
0
41
1
10
39.0089026747807
20
28.3391691019632
30
0
0
INSERT
5
167
100
AcDbEntity
8
2
62
256
6
ByLayer
370
25
48
1
60
0
100
AcDbBlockReference
2
DimnDraft3D11
10
0
20
0
30
0
41
1
42
1
43
1
50
0
210
0
220
0
230
1
0
LINE
5
72
100
AcDbEntity
8
1
62
256
6
ByLayer
370
18
48
1
60
0
100
AcDbLine
10
20.486649
20
1.020489
30
0
11
20.625963
21
1.264328
31
0
39
0
210
0
220
0
230
1
0
LINE
5
73
100
AcDbEntity
8
1
62
256
6
ByLayer
370
18
48
1
60
0
100
AcDbLine
10
48.494776
20
33.346408
30
0
11
48.137884
21
32.998693
31
0
39
0
210
0
220
0
230
1
0
LINE
5
74
100
AcDbEntity
8
1
62
256
6
ByLayer
370
18
48
1
60
0
100
AcDbLine
10
50.465168
20
30.788055
30
0
11
50.168095
21
30.498621
31
0
39
0
210
0
220
0
230
1
0
LINE
5
75
100
AcDbEntity
8
1
62
256
6
ByLayer
370
18
48
1
60
0
100
AcDbLine
10
42.386395
20
26.21817
30
0
11
42.466539
21
26.296254
31
0
39
0
210
0
220
0
230
1
0
LINE
5
76
100
AcDbEntity
8
1
62
256
6
ByLayer
370
18
48
1
60
0
100
AcDbLine
10
17.683036
20
0.258989
30
0
11
20.47477
21
1.009889
31
0
39
0
210
0
220
0
230
1
0
LINE
5
77
100
AcDbEntity
8
1
62
256
6
ByLayer
370
18
48
1
60
0
100
AcDbLine
10
19.435806
20
4.872602
30
0
11
16.644071
21
4.121702
31
0
39
0
210
0
220
0
230
1
0
LINE
5
78
100
AcDbEntity
8
1
62
256
6
ByLayer
370
18
48
1
60
0
100
AcDbLine
10
17.162226
20
0.39702
30
0
11
17.674487
21
0.259154
31
0
39
0
210
0
220
0
230
1
0
LINE
5
79
100
AcDbEntity
8
1
62
256
6
ByLayer
370
18
48
1
60
0
100
AcDbLine
10
16.636759
20
4.11727
30
0
11
16.629361
21
4.109827
31
0
39
0
210
0
220
0
230
1
0
LINE
5
7A
100
AcDbEntity
8
1
62
256
6
ByLayer
370
18
48
1
60
0
100
AcDbLine
10
19.694239
20
4.728341
30
0
11
19.4514
21
4.869392
31
0
39
0
210
0
220
0
230
1
0
LINE
5
7B
100
AcDbEntity
8
1
62
256
6
ByLayer
370
18
48
1
60
0
100
AcDbLine
10
38.27951
20
30.593786
30
0
11
38.199365
21
30.515702
31
0
39
0
210
0
220
0
230
1
0
LINE
5
7C
100
AcDbEntity
8
1
62
256
6
ByLayer
370
18
48
1
60
0
100
AcDbLine
10
0.3
20
-25
30
0
11
20.186138
21
-25
31
0
39
0
210
0
220
0
230
1
0
LINE
5
7D
100
AcDbEntity
8
1
62
256
6
ByLayer
370
18
48
1
60
0
100
AcDbLine
10
20.186138
20
25
30
0
11
0.3
21
25
31
0
39
0
210
0
220
0
230
1
0
LINE
5
7E
100
AcDbEntity
8
1
62
256
6
ByLayer
370
18
48
1
60
0
100
AcDbLine
10
0.3
20
25
30
0
11
0
21
24.7
31
0
39
0
210
0
220
0
230
1
0
LINE
5
7F
100
AcDbEntity
8
1
62
256
6
ByLayer
370
18
48
1
60
0
100
AcDbLine
10
0
20
-24.7
30
0
11
0.3
21
-25
31
0
39
0
210
0
220
0
230
1
0
LINE
5
80
100
AcDbEntity
8
1
62
256
6
ByLayer
370
18
48
1
60
0
100
AcDbLine
10
20.652507
20
-25.15
30
0
11
22.738821
21
-25.15
31
0
39
0
210
0
220
0
230
1
0
LINE
5
81
100
AcDbEntity
8
1
62
256
6
ByLayer
370
18
48
1
60
0
100
AcDbLine
10
22.585306
20
31.662852
30
0
11
20.958879
21
25.592945
31
0
39
0
210
0
220
0
230
1
0
LINE
5
82
100
AcDbEntity
8
1
62
256
6
ByLayer
370
18
48
1
60
0
100
AcDbLine
10
54.78323
20
25.881544
30
0
11
55.320174
21
26.404681
31
0
39
0
210
0
220
0
230
1
0
LINE
5
83
100
AcDbEntity
8
1
62
256
6
ByLayer
370
18
48
1
60
0
100
AcDbLine
10
52.507019
20
28.141941
30
0
11
53.036917
21
28.658213
31
0
39
0
210
0
220
0
230
1
0
LINE
5
84
100
AcDbEntity
8
SK1
62
256
6
ByLayer
370
18
48
1
60
0
100
AcDbLine
10
-0.2
20
6.103447
30
0
11
-0.2
21
17.833485
31
0
39
0
210
0
220
0
230
1
0
LINE
5
86
100
AcDbEntity
8
SK1
62
256
6
ByLayer
370
18
48
1
60
0
100
AcDbLine
10
-0.2
20
-17.833485
30
0
11
-0.2
21
-6.103448
31
0
39
0
210
0
220
0
230
1
0
LINE
5
87
100
AcDbEntity
8
SK1
62
256
6
ByLayer
370
18
48
1
60
0
100
AcDbLine
10
-1.307107
20
-3.918065
30
0
11
-1.307107
21
3.918065
31
0
39
0
210
0
220
0
230
1
0
LINE
5
88
100
AcDbEntity
8
1
62
256
6
ByLayer
370
18
48
1
60
0
100
AcDbLine
10
17.480546
20
5.599365
30
0
11
17.480546
21
23.455355
31
0
39
0
210
0
220
0
230
1
0
LINE
5
89
100
AcDbEntity
8
1
62
256
6
ByLayer
370
18
48
1
60
0
100
AcDbLine
10
8.105662
20
-8.055848
30
0
11
8.105662
21
-23.666502
31
0
39
0
210
0
220
0
230
1
0
LINE
5
8A
100
AcDbEntity
8
1
62
256
6
ByLayer
370
18
48
1
60
0
100
AcDbLine
10
11.461325
20
23.83913
30
0
11
11.461325
21
7.529667
31
0
39
0
210
0
220
0
230
1
0
LINE
5
8B
100
AcDbEntity
8
1
62
256
6
ByLayer
370
18
48
1
60
0
100
AcDbLine
10
8.538675
20
7.529667
30
0
11
11.461325
21
7.529667
31
0
39
0
210
0
220
0
230
1
0
LINE
5
8C
100
AcDbEntity
8
1
62
256
6
ByLayer
370
18
48
1
60
0
100
AcDbLine
10
48.529406
20
24.854888
30
0
11
46.976062
21
22.317397
31
0
39
0
210
0
220
0
230
1
0
LINE
5
8D
100
AcDbEntity
8
1
62
256
6
ByLayer
370
18
48
1
60
0
100
AcDbLine
10
22.696821
20
20.712097
30
0
11
39.964277
21
2.988923
31
0
39
0
210
0
220
0
230
1
0
LINE
5
8E
100
AcDbEntity
8
1
62
256
6
ByLayer
370
18
48
1
60
0
100
AcDbLine
10
48.088847
20
24.437151
30
0
11
48.010652
21
24.309414
31
0
39
0
210
0
220
0
230
1
0
LINE
5
8F
100
AcDbEntity
8
1
62
256
6
ByLayer
370
18
48
1
60
0
100
AcDbLine
10
11.894338
20
-8.055848
30
0
11
11.894338
21
-23.666502
31
0
39
0
210
0
220
0
230
1
0
LINE
5
90
100
AcDbEntity
8
1
62
256
6
ByLayer
370
18
48
1
60
0
100
AcDbLine
10
21.465325
20
23.72154
30
0
11
21.465325
21
-24.647972
31
0
39
0
210
0
220
0
230
1
0
LINE
5
91
100
AcDbEntity
8
1
62
256
6
ByLayer
370
18
48
1
60
0
100
AcDbLine
10
20.186138
20
-24.45108
30
0
11
20.186138
21
-25
31
0
39
0
210
0
220
0
230
1
0
LINE
5
92
100
AcDbEntity
8
1
62
256
6
ByLayer
370
18
48
1
60
0
100
AcDbLine
10
20.186138
20
25
30
0
11
20.186138
21
24.45108
31
0
39
0
210
0
220
0
230
1
0
LINE
5
93
100
AcDbEntity
8
1
62
256
6
ByLayer
370
18
48
1
60
0
100
AcDbLine
10
43.804872
20
25.811823
30
0
11
43.204683
21
24.831373
31
0
39
0
210
0
220
0
230
1
0
LINE
5
94
100
AcDbEntity
8
1
62
256
6
ByLayer
370
18
48
1
60
0
100
AcDbLine
10
0
20
-24.7
30
0
11
0
21
24.7
31
0
39
0
210
0
220
0
230
1
0
LINE
5
95
100
AcDbEntity
8
1
62
256
6
ByLayer
370
18
48
1
60
0
100
AcDbLine
10
17.480546
20
-23.455355
30
0
11
17.480546
21
-0.835394
31
0
39
0
210
0
220
0
230
1
0
LINE
5
96
100
AcDbEntity
8
1
62
256
6
ByLayer
370
18
48
1
60
0
100
AcDbLine
10
48.010652
20
24.309414
30
0
11
48.054095
21
24.311881
31
0
39
0
210
0
220
0
230
1
0
LINE
5
97
100
AcDbEntity
8
1
62
256
6
ByLayer
370
18
48
1
60
0
100
AcDbLine
10
48.529406
20
24.854888
30
0
11
47.930849
21
24.17115
31
0
39
0
210
0
220
0
230
1
0
LINE
5
98
100
AcDbEntity
8
1
62
256
6
ByLayer
370
18
48
1
60
0
100
AcDbLine
10
11.461325
20
-7.529667
30
0
11
8.538675
21
-7.529667
31
0
39
0
210
0
220
0
230
1
0
LINE
5
99
100
AcDbEntity
8
1
62
256
6
ByLayer
370
18
48
1
60
0
100
AcDbLine
10
46.976062
20
22.317397
30
0
11
46.537145
21
21.822535
31
0
39
0
210
0
220
0
230
1
0
LINE
5
9A
100
AcDbEntity
8
1
62
256
6
ByLayer
370
18
48
1
60
0
100
AcDbLine
10
8.538675
20
-7.529667
30
0
11
8.538675
21
-23.83913
31
0
39
0
210
0
220
0
230
1
0
LINE
5
9B
100
AcDbEntity
8
1
62
256
6
ByLayer
370
18
48
1
60
0
100
AcDbLine
10
43.516472
20
24.45861
30
0
11
42.95231
21
23.537013
31
0
39
0
210
0
220
0
230
1
0
LINE
5
9C
100
AcDbEntity
8
1
62
256
6
ByLayer
370
18
48
1
60
0
100
AcDbLine
10
53.52331
20
25.138501
30
0
11
39.964277
21
2.988923
31
0
39
0
210
0
220
0
230
1
0
LINE
5
9D
100
AcDbEntity
8
1
62
256
6
ByLayer
370
18
48
1
60
0
100
AcDbLine
10
23.046142
20
-24.647972
30
0
11
39.964277
21
2.988923
31
0
39
0
210
0
220
0
230
1
0
LINE
5
9E
100
AcDbEntity
8
1
62
256
6
ByLayer
370
18
48
1
60
0
100
AcDbLine
10
8.538675
20
-23.83913
30
0
11
11.461325
21
-23.83913
31
0
39
0
210
0
220
0
230
1
0
LINE
5
9F
100
AcDbEntity
8
1
62
256
6
ByLayer
370
18
48
1
60
0
100
AcDbLine
10
11.894338
20
23.666502
30
0
11
11.894338
21
8.055848
31
0
39
0
210
0
220
0
230
1
0
LINE
5
A0
100
AcDbEntity
8
1
62
256
6
ByLayer
370
18
48
1
60
0
100
AcDbLine
10
23.046142
20
-24.647972
30
0
11
22.738821
21
-25.15
31
0
39
0
210
0
220
0
230
1
0
LINE
5
A1
100
AcDbEntity
8
1
62
256
6
ByLayer
370
18
48
1
60
0
100
AcDbLine
10
46.116869
20
21.573917
30
0
11
47.862322
21
24.42523
31
0
39
0
210
0
220
0
230
1
0
LINE
5
A2
100
AcDbEntity
8
1
62
256
6
ByLayer
370
18
48
1
60
0
100
AcDbLine
10
16.648231
20
-0.714756
30
0
11
17.025578
21
-3.520593
31
0
39
0
210
0
220
0
230
1
0
LINE
5
A3
100
AcDbEntity
8
1
62
256
6
ByLayer
370
18
48
1
60
0
100
AcDbLine
10
23.046142
20
-24.647972
30
0
11
21.465325
21
-24.647972
31
0
39
0
210
0
220
0
230
1
0
LINE
5
A4
100
AcDbEntity
8
1
62
256
6
ByLayer
370
18
48
1
60
0
100
AcDbLine
10
22.645759
20
31.662706
30
0
11
48.203378
21
33.002125
31
0
39
0
210
0
220
0
230
1
0
LINE
5
A5
100
AcDbEntity
8
1
62
256
6
ByLayer
370
18
48
1
60
0
100
AcDbLine
10
22.563492
20
31.348077
30
0
11
22.696821
21
20.712097
31
0
39
0
210
0
220
0
230
1
0
LINE
5
A6
100
AcDbEntity
8
1
62
256
6
ByLayer
370
18
48
1
60
0
100
AcDbLine
10
8.105662
20
23.666502
30
0
11
8.105662
21
8.055848
31
0
39
0
210
0
220
0
230
1
0
LINE
5
A7
100
AcDbEntity
8
1
62
256
6
ByLayer
370
18
48
1
60
0
100
AcDbLine
10
11.461325
20
-7.529667
30
0
11
11.461325
21
-23.83913
31
0
39
0
210
0
220
0
230
1
0
LINE
5
A8
100
AcDbEntity
8
1
62
256
6
ByLayer
370
18
48
1
60
0
100
AcDbLine
10
0.3
20
-25
30
0
11
0.3
21
25
31
0
39
0
210
0
220
0
230
1
0
LINE
5
A9
100
AcDbEntity
8
1
62
256
6
ByLayer
370
18
48
1
60
0
100
AcDbLine
10
20.958879
20
25.093343
30
0
11
20.958879
21
25.592945
31
0
39
0
210
0
220
0
230
1
0
LINE
5
AA
100
AcDbEntity
8
1
62
256
6
ByLayer
370
18
48
1
60
0
100
AcDbLine
10
48.529406
20
24.854888
30
0
11
51.561876
21
25.027108
31
0
39
0
210
0
220
0
230
1
0
LINE
5
AB
100
AcDbEntity
8
1
62
256
6
ByLayer
370
18
48
1
60
0
100
AcDbLine
10
53.11022
20
25.115041
30
0
11
53.52331
21
25.138501
31
0
39
0
210
0
220
0
230
1
0
LINE
5
AC
100
AcDbEntity
8
1
62
256
6
ByLayer
370
18
48
1
60
0
100
AcDbLine
10
11.461325
20
23.83913
30
0
11
8.538675
21
23.83913
31
0
39
0
210
0
220
0
230
1
0
LINE
5
AD
100
AcDbEntity
8
1
62
256
6
ByLayer
370
18
48
1
60
0
100
AcDbLine
10
46.579066
20
30.630737
30
0
11
45.473603
21
28.824889
31
0
39
0
210
0
220
0
230
1
0
LINE
5
AE
100
AcDbEntity
8
1
62
256
6
ByLayer
370
18
48
1
60
0
100
AcDbLine
10
42.982859
20
23.751782
30
0
11
43.45625
21
24.525098
31
0
39
0
210
0
220
0
230
1
0
LINE
5
AF
100
AcDbEntity
8
1
62
256
6
ByLayer
370
18
48
1
60
0
100
AcDbLine
10
48.051007
20
24.435115
30
0
11
46.385509
21
21.714414
31
0
39
0
210
0
220
0
230
1
0
LINE
5
B0
100
AcDbEntity
8
1
62
256
6
ByLayer
370
18
48
1
60
0
100
AcDbLine
10
20.652507
20
-24.630895
30
0
11
20.652507
21
-25.15
31
0
39
0
210
0
220
0
230
1
0
LINE
5
B1
100
AcDbEntity
8
1
62
256
6
ByLayer
370
18
48
1
60
0
100
AcDbLine
10
8.538675
20
23.83913
30
0
11
8.538675
21
7.529667
31
0
39
0
210
0
220
0
230
1
0
LINE
5
B2
100
AcDbEntity
8
1
62
256
6
ByLayer
370
18
48
1
60
0
100
AcDbLine
10
43.881852
20
22.047551
30
0
11
43.992869
21
21.978684
31
0
39
0
210
0
220
0
230
1
0
LINE
5
B3
100
AcDbEntity
8
1
62
256
6
ByLayer
370
18
48
1
60
0
100
AcDbLine
10
52.984046
20
25.101638
30
0
11
53.078472
21
25.193636
31
0
39
0
210
0
220
0
230
1
0
LINE
5
B4
100
AcDbEntity
8
1
62
256
6
ByLayer
370
18
48
1
60
0
100
AcDbLine
10
48.167376
20
24.441259
30
0
11
44.117801
21
24.22903
31
0
39
0
210
0
220
0
230
1
0
LINE
5
B5
100
AcDbEntity
8
1
62
256
6
ByLayer
370
18
48
1
60
0
100
AcDbLine
10
43.8352
20
25.866152
30
0
11
43.929627
21
25.95815
31
0
39
0
210
0
220
0
230
1
0
LINE
5
B6
100
AcDbEntity
8
1
62
256
6
ByLayer
370
18
48
1
60
0
100
AcDbLine
10
48.313203
20
33.119012
30
0
11
48.192651
21
33.00156
31
0
39
0
210
0
220
0
230
1
0
LINE
5
B7
100
AcDbEntity
8
1
62
256
6
ByLayer
370
18
48
1
60
0
100
AcDbLine
10
53.619151
20
25.357012
30
0
11
53.386922
21
25.130755
31
0
39
0
210
0
220
0
230
1
0
LINE
5
B8
100
AcDbEntity
8
1
62
256
6
ByLayer
370
18
48
1
60
0
100
AcDbLine
10
54.563766
20
25.713318
30
0
11
53.482182
21
25.071297
31
0
39
0
210
0
220
0
230
1
0
LINE
5
B9
100
AcDbEntity
8
1
62
256
6
ByLayer
370
18
48
1
60
0
100
AcDbLine
10
50.029689
20
30.128905
30
0
11
50.028467
21
30.127715
31
0
39
0
210
0
220
0
230
1
0
LINE
5
BA
100
AcDbEntity
8
1
62
256
6
ByLayer
370
18
48
1
60
0
100
AcDbLine
10
41.120029
20
27.395018
30
0
11
41.089901
21
27.321862
31
0
39
0
210
0
220
0
230
1
0
LINE
5
BB
100
AcDbEntity
8
1
62
256
6
ByLayer
370
18
48
1
60
0
100
AcDbLine
10
39.41237
20
29.33186
30
0
11
39.617664
21
29.357104
31
0
39
0
210
0
220
0
230
1
0
LINE
5
BC
100
AcDbEntity
8
1
62
256
6
ByLayer
370
18
48
1
60
0
100
AcDbLine
10
17.162211
20
0.397024
30
0
11
17.169636
21
0.396877
31
0
39
0
210
0
220
0
230
1
0
LINE
5
BD
100
AcDbEntity
8
1
62
256
6
ByLayer
370
18
48
1
60
0
100
AcDbLine
10
16.644071
20
4.121702
30
0
11
16.636746
21
4.117257
31
0
39
0
210
0
220
0
230
1
0
LINE
5
BE
100
AcDbEntity
8
80
62
256
6
ByLayer
370
18
48
1
60
0
100
AcDbLine
10
0
20
0
30
0
11
-5
21
0
31
0
39
0
210
0
220
0
230
1
0
LINE
5
BF
100
AcDbEntity
8
4
62
256
6
ByLayer
370
18
48
0.05
60
0
100
AcDbLine
10
0
20
0
30
0
11
60
21
0
31
0
39
0
210
0
220
0
230
1
0
LINE
5
C1
100
AcDbEntity
8
81
62
256
6
ByLayer
370
18
48
1
60
0
100
AcDbLine
10
60
20
35
30
0
11
70
21
35
31
0
39
0
210
0
220
0
230
1
0
LINE
5
C2
100
AcDbEntity
8
SK4
62
256
6
ByLayer
370
18
48
0.05
60
0
100
AcDbLine
10
-35
20
0
30
0
11
60
21
0
31
0
39
0
210
0
220
0
230
1
0
LINE
5
C4
100
AcDbEntity
8
1
62
256
6
ByLayer
370
18
48
1
60
0
100
AcDbLine
10
55.10071
20
26.236455
30
0
11
53.619151
21
25.357012
31
0
39
0
210
0
220
0
230
1
0
LINE
5
C5
100
AcDbEntity
8
1
62
256
6
ByLayer
370
18
48
1
60
0
100
AcDbLine
10
53.078472
20
25.193636
30
0
11
44.654745
21
24.752167
31
0
39
0
210
0
220
0
230
1
0
LINE
5
C6
100
AcDbEntity
8
1
62
256
6
ByLayer
370
18
48
1
60
0
100
AcDbLine
10
44.654745
20
24.752167
30
0
11
44.117801
21
24.22903
31
0
39
0
210
0
220
0
230
1
0
LINE
5
C7
100
AcDbEntity
8
1
62
256
6
ByLayer
370
18
48
1
60
0
100
AcDbLine
10
59.885323
20
33.792938
30
0
11
55.501747
21
26.632076
31
0
39
0
210
0
220
0
230
1
0
LINE
5
C8
100
AcDbEntity
8
1
62
256
6
ByLayer
370
18
48
1
60
0
100
AcDbLine
10
54.563766
20
25.713318
30
0
11
55.10071
21
26.236455
31
0
39
0
210
0
220
0
230
1
0
LINE
5
C9
100
AcDbEntity
8
1
62
256
6
ByLayer
370
18
48
1
60
0
100
AcDbLine
10
48.71424
20
33.514633
30
0
11
50.195799
21
34.394077
31
0
39
0
210
0
220
0
230
1
0
LINE
5
CA
100
AcDbEntity
8
1
62
256
6
ByLayer
370
18
48
1
60
0
100
AcDbLine
10
50.736477
20
34.557452
30
0
11
59.160205
21
34.998921
31
0
39
0
210
0
220
0
230
1
0
LINE
5
CB
100
AcDbEntity
8
1
62
256
6
ByLayer
370
18
48
1
60
0
100
AcDbLine
10
43.929627
20
25.95815
30
0
11
48.313203
21
33.119012
31
0
39
0
210
0
220
0
230
1
0
LINE
5
CC
100
AcDbEntity
8
1
62
256
6
ByLayer
370
18
48
1
60
0
100
AcDbLine
10
41.120029
20
27.395018
30
0
11
41.490393
21
27.755859
31
0
39
0
210
0
220
0
230
1
0
LINE
5
CD
100
AcDbEntity
8
1
62
256
6
ByLayer
370
18
48
1
60
0
100
AcDbLine
10
40.174519
20
29.425579
30
0
11
40.544883
21
29.78642
31
0
39
0
210
0
220
0
230
1
0
LINE
5
CE
100
AcDbEntity
8
1
62
256
6
ByLayer
370
18
48
1
60
0
100
AcDbLine
10
41.229878
20
28.676003
30
0
11
41.501492
21
28.321276
31
0
39
0
210
0
220
0
230
1
0
LINE
5
CF
100
AcDbEntity
8
1
62
256
6
ByLayer
370
18
48
1
60
0
100
AcDbLine
10
39.988029
20
29.717945
30
0
11
39.617664
21
29.357104
31
0
39
0
210
0
220
0
230
1
0
LINE
5
D0
100
AcDbEntity
8
1
62
256
6
ByLayer
370
18
48
1
60
0
100
AcDbLine
10
41.229878
20
28.676003
30
0
11
41.600243
21
29.036844
31
0
39
0
210
0
220
0
230
1
0
LINE
5
D1
100
AcDbEntity
8
1
62
256
6
ByLayer
370
18
48
1
60
0
100
AcDbLine
10
41.882548
20
28.692533
30
0
11
41.501492
21
28.321276
31
0
39
0
210
0
220
0
230
1
0
LINE
5
D2
100
AcDbEntity
8
1
62
256
6
ByLayer
370
18
48
1
60
0
100
AcDbLine
10
40.174519
20
29.425579
30
0
11
40.614503
21
29.479683
31
0
39
0
210
0
220
0
230
1
0
LINE
5
D3
100
AcDbEntity
8
1
62
256
6
ByLayer
370
18
48
1
60
0
100
AcDbLine
10
41.256481
20
29.485796
30
0
11
40.886117
21
29.124955
31
0
39
0
210
0
220
0
230
1
0
LINE
5
D4
100
AcDbEntity
8
1
62
256
6
ByLayer
370
18
48
1
60
0
100
AcDbLine
10
41.501492
20
28.321276
30
0
11
41.333122
21
27.912444
31
0
39
0
210
0
220
0
230
1
0
LINE
5
D5
100
AcDbEntity
8
1
62
256
6
ByLayer
370
18
48
1
60
0
100
AcDbLine
10
40.995559
20
29.850941
30
0
11
40.614503
21
29.479683
31
0
39
0
210
0
220
0
230
1
0
LINE
5
D6
100
AcDbEntity
8
1
62
256
6
ByLayer
370
18
48
1
60
0
100
AcDbLine
10
40.614503
20
29.479683
30
0
11
40.886117
21
29.124955
31
0
39
0
210
0
220
0
230
1
0
LINE
5
D7
100
AcDbEntity
8
1
62
256
6
ByLayer
370
18
48
1
60
0
100
AcDbLine
10
41.703487
20
28.273285
30
0
11
41.333122
21
27.912444
31
0
39
0
210
0
220
0
230
1
0
MTEXT
5
155
100
AcDbEntity
8
SK6
62
256
6
ByLayer
370
13
48
1
60
0
100
AcDbMText
10
-1.693126
20
-40.297905
30
0
210
0
220
0
230
1
1
\W0.7301;C5-PDJNR-35060-11
40
3.5
41
0
44
1.084337
50
0
71
7
72
5
7
iso_b_vert
0
DIMENSION
5
176
100
AcDbEntity
8
SK2
62
256
6
ByLayer
370
13
48
1
60
0
100
AcDbDimension
2
DimnDraft3D2
10
-39.75
20
-25
30
0
11
-39.75
21
0
31
0
70
32
71
5
72
1
41
1
210
0
220
0
230
1
3
Standard
100
AcDbAlignedDimension
13
-1.5875
23
25
33
0
14
-1.5875
24
-25
34
0
50
90
100
AcDbRotatedDimension
1001
ACAD
1000
DSTYLE
1002
{
1070
    74
1070
     0
1070
   279
1070
     0
1070
   172
1070
     1
1070
   173
1070
     1
1070
   340
1005
156
1070
   271
1070
     1
1070
   272
1070
     2
1070
    77
1070
     1
1070
    73
1070
     0
1070
   171
1070
     3
1070
   274
1070
     4
1070
   177
1070
   150
1070
   176
1070
     9
1070
   178
1070
    43
1070
    78
1070
     8
1070
    48
1040
-0.005
1070
    41
1041
3.175
1070
   147
1041
2.25
1070
    42
1041
1.5875
1070
    44
1041
3.175
1070
   140
1041
4.5
1070
   343
1005
177
1070
   344
1005
177
1002
}
0
DIMENSION
5
18B
100
AcDbEntity
8
2
62
256
6
ByLayer
370
13
48
1
60
0
100
AcDbDimension
2
DimnDraft3D3
10
0
20
52.5
30
0
11
30
21
52.5
31
0
70
32
71
5
72
1
41
1
210
0
220
0
230
1
3
Standard
100
AcDbAlignedDimension
13
60
23
36.5875
33
0
14
0
24
26.5875
34
0
50
0
100
AcDbRotatedDimension
1001
ACAD
1000
DSTYLE
1002
{
1070
   279
1070
     0
1070
   172
1070
     1
1070
   173
1070
     1
1070
   340
1005
156
1070
   271
1070
     1
1070
   272
1070
     2
1070
    77
1070
     1
1070
    73
1070
     0
1070
   171
1070
     3
1070
   274
1070
     4
1070
   177
1070
   150
1070
   176
1070
     9
1070
   178
1070
    43
1070
    78
1070
     8
1070
    48
1040
-0.005
1070
    41
1041
3.175
1070
   147
1041
2.25
1070
    42
1041
1.5875
1070
    44
1041
3.175
1070
   140
1041
4.5
1070
   343
1005
177
1070
   344
1005
177
1002
}
0
DIMENSION
5
199
100
AcDbEntity
8
2
62
256
6
ByLayer
370
13
48
1
60
0
100
AcDbDimension
2
DimnDraft3D4
10
48.179783
20
34.423217
30
0
11
47.711865
21
46.703693
31
0
70
34
71
5
72
1
41
1
210
0
220
0
230
1
3
Standard
100
AcDb2LineAngularDimension
13
60
23
35
33
0
14
60
24
33.4125
34
0
15
59.164708
25
34.998912
35
0
16
50.976049
26
43.606097
36
0
40
0
0
ENDSEC
0
SECTION
2
OBJECTS
0
DICTIONARY
5
204
330
0
100
AcDbDictionary
280
0
281
1
3
ACAD_GROUP
350
205
3
ACAD_MLINESTYLE
350
206
0
DICTIONARY
5
205
330
0
100
AcDbDictionary
280
0
281
1
0
DICTIONARY
5
206
330
0
100
AcDbDictionary
280
0
281
1
3
Standard
350
18
0
MLINESTYLE
5
18
330
206
100
AcDbMlineStyle
2
Standard
70
0
3

62
256
51
90
52
90
71
2
49
-0.5
62
256
6
ByLayer
49
0.5
62
256
6
ByLayer
0
RASTERVARIABLES
5
1f2
330

100
AcDbRasterVariables
90
0
70
1
71
1
72
1
0
ENDSEC
0
EOF
