0
SECTION
2
HEADER
9
$ACADVER
1
AC1015
9
$DWGCODEPAGE
3
ANSI_1252
9
$HANDSEED
5
20e
9
$ANGBASE
50
0
9
$ANGDIR
70
0
9
$ATTMODE
70
1
9
$AUNITS
70
0
9
$AUPREC
70
0
9
$CECOLOR
62
256
9
$CELTSCALE
40
1
9
$CELTYPE
6
ByLayer
9
$CELWEIGHT
370
18
9
$CLAYER
8
0
9
$CMLJUST
70
0
9
$CMLSCALE
40
1
9
$CMLSTYLE
2
Standard
9
$DIMSTYLE
2
Standard
9
$TEXTSIZE
40
0.2
9
$TEXTSTYLE
7
Standard
9
$LUNITS
70
2
9
$LUPREC
70
4
9
$EXTNAMES
290
1
9
$INSUNITS
70
4
9
$LTSCALE
40
1
9
$LWDISPLAY
290
1
9
$PDMODE
70
0
9
$PDSIZE
40
0
9
$PLINEGEN
70
0
0
ENDSEC
0
SECTION
2
CLASSES
0
CLASS
1
RASTERVARIABLES
2
AcDbRasterVariables
3
ISM
90
0
280
0
281
0
0
ENDSEC
0
SECTION
2
TABLES
0
TABLE
2
VPORT
5
204
100
AcDbSymbolTable
0
VPORT
5
1
100
AcDbSymbolTableRecord
100
AcDbViewportTableRecord
2
*Active
70
0
10
0
20
0
11
1
21
1
12
-1
22
1
13
0
23
0
14
0.5
24
0.5
15
10
25
10
16
0
26
0
36
1
17
0
27
0
37
0
0
ENDTAB
0
TABLE
2
LTYPE
5
205
100
AcDbSymbolTable
0
LTYPE
5
14
100
AcDbSymbolTableRecord
100
AcDbLinetypeTableRecord
70
0
2
ByBlock
3

72
65
73
0
40
0
0
LTYPE
5
15
100
AcDbSymbolTableRecord
100
AcDbLinetypeTableRecord
70
0
2
ByLayer
3

72
65
73
0
40
0
0
LTYPE
5
16
100
AcDbSymbolTableRecord
100
AcDbLinetypeTableRecord
70
0
2
CONTINUOUS
3
Solid line
72
65
73
0
40
0
0
LTYPE
5
6A
100
AcDbSymbolTableRecord
100
AcDbLinetypeTableRecord
70
0
2
CENTER
3
____ _ ____ _ ____ _ ____
72
65
73
4
40
47.5
49
22
74
0
49
-8.5
74
0
49
8.5
74
0
49
-8.5
74
0
0
LTYPE
5
6B
100
AcDbSymbolTableRecord
100
AcDbLinetypeTableRecord
70
0
2
DASHED
3
__ __ __ __ __ __ __ __ __
72
65
73
2
40
25.72
49
12.86
74
0
49
-12.86
74
0
0
ENDTAB
0
TABLE
2
LAYER
5
206
100
AcDbSymbolTable
0
LAYER
5
10
100
AcDbSymbolTableRecord
100
AcDbLayerTableRecord
2
0
70
0
62
7
6
CONTINUOUS
290
1
370
-3
390
0
0
LAYER
5
6D
100
AcDbSymbolTableRecord
100
AcDbLayerTableRecord
2
80
70
0
62
-6
6
CONTINUOUS
290
1
370
-3
390
0
0
LAYER
5
6F
100
AcDbSymbolTableRecord
100
AcDbLayerTableRecord
2
81
70
0
62
-3
6
CONTINUOUS
290
1
370
-3
390
0
0
LAYER
5
71
100
AcDbSymbolTableRecord
100
AcDbLayerTableRecord
2
1
70
0
62
4
6
CONTINUOUS
290
1
370
-3
390
0
0
LAYER
5
BF
100
AcDbSymbolTableRecord
100
AcDbLayerTableRecord
2
4
70
0
62
-2
6
CENTER
290
1
370
-3
390
0
0
LAYER
5
15B
100
AcDbSymbolTableRecord
100
AcDbLayerTableRecord
2
2
70
0
62
7
6
CONTINUOUS
290
1
370
-3
390
0
0
LAYER
5
1f0
100
AcDbSymbolTableRecord
100
AcDbLayerTableRecord
2
SK1
70
0
62
4
6
CONTINUOUS
290
1
370
-3
390
0
0
LAYER
5
1f1
100
AcDbSymbolTableRecord
100
AcDbLayerTableRecord
2
SK4
70
0
62
2
6
CENTER
290
1
370
-3
390
0
0
LAYER
5
1f2
100
AcDbSymbolTableRecord
100
AcDbLayerTableRecord
2
SK6
70
0
62
5
6
CONTINUOUS
290
1
370
-3
390
0
0
LAYER
5
1f3
100
AcDbSymbolTableRecord
100
AcDbLayerTableRecord
2
SK2
70
0
62
7
6
CONTINUOUS
290
1
370
-3
390
0
0
ENDTAB
0
TABLE
2
STYLE
5
207
100
AcDbSymbolTable
0
STYLE
5
11
100
AcDbSymbolTableRecord
100
AcDbTextStyleTableRecord
2
Standard
3
txt
70
0
71
0
40
0
41
1
42
0
50
0
0
STYLE
5
154
100
AcDbSymbolTableRecord
100
AcDbTextStyleTableRecord
2
iso_b_vert
3
simplex.shx
70
0
71
0
40
0
41
1
42
0
50
0
0
STYLE
5
155
100
AcDbSymbolTableRecord
100
AcDbTextStyleTableRecord
2
DWGDirectTextStyle
3
simplex
70
0
71
0
40
0
41
1
42
0
50
0
0
ENDTAB
0
TABLE
2
DIMSTYLE
5
208
100
AcDbSymbolTable
100
AcDbDimStyleTable
0
DIMSTYLE
105
27
100
AcDbSymbolTableRecord
100
AcDbDimStyleTableRecord
2
Standard
70
0
3
<>
41
0.18
42
0.0625
44
0.18
140
0.18
147
0.09
73
0
74
0
77
1
271
2
275
0
278
52
280
0
340
11
0
ENDTAB
0
TABLE
2
VIEW
5
209
100
AcDbSymbolTable
0
ENDTAB
0
TABLE
2
UCS
5
20a
100
AcDbSymbolTable
0
ENDTAB
0
TABLE
2
APPID
5
20b
100
AcDbSymbolTable
0
APPID
5
12
100
AcDbSymbolTableRecord
100
AcDbRegAppTableRecord
2
ACAD
70
0
0
ENDTAB
0
TABLE
2
BLOCK_RECORD
5
20c
100
AcDbSymbolTable
0
BLOCK_RECORD
5
1F
100
AcDbSymbolTableRecord
100
AcDbBlockTableRecord
2
*Model_Space
340
0
70
0
0
BLOCK_RECORD
5
1B
100
AcDbSymbolTableRecord
100
AcDbBlockTableRecord
2
*Paper_Space
340
0
70
0
0
BLOCK_RECORD
5
23
100
AcDbSymbolTableRecord
100
AcDbBlockTableRecord
2
*Paper_Space0
340
0
70
0
0
BLOCK_RECORD
5
157
100
AcDbSymbolTableRecord
100
AcDbBlockTableRecord
2
DimnDraft3D11
340
0
70
0
0
BLOCK_RECORD
5
166
100
AcDbSymbolTableRecord
100
AcDbBlockTableRecord
2
DimnDraft3D2
340
0
70
0
0
BLOCK_RECORD
5
175
100
AcDbSymbolTableRecord
100
AcDbBlockTableRecord
2
_CLOSED
340
0
70
0
0
BLOCK_RECORD
5
17C
100
AcDbSymbolTableRecord
100
AcDbBlockTableRecord
2
DimnDraft3D3
340
0
70
0
0
BLOCK_RECORD
5
18A
100
AcDbSymbolTableRecord
100
AcDbBlockTableRecord
2
DimnDraft3D4
340
0
70
0
0
ENDTAB
0
ENDSEC
0
SECTION
2
BLOCKS
0
BLOCK
5
20
100
AcDbEntity
8
0
100
AcDbBlockBegin
2
*Model_Space
70
0
10
0
20
0
30
0
3
*Model_Space
0
ENDBLK
5
21
100
AcDbEntity
8
0
100
AcDbBlockEnd
0
BLOCK
5
1C
100
AcDbEntity
8
0
100
AcDbBlockBegin
2
*Paper_Space
70
0
10
0
20
0
30
0
3
*Paper_Space
0
ENDBLK
5
1D
100
AcDbEntity
8
0
100
AcDbBlockEnd
0
BLOCK
5
24
100
AcDbEntity
8
0
100
AcDbBlockBegin
2
*Paper_Space0
70
0
10
0
20
0
30
0
3
*Paper_Space0
0
ENDBLK
5
25
100
AcDbEntity
8
0
100
AcDbBlockEnd
0
BLOCK
5
158
100
AcDbEntity
8
0
100
AcDbBlockBegin
2
DimnDraft3D11
70
0
10
0
20
0
30
0
3
DimnDraft3D11
0
LINE
5
15A
100
AcDbEntity
8
2
62
256
6
ByLayer
370
25
48
1
60
0
100
AcDbLine
10
51.5875
20
0
30
0
11
77.425
21
0
31
0
39
0
210
0
220
0
230
1
0
LINE
5
15C
100
AcDbEntity
8
2
62
256
6
ByLayer
370
25
48
1
60
0
100
AcDbLine
10
61.5875
20
35
30
0
11
77.425
21
35
31
0
39
0
210
0
220
0
230
1
0
LINE
5
15D
100
AcDbEntity
8
2
62
256
6
ByLayer
370
25
48
1
60
0
100
AcDbLine
10
74.25
20
0
30
0
11
74.25
21
35
31
0
39
0
210
0
220
0
230
1
0
LINE
5
15E
100
AcDbEntity
8
2
62
256
6
ByLayer
370
25
48
1
60
0
100
AcDbLine
10
74.25
20
0
30
0
11
73.399261
21
3.174997
31
0
39
0
210
0
220
0
230
1
0
LINE
5
15F
100
AcDbEntity
8
2
62
256
6
ByLayer
370
25
48
1
60
0
100
AcDbLine
10
74.25
20
0
30
0
11
75.100739
21
3.175003
31
0
39
0
210
0
220
0
230
1
0
LINE
5
160
100
AcDbEntity
8
2
62
256
6
ByLayer
370
25
48
1
60
0
100
AcDbLine
10
73.399261
20
3.174997
30
0
11
75.100739
21
3.175003
31
0
39
0
210
0
220
0
230
1
0
LINE
5
161
100
AcDbEntity
8
2
62
256
6
ByLayer
370
25
48
1
60
0
100
AcDbLine
10
74.25
20
35
30
0
11
75.100739
21
31.825003
31
0
39
0
210
0
220
0
230
1
0
LINE
5
162
100
AcDbEntity
8
2
62
256
6
ByLayer
370
25
48
1
60
0
100
AcDbLine
10
74.25
20
35
30
0
11
73.399261
21
31.824997
31
0
39
0
210
0
220
0
230
1
0
LINE
5
163
100
AcDbEntity
8
2
62
256
6
ByLayer
370
25
48
1
60
0
100
AcDbLine
10
75.100739
20
31.825003
30
0
11
73.399261
21
31.824997
31
0
39
0
210
0
220
0
230
1
0
MTEXT
5
164
100
AcDbEntity
8
2
62
256
6
ByLayer
370
13
48
1
60
0
100
AcDbMText
10
73.125
20
15.936842
30
0
210
0
220
0
230
1
1
\W0.6740;35
40
4.5
41
0
44
1.084337
50
90
71
7
72
5
7
iso_b_vert
0
ENDBLK
5
159
100
AcDbEntity
8
0
100
AcDbBlockEnd
0
BLOCK
5
172
100
AcDbEntity
8
0
100
AcDbBlockBegin
2
DimnDraft3D2
70
0
10
0
20
0
30
0
3
DimnDraft3D2
0
MTEXT
5
167
100
AcDbEntity
8
SK2
62
256
6
ByLayer
370
13
48
1
60
0
100
AcDbMText
10
-40.875
20
-1.563158
30
0
210
0
220
0
230
1
1
\W0.6740;50
40
4.5
41
0
44
1.084337
50
90
71
7
72
5
7
iso_b_vert
0
LINE
5
169
100
AcDbEntity
8
SK2
62
256
6
ByLayer
370
13
48
1
60
0
100
AcDbLine
10
-1.5875
20
25
30
0
11
-42.925
21
25
31
0
39
0
210
0
220
0
230
1
0
LINE
5
16A
100
AcDbEntity
8
SK2
62
256
6
ByLayer
370
13
48
1
60
0
100
AcDbLine
10
-1.5875
20
-25
30
0
11
-42.925
21
-25
31
0
39
0
210
0
220
0
230
1
0
LINE
5
16B
100
AcDbEntity
8
SK2
62
256
6
ByLayer
370
13
48
1
60
0
100
AcDbLine
10
-39.75
20
25
30
0
11
-39.75
21
-25
31
0
39
0
210
0
220
0
230
1
0
LINE
5
16C
100
AcDbEntity
8
SK2
62
256
6
ByLayer
370
13
48
1
60
0
100
AcDbLine
10
-39.75
20
25
30
0
11
-38.899261
21
21.825003
31
0
39
0
210
0
220
0
230
1
0
LINE
5
16D
100
AcDbEntity
8
SK2
62
256
6
ByLayer
370
13
48
1
60
0
100
AcDbLine
10
-39.75
20
25
30
0
11
-40.600739
21
21.824997
31
0
39
0
210
0
220
0
230
1
0
LINE
5
16E
100
AcDbEntity
8
SK2
62
256
6
ByLayer
370
13
48
1
60
0
100
AcDbLine
10
-38.899261
20
21.825003
30
0
11
-40.600739
21
21.824997
31
0
39
0
210
0
220
0
230
1
0
LINE
5
16F
100
AcDbEntity
8
SK2
62
256
6
ByLayer
370
13
48
1
60
0
100
AcDbLine
10
-39.75
20
-25
30
0
11
-40.600739
21
-21.825003
31
0
39
0
210
0
220
0
230
1
0
LINE
5
170
100
AcDbEntity
8
SK2
62
256
6
ByLayer
370
13
48
1
60
0
100
AcDbLine
10
-39.75
20
-25
30
0
11
-38.899261
21
-21.824997
31
0
39
0
210
0
220
0
230
1
0
LINE
5
171
100
AcDbEntity
8
SK2
62
256
6
ByLayer
370
13
48
1
60
0
100
AcDbLine
10
-40.600739
20
-21.825003
30
0
11
-38.899261
21
-21.824997
31
0
39
0
210
0
220
0
230
1
0
ENDBLK
5
173
100
AcDbEntity
8
0
100
AcDbBlockEnd
0
BLOCK
5
176
100
AcDbEntity
8
0
100
AcDbBlockBegin
2
_CLOSED
70
0
10
0
20
0
30
0
3
_CLOSED
0
LINE
5
178
100
AcDbEntity
8
0
62
256
6
ByLayer
370
-2
48
1
60
0
100
AcDbLine
10
-1
20
0.166667
30
0
11
0
21
0
31
0
39
0
210
0
220
0
230
1
0
LINE
5
179
100
AcDbEntity
8
0
62
256
6
ByLayer
370
-2
48
1
60
0
100
AcDbLine
10
0
20
0
30
0
11
-1
21
-0.166667
31
0
39
0
210
0
220
0
230
1
0
LINE
5
17A
100
AcDbEntity
8
0
62
256
6
ByLayer
370
-2
48
1
60
0
100
AcDbLine
10
-1
20
0.166667
30
0
11
-1
21
-0.166667
31
0
39
0
210
0
220
0
230
1
0
LINE
5
17B
100
AcDbEntity
8
0
62
256
6
ByLayer
370
-2
48
1
60
0
100
AcDbLine
10
0
20
0
30
0
11
-1
21
0
31
0
39
0
210
0
220
0
230
1
0
ENDBLK
5
177
100
AcDbEntity
8
0
100
AcDbBlockEnd
0
BLOCK
5
187
100
AcDbEntity
8
0
100
AcDbBlockBegin
2
DimnDraft3D3
70
0
10
0
20
0
30
0
3
DimnDraft3D3
0
MTEXT
5
17D
100
AcDbEntity
8
2
62
256
6
ByLayer
370
13
48
1
60
0
100
AcDbMText
10
28.436842
20
53.625
30
0
210
0
220
0
230
1
1
\W0.6740;60
40
4.5
41
0
44
1.084337
50
0
71
7
72
5
7
iso_b_vert
0
LINE
5
17E
100
AcDbEntity
8
2
62
256
6
ByLayer
370
13
48
1
60
0
100
AcDbLine
10
60
20
36.5875
30
0
11
60
21
55.675
31
0
39
0
210
0
220
0
230
1
0
LINE
5
17F
100
AcDbEntity
8
2
62
256
6
ByLayer
370
13
48
1
60
0
100
AcDbLine
10
0
20
26.5875
30
0
11
0
21
55.675
31
0
39
0
210
0
220
0
230
1
0
LINE
5
180
100
AcDbEntity
8
2
62
256
6
ByLayer
370
13
48
1
60
0
100
AcDbLine
10
60
20
52.5
30
0
11
0
21
52.5
31
0
39
0
210
0
220
0
230
1
0
LINE
5
181
100
AcDbEntity
8
2
62
256
6
ByLayer
370
13
48
1
60
0
100
AcDbLine
10
60
20
52.5
30
0
11
56.825003
21
51.649261
31
0
39
0
210
0
220
0
230
1
0
LINE
5
182
100
AcDbEntity
8
2
62
256
6
ByLayer
370
13
48
1
60
0
100
AcDbLine
10
60
20
52.5
30
0
11
56.824997
21
53.350739
31
0
39
0
210
0
220
0
230
1
0
LINE
5
183
100
AcDbEntity
8
2
62
256
6
ByLayer
370
13
48
1
60
0
100
AcDbLine
10
56.825003
20
51.649261
30
0
11
56.824997
21
53.350739
31
0
39
0
210
0
220
0
230
1
0
LINE
5
184
100
AcDbEntity
8
2
62
256
6
ByLayer
370
13
48
1
60
0
100
AcDbLine
10
0
20
52.5
30
0
11
3.174997
21
53.350739
31
0
39
0
210
0
220
0
230
1
0
LINE
5
185
100
AcDbEntity
8
2
62
256
6
ByLayer
370
13
48
1
60
0
100
AcDbLine
10
0
20
52.5
30
0
11
3.175003
21
51.649261
31
0
39
0
210
0
220
0
230
1
0
LINE
5
186
100
AcDbEntity
8
2
62
256
6
ByLayer
370
13
48
1
60
0
100
AcDbLine
10
3.174997
20
53.350739
30
0
11
3.175003
21
51.649261
31
0
39
0
210
0
220
0
230
1
0
ENDBLK
5
188
100
AcDbEntity
8
0
100
AcDbBlockEnd
0
BLOCK
5
194
100
AcDbEntity
8
0
100
AcDbBlockBegin
2
DimnDraft3D4
70
0
10
0
20
0
30
0
3
DimnDraft3D4
0
MTEXT
5
18B
100
AcDbEntity
8
2
62
256
6
ByLayer
370
13
48
1
60
0
100
AcDbMText
10
46.338658
20
40.210427
30
0
210
0
220
0
230
1
1
\W0.8292;95%%d0'
40
4.5
41
0
44
1.084337
50
47.5000000000001
71
7
72
5
7
iso_b_vert
0
LINE
5
18C
100
AcDbEntity
8
2
62
256
6
ByLayer
370
13
48
1
60
0
100
AcDbLine
10
60
20
36.5875
30
0
11
60
21
50.677579
31
0
39
0
210
0
220
0
230
1
0
ARC
5
18D
100
AcDbEntity
8
2
62
256
6
ByLayer
370
13
48
1
60
0
100
AcDbCircle
39
0
10
60
20
35.108714
30
0
40
12.3938651100264
210
0
220
0
230
1
100
AcDbArc
50
90
51
185
0
LINE
5
18E
100
AcDbEntity
8
2
62
256
6
ByLayer
370
13
48
1
60
0
100
AcDbLine
10
60
20
47.502579
30
0
11
56.885595
21
46.451465
31
0
39
0
210
0
220
0
230
1
0
LINE
5
18F
100
AcDbEntity
8
2
62
256
6
ByLayer
370
13
48
1
60
0
100
AcDbLine
10
60
20
47.502579
30
0
11
56.777283
21
48.149491
31
0
39
0
210
0
220
0
230
1
0
LINE
5
190
100
AcDbEntity
8
2
62
256
6
ByLayer
370
13
48
1
60
0
100
AcDbLine
10
56.885595
20
46.451465
30
0
11
56.777283
21
48.149491
31
0
39
0
210
0
220
0
230
1
0
LINE
5
191
100
AcDbEntity
8
2
62
256
6
ByLayer
370
13
48
1
60
0
100
AcDbLine
10
47.653297
20
34.028518
30
0
11
46.727969
21
37.182583
31
0
39
0
210
0
220
0
230
1
0
LINE
5
192
100
AcDbEntity
8
2
62
256
6
ByLayer
370
13
48
1
60
0
100
AcDbLine
10
47.653297
20
34.028518
30
0
11
48.428973
21
37.222689
31
0
39
0
210
0
220
0
230
1
0
LINE
5
193
100
AcDbEntity
8
2
62
256
6
ByLayer
370
13
48
1
60
0
100
AcDbLine
10
46.727969
20
37.182583
30
0
11
48.428973
21
37.222689
31
0
39
0
210
0
220
0
230
1
0
ENDBLK
5
195
100
AcDbEntity
8
0
100
AcDbBlockEnd
0
ENDSEC
0
SECTION
2
ENTITIES
0
ARC
5
D4
100
AcDbEntity
8
1
62
256
6
ByLayer
370
18
48
1
60
0
100
AcDbCircle
39
0
10
12.965406
20
1.061158
30
0
40
4
210
0
220
0
230
1
100
AcDbArc
50
336.717804
51
348.141451
0
ARC
5
D5
100
AcDbEntity
8
SK1
62
256
6
ByLayer
370
18
48
1
60
0
100
AcDbCircle
39
0
10
0.6
20
-18.75
30
0
40
1.00000000000001
210
0
220
0
230
-1
100
AcDbArc
50
113.578178
51
126.869898
0
ARC
5
D6
100
AcDbEntity
8
SK1
62
256
6
ByLayer
370
18
48
1
60
0
100
AcDbCircle
39
0
10
0.6
20
18.75
30
0
40
1.00000000000001
210
0
220
0
230
-1
100
AcDbArc
50
233.130102
51
246.421822
0
ARC
5
D7
100
AcDbEntity
8
1
62
256
6
ByLayer
370
18
48
1
60
0
100
AcDbCircle
39
0
10
-20.186138
20
25.8
30
0
40
0.8
210
0
220
0
230
-1
100
AcDbArc
50
195
51
270
0
ARC
5
D8
100
AcDbEntity
8
1
62
256
6
ByLayer
370
18
48
1
60
0
100
AcDbCircle
39
0
10
-20.186138
20
-25.8
30
0
40
0.8
210
0
220
0
230
-1
100
AcDbArc
50
90
51
125.659088
0
ELLIPSE
5
D9
100
AcDbEntity
8
1
62
256
6
ByLayer
370
18
48
1
60
0
100
AcDbEllipse
10
42.37755
20
11.215133
30
0
11
2.56902083039035
21
-2.56902083039033
31
0
210
0
220
0
230
1
40
0.989133
41
0.294927802169942
42
0.698131700797724
0
ELLIPSE
5
DA
100
AcDbEntity
8
1
62
256
6
ByLayer
370
18
48
1
60
0
100
AcDbEllipse
10
43.352941
20
21.296253
30
0
11
-2.54558441227158
21
2.54558441227156
31
0
210
0
220
0
230
1
40
0.989133
41
0.69813170079773
42
0.987818694794844
0
ELLIPSE
5
DB
100
AcDbEntity
8
1
62
256
6
ByLayer
370
18
48
1
60
0
100
AcDbEllipse
10
18.237443
20
0
30
0
11
-1.53075794227798E-15
21
25.0000000000001
31
0
210
0
220
0
230
-1
40
0.087489
41
-2.78822953818749
42
-0.353363115402323
0
ELLIPSE
5
DC
100
AcDbEntity
8
1
62
256
6
ByLayer
370
18
48
1
60
0
100
AcDbEllipse
10
46.507709
20
14.262136
30
0
11
0.0138248253321602
21
0.151738984039694
31
0
210
0
220
0
230
-1
40
0.08174
41
3.02056666818058
42
-1.68018678385385
0
ELLIPSE
5
DD
100
AcDbEntity
8
1
62
256
6
ByLayer
370
18
48
1
60
0
100
AcDbEllipse
10
21.056258
20
0
30
0
11
11.7092723497268
21
24.6771864409369
31
0
210
0
220
0
230
-1
40
0.341999
41
-2.97437958168081
42
-2.0597599531005
0
ELLIPSE
5
DE
100
AcDbEntity
8
1
62
256
6
ByLayer
370
18
48
1
60
0
100
AcDbEllipse
10
17.078947
20
2.167588
30
0
11
0.0223533399803615
21
5.69994510067859
31
0
210
0
220
0
230
-1
40
0.085306
41
2.12534494944385
42
-3.07766853435384
0
ELLIPSE
5
DF
100
AcDbEntity
8
1
62
256
6
ByLayer
370
18
48
1
60
0
100
AcDbEllipse
10
45.830064
20
10.894171
30
0
11
0.149497441244717
21
-0.0122684579830774
31
0
210
0
220
0
230
1
40
0.112627
41
-1.66605064319158
42
-0.0836182062737215
0
ELLIPSE
5
E0
100
AcDbEntity
8
1
62
256
6
ByLayer
370
18
48
1
60
0
100
AcDbEllipse
10
-1.056258
20
0
30
0
11
11.7092723497265
21
-24.6771864409364
31
0
210
0
220
0
230
-1
40
0.341999
41
-1.08183270048931
42
-0.167213071908985
0
ELLIPSE
5
E1
100
AcDbEntity
8
1
62
256
6
ByLayer
370
18
48
1
60
0
100
AcDbEllipse
10
-1.056258
20
0
30
0
11
11.7092723497284
21
24.6771864409388
31
0
210
0
220
0
230
-1
40
0.341999
41
0.167213071908972
42
1.08183270048923
0
ELLIPSE
5
E2
100
AcDbEntity
8
1
62
256
6
ByLayer
370
18
48
1
60
0
100
AcDbEllipse
10
42.361775
20
11.199358
30
0
11
-2.4629619937508
21
2.46296199375078
31
0
210
0
220
0
230
1
40
0.989133
41
-2.93202769941748
42
-2.44346095279207
0
ELLIPSE
5
E3
100
AcDbEntity
8
1
62
256
6
ByLayer
370
18
48
1
60
0
100
AcDbEllipse
10
46.699516
20
0
30
0
11
24.8596763747015
21
25.149995371687
31
0
210
0
220
0
230
-1
40
0.000614
41
2.94084539117684
42
3.14098627480004
0
ELLIPSE
5
E4
100
AcDbEntity
8
1
62
256
6
ByLayer
370
18
48
1
60
0
100
AcDbEllipse
10
17.078947
20
2.167588
30
0
11
0.0223533399804652
21
5.69994510067598
31
0
210
0
220
0
230
-1
40
0.085306
41
-2.10129995032821
42
0.924368346378365
0
ELLIPSE
5
E5
100
AcDbEntity
8
1
62
256
6
ByLayer
370
18
48
1
60
0
100
AcDbEllipse
10
43.647923
20
24.890768
30
0
11
-2.54558441227158
21
2.54558441227156
31
0
210
0
220
0
230
1
40
0.989133
41
0.408444706800607
42
0.698131700797727
0
ELLIPSE
5
E6
100
AcDbEntity
8
1
62
256
6
ByLayer
370
18
48
1
60
0
100
AcDbEllipse
10
32.701878
20
16.84361
30
0
11
3.18198051533948
21
-3.18198051533945
31
0
210
0
220
0
230
1
40
0.989133
41
0
42
6.28318530717959
0
ELLIPSE
5
E7
100
AcDbEntity
8
1
62
256
6
ByLayer
370
18
48
1
60
0
100
AcDbEllipse
10
22.647552
20
58.398603
30
0
11
0.422680526576837
21
-38.6853540521158
31
0
210
-9.71326836475928E-17
220
-3.61905302461371E-16
230
1
40
0.103392
41
-0.403629655043561
42
-0.105285673579038
0
ELLIPSE
5
E8
100
AcDbEntity
8
1
62
256
6
ByLayer
370
18
48
1
60
0
100
AcDbEllipse
10
21.056258
20
0
30
0
11
11.7092723497266
21
-24.6771864409366
31
0
210
0
220
0
230
-1
40
0.341999
41
2.05975995310049
42
2.97437958168081
0
ELLIPSE
5
E9
100
AcDbEntity
8
1
62
256
6
ByLayer
370
18
48
1
60
0
100
AcDbEllipse
10
42.599357
20
12.581233
30
0
11
2.41234144856471
21
-2.41234144856469
31
0
210
0
220
0
230
1
40
0.989133
41
-2.44346095279207
42
-1.07203324418763
0
ELLIPSE
5
EA
100
AcDbEntity
8
1
62
256
6
ByLayer
370
18
48
1
60
0
100
AcDbEllipse
10
43.463768
20
12.301351
30
0
11
2.48304899978685
21
-2.48304899978682
31
0
210
0
220
0
230
1
40
0.989133
41
-1.33430048967809
42
0.698131700797725
0
ELLIPSE
5
EB
100
AcDbEntity
8
1
62
256
6
ByLayer
370
18
48
1
60
0
100
AcDbEllipse
10
48.679615
20
24.609863
30
0
11
-2.8284271247462
21
2.82842712474618
31
0
210
0
220
0
230
1
40
0.989133
41
2.66010864285831
42
3.14157064018916
0
ELLIPSE
5
EC
100
AcDbEntity
8
1
62
256
6
ByLayer
370
18
48
1
60
0
100
AcDbEllipse
10
49.27496
20
23.344711
30
0
11
2.8284271247462
21
-2.82842712474618
31
0
210
0
220
0
230
1
40
0.989133
41
3.14156466750442
42
-2.89852811586654
0
ELLIPSE
5
ED
100
AcDbEntity
8
1
62
256
6
ByLayer
370
18
48
1
60
0
100
AcDbEllipse
10
49.104326
20
23.935035
30
0
11
-2.65165042944956
21
2.65165042944954
31
0
210
0
220
0
230
1
40
0.989133
41
1.11583147576044E-05
42
0.183809510220684
0
ELLIPSE
5
EE
100
AcDbEntity
8
1
62
256
6
ByLayer
370
18
48
1
60
0
100
AcDbEllipse
10
47.698559
20
22.698559
30
0
11
3.00520382004283
21
-3.00520382004281
31
0
210
0
220
0
230
1
40
0.989133
41
0.454985572890433
42
0.478252900460057
0
ELLIPSE
5
EF
100
AcDbEntity
8
1
62
256
6
ByLayer
370
18
48
1
60
0
100
AcDbEllipse
10
47.938191
20
22.938191
30
0
11
-2.94156420973605
21
2.94156420973603
31
0
210
0
220
0
230
1
40
0.989133
41
-2.74592813634483
42
-2.69842199145128
0
ELLIPSE
5
F0
100
AcDbEntity
8
1
62
256
6
ByLayer
370
18
48
1
60
0
100
AcDbEllipse
10
32.07907
20
16.220802
30
0
11
1.46371103705616
21
-1.46371103705615
31
0
210
0
220
0
230
1
40
0.989133
41
0.205543115919367
42
0.790861237020397
0
ELLIPSE
5
F1
100
AcDbEntity
8
1
62
256
6
ByLayer
370
18
48
1
60
0
100
AcDbEllipse
10
32.07907
20
16.220802
30
0
11
1.46371103705616
21
-1.46371103705615
31
0
210
0
220
0
230
1
40
0.989133
41
0.790861237020397
42
3.07224668117097
0
ELLIPSE
5
F2
100
AcDbEntity
8
1
62
256
6
ByLayer
370
18
48
1
60
0
100
AcDbEllipse
10
32.203824
20
16.345556
30
0
11
-1.46371103705616
21
1.46371103705615
31
0
210
0
220
0
230
1
40
0.989133
41
-0.12772457121892
42
7.63026852365915E-06
0
ELLIPSE
5
F3
100
AcDbEntity
8
1
62
256
6
ByLayer
370
18
48
1
60
0
100
AcDbEllipse
10
32.203824
20
16.345556
30
0
11
-1.46371103705616
21
1.46371103705615
31
0
210
0
220
0
230
1
40
0.989133
41
-2.97985855471557
42
-2.664802231972
0
ELLIPSE
5
F4
100
AcDbEntity
8
1
62
256
6
ByLayer
370
18
48
1
60
0
100
AcDbEllipse
10
40.018263
20
15.018263
30
0
11
0.841899011350237
21
-0.841899011350229
31
0
210
0
220
0
230
1
40
0.989133
41
-1.4274612464398
42
-0.698131700797723
0
ELLIPSE
5
F5
100
AcDbEntity
8
1
62
256
6
ByLayer
370
18
48
1
60
0
100
AcDbEllipse
10
16.385349
20
1.981029
30
0
11
0.476701332565739
21
-1.7723036810321
31
0
210
0
220
0
230
1
40
0.084186
41
0.164441546650768
42
1.44699798603381
0
ELLIPSE
5
F6
100
AcDbEntity
8
1
62
256
6
ByLayer
370
18
48
1
60
0
100
AcDbEllipse
10
16.719377
20
2.070874
30
0
11
0.450259565784295
21
-1.67399717882973
31
0
210
0
220
0
230
1
40
0.084186
41
0
42
2.12784028004087
0
ELLIPSE
5
F7
100
AcDbEntity
8
1
62
256
6
ByLayer
370
18
48
1
60
0
100
AcDbEllipse
10
17.163554
20
2.190345
30
0
11
-0.519482221385743
21
1.9313565754837
31
0
210
0
220
0
230
1
40
0.084186
41
3.09280198343597
42
-2.63754786930169E-15
0
ELLIPSE
5
F8
100
AcDbEntity
8
1
62
256
6
ByLayer
370
18
48
1
60
0
100
AcDbEllipse
10
19.955288
20
2.941246
30
0
11
0.519482221385742
21
-1.9313565754837
31
0
210
0
220
0
230
1
40
0.084186
41
0
42
3.14159216320591
0
ELLIPSE
5
F9
100
AcDbEntity
8
1
62
256
6
ByLayer
370
18
48
1
60
0
100
AcDbEllipse
10
20.147738
20
2.993009
30
0
11
-0.467533999247169
21
1.73822091793533
31
0
210
0
220
0
230
1
40
0.084186
41
-3.05706413675317
42
-0.0846243017047516
0
ELLIPSE
5
FA
100
AcDbEntity
8
1
62
256
6
ByLayer
370
18
48
1
60
0
100
AcDbEllipse
10
49.086967
20
24.086967
30
0
11
-2.80191062045171
21
2.80191062045168
31
0
210
0
220
0
230
1
40
0.989133
41
-3.01066211150631
42
-2.43123472941712
0
ELLIPSE
5
FB
100
AcDbEntity
8
1
62
256
6
ByLayer
370
18
48
1
60
0
100
AcDbEllipse
10
49.086967
20
24.086967
30
0
11
-2.80191062045171
21
2.80191062045168
31
0
210
0
220
0
230
1
40
0.989133
41
-0.983353246500555
42
-0.130999777423019
0
ELLIPSE
5
FC
100
AcDbEntity
8
1
62
256
6
ByLayer
370
18
48
1
60
0
100
AcDbEllipse
10
40.67842
20
15.67842
30
0
11
-0.841899011350236
21
0.84189901135023
31
0
210
0
220
0
230
1
40
0.989133
41
0.698131700797733
42
2.44346095279206
0
ELLIPSE
5
FD
100
AcDbEntity
8
1
62
256
6
ByLayer
370
18
48
1
60
0
100
AcDbEllipse
10
49.747123
20
24.747123
30
0
11
-2.80191062045171
21
2.80191062045168
31
0
210
0
220
0
230
1
40
0.989133
41
0
42
6.28318530717959
0
ELLIPSE
5
FE
100
AcDbEntity
8
1
62
256
6
ByLayer
370
18
48
1
60
0
100
AcDbEllipse
10
57.440271
20
17.053975
30
0
11
-0.841899011350236
21
0.84189901135023
31
0
210
0
220
0
230
1
40
0.989133
41
2.44346095279206
42
-2.44346095279207
0
ELLIPSE
5
FF
100
AcDbEntity
8
1
62
256
6
ByLayer
370
18
48
1
60
0
100
AcDbEllipse
10
58.815827
20
33.815827
30
0
11
-0.841899011350236
21
0.84189901135023
31
0
210
0
220
0
230
1
40
0.989133
41
-2.44346095279206
42
-0.698131700797744
0
ELLIPSE
5
100
100
AcDbEntity
8
1
62
256
6
ByLayer
370
18
48
1
60
0
100
AcDbEllipse
10
42.053975
20
32.440271
30
0
11
-0.841899011350236
21
0.84189901135023
31
0
210
0
220
0
230
1
40
0.989133
41
-0.698131700797722
42
0.698131700797731
0
ELLIPSE
5
101
100
AcDbEntity
8
1
62
256
6
ByLayer
370
18
48
1
60
0
100
AcDbEllipse
10
49.601057
20
24.601057
30
0
11
2.65165042944956
21
-2.65165042944954
31
0
210
0
220
0
230
1
40
0.989133
41
-2.19919488855997
42
-1.64052946582757
0
ELLIPSE
5
102
100
AcDbEntity
8
1
62
256
6
ByLayer
370
18
48
1
60
0
100
AcDbEllipse
10
49.898729
20
23.968481
30
0
11
2.8284271247462
21
-2.82842712474618
31
0
210
0
220
0
230
1
40
0.989133
41
1.67008373650304
42
-2.36821543730073
0
ELLIPSE
5
103
100
AcDbEntity
8
1
62
256
6
ByLayer
370
18
48
1
60
0
100
AcDbEllipse
10
49.303385
20
25.233633
30
0
11
2.8284271247462
21
-2.82842712474618
31
0
210
0
220
0
230
1
40
0.989133
41
-1.47150891708681
42
0.773377216289021
0
ELLIPSE
5
104
100
AcDbEntity
8
1
62
256
6
ByLayer
370
18
48
1
60
0
100
AcDbEllipse
10
49.355365
20
25.285614
30
0
11
-2.47487373415292
21
2.4748737341529
31
0
210
0
220
0
230
1
40
0.989133
41
1.68222118604285
42
-2.38035288684064
0
ELLIPSE
5
105
100
AcDbEntity
8
1
62
256
6
ByLayer
370
18
48
1
60
0
100
AcDbEllipse
10
49.601057
20
24.601057
30
0
11
2.65165042944956
21
-2.65165042944954
31
0
210
0
220
0
230
1
40
0.989133
41
0.942397765029772
42
1.50106318776227
0
ELLIPSE
5
106
100
AcDbEntity
8
1
62
256
6
ByLayer
370
18
48
1
60
0
100
AcDbEllipse
10
49.653038
20
24.653038
30
0
11
-2.29809703885629
21
2.29809703885627
31
0
210
0
220
0
230
1
40
0.989133
41
0.955406484170389
42
1.48805446862165
0
ELLIPSE
5
107
100
AcDbEntity
8
1
62
256
6
ByLayer
370
18
48
1
60
0
100
AcDbEllipse
10
49.653038
20
24.653038
30
0
11
-2.29809703885628
21
2.29809703885627
31
0
210
0
220
0
230
1
40
0.989133
41
-2.18618616941945
42
-1.65353818496808
0
ELLIPSE
5
108
100
AcDbEntity
8
1
62
256
6
ByLayer
370
18
48
1
60
0
100
AcDbEllipse
10
49.95071
20
24.020462
30
0
11
-2.47487373415293
21
2.47487373415291
31
0
210
0
220
0
230
1
40
0.989133
41
-1.45937146754689
42
0.761239766749191
0
ELLIPSE
5
109
100
AcDbEntity
8
1
62
256
6
ByLayer
370
18
48
1
60
0
100
AcDbEllipse
10
32.670092
20
16.811824
30
0
11
-1.46371103705616
21
1.46371103705615
31
0
210
0
220
0
230
1
40
0.989133
41
-1.61760468077542
42
-1.17492212241552
0
ELLIPSE
5
10A
100
AcDbEntity
8
1
62
256
6
ByLayer
370
18
48
1
60
0
100
AcDbEllipse
10
32.670092
20
16.811824
30
0
11
-1.46371103705616
21
1.46371103705615
31
0
210
0
220
0
230
1
40
0.989133
41
-0.570407129578836
42
-0.127724571218915
0
ELLIPSE
5
10B
100
AcDbEntity
8
1
62
256
6
ByLayer
370
18
48
1
60
0
100
AcDbEllipse
10
32.670092
20
16.811824
30
0
11
-1.46371103705616
21
1.46371103705615
31
0
210
0
220
0
230
1
40
0.989133
41
1.52398797281437
42
1.96667053117427
0
ELLIPSE
5
10C
100
AcDbEntity
8
1
62
256
6
ByLayer
370
18
48
1
60
0
100
AcDbEllipse
10
32.692444
20
16.834176
30
0
11
2.99459721832504
21
-2.99459721832502
31
0
210
0
220
0
230
1
40
0.989133
41
0
42
6.28318530717959
0
ELLIPSE
5
10D
100
AcDbEntity
8
1
62
256
6
ByLayer
370
18
48
1
60
0
100
AcDbEllipse
10
32.670092
20
16.811824
30
0
11
-1.46371103705616
21
1.46371103705615
31
0
210
0
220
0
230
1
40
0.989133
41
-2.66480223197201
42
-2.22211967361213
0
ELLIPSE
5
10E
100
AcDbEntity
8
1
62
256
6
ByLayer
370
18
48
1
60
0
100
AcDbEllipse
10
32.692444
20
16.834176
30
0
11
1.72703118440535
21
-1.72703118440534
31
0
210
0
220
0
230
1
40
0.989133
41
0
42
6.28318530717959
0
ELLIPSE
5
10F
100
AcDbEntity
8
1
62
256
6
ByLayer
370
18
48
1
60
0
100
AcDbEllipse
10
32.670092
20
16.811824
30
0
11
-1.46371103705616
21
1.46371103705615
31
0
210
0
220
0
230
1
40
0.989133
41
2.57118552401097
42
3.01386808237086
0
ELLIPSE
5
110
100
AcDbEntity
8
1
62
256
6
ByLayer
370
18
48
1
60
0
100
AcDbEllipse
10
32.203824
20
16.345556
30
0
11
-1.46371103705616
21
1.46371103705615
31
0
210
0
220
0
230
1
40
0.989133
41
-2.22211967361212
42
-1.61760468077542
0
ELLIPSE
5
111
100
AcDbEntity
8
1
62
256
6
ByLayer
370
18
48
1
60
0
100
AcDbEllipse
10
32.670092
20
16.811824
30
0
11
-1.46371103705616
21
1.46371103705615
31
0
210
0
220
0
230
1
40
0.989133
41
0.476790421617776
42
0.919472979977675
0
ELLIPSE
5
112
100
AcDbEntity
8
1
62
256
6
ByLayer
370
18
48
1
60
0
100
AcDbEllipse
10
32.203824
20
16.345556
30
0
11
-1.46371103705616
21
1.46371103705615
31
0
210
0
220
0
230
1
40
0.989133
41
-1.17492212241552
42
-0.570407129578836
0
POINT
5
6C
100
AcDbEntity
8
80
62
256
6
ByLayer
370
18
48
1
60
0
100
AcDbPoint
10
0
20
0
30
0
39
0
210
0
220
0
230
1
50
360
0
POINT
5
6E
100
AcDbEntity
8
81
62
256
6
ByLayer
370
18
48
1
60
0
100
AcDbPoint
10
60
20
35
30
0
39
0
210
0
220
0
230
1
50
360
0
POINT
5
70
100
AcDbEntity
8
1
62
256
6
ByLayer
370
18
48
1
60
0
100
AcDbPoint
10
0
20
0
30
0
39
0
210
0
220
0
230
1
50
360
0
SPLINE
5
113
100
AcDbEntity
8
1
62
256
6
ByLayer
370
18
48
1
60
0
100
AcDbSpline
70
4
71
3
72
8
73
4
40
0
40
0
40
0
40
0
40
1
40
1
40
1
40
1
41
1
10
46.3754631069777
20
26.0862699205405
30
0
41
1
10
46.4011824949923
20
26.1173667299291
30
0
41
1
10
46.4274875031953
20
26.1478281887176
30
0
41
1
10
46.4545456984734
20
26.1775415407971
30
0
0
SPLINE
5
114
100
AcDbEntity
8
1
62
256
6
ByLayer
370
18
48
1
60
0
100
AcDbSpline
70
4
71
3
72
10
73
6
40
0
40
0
40
0
40
0
40
0.0718731223585345
40
0.507349420419917
40
1
40
1
40
1
40
1
41
1
10
16.91529120584
20
0.310638245694292
30
0
41
1
10
16.9169138229707
20
0.313787171516651
30
0
41
1
10
16.9299864309611
20
0.335709603891189
30
0
41
1
10
16.995438263088
20
0.389006529396113
30
0
41
1
10
17.0604691564766
20
0.402883780908923
30
0
41
1
10
17.1018718839039
20
0.404965947344152
30
0
0
SPLINE
5
115
100
AcDbEntity
8
SK1
62
256
6
ByLayer
370
18
48
1
60
0
100
AcDbSpline
70
4
71
3
72
13
73
9
40
0
40
0
40
0
40
0
40
0.239456135732738
40
0.368359721896257
40
0.49999898398504
40
0.631638415255913
40
0.760542467762283
40
1
40
1
40
1
40
1
41
1
10
-2.19999999999999
20
-17.520098551796
30
0
41
1
10
-2.19909198642199
20
-17.4940410756899
30
0
41
1
10
-2.19103284106865
20
-17.4566684913668
30
0
41
1
10
-2.16563592203269
20
-17.410449317548
30
0
41
1
10
-2.13886378679189
20
-17.3791677636995
30
0
41
1
10
-2.10627712749815
20
-17.3540003935064
30
0
41
1
10
-2.05884064234175
20
-17.3309565910455
30
0
41
1
10
-2.02111030873064
20
-17.3247843360228
30
0
41
1
10
-1.99503997793928
20
-17.3251859759625
30
0
0
SPLINE
5
116
100
AcDbEntity
8
SK1
62
256
6
ByLayer
370
18
48
1
60
0
100
AcDbSpline
70
4
71
3
72
13
73
9
40
0
40
0
40
0
40
0
40
0.239457532283128
40
0.368361584805076
40
0.500001016081923
40
0.631640278165568
40
0.760543864313967
40
1
40
1
40
1
40
1
41
1
10
-1.99503997793931
20
17.3251861589552
30
0
41
1
10
-2.02111030872967
20
17.324784519015
30
0
41
1
10
-2.0588406423399
20
17.3309567740351
30
0
41
1
10
-2.10627712749678
20
17.3540005764862
30
0
41
1
10
-2.13886378679061
20
17.3791679466685
30
0
41
1
10
-2.16563592203173
20
17.4104495005039
30
0
41
1
10
-2.19103284106794
20
17.4566686743028
30
0
41
1
10
-2.19909198642128
20
17.4940412586115
30
0
41
1
10
-2.19999999999999
20
17.5200987347078
30
0
0
SPLINE
5
117
100
AcDbEntity
8
SK1
62
256
6
ByLayer
370
18
48
1
60
0
100
AcDbSpline
70
4
71
2
72
6
73
3
40
0
40
0
40
0
40
1
40
1
40
1
41
1
10
-28.5
20
-16.8542724489282
30
0
41
1
10
-15.3499999999286
20
-17.1845422635703
30
0
41
1
10
-2.19999999999999
20
-17.5148116792767
30
0
0
SPLINE
5
118
100
AcDbEntity
8
SK1
62
256
6
ByLayer
370
18
48
1
60
0
100
AcDbSpline
70
4
71
2
72
6
73
3
40
0
40
0
40
0
40
1
40
1
40
1
41
1
10
-2.19999999999999
20
17.5148117187522
30
0
41
1
10
-15.3499999999294
20
17.1845422725478
30
0
41
1
10
-28.5
20
16.854272429841
30
0
0
SPLINE
5
119
100
AcDbEntity
8
SK1
62
256
6
ByLayer
370
18
48
1
60
0
100
AcDbSpline
70
4
71
2
72
6
73
3
40
0
40
0
40
0
40
1
40
1
40
1
41
1
10
-1.99503997793928
20
-17.3199593099743
30
0
41
1
10
-1.19500843340703
20
-17.340052552406
30
0
41
1
10
-0.394976888875277
20
-17.3601457933935
30
0
0
SPLINE
5
11A
100
AcDbEntity
8
SK1
62
256
6
ByLayer
370
18
48
1
60
0
100
AcDbSpline
70
4
71
2
72
6
73
3
40
0
40
0
40
0
40
1
40
1
40
1
41
1
10
-0.394976888875306
20
17.3601458189993
30
0
41
1
10
-1.19500843340705
20
17.3400525762132
30
0
41
1
10
-1.99503997793931
20
17.3199593319919
30
0
0
SPLINE
5
11B
100
AcDbEntity
8
SK1
62
256
6
ByLayer
370
18
48
1
60
0
100
AcDbSpline
70
4
71
2
72
6
73
3
40
0
40
0
40
0
40
1
40
1
40
1
41
1
10
-30
20
-15.9924794145163
30
0
41
1
10
-29.2499999991495
20
-16.4254650261934
30
0
41
1
10
-28.5
20
-16.8584504491481
30
0
0
SPLINE
5
11C
100
AcDbEntity
8
SK1
62
256
6
ByLayer
370
18
48
1
60
0
100
AcDbSpline
70
4
71
2
72
6
73
3
40
0
40
0
40
0
40
1
40
1
40
1
41
1
10
-28.5
20
16.8584505716142
30
0
41
1
10
-29.2499999991495
20
16.4254651505507
30
0
41
1
10
-30
20
15.99247954079
30
0
0
SPLINE
5
11D
100
AcDbEntity
8
SK1
62
256
6
ByLayer
370
18
48
1
60
0
100
AcDbSpline
70
4
71
2
72
6
73
3
40
0
40
0
40
0
40
1
40
1
40
1
41
1
10
-0.394976888875277
20
-17.359696795897
30
0
41
1
10
-0.305277226309727
20
-17.3671842624703
30
0
41
1
10
-0.258658740615658
20
-17.4310145299902
30
0
0
SPLINE
5
11E
100
AcDbEntity
8
SK1
62
256
6
ByLayer
370
18
48
1
60
0
100
AcDbSpline
70
4
71
2
72
6
73
3
40
0
40
0
40
0
40
1
40
1
40
1
41
1
10
-0.258442643302431
20
17.4312381196178
30
0
41
1
10
-0.305123774552612
20
17.3672404580573
30
0
41
1
10
-0.394976888875306
20
17.3596982935394
30
0
0
SPLINE
5
11F
100
AcDbEntity
8
1
62
256
6
ByLayer
370
18
48
1
60
0
100
AcDbSpline
70
4
71
3
72
16
73
12
40
0
40
0
40
0
40
0
40
0.250000000000002
40
0.250000000000002
40
0.500000000000004
40
0.500000000000004
40
0.750000000000006
40
0.750000000000006
40
0.875000000000003
40
0.875000000000003
40
1
40
1
40
1
40
1
41
1
10
8.10566243270259
20
8.05584836782774
30
0
41
1
10
8.12110769698498
20
7.9984916943491
30
0
41
1
10
8.1395962827354
20
7.94218253951254
30
0
41
1
10
8.18485781079312
20
7.83248598676806
30
0
41
1
10
8.21171210490061
20
7.77870179643028
30
0
41
1
10
8.27812666032528
20
7.67767014498892
30
0
41
1
10
8.31777781748545
20
7.63015704912695
30
0
41
1
10
8.39058907041826
20
7.57464889660892
30
0
41
1
10
8.41770072232734
20
7.55854989603586
30
0
41
1
10
8.47563983861079
20
7.53610198950841
30
0
41
1
10
8.50697323176115
20
7.52966679426473
30
0
41
1
10
8.53867513459471
20
7.52966679426473
30
0
0
SPLINE
5
120
100
AcDbEntity
8
1
62
256
6
ByLayer
370
18
48
1
60
0
100
AcDbSpline
70
4
71
3
72
16
73
12
40
0
40
0
40
0
40
0
40
0.25
40
0.25
40
0.5
40
0.5
40
0.75
40
0.75
40
0.875
40
0.875
40
1
40
1
40
1
40
1
41
1
10
8.10566243270259
20
-23.6665017920809
30
0
41
1
10
8.12110769698501
20
-23.6860254491252
30
0
41
1
10
8.1395962827354
20
-23.7049589195931
30
0
41
1
10
8.18485781079315
20
-23.7414301198899
30
0
41
1
10
8.21171210490061
20
-23.7590955179201
30
0
41
1
10
8.27812666032528
20
-23.7919356634172
30
0
41
1
10
8.31777781748545
20
-23.8071882416308
30
0
41
1
10
8.39058907041826
20
-23.8248834464053
30
0
41
1
10
8.41770072232734
20
-23.8299908115613
30
0
41
1
10
8.47563983861082
20
-23.8370993498304
30
0
41
1
10
8.50697323176118
20
-23.8391299750505
30
0
41
1
10
8.53867513459474
20
-23.8391299750505
30
0
0
SPLINE
5
121
100
AcDbEntity
8
1
62
256
6
ByLayer
370
18
48
1
60
0
100
AcDbSpline
70
4
71
3
72
24
73
20
40
0
40
0
40
0
40
0
40
0.249999999999999
40
0.249999999999999
40
0.312499999999999
40
0.312499999999999
40
0.374999999999999
40
0.374999999999999
40
0.499999999999998
40
0.499999999999998
40
0.624999999999998
40
0.624999999999998
40
0.749999999999998
40
0.749999999999998
40
0.812499999999998
40
0.812499999999998
40
0.874999999999999
40
0.874999999999999
40
1
40
1
40
1
40
1
41
1
10
20.1861384096169
20
-24.4510802622659
30
0
41
1
10
19.8083596497377
20
-24.4239106964679
30
0
41
1
10
19.4597227013266
20
-24.3848307391632
30
0
41
1
10
19.0593989732772
20
-24.3172648356309
30
0
41
1
10
18.9809180732328
20
-24.3027371546806
30
0
41
1
10
18.8300805681711
20
-24.2720841956442
30
0
41
1
10
18.7574473683759
20
-24.2559202683118
30
0
41
1
10
18.5476863234894
20
-24.2047899324295
30
0
41
1
10
18.4186582860757
20
-24.1671979347443
30
0
41
1
10
18.1820657735841
20
-24.0840337349168
30
0
41
1
10
18.0740794567935
20
-24.0381197949998
30
0
41
1
10
17.8859186535685
20
-23.9401058549198
30
0
41
1
10
17.8048552046705
20
-23.8877840533452
30
0
41
1
10
17.7021209083793
20
-23.8039026671751
30
0
41
1
10
17.6710311167712
20
-23.7750409156337
30
0
41
1
10
17.6151844549163
20
-23.7154234189869
30
0
41
1
10
17.5903867790171
20
-23.6845870971686
30
0
41
1
10
17.5262577470872
20
-23.5900777840899
30
0
41
1
10
17.4968783275267
20
-23.5242109903549
30
0
41
1
10
17.4805459037027
20
-23.455354942996
30
0
0
SPLINE
5
122
100
AcDbEntity
8
1
62
256
6
ByLayer
370
18
48
1
60
0
100
AcDbSpline
70
4
71
3
72
16
73
12
40
0
40
0
40
0
40
0
40
0.25
40
0.25
40
0.499999999999999
40
0.499999999999999
40
0.749999999999998
40
0.749999999999998
40
0.874999999999999
40
0.874999999999999
40
1
40
1
40
1
40
1
41
1
10
11.8943375672974
20
-8.05584836782774
30
0
41
1
10
11.878892303015
20
-7.9984916943491
30
0
41
1
10
11.8604037172646
20
-7.94218253951254
30
0
41
1
10
11.8151421892069
20
-7.83248598676804
30
0
41
1
10
11.7882878950994
20
-7.77870179643025
30
0
41
1
10
11.7218733396747
20
-7.67767014498889
30
0
41
1
10
11.6822221825145
20
-7.63015704912692
30
0
41
1
10
11.6094109295817
20
-7.57464889660889
30
0
41
1
10
11.5822992776726
20
-7.5585498960358
30
0
41
1
10
11.5243601613892
20
-7.53610198950838
30
0
41
1
10
11.4930267682388
20
-7.52966679426473
30
0
41
1
10
11.4613248654052
20
-7.5296667942647
30
0
0
SPLINE
5
123
100
AcDbEntity
8
1
62
256
6
ByLayer
370
18
48
1
60
0
100
AcDbSpline
70
4
71
3
72
16
73
12
40
0
40
0
40
0
40
0
40
0.124999999999999
40
0.124999999999999
40
0.249999999999998
40
0.249999999999998
40
0.499999999999999
40
0.499999999999999
40
0.749999999999999
40
0.749999999999999
40
1
40
1
40
1
40
1
41
1
10
8.5386751345948
20
23.8391299750503
30
0
41
1
10
8.50692224136537
20
23.8391299750503
30
0
41
1
10
8.47600932946901
20
23.8371392949586
30
0
41
1
10
8.41759599948895
20
23.8299833264009
30
0
41
1
10
8.39103491659969
20
23.824989671385
30
0
41
1
10
8.31704385770789
20
23.8070141183761
30
0
41
1
10
8.27807345100129
20
23.7919105160783
30
0
41
1
10
8.21173961735187
20
23.7591079584198
30
0
41
1
10
8.18512193927674
20
23.7416171457992
30
0
41
1
10
8.13975567725328
20
23.7051129235882
30
0
41
1
10
8.12111376292617
20
23.6860331168061
30
0
41
1
10
8.10566243270242
20
23.6665017920809
30
0
0
SPLINE
5
124
100
AcDbEntity
8
1
62
256
6
ByLayer
370
18
48
1
60
0
100
AcDbSpline
70
4
71
3
72
16
73
12
40
0
40
0
40
0
40
0
40
0.125000000000003
40
0.125000000000003
40
0.250000000000006
40
0.250000000000006
40
0.500000000000004
40
0.500000000000004
40
0.750000000000002
40
0.750000000000002
40
1
40
1
40
1
40
1
41
1
10
11.4613248654052
20
7.52966679426501
30
0
41
1
10
11.4930777586346
20
7.52966679426504
30
0
41
1
10
11.523990670531
20
7.53597576299646
30
0
41
1
10
11.582404000511
20
7.55857361750103
30
0
41
1
10
11.6089650834003
20
7.57431556968109
30
0
41
1
10
11.6829561422921
20
7.63070347545337
30
0
41
1
10
11.7219265489987
20
7.6777476510423
30
0
41
1
10
11.7882603826481
20
7.77866338250453
30
0
41
1
10
11.8148780607233
20
7.83191947486046
30
0
41
1
10
11.8602443227467
20
7.94172327888185
30
0
41
1
10
11.8788862370738
20
7.99846916820707
30
0
41
1
10
11.8943375672975
20
8.05584836782771
30
0
0
SPLINE
5
125
100
AcDbEntity
8
1
62
256
6
ByLayer
370
18
48
1
60
0
100
AcDbSpline
70
4
71
3
72
8
73
4
40
0
40
0
40
0
40
0
40
1
40
1
40
1
40
1
41
1
10
20.9294672520273
20
25.002108248777
30
0
41
1
10
20.940907910884
20
25.0335525239553
30
0
41
1
10
20.9507411699506
20
25.0655979929836
30
0
41
1
10
20.9588790706481
20
25.0982617968935
30
0
0
SPLINE
5
126
100
AcDbEntity
8
1
62
256
6
ByLayer
370
18
48
1
60
0
100
AcDbSpline
70
4
71
3
72
26
73
22
40
0
40
0
40
0
40
0
40
0.249999999999999
40
0.249999999999999
40
0.312499999999998
40
0.312499999999998
40
0.374999999999998
40
0.374999999999998
40
0.499999999999998
40
0.499999999999998
40
0.562499999999999
40
0.562499999999999
40
0.625
40
0.625
40
0.750000000000001
40
0.750000000000001
40
0.875000000000001
40
0.875000000000001
40
0.937500000000001
40
0.937500000000001
40
1
40
1
40
1
40
1
41
1
10
17.4805459037027
20
23.455354942996
30
0
41
1
10
17.5132295526956
20
23.5931463025129
30
0
41
1
10
17.5970786091206
20
23.7175139616736
30
0
41
1
10
17.7683571849975
20
23.8581331832177
30
0
41
1
10
17.8061327689969
20
23.8855976649295
30
0
41
1
10
17.8880998732676
20
23.9386462476626
30
0
41
1
10
17.9320793753886
20
23.9641154346714
30
0
41
1
10
18.0728781088746
20
24.0375644506611
30
0
41
1
10
18.178515577037
20
24.0825952055134
30
0
41
1
10
18.3548812225316
20
24.1448699874539
30
0
41
1
10
18.4166649854797
20
24.1647472130422
30
0
41
1
10
18.5463993679395
20
24.2028166709778
30
0
41
1
10
18.6146716622534
20
24.2210823936194
30
0
41
1
10
18.8261729518653
20
24.2727418526901
30
0
41
1
10
18.9760625673713
20
24.3030971348791
30
0
41
1
10
19.2932394712737
20
24.3568312835794
30
0
41
1
10
19.4605239317902
20
24.3802077652505
30
0
41
1
10
19.7250448630543
20
24.4105308324638
30
0
41
1
10
19.8154109028431
20
24.4198272939052
30
0
41
1
10
19.9985632170118
20
24.4366871634302
30
0
41
1
10
20.0916099109014
20
24.4442818433541
30
0
41
1
10
20.1861384096169
20
24.4510802622659
30
0
0
SPLINE
5
127
100
AcDbEntity
8
1
62
256
6
ByLayer
370
18
48
1
60
0
100
AcDbSpline
70
4
71
3
72
16
73
12
40
0
40
0
40
0
40
0
40
0.124999999999999
40
0.124999999999999
40
0.249999999999999
40
0.249999999999999
40
0.499999999999997
40
0.499999999999997
40
0.749999999999999
40
0.749999999999999
40
1
40
1
40
1
40
1
41
1
10
8.5386751345948
20
-7.52966679426501
30
0
41
1
10
8.50692224136537
20
-7.52966679426504
30
0
41
1
10
8.47600932946895
20
-7.53597576299643
30
0
41
1
10
8.4175959994889
20
-7.55857361750103
30
0
41
1
10
8.39103491659966
20
-7.57431556968106
30
0
41
1
10
8.31704385770786
20
-7.63070347545337
30
0
41
1
10
8.27807345100126
20
-7.6777476510423
30
0
41
1
10
8.21173961735184
20
-7.77866338250453
30
0
41
1
10
8.18512193927671
20
-7.83191947486046
30
0
41
1
10
8.13975567725325
20
-7.94172327888188
30
0
41
1
10
8.12111376292617
20
-7.99846916820704
30
0
41
1
10
8.10566243270242
20
-8.05584836782771
30
0
0
SPLINE
5
128
100
AcDbEntity
8
1
62
256
6
ByLayer
370
18
48
1
60
0
100
AcDbSpline
70
4
71
3
72
12
73
8
40
0
40
0
40
0
40
0
40
0.249999999999995
40
0.249999999999995
40
0.499999999999991
40
0.499999999999991
40
1
40
1
40
1
40
1
41
1
10
20.6525073622712
20
-24.6308950197635
30
0
41
1
10
20.6186618319598
20
-24.6046497033122
30
0
41
1
10
20.5825134228985
20
-24.580671469157
30
0
41
1
10
20.5080900547927
20
-24.5388207867296
30
0
41
1
10
20.4698301209602
20
-24.5208752879922
30
0
41
1
10
20.3521088165763
20
-24.4756687319036
30
0
41
1
10
20.2691220801842
20
-24.45704838577
30
0
41
1
10
20.1861384096171
20
-24.451080262262
30
0
0
SPLINE
5
129
100
AcDbEntity
8
1
62
256
6
ByLayer
370
18
48
1
60
0
100
AcDbSpline
70
4
71
3
72
8
73
4
40
0
40
0
40
0
40
0
40
1
40
1
40
1
40
1
41
1
10
22.3474011044501
20
30.7747493014442
30
0
41
1
10
22.3807663454037
20
30.9004523147576
30
0
41
1
10
22.4362889708862
20
31.0284488465876
30
0
41
1
10
22.513147879842
20
31.1586539044806
30
0
0
SPLINE
5
12A
100
AcDbEntity
8
1
62
256
6
ByLayer
370
18
48
1
60
0
100
AcDbSpline
70
4
71
3
72
8
73
4
40
0
40
0
40
0
40
0
40
1
40
1
40
1
40
1
41
1
10
21.4653246960697
20
-24.6479715189709
30
0
41
1
10
21.189543039524
20
-24.6479715189709
30
0
41
1
10
20.9186699281065
20
-24.642295299793
30
0
41
1
10
20.6525073622713
20
-24.6308950197635
30
0
0
SPLINE
5
12B
100
AcDbEntity
8
1
62
256
6
ByLayer
370
18
48
1
60
0
100
AcDbSpline
70
4
71
3
72
18
73
14
40
0
40
0
40
0
40
0
40
0.125000000000006
40
0.125000000000006
40
0.250000000000011
40
0.250000000000011
40
0.50000000000001
40
0.50000000000001
40
0.625000000000005
40
0.625000000000005
40
0.750000000000001
40
0.750000000000001
40
1
40
1
40
1
40
1
41
1
10
20.1861384096177
20
24.4510802622659
30
0
41
1
10
20.2252216812727
20
24.4538911019256
30
0
41
1
10
20.2647933113308
20
24.4595458822836
30
0
41
1
10
20.3427592162664
20
24.4763942267621
30
0
41
1
10
20.3810095962609
20
24.4875061731794
30
0
41
1
10
20.4935297420061
20
24.5288060570622
30
0
41
1
10
20.5666195678851
20
24.5677287047167
30
0
41
1
10
20.6652036624364
20
24.6397146362311
30
0
41
1
10
20.6963765644303
20
24.6659776241801
30
0
41
1
10
20.755215531568
20
24.7231375403973
30
0
41
1
10
20.7830675822131
20
24.7543145447223
30
0
41
1
10
20.8587011726199
20
24.8523686836597
30
0
41
1
10
20.8994114336086
20
24.9242287242674
30
0
41
1
10
20.9294672520273
20
25.002108248777
30
0
0
SPLINE
5
12C
100
AcDbEntity
8
1
62
256
6
ByLayer
370
18
48
1
60
0
100
AcDbSpline
70
4
71
3
72
10
73
6
40
0
40
0
40
0
40
0
40
0.5
40
0.5
40
1
40
1
40
1
40
1
41
1
10
22.513147879842
20
31.1586539044806
30
0
41
1
10
22.247491541875
20
30.1430686237666
30
0
41
1
10
21.9843174700621
20
29.1302682202991
30
0
41
1
10
21.4651668583111
20
27.1101125774934
30
0
41
1
10
21.2091395548025
20
26.1027541942173
30
0
41
1
10
20.9588790706481
20
25.0982617968935
30
0
0
SPLINE
5
12D
100
AcDbEntity
8
1
62
256
6
ByLayer
370
18
48
1
60
0
100
AcDbSpline
70
4
71
3
72
10
73
6
40
0
40
0
40
0
40
0
40
0.619192052005933
40
0.619192052005933
40
1
40
1
40
1
40
1
41
1
10
17.4805459037027
20
5.59936495393336
30
0
41
1
10
17.494830952955
20
5.36298797916518
30
0
41
1
10
17.5173783212929
20
5.1184763396121
30
0
41
1
10
17.5571528354636
20
4.70958692976566
30
0
41
1
10
17.5730963719532
20
4.55060074722869
30
0
41
1
10
17.5886572739579
20
4.38814154757372
30
0
0
SPLINE
5
12E
100
AcDbEntity
8
1
62
256
6
ByLayer
370
18
48
1
60
0
100
AcDbSpline
70
4
71
3
72
10
73
6
40
0
40
0
40
0
40
0
40
0.322320999336188
40
0.322320999336188
40
1
40
1
40
1
40
1
41
1
10
17.5729831138508
20
0.290199407860172
30
0
41
1
10
17.5614008645423
20
0.16350034544638
30
0
41
1
10
17.5497648145949
20
0.0379175499102757
30
0
41
1
10
17.5153581007564
20
-0.344363672874692
30
0
41
1
10
17.4942217633957
20
-0.594495153637581
30
0
41
1
10
17.4805459037027
20
-0.835393737292719
30
0
0
SPLINE
5
12F
100
AcDbEntity
8
1
62
256
6
ByLayer
370
18
48
1
60
0
100
AcDbSpline
70
4
71
3
72
16
73
12
40
0
40
0
40
0
40
0
40
0.125
40
0.125
40
0.25
40
0.25
40
0.5
40
0.5
40
0.75
40
0.75
40
1
40
1
40
1
40
1
41
1
10
11.4613248654052
20
-23.8391299750503
30
0
41
1
10
11.4930777586346
20
-23.8391299750503
30
0
41
1
10
11.523990670531
20
-23.8371392949586
30
0
41
1
10
11.5824040005111
20
-23.8299833264009
30
0
41
1
10
11.6089650834003
20
-23.824989671385
30
0
41
1
10
11.6829561422921
20
-23.8070141183761
30
0
41
1
10
11.7219265489987
20
-23.7919105160783
30
0
41
1
10
11.7882603826482
20
-23.7591079584198
30
0
41
1
10
11.8148780607233
20
-23.7416171457992
30
0
41
1
10
11.8602443227468
20
-23.7051129235883
30
0
41
1
10
11.8788862370738
20
-23.6860331168061
30
0
41
1
10
11.8943375672975
20
-23.6665017920809
30
0
0
SPLINE
5
130
100
AcDbEntity
8
1
62
256
6
ByLayer
370
18
48
1
60
0
100
AcDbSpline
70
4
71
3
72
8
73
4
40
0
40
0
40
0
40
0
40
1
40
1
40
1
40
1
41
1
10
21.4653246960697
20
22.8047823414889
30
0
41
1
10
21.2798203457091
20
23.5360100142885
30
0
41
1
10
21.099776429106
20
24.2680941234027
30
0
41
1
10
20.9294672520272
20
25.002108248777
30
0
0
SPLINE
5
131
100
AcDbEntity
8
1
62
256
6
ByLayer
370
18
48
1
60
0
100
AcDbSpline
70
4
71
2
72
6
73
3
40
0
40
0
40
0
40
1
40
1
40
1
41
0.500000267751123
10
22.5247781821348
20
31.1596067065989
30
0
41
0.499999732248877
10
22.5189621280662
20
31.1591294140488
30
0
41
0.500000267751123
10
22.513147879842
20
31.1586539044806
30
0
0
SPLINE
5
132
100
AcDbEntity
8
1
62
256
6
ByLayer
370
18
48
1
60
0
100
AcDbSpline
70
4
71
3
72
16
73
12
40
0
40
0
40
0
40
0
40
0.25
40
0.25
40
0.5
40
0.5
40
0.75
40
0.75
40
0.875
40
0.875
40
1
40
1
40
1
40
1
41
1
10
11.8943375672974
20
23.6665017920809
30
0
41
1
10
11.878892303015
20
23.6860254491252
30
0
41
1
10
11.8604037172646
20
23.7049589195931
30
0
41
1
10
11.8151421892069
20
23.7414301198899
30
0
41
1
10
11.7882878950994
20
23.7590955179201
30
0
41
1
10
11.7218733396747
20
23.7919356634172
30
0
41
1
10
11.6822221825145
20
23.8071882416308
30
0
41
1
10
11.6094109295817
20
23.8248834464053
30
0
41
1
10
11.5822992776726
20
23.8299908115613
30
0
41
1
10
11.5243601613892
20
23.8370993498304
30
0
41
1
10
11.4930267682388
20
23.8391299750505
30
0
41
1
10
11.4613248654052
20
23.8391299750505
30
0
0
SPLINE
5
133
100
AcDbEntity
8
SK1
62
256
6
ByLayer
370
18
48
1
60
0
100
AcDbSpline
70
4
71
3
72
103
73
99
40
0
40
0
40
0
40
0
40
0.0079700779919703
40
0.0168024511601158
40
0.0256348243282613
40
0.0344671974964068
40
0.0432995706645523
40
0.0521319438326978
40
0.0609643170008432
40
0.0697966901689887
40
0.0786290633371342
40
0.0874614365052797
40
0.105126182841571
40
0.113958556009716
40
0.122790929177862
40
0.131623302346007
40
0.140455675514153
40
0.158120421850444
40
0.166952795018589
40
0.175785168186735
40
0.193449914523026
40
0.202282287691171
40
0.211114660859317
40
0.228779407195608
40
0.237611780363753
40
0.246444153531899
40
0.255276526700044
40
0.26410889986819
40
0.272941273036335
40
0.28177364620448
40
0.290606019372626
40
0.299438392540771
40
0.317103138877062
40
0.325935512045208
40
0.334767885213353
40
0.343600258381499
40
0.352432631549644
40
0.370097377885935
40
0.378929751054081
40
0.383345937638154
40
0.387762124222226
40
0.396594497390372
40
0.405426870558517
40
0.423091616894808
40
0.431923990062954
40
0.440756363231099
40
0.449588736399245
40
0.45842110956739
40
0.476085855903681
40
0.484918229071827
40
0.493750602239972
40
0.502582975408118
40
0.511415348576263
40
0.529080094912554
40
0.5379124680807
40
0.546744841248845
40
0.555577214416991
40
0.564409587585136
40
0.582074333921427
40
0.590906707089573
40
0.599739080257718
40
0.608571453425864
40
0.617403826594009
40
0.6350685729303
40
0.643900946098446
40
0.652733319266591
40
0.670398065602882
40
0.688062811939173
40
0.696895185107319
40
0.705727558275464
40
0.723392304611755
40
0.732224677779901
40
0.741057050948046
40
0.749889424116192
40
0.758721797284337
40
0.767554170452483
40
0.776386543620628
40
0.794051289956919
40
0.81171603629321
40
0.820548409461356
40
0.829380782629501
40
0.838213155797646
40
0.847045528965792
40
0.855877902133937
40
0.864710275302083
40
0.882375021638374
40
0.900039767974665
40
0.917704514310956
40
0.926536887479101
40
0.935369260647247
40
0.944201633815392
40
0.953034006983538
40
0.961866380151683
40
0.970698753319829
40
0.979531126487974
40
0.98836349965612
40
0.997195872824265
40
1
40
1
40
1
40
1
41
1
10
-0.394976888875277
20
-17.3601928956892
30
0
41
1
10
-0.394976888875277
20
-17.358644294798
30
0
41
1
10
-0.394976888875277
20
-17.3546578463738
30
0
41
1
10
-0.394976888875277
20
-17.3462909802274
30
0
41
1
10
-0.394976888875277
20
-17.3352007360526
30
0
41
1
10
-0.394976888875277
20
-17.3217086355548
30
0
41
1
10
-0.394976888875277
20
-17.3058521626298
30
0
41
1
10
-0.394976888875277
20
-17.2876678382251
30
0
41
1
10
-0.394976888875277
20
-17.2671905287463
30
0
41
1
10
-0.394976888875277
20
-17.2444531170066
30
0
41
1
10
-0.394976888875277
20
-17.2194882612007
30
0
41
1
10
-0.394976888875277
20
-17.1832568369982
30
0
41
1
10
-0.394976888875277
20
-17.1427382787905
30
0
41
1
10
-0.394976888875277
20
-17.0979462837243
30
0
41
1
10
-0.394976888875277
20
-17.0622798511847
30
0
41
1
10
-0.394976888875277
20
-17.024552403858
30
0
41
1
10
-0.394976888875277
20
-16.9715145305624
30
0
41
1
10
-0.394976888875277
20
-16.9145141001581
30
0
41
1
10
-0.394976888875277
20
-16.8535135500207
30
0
41
1
10
-0.394976888875277
20
-16.7899145981056
30
0
41
1
10
-0.394976888875277
20
-16.7225357579897
30
0
41
1
10
-0.394976888875277
20
-16.6513062771915
30
0
41
1
10
-0.394976888875277
20
-16.5775834628441
30
0
41
1
10
-0.394976888875277
20
-16.5002370830775
30
0
41
1
10
-0.394976888875277
20
-16.4191737297992
30
0
41
1
10
-0.394976888875277
20
-16.3565947902754
30
0
41
1
10
-0.394976888875277
20
-16.2922298358683
30
0
41
1
10
-0.394976888875277
20
-16.2260943811825
30
0
41
1
10
-0.394976888875277
20
-16.1582019472912
30
0
41
1
10
-0.394976888875277
20
-16.0885678110446
30
0
41
1
10
-0.394976888875277
20
-16.0172057969154
30
0
41
1
10
-0.394976888875277
20
-15.9197362187748
30
0
41
1
10
-0.394976888875277
20
-15.8189643831875
30
0
41
1
10
-0.394976888875277
20
-15.7147364921469
30
0
41
1
10
-0.394976888875277
20
-15.6349267624759
30
0
41
1
10
-0.394976888875277
20
-15.5534637367265
30
0
41
1
10
-0.394976888875306
20
-15.4426196109061
30
0
41
1
10
-0.394976888875277
20
-15.3286250474485
30
0
41
1
10
-0.394976888875277
20
-15.2259771214207
30
0
41
1
10
-0.394976888875277
20
-15.1665127141503
30
0
41
1
10
-0.394976888875277
20
-15.1065165223896
30
0
41
1
10
-0.394976888875277
20
-15.0305708978545
30
0
41
1
10
-0.394976888875277
20
-14.9068780878822
30
0
41
1
10
-0.394976888875277
20
-14.780164253239
30
0
41
1
10
-0.394976888875277
20
-14.6502180419884
30
0
41
1
10
-0.394976888875277
20
-14.5512443837086
30
0
41
1
10
-0.394976888875277
20
-14.4507333681675
30
0
41
1
10
-0.394976888875306
20
-14.3146351237356
30
0
41
1
10
-0.394976888875306
20
-14.1756274475867
30
0
41
1
10
-0.394976888875277
20
-14.0334711580348
30
0
41
1
10
-0.394976888875277
20
-13.9253889718329
30
0
41
1
10
-0.394976888875277
20
-13.8158144768541
30
0
41
1
10
-0.394976888875306
20
-13.6676860552913
30
0
41
1
10
-0.394976888875277
20
-13.5167448476072
30
0
41
1
10
-0.394976888875306
20
-13.3627236547323
30
0
41
1
10
-0.394976888875277
20
-13.2457849051211
30
0
41
1
10
-0.394976888875306
20
-13.1273919665529
30
0
41
1
10
-0.394976888875306
20
-12.9675509360494
30
0
41
1
10
-0.394976888875277
20
-12.8049814458532
30
0
41
1
10
-0.394976888875277
20
-12.6393872302303
30
0
41
1
10
-0.394976888875306
20
-12.5138050519686
30
0
41
1
10
-0.394976888875306
20
-12.3868007979199
30
0
41
1
10
-0.394976888875306
20
-12.2155153161813
30
0
41
1
10
-0.394976888875306
20
-12.0415756040849
30
0
41
1
10
-0.394976888875306
20
-11.864654349678
30
0
41
1
10
-0.394976888875306
20
-11.685867652055
30
0
41
1
10
-0.394976888875306
20
-11.4590305143918
30
0
41
1
10
-0.394976888875306
20
-11.2275701299333
30
0
41
1
10
-0.394976888875306
20
-11.0395280782787
30
0
41
1
10
-0.394976888875306
20
-10.8496518506122
30
0
41
1
10
-0.394976888875306
20
-10.6572263081632
30
0
41
1
10
-0.394976888875306
20
-10.4618684189216
30
0
41
1
10
-0.394976888875306
20
-10.3140380843155
30
0
41
1
10
-0.394976888875306
20
-10.1648480067744
30
0
41
1
10
-0.394976888875306
20
-10.0143015815252
30
0
41
1
10
-0.394976888875306
20
-9.86240080704218
30
0
41
1
10
-0.394976888875306
20
-9.65799296546987
30
0
41
1
10
-0.394976888875306
20
-9.39928045092248
30
0
41
1
10
-0.394976888875306
20
-9.1360908691222
30
0
41
1
10
-0.394976888875306
20
-8.922721214403
30
0
41
1
10
-0.394976888875306
20
-8.76141979186252
30
0
41
1
10
-0.394976888875306
20
-8.59878513137221
30
0
41
1
10
-0.394976888875306
20
-8.434820354761
30
0
41
1
10
-0.394976888875306
20
-8.26952736598562
30
0
41
1
10
-0.394976888875306
20
-8.04728288344248
30
0
41
1
10
-0.394976888875306
20
-7.76637138106329
30
0
41
1
10
-0.394976888875306
20
-7.42389186204957
30
0
41
1
10
-0.394976888875306
20
-7.13420903787926
30
0
41
1
10
-0.394976888875306
20
-6.89966740060396
30
0
41
1
10
-0.394976888875306
20
-6.7225343094135
30
0
41
1
10
-0.394976888875306
20
-6.54409937286439
30
0
41
1
10
-0.394976888875306
20
-6.3643662218949
30
0
41
1
10
-0.394976888875306
20
-6.18333830919048
30
0
41
1
10
-0.394976888875306
20
-6.00101977124669
30
0
41
1
10
-0.394976888875306
20
-5.8174145162354
30
0
41
1
10
-0.394976888875306
20
-5.63252719489225
30
0
41
1
10
-0.394976888875306
20
-5.48871660168982
30
0
41
1
10
-0.394976888875306
20
-5.4065930765673
30
0
41
1
10
-0.394976888875306
20
-5.38678189578289
30
0
0
SPLINE
5
134
100
AcDbEntity
8
SK1
62
256
6
ByLayer
370
18
48
1
60
0
100
AcDbSpline
70
4
71
3
72
24
73
20
40
0
40
0
40
0
40
0
40
0.031250000000001
40
0.031250000000001
40
0.062500000000002
40
0.062500000000002
40
0.0937500000000029
40
0.0937500000000029
40
0.125000000000004
40
0.125000000000004
40
0.187500000000006
40
0.187500000000006
40
0.250000000000008
40
0.250000000000008
40
0.500000000000005
40
0.500000000000005
40
0.750000000000003
40
0.750000000000003
40
1
40
1
40
1
40
1
41
1
10
-0.394976888872975
20
5.38678223324206
30
0
41
1
10
-0.388503745329075
20
5.38128319480973
30
0
41
1
10
-0.381388986847981
20
5.37647349151379
30
0
41
1
10
-0.365645130729518
20
5.37003095057869
30
0
41
1
10
-0.356875018489433
20
5.36852559182827
30
0
41
1
10
-0.339464630966944
20
5.37101783691435
30
0
41
1
10
-0.330985242949879
20
5.37503833637226
30
0
41
1
10
-0.316510652821108
20
5.38583151921282
30
0
41
1
10
-0.310292654930237
20
5.39251318392277
30
0
41
1
10
-0.293803612204812
20
5.41390802600506
30
0
41
1
10
-0.285544077573917
20
5.42989034626171
30
0
41
1
10
-0.271326596660003
20
5.462420470936
30
0
41
1
10
-0.265514310429921
20
5.47895729783244
30
0
41
1
10
-0.239827472074325
20
5.56231823892315
30
0
41
1
10
-0.229021554777035
20
5.63115874840238
30
0
41
1
10
-0.212565919448934
20
5.76699630063501
30
0
41
1
10
-0.207636724466056
20
5.8346241685793
30
0
41
1
10
-0.201310577492109
20
5.96939105744727
30
0
41
1
10
-0.200000000000358
20
6.03652860978244
30
0
41
1
10
-0.200000000000387
20
6.10344667966001
30
0
0
SPLINE
5
135
100
AcDbEntity
8
SK1
62
256
6
ByLayer
370
18
48
1
60
0
100
AcDbSpline
70
4
71
3
72
102
73
98
40
0
40
0
40
0
40
0
40
0.0028041102753374
40
0.0116364787273588
40
0.0204688471793802
40
0.0293012156314015
40
0.0381335840834229
40
0.0469659525354443
40
0.0557983209874657
40
0.064630689439487
40
0.0734630578915084
40
0.0822954263435298
40
0.0999601632475726
40
0.117624900151615
40
0.135289637055658
40
0.14412200550768
40
0.152954373959701
40
0.161786742411722
40
0.170619110863744
40
0.179451479315765
40
0.188283847767786
40
0.205948584671829
40
0.223613321575872
40
0.232445690027893
40
0.241278058479915
40
0.250110426931936
40
0.258942795383957
40
0.267775163835979
40
0.276607532288
40
0.294272269192043
40
0.303104637644064
40
0.311937006096086
40
0.329601743000128
40
0.347266479904171
40
0.356098848356192
40
0.364931216808214
40
0.382595953712257
40
0.391428322164278
40
0.400260690616299
40
0.409093059068321
40
0.417925427520342
40
0.435590164424385
40
0.444422532876406
40
0.453254901328428
40
0.462087269780449
40
0.47091963823247
40
0.488584375136513
40
0.497416743588534
40
0.506249112040556
40
0.515081480492577
40
0.523913848944599
40
0.541578585848641
40
0.550410954300663
40
0.559243322752684
40
0.568075691204706
40
0.576908059656727
40
0.59457279656077
40
0.603405165012791
40
0.612237533464812
40
0.621069901916834
40
0.629902270368855
40
0.647567007272898
40
0.656399375724919
40
0.665231744176941
40
0.674064112628962
40
0.682896481080983
40
0.700561217985026
40
0.709393586437048
40
0.718225954889069
40
0.72705832334109
40
0.735890691793112
40
0.744723060245133
40
0.753555428697155
40
0.762387797149176
40
0.771220165601197
40
0.78888490250524
40
0.797717270957261
40
0.806549639409283
40
0.824214376313326
40
0.833046744765347
40
0.841879113217368
40
0.859543850121411
40
0.868376218573432
40
0.877208587025454
40
0.886040955477475
40
0.894873323929497
40
0.912538060833539
40
0.921370429285561
40
0.930202797737582
40
0.939035166189603
40
0.947867534641625
40
0.956699903093646
40
0.965532271545668
40
0.974364639997689
40
0.98319700844971
40
0.992029376901732
40
1
40
1
40
1
40
1
41
1
10
-0.394976888875306
20
5.38678223324203
30
0
41
1
10
-0.394976888875306
20
5.40659331253005
30
0
41
1
10
-0.394976888875306
20
5.48871675629277
30
0
41
1
10
-0.394976888875306
20
5.63252720020009
30
0
41
1
10
-0.394976888875306
20
5.81741425905383
30
0
41
1
10
-0.394976888875306
20
6.0010194773844
30
0
41
1
10
-0.394976888875306
20
6.18333822517317
30
0
41
1
10
-0.394976888875306
20
6.36436626337326
30
0
41
1
10
-0.394976888875306
20
6.54409938064705
30
0
41
1
10
-0.394976888875306
20
6.7225342898117
30
0
41
1
10
-0.394976888875306
20
6.89966739484251
30
0
41
1
10
-0.394976888875306
20
7.1342090482905
30
0
41
1
10
-0.394976888875306
20
7.42389184310318
30
0
41
1
10
-0.394976888875306
20
7.76637137475095
30
0
41
1
10
-0.394976888875306
20
8.04728288893983
30
0
41
1
10
-0.394976888875306
20
8.26952734508268
30
0
41
1
10
-0.394976888875306
20
8.43482033812748
30
0
41
1
10
-0.394976888875306
20
8.59878513251641
30
0
41
1
10
-0.394976888875306
20
8.76141979935898
30
0
41
1
10
-0.394976888875306
20
8.92272120904667
30
0
41
1
10
-0.394976888875306
20
9.13609084815204
30
0
41
1
10
-0.394976888875306
20
9.3992804435735
30
0
41
1
10
-0.394976888875306
20
9.65799297250354
30
0
41
1
10
-0.394976888875306
20
9.86240079247779
30
0
41
1
10
-0.394976888875306
20
10.0143015620689
30
0
41
1
10
-0.394976888875306
20
10.1648479968029
30
0
41
1
10
-0.394976888875306
20
10.3140380853821
30
0
41
1
10
-0.394976888875306
20
10.4618684218406
30
0
41
1
10
-0.394976888875306
20
10.6572262982852
30
0
41
1
10
-0.394976888875306
20
10.8496518299165
30
0
41
1
10
-0.394976888875306
20
11.0395280715926
30
0
41
1
10
-0.394976888875306
20
11.2275701322441
30
0
41
1
10
-0.394976888875306
20
11.4590305058838
30
0
41
1
10
-0.394976888875306
20
11.6858676336886
30
0
41
1
10
-0.394976888875306
20
11.8646543426879
30
0
41
1
10
-0.394976888875306
20
12.0415756036957
30
0
41
1
10
-0.394976888875306
20
12.2155153079022
30
0
41
1
10
-0.394976888875306
20
12.3868007822861
30
0
41
1
10
-0.394976888875306
20
12.5138050377602
30
0
41
1
10
-0.394976888875306
20
12.6393872212047
30
0
41
1
10
-0.394976888875306
20
12.8049814419576
30
0
41
1
10
-0.394976888875306
20
12.9675509274721
30
0
41
1
10
-0.394976888875306
20
13.127391952352
30
0
41
1
10
-0.394976888875306
20
13.2457848907918
30
0
41
1
10
-0.394976888875306
20
13.3627236430939
30
0
41
1
10
-0.394976888875306
20
13.5167448397425
30
0
41
1
10
-0.394976888875306
20
13.6676860465324
30
0
41
1
10
-0.394976888875306
20
13.8158144643309
30
0
41
1
10
-0.394976888875306
20
13.9253889575191
30
0
41
1
10
-0.394976888875306
20
14.0334711437704
30
0
41
1
10
-0.394976888875306
20
14.1756274353422
30
0
41
1
10
-0.394976888875306
20
14.3146351144528
30
0
41
1
10
-0.394976888875306
20
14.4507333574048
30
0
41
1
10
-0.394976888875306
20
14.5512443698349
30
0
41
1
10
-0.394976888875306
20
14.6502180265082
30
0
41
1
10
-0.394976888875306
20
14.7801642402503
30
0
41
1
10
-0.394976888875306
20
14.906878048735
30
0
41
1
10
-0.394976888875306
20
15.0305709686995
30
0
41
1
10
-0.394976888875306
20
15.1217290697223
30
0
41
1
10
-0.394976888875306
20
15.2112966721243
30
0
41
1
10
-0.394976888875306
20
15.3286250260664
30
0
41
1
10
-0.394976888875306
20
15.4426195996911
30
0
41
1
10
-0.394976888875306
20
15.553463729323
30
0
41
1
10
-0.394976888875306
20
15.6349267495635
30
0
41
1
10
-0.394976888875306
20
15.7147364711228
30
0
41
1
10
-0.394976888875306
20
15.8189643575456
30
0
41
1
10
-0.394976888875306
20
15.9197362080175
30
0
41
1
10
-0.394976888875306
20
16.0172057910895
30
0
41
1
10
-0.394976888875306
20
16.0885677968918
30
0
41
1
10
-0.394976888875306
20
16.1582019227301
30
0
41
1
10
-0.394976888875306
20
16.2260943534788
30
0
41
1
10
-0.394976888875277
20
16.2922298184193
30
0
41
1
10
-0.394976888875306
20
16.3565947837564
30
0
41
1
10
-0.394976888875306
20
16.4191737242595
30
0
41
1
10
-0.394976888875306
20
16.5002370605308
30
0
41
1
10
-0.394976888875306
20
16.577583428992
30
0
41
1
10
-0.394976888875306
20
16.6513062647865
30
0
41
1
10
-0.394976888875306
20
16.7225357594453
30
0
41
1
10
-0.394976888875306
20
16.7899145739052
30
0
41
1
10
-0.394976888875306
20
16.8535135157982
30
0
41
1
10
-0.394976888875306
20
16.9145140859045
30
0
41
1
10
-0.394976888875306
20
16.9715145338597
30
0
41
1
10
-0.394976888875277
20
17.0245523789023
30
0
41
1
10
-0.394976888875306
20
17.0622798138473
30
0
41
1
10
-0.394976888875277
20
17.0979462613767
30
0
41
1
10
-0.394976888875306
20
17.1427382851614
30
0
41
1
10
-0.394976888875306
20
17.1832568130363
30
0
41
1
10
-0.394976888875306
20
17.2194882282903
30
0
41
1
10
-0.394976888875306
20
17.2444530966284
30
0
41
1
10
-0.394976888875306
20
17.267190526317
30
0
41
1
10
-0.394976888875306
20
17.2876678324761
30
0
41
1
10
-0.394976888875277
20
17.3058521283006
30
0
41
1
10
-0.394976888875306
20
17.3217086001335
30
0
41
1
10
-0.394976888875277
20
17.3352007293143
30
0
41
1
10
-0.394976888875277
20
17.3462909837355
30
0
41
1
10
-0.394976888875277
20
17.3546580057805
30
0
41
1
10
-0.394976888875277
20
17.3586445512336
30
0
41
1
10
-0.394976888875277
20
17.3601932331583
30
0
0
SPLINE
5
136
100
AcDbEntity
8
SK1
62
256
6
ByLayer
370
18
48
1
60
0
100
AcDbSpline
70
4
71
3
72
26
73
22
40
0
40
0
40
0
40
0
40
0.25
40
0.25
40
0.5
40
0.5
40
0.625000000000001
40
0.625000000000001
40
0.687500000000001
40
0.687500000000001
40
0.750000000000001
40
0.750000000000001
40
0.812500000000001
40
0.812500000000001
40
0.875000000000002
40
0.875000000000002
40
0.906250000000001
40
0.906250000000001
40
0.937500000000001
40
0.937500000000001
40
1
40
1
40
1
40
1
41
1
10
-1.30710678118658
20
3.91806548153781
30
0
41
1
10
-1.27769319780745
20
4.08052093037065
30
0
41
1
10
-1.24421801411862
20
4.24088838641725
30
0
41
1
10
-1.16485205097936
20
4.55692134673146
30
0
41
1
10
-1.11915053894171
20
4.71298625674962
30
0
41
1
10
-1.03398506252572
20
4.93920991648989
30
0
41
1
10
-1.00279216065925
20
5.01338233454953
30
0
41
1
10
-0.948686084795554
20
5.12180889714571
30
0
41
1
10
-0.929413948146419
20
5.15747348575945
30
0
41
1
10
-0.887192676607185
20
5.2274622561776
30
0
41
1
10
-0.864103743653004
20
5.26201593969387
30
0
41
1
10
-0.813044425251121
20
5.32730624386841
30
0
41
1
10
-0.785168859850671
20
5.35822757002163
30
0
41
1
10
-0.720036760130711
20
5.41334643052002
30
0
41
1
10
-0.681932962873333
20
5.43781069903423
30
0
41
1
10
-0.618164109731566
20
5.45755608765848
30
0
41
1
10
-0.595615461334688
20
5.4612647451805
30
0
41
1
10
-0.550411294006409
20
5.46132444639051
30
0
41
1
10
-0.528101012291216
20
5.45772738244958
30
0
41
1
10
-0.464215280713574
20
5.43805975377177
30
0
41
1
10
-0.427403975867804
20
5.4143295595745
30
0
41
1
10
-0.394976888875419
20
5.38678223323953
30
0
0
SPLINE
5
137
100
AcDbEntity
8
SK1
62
256
6
ByLayer
370
18
48
1
60
0
100
AcDbSpline
70
4
71
3
72
26
73
22
40
0
40
0
40
0
40
0
40
0.250000000000001
40
0.250000000000001
40
0.500000000000002
40
0.500000000000002
40
0.625000000000003
40
0.625000000000003
40
0.750000000000004
40
0.750000000000004
40
0.812500000000004
40
0.812500000000004
40
0.875000000000004
40
0.875000000000004
40
0.906250000000003
40
0.906250000000003
40
0.937500000000002
40
0.937500000000002
40
0.968750000000001
40
0.968750000000001
40
1
40
1
40
1
40
1
41
1
10
-0.200000000000017
20
-6.10344849123027
30
0
41
1
10
-0.200000000000017
20
-6.03658343849222
30
0
41
1
10
-0.201307915401543
20
-5.96945919325967
30
0
41
1
10
-0.207636972094122
20
-5.8346088643938
30
0
41
1
10
-0.212579850553397
20
-5.76680281418172
30
0
41
1
10
-0.224951590332751
20
-5.66479408005202
30
0
41
1
10
-0.229904281870233
20
-5.6308003160577
30
0
41
1
10
-0.242521523471197
20
-5.5629053131494
30
0
41
1
10
-0.250117086737589
20
-5.52896458934296
30
0
41
1
10
-0.265414899342318
20
-5.47925984090529
30
0
41
1
10
-0.271171206812284
20
-5.4628674131271
30
0
41
1
10
-0.285126828250441
20
-5.43075649789989
30
0
41
1
10
-0.293370777796071
20
-5.41464883184736
30
0
41
1
10
-0.309754325583412
20
-5.39312762647265
30
0
41
1
10
-0.315906755851472
20
-5.38639867120833
30
0
41
1
10
-0.330433281773509
20
-5.37534138513308
30
0
41
1
10
-0.338822824507929
20
-5.37123289411582
30
0
41
1
10
-0.356328976513907
20
-5.36848804676444
30
0
41
1
10
-0.365355266428651
20
-5.36994612574301
30
0
41
1
10
-0.381274177460824
20
-5.37639293798048
30
0
41
1
10
-0.3884397087092
20
-5.38122846522199
30
0
41
1
10
-0.394976888875334
20
-5.38678189578178
30
0
0
SPLINE
5
138
100
AcDbEntity
8
SK1
62
256
6
ByLayer
370
18
48
1
60
0
100
AcDbSpline
70
4
71
3
72
286
73
282
40
0
40
0
40
0
40
0
40
0.0005417627474922
40
0.0040840126463851
40
0.0076262625452781
40
0.0111685124441711
40
0.0147107623430641
40
0.0182530122419572
40
0.0217952621408501
40
0.0253375120397431
40
0.0288797619386362
40
0.0324220118375292
40
0.0359642617364222
40
0.0395065116353152
40
0.0465910114331012
40
0.0501332613319942
40
0.0536755112308872
40
0.0572177611297802
40
0.0607600110286732
40
0.0678445108264592
40
0.0713867607253522
40
0.0749290106242453
40
0.0820135104220312
40
0.0855557603209242
40
0.0890980102198172
40
0.0961825100176032
40
0.0997247599164962
40
0.103267009815389
40
0.106809259714282
40
0.110351509613175
40
0.113893759512068
40
0.117436009410961
40
0.120978259309854
40
0.124520509208747
40
0.131605009006533
40
0.135147258905426
40
0.138689508804319
40
0.142231758703212
40
0.145774008602105
40
0.152858508399891
40
0.156400758298784
40
0.159943008197677
40
0.16348525809657
40
0.167027507995463
40
0.174112007793249
40
0.177654257692142
40
0.181196507591035
40
0.184738757489928
40
0.188281007388821
40
0.195365507186607
40
0.1989077570855
40
0.202450006984393
40
0.205992256883286
40
0.209534506782179
40
0.216619006579965
40
0.220161256478858
40
0.223703506377751
40
0.227245756276645
40
0.230788006175537
40
0.237872505973323
40
0.241414755872216
40
0.244957005771109
40
0.248499255670002
40
0.252041505568895
40
0.259126005366682
40
0.262668255265575
40
0.266210505164467
40
0.273295004962254
40
0.280379504760039
40
0.283921754658932
40
0.287464004557826
40
0.294548504355612
40
0.298090754254504
40
0.301633004153398
40
0.305175254052291
40
0.308717503951184
40
0.312259753850077
40
0.31580200374897
40
0.322886503546756
40
0.329971003344542
40
0.333513253243435
40
0.337055503142328
40
0.340597753041221
40
0.344140002940114
40
0.347682252839007
40
0.3512245027379
40
0.358309002535686
40
0.365393502333472
40
0.372478002131258
40
0.376020252030151
40
0.379562501929044
40
0.383104751827937
40
0.38664700172683
40
0.390189251625723
40
0.393731501524616
40
0.397273751423509
40
0.400816001322402
40
0.404358251221295
40
0.407900501120188
40
0.411442751019081
40
0.414985000917974
40
0.418527250816867
40
0.42206950071576
40
0.425611750614653
40
0.429154000513546
40
0.432696250412439
40
0.434467375361885
40
0.436238500311332
40
0.438009625260778
40
0.439780750210225
40
0.443323000109118
40
0.446865250008011
40
0.448636374957457
40
0.450407499906904
40
0.45217862485635
40
0.453949749805797
40
0.455720874755243
40
0.45749199970469
40
0.461034249603583
40
0.462805374553029
40
0.464576499502476
40
0.466347624451922
40
0.468118749401369
40
0.469889874350815
40
0.471660999300262
40
0.473432124249708
40
0.475203249199155
40
0.476974374148601
40
0.478745499098048
40
0.480516624047494
40
0.482287748996941
40
0.484058873946387
40
0.485829998895834
40
0.48760112384528
40
0.489372248794727
40
0.491143373744173
40
0.49291449869362
40
0.494685623643066
40
0.496456748592513
40
0.498227873541959
40
0.499998998491406
40
0.501770123440852
40
0.503541248390299
40
0.505312373339745
40
0.507083498289192
40
0.508854623238638
40
0.510625748188085
40
0.512396873137531
40
0.514167998086978
40
0.515939123036424
40
0.517710247985871
40
0.519481372935317
40
0.521252497884764
40
0.52302362283421
40
0.524794747783657
40
0.526565872733103
40
0.52833699768255
40
0.530108122631996
40
0.531879247581443
40
0.533650372530889
40
0.535421497480336
40
0.537192622429782
40
0.538963747379229
40
0.540734872328675
40
0.542505997278122
40
0.544277122227568
40
0.546048247177015
40
0.549590497075908
40
0.551361622025354
40
0.553132746974801
40
0.556674996873694
40
0.560217246772587
40
0.561988371722033
40
0.56375949667148
40
0.565530621620926
40
0.567301746570373
40
0.570843996469266
40
0.574386246368159
40
0.577928496267052
40
0.581470746165945
40
0.585012996064838
40
0.588555245963731
40
0.592097495862624
40
0.595639745761517
40
0.59918199566041
40
0.602724245559303
40
0.606266495458196
40
0.609808745357089
40
0.613350995255982
40
0.616893245154875
40
0.620435495053768
40
0.623977744952661
40
0.627519994851554
40
0.63460449464934
40
0.641688994447126
40
0.648773494244912
40
0.652315744143805
40
0.655857994042698
40
0.659400243941591
40
0.662942493840484
40
0.666484743739377
40
0.67002699363827
40
0.677111493436056
40
0.684195993233842
40
0.687738243132735
40
0.691280493031628
40
0.694822742930521
40
0.698364992829414
40
0.701907242728307
40
0.7054494926272
40
0.712533992424986
40
0.716076242323879
40
0.719618492222772
40
0.726702992020558
40
0.733787491818344
40
0.737329741717237
40
0.74087199161613
40
0.747956491413916
40
0.751498741312809
40
0.755040991211702
40
0.758583241110595
40
0.762125491009488
40
0.769209990807274
40
0.772752240706167
40
0.77629449060506
40
0.779836740503953
40
0.783378990402846
40
0.790463490200632
40
0.794005740099525
40
0.797547989998418
40
0.801090239897311
40
0.804632489796204
40
0.81171698959399
40
0.815259239492883
40
0.818801489391776
40
0.822343739290669
40
0.825885989189562
40
0.832970488987348
40
0.836512738886241
40
0.840054988785134
40
0.841826113734581
40
0.843597238684027
40
0.84713948858292
40
0.854223988380706
40
0.857766238279599
40
0.861308488178492
40
0.864850738077385
40
0.868392987976278
40
0.875477487774064
40
0.879019737672957
40
0.88256198757185
40
0.886104237470743
40
0.889646487369636
40
0.893188737268529
40
0.896730987167422
40
0.900273237066315
40
0.903815486965208
40
0.910899986762994
40
0.914442236661887
40
0.91798448656078
40
0.925068986358566
40
0.928611236257459
40
0.932153486156352
40
0.939237985954138
40
0.942780235853031
40
0.946322485751924
40
0.949864735650817
40
0.95340698554971
40
0.960491485347496
40
0.964033735246389
40
0.967575985145282
40
0.971118235044175
40
0.974660484943068
40
0.978202734841961
40
0.981744984740854
40
0.985287234639747
40
0.988829484538641
40
0.992371734437533
40
0.995913984336426
40
0.999456234235319
40
1
40
1
40
1
40
1
41
1
10
-30
20
15.9926520654919
30
0
41
1
10
-30
20
15.9925599275766
30
0
41
1
10
-30
20
15.9917953867274
30
0
41
1
10
-30
20
15.9893850921089
30
0
41
1
10
-30
20
15.9836860314146
30
0
41
1
10
-30
20
15.9756808210229
30
0
41
1
10
-30
20
15.9654018084481
30
0
41
1
10
-30
20
15.952881126494
30
0
41
1
10
-30
20
15.9381491278438
30
0
41
1
10
-30
20
15.9212355486336
30
0
41
1
10
-30
20
15.9021692443494
30
0
41
1
10
-30
20
15.8809772874923
30
0
41
1
10
-30
20
15.85768719628
30
0
41
1
10
-30
20
15.8237020449634
30
0
41
1
10
-30
20
15.786151572388
30
0
41
1
10
-30
20
15.7440467976174
30
0
41
1
10
-30
20
15.7106366986067
30
0
41
1
10
-30
20
15.6752710038507
30
0
41
1
10
-30
20
15.6253102414823
30
0
41
1
10
-30
20
15.5722298833996
30
0
41
1
10
-30
20
15.5146768571488
30
0
41
1
10
-30
20
15.454635155867
30
0
41
1
10
-30
20
15.3917322415494
30
0
41
1
10
-30
20
15.3243986601424
30
0
41
1
10
-30
20
15.2546726017926
30
0
41
1
10
-30
20
15.1823145630235
30
0
41
1
10
-30
20
15.1055630554725
30
0
41
1
10
-30
20
15.0465122402175
30
0
41
1
10
-30
20
14.985753516587
30
0
41
1
10
-30
20
14.9233034368069
30
0
41
1
10
-30
20
14.8591738020485
30
0
41
1
10
-30
20
14.7933781380804
30
0
41
1
10
-30
20
14.7259318150055
30
0
41
1
10
-30
20
14.6334478809413
30
0
41
1
10
-30
20
14.5388306139923
30
0
41
1
10
-30
20
14.4398724968665
30
0
41
1
10
-30
20
14.3643499358607
30
0
41
1
10
-30
20
14.2872489988171
30
0
41
1
10
-30
20
14.1819460940194
30
0
41
1
10
-30
20
14.0747689624993
30
0
41
1
10
-30
20
13.9632604256821
30
0
41
1
10
-30
20
13.8784200007502
30
0
41
1
10
-30
20
13.7920640526129
30
0
41
1
10
-30
20
13.674463030797
30
0
41
1
10
-30
20
13.5552283874056
30
0
41
1
10
-30
20
13.4316550911984
30
0
41
1
10
-30
20
13.337853067095
30
0
41
1
10
-30
20
13.2425907988595
30
0
41
1
10
-30
20
13.1131460860381
30
0
41
1
10
-30
20
12.9822967545723
30
0
41
1
10
-30
20
12.847084683004
30
0
41
1
10
-30
20
12.7446351532221
30
0
41
1
10
-30
20
12.6407746180398
30
0
41
1
10
-30
20
12.499887311655
30
0
41
1
10
-30
20
12.3578191289812
30
0
41
1
10
-30
20
12.2113468162577
30
0
41
1
10
-30
20
12.100530667573
30
0
41
1
10
-30
20
11.9883478761207
30
0
41
1
10
-30
20
11.836377249174
30
0
41
1
10
-30
20
11.6834503922585
30
0
41
1
10
-30
20
11.5260594948948
30
0
41
1
10
-30
20
11.4071324366749
30
0
41
1
10
-30
20
11.286879488698
30
0
41
1
10
-30
20
11.1241532157817
30
0
41
1
10
-30
20
10.9607029988619
30
0
41
1
10
-30
20
10.7927086404325
30
0
41
1
10
-30
20
10.6229844866849
30
0
41
1
10
-30
20
10.4091173939315
30
0
41
1
10
-30
20
10.1909959678347
30
0
41
1
10
-30
20
10.0126979588287
30
0
41
1
10
-30
20
9.83272430289381
30
0
41
1
10
-30
20
9.65245023276196
30
0
41
1
10
-30
20
9.46744871362009
30
0
41
1
10
-30
20
9.32804093460692
30
0
41
1
10
-30
20
9.18740563851222
30
0
41
1
10
-30
20
9.0455543785921
30
0
41
1
10
-30
20
8.90249044231979
30
0
41
1
10
-30
20
8.70931958714519
30
0
41
1
10
-30
20
8.46674616603482
30
0
41
1
10
-30
20
8.22021686294164
30
0
41
1
10
-30
20
8.01906836645574
30
0
41
1
10
-30
20
7.86773085832667
30
0
41
1
10
-30
20
7.71524241280139
30
0
41
1
10
-30
20
7.56161298420645
30
0
41
1
10
-30
20
7.40685260452795
30
0
41
1
10
-30
20
7.19804202206521
30
0
41
1
10
-30
20
6.93651252502832
30
0
41
1
10
-30
20
6.61705894701072
30
0
41
1
10
-30
20
6.34834996432815
30
0
41
1
10
-30
20
6.12929373929512
30
0
41
1
10
-30
20
5.96484945115364
30
0
41
1
10
-30
20
5.7993974381898
30
0
41
1
10
-30
20
5.63295542814623
30
0
41
1
10
-30
20
5.46554083189747
30
0
41
1
10
-30
20
5.29717335727497
30
0
41
1
10
-30
20
5.12787591307327
30
0
41
1
10
-30
20
4.95767063849857
30
0
41
1
10
-30
20
4.78658071628459
30
0
41
1
10
-30
20
4.6146335506248
30
0
41
1
10
-30
20
4.44186113006066
30
0
41
1
10
-30
20
4.26829321973946
30
0
41
1
10
-30
20
4.09396155182318
30
0
41
1
10
-30
20
3.91890592173866
30
0
41
1
10
-30
20
3.74316620306934
30
0
41
1
10
-30
20
3.56678705857647
30
0
41
1
10
-30
20
3.42015123791836
30
0
41
1
10
-30
20
3.30098109847947
30
0
41
1
10
-30
20
3.2121632747783
30
0
41
1
10
-30
20
3.1232237708189
30
0
41
1
10
-30
20
3.00356413190349
30
0
41
1
10
-30
20
2.85589664232998
30
0
41
1
10
-30
20
2.70788037697056
30
0
41
1
10
-30
20
2.58749550859631
30
0
41
1
10
-30
20
2.49793822974365
30
0
41
1
10
-30
20
2.40833000131903
30
0
41
1
10
-30
20
2.31867596083524
30
0
41
1
10
-30
20
2.22899146909501
30
0
41
1
10
-30
20
2.10827328924753
30
0
41
1
10
-30
20
1.99097459417118
30
0
41
1
10
-30
20
1.87012467714985
30
0
41
1
10
-30
20
1.78043031683035
30
0
41
1
10
-30
20
1.69076251244053
30
0
41
1
10
-30
20
1.60113247848602
30
0
41
1
10
-30
20
1.5115531360978
30
0
41
1
10
-30
20
1.422025757727
30
0
41
1
10
-30
20
1.33256776537956
30
0
41
1
10
-30
20
1.24317741509074
30
0
41
1
10
-30
20
1.15386860885189
30
0
41
1
10
-30
20
1.06464013673644
30
0
41
1
10
-30
20
0.975500136218216
30
0
41
1
10
-30
20
0.886447988926818
30
0
41
1
10
-30
20
0.7974857766811
30
0
41
1
10
-30
20
0.708610852102623
30
0
41
1
10
-30
20
0.619820737442751
30
0
41
1
10
-30
20
0.531109764951225
30
0
41
1
10
-30
20
0.442471434007615
30
0
41
1
10
-30
20
0.353896007963442
30
0
41
1
10
-30
20
0.265373879214224
30
0
41
1
10
-30
20
0.176892371692134
30
0
41
1
10
-30
20
0.0884392148653603
30
0
41
1
10
-30
20
2.04973674E-08
30
0
41
1
10
-30
20
-0.0884392031952927
30
0
41
1
10
-30
20
-0.17689241471993
30
0
41
1
10
-30
20
-0.265373915570137
30
0
41
1
10
-30
20
-0.353895962579514
30
0
41
1
10
-30
20
-0.442471374506852
30
0
41
1
10
-30
20
-0.531109813902674
30
0
41
1
10
-30
20
-0.619820822982149
30
0
41
1
10
-30
20
-0.708610806550098
30
0
41
1
10
-30
20
-0.797485667180183
30
0
41
1
10
-30
20
-0.88644802600686
30
0
41
1
10
-30
20
-0.97550027278379
30
0
41
1
10
-30
20
-1.06464012636252
30
0
41
1
10
-30
20
-1.1538684580087
30
0
41
1
10
-30
20
-1.24317738635409
30
0
41
1
10
-30
20
-1.33256791795029
30
0
41
1
10
-30
20
-1.42202585063245
30
0
41
1
10
-30
20
-1.51155302070472
30
0
41
1
10
-30
20
-1.60113232466117
30
0
41
1
10
-30
20
-1.69076256252157
30
0
41
1
10
-30
20
-1.78043050963592
30
0
41
1
10
-30
20
-1.87012473193457
30
0
41
1
10
-30
20
-1.95984062320625
30
0
41
1
10
-30
20
-2.04956121840738
30
0
41
1
10
-30
20
-2.13928298465072
30
0
41
1
10
-30
20
-2.22899154181988
30
0
41
1
10
-30
20
-2.34971237639814
30
0
41
1
10
-30
20
-2.46705810448162
30
0
41
1
10
-30
20
-2.58749567267543
30
0
41
1
10
-30
20
-2.70788056755165
30
0
41
1
10
-30
20
-2.85589666602101
30
0
41
1
10
-30
20
-3.00356394920905
30
0
41
1
10
-30
20
-3.12322374659237
30
0
41
1
10
-30
20
-3.21216341650845
30
0
41
1
10
-30
20
-3.30098129392073
30
0
41
1
10
-30
20
-3.42015124315623
30
0
41
1
10
-30
20
-3.56678672363679
30
0
41
1
10
-30
20
-3.74316585626101
30
0
41
1
10
-30
20
-3.9189058475738
30
0
41
1
10
-30
20
-4.09396100129447
30
0
41
1
10
-30
20
-4.26829259541555
30
0
41
1
10
-30
20
-4.4418618308207
30
0
41
1
10
-30
20
-4.61463414914385
30
0
41
1
10
-30
20
-4.78658021025495
30
0
41
1
10
-30
20
-4.95767123056285
30
0
41
1
10
-30
20
-5.12787786255663
30
0
41
1
10
-30
20
-5.29717415068043
30
0
41
1
10
-30
20
-5.46553992297879
30
0
41
1
10
-30
20
-5.63295448869494
30
0
41
1
10
-30
20
-5.79939725011727
30
0
41
1
10
-30
20
-5.96484950556564
30
0
41
1
10
-30
20
-6.12929365354833
30
0
41
1
10
-30
20
-6.34834993475855
30
0
41
1
10
-30
20
-6.61705901965072
30
0
41
1
10
-30
20
-6.93651248001382
30
0
41
1
10
-30
20
-7.19804203228611
30
0
41
1
10
-30
20
-7.40685270744598
30
0
41
1
10
-30
20
-7.56161297986856
30
0
41
1
10
-30
20
-7.71524232371235
30
0
41
1
10
-30
20
-7.86773082006815
30
0
41
1
10
-30
20
-8.01906843480592
30
0
41
1
10
-30
20
-8.22021692135615
30
0
41
1
10
-30
20
-8.4667461231511
30
0
41
1
10
-30
20
-8.70931957903713
30
0
41
1
10
-30
20
-8.9024905245744
30
0
41
1
10
-30
20
-9.04555441784285
30
0
41
1
10
-30
20
-9.18740560593946
30
0
41
1
10
-30
20
-9.32804088163155
30
0
41
1
10
-30
20
-9.46744870809565
30
0
41
1
10
-30
20
-9.65245029192158
30
0
41
1
10
-30
20
-9.83272433616031
30
0
41
1
10
-30
20
-10.0126979221092
30
0
41
1
10
-30
20
-10.1909959517429
30
0
41
1
10
-30
20
-10.4091174330405
30
0
41
1
10
-30
20
-10.6229845090751
30
0
41
1
10
-30
20
-10.7927086151923
30
0
41
1
10
-30
20
-10.9607029915804
30
0
41
1
10
-30
20
-11.1241532476502
30
0
41
1
10
-30
20
-11.286879520772
30
0
41
1
10
-30
20
-11.4071324437642
30
0
41
1
10
-30
20
-11.526059483736
30
0
41
1
10
-30
20
-11.6834503898541
30
0
41
1
10
-30
20
-11.8363772717575
30
0
41
1
10
-30
20
-11.9883479026383
30
0
41
1
10
-30
20
-12.100530681097
30
0
41
1
10
-30
20
-12.211346817793
30
0
41
1
10
-30
20
-12.3578191303265
30
0
41
1
10
-30
20
-12.4998873251014
30
0
41
1
10
-30
20
-12.640774639564
30
0
41
1
10
-30
20
-12.7446351726738
30
0
41
1
10
-30
20
-12.8470846962099
30
0
41
1
10
-30
20
-12.9822967603461
30
0
41
1
10
-30
20
-13.1131460918652
30
0
41
1
10
-30
20
-13.2425908150844
30
0
41
1
10
-30
20
-13.3378530905647
30
0
41
1
10
-30
20
-13.431655102243
30
0
41
1
10
-30
20
-13.5552284439381
30
0
41
1
10
-30
20
-13.6744629632361
30
0
41
1
10
-30
20
-13.7920640428987
30
0
41
1
10
-30
20
-13.8638084100541
30
0
41
1
10
-30
20
-13.9208384799596
30
0
41
1
10
-30
20
-13.9773600368974
30
0
41
1
10
-30
20
-14.0747689786766
30
0
41
1
10
-30
20
-14.1819460903518
30
0
41
1
10
-30
20
-14.2872490063531
30
0
41
1
10
-30
20
-14.3643499644422
30
0
41
1
10
-30
20
-14.4398725346097
30
0
41
1
10
-30
20
-14.5388306330265
30
0
41
1
10
-30
20
-14.6334478734244
30
0
41
1
10
-30
20
-14.7259318226356
30
0
41
1
10
-30
20
-14.793378171537
30
0
41
1
10
-30
20
-14.8591738437125
30
0
41
1
10
-30
20
-14.9233034607296
30
0
41
1
10
-30
20
-14.9857535133679
30
0
41
1
10
-30
20
-15.0465122321639
30
0
41
1
10
-30
20
-15.1055630695376
30
0
41
1
10
-30
20
-15.1823146060513
30
0
41
1
10
-30
20
-15.2546726312332
30
0
41
1
10
-30
20
-15.3243986497297
30
0
41
1
10
-30
20
-15.3917322452796
30
0
41
1
10
-30
20
-15.4546352005829
30
0
41
1
10
-30
20
-15.5146768877911
30
0
41
1
10
-30
20
-15.5722298782128
30
0
41
1
10
-30
20
-15.6253102421943
30
0
41
1
10
-30
20
-15.6752710489662
30
0
41
1
10
-30
20
-15.7106367362118
30
0
41
1
10
-30
20
-15.7440468008705
30
0
41
1
10
-30
20
-15.7861515665346
30
0
41
1
10
-30
20
-15.8237020814765
30
0
41
1
10
-30
20
-15.8576872273509
30
0
41
1
10
-30
20
-15.8809772969169
30
0
41
1
10
-30
20
-15.9021692417173
30
0
41
1
10
-30
20
-15.921235563756
30
0
41
1
10
-30
20
-15.9381491696965
30
0
41
1
10
-30
20
-15.9528811556007
30
0
41
1
10
-30
20
-15.9654018081648
30
0
41
1
10
-30
20
-15.9756808201301
30
0
41
1
10
-30
20
-15.9836860510364
30
0
41
1
10
-30
20
-15.989385071505
30
0
41
1
10
-30
20
-15.9917959068018
30
0
41
1
10
-30
20
-15.9925605291239
30
0
41
1
10
-30
20
-15.9926529344402
30
0
0
SPLINE
5
139
100
AcDbEntity
8
SK1
62
256
6
ByLayer
370
18
48
1
60
0
100
AcDbSpline
70
4
71
3
72
290
73
286
40
0
40
0
40
0
40
0
40
0.0008596833847114
40
0.0043501785946626
40
0.0078406738046137
40
0.0113311690145649
40
0.0148216642245161
40
0.0183121594344672
40
0.0218026546444184
40
0.0252931498543696
40
0.0287836450643207
40
0.0322741402742719
40
0.0357646354842231
40
0.0392551306941743
40
0.0427456259041254
40
0.0462361211140766
40
0.0532171115339789
40
0.0567076067439301
40
0.0601981019538813
40
0.0636885971638324
40
0.0671790923737836
40
0.0741600827936859
40
0.0776505780036371
40
0.0811410732135883
40
0.0881220636334906
40
0.0916125588434418
40
0.0951030540533929
40
0.102084044473295
40
0.105574539683246
40
0.109065034893198
40
0.112555530103149
40
0.1160460253131
40
0.119536520523051
40
0.123027015733002
40
0.126517510942953
40
0.130008006152905
40
0.136988996572807
40
0.140479491782758
40
0.143969986992709
40
0.147460482202661
40
0.150950977412612
40
0.157931967832514
40
0.161422463042465
40
0.163167710647441
40
0.164912958252416
40
0.168403453462367
40
0.171893948672319
40
0.178874939092221
40
0.182365434302172
40
0.185855929512123
40
0.189346424722074
40
0.192836919932026
40
0.199817910351928
40
0.203308405561879
40
0.20679890077183
40
0.210289395981782
40
0.213779891191733
40
0.220760881611635
40
0.224251376821586
40
0.227741872031538
40
0.231232367241488
40
0.23472286245144
40
0.241703852871342
40
0.245194348081293
40
0.248684843291244
40
0.252175338501196
40
0.255665833711147
40
0.262646824131049
40
0.266137319341
40
0.269627814550951
40
0.276608804970854
40
0.283589795390756
40
0.287080290600707
40
0.290570785810658
40
0.297551776230561
40
0.301042271440512
40
0.304532766650463
40
0.308023261860414
40
0.311513757070365
40
0.315004252280317
40
0.318494747490268
40
0.32547573791017
40
0.332456728330072
40
0.335947223540024
40
0.339437718749975
40
0.342928213959926
40
0.346418709169877
40
0.349909204379828
40
0.35339969958978
40
0.360380690009682
40
0.367361680429584
40
0.374342670849487
40
0.377833166059438
40
0.381323661269389
40
0.38481415647934
40
0.388304651689291
40
0.391795146899242
40
0.395285642109193
40
0.398776137319145
40
0.402266632529096
40
0.405757127739047
40
0.409247622948998
40
0.41273811815895
40
0.4162286133689
40
0.419719108578852
40
0.423209603788803
40
0.426700098998754
40
0.430190594208705
40
0.433681089418656
40
0.435426337023632
40
0.437171584628608
40
0.438916832233583
40
0.440662079838559
40
0.44415257504851
40
0.447643070258461
40
0.449388317863437
40
0.451133565468412
40
0.454624060678363
40
0.456369308283339
40
0.458114555888315
40
0.45985980349329
40
0.461605051098266
40
0.463350298703241
40
0.465095546308217
40
0.466840793913192
40
0.468586041518168
40
0.470331289123144
40
0.472076536728119
40
0.473821784333095
40
0.47556703193807
40
0.477312279543046
40
0.479057527148022
40
0.480802774752997
40
0.482548022357973
40
0.484293269962949
40
0.486038517567924
40
0.4877837651729
40
0.489529012777875
40
0.491274260382851
40
0.493019507987826
40
0.494764755592802
40
0.496510003197777
40
0.498255250802753
40
0.500000498407729
40
0.501745746012704
40
0.50349099361768
40
0.505236241222655
40
0.506981488827631
40
0.508726736432606
40
0.510471984037582
40
0.512217231642558
40
0.513962479247533
40
0.515707726852509
40
0.517452974457485
40
0.51919822206246
40
0.520943469667436
40
0.522688717272411
40
0.524433964877387
40
0.526179212482362
40
0.527924460087338
40
0.529669707692314
40
0.531414955297289
40
0.533160202902265
40
0.53490545050724
40
0.536650698112216
40
0.538395945717192
40
0.541886440927143
40
0.543631688532118
40
0.545376936137094
40
0.547122183742069
40
0.548867431347045
40
0.550612678952021
40
0.552357926556996
40
0.555848421766947
40
0.559338916976899
40
0.561084164581874
40
0.56282941218685
40
0.564574659791825
40
0.566319907396801
40
0.569810402606752
40
0.573300897816703
40
0.576791393026655
40
0.580281888236606
40
0.583772383446557
40
0.587262878656508
40
0.590753373866459
40
0.59424386907641
40
0.597734364286361
40
0.601224859496313
40
0.604715354706264
40
0.608205849916215
40
0.611696345126166
40
0.615186840336117
40
0.618677335546068
40
0.62216783075602
40
0.625658325965971
40
0.632639316385873
40
0.639620306805775
40
0.646601297225678
40
0.650091792435629
40
0.65358228764558
40
0.657072782855531
40
0.660563278065482
40
0.664053773275434
40
0.667544268485385
40
0.674525258905287
40
0.681506249325189
40
0.684996744535141
40
0.688487239745092
40
0.691977734955043
40
0.695468230164994
40
0.698958725374945
40
0.702449220584896
40
0.709430211004799
40
0.71292070621475
40
0.716411201424701
40
0.723392191844604
40
0.730373182264506
40
0.733863677474457
40
0.737354172684408
40
0.74433516310431
40
0.747825658314262
40
0.751316153524213
40
0.754806648734164
40
0.758297143944115
40
0.765278134364018
40
0.768768629573969
40
0.77225912478392
40
0.775749619993871
40
0.779240115203822
40
0.786221105623725
40
0.789711600833676
40
0.793202096043627
40
0.796692591253578
40
0.800183086463529
40
0.807164076883432
40
0.810654572093383
40
0.814145067303334
40
0.817635562513285
40
0.821126057723236
40
0.828107048143139
40
0.83159754335309
40
0.835088038563041
40
0.838578533772992
40
0.842069028982943
40
0.849050019402846
40
0.852540514612797
40
0.856031009822748
40
0.859521505032699
40
0.86301200024265
40
0.869992990662553
40
0.873483485872504
40
0.876973981082455
40
0.880464476292406
40
0.883954971502357
40
0.887445466712308
40
0.89093596192226
40
0.894426457132211
40
0.897916952342162
40
0.904897942762064
40
0.908388437972015
40
0.911878933181967
40
0.918859923601869
40
0.92235041881182
40
0.925840914021771
40
0.932821904441674
40
0.936312399651625
40
0.939802894861576
40
0.943293390071527
40
0.946783885281478
40
0.953764875701381
40
0.957255370911332
40
0.960745866121283
40
0.964236361331234
40
0.967726856541185
40
0.971217351751137
40
0.974707846961088
40
0.978198342171039
40
0.98168883738099
40
0.985179332590941
40
0.988669827800892
40
0.992160323010844
40
0.995650818220795
40
0.999141313430746
40
1
40
1
40
1
40
1
41
1
10
-28.5
20
-16.8570615108565
30
0
41
1
10
-28.5
20
-16.8573439106681
30
0
41
1
10
-28.5
20
-16.8586399005229
30
0
41
1
10
-28.5
20
-16.8597680746869
30
0
41
1
10
-28.5
20
-16.8587319423622
30
0
41
1
10
-28.5
20
-16.8551966659016
30
0
41
1
10
-28.5
20
-16.8492033090471
30
0
41
1
10
-28.5
20
-16.8407921763224
30
0
41
1
10
-28.5
20
-16.8300011251081
30
0
41
1
10
-28.5
20
-16.8168673072081
30
0
41
1
10
-28.5
20
-16.8014255596809
30
0
41
1
10
-28.5
20
-16.7837098927271
30
0
41
1
10
-28.5
20
-16.7637529737167
30
0
41
1
10
-28.5
20
-16.741585550229
30
0
41
1
10
-28.5
20
-16.7172383773105
30
0
41
1
10
-28.5
20
-16.6818354096897
30
0
41
1
10
-28.5
20
-16.642411504334
30
0
41
1
10
-28.5
20
-16.5986105943248
30
0
41
1
10
-28.5
20
-16.5637763395248
30
0
41
1
10
-28.5
20
-16.5269199399481
30
0
41
1
10
-28.5
20
-16.4750169286961
30
0
41
1
10
-28.5
20
-16.4194622696319
30
0
41
1
10
-28.5
20
-16.3597332242326
30
0
41
1
10
-28.5
20
-16.2974462376793
30
0
41
1
10
-28.5
20
-16.2317181619347
30
0
41
1
10
-28.5
20
-16.1619255341458
30
0
41
1
10
-28.5
20
-16.0896767899468
30
0
41
1
10
-28.5
20
-16.0141701800502
30
0
41
1
10
-28.5
20
-15.9346970807191
30
0
41
1
10
-28.5
20
-15.8734193510279
30
0
41
1
10
-28.5
20
-15.8103844230871
30
0
41
1
10
-28.5
20
-15.7456081924762
30
0
41
1
10
-28.5
20
-15.679103534252
30
0
41
1
10
-28.5
20
-15.6108850733398
30
0
41
1
10
-28.5
20
-15.5409672073329
30
0
41
1
10
-28.5
20
-15.4453363938053
30
0
41
1
10
-28.5
20
-15.3468344527492
30
0
41
1
10
-28.5
20
-15.2445501295776
30
0
41
1
10
-28.5
20
-15.1663215599361
30
0
41
1
10
-28.5
20
-15.086467321316
30
0
41
1
10
-28.5
20
-14.9776668655465
30
0
41
1
10
-28.5
20
-14.8661866667289
30
0
41
1
10
-28.5
20
-14.7654709460418
30
0
41
1
10
-28.5
20
-14.7070919001429
30
0
41
1
10
-28.5
20
-14.6481896525931
30
0
41
1
10
-28.5
20
-14.5737935062701
30
0
41
1
10
-28.5
20
-14.452347405446
30
0
41
1
10
-28.5
20
-14.328392039309
30
0
41
1
10
-28.5
20
-14.2007962250068
30
0
41
1
10
-28.5
20
-14.1037299370702
30
0
41
1
10
-28.5
20
-14.0051547249398
30
0
41
1
10
-28.5
20
-13.8715103854275
30
0
41
1
10
-28.5
20
-13.7355116125921
30
0
41
1
10
-28.5
20
-13.5959164434404
30
0
41
1
10
-28.5
20
-13.4899116562855
30
0
41
1
10
-28.5
20
-13.3824445445542
30
0
41
1
10
-28.5
20
-13.2369867372074
30
0
41
1
10
-28.5
20
-13.0893180117675
30
0
41
1
10
-28.5
20
-12.9380809438717
30
0
41
1
10
-28.5
20
-12.8234002933141
30
0
41
1
10
-28.5
20
-12.7072977423403
30
0
41
1
10
-28.5
20
-12.5503594172971
30
0
41
1
10
-28.5
20
-12.3913462461042
30
0
41
1
10
-28.5
20
-12.2287775174239
30
0
41
1
10
-28.5
20
-12.1056498404809
30
0
41
1
10
-28.5
20
-11.9811355648908
30
0
41
1
10
-28.5
20
-11.8130068303033
30
0
41
1
10
-28.5
20
-11.6429357656381
30
0
41
1
10
-28.5
20
-11.4693068596265
30
0
41
1
10
-28.5
20
-11.2938625632929
30
0
41
1
10
-28.5
20
-11.0718089525805
30
0
41
1
10
-28.5
20
-10.8452681286138
30
0
41
1
10
-28.5
20
-10.6608197986608
30
0
41
1
10
-28.5
20
-10.4745957936974
30
0
41
1
10
-28.5
20
-10.2866518813937
30
0
41
1
10
-28.5
20
-10.095113531911
30
0
41
1
10
-28.5
20
-9.95038952754791
30
0
41
1
10
-28.5
20
-9.80435457188474
30
0
41
1
10
-28.5
20
-9.65701506287493
30
0
41
1
10
-28.5
20
-9.50837344479851
30
0
41
1
10
-28.5
20
-9.30810991622687
30
0
41
1
10
-28.5
20
-9.05534969583795
30
0
41
1
10
-28.5
20
-8.79830467826935
30
0
41
1
10
-28.5
20
-8.58944234887983
30
0
41
1
10
-28.5
20
-8.43181570788792
30
0
41
1
10
-28.5
20
-8.27292308432649
30
0
41
1
10
-28.5
20
-8.11277014937085
30
0
41
1
10
-28.5
20
-7.95136176299607
30
0
41
1
10
-28.5
20
-7.73407184285281
30
0
41
1
10
-28.5
20
-7.46030865505762
30
0
41
1
10
-28.5
20
-7.12632144512304
30
0
41
1
10
-28.5
20
-6.84437400802861
30
0
41
1
10
-28.5
20
-6.61554357091572
30
0
41
1
10
-28.5
20
-6.4430903265563
30
0
41
1
10
-28.5
20
-6.26944357118299
30
0
41
1
10
-28.5
20
-6.09461208825527
30
0
41
1
10
-28.5
20
-5.91860495448574
30
0
41
1
10
-28.5
20
-5.74143237747984
30
0
41
1
10
-28.5
20
-5.56310445504445
30
0
41
1
10
-28.5
20
-5.3836315623424
30
0
41
1
10
-28.5
20
-5.20302670033013
30
0
41
1
10
-28.5
20
-5.0213044851898
30
0
41
1
10
-28.5
20
-4.83847943804497
30
0
41
1
10
-28.5
20
-4.65456683421039
30
0
41
1
10
-28.5
20
-4.46958461745552
30
0
41
1
10
-28.5
20
-4.28355297730505
30
0
41
1
10
-28.5
20
-4.09649259176149
30
0
41
1
10
-28.5
20
-3.90842799420628
30
0
41
1
10
-28.5
20
-3.75124942106058
30
0
41
1
10
-28.5
20
-3.62435506854834
30
0
41
1
10
-28.5
20
-3.52924322184194
30
0
41
1
10
-28.5
20
-3.43390157548939
30
0
41
1
10
-28.5
20
-3.30608709676801
30
0
41
1
10
-28.5
20
-3.14669074057869
30
0
41
1
10
-28.5
20
-2.98656948332391
30
0
41
1
10
-28.5
20
-2.85729428823933
30
0
41
1
10
-28.5
20
-2.72777279716709
30
0
41
1
10
-28.5
20
-2.59923374131702
30
0
41
1
10
-28.5
20
-2.46893613943036
30
0
41
1
10
-28.5
20
-2.37140757120355
30
0
41
1
10
-28.5
20
-2.27371679621319
30
0
41
1
10
-28.5
20
-2.17587292609085
30
0
41
1
10
-28.5
20
-2.07788042653632
30
0
41
1
10
-28.5
20
-1.97975003643623
30
0
41
1
10
-28.5
20
-1.88148718140701
30
0
41
1
10
-28.5
20
-1.78310084050699
30
0
41
1
10
-28.5
20
-1.6846006870125
30
0
41
1
10
-28.5
20
-1.58599188781935
30
0
41
1
10
-28.5
20
-1.48728656512981
30
0
41
1
10
-28.5
20
-1.38848913588993
30
0
41
1
10
-28.5
20
-1.28961134189754
30
0
41
1
10
-28.5
20
-1.19065859620267
30
0
41
1
10
-28.5
20
-1.09164077920423
30
0
41
1
10
-28.5
20
-0.992564112169902
30
0
41
1
10
-28.5
20
-0.893436883433509
30
0
41
1
10
-28.5
20
-0.794265459276204
30
0
41
1
10
-28.5
20
-0.695056784277028
30
0
41
1
10
-28.5
20
-0.595816495504096
30
0
41
1
10
-28.5
20
-0.496550594205587
30
0
41
1
10
-28.5
20
-0.397263840424017
30
0
41
1
10
-28.5
20
-0.297961388791691
30
0
41
1
10
-28.5
20
-0.198647127601248
30
0
41
1
10
-28.5
20
-0.0993254684406111
30
0
41
1
10
-28.5
20
5.4724865E-09
30
0
41
1
10
-28.5
20
0.0993254669347152
30
0
41
1
10
-28.5
20
0.198647102840709
30
0
41
1
10
-28.5000000000001
20
0.297961366795079
30
0
41
1
10
-28.5
20
0.397263853181784
30
0
41
1
10
-28.5
20
0.496550613209962
30
0
41
1
10
-28.5000000000001
20
0.595816468507223
30
0
41
1
10
-28.5
20
0.695056741362833
30
0
41
1
10
-28.5
20
0.794265471937138
30
0
41
1
10
-28.5
20
0.893436923932512
30
0
41
1
10
-28.5
20
0.992564090788449
30
0
41
1
10
-28.5000000000001
20
1.09164071478048
30
0
41
1
10
-28.5
20
1.19065859360987
30
0
41
1
10
-28.5
20
1.28961139997079
30
0
41
1
10
-28.5
20
1.38848914320587
30
0
41
1
10
-28.5
20
1.48728649469353
30
0
41
1
10
-28.5
20
1.58599184128093
30
0
41
1
10
-28.5
20
1.68460072925302
30
0
41
1
10
-28.5000000000001
20
1.78310090101277
30
0
41
1
10
-28.5
20
1.88148715614122
30
0
41
1
10
-28.5
20
1.97974994874613
30
0
41
1
10
-28.5000000000001
20
2.07788039572895
30
0
41
1
10
-28.5
20
2.20905952740142
30
0
41
1
10
-28.5
20
2.33842740009587
30
0
41
1
10
-28.5
20
2.46893611478751
30
0
41
1
10
-28.5000000000001
20
2.56629526768589
30
0
41
1
10
-28.5
20
2.66347976206251
30
0
41
1
10
-28.5
20
2.76048089001321
30
0
41
1
10
-28.5
20
2.85729421649609
30
0
41
1
10
-28.5
20
2.98656939879118
30
0
41
1
10
-28.5
20
3.1466907202342
30
0
41
1
10
-28.5
20
3.30608717079298
30
0
41
1
10
-28.5
20
3.43390158445518
30
0
41
1
10
-28.5
20
3.5292431593418
30
0
41
1
10
-28.5
20
3.62435497964387
30
0
41
1
10
-28.5
20
3.75124940963562
30
0
41
1
10
-28.5
20
3.90842813226229
30
0
41
1
10
-28.5
20
4.09649275318179
30
0
41
1
10
-28.5
20
4.28355302808066
30
0
41
1
10
-28.5
20
4.46958486845946
30
0
41
1
10
-28.5
20
4.65456716028001
30
0
41
1
10
-28.5
20
4.83847919931262
30
0
41
1
10
-28.5
20
5.02130422324717
30
0
41
1
10
-28.5
20
5.20302692387259
30
0
41
1
10
-28.5
20
5.38363134733163
30
0
41
1
10
-28.5
20
5.56310357372001
30
0
41
1
10
-28.5
20
5.74143189937953
30
0
41
1
10
-28.5
20
5.91860523667606
30
0
41
1
10
-28.5
20
6.09461246091769
30
0
41
1
10
-28.5
20
6.26944364545886
30
0
41
1
10
-28.5
20
6.44309029411605
30
0
41
1
10
-28.5000000000001
20
6.61554359890368
30
0
41
1
10
-28.5
20
6.84437402550566
30
0
41
1
10
-28.5000000000001
20
7.12632140637371
30
0
41
1
10
-28.5
20
7.46030866767526
30
0
41
1
10
-28.5
20
7.73407184255305
30
0
41
1
10
-28.5
20
7.9513617118449
30
0
41
1
10
-28.5
20
8.11277014047181
30
0
41
1
10
-28.5
20
8.27292311790589
30
0
41
1
10
-28.5
20
8.43181572672978
30
0
41
1
10
-28.5
20
8.58944232029054
30
0
41
1
10
-28.5
20
8.79830464348919
30
0
41
1
10
-28.5
20
9.05534970701541
30
0
41
1
10
-28.5
20
9.30810992365676
30
0
41
1
10
-28.5
20
9.50837340526908
30
0
41
1
10
-28.5
20
9.65701503611822
30
0
41
1
10
-28.5
20
9.8043545776041
30
0
41
1
10
-28.5000000000001
20
9.95038954775907
30
0
41
1
10
-28.5
20
10.0951135357909
30
0
41
1
10
-28.5
20
10.2866518533399
30
0
41
1
10
-28.5
20
10.4745957683654
30
0
41
1
10
-28.5
20
10.6608198079832
30
0
41
1
10
-28.5
20
10.8452681360071
30
0
41
1
10
-28.5
20
11.0718089327864
30
0
41
1
10
-28.5
20
11.2938625434425
30
0
41
1
10
-28.5
20
11.4693068645233
30
0
41
1
10
-28.5
20
11.6429357680779
30
0
41
1
10
-28.5
20
11.8130068133241
30
0
41
1
10
-28.5
20
11.9811355431936
30
0
41
1
10
-28.5
20
12.1056498288981
30
0
41
1
10
-28.5
20
12.2287775158425
30
0
41
1
10
-28.5
20
12.3913462445321
30
0
41
1
10
-28.5
20
12.550359403554
30
0
41
1
10
-28.5
20
12.7072977235968
30
0
41
1
10
-28.5
20
12.8234002792818
30
0
41
1
10
-28.5
20
12.9380809359595
30
0
41
1
10
-28.5
20
13.0893180063072
30
0
41
1
10
-28.5
20
13.2369867267196
30
0
41
1
10
-28.5
20
13.3824445287113
30
0
41
1
10
-28.5
20
13.4899116400767
30
0
41
1
10
-28.5
20
13.5959164295663
30
0
41
1
10
-28.5
20
13.7355116027341
30
0
41
1
10
-28.5
20
13.8715103774192
30
0
41
1
10
-28.5
20
14.0051547121625
30
0
41
1
10
-28.5
20
14.1037299196573
30
0
41
1
10
-28.5
20
14.2007962111626
30
0
41
1
10
-28.5
20
14.3283920102608
30
0
41
1
10
-28.5
20
14.4523474056541
30
0
41
1
10
-28.5
20
14.5737935545692
30
0
41
1
10
-28.5
20
14.6631805593238
30
0
41
1
10
-28.5
20
14.7510047173632
30
0
41
1
10
-28.5
20
14.8661866472663
30
0
41
1
10
-28.5
20
14.9776668598204
30
0
41
1
10
-28.5
20
15.0864673138636
30
0
41
1
10
-28.5
20
15.1663215412447
30
0
41
1
10
-28.5
20
15.2445501023872
30
0
41
1
10
-28.5
20
15.3468344295442
30
0
41
1
10
-28.5
20
15.4453363897877
30
0
41
1
10
-28.5
20
15.5409672008416
30
0
41
1
10
-28.5
20
15.6108850520675
30
0
41
1
10
-28.5
20
15.6791035033831
30
0
41
1
10
-28.5
20
15.745608166167
30
0
41
1
10
-28.5
20
15.8103844132607
30
0
41
1
10
-28.5
20
15.8734193498834
30
0
41
1
10
-28.5
20
15.9346970720351
30
0
41
1
10
-28.5
20
16.0141701499498
30
0
41
1
10
-28.5
20
16.0896767577217
30
0
41
1
10
-28.5
20
16.1619255301562
30
0
41
1
10
-28.5
20
16.2317181614776
30
0
41
1
10
-28.5
20
16.2974462059125
30
0
41
1
10
-28.5
20
16.3597331913305
30
0
41
1
10
-28.5
20
16.4194622625482
30
0
41
1
10
-28.5
20
16.4750169305147
30
0
41
1
10
-28.5
20
16.5269199075572
30
0
41
1
10
-28.5
20
16.5637763020886
30
0
41
1
10
-28.5
20
16.5986105790194
30
0
41
1
10
-28.5
20
16.642411510514
30
0
41
1
10
-28.5
20
16.6818353810987
30
0
41
1
10
-28.5
20
16.7172383450784
30
0
41
1
10
-28.5
20
16.7415855338906
30
0
41
1
10
-28.5
20
16.7637529731541
30
0
41
1
10
-28.5
20
16.783709883521
30
0
41
1
10
-28.5
20
16.8014255225769
30
0
41
1
10
-28.5
20
16.8168672741156
30
0
41
1
10
-28.5
20
16.8300011209595
30
0
41
1
10
-28.5
20
16.8407921788659
30
0
41
1
10
-28.5
20
16.8492032887544
30
0
41
1
10
-28.5
20
16.8551966776124
30
0
41
1
10
-28.5
20
16.8587320876464
30
0
41
1
10
-28.5
20
16.8597682913315
30
0
41
1
10
-28.5
20
16.8586401526357
30
0
41
1
10
-28.5
20
16.8573445251096
30
0
41
1
10
-28.5
20
16.8570624953996
30
0
0
SPLINE
5
13A
100
AcDbEntity
8
SK1
62
256
6
ByLayer
370
18
48
1
60
0
100
AcDbSpline
70
4
71
3
72
282
73
278
40
0
40
0
40
0
40
0
40
0.0031738224761175
40
0.0067481093018199
40
0.0103223961275224
40
0.0138966829532248
40
0.0174709697789272
40
0.0210452566046297
40
0.0246195434303321
40
0.0281938302560345
40
0.031768117081737
40
0.0353424039074394
40
0.0424909775588442
40
0.0460652643845467
40
0.0496395512102491
40
0.0532138380359515
40
0.056788124861654
40
0.0639366985130588
40
0.0675109853387613
40
0.0710852721644637
40
0.0782338458158686
40
0.081808132641571
40
0.0853824194672734
40
0.0925309931186783
40
0.0961052799443807
40
0.0996795667700831
40
0.103253853595786
40
0.106828140421488
40
0.11040242724719
40
0.113976714072893
40
0.117551000898595
40
0.121125287724298
40
0.128273861375703
40
0.131848148201405
40
0.135422435027107
40
0.13899672185281
40
0.142571008678512
40
0.149719582329917
40
0.15329386915562
40
0.155081012568471
40
0.156868155981322
40
0.160442442807024
40
0.164016729632727
40
0.171165303284132
40
0.174739590109834
40
0.178313876935537
40
0.181888163761239
40
0.185462450586941
40
0.192611024238346
40
0.196185311064049
40
0.199759597889751
40
0.203333884715454
40
0.206908171541156
40
0.214056745192561
40
0.217631032018263
40
0.221205318843966
40
0.224779605669668
40
0.228353892495371
40
0.235502466146776
40
0.239076752972478
40
0.24265103979818
40
0.246225326623883
40
0.249799613449585
40
0.25694818710099
40
0.260522473926693
40
0.264096760752395
40
0.2712453344038
40
0.278393908055205
40
0.281968194880907
40
0.28554248170661
40
0.292691055358014
40
0.296265342183717
40
0.299839629009419
40
0.303413915835122
40
0.306988202660824
40
0.310562489486527
40
0.314136776312229
40
0.321285349963634
40
0.328433923615039
40
0.332008210440741
40
0.335582497266444
40
0.339156784092146
40
0.342731070917848
40
0.346305357743551
40
0.349879644569253
40
0.357028218220658
40
0.364176791872063
40
0.371325365523468
40
0.37489965234917
40
0.378473939174873
40
0.382048226000575
40
0.385622512826278
40
0.38919679965198
40
0.392771086477683
40
0.396345373303385
40
0.399919660129087
40
0.40349394695479
40
0.407068233780492
40
0.410642520606195
40
0.414216807431897
40
0.4177910942576
40
0.421365381083302
40
0.424939667909004
40
0.428513954734707
40
0.432088241560409
40
0.433875384973261
40
0.435662528386112
40
0.437449671798963
40
0.439236815211814
40
0.442811102037517
40
0.446385388863219
40
0.44817253227607
40
0.449959675688921
40
0.453533962514624
40
0.455321105927475
40
0.457108249340326
40
0.458895392753178
40
0.460682536166029
40
0.46246967957888
40
0.464256822991731
40
0.466043966404583
40
0.467831109817434
40
0.469618253230285
40
0.471405396643136
40
0.473192540055987
40
0.474979683468839
40
0.47676682688169
40
0.478553970294541
40
0.480341113707392
40
0.482128257120243
40
0.483915400533095
40
0.485702543945946
40
0.487489687358797
40
0.489276830771648
40
0.491063974184499
40
0.492851117597351
40
0.494638261010202
40
0.496425404423053
40
0.498212547835904
40
0.499999691248755
40
0.501786834661607
40
0.503573978074458
40
0.505361121487309
40
0.50714826490016
40
0.508935408313012
40
0.510722551725863
40
0.512509695138714
40
0.514296838551565
40
0.516083981964416
40
0.517871125377268
40
0.519658268790119
40
0.52144541220297
40
0.523232555615821
40
0.525019699028673
40
0.526806842441524
40
0.528593985854375
40
0.530381129267226
40
0.532168272680077
40
0.533955416092929
40
0.53574255950578
40
0.537529702918631
40
0.539316846331482
40
0.542891133157185
40
0.544678276570036
40
0.546465419982887
40
0.548252563395738
40
0.55003970680859
40
0.551826850221441
40
0.553613993634292
40
0.557188280459994
40
0.560762567285697
40
0.562549710698548
40
0.564336854111399
40
0.56612399752425
40
0.567911140937102
40
0.571485427762804
40
0.575059714588507
40
0.578634001414209
40
0.582208288239911
40
0.585782575065614
40
0.589356861891316
40
0.592931148717019
40
0.596505435542721
40
0.600079722368424
40
0.603654009194126
40
0.607228296019828
40
0.610802582845531
40
0.614376869671233
40
0.617951156496936
40
0.621525443322638
40
0.625099730148341
40
0.628674016974043
40
0.635822590625448
40
0.642971164276853
40
0.650119737928258
40
0.65369402475396
40
0.657268311579662
40
0.660842598405365
40
0.664416885231067
40
0.66799117205677
40
0.671565458882472
40
0.678714032533877
40
0.685862606185282
40
0.689436893010984
40
0.693011179836687
40
0.696585466662389
40
0.700159753488092
40
0.703734040313794
40
0.707308327139497
40
0.714456900790901
40
0.718031187616604
40
0.721605474442306
40
0.728754048093711
40
0.735902621745116
40
0.739476908570818
40
0.743051195396521
40
0.750199769047926
40
0.753774055873628
40
0.75734834269933
40
0.760922629525033
40
0.764496916350735
40
0.77164549000214
40
0.775219776827843
40
0.778794063653545
40
0.782368350479248
40
0.78594263730495
40
0.793091210956355
40
0.796665497782057
40
0.80023978460776
40
0.803814071433462
40
0.807388358259165
40
0.814536931910569
40
0.818111218736272
40
0.821685505561974
40
0.825259792387677
40
0.828834079213379
40
0.835982652864784
40
0.839556939690487
40
0.843131226516189
40
0.846705513341891
40
0.850279800167594
40
0.857428373818999
40
0.861002660644701
40
0.864576947470403
40
0.868151234296106
40
0.871725521121808
40
0.878874094773213
40
0.882448381598916
40
0.886022668424618
40
0.889596955250321
40
0.893171242076023
40
0.896745528901726
40
0.900319815727428
40
0.90389410255313
40
0.907468389378833
40
0.914616963030238
40
0.91819124985594
40
0.921765536681642
40
0.928914110333047
40
0.93248839715875
40
0.936062683984452
40
0.943211257635857
40
0.946785544461559
40
0.950359831287262
40
0.953934118112964
40
0.957508404938667
40
0.964656978590072
40
0.968231265415774
40
0.971805552241476
40
0.975379839067179
40
0.978954125892881
40
0.982528412718584
40
0.986102699544286
40
0.989676986369989
40
0.993251273195691
40
0.996825560021393
40
1
40
1
40
1
40
1
41
1
10
-2.19999999999999
20
-17.5147865400081
30
0
41
1
10
-2.19999999999999
20
-17.5132387620131
30
0
41
1
10
-2.19999999999999
20
-17.5092374593042
30
0
41
1
10
-2.19999999999999
20
-17.5008423321234
30
0
41
1
10
-2.19999999999999
20
-17.4896606126055
30
0
41
1
10
-2.19999999999999
20
-17.4760589706817
30
0
41
1
10
-2.19999999999999
20
-17.4600756994924
30
0
41
1
10
-2.19999999999999
20
-17.4417480876219
30
0
41
1
10
-2.19999999999999
20
-17.4211116738093
30
0
41
1
10
-2.19999999999999
20
-17.398199993695
30
0
41
1
10
-2.19999999999999
20
-17.3730462873428
30
0
41
1
10
-2.19999999999999
20
-17.3365615705832
30
0
41
1
10
-2.19999999999999
20
-17.2957083328929
30
0
41
1
10
-2.19999999999999
20
-17.250613323192
30
0
41
1
10
-2.19999999999999
20
-17.2146924603873
30
0
41
1
10
-2.19999999999999
20
-17.1766986986672
30
0
41
1
10
-2.19999999999999
20
-17.123313852319
30
0
41
1
10
-2.19999999999999
20
-17.0658713913631
30
0
41
1
10
-2.19999999999999
20
-17.0044820909957
30
0
41
1
10
-2.19999999999999
20
-16.9404820184079
30
0
41
1
10
-2.19999999999999
20
-16.8725984731113
30
0
41
1
10
-2.19999999999999
20
-16.8009296884544
30
0
41
1
10
-2.19999999999999
20
-16.7267561914694
30
0
41
1
10
-2.19999999999999
20
-16.6488473199257
30
0
41
1
10
-2.19999999999999
20
-16.5672977619412
30
0
41
1
10
-2.19999999999999
20
-16.5043209901434
30
0
41
1
10
-2.19999999999999
20
-16.439549393056
30
0
41
1
10
-2.19999999999999
20
-16.3729983688048
30
0
41
1
10
-2.19999999999999
20
-16.3046816359758
30
0
41
1
10
-2.19999999999999
20
-16.2346146707391
30
0
41
1
10
-2.19999999999999
20
-16.1628111223414
30
0
41
1
10
-2.19999999999999
20
-16.0647793597711
30
0
41
1
10
-2.19999999999999
20
-15.9633135259672
30
0
41
1
10
-2.19999999999999
20
-15.8584914079188
30
0
41
1
10
-2.19999999999999
20
-15.7781982539187
30
0
41
1
10
-2.19999999999999
20
-15.6962433571227
30
0
41
1
10
-2.19999999999999
20
-15.5847743990242
30
0
41
1
10
-2.19999999999999
20
-15.4700110929875
30
0
41
1
10
-2.19999999999999
20
-15.3667724139347
30
0
41
1
10
-2.20000000000002
20
-15.3069761679617
30
0
41
1
10
-2.19999999999999
20
-15.2466455133785
30
0
41
1
10
-2.19999999999999
20
-15.1702261509224
30
0
41
1
10
-2.19999999999999
20
-15.0458464314392
30
0
41
1
10
-2.19999999999999
20
-14.9182892218295
30
0
41
1
10
-2.19999999999999
20
-14.7876243995297
30
0
41
1
10
-2.19999999999999
20
-14.6880675812844
30
0
41
1
10
-2.20000000000002
20
-14.5869647126432
30
0
41
1
10
-2.19999999999999
20
-14.4501162106047
30
0
41
1
10
-2.20000000000002
20
-14.3101885914782
30
0
41
1
10
-2.19999999999999
20
-14.1672492642274
30
0
41
1
10
-2.20000000000002
20
-14.0585319334344
30
0
41
1
10
-2.19999999999999
20
-13.9483131264862
30
0
41
1
10
-2.20000000000002
20
-13.7993681905533
30
0
41
1
10
-2.19999999999999
20
-13.6474264531923
30
0
41
1
10
-2.20000000000002
20
-13.4925540411334
30
0
41
1
10
-2.20000000000002
20
-13.3749248996582
30
0
41
1
10
-2.19999999999999
20
-13.2558316973182
30
0
41
1
10
-2.20000000000002
20
-13.0951031927999
30
0
41
1
10
-2.19999999999999
20
-12.9314463925932
30
0
41
1
10
-2.19999999999999
20
-12.7649271637091
30
0
41
1
10
-2.20000000000002
20
-12.6385945454976
30
0
41
1
10
-2.20000000000002
20
-12.510829004708
30
0
41
1
10
-2.20000000000002
20
-12.3385783781737
30
0
41
1
10
-2.20000000000002
20
-12.1634558646822
30
0
41
1
10
-2.19999999999999
20
-11.9855280067157
30
0
41
1
10
-2.19999999999999
20
-11.8057194023465
30
0
41
1
10
-2.20000000000002
20
-11.5774197477568
30
0
41
1
10
-2.20000000000002
20
-11.3444552554371
30
0
41
1
10
-2.20000000000002
20
-11.1553144582602
30
0
41
1
10
-2.20000000000002
20
-10.9643215989582
30
0
41
1
10
-2.20000000000002
20
-10.7705258416001
30
0
41
1
10
-2.20000000000002
20
-10.5740001651574
30
0
41
1
10
-2.20000000000002
20
-10.4252201002359
30
0
41
1
10
-2.20000000000002
20
-10.2750653748106
30
0
41
1
10
-2.20000000000002
20
-10.123538466054
30
0
41
1
10
-2.20000000000002
20
-9.97064123613964
30
0
41
1
10
-2.20000000000002
20
-9.76496631110049
30
0
41
1
10
-2.20000000000002
20
-9.50443394039922
30
0
41
1
10
-2.20000000000002
20
-9.23936571773675
30
0
41
1
10
-2.20000000000002
20
-9.02461799205525
30
0
41
1
10
-2.20000000000002
20
-8.86219304073117
30
0
41
1
10
-2.20000000000002
20
-8.69841428877766
30
0
41
1
10
-2.20000000000002
20
-8.53328407858575
30
0
41
1
10
-2.20000000000002
20
-8.36680341033821
30
0
41
1
10
-2.20000000000002
20
-8.14304411844032
30
0
41
1
10
-2.20000000000002
20
-7.85994708827315
30
0
41
1
10
-2.20000000000002
20
-7.51487112820209
30
0
41
1
10
-2.20000000000002
20
-7.22282328452872
30
0
41
1
10
-2.20000000000002
20
-6.98653550324826
30
0
41
1
10
-2.20000000000002
20
-6.80797159432129
30
0
41
1
10
-2.20000000000002
20
-6.62807271786153
30
0
41
1
10
-2.20000000000002
20
-6.44684092947378
30
0
41
1
10
-2.20000000000002
20
-6.26427796235188
30
0
41
1
10
-2.20000000000002
20
-6.08038609680852
30
0
41
1
10
-2.20000000000002
20
-5.89516734859464
30
0
41
1
10
-2.20000000000002
20
-5.70862461825791
30
0
41
1
10
-2.20000000000002
20
-5.52076102284181
30
0
41
1
10
-2.20000000000002
20
-5.33157993903225
30
0
41
1
10
-2.20000000000002
20
-5.14108500618136
30
0
41
1
10
-2.20000000000002
20
-4.94928076863457
30
0
41
1
10
-2.20000000000002
20
-4.75617249379653
30
0
41
1
10
-2.20000000000002
20
-4.56176617271484
30
0
41
1
10
-2.20000000000002
20
-4.36606871643775
30
0
41
1
10
-2.20000000000002
20
-4.169088511784
30
0
41
1
10
-2.20000000000002
20
-4.00386592221614
30
0
41
1
10
-2.20000000000002
20
-3.87107811616198
30
0
41
1
10
-2.20000000000002
20
-3.77116418775421
30
0
41
1
10
-2.20000000000002
20
-3.67093805397229
30
0
41
1
10
-2.20000000000002
20
-3.53690183437428
30
0
41
1
10
-2.20000000000002
20
-3.36855659963138
30
0
41
1
10
-2.20000000000002
20
-3.19919952332836
30
0
41
1
10
-2.20000000000002
20
-3.06314133551615
30
0
41
1
10
-2.20000000000002
20
-2.92668912429065
30
0
41
1
10
-2.20000000000002
20
-2.78960994504098
30
0
41
1
10
-2.20000000000002
20
-2.65200559968281
30
0
41
1
10
-2.20000000000002
20
-2.54851063247165
30
0
41
1
10
-2.20000000000002
20
-2.44473977839391
30
0
41
1
10
-2.20000000000002
20
-2.34069812940876
30
0
41
1
10
-2.20000000000002
20
-2.23639086291988
30
0
41
1
10
-2.20000000000002
20
-2.13182396747072
30
0
41
1
10
-2.20000000000002
20
-2.02700349385552
30
0
41
1
10
-2.20000000000002
20
-1.92193654804362
30
0
41
1
10
-2.20000000000002
20
-1.8166300937356
30
0
41
1
10
-2.20000000000002
20
-1.71109232444707
30
0
41
1
10
-2.20000000000002
20
-1.60533156181745
30
0
41
1
10
-2.20000000000002
20
-1.49935699380708
30
0
41
1
10
-2.20000000000002
20
-1.39317848503859
30
0
41
1
10
-2.20000000000002
20
-1.2868063464968
30
0
41
1
10
-2.20000000000002
20
-1.18025198377219
30
0
41
1
10
-2.20000000000002
20
-1.07352702949097
30
0
41
1
10
-2.20000000000002
20
-0.966644355262389
30
0
41
1
10
-2.20000000000002
20
-0.859617007920491
30
0
41
1
10
-2.20000000000002
20
-0.752459230354162
30
0
41
1
10
-2.20000000000002
20
-0.645185463980482
30
0
41
1
10
-2.20000000000002
20
-0.537811175438577
30
0
41
1
10
-2.20000000000002
20
-0.430352036900842
30
0
41
1
10
-2.20000000000002
20
-0.322824507999513
30
0
41
1
10
-2.20000000000002
20
-0.215245223931788
30
0
41
1
10
-2.20000000000002
20
-0.107631313716837
30
0
41
1
10
-2.20000000000002
20
-5.9909837E-09
30
0
41
1
10
-2.20000000000002
20
0.107631302158183
30
0
41
1
10
-2.20000000000002
20
0.215245213108545
30
0
41
1
10
-2.20000000000002
20
0.322824496958589
30
0
41
1
10
-2.20000000000002
20
0.430352024765995
30
0
41
1
10
-2.20000000000002
20
0.537811163545598
30
0
41
1
10
-2.20000000000002
20
0.645185453734172
30
0
41
1
10
-2.20000000000002
20
0.752459219961509
30
0
41
1
10
-2.20000000000002
20
0.859616995486334
30
0
41
1
10
-2.20000000000002
20
0.96664434311532
30
0
41
1
10
-2.20000000000002
20
1.073527020087
30
0
41
1
10
-2.20000000000002
20
1.18025197439016
30
0
41
1
10
-2.20000000000002
20
1.28680633401083
30
0
41
1
10
-2.20000000000002
20
1.39317847233161
30
0
41
1
10
-2.20000000000002
20
1.49935698477981
30
0
41
1
10
-2.20000000000002
20
1.60533155404698
30
0
41
1
10
-2.20000000000002
20
1.71109231328518
30
0
41
1
10
-2.20000000000002
20
1.81663008016324
30
0
41
1
10
-2.20000000000002
20
1.92193653735015
30
0
41
1
10
-2.20000000000002
20
2.02700348752293
30
0
41
1
10
-2.20000000000002
20
2.13182395998013
30
0
41
1
10
-2.20000000000002
20
2.23639085040648
30
0
41
1
10
-2.20000000000002
20
2.375450816946
30
0
41
1
10
-2.20000000000002
20
2.51402705629772
30
0
41
1
10
-2.20000000000002
20
2.65200561172494
30
0
41
1
10
-2.20000000000002
20
2.75522026664268
30
0
41
1
10
-2.20000000000002
20
2.85815023786418
30
0
41
1
10
-2.20000000000002
20
2.96079189341756
30
0
41
1
10
-2.20000000000002
20
3.06314133422208
30
0
41
1
10
-2.20000000000002
20
3.19919951970695
30
0
41
1
10
-2.20000000000002
20
3.36855658184018
30
0
41
1
10
-2.20000000000002
20
3.53690182548817
30
0
41
1
10
-2.20000000000002
20
3.67093805129471
30
0
41
1
10
-2.20000000000002
20
3.77116418570387
30
0
41
1
10
-2.20000000000002
20
3.87107810854147
30
0
41
1
10
-2.20000000000002
20
4.00386590607064
30
0
41
1
10
-2.20000000000002
20
4.16908849962459
30
0
41
1
10
-2.20000000000002
20
4.36606873641344
30
0
41
1
10
-2.20000000000002
20
4.56176620564526
30
0
41
1
10
-2.20000000000002
20
4.75617251627347
30
0
41
1
10
-2.20000000000002
20
4.94928086714646
30
0
41
1
10
-2.20000000000002
20
5.14108511996025
30
0
41
1
10
-2.20000000000002
20
5.33157993388585
30
0
41
1
10
-2.20000000000002
20
5.52076103085633
30
0
41
1
10
-2.20000000000002
20
5.708624690926
30
0
41
1
10
-2.20000000000002
20
5.89516728223867
30
0
41
1
10
-2.20000000000002
20
6.0803858592752
30
0
41
1
10
-2.20000000000002
20
6.26427776637016
30
0
41
1
10
-2.20000000000002
20
6.44684086969582
30
0
41
1
10
-2.20000000000002
20
6.62807270531451
30
0
41
1
10
-2.20000000000002
20
6.80797157864473
30
0
41
1
10
-2.20000000000002
20
6.98653548716825
30
0
41
1
10
-2.20000000000002
20
7.22282329277962
30
0
41
1
10
-2.20000000000002
20
7.51487111531026
30
0
41
1
10
-2.20000000000002
20
7.85994707617317
30
0
41
1
10
-2.20000000000002
20
8.14304412571011
30
0
41
1
10
-2.20000000000002
20
8.36680339868337
30
0
41
1
10
-2.20000000000002
20
8.53328405958746
30
0
41
1
10
-2.20000000000002
20
8.69841428000512
30
0
41
1
10
-2.20000000000002
20
8.86219304475887
30
0
41
1
10
-2.20000000000002
20
9.02461799380217
30
0
41
1
10
-2.20000000000002
20
9.23936570098883
30
0
41
1
10
-2.20000000000002
20
9.50443392738597
30
0
41
1
10
-2.20000000000002
20
9.76496631801302
30
0
41
1
10
-2.20000000000002
20
9.97064122920807
30
0
41
1
10
-2.20000000000002
20
10.1235384488298
30
0
41
1
10
-2.20000000000002
20
10.2750653600417
30
0
41
1
10
-2.20000000000002
20
10.4252200954492
30
0
41
1
10
-2.20000000000002
20
10.5740001677826
30
0
41
1
10
-2.20000000000002
20
10.7705258372791
30
0
41
1
10
-2.20000000000002
20
10.96432157968
30
0
41
1
10
-2.20000000000002
20
11.1553144466797
30
0
41
1
10
-2.20000000000002
20
11.344455256194
30
0
41
1
10
-2.20000000000002
20
11.5774197426994
30
0
41
1
10
-2.20000000000002
20
11.8057193844339
30
0
41
1
10
-2.20000000000002
20
11.9855279960913
30
0
41
1
10
-2.20000000000002
20
12.1634558634281
30
0
41
1
10
-2.20000000000002
20
12.3385783725546
30
0
41
1
10
-2.20000000000002
20
12.510828990928
30
0
41
1
10
-2.20000000000002
20
12.6385945304865
30
0
41
1
10
-2.20000000000002
20
12.7649271524075
30
0
41
1
10
-2.20000000000002
20
12.9314463879873
30
0
41
1
10
-2.20000000000002
20
13.0951031858018
30
0
41
1
10
-2.20000000000002
20
13.2558316845062
30
0
41
1
10
-2.20000000000002
20
13.3749248852381
30
0
41
1
10
-2.20000000000002
20
13.4925540283558
30
0
41
1
10
-2.20000000000002
20
13.6474264445925
30
0
41
1
10
-2.20000000000002
20
13.7993681823229
30
0
41
1
10
-2.20000000000002
20
13.9483131149779
30
0
41
1
10
-2.20000000000002
20
14.0585319196999
30
0
41
1
10
-2.20000000000002
20
14.1672492498436
30
0
41
1
10
-2.20000000000002
20
14.310188578504
30
0
41
1
10
-2.20000000000002
20
14.4501162009323
30
0
41
1
10
-2.20000000000002
20
14.5869647024964
30
0
41
1
10
-2.20000000000002
20
14.6880675684927
30
0
41
1
10
-2.20000000000002
20
14.7876243835494
30
0
41
1
10
-2.20000000000002
20
14.9182892137509
30
0
41
1
10
-2.20000000000002
20
15.0458463802595
30
0
41
1
10
-2.20000000000002
20
15.1702262286607
30
0
41
1
10
-2.20000000000002
20
15.2619258251736
30
0
41
1
10
-2.20000000000002
20
15.3520264687641
30
0
41
1
10
-2.20000000000002
20
15.4700110710185
30
0
41
1
10
-2.20000000000002
20
15.5847743861311
30
0
41
1
10
-2.20000000000002
20
15.6962433497342
30
0
41
1
10
-2.20000000000002
20
15.7781982427732
30
0
41
1
10
-2.20000000000002
20
15.8584913887799
30
0
41
1
10
-2.20000000000002
20
15.9633134995801
30
0
41
1
10
-2.20000000000002
20
16.0647793469533
30
0
41
1
10
-2.20000000000002
20
16.1628111167189
30
0
41
1
10
-2.20000000000002
20
16.2346146587631
30
0
41
1
10
-2.20000000000002
20
16.3046816133433
30
0
41
1
10
-2.20000000000002
20
16.3729983406747
30
0
41
1
10
-2.20000000000002
20
16.4395493732765
30
0
41
1
10
-2.20000000000002
20
16.5043209819811
30
0
41
1
10
-2.20000000000002
20
16.5672977573629
30
0
41
1
10
-2.20000000000002
20
16.6488472996884
30
0
41
1
10
-2.20000000000002
20
16.72675615712
30
0
41
1
10
-2.20000000000002
20
16.8009296734765
30
0
41
1
10
-2.20000000000002
20
16.8725984751516
30
0
41
1
10
-2.20000000000002
20
16.9404819965209
30
0
41
1
10
-2.20000000000002
20
17.0044820563696
30
0
41
1
10
-2.20000000000002
20
17.0658713749173
30
0
41
1
10
-2.20000000000002
20
17.1233138560685
30
0
41
1
10
-2.19999999999999
20
17.1766986759847
30
0
41
1
10
-2.20000000000002
20
17.2146924230801
30
0
41
1
10
-2.20000000000002
20
17.2506132986913
30
0
41
1
10
-2.20000000000002
20
17.2957083393221
30
0
41
1
10
-2.19999999999999
20
17.3365615480365
30
0
41
1
10
-2.20000000000002
20
17.373046254225
30
0
41
1
10
-2.20000000000002
20
17.3981999720817
30
0
41
1
10
-2.20000000000002
20
17.4211116708093
30
0
41
1
10
-2.19999999999999
20
17.4417480829298
30
0
41
1
10
-2.20000000000002
20
17.4600756660117
30
0
41
1
10
-2.20000000000002
20
17.4760589345483
30
0
41
1
10
-2.20000000000002
20
17.4896606050754
30
0
41
1
10
-2.20000000000002
20
17.5008423359265
30
0
41
1
10
-2.19999999999999
20
17.5092379416274
30
0
41
1
10
-2.19999999999999
20
17.5132394888339
30
0
41
1
10
-2.19999999999999
20
17.5147874584678
30
0
0
SPLINE
5
13B
100
AcDbEntity
8
SK1
62
256
6
ByLayer
370
18
48
1
60
0
100
AcDbSpline
70
4
71
3
72
30
73
26
40
0
40
0
40
0
40
0
40
0.0312500000000001
40
0.0312500000000001
40
0.0625000000000002
40
0.0625000000000002
40
0.0937500000000004
40
0.0937500000000004
40
0.125000000000001
40
0.125000000000001
40
0.156250000000001
40
0.156250000000001
40
0.187500000000001
40
0.187500000000001
40
0.250000000000001
40
0.250000000000001
40
0.312500000000002
40
0.312500000000002
40
0.375000000000002
40
0.375000000000002
40
0.500000000000001
40
0.500000000000001
40
0.750000000000001
40
0.750000000000001
40
1
40
1
40
1
40
1
41
1
10
-0.394976888875306
20
-5.38678189578292
30
0
41
1
10
-0.411121004362656
20
-5.40049655899082
30
0
41
1
10
-0.428233279222695
20
-5.41311535582494
30
0
41
1
10
-0.465309612185848
20
-5.43514865455293
30
0
41
1
10
-0.485247093192101
20
-5.44447298609396
30
0
41
1
10
-0.527143852803988
20
-5.4574915857238
30
0
41
1
10
-0.549766809572617
20
-5.46123817959727
30
0
41
1
10
-0.594625996823424
20
-5.46134910311002
30
0
41
1
10
-0.617367334499079
20
-5.45772890381821
30
0
41
1
10
-0.660019264070229
20
-5.44466656582574
30
0
41
1
10
-0.680396026591694
20
-5.43519415358128
30
0
41
1
10
-0.717834279017922
20
-5.41311904009154
30
0
41
1
10
-0.735191453829231
20
-5.40043958603155
30
0
41
1
10
-0.784451320222132
20
-5.35899057781575
30
0
41
1
10
-0.812480141629862
20
-5.32795417138183
30
0
41
1
10
-0.863579984272121
20
-5.26275715404722
30
0
41
1
10
-0.886669998197959
20
-5.22827369564413
30
0
41
1
10
-0.929038370947637
20
-5.15814871783957
30
0
41
1
10
-0.948360494973514
20
-5.12242801873623
30
0
41
1
10
-1.00258384146318
20
-5.01386242026874
30
0
41
1
10
-1.03381196991217
20
-4.93963585912675
30
0
41
1
10
-1.11904493500305
20
-4.71333034940329
30
0
41
1
10
-1.16474908109114
20
-4.55729858564041
30
0
41
1
10
-1.24418351237225
20
-4.24105736808266
30
0
41
1
10
-1.27767890904269
20
-4.0805998576204
30
0
41
1
10
-1.30710678118658
20
-3.91806548057696
30
0
0
SPLINE
5
13C
100
AcDbEntity
8
SK1
62
256
6
ByLayer
370
18
48
1
60
0
100
AcDbSpline
70
4
71
3
72
20
73
16
40
0
40
0
40
0
40
0
40
0.25
40
0.25
40
0.375000000000001
40
0.375000000000001
40
0.437500000000001
40
0.437500000000001
40
0.5
40
0.5
40
0.75
40
0.75
40
0.875
40
0.875
40
1
40
1
40
1
40
1
41
1
10
-1.30710678118658
20
3.91806548153784
30
0
41
1
10
-1.41969318564742
20
3.29623458683108
30
0
41
1
10
-1.52084354897517
20
2.66117243128369
30
0
41
1
10
-1.63284681317134
20
1.68012366058511
30
0
41
1
10
-1.66339462407876
20
1.34828924094137
30
0
41
1
10
-1.69495092810294
20
0.841576693078707
30
0
41
1
10
-1.70306621291687
20
0.670912483956499
30
0
41
1
10
-1.713791058742
20
0.332128346739978
30
0
41
1
10
-1.71645137733407
20
0.163332447807818
30
0
41
1
10
-1.7161910106463
20
-0.677685636180769
30
0
41
1
10
-1.67125810013118
20
-1.34087191657739
30
0
41
1
10
-1.55943898894102
20
-2.32447859217885
30
0
41
1
10
-1.51483394489836
20
-2.6512039966245
30
0
41
1
10
-1.41687703207163
20
-3.29188260724433
30
0
41
1
10
-1.36340682815236
20
-3.60711221095696
30
0
41
1
10
-1.30710678118658
20
-3.91806548057698
30
0
0
SPLINE
5
13D
100
AcDbEntity
8
SK1
62
256
6
ByLayer
370
18
48
1
60
0
100
AcDbSpline
70
4
71
3
72
284
73
280
40
0
40
0
40
0
40
0
40
0.000142602997814
40
0.0037130105025911
40
0.0072834180073682
40
0.0108538255121454
40
0.0144242330169225
40
0.0179946405216996
40
0.0215650480264768
40
0.0251354555312539
40
0.0287058630360311
40
0.0322762705408082
40
0.0358466780455853
40
0.0429874930551396
40
0.0465579005599168
40
0.0501283080646939
40
0.053698715569471
40
0.0572691230742482
40
0.0644099380838025
40
0.0679803455885796
40
0.0715507530933567
40
0.078691568102911
40
0.0822619756076882
40
0.0858323831124653
40
0.0929731981220196
40
0.0965436056267967
40
0.100114013131574
40
0.103684420636351
40
0.107254828141128
40
0.110825235645905
40
0.114395643150682
40
0.117966050655459
40
0.121536458160237
40
0.128677273169791
40
0.132247680674568
40
0.135818088179345
40
0.139388495684122
40
0.1429589031889
40
0.150099718198454
40
0.153670125703231
40
0.155455329455619
40
0.157240533208008
40
0.160810940712785
40
0.164381348217562
40
0.171522163227117
40
0.175092570731894
40
0.178662978236671
40
0.182233385741448
40
0.185803793246225
40
0.192944608255779
40
0.196515015760556
40
0.200085423265334
40
0.203655830770111
40
0.207226238274888
40
0.214367053284442
40
0.217937460789219
40
0.221507868293996
40
0.225078275798774
40
0.228648683303551
40
0.235789498313105
40
0.239359905817882
40
0.242930313322659
40
0.246500720827436
40
0.250071128332214
40
0.257211943341768
40
0.260782350846545
40
0.264352758351322
40
0.271493573360876
40
0.278634388370431
40
0.282204795875208
40
0.285775203379985
40
0.292916018389539
40
0.296486425894317
40
0.300056833399094
40
0.303627240903871
40
0.307197648408648
40
0.310768055913425
40
0.314338463418202
40
0.321479278427756
40
0.328620093437311
40
0.332190500942088
40
0.335760908446865
40
0.339331315951642
40
0.342901723456419
40
0.346472130961196
40
0.350042538465974
40
0.357183353475528
40
0.364324168485082
40
0.371464983494636
40
0.375035390999414
40
0.378605798504191
40
0.382176206008968
40
0.385746613513745
40
0.389317021018522
40
0.392887428523299
40
0.396457836028076
40
0.400028243532853
40
0.403598651037631
40
0.407169058542408
40
0.410739466047185
40
0.414309873551962
40
0.417880281056739
40
0.421450688561516
40
0.425021096066294
40
0.428591503571071
40
0.432161911075848
40
0.433947114828236
40
0.435732318580625
40
0.437517522333013
40
0.439302726085402
40
0.442873133590179
40
0.446443541094956
40
0.448228744847345
40
0.450013948599733
40
0.453584356104511
40
0.455369559856899
40
0.457154763609288
40
0.458939967361676
40
0.460725171114065
40
0.462510374866453
40
0.464295578618842
40
0.466080782371231
40
0.467865986123619
40
0.469651189876008
40
0.471436393628396
40
0.473221597380785
40
0.475006801133173
40
0.476792004885562
40
0.478577208637951
40
0.480362412390339
40
0.482147616142728
40
0.483932819895116
40
0.485718023647505
40
0.487503227399893
40
0.489288431152282
40
0.49107363490467
40
0.492858838657059
40
0.494644042409448
40
0.496429246161836
40
0.498214449914225
40
0.499999653666613
40
0.501784857419002
40
0.50357006117139
40
0.505355264923779
40
0.507140468676168
40
0.508925672428556
40
0.510710876180945
40
0.512496079933333
40
0.514281283685722
40
0.51606648743811
40
0.517851691190499
40
0.519636894942888
40
0.521422098695276
40
0.523207302447665
40
0.524992506200053
40
0.526777709952442
40
0.52856291370483
40
0.530348117457219
40
0.532133321209608
40
0.533918524961996
40
0.535703728714385
40
0.537488932466773
40
0.539274136219162
40
0.542844543723939
40
0.544629747476328
40
0.546414951228716
40
0.548200154981105
40
0.549985358733493
40
0.551770562485882
40
0.55355576623827
40
0.557126173743048
40
0.560696581247825
40
0.562481785000213
40
0.564266988752602
40
0.56605219250499
40
0.567837396257379
40
0.571407803762156
40
0.574978211266933
40
0.57854861877171
40
0.582119026276487
40
0.585689433781265
40
0.589259841286042
40
0.592830248790819
40
0.596400656295596
40
0.599971063800373
40
0.60354147130515
40
0.607111878809927
40
0.610682286314705
40
0.614252693819482
40
0.617823101324259
40
0.621393508829036
40
0.624963916333813
40
0.62853432383859
40
0.635675138848145
40
0.642815953857699
40
0.649956768867253
40
0.65352717637203
40
0.657097583876807
40
0.660667991381585
40
0.664238398886362
40
0.667808806391139
40
0.671379213895916
40
0.67852002890547
40
0.685660843915024
40
0.689231251419802
40
0.692801658924579
40
0.696372066429356
40
0.699942473934133
40
0.70351288143891
40
0.707083288943687
40
0.714224103953242
40
0.717794511458019
40
0.721364918962796
40
0.72850573397235
40
0.735646548981904
40
0.739216956486682
40
0.742787363991459
40
0.749928179001013
40
0.75349858650579
40
0.757068994010567
40
0.760639401515344
40
0.764209809020122
40
0.771350624029676
40
0.774921031534453
40
0.77849143903923
40
0.782061846544007
40
0.785632254048784
40
0.792773069058339
40
0.796343476563116
40
0.799913884067893
40
0.80348429157267
40
0.807054699077447
40
0.814195514087002
40
0.817765921591779
40
0.821336329096556
40
0.824906736601333
40
0.82847714410611
40
0.835617959115664
40
0.839188366620441
40
0.842758774125219
40
0.846329181629996
40
0.849899589134773
40
0.857040404144327
40
0.860610811649104
40
0.864181219153881
40
0.867751626658659
40
0.871322034163436
40
0.87846284917299
40
0.882033256677767
40
0.885603664182544
40
0.889174071687322
40
0.892744479192099
40
0.896314886696876
40
0.899885294201653
40
0.90345570170643
40
0.907026109211207
40
0.914166924220761
40
0.917737331725539
40
0.921307739230316
40
0.92844855423987
40
0.932018961744647
40
0.935589369249424
40
0.942730184258978
40
0.946300591763756
40
0.949870999268533
40
0.95344140677331
40
0.957011814278087
40
0.964152629287641
40
0.967723036792418
40
0.971293444297196
40
0.974863851801973
40
0.97843425930675
40
0.982004666811527
40
0.985575074316304
40
0.989145481821081
40
0.992715889325858
40
0.996286296830636
40
0.999856704335413
40
1
40
1
40
1
40
1
41
1
10
-1.99503997793928
20
-17.3206885213302
30
0
41
1
10
-1.99503997793928
20
-17.3206247461679
30
0
41
1
10
-1.99503997793926
20
-17.3189467408786
30
0
41
1
10
-1.99503997793928
20
-17.3147637210185
30
0
41
1
10
-1.99503997793928
20
-17.3061342543252
30
0
41
1
10
-1.99503997793928
20
-17.2950677779805
30
0
41
1
10
-1.99503997793928
20
-17.2816041393821
30
0
41
1
10
-1.99503997793928
20
-17.2657806121613
30
0
41
1
10
-1.99503997793928
20
-17.2476335178127
30
0
41
1
10
-1.99503997793928
20
-17.2271975480507
30
0
41
1
10
-1.99503997793928
20
-17.204505416066
30
0
41
1
10
-1.99503997793928
20
-17.1795896288677
30
0
41
1
10
-1.99503997793928
20
-17.1434240170936
30
0
41
1
10
-1.99503997793928
20
-17.1029924178939
30
0
41
1
10
-1.99503997793928
20
-17.0582791544304
30
0
41
1
10
-1.99503997793928
20
-17.0226788299273
30
0
41
1
10
-1.99503997793928
20
-16.9850205784631
30
0
41
1
10
-1.99503997793928
20
-16.9320728583858
30
0
41
1
10
-1.99503997793928
20
-16.8751872797734
30
0
41
1
10
-1.99503997793928
20
-16.8142877377232
30
0
41
1
10
-1.99503997793928
20
-16.7507930080793
30
0
41
1
10
-1.99503997793928
20
-16.6835453043615
30
0
41
1
10
-1.99503997793928
20
-16.6124299668847
30
0
41
1
10
-1.99503997793928
20
-16.5388242523809
30
0
41
1
10
-1.99503997793928
20
-16.4616240235723
30
0
41
1
10
-1.99503997793928
20
-16.3806869997558
30
0
41
1
10
-1.99503997793928
20
-16.3182114280861
30
0
41
1
10
-1.99503997793928
20
-16.2539521307207
30
0
41
1
10
-1.99503997793928
20
-16.1879246525291
30
0
41
1
10
-1.99503997793928
20
-16.1201424632647
30
0
41
1
10
-1.99503997793928
20
-16.0506207879892
30
0
41
1
10
-1.99503997793928
20
-15.9793734967039
30
0
41
1
10
-1.99503997793928
20
-15.8820499896637
30
0
41
1
10
-1.99503997793928
20
-15.781458474053
30
0
41
1
10
-1.99503997793928
20
-15.677384979663
30
0
41
1
10
-1.99503997793928
20
-15.5977008570348
30
0
41
1
10
-1.99503997793928
20
-15.5163656330196
30
0
41
1
10
-1.99503997793928
20
-15.4056838559475
30
0
41
1
10
-1.99503997793928
20
-15.2918890331241
30
0
41
1
10
-1.99503997793928
20
-15.1893946011099
30
0
41
1
10
-1.99503997793928
20
-15.130016414734
30
0
41
1
10
-1.99503997793928
20
-15.070107125687
30
0
41
1
10
-1.99503997793928
20
-14.9942845913974
30
0
41
1
10
-1.99503997793928
20
-14.8707702595594
30
0
41
1
10
-1.99503997793928
20
-14.7442755571137
30
0
41
1
10
-1.99503997793931
20
-14.614516060936
30
0
41
1
10
-1.99503997793931
20
-14.5156939237825
30
0
41
1
10
-1.99503997793928
20
-14.4153366880849
30
0
41
1
10
-1.99503997793931
20
-14.2794333813788
30
0
41
1
10
-1.99503997793928
20
-14.1406647319193
30
0
41
1
10
-1.99503997793928
20
-13.99871189727
30
0
41
1
10
-1.99503997793928
20
-13.8907947392413
30
0
41
1
10
-1.99503997793931
20
-13.7813876543746
30
0
41
1
10
-1.99503997793928
20
-13.6334713858817
30
0
41
1
10
-1.99503997793931
20
-13.4827901435456
30
0
41
1
10
-1.99503997793931
20
-13.3289901210133
30
0
41
1
10
-1.99503997793931
20
-13.2122307543484
30
0
41
1
10
-1.99503997793931
20
-13.0940197637218
30
0
41
1
10
-1.99503997793928
20
-12.9344093235711
30
0
41
1
10
-1.99503997793931
20
-12.7721223466594
30
0
41
1
10
-1.99503997793931
20
-12.6067684751262
30
0
41
1
10
-1.99503997793928
20
-12.4813812819682
30
0
41
1
10
-1.99503997793931
20
-12.3545748313203
30
0
41
1
10
-1.99503997793931
20
-12.1835401209566
30
0
41
1
10
-1.99503997793931
20
-12.0099077334538
30
0
41
1
10
-1.99503997793931
20
-11.8332480225582
30
0
41
1
10
-1.99503997793928
20
-11.6547268446385
30
0
41
1
10
-1.99503997793931
20
-11.4282697094187
30
0
41
1
10
-1.99503997793931
20
-11.1972001338813
30
0
41
1
10
-1.99503997793928
20
-11.0094435667743
30
0
41
1
10
-1.99503997793931
20
-10.8198574709635
30
0
41
1
10
-1.99503997793931
20
-10.6277879483349
30
0
41
1
10
-1.99503997793931
20
-10.432733482583
30
0
41
1
10
-1.99503997793931
20
-10.2851499142426
30
0
41
1
10
-1.99503997793931
20
-10.1362104789651
30
0
41
1
10
-1.99503997793931
20
-9.98591881051331
30
0
41
1
10
-1.99503997793931
20
-9.83427694277646
30
0
41
1
10
-1.99503997793931
20
-9.6301983246166
30
0
41
1
10
-1.99503997793931
20
-9.37195865915049
30
0
41
1
10
-1.99503997793931
20
-9.10925720032844
30
0
41
1
10
-1.99503997793931
20
-8.89624560664996
30
0
41
1
10
-1.99503997793931
20
-8.73523610803539
30
0
41
1
10
-1.99503997793931
20
-8.57289871422529
30
0
41
1
10
-1.99503997793931
20
-8.40923674956807
30
0
41
1
10
-1.99503997793931
20
-8.24425235284596
30
0
41
1
10
-1.99503997793931
20
-8.02240145976876
30
0
41
1
10
-1.99503997793931
20
-7.74205781809903
30
0
41
1
10
-1.99503997793931
20
-7.40025292645404
30
0
41
1
10
-1.99503997793931
20
-7.11118459991687
30
0
41
1
10
-1.99503997793931
20
-6.87709665926306
30
0
41
1
10
-1.99503997793931
20
-6.70033533418757
30
0
41
1
10
-1.99503997793931
20
-6.52228076981257
30
0
41
1
10
-1.99503997793931
20
-6.34293700639157
30
0
41
1
10
-1.99503997793931
20
-6.16230794338162
30
0
41
1
10
-1.99503997793931
20
-5.98039819956611
30
0
41
1
10
-1.99503997793931
20
-5.79721217482029
30
0
41
1
10
-1.99503997793931
20
-5.61275497462714
30
0
41
1
10
-1.99503997793931
20
-5.42703263168386
30
0
41
1
10
-1.99503997793931
20
-5.24005183821342
30
0
41
1
10
-1.99503997793931
20
-5.05181944357972
30
0
41
1
10
-1.99503997793931
20
-4.86234315765492
30
0
41
1
10
-1.99503997793931
20
-4.67163198724228
30
0
41
1
10
-1.99503997793931
20
-4.47969611179559
30
0
41
1
10
-1.99503997793931
20
-4.28654650347454
30
0
41
1
10
-1.99503997793931
20
-4.09219631216948
30
0
41
1
10
-1.99503997793931
20
-3.92934662557204
30
0
41
1
10
-1.99503997793931
20
-3.79829732832764
30
0
41
1
10
-1.99503997793931
20
-3.69979996514493
30
0
41
1
10
-1.99503997793931
20
-3.60101470543907
30
0
41
1
10
-1.99503997793931
20
-3.46881383607317
30
0
41
1
10
-1.99503997793931
20
-3.30310842941958
30
0
41
1
10
-1.99503997793931
20
-3.13647582573117
30
0
41
1
10
-1.99503997793931
20
-3.00241855173456
30
0
41
1
10
-1.99503997793931
20
-2.86801083241158
30
0
41
1
10
-1.99503997793931
20
-2.73345090264118
30
0
41
1
10
-1.99503997793931
20
-2.59800197223717
30
0
41
1
10
-1.99503997793931
20
-2.49626703199883
30
0
41
1
10
-1.99503997793931
20
-2.39428973936722
30
0
41
1
10
-1.99503997793931
20
-2.29207637206397
30
0
41
1
10
-1.99503997793931
20
-2.18963189754737
30
0
41
1
10
-1.99503997793931
20
-2.08696370566375
30
0
41
1
10
-1.99503997793931
20
-1.98407766278629
30
0
41
1
10
-1.99503997793931
20
-1.88098142742643
30
0
41
1
10
-1.99503997793931
20
-1.77768276258209
30
0
41
1
10
-1.99503997793931
20
-1.67418896894682
30
0
41
1
10
-1.99503997793931
20
-1.57050948928742
30
0
41
1
10
-1.99503997793931
20
-1.46665210416359
30
0
41
1
10
-1.99503997793931
20
-1.36262723194542
30
0
41
1
10
-1.99503997793931
20
-1.25844373877697
30
0
41
1
10
-1.99503997793931
20
-1.15411258033265
30
0
41
1
10
-1.99503997793931
20
-1.04964379294299
30
0
41
1
10
-1.99503997793931
20
-0.945048896197648
30
0
41
1
10
-1.99503997793931
20
-0.840338966235578
30
0
41
1
10
-1.99503997793931
20
-0.735526093018507
30
0
41
1
10
-1.99503997793931
20
-0.630622120770227
30
0
41
1
10
-1.99503997793931
20
-0.525639723935825
30
0
41
1
10
-1.99503997793931
20
-0.420591355720489
30
0
41
1
10
-1.99503997793931
20
-0.315490140896543
30
0
41
1
10
-1.99503997793931
20
-0.210348954454048
30
0
41
1
10
-1.99503997793931
20
-0.10518117389941
30
0
41
1
10
-1.99503997793931
20
-2.6093687E-09
30
0
41
1
10
-1.99503997793931
20
0.10518116530622
30
0
41
1
10
-1.99503997793931
20
0.210348939519435
30
0
41
1
10
-1.99503997793931
20
0.315490126623814
30
0
41
1
10
-1.99503997793931
20
0.420591350928703
30
0
41
1
10
-1.99503997793931
20
0.525639721157262
30
0
41
1
10
-1.99503997793931
20
0.63062210558266
30
0
41
1
10
-1.99503997793931
20
0.735526073032332
30
0
41
1
10
-1.99503997793931
20
0.840338961204196
30
0
41
1
10
-1.99503997793931
20
0.945048899580627
30
0
41
1
10
-1.99503997793931
20
1.04964378000579
30
0
41
1
10
-1.99503997793931
20
1.15411255471386
30
0
41
1
10
-1.99503997793931
20
1.25844372920938
30
0
41
1
10
-1.99503997793931
20
1.36262724011792
30
0
41
1
10
-1.99503997793931
20
1.46665209995737
30
0
41
1
10
-1.99503997793931
20
1.57050946303122
30
0
41
1
10
-1.99503997793931
20
1.67418894734925
30
0
41
1
10
-1.99503997793931
20
1.77768276547397
30
0
41
1
10
-1.99503997793931
20
1.88098143773604
30
0
41
1
10
-1.99503997793931
20
1.98407765086858
30
0
41
1
10
-1.99503997793931
20
2.08696367451515
30
0
41
1
10
-1.99503997793931
20
2.18963187963746
30
0
41
1
10
-1.99503997793931
20
2.3263670801044
30
0
41
1
10
-1.99503997793931
20
2.46222694501739
30
0
41
1
10
-1.99503997793931
20
2.5980019734576
30
0
41
1
10
-1.99503997793931
20
2.69948931487846
30
0
41
1
10
-1.99503997793931
20
2.80072442890969
30
0
41
1
10
-1.99503997793931
20
2.90170218623103
30
0
41
1
10
-1.99503997793931
20
3.00241852965868
30
0
41
1
10
-1.99503997793931
20
3.13647579824178
30
0
41
1
10
-1.99503997793931
20
3.30310841087518
30
0
41
1
10
-1.99503997793931
20
3.46881385164499
30
0
41
1
10
-1.99503997793931
20
3.6010147061962
30
0
41
1
10
-1.99503997793931
20
3.69979994526253
30
0
41
1
10
-1.99503997793931
20
3.79829729672917
30
0
41
1
10
-1.99503997793931
20
3.92934661081907
30
0
41
1
10
-1.99503997793931
20
4.09219634432211
30
0
41
1
10
-1.99503997793931
20
4.28654656517494
30
0
41
1
10
-1.99503997793931
20
4.47969614999016
30
0
41
1
10
-1.99503997793931
20
4.67163207713236
30
0
41
1
10
-1.99503997793931
20
4.86234332329403
30
0
41
1
10
-1.99503997793931
20
5.05181945337137
30
0
41
1
10
-1.99503997793931
20
5.24005175731475
30
0
41
1
10
-1.99503997793931
20
5.42703270327692
30
0
41
1
10
-1.99503997793931
20
5.61275496243289
30
0
41
1
10
-1.99503997793931
20
5.79721186805691
30
0
41
1
10
-1.99503997793931
20
5.98039789106801
30
0
41
1
10
-1.99503997793931
20
6.16230788845579
30
0
41
1
10
-1.99503997793931
20
6.3429370741791
30
0
41
1
10
-1.99503997793931
20
6.52228078287743
30
0
41
1
10
-1.99503997793931
20
6.70033531356589
30
0
41
1
10
-1.99503997793931
20
6.87709665618266
30
0
41
1
10
-1.99503997793931
20
7.11118461088938
30
0
41
1
10
-1.99503997793931
20
7.40025290593451
30
0
41
1
10
-1.99503997793931
20
7.7420578132905
30
0
41
1
10
-1.99503997793931
20
8.0224014648056
30
0
41
1
10
-1.99503997793931
20
8.2442523295401
30
0
41
1
10
-1.99503997793931
20
8.40923673354897
30
0
41
1
10
-1.99503997793931
20
8.57289871794615
30
0
41
1
10
-1.99503997793931
20
8.73523611643316
30
0
41
1
10
-1.99503997793931
20
8.89624559944801
30
0
41
1
10
-1.99503997793931
20
9.1092571782612
30
0
41
1
10
-1.99503997793931
20
9.37195865327325
30
0
41
1
10
-1.99503997793931
20
9.63019833168175
30
0
41
1
10
-1.99503997793931
20
9.83427692622885
30
0
41
1
10
-1.99503997793931
20
9.98591879047714
30
0
41
1
10
-1.99503997793931
20
10.13621047024
30
0
41
1
10
-1.99503997793931
20
10.2851499168301
30
0
41
1
10
-1.99503997793931
20
10.4327334855784
30
0
41
1
10
-1.99503997793931
20
10.627787937013
30
0
41
1
10
-1.99503997793931
20
10.8198574498995
30
0
41
1
10
-1.99503997793931
20
11.00944356136
30
0
41
1
10
-1.99503997793931
20
11.1972001365959
30
0
41
1
10
-1.99503997793931
20
11.4282697000141
30
0
41
1
10
-1.99503997793931
20
11.6547268261542
30
0
41
1
10
-1.99503997793931
20
11.8332480165124
30
0
41
1
10
-1.99503997793931
20
12.0099077332894
30
0
41
1
10
-1.99503997793931
20
12.1835401119863
30
0
41
1
10
-1.99503997793931
20
12.3545748152048
30
0
41
1
10
-1.99503997793931
20
12.4813812679684
30
0
41
1
10
-1.99503997793931
20
12.606768466692
30
0
41
1
10
-1.99503997793931
20
12.7721223429484
30
0
41
1
10
-1.99503997793931
20
12.9344093145834
30
0
41
1
10
-1.99503997793931
20
13.09401974916
30
0
41
1
10
-1.99503997793931
20
13.2122307400427
30
0
41
1
10
-1.99503997793931
20
13.328990109671
30
0
41
1
10
-1.99503997793931
20
13.482790135872
30
0
41
1
10
-1.99503997793931
20
13.6334713769854
30
0
41
1
10
-1.99503997793931
20
13.7813876415877
30
0
41
1
10
-1.99503997793931
20
13.8907947247769
30
0
41
1
10
-1.99503997793931
20
13.9987118830366
30
0
41
1
10
-1.99503997793931
20
14.1406647198644
30
0
41
1
10
-1.99503997793931
20
14.2794333721973
30
0
41
1
10
-1.99503997793931
20
14.4153366771621
30
0
41
1
10
-1.99503997793931
20
14.5156939096276
30
0
41
1
10
-1.99503997793931
20
14.6145160455858
30
0
41
1
10
-1.99503997793931
20
14.7442755428493
30
0
41
1
10
-1.99503997793931
20
14.8707702235387
30
0
41
1
10
-1.99503997793931
20
14.9942846604514
30
0
41
1
10
-1.99503997793931
20
15.0853020659337
30
0
41
1
10
-1.99503997793931
20
15.1747311694574
30
0
41
1
10
-1.99503997793931
20
15.2918890118945
30
0
41
1
10
-1.99503997793931
20
15.4056838451686
30
0
41
1
10
-1.99503997793931
20
15.5163656256123
30
0
41
1
10
-1.99503997793931
20
15.5977008436634
30
0
41
1
10
-1.99503997793931
20
15.677384958149
30
0
41
1
10
-1.99503997793931
20
15.7814584486047
30
0
41
1
10
-1.99503997793931
20
15.8820499794418
30
0
41
1
10
-1.99503997793931
20
15.979373490825
30
0
41
1
10
-1.99503997793931
20
16.0506207732709
30
0
41
1
10
-1.99503997793931
20
16.1201424382026
30
0
41
1
10
-1.99503997793931
20
16.1879246249361
30
0
41
1
10
-1.99503997793931
20
16.2539521138773
30
0
41
1
10
-1.99503997793931
20
16.3182114219941
30
0
41
1
10
-1.99503997793931
20
16.3806869939664
30
0
41
1
10
-1.99503997793931
20
16.4616240004255
30
0
41
1
10
-1.99503997793931
20
16.5388242186582
30
0
41
1
10
-1.99503997793931
20
16.6124299551483
30
0
41
1
10
-1.99503997793931
20
16.6835453056651
30
0
41
1
10
-1.99503997793928
20
16.7507929832779
30
0
41
1
10
-1.99503997793931
20
16.8142877036056
30
0
41
1
10
-1.99503997793928
20
16.8751872660894
30
0
41
1
10
-1.99503997793931
20
16.9320728615657
30
0
41
1
10
-1.99503997793931
20
16.9850205529168
30
0
41
1
10
-1.99503997793928
20
17.0226787925821
30
0
41
1
10
-1.99503997793928
20
17.0582791326422
30
0
41
1
10
-1.99503997793931
20
17.1029924242497
30
0
41
1
10
-1.99503997793931
20
17.143423992764
30
0
41
1
10
-1.99503997793928
20
17.1795895960111
30
0
41
1
10
-1.99503997793931
20
17.2045053960087
30
0
41
1
10
-1.99503997793931
20
17.2271975457698
30
0
41
1
10
-1.99503997793928
20
17.2476335117891
30
0
41
1
10
-1.99503997793931
20
17.2657805776118
30
0
41
1
10
-1.99503997793931
20
17.2816041041457
30
0
41
1
10
-1.99503997793931
20
17.295067771448
30
0
41
1
10
-1.99503997793931
20
17.3061342577567
30
0
41
1
10
-1.99503997793931
20
17.314763700365
30
0
41
1
10
-1.99503997793931
20
17.3189471367942
30
0
41
1
10
-1.99503997793931
20
17.3206253994707
30
0
41
1
10
-1.99503997793931
20
17.3206894790123
30
0
0
SPLINE
5
13E
100
AcDbEntity
8
1
62
256
6
ByLayer
370
18
48
1
60
0
100
AcDbSpline
70
4
71
3
72
16
73
12
40
0
40
0
40
0
40
0
40
0.0762773399999428
40
0.0762773399999428
40
0.307208004999957
40
0.307208004999957
40
0.538138669999971
40
0.538138669999971
40
0.769069334999986
40
0.769069334999986
40
1
40
1
40
1
40
1
41
1
10
45.8499771803551
20
25.1325098112581
30
0
41
1
10
45.8526603292523
20
25.1404958141174
30
0
41
1
10
45.855313723535
20
25.1483368265475
30
0
41
1
10
45.8658475164579
20
25.1792765217389
30
0
41
1
10
45.8733753691785
20
25.2009829650904
30
0
41
1
10
45.8869216573065
20
25.2402442638275
30
0
41
1
10
45.8929151531646
20
25.257731686856
30
0
41
1
10
45.9019518624892
20
25.2859066690297
30
0
41
1
10
45.9050569887491
20
25.2967641590092
30
0
41
1
10
45.9068345068238
20
25.3094054123761
30
0
41
1
10
45.9054134605646
20
25.3108177649083
30
0
41
1
10
45.9013380176595
20
25.3067423220032
30
0
0
SPLINE
5
13F
100
AcDbEntity
8
1
62
256
6
ByLayer
370
18
48
1
60
0
100
AcDbSpline
70
4
71
3
72
10
73
6
40
0
40
0
40
0
40
0
40
0.863930246621398
40
0.863930246621398
40
1
40
1
40
1
40
1
41
1
10
47.4103732736347
20
27.3037708839696
30
0
41
1
10
47.6031933376892
20
27.3821903699449
30
0
41
1
10
47.8013869830613
20
27.4441514272142
30
0
41
1
10
48.0369749880242
20
27.4970402187442
30
0
41
1
10
48.0691645213356
20
27.5038311740186
30
0
41
1
10
48.1014884668522
20
27.5102132804291
30
0
0
SPLINE
5
140
100
AcDbEntity
8
1
62
256
6
ByLayer
370
18
48
1
60
0
100
AcDbSpline
70
4
71
3
72
16
73
12
40
0
40
0
40
0
40
0
40
0.0686342113234444
40
0.0686342113234444
40
0.408456133464886
40
0.408456133464886
40
0.578367094535606
40
0.578367094535606
40
0.748278055606326
40
0.748278055606326
40
1
40
1
40
1
40
1
41
1
10
51.4996500381213
20
21.1963577270726
30
0
41
1
10
51.5296915732685
20
21.2263396402631
30
0
41
1
10
51.559178760986
20
21.2567849060332
30
0
41
1
10
51.7310749777995
20
21.4403798097586
30
0
41
1
10
51.8604402942009
20
21.6039457456351
30
0
41
1
10
52.0344377444974
20
21.8652843892194
30
0
41
1
10
52.0890788315486
20
21.9550755917215
30
0
41
1
10
52.1915216366999
20
22.14013618335
30
0
41
1
10
52.2388137798499
20
22.2345307170243
30
0
41
1
10
52.3459251157387
20
22.4714110309232
30
0
41
1
10
52.4011143672861
20
22.6156611816268
30
0
41
1
10
52.4478769234948
20
22.7625279978549
30
0
0
SPLINE
5
141
100
AcDbEntity
8
1
62
256
6
ByLayer
370
18
48
1
60
0
100
AcDbSpline
70
4
71
3
72
14
73
10
40
0
40
0
40
0
40
0
40
0.0878971750648527
40
0.0878971750648527
40
0.315922881298639
40
0.315922881298639
40
0.543948587532426
40
0.543948587532426
40
1
40
1
40
1
40
1
41
1
10
46.0718003359885
20
26.0967215390368
30
0
41
1
10
46.0993014587425
20
26.1396132828007
30
0
41
1
10
46.1279514688591
20
26.1820917826542
30
0
41
1
10
46.2349822940367
20
26.3330532803672
30
0
41
1
10
46.3198376618814
20
26.4388377145509
30
0
41
1
10
46.5048526169102
20
26.6426025018852
30
0
41
1
10
46.6051942936896
20
26.7405725469531
30
0
41
1
10
46.9214270558806
20
27.014073379733
30
0
41
1
10
47.1547869865489
20
27.1722933129815
30
0
41
1
10
47.4103732736348
20
27.3037708839696
30
0
0
SPLINE
5
142
100
AcDbEntity
8
1
62
256
6
ByLayer
370
18
48
1
60
0
100
AcDbSpline
70
4
71
3
72
8
73
4
40
0
40
0
40
0
40
0
40
1
40
1
40
1
40
1
41
1
10
47.1538842630191
20
27.1373569459347
30
0
41
1
10
46.8896369415645
20
26.9989072990197
30
0
41
1
10
46.623965239682
20
26.8599010800698
30
0
41
1
10
46.3538200928481
20
26.7191468770065
30
0
0
SPLINE
5
143
100
AcDbEntity
8
1
62
256
6
ByLayer
370
18
48
1
60
0
100
AcDbSpline
70
4
71
3
72
8
73
4
40
0
40
0
40
0
40
0
40
1
40
1
40
1
40
1
41
1
10
47.1977591538335
20
22.5776230076252
30
0
41
1
10
47.0650612073589
20
22.4415299044142
30
0
41
1
10
46.9324285093038
20
22.3054409669376
30
0
41
1
10
46.7998386251237
20
22.1693547962266
30
0
0
SPLINE
5
144
100
AcDbEntity
8
1
62
256
6
ByLayer
370
18
48
1
60
0
100
AcDbSpline
70
4
71
3
72
8
73
4
40
0
40
0
40
0
40
0
40
1
40
1
40
1
40
1
41
1
10
52.4022753975797
20
27.0327592264771
30
0
41
1
10
52.3043486599646
20
26.931336202331
30
0
41
1
10
52.2063712267469
20
26.8299025296919
30
0
41
1
10
52.1083165098009
20
26.7284526560095
30
0
0
SPLINE
5
145
100
AcDbEntity
8
1
62
256
6
ByLayer
370
18
48
1
60
0
100
AcDbSpline
70
4
71
3
72
8
73
4
40
0
40
0
40
0
40
0
40
1
40
1
40
1
40
1
41
1
10
45.9204898079196
20
24.0380352013154
30
0
41
1
10
46.1037178009183
20
24.066511695583
30
0
41
1
10
46.286977093668
20
24.0950154249702
30
0
41
1
10
46.4702840528995
20
24.1235606829923
30
0
0
SPLINE
5
146
100
AcDbEntity
8
1
62
256
6
ByLayer
370
18
48
1
60
0
100
AcDbSpline
70
4
71
3
72
8
73
4
40
0
40
0
40
0
40
0
40
1
40
1
40
1
40
1
41
1
10
52.8357916107351
20
25.1825149806421
30
0
41
1
10
52.984455340438
20
25.1764170091356
30
0
41
1
10
53.1330593683502
20
25.1702654736854
30
0
41
1
10
53.281624214784
20
25.164078821388
30
0
0
SPLINE
5
147
100
AcDbEntity
8
1
62
256
6
ByLayer
370
18
48
1
60
0
100
AcDbSpline
70
4
71
3
72
10
73
6
40
0
40
0
40
0
40
0
40
0.5
40
0.5
40
1
40
1
40
1
40
1
41
1
10
34.5928962532449
20
15.4869000341509
30
0
41
1
10
34.5988818427247
20
15.5990371495573
30
0
41
1
10
34.6053535331873
20
15.7132321519731
30
0
41
1
10
34.619341258616
20
15.9431736680886
30
0
41
1
10
34.6268595670921
20
16.0589865262035
30
0
41
1
10
34.6349996472083
20
16.1757977600738
30
0
0
SPLINE
5
148
100
AcDbEntity
8
1
62
256
6
ByLayer
370
18
48
1
60
0
100
AcDbSpline
70
4
71
3
72
10
73
6
40
0
40
0
40
0
40
0
40
0.5
40
0.5
40
1
40
1
40
1
40
1
41
1
10
30.7787290490171
20
18.1681893242979
30
0
41
1
10
30.7657344565454
20
18.0490432058997
30
0
41
1
10
30.7529449254338
20
17.9285303628349
30
0
41
1
10
30.7283195249127
20
17.6879511716269
30
0
41
1
10
30.7164744729607
20
17.5678115700362
30
0
41
1
10
30.7051838548072
20
17.4478497981286
30
0
0
SPLINE
5
149
100
AcDbEntity
8
1
62
256
6
ByLayer
370
18
48
1
60
0
100
AcDbSpline
70
4
71
3
72
10
73
6
40
0
40
0
40
0
40
0
40
0.5
40
0.5
40
1
40
1
40
1
40
1
41
1
10
34.5928962532449
20
15.4869000341509
30
0
41
1
10
34.4848789001359
20
15.435116633911
30
0
41
1
10
34.3761322233032
20
15.3831862547438
30
0
41
1
10
34.1567108013674
20
15.2789369372594
30
0
41
1
10
34.0466821459828
20
15.2269286204542
30
0
41
1
10
33.937461965854
20
15.1756178224774
30
0
0
SPLINE
5
14A
100
AcDbEntity
8
1
62
256
6
ByLayer
370
18
48
1
60
0
100
AcDbSpline
70
4
71
3
72
8
73
4
40
0
40
0
40
0
40
0
40
1
40
1
40
1
40
1
41
1
10
30.6313190729092
20
16.547769616325
30
0
41
1
10
30.6147728781695
20
16.3103295179709
30
0
41
1
10
30.6011193283419
20
16.0818809876001
30
0
41
1
10
30.5892156789457
20
15.8588718904022
30
0
0
SPLINE
5
14B
100
AcDbEntity
8
1
62
256
6
ByLayer
370
18
48
1
60
0
100
AcDbSpline
70
4
71
3
72
8
73
4
40
0
40
0
40
0
40
0
40
1
40
1
40
1
40
1
41
1
10
31.8986892877554
20
14.9115636597012
30
0
41
1
10
32.1006187046988
20
14.7750639818792
30
0
41
1
10
32.2994086129874
20
14.6447688876578
30
0
41
1
10
32.4962992810596
20
14.5182272453287
30
0
0
SPLINE
5
14C
100
AcDbEntity
8
1
62
256
6
ByLayer
370
18
48
1
60
0
100
AcDbSpline
70
4
71
3
72
10
73
6
40
0
40
0
40
0
40
0
40
0.5
40
0.5
40
1
40
1
40
1
40
1
41
1
10
33.1202917682039
20
14.7980676567557
30
0
41
1
10
33.0135981897554
20
14.7496266958306
30
0
41
1
10
32.9072068503562
20
14.7016561770555
30
0
41
1
10
32.6992219740295
20
14.6084275985635
30
0
41
1
10
32.5970642890148
20
14.5629108684997
30
0
41
1
10
32.4962992810596
20
14.5182272453287
30
0
0
SPLINE
5
14D
100
AcDbEntity
8
1
62
256
6
ByLayer
370
18
48
1
60
0
100
AcDbSpline
70
4
71
3
72
10
73
6
40
0
40
0
40
0
40
0
40
0.5
40
0.5
40
1
40
1
40
1
40
1
41
1
10
34.7824096233162
20
17.7962174680467
30
0
41
1
10
34.6834058075731
20
17.8598472254327
30
0
41
1
10
34.5833335143112
20
17.9248166212032
30
0
41
1
10
34.3837316578476
20
18.0560751673918
30
0
41
1
10
34.2841409986831
20
18.1224013841689
30
0
41
1
10
34.1847996300121
20
18.1895538824193
30
0
0
SPLINE
5
14E
100
AcDbEntity
8
1
62
256
6
ByLayer
370
18
48
1
60
0
100
AcDbSpline
70
4
71
3
72
8
73
4
40
0
40
0
40
0
40
0
40
1
40
1
40
1
40
1
41
1
10
34.7088644291063
20
17.0758779418774
30
0
41
1
10
34.731814665963
20
17.3197220823484
30
0
41
1
10
34.7565670436755
20
17.5592694406042
30
0
41
1
10
34.7824096233162
20
17.7962174680467
30
0
0
SPLINE
5
14F
100
AcDbEntity
8
1
62
256
6
ByLayer
370
18
48
1
60
0
100
AcDbSpline
70
4
71
3
72
10
73
6
40
0
40
0
40
0
40
0
40
0.5
40
0.5
40
1
40
1
40
1
40
1
41
1
10
31.4027215361615
20
18.448029735725
30
0
41
1
10
31.296027957713
20
18.3995887747998
30
0
41
1
10
31.1896366183138
20
18.3516182560247
30
0
41
1
10
30.9816517419871
20
18.2583896775327
30
0
41
1
10
30.8794940569724
20
18.212872947469
30
0
41
1
10
30.7787290490171
20
18.1681893242979
30
0
0
SPLINE
5
150
100
AcDbEntity
8
1
62
256
6
ByLayer
370
18
48
1
60
0
100
AcDbSpline
70
4
71
3
72
10
73
6
40
0
40
0
40
0
40
0
40
0.5
40
0.5
40
1
40
1
40
1
40
1
41
1
10
32.8753260212024
20
19.1368621131202
30
0
41
1
10
32.7673086680935
20
19.0850787128802
30
0
41
1
10
32.6585619912607
20
19.033148333713
30
0
41
1
10
32.439140569325
20
18.9288990162287
30
0
41
1
10
32.3291119139404
20
18.8768906994235
30
0
41
1
10
32.2198917338116
20
18.8255799014467
30
0
0
SPLINE
5
151
100
AcDbEntity
8
1
62
256
6
ByLayer
370
18
48
1
60
0
100
AcDbSpline
70
4
71
3
72
10
73
6
40
0
40
0
40
0
40
0
40
0.5
40
0.5
40
1
40
1
40
1
40
1
41
1
10
30.5892156789457
20
15.8588718904022
30
0
41
1
10
30.681210491697
20
15.7882331300243
30
0
41
1
10
30.7749649443099
20
15.7169458936048
30
0
41
1
10
30.963929125681
20
15.5750496723238
30
0
41
1
10
31.0591930413697
20
15.5043967120708
30
0
41
1
10
31.1553838720034
20
15.4340936757831
30
0
0
SPLINE
5
152
100
AcDbEntity
8
1
62
256
6
ByLayer
370
18
48
1
60
0
100
AcDbSpline
70
4
71
3
72
8
73
4
40
0
40
0
40
0
40
0
40
1
40
1
40
1
40
1
41
1
10
33.44149421426
20
18.7120838985012
30
0
41
1
10
33.2459688394337
20
18.8549876184401
30
0
41
1
10
33.0582777590299
20
18.9963815405465
30
0
41
1
10
32.8753260212024
20
19.1368621131202
30
0
0
INSERT
5
165
100
AcDbEntity
8
2
62
256
6
ByLayer
370
25
48
1
60
0
100
AcDbBlockReference
2
DimnDraft3D11
10
0
20
0
30
0
41
1
42
1
43
1
50
0
210
0
220
0
230
1
0
LINE
5
72
100
AcDbEntity
8
1
62
256
6
ByLayer
370
18
48
1
60
0
100
AcDbLine
10
51.508042
20
21.781436
30
0
11
52.131812
21
22.405206
31
0
39
0
210
0
220
0
230
1
0
LINE
5
73
100
AcDbEntity
8
1
62
256
6
ByLayer
370
18
48
1
60
0
100
AcDbLine
10
47.070302
20
26.796908
30
0
11
46.446533
21
26.173139
31
0
39
0
210
0
220
0
230
1
0
LINE
5
74
100
AcDbEntity
8
1
62
256
6
ByLayer
370
18
48
1
60
0
100
AcDbLine
10
46.526721
20
26.660731
30
0
11
46.452675
21
26.586685
31
0
39
0
210
0
220
0
230
1
0
LINE
5
75
100
AcDbEntity
8
1
62
256
6
ByLayer
370
18
48
1
60
0
100
AcDbLine
10
57.640518
20
15.570425
30
0
11
58.28217
21
16.212076
31
0
39
0
210
0
220
0
230
1
0
LINE
5
76
100
AcDbEntity
8
1
62
256
6
ByLayer
370
18
48
1
60
0
100
AcDbLine
10
20.486649
20
1.020489
30
0
11
20.625963
21
1.264328
31
0
39
0
210
0
220
0
230
1
0
LINE
5
77
100
AcDbEntity
8
1
62
256
6
ByLayer
370
18
48
1
60
0
100
AcDbLine
10
19.435806
20
4.872602
30
0
11
16.644071
21
4.121702
31
0
39
0
210
0
220
0
230
1
0
LINE
5
78
100
AcDbEntity
8
1
62
256
6
ByLayer
370
18
48
1
60
0
100
AcDbLine
10
19.694239
20
4.728341
30
0
11
19.4514
21
4.869392
31
0
39
0
210
0
220
0
230
1
0
LINE
5
79
100
AcDbEntity
8
1
62
256
6
ByLayer
370
18
48
1
60
0
100
AcDbLine
10
17.683036
20
0.258989
30
0
11
20.47477
21
1.009889
31
0
39
0
210
0
220
0
230
1
0
LINE
5
7A
100
AcDbEntity
8
1
62
256
6
ByLayer
370
18
48
1
60
0
100
AcDbLine
10
17.162226
20
0.39702
30
0
11
17.674487
21
0.259154
31
0
39
0
210
0
220
0
230
1
0
LINE
5
7B
100
AcDbEntity
8
1
62
256
6
ByLayer
370
18
48
1
60
0
100
AcDbLine
10
16.636759
20
4.11727
30
0
11
16.629361
21
4.109827
31
0
39
0
210
0
220
0
230
1
0
LINE
5
7C
100
AcDbEntity
8
1
62
256
6
ByLayer
370
18
48
1
60
0
100
AcDbLine
10
41.212076
20
33.28217
30
0
11
40.570425
21
32.640518
31
0
39
0
210
0
220
0
230
1
0
LINE
5
7D
100
AcDbEntity
8
1
62
256
6
ByLayer
370
18
48
1
60
0
100
AcDbLine
10
0.3
20
-25
30
0
11
20.186138
21
-25
31
0
39
0
210
0
220
0
230
1
0
LINE
5
7E
100
AcDbEntity
8
1
62
256
6
ByLayer
370
18
48
1
60
0
100
AcDbLine
10
20.186138
20
25
30
0
11
0.3
21
25
31
0
39
0
210
0
220
0
230
1
0
LINE
5
7F
100
AcDbEntity
8
1
62
256
6
ByLayer
370
18
48
1
60
0
100
AcDbLine
10
0.3
20
25
30
0
11
0
21
24.7
31
0
39
0
210
0
220
0
230
1
0
LINE
5
80
100
AcDbEntity
8
1
62
256
6
ByLayer
370
18
48
1
60
0
100
AcDbLine
10
0
20
-24.7
30
0
11
0.3
21
-25
31
0
39
0
210
0
220
0
230
1
0
LINE
5
81
100
AcDbEntity
8
1
62
256
6
ByLayer
370
18
48
1
60
0
100
AcDbLine
10
20.652507
20
-25.15
30
0
11
21.839853
21
-25.15
31
0
39
0
210
0
220
0
230
1
0
LINE
5
82
100
AcDbEntity
8
1
62
256
6
ByLayer
370
18
48
1
60
0
100
AcDbLine
10
22.35108
20
30.788709
30
0
11
20.958879
21
25.592945
31
0
39
0
210
0
220
0
230
1
0
LINE
5
83
100
AcDbEntity
8
1
62
256
6
ByLayer
370
18
48
1
60
0
100
AcDbLine
10
40.079404
20
25.22231
30
0
11
39.784421
21
21.627795
31
0
39
0
210
0
220
0
230
1
0
LINE
5
84
100
AcDbEntity
8
1
62
256
6
ByLayer
370
18
48
1
60
0
100
AcDbLine
10
11.894338
20
23.666502
30
0
11
11.894338
21
8.055848
31
0
39
0
210
0
220
0
230
1
0
LINE
5
85
100
AcDbEntity
8
1
62
256
6
ByLayer
370
18
48
1
60
0
100
AcDbLine
10
46.493871
20
14.246693
30
0
11
46.613964
21
14.257077
31
0
39
0
210
0
220
0
230
1
0
LINE
5
86
100
AcDbEntity
8
1
62
256
6
ByLayer
370
18
48
1
60
0
100
AcDbLine
10
11.461325
20
-7.529667
30
0
11
8.538675
21
-7.529667
31
0
39
0
210
0
220
0
230
1
0
LINE
5
87
100
AcDbEntity
8
1
62
256
6
ByLayer
370
18
48
1
60
0
100
AcDbLine
10
11.461325
20
23.83913
30
0
11
11.461325
21
7.529667
31
0
39
0
210
0
220
0
230
1
0
LINE
5
88
100
AcDbEntity
8
1
62
256
6
ByLayer
370
18
48
1
60
0
100
AcDbLine
10
22.524778
20
31.159607
30
0
11
22.647552
21
19.922873
31
0
39
0
210
0
220
0
230
1
0
LINE
5
89
100
AcDbEntity
8
1
62
256
6
ByLayer
370
18
48
1
60
0
100
AcDbLine
10
40.839813
20
32.662624
30
0
11
22.524778
21
31.159607
31
0
39
0
210
0
220
0
230
1
0
LINE
5
8A
100
AcDbEntity
8
1
62
256
6
ByLayer
370
18
48
1
60
0
100
AcDbLine
10
20.958879
20
25.098262
30
0
11
20.958879
21
25.592945
31
0
39
0
210
0
220
0
230
1
0
LINE
5
8B
100
AcDbEntity
8
1
62
256
6
ByLayer
370
18
48
1
60
0
100
AcDbLine
10
46.495483
20
14.11137
30
0
11
47.189785
21
14.965384
31
0
39
0
210
0
220
0
230
1
0
LINE
5
8C
100
AcDbEntity
8
1
62
256
6
ByLayer
370
18
48
1
60
0
100
AcDbLine
10
46.172763
20
13.242568
30
0
11
45.978924
21
10.880539
31
0
39
0
210
0
220
0
230
1
0
LINE
5
8D
100
AcDbEntity
8
1
62
256
6
ByLayer
370
18
48
1
60
0
100
AcDbLine
10
8.105662
20
-8.055848
30
0
11
8.105662
21
-23.666502
31
0
39
0
210
0
220
0
230
1
0
LINE
5
8E
100
AcDbEntity
8
1
62
256
6
ByLayer
370
18
48
1
60
0
100
AcDbLine
10
46.172763
20
13.242568
30
0
11
46.438712
21
13.574551
31
0
39
0
210
0
220
0
230
1
0
LINE
5
8F
100
AcDbEntity
8
1
62
256
6
ByLayer
370
18
48
1
60
0
100
AcDbLine
10
47.189785
20
14.965384
30
0
11
46.944622
21
11.977954
31
0
39
0
210
0
220
0
230
1
0
LINE
5
90
100
AcDbEntity
8
1
62
256
6
ByLayer
370
18
48
1
60
0
100
AcDbLine
10
11.461325
20
23.83913
30
0
11
8.538675
21
23.83913
31
0
39
0
210
0
220
0
230
1
0
LINE
5
91
100
AcDbEntity
8
1
62
256
6
ByLayer
370
18
48
1
60
0
100
AcDbLine
10
45.978924
20
10.880539
30
0
11
46.944622
21
11.977954
31
0
39
0
210
0
220
0
230
1
0
LINE
5
92
100
AcDbEntity
8
1
62
256
6
ByLayer
370
18
48
1
60
0
100
AcDbLine
10
57.237386
20
10.658072
30
0
11
44.650007
21
-2.079582
31
0
39
0
210
0
220
0
230
1
0
LINE
5
93
100
AcDbEntity
8
1
62
256
6
ByLayer
370
18
48
1
60
0
100
AcDbLine
10
17.480546
20
5.599365
30
0
11
17.480546
21
23.455355
31
0
39
0
210
0
220
0
230
1
0
LINE
5
94
100
AcDbEntity
8
1
62
256
6
ByLayer
370
18
48
1
60
0
100
AcDbLine
10
45.81447
20
10.878576
30
0
11
46.097539
21
14.327913
31
0
39
0
210
0
220
0
230
1
0
LINE
5
95
100
AcDbEntity
8
1
62
256
6
ByLayer
370
18
48
1
60
0
100
AcDbLine
10
20.652507
20
-25.15
30
0
11
20.652507
21
-24.630895
31
0
39
0
210
0
220
0
230
1
0
LINE
5
96
100
AcDbEntity
8
1
62
256
6
ByLayer
370
18
48
1
60
0
100
AcDbLine
10
11.894338
20
-8.055848
30
0
11
11.894338
21
-23.666502
31
0
39
0
210
0
220
0
230
1
0
LINE
5
97
100
AcDbEntity
8
1
62
256
6
ByLayer
370
18
48
1
60
0
100
AcDbLine
10
46.438712
20
13.574551
30
0
11
46.493871
21
14.246693
31
0
39
0
210
0
220
0
230
1
0
LINE
5
98
100
AcDbEntity
8
1
62
256
6
ByLayer
370
18
48
1
60
0
100
AcDbLine
10
8.538675
20
7.529667
30
0
11
11.461325
21
7.529667
31
0
39
0
210
0
220
0
230
1
0
LINE
5
99
100
AcDbEntity
8
1
62
256
6
ByLayer
370
18
48
1
60
0
100
AcDbLine
10
57.237386
20
10.658072
30
0
11
57.663198
21
15.84681
31
0
39
0
210
0
220
0
230
1
0
LINE
5
9A
100
AcDbEntity
8
1
62
256
6
ByLayer
370
18
48
1
60
0
100
AcDbLine
10
21.465325
20
22.804782
30
0
11
21.465325
21
-24.647972
31
0
39
0
210
0
220
0
230
1
0
LINE
5
9B
100
AcDbEntity
8
1
62
256
6
ByLayer
370
18
48
1
60
0
100
AcDbLine
10
0.3
20
-25
30
0
11
0.3
21
25
31
0
39
0
210
0
220
0
230
1
0
LINE
5
9C
100
AcDbEntity
8
1
62
256
6
ByLayer
370
18
48
1
60
0
100
AcDbLine
10
22.647552
20
19.922873
30
0
11
44.650007
21
-2.079582
31
0
39
0
210
0
220
0
230
1
0
LINE
5
9D
100
AcDbEntity
8
1
62
256
6
ByLayer
370
18
48
1
60
0
100
AcDbLine
10
46.262947
20
14.341518
30
0
11
46.172762
21
13.242568
31
0
39
0
210
0
220
0
230
1
0
LINE
5
9E
100
AcDbEntity
8
1
62
256
6
ByLayer
370
18
48
1
60
0
100
AcDbLine
10
46.503271
20
14.361244
30
0
11
46.493871
21
14.246693
31
0
39
0
210
0
220
0
230
1
0
LINE
5
9F
100
AcDbEntity
8
1
62
256
6
ByLayer
370
18
48
1
60
0
100
AcDbLine
10
21.465325
20
-24.647972
30
0
11
22.342153
21
-24.647972
31
0
39
0
210
0
220
0
230
1
0
LINE
5
A0
100
AcDbEntity
8
1
62
256
6
ByLayer
370
18
48
1
60
0
100
AcDbLine
10
11.461325
20
-7.529667
30
0
11
11.461325
21
-23.83913
31
0
39
0
210
0
220
0
230
1
0
LINE
5
A1
100
AcDbEntity
8
1
62
256
6
ByLayer
370
18
48
1
60
0
100
AcDbLine
10
22.342153
20
-24.647972
30
0
11
44.650007
21
-2.079582
31
0
39
0
210
0
220
0
230
1
0
LINE
5
A2
100
AcDbEntity
8
1
62
256
6
ByLayer
370
18
48
1
60
0
100
AcDbLine
10
16.648231
20
-0.714756
30
0
11
17.025578
21
-3.520593
31
0
39
0
210
0
220
0
230
1
0
LINE
5
A3
100
AcDbEntity
8
1
62
256
6
ByLayer
370
18
48
1
60
0
100
AcDbLine
10
8.105662
20
23.666502
30
0
11
8.105662
21
8.055848
31
0
39
0
210
0
220
0
230
1
0
LINE
5
A4
100
AcDbEntity
8
1
62
256
6
ByLayer
370
18
48
1
60
0
100
AcDbLine
10
20.186138
20
-24.45108
30
0
11
20.186138
21
-25
31
0
39
0
210
0
220
0
230
1
0
LINE
5
A5
100
AcDbEntity
8
1
62
256
6
ByLayer
370
18
48
1
60
0
100
AcDbLine
10
20.186138
20
25
30
0
11
20.186138
21
24.45108
31
0
39
0
210
0
220
0
230
1
0
LINE
5
A6
100
AcDbEntity
8
1
62
256
6
ByLayer
370
18
48
1
60
0
100
AcDbLine
10
8.538675
20
23.83913
30
0
11
8.538675
21
7.529667
31
0
39
0
210
0
220
0
230
1
0
LINE
5
A7
100
AcDbEntity
8
1
62
256
6
ByLayer
370
18
48
1
60
0
100
AcDbLine
10
8.538675
20
-23.83913
30
0
11
11.461325
21
-23.83913
31
0
39
0
210
0
220
0
230
1
0
LINE
5
A8
100
AcDbEntity
8
1
62
256
6
ByLayer
370
18
48
1
60
0
100
AcDbLine
10
40.839813
20
32.662624
30
0
11
40.835076
21
32.604903
31
0
39
0
210
0
220
0
230
1
0
LINE
5
A9
100
AcDbEntity
8
1
62
256
6
ByLayer
370
18
48
1
60
0
100
AcDbLine
10
39.441805
20
15.62718
30
0
11
39.217624
21
12.895421
31
0
39
0
210
0
220
0
230
1
0
LINE
5
AA
100
AcDbEntity
8
1
62
256
6
ByLayer
370
18
48
1
60
0
100
AcDbLine
10
17.480546
20
-23.455355
30
0
11
17.480546
21
-0.835394
31
0
39
0
210
0
220
0
230
1
0
LINE
5
AB
100
AcDbEntity
8
1
62
256
6
ByLayer
370
18
48
1
60
0
100
AcDbLine
10
8.538675
20
-7.529667
30
0
11
8.538675
21
-23.83913
31
0
39
0
210
0
220
0
230
1
0
LINE
5
AC
100
AcDbEntity
8
1
62
256
6
ByLayer
370
18
48
1
60
0
100
AcDbLine
10
47.189785
20
14.965384
30
0
11
49.457712
21
15.161486
31
0
39
0
210
0
220
0
230
1
0
LINE
5
AD
100
AcDbEntity
8
1
62
256
6
ByLayer
370
18
48
1
60
0
100
AcDbLine
10
0
20
-24.7
30
0
11
0
21
24.7
31
0
39
0
210
0
220
0
230
1
0
LINE
5
AE
100
AcDbEntity
8
SK1
62
256
6
ByLayer
370
18
48
1
60
0
100
AcDbLine
10
-1.307107
20
-3.918065
30
0
11
-1.307107
21
3.918065
31
0
39
0
210
0
220
0
230
1
0
LINE
5
B0
100
AcDbEntity
8
SK1
62
256
6
ByLayer
370
18
48
1
60
0
100
AcDbLine
10
-0.2
20
-17.833485
30
0
11
-0.2
21
-6.103448
31
0
39
0
210
0
220
0
230
1
0
LINE
5
B1
100
AcDbEntity
8
SK1
62
256
6
ByLayer
370
18
48
1
60
0
100
AcDbLine
10
-0.2
20
6.103447
30
0
11
-0.2
21
17.833485
31
0
39
0
210
0
220
0
230
1
0
LINE
5
B2
100
AcDbEntity
8
1
62
256
6
ByLayer
370
18
48
1
60
0
100
AcDbLine
10
46.796934
20
22.16645
30
0
11
46.799839
21
22.169355
31
0
39
0
210
0
220
0
230
1
0
LINE
5
B3
100
AcDbEntity
8
1
62
256
6
ByLayer
370
18
48
1
60
0
100
AcDbLine
10
45.831531
20
25.236935
30
0
11
45.901338
21
25.306742
31
0
39
0
210
0
220
0
230
1
0
LINE
5
B4
100
AcDbEntity
8
1
62
256
6
ByLayer
370
18
48
1
60
0
100
AcDbLine
10
45.92049
20
24.038035
30
0
11
45.885362
21
24.002908
31
0
39
0
210
0
220
0
230
1
0
LINE
5
B5
100
AcDbEntity
8
1
62
256
6
ByLayer
370
18
48
1
60
0
100
AcDbLine
10
30.749887
20
17.895564
30
0
11
30.936454
21
17.981762
31
0
39
0
210
0
220
0
230
1
0
LINE
5
B6
100
AcDbEntity
8
1
62
256
6
ByLayer
370
18
48
1
60
0
100
AcDbLine
10
34.168732
20
15.70953
30
0
11
34.132473
21
15.267701
31
0
39
0
210
0
220
0
230
1
0
LINE
5
B7
100
AcDbEntity
8
1
62
256
6
ByLayer
370
18
48
1
60
0
100
AcDbLine
10
39.445703
20
15.735567
30
0
11
39.498206
21
15.78807
31
0
39
0
210
0
220
0
230
1
0
LINE
5
B8
100
AcDbEntity
8
1
62
256
6
ByLayer
370
18
48
1
60
0
100
AcDbLine
10
57.497418
20
15.821259
30
0
11
57.549922
21
15.873762
31
0
39
0
210
0
220
0
230
1
0
LINE
5
B9
100
AcDbEntity
8
1
62
256
6
ByLayer
370
18
48
1
60
0
100
AcDbLine
10
46.712702
20
14.378428
30
0
11
40.127914
21
13.83805
31
0
39
0
210
0
220
0
230
1
0
LINE
5
BA
100
AcDbEntity
8
1
62
256
6
ByLayer
370
18
48
1
60
0
100
AcDbLine
10
40.873762
20
32.549922
30
0
11
40.821259
21
32.497418
31
0
39
0
210
0
220
0
230
1
0
LINE
5
BB
100
AcDbEntity
8
1
62
256
6
ByLayer
370
18
48
1
60
0
100
AcDbLine
10
17.162211
20
0.397024
30
0
11
17.169636
21
0.396877
31
0
39
0
210
0
220
0
230
1
0
LINE
5
BC
100
AcDbEntity
8
1
62
256
6
ByLayer
370
18
48
1
60
0
100
AcDbLine
10
16.644071
20
4.121702
30
0
11
16.636746
21
4.117257
31
0
39
0
210
0
220
0
230
1
0
LINE
5
BD
100
AcDbEntity
8
80
62
256
6
ByLayer
370
18
48
1
60
0
100
AcDbLine
10
0
20
0
30
0
11
-5
21
0
31
0
39
0
210
0
220
0
230
1
0
LINE
5
BE
100
AcDbEntity
8
4
62
256
6
ByLayer
370
18
48
0.05
60
0
100
AcDbLine
10
0
20
0
30
0
11
60
21
0
31
0
39
0
210
0
220
0
230
1
0
LINE
5
C0
100
AcDbEntity
8
81
62
256
6
ByLayer
370
18
48
1
60
0
100
AcDbLine
10
60
20
35
30
0
11
70
21
35
31
0
39
0
210
0
220
0
230
1
0
LINE
5
C1
100
AcDbEntity
8
SK4
62
256
6
ByLayer
370
18
48
0.05
60
0
100
AcDbLine
10
-35
20
0
30
0
11
60
21
0
31
0
39
0
210
0
220
0
230
1
0
LINE
5
C3
100
AcDbEntity
8
1
62
256
6
ByLayer
370
18
48
1
60
0
100
AcDbLine
10
40.78807
20
14.498206
30
0
11
40.127914
21
13.83805
31
0
39
0
210
0
220
0
230
1
0
LINE
5
C4
100
AcDbEntity
8
1
62
256
6
ByLayer
370
18
48
1
60
0
100
AcDbLine
10
57.549922
20
15.873762
30
0
11
40.78807
21
14.498206
31
0
39
0
210
0
220
0
230
1
0
LINE
5
C5
100
AcDbEntity
8
1
62
256
6
ByLayer
370
18
48
1
60
0
100
AcDbLine
10
59.99604
20
33.706176
30
0
11
58.620484
21
16.944325
31
0
39
0
210
0
220
0
230
1
0
LINE
5
C6
100
AcDbEntity
8
1
62
256
6
ByLayer
370
18
48
1
60
0
100
AcDbLine
10
41.944325
20
33.620484
30
0
11
58.706176
21
34.99604
31
0
39
0
210
0
220
0
230
1
0
LINE
5
C7
100
AcDbEntity
8
1
62
256
6
ByLayer
370
18
48
1
60
0
100
AcDbLine
10
39.498206
20
15.78807
30
0
11
40.873762
21
32.549922
31
0
39
0
210
0
220
0
230
1
0
LINE
5
C8
100
AcDbEntity
8
1
62
256
6
ByLayer
370
18
48
1
60
0
100
AcDbLine
10
34.168732
20
15.70953
30
0
11
34.635
21
16.175798
31
0
39
0
210
0
220
0
230
1
0
LINE
5
C9
100
AcDbEntity
8
1
62
256
6
ByLayer
370
18
48
1
60
0
100
AcDbLine
10
31.753624
20
18.359312
30
0
11
32.219892
21
18.82558
31
0
39
0
210
0
220
0
230
1
0
LINE
5
CA
100
AcDbEntity
8
1
62
256
6
ByLayer
370
18
48
1
60
0
100
AcDbLine
10
33.718532
20
17.723286
30
0
11
34.300421
21
17.314229
31
0
39
0
210
0
220
0
230
1
0
LINE
5
CB
100
AcDbEntity
8
1
62
256
6
ByLayer
370
18
48
1
60
0
100
AcDbLine
10
34.78241
20
17.796217
30
0
11
34.300421
21
17.314229
31
0
39
0
210
0
220
0
230
1
0
LINE
5
CC
100
AcDbEntity
8
1
62
256
6
ByLayer
370
18
48
1
60
0
100
AcDbLine
10
31.402722
20
18.44803
30
0
11
30.936454
21
17.981762
31
0
39
0
210
0
220
0
230
1
0
LINE
5
CD
100
AcDbEntity
8
1
62
256
6
ByLayer
370
18
48
1
60
0
100
AcDbLine
10
32.393337
20
18.654873
30
0
11
32.975226
21
18.245816
31
0
39
0
210
0
220
0
230
1
0
LINE
5
CE
100
AcDbEntity
8
1
62
256
6
ByLayer
370
18
48
1
60
0
100
AcDbLine
10
32.875326
20
19.136862
30
0
11
32.393337
21
18.654873
31
0
39
0
210
0
220
0
230
1
0
LINE
5
CF
100
AcDbEntity
8
1
62
256
6
ByLayer
370
18
48
1
60
0
100
AcDbLine
10
33.718532
20
17.723286
30
0
11
34.1848
21
18.189554
31
0
39
0
210
0
220
0
230
1
0
LINE
5
D0
100
AcDbEntity
8
1
62
256
6
ByLayer
370
18
48
1
60
0
100
AcDbLine
10
31.753624
20
18.359312
30
0
11
32.393337
21
18.654873
31
0
39
0
210
0
220
0
230
1
0
LINE
5
D1
100
AcDbEntity
8
1
62
256
6
ByLayer
370
18
48
1
60
0
100
AcDbLine
10
33.441494
20
18.712084
30
0
11
32.975226
21
18.245816
31
0
39
0
210
0
220
0
230
1
0
LINE
5
D2
100
AcDbEntity
8
1
62
256
6
ByLayer
370
18
48
1
60
0
100
AcDbLine
10
34.708864
20
17.075878
30
0
11
34.242596
21
16.60961
31
0
39
0
210
0
220
0
230
1
0
LINE
5
D3
100
AcDbEntity
8
1
62
256
6
ByLayer
370
18
48
1
60
0
100
AcDbLine
10
34.300421
20
17.314229
30
0
11
34.242596
21
16.60961
31
0
39
0
210
0
220
0
230
1
0
MTEXT
5
153
100
AcDbEntity
8
SK6
62
256
6
ByLayer
370
13
48
1
60
0
100
AcDbMText
10
-1.693126
20
-40.297905
30
0
210
0
220
0
230
1
1
\W0.7335;C5-PCLNR-35060-19
40
3.5
41
0
44
1.084337
50
0
71
7
72
5
7
iso_b_vert
0
DIMENSION
5
174
100
AcDbEntity
8
SK2
62
256
6
ByLayer
370
13
48
1
60
0
100
AcDbDimension
2
DimnDraft3D2
10
-39.75
20
-25
30
0
11
-39.75
21
0
31
0
70
32
71
5
72
1
41
1
210
0
220
0
230
1
3
Standard
100
AcDbAlignedDimension
13
-1.5875
23
25
33
0
14
-1.5875
24
-25
34
0
50
90
100
AcDbRotatedDimension
1001
ACAD
1000
DSTYLE
1002
{
1070
    74
1070
     0
1070
   279
1070
     0
1070
   172
1070
     1
1070
   173
1070
     1
1070
   340
1005
154
1070
   271
1070
     1
1070
   272
1070
     2
1070
    77
1070
     1
1070
    73
1070
     0
1070
   171
1070
     3
1070
   274
1070
     4
1070
   177
1070
   150
1070
   176
1070
     9
1070
   178
1070
    43
1070
    78
1070
     8
1070
    48
1040
-0.005
1070
    41
1041
3.175
1070
   147
1041
2.25
1070
    42
1041
1.5875
1070
    44
1041
3.175
1070
   140
1041
4.5
1070
   343
1005
175
1070
   344
1005
175
1002
}
0
DIMENSION
5
189
100
AcDbEntity
8
2
62
256
6
ByLayer
370
13
48
1
60
0
100
AcDbDimension
2
DimnDraft3D3
10
0
20
52.5
30
0
11
30
21
52.5
31
0
70
32
71
5
72
1
41
1
210
0
220
0
230
1
3
Standard
100
AcDbAlignedDimension
13
60
23
36.5875
33
0
14
0
24
26.5875
34
0
50
0
100
AcDbRotatedDimension
1001
ACAD
1000
DSTYLE
1002
{
1070
   279
1070
     0
1070
   172
1070
     1
1070
   173
1070
     1
1070
   340
1005
154
1070
   271
1070
     1
1070
   272
1070
     2
1070
    77
1070
     1
1070
    73
1070
     0
1070
   171
1070
     3
1070
   274
1070
     4
1070
   177
1070
   150
1070
   176
1070
     9
1070
   178
1070
    43
1070
    78
1070
     8
1070
    48
1040
-0.005
1070
    41
1041
3.175
1070
   147
1041
2.25
1070
    42
1041
1.5875
1070
    44
1041
3.175
1070
   140
1041
4.5
1070
   343
1005
175
1070
   344
1005
175
1002
}
0
DIMENSION
5
196
100
AcDbEntity
8
2
62
256
6
ByLayer
370
13
48
1
60
0
100
AcDbDimension
2
DimnDraft3D4
10
39.777906
20
33.33951
30
0
11
47.544536
21
46.522044
31
0
70
34
71
5
72
1
41
1
210
0
220
0
230
1
3
Standard
100
AcDb2LineAngularDimension
13
60
23
35
33
0
14
60
24
32.61875
34
0
15
58.705605
25
34.995469
35
0
16
50.862284
26
43.481888
36
0
40
0
0
ENDSEC
0
SECTION
2
OBJECTS
0
DICTIONARY
5
201
330
0
100
AcDbDictionary
280
0
281
1
3
ACAD_GROUP
350
202
3
ACAD_MLINESTYLE
350
203
0
DICTIONARY
5
202
330
0
100
AcDbDictionary
280
0
281
1
0
DICTIONARY
5
203
330
0
100
AcDbDictionary
280
0
281
1
3
Standard
350
18
0
MLINESTYLE
5
18
330
203
100
AcDbMlineStyle
2
Standard
70
0
3

62
256
51
90
52
90
71
2
49
-0.5
62
256
6
ByLayer
49
0.5
62
256
6
ByLayer
0
RASTERVARIABLES
5
1ef
330

100
AcDbRasterVariables
90
0
70
1
71
1
72
1
0
ENDSEC
0
EOF
