0
SECTION
2
HEADER
9
$ACADVER
1
AC1015
9
$DWGCODEPAGE
3
ANSI_1252
9
$HANDSEED
5
207
9
$ANGBASE
50
0
9
$ANGDIR
70
0
9
$ATTMODE
70
1
9
$AUNITS
70
0
9
$AUPREC
70
0
9
$CECOLOR
62
256
9
$CELTSCALE
40
1
9
$CELTYPE
6
ByLayer
9
$CELWEIGHT
370
18
9
$CLAYER
8
0
9
$CMLJUST
70
0
9
$CMLSCALE
40
1
9
$CMLSTYLE
2
Standard
9
$DIMSTYLE
2
Standard
9
$TEXTSIZE
40
0.2
9
$TEXTSTYLE
7
Standard
9
$LUNITS
70
2
9
$LUPREC
70
4
9
$EXTNAMES
290
1
9
$INSUNITS
70
4
9
$LTSCALE
40
1
9
$LWDISPLAY
290
1
9
$PDMODE
70
0
9
$PDSIZE
40
0
9
$PLINEGEN
70
0
0
ENDSEC
0
SECTION
2
CLASSES
0
CLASS
1
RASTERVARIABLES
2
AcDbRasterVariables
3
ISM
90
0
280
0
281
0
0
ENDSEC
0
SECTION
2
TABLES
0
TABLE
2
VPORT
5
1fd
100
AcDbSymbolTable
0
VPORT
5
1
100
AcDbSymbolTableRecord
100
AcDbViewportTableRecord
2
*Active
70
0
10
0
20
0
11
1
21
1
12
-1
22
1
13
0
23
0
14
0.5
24
0.5
15
10
25
10
16
0
26
0
36
1
17
0
27
0
37
0
0
ENDTAB
0
TABLE
2
LTYPE
5
1fe
100
AcDbSymbolTable
0
LTYPE
5
14
100
AcDbSymbolTableRecord
100
AcDbLinetypeTableRecord
70
0
2
ByBlock
3

72
65
73
0
40
0
0
LTYPE
5
15
100
AcDbSymbolTableRecord
100
AcDbLinetypeTableRecord
70
0
2
ByLayer
3

72
65
73
0
40
0
0
LTYPE
5
16
100
AcDbSymbolTableRecord
100
AcDbLinetypeTableRecord
70
0
2
CONTINUOUS
3
Solid line
72
65
73
0
40
0
0
LTYPE
5
6A
100
AcDbSymbolTableRecord
100
AcDbLinetypeTableRecord
70
0
2
CENTER
3
____ _ ____ _ ____ _ ____
72
65
73
4
40
47.5
49
22
74
0
49
-8.5
74
0
49
8.5
74
0
49
-8.5
74
0
0
LTYPE
5
6B
100
AcDbSymbolTableRecord
100
AcDbLinetypeTableRecord
70
0
2
DASHED
3
__ __ __ __ __ __ __ __ __
72
65
73
2
40
25.72
49
12.86
74
0
49
-12.86
74
0
0
ENDTAB
0
TABLE
2
LAYER
5
1ff
100
AcDbSymbolTable
0
LAYER
5
10
100
AcDbSymbolTableRecord
100
AcDbLayerTableRecord
2
0
70
0
62
7
6
CONTINUOUS
290
1
370
-3
390
0
0
LAYER
5
6D
100
AcDbSymbolTableRecord
100
AcDbLayerTableRecord
2
80
70
0
62
-6
6
CONTINUOUS
290
1
370
-3
390
0
0
LAYER
5
6F
100
AcDbSymbolTableRecord
100
AcDbLayerTableRecord
2
2
70
0
62
7
6
CONTINUOUS
290
1
370
-3
390
0
0
LAYER
5
71
100
AcDbSymbolTableRecord
100
AcDbLayerTableRecord
2
81
70
0
62
-3
6
CONTINUOUS
290
1
370
-3
390
0
0
LAYER
5
74
100
AcDbSymbolTableRecord
100
AcDbLayerTableRecord
2
1
70
0
62
4
6
CONTINUOUS
290
1
370
-3
390
0
0
LAYER
5
7E
100
AcDbSymbolTableRecord
100
AcDbLayerTableRecord
2
4
70
0
62
-2
6
CENTER
290
1
370
-3
390
0
0
LAYER
5
1e9
100
AcDbSymbolTableRecord
100
AcDbLayerTableRecord
2
SK4
70
0
62
2
6
CENTER
290
1
370
-3
390
0
0
LAYER
5
1ea
100
AcDbSymbolTableRecord
100
AcDbLayerTableRecord
2
SK1
70
0
62
4
6
CONTINUOUS
290
1
370
-3
390
0
0
LAYER
5
1eb
100
AcDbSymbolTableRecord
100
AcDbLayerTableRecord
2
SK6
70
0
62
5
6
CONTINUOUS
290
1
370
-3
390
0
0
LAYER
5
1ec
100
AcDbSymbolTableRecord
100
AcDbLayerTableRecord
2
SK2
70
0
62
7
6
CONTINUOUS
290
1
370
-3
390
0
0
ENDTAB
0
TABLE
2
STYLE
5
200
100
AcDbSymbolTable
0
STYLE
5
11
100
AcDbSymbolTableRecord
100
AcDbTextStyleTableRecord
2
Standard
3
txt
70
0
71
0
40
0
41
1
42
0
50
0
0
STYLE
5
14D
100
AcDbSymbolTableRecord
100
AcDbTextStyleTableRecord
2
iso_b_vert
3
simplex.shx
70
0
71
0
40
0
41
1
42
0
50
0
0
STYLE
5
14E
100
AcDbSymbolTableRecord
100
AcDbTextStyleTableRecord
2
DWGDirectTextStyle
3
simplex
70
0
71
0
40
0
41
1
42
0
50
0
0
ENDTAB
0
TABLE
2
DIMSTYLE
5
201
100
AcDbSymbolTable
100
AcDbDimStyleTable
0
DIMSTYLE
105
27
100
AcDbSymbolTableRecord
100
AcDbDimStyleTableRecord
2
Standard
70
0
3
<>
41
0.18
42
0.0625
44
0.18
140
0.18
147
0.09
73
0
74
0
77
1
271
2
275
0
278
52
280
0
340
11
0
ENDTAB
0
TABLE
2
VIEW
5
202
100
AcDbSymbolTable
0
ENDTAB
0
TABLE
2
UCS
5
203
100
AcDbSymbolTable
0
ENDTAB
0
TABLE
2
APPID
5
204
100
AcDbSymbolTable
0
APPID
5
12
100
AcDbSymbolTableRecord
100
AcDbRegAppTableRecord
2
ACAD
70
0
0
ENDTAB
0
TABLE
2
BLOCK_RECORD
5
205
100
AcDbSymbolTable
0
BLOCK_RECORD
5
1F
100
AcDbSymbolTableRecord
100
AcDbBlockTableRecord
2
*Model_Space
340
0
70
0
0
BLOCK_RECORD
5
1B
100
AcDbSymbolTableRecord
100
AcDbBlockTableRecord
2
*Paper_Space
340
0
70
0
0
BLOCK_RECORD
5
23
100
AcDbSymbolTableRecord
100
AcDbBlockTableRecord
2
*Paper_Space0
340
0
70
0
0
BLOCK_RECORD
5
150
100
AcDbSymbolTableRecord
100
AcDbBlockTableRecord
2
DimnDraft3D1
340
0
70
0
0
BLOCK_RECORD
5
15E
100
AcDbSymbolTableRecord
100
AcDbBlockTableRecord
2
_CLOSED
340
0
70
0
0
BLOCK_RECORD
5
165
100
AcDbSymbolTableRecord
100
AcDbBlockTableRecord
2
DimnDraft3D2
340
0
70
0
0
BLOCK_RECORD
5
174
100
AcDbSymbolTableRecord
100
AcDbBlockTableRecord
2
DimnDraft3D3
340
0
70
0
0
BLOCK_RECORD
5
182
100
AcDbSymbolTableRecord
100
AcDbBlockTableRecord
2
DimnDraft3D4
340
0
70
0
0
ENDTAB
0
ENDSEC
0
SECTION
2
BLOCKS
0
BLOCK
5
20
100
AcDbEntity
8
0
100
AcDbBlockBegin
2
*Model_Space
70
0
10
0
20
0
30
0
3
*Model_Space
0
ENDBLK
5
21
100
AcDbEntity
8
0
100
AcDbBlockEnd
0
BLOCK
5
1C
100
AcDbEntity
8
0
100
AcDbBlockBegin
2
*Paper_Space
70
0
10
0
20
0
30
0
3
*Paper_Space
0
ENDBLK
5
1D
100
AcDbEntity
8
0
100
AcDbBlockEnd
0
BLOCK
5
24
100
AcDbEntity
8
0
100
AcDbBlockBegin
2
*Paper_Space0
70
0
10
0
20
0
30
0
3
*Paper_Space0
0
ENDBLK
5
25
100
AcDbEntity
8
0
100
AcDbBlockEnd
0
BLOCK
5
15B
100
AcDbEntity
8
0
100
AcDbBlockBegin
2
DimnDraft3D1
70
0
10
0
20
0
30
0
3
DimnDraft3D1
0
MTEXT
5
151
100
AcDbEntity
8
2
62
256
6
ByLayer
370
18
48
1
60
0
100
AcDbMText
10
100.525
20
0.118421
30
0
210
0
220
0
230
1
1
\W0.5404;6
40
4.5
41
0
44
1.084337
50
90
71
7
72
5
7
iso_b_vert
0
LINE
5
152
100
AcDbEntity
8
2
62
256
6
ByLayer
370
13
48
1
60
0
100
AcDbLine
10
78.9
20
3
30
0
11
104.65
21
3
31
0
39
0
210
0
220
0
230
1
0
LINE
5
153
100
AcDbEntity
8
2
62
256
6
ByLayer
370
13
48
1
60
0
100
AcDbLine
10
78.9
20
-3
30
0
11
104.65
21
-3
31
0
39
0
210
0
220
0
230
1
0
LINE
5
154
100
AcDbEntity
8
2
62
256
6
ByLayer
370
13
48
1
60
0
100
AcDbLine
10
101.65
20
14.25
30
0
11
101.65
21
-14.25
31
0
39
0
210
0
220
0
230
1
0
LINE
5
155
100
AcDbEntity
8
2
62
256
6
ByLayer
370
13
48
1
60
0
100
AcDbLine
10
101.65
20
3
30
0
11
101.255043
21
5.999999
31
0
39
0
210
0
220
0
230
1
0
LINE
5
156
100
AcDbEntity
8
2
62
256
6
ByLayer
370
13
48
1
60
0
100
AcDbLine
10
101.65
20
3
30
0
11
102.044957
21
6.000001
31
0
39
0
210
0
220
0
230
1
0
LINE
5
157
100
AcDbEntity
8
2
62
256
6
ByLayer
370
13
48
1
60
0
100
AcDbLine
10
101.255043
20
5.999999
30
0
11
102.044957
21
6.000001
31
0
39
0
210
0
220
0
230
1
0
LINE
5
158
100
AcDbEntity
8
2
62
256
6
ByLayer
370
13
48
1
60
0
100
AcDbLine
10
101.65
20
-3
30
0
11
102.044957
21
-5.999999
31
0
39
0
210
0
220
0
230
1
0
LINE
5
159
100
AcDbEntity
8
2
62
256
6
ByLayer
370
13
48
1
60
0
100
AcDbLine
10
101.65
20
-3
30
0
11
101.255043
21
-6.000001
31
0
39
0
210
0
220
0
230
1
0
LINE
5
15A
100
AcDbEntity
8
2
62
256
6
ByLayer
370
13
48
1
60
0
100
AcDbLine
10
102.044957
20
-5.999999
30
0
11
101.255043
21
-6.000001
31
0
39
0
210
0
220
0
230
1
0
ENDBLK
5
15C
100
AcDbEntity
8
0
100
AcDbBlockEnd
0
BLOCK
5
15F
100
AcDbEntity
8
0
100
AcDbBlockBegin
2
_CLOSED
70
0
10
0
20
0
30
0
3
_CLOSED
0
LINE
5
161
100
AcDbEntity
8
0
62
256
6
ByLayer
370
-2
48
1
60
0
100
AcDbLine
10
-1
20
0.166667
30
0
11
0
21
0
31
0
39
0
210
0
220
0
230
1
0
LINE
5
162
100
AcDbEntity
8
0
62
256
6
ByLayer
370
-2
48
1
60
0
100
AcDbLine
10
0
20
0
30
0
11
-1
21
-0.166667
31
0
39
0
210
0
220
0
230
1
0
LINE
5
163
100
AcDbEntity
8
0
62
256
6
ByLayer
370
-2
48
1
60
0
100
AcDbLine
10
-1
20
0.166667
30
0
11
-1
21
-0.166667
31
0
39
0
210
0
220
0
230
1
0
LINE
5
164
100
AcDbEntity
8
0
62
256
6
ByLayer
370
-2
48
1
60
0
100
AcDbLine
10
0
20
0
30
0
11
-1
21
0
31
0
39
0
210
0
220
0
230
1
0
ENDBLK
5
160
100
AcDbEntity
8
0
100
AcDbBlockEnd
0
BLOCK
5
171
100
AcDbEntity
8
0
100
AcDbBlockBegin
2
DimnDraft3D2
70
0
10
0
20
0
30
0
3
DimnDraft3D2
0
MTEXT
5
166
100
AcDbEntity
8
SK2
62
256
6
ByLayer
370
18
48
1
60
0
100
AcDbMText
10
-45.475
20
-1.563158
30
0
210
0
220
0
230
1
1
\W0.6740;50
40
4.5
41
0
44
1.084337
50
90
71
7
72
5
7
iso_b_vert
0
LINE
5
168
100
AcDbEntity
8
SK2
62
256
6
ByLayer
370
13
48
1
60
0
100
AcDbLine
10
-1.5
20
-25
30
0
11
-47.35
21
-25
31
0
39
0
210
0
220
0
230
1
0
LINE
5
169
100
AcDbEntity
8
SK2
62
256
6
ByLayer
370
13
48
1
60
0
100
AcDbLine
10
-1.5
20
25
30
0
11
-47.35
21
25
31
0
39
0
210
0
220
0
230
1
0
LINE
5
16A
100
AcDbEntity
8
SK2
62
256
6
ByLayer
370
13
48
1
60
0
100
AcDbLine
10
-44.35
20
-25
30
0
11
-44.35
21
25
31
0
39
0
210
0
220
0
230
1
0
LINE
5
16B
100
AcDbEntity
8
SK2
62
256
6
ByLayer
370
13
48
1
60
0
100
AcDbLine
10
-44.35
20
-25
30
0
11
-44.744957
21
-22.000001
31
0
39
0
210
0
220
0
230
1
0
LINE
5
16C
100
AcDbEntity
8
SK2
62
256
6
ByLayer
370
13
48
1
60
0
100
AcDbLine
10
-44.35
20
-25
30
0
11
-43.955043
21
-21.999999
31
0
39
0
210
0
220
0
230
1
0
LINE
5
16D
100
AcDbEntity
8
SK2
62
256
6
ByLayer
370
13
48
1
60
0
100
AcDbLine
10
-44.744957
20
-22.000001
30
0
11
-43.955043
21
-21.999999
31
0
39
0
210
0
220
0
230
1
0
LINE
5
16E
100
AcDbEntity
8
SK2
62
256
6
ByLayer
370
13
48
1
60
0
100
AcDbLine
10
-44.35
20
25
30
0
11
-43.955043
21
22.000001
31
0
39
0
210
0
220
0
230
1
0
LINE
5
16F
100
AcDbEntity
8
SK2
62
256
6
ByLayer
370
13
48
1
60
0
100
AcDbLine
10
-44.35
20
25
30
0
11
-44.744957
21
21.999999
31
0
39
0
210
0
220
0
230
1
0
LINE
5
170
100
AcDbEntity
8
SK2
62
256
6
ByLayer
370
13
48
1
60
0
100
AcDbLine
10
-43.955043
20
22.000001
30
0
11
-44.744957
21
21.999999
31
0
39
0
210
0
220
0
230
1
0
ENDBLK
5
172
100
AcDbEntity
8
0
100
AcDbBlockEnd
0
BLOCK
5
17F
100
AcDbEntity
8
0
100
AcDbBlockBegin
2
DimnDraft3D3
70
0
10
0
20
0
30
0
3
DimnDraft3D3
0
MTEXT
5
175
100
AcDbEntity
8
2
62
256
6
ByLayer
370
18
48
1
60
0
100
AcDbMText
10
37.136842
20
38.875
30
0
210
0
220
0
230
1
1
\W0.6740;77
40
4.5
41
0
44
1.084337
50
0
71
7
72
5
7
iso_b_vert
0
LINE
5
176
100
AcDbEntity
8
2
62
256
6
ByLayer
370
13
48
1
60
0
100
AcDbLine
10
77.4
20
4.5
30
0
11
77.4
21
40.75
31
0
39
0
210
0
220
0
230
1
0
LINE
5
177
100
AcDbEntity
8
2
62
256
6
ByLayer
370
13
48
1
60
0
100
AcDbLine
10
0
20
25.5
30
0
11
0
21
40.75
31
0
39
0
210
0
220
0
230
1
0
LINE
5
178
100
AcDbEntity
8
2
62
256
6
ByLayer
370
13
48
1
60
0
100
AcDbLine
10
77.4
20
37.75
30
0
11
0
21
37.75
31
0
39
0
210
0
220
0
230
1
0
LINE
5
179
100
AcDbEntity
8
2
62
256
6
ByLayer
370
13
48
1
60
0
100
AcDbLine
10
77.4
20
37.75
30
0
11
74.400001
21
37.355043
31
0
39
0
210
0
220
0
230
1
0
LINE
5
17A
100
AcDbEntity
8
2
62
256
6
ByLayer
370
13
48
1
60
0
100
AcDbLine
10
77.4
20
37.75
30
0
11
74.399999
21
38.144957
31
0
39
0
210
0
220
0
230
1
0
LINE
5
17B
100
AcDbEntity
8
2
62
256
6
ByLayer
370
13
48
1
60
0
100
AcDbLine
10
74.400001
20
37.355043
30
0
11
74.399999
21
38.144957
31
0
39
0
210
0
220
0
230
1
0
LINE
5
17C
100
AcDbEntity
8
2
62
256
6
ByLayer
370
13
48
1
60
0
100
AcDbLine
10
0
20
37.75
30
0
11
2.999999
21
38.144957
31
0
39
0
210
0
220
0
230
1
0
LINE
5
17D
100
AcDbEntity
8
2
62
256
6
ByLayer
370
13
48
1
60
0
100
AcDbLine
10
0
20
37.75
30
0
11
3.000001
21
37.355043
31
0
39
0
210
0
220
0
230
1
0
LINE
5
17E
100
AcDbEntity
8
2
62
256
6
ByLayer
370
13
48
1
60
0
100
AcDbLine
10
2.999999
20
38.144957
30
0
11
3.000001
21
37.355043
31
0
39
0
210
0
220
0
230
1
0
ENDBLK
5
180
100
AcDbEntity
8
0
100
AcDbBlockEnd
0
BLOCK
5
18D
100
AcDbEntity
8
0
100
AcDbBlockBegin
2
DimnDraft3D4
70
0
10
0
20
0
30
0
3
DimnDraft3D4
0
MTEXT
5
183
100
AcDbEntity
8
2
62
256
6
ByLayer
370
18
48
1
60
0
100
AcDbMText
10
63.136842
20
-13.125
30
0
210
0
220
0
230
1
1
\W0.6740;25
40
4.5
41
0
44
1.084337
50
0
71
7
72
5
7
iso_b_vert
0
LINE
5
184
100
AcDbEntity
8
2
62
256
6
ByLayer
370
13
48
1
60
0
100
AcDbLine
10
52
20
-5.5
30
0
11
52
21
-17.25
31
0
39
0
210
0
220
0
230
1
0
LINE
5
185
100
AcDbEntity
8
2
62
256
6
ByLayer
370
13
48
1
60
0
100
AcDbLine
10
77.4
20
-4.5
30
0
11
77.4
21
-17.25
31
0
39
0
210
0
220
0
230
1
0
LINE
5
186
100
AcDbEntity
8
2
62
256
6
ByLayer
370
13
48
1
60
0
100
AcDbLine
10
52
20
-14.25
30
0
11
77.4
21
-14.25
31
0
39
0
210
0
220
0
230
1
0
LINE
5
187
100
AcDbEntity
8
2
62
256
6
ByLayer
370
13
48
1
60
0
100
AcDbLine
10
52
20
-14.25
30
0
11
54.999999
21
-13.855043
31
0
39
0
210
0
220
0
230
1
0
LINE
5
188
100
AcDbEntity
8
2
62
256
6
ByLayer
370
13
48
1
60
0
100
AcDbLine
10
52
20
-14.25
30
0
11
55.000001
21
-14.644957
31
0
39
0
210
0
220
0
230
1
0
LINE
5
189
100
AcDbEntity
8
2
62
256
6
ByLayer
370
13
48
1
60
0
100
AcDbLine
10
54.999999
20
-13.855043
30
0
11
55.000001
21
-14.644957
31
0
39
0
210
0
220
0
230
1
0
LINE
5
18A
100
AcDbEntity
8
2
62
256
6
ByLayer
370
13
48
1
60
0
100
AcDbLine
10
77.4
20
-14.25
30
0
11
74.400001
21
-14.644957
31
0
39
0
210
0
220
0
230
1
0
LINE
5
18B
100
AcDbEntity
8
2
62
256
6
ByLayer
370
13
48
1
60
0
100
AcDbLine
10
77.4
20
-14.25
30
0
11
74.399999
21
-13.855043
31
0
39
0
210
0
220
0
230
1
0
LINE
5
18C
100
AcDbEntity
8
2
62
256
6
ByLayer
370
13
48
1
60
0
100
AcDbLine
10
74.400001
20
-14.644957
30
0
11
74.399999
21
-13.855043
31
0
39
0
210
0
220
0
230
1
0
ENDBLK
5
18E
100
AcDbEntity
8
0
100
AcDbBlockEnd
0
ENDSEC
0
SECTION
2
ENTITIES
0
ARC
5
E2
100
AcDbEntity
8
SK1
62
256
6
ByLayer
370
18
48
1
60
0
100
AcDbCircle
39
0
10
0.6
20
-18.75
30
0
40
1.00000000000001
210
0
220
0
230
-1
100
AcDbArc
50
113.578178
51
126.869898
0
ARC
5
E3
100
AcDbEntity
8
SK1
62
256
6
ByLayer
370
18
48
1
60
0
100
AcDbCircle
39
0
10
0.6
20
18.75
30
0
40
1.00000000000001
210
0
220
0
230
-1
100
AcDbArc
50
233.130102
51
246.421822
0
ARC
5
E5
100
AcDbEntity
8
1
62
256
6
ByLayer
370
18
48
1
60
0
100
AcDbCircle
39
0
10
52
20
8.175
30
0
40
6
210
0
220
0
230
1
100
AcDbArc
50
205
51
270
0
ARC
5
E6
100
AcDbEntity
8
1
62
256
6
ByLayer
370
18
48
1
60
0
100
AcDbCircle
39
0
10
52
20
-8.175
30
0
40
6
210
0
220
0
230
1
100
AcDbArc
50
90
51
155
0
ARC
5
E9
100
AcDbEntity
8
1
62
256
6
ByLayer
370
18
48
1
60
0
100
AcDbCircle
39
0
10
-39.175768
20
0
30
0
40
0.501259405157916
210
0
220
0
230
-1
100
AcDbArc
50
278.054217
51
81.945783
0
ARC
5
EA
100
AcDbEntity
8
1
62
256
6
ByLayer
370
18
48
1
60
0
100
AcDbCircle
39
0
10
-44.197197
20
1.575615
30
0
40
1.13980641809794
210
0
220
0
230
-1
100
AcDbArc
50
288.752695
51
17.772659
0
ARC
5
EB
100
AcDbEntity
8
1
62
256
6
ByLayer
370
18
48
1
60
0
100
AcDbCircle
39
0
10
-44.197197
20
-1.575615
30
0
40
1.13980641809794
210
0
220
0
230
-1
100
AcDbArc
50
342.227341
51
77.772659
0
ARC
5
EC
100
AcDbEntity
8
1
62
256
6
ByLayer
370
18
48
1
60
0
100
AcDbCircle
39
0
10
-40.32196
20
1.985263
30
0
40
0.501259405157916
210
0
220
0
230
-1
100
AcDbArc
50
352.925818
51
127.074182
0
ARC
5
ED
100
AcDbEntity
8
1
62
256
6
ByLayer
370
18
48
1
60
0
100
AcDbCircle
39
0
10
-41.468152
20
3.15123
30
0
40
1.13980641809794
210
0
220
0
230
-1
100
AcDbArc
50
222.227341
51
317.772659
0
ARC
5
EF
100
AcDbEntity
8
1
62
256
6
ByLayer
370
18
48
1
60
0
100
AcDbCircle
39
0
10
-38.739107
20
1.575615
30
0
40
1.13980641809794
210
0
220
0
230
-1
100
AcDbArc
50
162.227341
51
251.247305
0
ARC
5
F0
100
AcDbEntity
8
1
62
256
6
ByLayer
370
18
48
1
60
0
100
AcDbCircle
39
0
10
-38.739107
20
-1.575615
30
0
40
1.13980641809794
210
0
220
0
230
-1
100
AcDbArc
50
108.752695
51
191.247305
0
ARC
5
F1
100
AcDbEntity
8
1
62
256
6
ByLayer
370
18
48
1
60
0
100
AcDbCircle
39
0
10
-41.468152
20
-3.15123
30
0
40
1.13980641809794
210
0
220
0
230
-1
100
AcDbArc
50
48.752695
51
131.247305
0
ARC
5
F2
100
AcDbEntity
8
1
62
256
6
ByLayer
370
18
48
1
60
0
100
AcDbCircle
39
0
10
-42.614344
20
-1.985263
30
0
40
0.501259405157916
210
0
220
0
230
-1
100
AcDbArc
50
172.925818
51
321.945783
0
ARC
5
F4
100
AcDbEntity
8
1
62
256
6
ByLayer
370
18
48
1
60
0
100
AcDbCircle
39
0
10
-43.760536
20
0
30
0
40
0.501259405157916
210
0
220
0
230
-1
100
AcDbArc
50
98.054217
51
247.074182
0
ARC
5
F5
100
AcDbEntity
8
1
62
256
6
ByLayer
370
18
48
1
60
0
100
AcDbCircle
39
0
10
-40.32196
20
-1.985263
30
0
40
0.501259405157916
210
0
220
0
230
-1
100
AcDbArc
50
218.054217
51
21.945783
0
ARC
5
F6
100
AcDbEntity
8
1
62
256
6
ByLayer
370
18
48
1
60
0
100
AcDbCircle
39
0
10
-42.614344
20
1.985263
30
0
40
0.501259405157916
210
0
220
0
230
-1
100
AcDbArc
50
52.925818
51
187.074182
0
CIRCLE
5
E4
100
AcDbEntity
8
1
62
256
6
ByLayer
370
18
48
1
60
0
100
AcDbCircle
10
-7.5
20
0
30
0
40
2
39
0
210
0
220
0
230
-1
0
CIRCLE
5
E7
100
AcDbEntity
8
1
62
256
6
ByLayer
370
18
48
1
60
0
100
AcDbCircle
10
-41.468152
20
0
30
0
40
5.5
39
0
210
0
220
0
230
-1
0
CIRCLE
5
E8
100
AcDbEntity
8
1
62
256
6
ByLayer
370
18
48
1
60
0
100
AcDbCircle
10
-41.468152
20
0
30
0
40
3.0330983114651
39
0
210
0
220
0
230
-1
0
CIRCLE
5
EE
100
AcDbEntity
8
1
62
256
6
ByLayer
370
18
48
1
60
0
100
AcDbCircle
10
-41.468152
20
0
30
0
40
5.0038
39
0
210
0
220
0
230
-1
0
CIRCLE
5
F3
100
AcDbEntity
8
1
62
256
6
ByLayer
370
18
48
1
60
0
100
AcDbCircle
10
41.468152
20
0
30
0
40
4.4958
39
0
210
0
220
0
230
1
0
ELLIPSE
5
F7
100
AcDbEntity
8
1
62
256
6
ByLayer
370
18
48
1
60
0
100
AcDbEllipse
10
21.056258
20
0
30
0
11
-11.7092723497278
21
-24.6771864409381
31
0
210
0
220
0
230
1
40
0.341999
41
-1.08183270048926
42
-0.167213071908978
0
ELLIPSE
5
F8
100
AcDbEntity
8
1
62
256
6
ByLayer
370
18
48
1
60
0
100
AcDbEllipse
10
18.187217
20
0
30
0
11
2.92863335579068E-14
21
24.9999999999999
31
0
210
0
220
0
230
1
40
0.087489
41
0.577648022100201
42
2.56394463148959
0
ELLIPSE
5
F9
100
AcDbEntity
8
1
62
256
6
ByLayer
370
18
48
1
60
0
100
AcDbEllipse
10
31.191619
20
27.217101
30
0
11
-3.00000000000001
21
7.02872005389768E-15
31
0
210
0
220
0
230
1
40
0.087489
41
-2.06577710592303
42
-2.70810130806759
0
ELLIPSE
5
FA
100
AcDbEntity
8
1
62
256
6
ByLayer
370
18
48
1
60
0
100
AcDbEllipse
10
31.191619
20
-27.217101
30
0
11
-3
21
7.02872005389765E-15
31
0
210
0
220
0
230
1
40
0.087489
41
2.70810130806762
42
2.06577710592304
0
ELLIPSE
5
FB
100
AcDbEntity
8
1
62
256
6
ByLayer
370
18
48
1
60
0
100
AcDbEllipse
10
-1.056258
20
0
30
0
11
-11.7092723497277
21
24.677186440938
31
0
210
0
220
0
230
1
40
0.341999
41
-2.97437958168082
42
-2.05975995310053
0
ELLIPSE
5
FC
100
AcDbEntity
8
1
62
256
6
ByLayer
370
18
48
1
60
0
100
AcDbEllipse
10
-1.056258
20
0
30
0
11
-11.709272349727
21
-24.677186440937
31
0
210
0
220
0
230
1
40
0.341999
41
2.0597599531005
42
2.97437958168081
0
ELLIPSE
5
FD
100
AcDbEntity
8
1
62
256
6
ByLayer
370
18
48
1
60
0
100
AcDbEllipse
10
21.056258
20
0
30
0
11
-11.7092723497275
21
24.6771864409378
31
0
210
0
220
0
230
1
40
0.341999
41
0.167213071908977
42
1.08183270048926
0
ELLIPSE
5
FE
100
AcDbEntity
8
1
62
256
6
ByLayer
370
18
48
1
60
0
100
AcDbEllipse
10
16.612421
20
1.606766
30
0
11
-0.00803358549025109
21
-6.09326268614812
31
0
210
0
220
0
230
1
40
0.086139
41
2.34619606865418
42
0.826005880646348
0
POINT
5
6C
100
AcDbEntity
8
80
62
256
6
ByLayer
370
18
48
1
60
0
100
AcDbPoint
10
0
20
0
30
0
39
0
210
0
220
0
230
1
50
360
0
POINT
5
6E
100
AcDbEntity
8
2
62
256
6
ByLayer
370
18
48
1
60
0
100
AcDbPoint
10
77
20
3
30
0
39
0
210
0
220
0
230
1
50
360
0
POINT
5
70
100
AcDbEntity
8
81
62
256
6
ByLayer
370
18
48
1
60
0
100
AcDbPoint
10
77
20
3
30
0
39
0
210
0
220
0
230
1
50
360
0
SPLINE
5
FF
100
AcDbEntity
8
SK1
62
256
6
ByLayer
370
18
48
1
60
0
100
AcDbSpline
70
4
71
2
72
6
73
3
40
0
40
0
40
0
40
1
40
1
40
1
41
1
10
-28.5
20
-16.8542724489282
30
0
41
1
10
-15.3499999999286
20
-17.1845422635703
30
0
41
1
10
-2.20000000000002
20
-17.5148116792767
30
0
0
SPLINE
5
100
100
AcDbEntity
8
SK1
62
256
6
ByLayer
370
18
48
1
60
0
100
AcDbSpline
70
4
71
2
72
6
73
3
40
0
40
0
40
0
40
1
40
1
40
1
41
1
10
-2.19999999999999
20
17.5148117187522
30
0
41
1
10
-15.3499999999294
20
17.1845422725478
30
0
41
1
10
-28.5
20
16.854272429841
30
0
0
SPLINE
5
101
100
AcDbEntity
8
SK1
62
256
6
ByLayer
370
18
48
1
60
0
100
AcDbSpline
70
4
71
3
72
13
73
9
40
0
40
0
40
0
40
0
40
0.239456135733551
40
0.368359721896995
40
0.499998983985648
40
0.631638415256368
40
0.760542467762615
40
1
40
1
40
1
40
1
41
1
10
-2.20000000000002
20
-17.520098551796
30
0
41
1
10
-2.19909198642202
20
-17.4940410756898
30
0
41
1
10
-2.19103284106865
20
-17.4566684913666
30
0
41
1
10
-2.16563592203258
20
-17.4104493175479
30
0
41
1
10
-2.13886378679177
20
-17.3791677636994
30
0
41
1
10
-2.10627712749803
20
-17.3540003935063
30
0
41
1
10
-2.05884064234169
20
-17.3309565910454
30
0
41
1
10
-2.02111030873064
20
-17.3247843360228
30
0
41
1
10
-1.99503997793931
20
-17.3251859759625
30
0
0
SPLINE
5
102
100
AcDbEntity
8
SK1
62
256
6
ByLayer
370
18
48
1
60
0
100
AcDbSpline
70
4
71
3
72
13
73
9
40
0
40
0
40
0
40
0
40
0.2394575322828
40
0.368361584804615
40
0.500001016081333
40
0.631640278164845
40
0.760543864313148
40
1
40
1
40
1
40
1
41
1
10
-1.99503997793928
20
17.3251861589552
30
0
41
1
10
-2.02111030872962
20
17.324784519015
30
0
41
1
10
-2.05884064233982
20
17.3309567740351
30
0
41
1
10
-2.10627712749661
20
17.3540005764861
30
0
41
1
10
-2.13886378679044
20
17.3791679466684
30
0
41
1
10
-2.16563592203158
20
17.4104495005037
30
0
41
1
10
-2.19103284106788
20
17.4566686743027
30
0
41
1
10
-2.19909198642125
20
17.4940412586114
30
0
41
1
10
-2.19999999999999
20
17.5200987347078
30
0
0
SPLINE
5
103
100
AcDbEntity
8
SK1
62
256
6
ByLayer
370
18
48
1
60
0
100
AcDbSpline
70
4
71
2
72
6
73
3
40
0
40
0
40
0
40
1
40
1
40
1
41
1
10
-1.99503997793931
20
-17.3199593099743
30
0
41
1
10
-1.19500843340705
20
-17.340052552406
30
0
41
1
10
-0.394976888875306
20
-17.3601457933935
30
0
0
SPLINE
5
104
100
AcDbEntity
8
SK1
62
256
6
ByLayer
370
18
48
1
60
0
100
AcDbSpline
70
4
71
2
72
6
73
3
40
0
40
0
40
0
40
1
40
1
40
1
41
1
10
-0.394976888875277
20
17.3601458189993
30
0
41
1
10
-1.19500843340703
20
17.3400525762132
30
0
41
1
10
-1.99503997793928
20
17.3199593319919
30
0
0
SPLINE
5
105
100
AcDbEntity
8
SK1
62
256
6
ByLayer
370
18
48
1
60
0
100
AcDbSpline
70
4
71
2
72
6
73
3
40
0
40
0
40
0
40
1
40
1
40
1
41
1
10
-30
20
-15.9924794145163
30
0
41
1
10
-29.2499999991495
20
-16.4254650261933
30
0
41
1
10
-28.5
20
-16.8584504491481
30
0
0
SPLINE
5
106
100
AcDbEntity
8
SK1
62
256
6
ByLayer
370
18
48
1
60
0
100
AcDbSpline
70
4
71
2
72
6
73
3
40
0
40
0
40
0
40
1
40
1
40
1
41
1
10
-28.5
20
16.8584505716142
30
0
41
1
10
-29.2499999991495
20
16.4254651505507
30
0
41
1
10
-30
20
15.9924795407901
30
0
0
SPLINE
5
107
100
AcDbEntity
8
SK1
62
256
6
ByLayer
370
18
48
1
60
0
100
AcDbSpline
70
4
71
2
72
6
73
3
40
0
40
0
40
0
40
1
40
1
40
1
41
1
10
-0.394976888875306
20
-17.359696795897
30
0
41
1
10
-0.286004994367318
20
-17.3675903489467
30
0
41
1
10
-0.248878635305232
20
-17.4470673686671
30
0
0
SPLINE
5
108
100
AcDbEntity
8
SK1
62
256
6
ByLayer
370
18
48
1
60
0
100
AcDbSpline
70
4
71
2
72
6
73
3
40
0
40
0
40
0
40
1
40
1
40
1
41
1
10
-0.248803384698135
20
17.4471793423611
30
0
41
1
10
-0.285937388777199
20
17.3676196897178
30
0
41
1
10
-0.394976888875277
20
17.3596982935394
30
0
0
SPLINE
5
109
100
AcDbEntity
8
1
62
256
6
ByLayer
370
18
48
1
60
0
100
AcDbSpline
70
4
71
3
72
8
73
4
40
0
40
0
40
0
40
0
40
1
40
1
40
1
40
1
41
1
10
20.9776546489586
20
23.1442363914738
30
0
41
1
10
21.2651389610629
20
24.3130084132679
30
0
41
1
10
21.5558108681531
20
25.4809894027544
30
0
41
1
10
21.8486823661407
20
26.648424542636
30
0
0
SPLINE
5
10A
100
AcDbEntity
8
1
62
256
6
ByLayer
370
18
48
1
60
0
100
AcDbSpline
70
4
71
3
72
16
73
12
40
0
40
0
40
0
40
0
40
0.200326547197403
40
0.200326547197403
40
0.400322050899178
40
0.400322050899178
40
0.605258405683443
40
0.605258405683443
40
0.826052569339503
40
0.826052569339503
40
1
40
1
40
1
40
1
41
1
10
20.92079238
20
22.9127020696849
30
0
41
1
10
20.5033271530541
20
22.9101116529832
30
0
41
1
10
20.0812371195425
20
22.8783068537347
30
0
41
1
10
19.299096299156
20
22.7592804422814
30
0
41
1
10
18.9284878483577
20
22.6704359625487
30
0
41
1
10
18.2740308495
20
22.4400623080206
30
0
41
1
10
17.9841398010932
20
22.2942821703048
30
0
41
1
10
17.5005702417939
20
21.9473297833351
30
0
41
1
10
17.3097228266616
20
21.73851397741
30
0
41
1
10
17.0821584685005
20
21.3341429104285
30
0
41
1
10
17.0195495182619
20
21.1424572231726
30
0
41
1
10
16.9928758565916
20
20.9437318835931
30
0
0
SPLINE
5
10B
100
AcDbEntity
8
1
62
256
6
ByLayer
370
18
48
1
60
0
100
AcDbSpline
70
4
71
3
72
8
73
4
40
0
40
0
40
0
40
0
40
1
40
1
40
1
40
1
41
1
10
21.592973254874
20
27.508060898992
30
0
41
1
10
21.5216682320619
20
27.2211616807982
30
0
41
1
10
21.6125196172488
20
26.9346289179861
30
0
41
1
10
21.8486823661407
20
26.648424542636
30
0
0
SPLINE
5
10C
100
AcDbEntity
8
1
62
256
6
ByLayer
370
18
48
1
60
0
100
AcDbSpline
70
4
71
3
72
16
73
12
40
0
40
0
40
0
40
0
40
0.11143027962805
40
0.11143027962805
40
0.248747543515472
40
0.248747543515472
40
0.465535329195252
40
0.465535329195252
40
0.88385535186756
40
0.88385535186756
40
1
40
1
40
1
40
1
41
1
10
8.53867513459483
20
23.8391299750503
30
0
41
1
10
8.51081528400582
20
23.8391299750503
30
0
41
1
10
8.48260885722451
20
23.8375361275706
30
0
41
1
10
8.42415079676073
20
23.831150658589
30
0
41
1
10
8.39395861076946
20
23.825666877018
30
0
41
1
10
8.32484624564248
20
23.8089605749788
30
0
41
1
10
8.28921459142958
20
23.796037970776
30
0
41
1
10
8.20100610925402
20
23.7556824246832
30
0
41
1
10
8.16026799314915
20
23.7250165399981
30
0
41
1
10
8.12070829847323
20
23.6845451449633
30
0
41
1
10
8.11283840142693
20
23.6755726082077
30
0
41
1
10
8.10566243270247
20
23.6665017920809
30
0
0
SPLINE
5
10D
100
AcDbEntity
8
1
62
256
6
ByLayer
370
18
48
1
60
0
100
AcDbSpline
70
4
71
3
72
14
73
10
40
0
40
0
40
0
40
0
40
0.318825335738354
40
0.318825335738354
40
0.641378913519963
40
0.641378913519963
40
0.963672388640706
40
0.963672388640706
40
1
40
1
40
1
40
1
41
1
10
69.1195868846333
20
0.464218545652784
30
0
41
1
10
69.1067930140129
20
0.469896797587012
30
0
41
1
10
69.0946194073435
20
0.478313697316992
30
0
41
1
10
69.0733610363008
20
0.499388582123032
30
0
41
1
10
69.0640216196877
20
0.512387611159454
30
0
41
1
10
69.0496053425087
20
0.541023326304355
30
0
41
1
10
69.0443262529214
20
0.557053466156987
30
0
41
1
10
69.0410810594112
20
0.575348858119611
30
0
41
1
10
69.0407776400381
20
0.577233997623381
30
0
41
1
10
69.0405040733832
20
0.57912521212063
30
0
0
SPLINE
5
10E
100
AcDbEntity
8
1
62
256
6
ByLayer
370
18
48
1
60
0
100
AcDbSpline
70
4
71
3
72
8
73
4
40
0
40
0
40
0
40
0
40
1
40
1
40
1
40
1
41
1
10
20.9776546489585
20
-23.1442363914738
30
0
41
1
10
20.958672679923
20
-23.0670648958716
30
0
41
1
10
20.9397183901863
20
-22.9898868384201
30
0
41
1
10
20.92079238
20
-22.9127020696851
30
0
0
SPLINE
5
10F
100
AcDbEntity
8
1
62
256
6
ByLayer
370
18
48
1
60
0
100
AcDbSpline
70
4
71
3
72
16
73
12
40
0
40
0
40
0
40
0
40
0.111430279628047
40
0.111430279628047
40
0.248747543515475
40
0.248747543515475
40
0.465535329195272
40
0.465535329195272
40
0.883855351867603
40
0.883855351867603
40
1
40
1
40
1
40
1
41
1
10
11.4613248654052
20
7.52966679426501
30
0
41
1
10
11.4891847159942
20
7.52966679426501
30
0
41
1
10
11.5173911427755
20
7.53471706780854
30
0
41
1
10
11.5758492032393
20
7.55489210221026
30
0
41
1
10
11.6060413892306
20
7.57218953888443
30
0
41
1
10
11.6751537543576
20
7.62460019394089
30
0
41
1
10
11.7107854085705
20
7.66489294253907
30
0
41
1
10
11.798993890746
20
7.78941367630352
30
0
41
1
10
11.8397320068509
20
7.88247511004147
30
0
41
1
10
11.8792917015268
20
8.00269269538009
30
0
41
1
10
11.8871615985731
20
8.02920008991578
30
0
41
1
10
11.8943375672976
20
8.05584836782768
30
0
0
SPLINE
5
110
100
AcDbEntity
8
1
62
256
6
ByLayer
370
18
48
1
60
0
100
AcDbSpline
70
4
71
3
72
16
73
12
40
0
40
0
40
0
40
0
40
0.461208588217066
40
0.461208588217066
40
0.643534962278522
40
0.643534962278522
40
0.828408472975271
40
0.828408472975271
40
0.943003644159981
40
0.943003644159981
40
1
40
1
40
1
40
1
41
1
10
11.8943375672974
20
-8.05584836782776
30
0
41
1
10
11.8660503915151
20
-7.95080268681445
30
0
41
1
10
11.8273339192908
20
-7.84628670970801
30
0
41
1
10
11.7473160248315
20
-7.71442469145126
30
0
41
1
10
11.7212784637477
20
-7.67825379650728
30
0
41
1
10
11.6606543989164
20
-7.61290523367228
30
0
41
1
10
11.6251722226874
20
-7.5830592305141
30
0
41
1
10
11.5599225851958
20
-7.54855881865592
30
0
41
1
10
11.5324782774944
20
-7.5385201810229
30
0
41
1
10
11.4901684747699
20
-7.53097042135258
30
0
41
1
10
11.4757173930754
20
-7.52966679426473
30
0
41
1
10
11.4613248654053
20
-7.52966679426473
30
0
0
SPLINE
5
111
100
AcDbEntity
8
1
62
256
6
ByLayer
370
18
48
1
60
0
100
AcDbSpline
70
4
71
3
72
10
73
6
40
0
40
0
40
0
40
0
40
0.410853169441859
40
0.410853169441859
40
1
40
1
40
1
40
1
41
1
10
68.8094131712542
20
-2.17500000000007
30
0
41
1
10
68.8411175510138
20
-1.95645540762095
30
0
41
1
10
68.8727841728988
20
-1.73790265164769
30
0
41
1
10
68.9498190226546
20
-1.20594536685417
30
0
41
1
10
68.9951686730818
20
-0.89253682411632
30
0
41
1
10
69.0405040733832
20
-0.5791252121208
30
0
0
SPLINE
5
112
100
AcDbEntity
8
1
62
256
6
ByLayer
370
18
48
1
60
0
100
AcDbSpline
70
4
71
3
72
14
73
10
40
0
40
0
40
0
40
0
40
0.320648283064035
40
0.320648283064035
40
0.642556656017634
40
0.642556656017634
40
0.964767987530441
40
0.964767987530441
40
1
40
1
40
1
40
1
41
1
10
69.0405040733832
20
-0.5791252121208
30
0
41
1
10
69.0428848120555
20
-0.562666746108448
30
0
41
1
10
69.0476180403294
20
-0.546483280349065
30
0
41
1
10
69.0610331974548
20
-0.517267975846551
30
0
41
1
10
69.0699156352925
20
-0.503846318044083
30
0
41
1
10
69.0905403761736
20
-0.481636296557099
30
0
41
1
10
69.1025693737435
20
-0.472546082806218
30
0
41
1
10
69.1167287638942
20
-0.465523900223531
30
0
41
1
10
69.1181531019784
20
-0.464854895618714
30
0
41
1
10
69.1195868846332
20
-0.464218545652784
30
0
0
SPLINE
5
113
100
AcDbEntity
8
1
62
256
6
ByLayer
370
18
48
1
60
0
100
AcDbSpline
70
2053
71
3
72
44
73
40
40
0
40
0
40
0
40
0
40
0.053520481921805
40
0.053520481921805
40
0.107029469469776
40
0.107029469469776
40
0.160710726271113
40
0.160710726271113
40
0.214510713411772
40
0.214510713411772
40
0.268125647321841
40
0.268125647321841
40
0.321541968617733
40
0.321541968617733
40
0.375052899709309
40
0.375052899709309
40
0.428805328379091
40
0.428805328379091
40
0.482571685298716
40
0.482571685298716
40
0.536099239177903
40
0.536099239177903
40
0.589508921329073
40
0.589508921329073
40
0.643104479317492
40
0.643104479317492
40
0.696900183372663
40
0.696900183372663
40
0.750598739637034
40
0.750598739637034
40
0.804055770534044
40
0.804055770534044
40
0.857502155334759
40
0.857502155334759
40
0.911183921684973
40
0.911183921684973
40
0.964983854981701
40
0.964983854981701
40
1
40
1
40
1
40
1
41
1
10
7.50090522816779
20
-2.50750000000002
30
0
41
1
10
7.22013800657996
20
-2.50750000000002
30
0
41
1
10
6.93641987815403
20
-2.4593046434203
30
0
41
1
10
6.40835546013881
20
-2.27466370464074
30
0
41
1
10
6.15673041029814
20
-2.13571976202391
30
0
41
1
10
5.7187428627827
20
-1.78697809996353
30
0
41
1
10
5.5265380663526
20
-1.57214616476756
30
0
41
1
10
5.22768338805756
20
-1.09685924585204
30
0
41
1
10
5.11709308472552
20
-0.829700098199368
30
0
41
1
10
4.99271004289272
20
-0.282145425962199
30
0
41
1
10
4.97688633741998
20
0.0057686604632181
30
0
41
1
10
5.04033447646694
20
0.561802990721532
30
0
41
1
10
5.12011501551919
20
0.837624213265656
30
0
41
1
10
5.36279103727307
20
1.34092749061858
30
0
41
1
10
5.5291475255043
20
1.57524994038135
30
0
41
1
10
5.92523721524202
20
1.97141594978325
30
0
41
1
10
6.16073543106006
20
2.13841210607146
30
0
41
1
10
6.66705899760953
20
2.3817370018688
30
0
41
1
10
6.94492544811499
20
2.46139523440175
30
0
41
1
10
7.50250377634913
20
2.52306983579405
30
0
41
1
10
7.78988464571978
20
2.50635712588362
30
0
41
1
10
8.33470584158047
20
2.38092448780554
30
0
41
1
10
8.59968650406645
20
2.27070525537522
30
0
41
1
10
9.07277531873331
20
1.97289860609627
30
0
41
1
10
9.28720924607609
20
1.78095697383108
30
0
41
1
10
9.63659750252236
20
1.34217712666367
30
0
41
1
10
9.77608868978746
20
1.08904605206314
30
0
41
1
10
9.96058366810411
20
0.558424810162848
30
0
41
1
10
10.0082893700105
20
0.273625661432703
30
0
41
1
10
10.0066937896275
20
-0.286679924682289
30
0
41
1
10
9.95780571030059
20
-0.56992365124546
30
0
41
1
10
9.77208076883883
20
-1.09692934028283
30
0
41
1
10
9.63273468147202
20
-1.34793833435049
30
0
41
1
10
9.28328238411683
20
-1.78495757768721
30
0
41
1
10
9.06804983606406
20
-1.97671875753565
30
0
41
1
10
8.59214089874439
20
-2.2745881698782
30
0
41
1
10
8.32475216388659
20
-2.38462406950268
30
0
41
1
10
7.87032195579948
20
-2.48686124870457
30
0
41
1
10
7.68459912243929
20
-2.50750000000002
30
0
41
1
10
7.50090522816779
20
-2.50750000000002
30
0
0
SPLINE
5
114
100
AcDbEntity
8
1
62
256
6
ByLayer
370
18
48
1
60
0
100
AcDbSpline
70
4
71
3
72
16
73
12
40
0
40
0
40
0
40
0
40
0.461208588217085
40
0.461208588217085
40
0.643534962278541
40
0.643534962278541
40
0.828408472975291
40
0.828408472975291
40
0.943003644159993
40
0.943003644159993
40
1
40
1
40
1
40
1
41
1
10
11.8943375672974
20
23.6665017920809
30
0
41
1
10
11.8660503915152
20
23.7022583261632
30
0
41
1
10
11.8273339192908
20
23.7370095736338
30
0
41
1
10
11.7473160248315
20
23.7800170858174
30
0
41
1
10
11.7212784637477
20
23.7917125768793
30
0
41
1
10
11.6606543989164
20
23.8127037684951
30
0
41
1
10
11.6251722226874
20
23.8222104320954
30
0
41
1
10
11.5599225851958
20
23.8331586856493
30
0
41
1
10
11.5324782774944
20
23.836332378473
30
0
41
1
10
11.49016847477
20
23.8387183279986
30
0
41
1
10
11.4757173930754
20
23.8391299750505
30
0
41
1
10
11.4613248654053
20
23.8391299750505
30
0
0
SPLINE
5
115
100
AcDbEntity
8
1
62
256
6
ByLayer
370
18
48
1
60
0
100
AcDbSpline
70
4
71
3
72
8
73
4
40
0
40
0
40
0
40
0
40
1
40
1
40
1
40
1
41
1
10
21.8486823661407
20
-26.648424542636
30
0
41
1
10
21.5558091223871
20
-25.4809824438372
30
0
41
1
10
21.2651370242696
20
-24.3130005392042
30
0
41
1
10
20.9776546489585
20
-23.1442363914738
30
0
0
SPLINE
5
116
100
AcDbEntity
8
1
62
256
6
ByLayer
370
18
48
1
60
0
100
AcDbSpline
70
4
71
3
72
16
73
12
40
0
40
0
40
0
40
0
40
0.461208588217088
40
0.461208588217088
40
0.643534962278544
40
0.643534962278544
40
0.82840847297529
40
0.82840847297529
40
0.943003644159989
40
0.943003644159989
40
1
40
1
40
1
40
1
41
1
10
8.10566243270262
20
8.05584836782774
30
0
41
1
10
8.13394960848487
20
7.95080268681443
30
0
41
1
10
8.17266608070923
20
7.84628670970801
30
0
41
1
10
8.25268397516851
20
7.71442469145123
30
0
41
1
10
8.27872153625233
20
7.67825379650725
30
0
41
1
10
8.33934560108361
20
7.61290523367225
30
0
41
1
10
8.37482777731265
20
7.58305923051407
30
0
41
1
10
8.44007741480422
20
7.54855881865589
30
0
41
1
10
8.46752172250564
20
7.5385201810229
30
0
41
1
10
8.50983152523006
20
7.53097042135255
30
0
41
1
10
8.5242826069246
20
7.5296667942647
30
0
41
1
10
8.53867513459477
20
7.5296667942647
30
0
0
SPLINE
5
117
100
AcDbEntity
8
1
62
256
6
ByLayer
370
18
48
1
60
0
100
AcDbSpline
70
4
71
3
72
8
73
4
40
0
40
0
40
0
40
0
40
1
40
1
40
1
40
1
41
1
10
21.5929732548739
20
-27.5080608989921
30
0
41
1
10
21.5216682320618
20
-27.2211616807983
30
0
41
1
10
21.6125196172487
20
-26.9346289179862
30
0
41
1
10
21.8486823661407
20
-26.648424542636
30
0
0
SPLINE
5
118
100
AcDbEntity
8
1
62
256
6
ByLayer
370
18
48
1
60
0
100
AcDbSpline
70
4
71
3
72
16
73
12
40
0
40
0
40
0
40
0
40
0.111430279628052
40
0.111430279628052
40
0.248747543515474
40
0.248747543515474
40
0.465535329195271
40
0.465535329195271
40
0.883855351867598
40
0.883855351867598
40
1
40
1
40
1
40
1
41
1
10
11.4613248654052
20
-23.8391299750504
30
0
41
1
10
11.4891847159942
20
-23.8391299750504
30
0
41
1
10
11.5173911427755
20
-23.8375361275706
30
0
41
1
10
11.5758492032393
20
-23.831150658589
30
0
41
1
10
11.6060413892305
20
-23.825666877018
30
0
41
1
10
11.6751537543576
20
-23.8089605749788
30
0
41
1
10
11.7107854085704
20
-23.796037970776
30
0
41
1
10
11.798993890746
20
-23.7556824246832
30
0
41
1
10
11.8397320068509
20
-23.7250165399981
30
0
41
1
10
11.8792917015268
20
-23.6845451449633
30
0
41
1
10
11.8871615985731
20
-23.6755726082078
30
0
41
1
10
11.8943375672975
20
-23.6665017920809
30
0
0
SPLINE
5
119
100
AcDbEntity
8
1
62
256
6
ByLayer
370
18
48
1
60
0
100
AcDbSpline
70
4
71
3
72
14
73
10
40
0
40
0
40
0
40
0
40
0.27510432046391
40
0.27510432046391
40
0.551285892222273
40
0.551285892222273
40
0.827540816328988
40
0.827540816328988
40
1
40
1
40
1
40
1
41
1
10
69.3092231349798
20
0.27499999999992
30
0
41
1
10
69.3092231349798
20
0.291714171949479
30
0
41
1
10
69.3068686319537
20
0.308657073792347
30
0
41
1
10
69.2978207623995
20
0.340277338995463
30
0
41
1
10
69.2909852714478
20
0.355381315853407
30
0
41
1
10
69.2738400953992
20
0.381619876375225
30
0
41
1
10
69.2632933134876
20
0.39311505086323
30
0
41
1
10
69.2443144629828
20
0.407651104694992
30
0
41
1
10
69.2364504363819
20
0.412342362745847
30
0
41
1
10
69.2283156668964
20
0.415953893117802
30
0
0
SPLINE
5
11A
100
AcDbEntity
8
1
62
256
6
ByLayer
370
18
48
1
60
0
100
AcDbSpline
70
4
71
3
72
16
73
12
40
0
40
0
40
0
40
0
40
0.111430279628047
40
0.111430279628047
40
0.248747543515467
40
0.248747543515467
40
0.465535329195252
40
0.465535329195252
40
0.883855351867553
40
0.883855351867553
40
1
40
1
40
1
40
1
41
1
10
8.5386751345948
20
-7.52966679426504
30
0
41
1
10
8.51081528400576
20
-7.52966679426504
30
0
41
1
10
8.48260885722448
20
-7.53471706780857
30
0
41
1
10
8.4241507967607
20
-7.55489210221029
30
0
41
1
10
8.39395861076943
20
-7.57218953888446
30
0
41
1
10
8.32484624564242
20
-7.62460019394092
30
0
41
1
10
8.28921459142953
20
-7.6648929425391
30
0
41
1
10
8.20100610925397
20
-7.78941367630352
30
0
41
1
10
8.16026799314912
20
-7.8824751100415
30
0
41
1
10
8.12070829847318
20
-8.00269269538009
30
0
41
1
10
8.11283840142687
20
-8.02920008991578
30
0
41
1
10
8.10566243270245
20
-8.05584836782771
30
0
0
SPLINE
5
11B
100
AcDbEntity
8
1
62
256
6
ByLayer
370
18
48
1
60
0
100
AcDbSpline
70
4
71
3
72
10
73
6
40
0
40
0
40
0
40
0
40
0.706816479092452
40
0.706816479092452
40
1
40
1
40
1
40
1
41
1
10
69.0405040733832
20
0.57912521212063
30
0
41
1
10
68.9861138835951
20
0.955134179613935
30
0
41
1
10
68.9317047975816
20
1.33113907986765
30
0
41
1
10
68.8546417881813
20
1.86309028616989
30
0
41
1
10
68.8320373163929
20
2.01904726997427
30
0
41
1
10
68.8094131712542
20
2.17499999999993
30
0
0
SPLINE
5
11C
100
AcDbEntity
8
1
62
256
6
ByLayer
370
18
48
1
60
0
100
AcDbSpline
70
4
71
3
72
14
73
10
40
0
40
0
40
0
40
0
40
0.273335586308362
40
0.273335586308362
40
0.549864884753928
40
0.549864884753928
40
0.826242595228778
40
0.826242595228778
40
1
40
1
40
1
40
1
41
1
10
69.2283156668964
20
-0.415953893117972
30
0
41
1
10
69.2411000042653
20
-0.410278130236719
30
0
41
1
10
69.2532642576505
20
-0.401865532839793
30
0
41
1
10
69.2745054552684
20
-0.380802507535492
30
0
41
1
10
69.283836751431
20
-0.367811516180211
30
0
41
1
10
69.2982441671546
20
-0.339191988842003
30
0
41
1
10
69.3035213092883
20
-0.32316999335211
30
0
41
1
10
69.3082833172109
20
-0.296354272492494
30
0
41
1
10
69.3092231349939
20
-0.285647183877785
30
0
41
1
10
69.3092231349941
20
-0.275000000001938
30
0
0
SPLINE
5
11D
100
AcDbEntity
8
1
62
256
6
ByLayer
370
18
48
1
60
0
100
AcDbSpline
70
4
71
3
72
16
73
12
40
0
40
0
40
0
40
0
40
0.461208588217094
40
0.461208588217094
40
0.643534962278546
40
0.643534962278546
40
0.828408472975285
40
0.828408472975285
40
0.943003644159988
40
0.943003644159988
40
1
40
1
40
1
40
1
41
1
10
8.10566243270256
20
-23.6665017920809
30
0
41
1
10
8.13394960848484
20
-23.7022583261632
30
0
41
1
10
8.17266608070921
20
-23.7370095736338
30
0
41
1
10
8.25268397516845
20
-23.7800170858174
30
0
41
1
10
8.27872153625231
20
-23.7917125768793
30
0
41
1
10
8.33934560108358
20
-23.8127037684951
30
0
41
1
10
8.37482777731259
20
-23.8222104320954
30
0
41
1
10
8.44007741480419
20
-23.8331586856493
30
0
41
1
10
8.46752172250561
20
-23.836332378473
30
0
41
1
10
8.50983152523003
20
-23.8387183279986
30
0
41
1
10
8.52428260692457
20
-23.8391299750505
30
0
41
1
10
8.53867513459471
20
-23.8391299750505
30
0
0
SPLINE
5
11E
100
AcDbEntity
8
1
62
256
6
ByLayer
370
18
48
1
60
0
100
AcDbSpline
70
4
71
3
72
10
73
6
40
0
40
0
40
0
40
0
40
0.5
40
0.5
40
1
40
1
40
1
40
1
41
1
10
16.9928758565915
20
-20.9437318835932
30
0
41
1
10
17.0701765476044
20
-21.5196410430152
30
0
41
1
10
17.4486478564467
20
-22.0151383236786
30
0
41
1
10
18.8499731245393
20
-22.7150668249383
30
0
41
1
10
19.8585794277693
20
-22.906110923897
30
0
41
1
10
20.92079238
20
-22.9127020696849
30
0
0
SPLINE
5
11F
100
AcDbEntity
8
1
62
256
6
ByLayer
370
18
48
1
60
0
100
AcDbSpline
70
4
71
3
72
10
73
6
40
0
40
0
40
0
40
0
40
0.5
40
0.5
40
1
40
1
40
1
40
1
41
1
10
16.9928758565915
20
-2.52386480143562
30
0
41
1
10
17.0857551877563
20
-1.37351342219796
30
0
41
1
10
17.5013937363667
20
0.142357033371695
30
0
41
1
10
17.5250773873676
20
3.22386988336629
30
0
41
1
10
17.0870457553435
20
4.73843883874494
30
0
41
1
10
16.9928758565916
20
5.87156507750166
30
0
0
SPLINE
5
120
100
AcDbEntity
8
1
62
256
6
ByLayer
370
18
48
1
60
0
100
AcDbSpline
70
4
71
3
72
8
73
4
40
0
40
0
40
0
40
0
40
1
40
1
40
1
40
1
41
1
10
20.9207923800001
20
22.9127020696851
30
0
41
1
10
20.9397183901864
20
22.98988683842
30
0
41
1
10
20.958672679923
20
23.0670648958715
30
0
41
1
10
20.9776546489586
20
23.1442363914738
30
0
0
SPLINE
5
121
100
AcDbEntity
8
1
62
256
6
ByLayer
370
18
48
1
60
0
100
AcDbSpline
70
4
71
3
72
8
73
4
40
0
40
0
40
0
40
0
40
1
40
1
40
1
40
1
41
1
10
69.1195868846333
20
-0.464218545652955
30
0
41
1
10
69.1558305132186
20
-0.448132682334176
30
0
41
1
10
69.1920733375391
20
-0.432044118349125
30
0
41
1
10
69.2283156668964
20
-0.415953893117972
30
0
0
SPLINE
5
122
100
AcDbEntity
8
1
62
256
6
ByLayer
370
18
48
1
60
0
100
AcDbSpline
70
4
71
3
72
8
73
4
40
0
40
0
40
0
40
0
40
1
40
1
40
1
40
1
41
1
10
69.2283156668964
20
0.415953893117802
30
0
41
1
10
69.1920733240275
20
0.432044124347613
30
0
41
1
10
69.1558304974701
20
0.448132689323614
30
0
41
1
10
69.1195868846333
20
0.464218545652784
30
0
0
SPLINE
5
123
100
AcDbEntity
8
SK1
62
256
6
ByLayer
370
18
48
1
60
0
100
AcDbSpline
70
4
71
3
72
10
73
6
40
0
40
0
40
0
40
0
40
0.5
40
0.5
40
1
40
1
40
1
40
1
41
1
10
-1.30710678118655
20
3.91806548153784
30
0
41
1
10
-1.53227959010832
20
2.67440369212437
30
0
41
1
10
-1.71681589069689
20
1.34075776539186
30
0
41
1
10
-1.71598271729604
20
-1.35050010337164
30
0
41
1
10
-1.53230696904976
20
-2.67425240209695
30
0
41
1
10
-1.30710678118655
20
-3.91806548057698
30
0
0
SPLINE
5
124
100
AcDbEntity
8
SK1
62
256
6
ByLayer
370
18
48
1
60
0
100
AcDbSpline
70
4
71
3
72
107
73
103
40
0
40
0
40
0
40
0
40
0.00270874317638
40
0.0112406780891352
40
0.0197726130018903
40
0.0283045479146454
40
0.0368364828274006
40
0.0453684177401557
40
0.0539003526529109
40
0.062432287565666
40
0.0709642224784212
40
0.0794961573911763
40
0.0965600272166866
40
0.113623897042197
40
0.130687766867707
40
0.139219701780462
40
0.147751636693218
40
0.156283571605973
40
0.164815506518728
40
0.173347441431483
40
0.181879376344238
40
0.198943246169748
40
0.216007115995259
40
0.224539050908014
40
0.233070985820769
40
0.241602920733524
40
0.250134855646279
40
0.258666790559034
40
0.26719872547179
40
0.2842625952973
40
0.292794530210055
40
0.30132646512281
40
0.31839033494832
40
0.335454204773831
40
0.343986139686586
40
0.352518074599341
40
0.369581944424851
40
0.378113879337606
40
0.386645814250362
40
0.395177749163117
40
0.403709684075872
40
0.420773553901382
40
0.429305488814137
40
0.437837423726892
40
0.446369358639648
40
0.454901293552403
40
0.471965163377913
40
0.480497098290668
40
0.489029033203423
40
0.497560968116179
40
0.506092903028934
40
0.523156772854444
40
0.531688707767199
40
0.540220642679954
40
0.548752577592709
40
0.557284512505465
40
0.574348382330975
40
0.58288031724373
40
0.591412252156485
40
0.595678219612863
40
0.59994418706924
40
0.608476121981995
40
0.625539991807506
40
0.634071926720261
40
0.642603861633016
40
0.651135796545771
40
0.659667731458526
40
0.676731601284037
40
0.685263536196792
40
0.693795471109547
40
0.702327406022302
40
0.710859340935057
40
0.719391275847812
40
0.727923210760568
40
0.736455145673323
40
0.744987080586078
40
0.762050950411588
40
0.770582885324343
40
0.779114820237098
40
0.796178690062609
40
0.804710624975364
40
0.813242559888119
40
0.830306429713629
40
0.838838364626384
40
0.84737029953914
40
0.855902234451895
40
0.86443416936465
40
0.88149803919016
40
0.890029974102915
40
0.89856190901567
40
0.907093843928426
40
0.915625778841181
40
0.924157713753936
40
0.932689648666691
40
0.941221583579446
40
0.949753518492201
40
0.958285453404957
40
0.966817388317712
40
0.975349323230467
40
0.983881258143222
40
0.992413193055977
40
1
40
1
40
1
40
1
41
1
10
-0.394976888875306
20
-5.38678189578289
30
0
41
1
10
-0.394976888875306
20
-5.4065930765673
30
0
41
1
10
-0.394976888875306
20
-5.48871660168982
30
0
41
1
10
-0.394976888875306
20
-5.63252719489225
30
0
41
1
10
-0.394976888875306
20
-5.8174145162354
30
0
41
1
10
-0.394976888875306
20
-6.00101977124669
30
0
41
1
10
-0.394976888875306
20
-6.18333830919048
30
0
41
1
10
-0.394976888875306
20
-6.3643662218949
30
0
41
1
10
-0.394976888875306
20
-6.54409937286439
30
0
41
1
10
-0.394976888875306
20
-6.72253430941348
30
0
41
1
10
-0.394976888875306
20
-6.89966740060396
30
0
41
1
10
-0.394976888875306
20
-7.13420903787926
30
0
41
1
10
-0.394976888875306
20
-7.42389186204957
30
0
41
1
10
-0.394976888875306
20
-7.76637138106327
30
0
41
1
10
-0.394976888875306
20
-8.04728288344245
30
0
41
1
10
-0.394976888875306
20
-8.26952736598562
30
0
41
1
10
-0.394976888875306
20
-8.434820354761
30
0
41
1
10
-0.394976888875306
20
-8.59878513137221
30
0
41
1
10
-0.394976888875306
20
-8.76141979186249
30
0
41
1
10
-0.394976888875306
20
-8.922721214403
30
0
41
1
10
-0.394976888875306
20
-9.1360908691222
30
0
41
1
10
-0.394976888875306
20
-9.39928045092248
30
0
41
1
10
-0.394976888875306
20
-9.65799296546987
30
0
41
1
10
-0.394976888875306
20
-9.86240080704218
30
0
41
1
10
-0.394976888875306
20
-10.0143015815252
30
0
41
1
10
-0.394976888875306
20
-10.1648480067744
30
0
41
1
10
-0.394976888875306
20
-10.3140380843155
30
0
41
1
10
-0.394976888875306
20
-10.4618684189216
30
0
41
1
10
-0.394976888875306
20
-10.6572263081632
30
0
41
1
10
-0.394976888875306
20
-10.8496518506122
30
0
41
1
10
-0.394976888875306
20
-11.0395280782787
30
0
41
1
10
-0.394976888875306
20
-11.2275701299333
30
0
41
1
10
-0.394976888875306
20
-11.4590305143918
30
0
41
1
10
-0.394976888875306
20
-11.685867652055
30
0
41
1
10
-0.394976888875306
20
-11.864654349678
30
0
41
1
10
-0.394976888875306
20
-12.0415756040849
30
0
41
1
10
-0.394976888875306
20
-12.2155153161813
30
0
41
1
10
-0.394976888875306
20
-12.3868007979199
30
0
41
1
10
-0.394976888875306
20
-12.5138050519686
30
0
41
1
10
-0.394976888875306
20
-12.6393872302303
30
0
41
1
10
-0.394976888875306
20
-12.8049814458532
30
0
41
1
10
-0.394976888875306
20
-12.9675509360494
30
0
41
1
10
-0.394976888875306
20
-13.1273919665529
30
0
41
1
10
-0.394976888875306
20
-13.2457849051211
30
0
41
1
10
-0.394976888875306
20
-13.3627236547323
30
0
41
1
10
-0.394976888875306
20
-13.5167448476072
30
0
41
1
10
-0.394976888875306
20
-13.6676860552913
30
0
41
1
10
-0.394976888875306
20
-13.8158144768541
30
0
41
1
10
-0.394976888875306
20
-13.9253889718329
30
0
41
1
10
-0.394976888875306
20
-14.0334711580348
30
0
41
1
10
-0.394976888875306
20
-14.1756274475866
30
0
41
1
10
-0.394976888875306
20
-14.3146351237356
30
0
41
1
10
-0.394976888875306
20
-14.4507333681675
30
0
41
1
10
-0.394976888875306
20
-14.5512443837086
30
0
41
1
10
-0.394976888875306
20
-14.6502180419884
30
0
41
1
10
-0.394976888875306
20
-14.780164253239
30
0
41
1
10
-0.394976888875306
20
-14.9068780878822
30
0
41
1
10
-0.394976888875306
20
-15.0305708978545
30
0
41
1
10
-0.394976888875306
20
-15.1065165223896
30
0
41
1
10
-0.394976888875306
20
-15.1665127141503
30
0
41
1
10
-0.394976888875306
20
-15.2259771214207
30
0
41
1
10
-0.394976888875306
20
-15.3286250474485
30
0
41
1
10
-0.394976888875306
20
-15.4426196109061
30
0
41
1
10
-0.394976888875306
20
-15.5534637367265
30
0
41
1
10
-0.394976888875306
20
-15.6349267624759
30
0
41
1
10
-0.394976888875306
20
-15.7147364921469
30
0
41
1
10
-0.394976888875306
20
-15.8189643831875
30
0
41
1
10
-0.394976888875306
20
-15.9197362187748
30
0
41
1
10
-0.394976888875306
20
-16.0172057969154
30
0
41
1
10
-0.394976888875306
20
-16.0885678110446
30
0
41
1
10
-0.394976888875306
20
-16.1582019472912
30
0
41
1
10
-0.394976888875306
20
-16.2260943811825
30
0
41
1
10
-0.394976888875306
20
-16.2922298358683
30
0
41
1
10
-0.394976888875306
20
-16.3565947902754
30
0
41
1
10
-0.394976888875306
20
-16.4191737297992
30
0
41
1
10
-0.394976888875306
20
-16.5002370830775
30
0
41
1
10
-0.394976888875306
20
-16.5775834628441
30
0
41
1
10
-0.394976888875306
20
-16.6513062771915
30
0
41
1
10
-0.394976888875306
20
-16.7225357579897
30
0
41
1
10
-0.394976888875306
20
-16.7899145981056
30
0
41
1
10
-0.394976888875306
20
-16.8535135500206
30
0
41
1
10
-0.394976888875306
20
-16.9145141001581
30
0
41
1
10
-0.394976888875306
20
-16.9715145305624
30
0
41
1
10
-0.394976888875306
20
-17.024552403858
30
0
41
1
10
-0.394976888875306
20
-17.0622798511847
30
0
41
1
10
-0.394976888875306
20
-17.0979462837243
30
0
41
1
10
-0.394976888875306
20
-17.1427382787905
30
0
41
1
10
-0.394976888875306
20
-17.1832568369982
30
0
41
1
10
-0.394976888875306
20
-17.2194882612007
30
0
41
1
10
-0.394976888875306
20
-17.2444531170066
30
0
41
1
10
-0.394976888875306
20
-17.2671905287463
30
0
41
1
10
-0.394976888875306
20
-17.2876678382251
30
0
41
1
10
-0.394976888875306
20
-17.3058521626298
30
0
41
1
10
-0.394976888875306
20
-17.3217086355548
30
0
41
1
10
-0.394976888875306
20
-17.3352007360526
30
0
41
1
10
-0.394976888875306
20
-17.3462909802274
30
0
41
1
10
-0.394976888875306
20
-17.3549392880652
30
0
41
1
10
-0.394976888875306
20
-17.3611046305144
30
0
41
1
10
-0.394976888875306
20
-17.3647432146661
30
0
41
1
10
-0.394976888875306
20
-17.3658102005923
30
0
41
1
10
-0.394976888875306
20
-17.3643150510917
30
0
41
1
10
-0.394976888875306
20
-17.3617494020811
30
0
41
1
10
-0.394976888875306
20
-17.360183859393
30
0
0
SPLINE
5
125
100
AcDbEntity
8
SK1
62
256
6
ByLayer
370
18
48
1
60
0
100
AcDbSpline
70
4
71
3
72
22
73
18
40
0
40
0
40
0
40
0
40
0.0394331151890913
40
0.0394331151890913
40
0.0795339708694829
40
0.0795339708694829
40
0.109637917244288
40
0.109637917244288
40
0.13957706301322
40
0.13957706301322
40
0.189266399657458
40
0.189266399657458
40
0.289571152403382
40
0.289571152403382
40
0.658284396834382
40
0.658284396834382
40
1
40
1
40
1
40
1
41
1
10
-0.394976888875306
20
-5.38678189578292
30
0
41
1
10
-0.415237014773396
20
-5.40399317028476
30
0
41
1
10
-0.437419275645482
20
-5.41977813092004
30
0
41
1
10
-0.486103141154984
20
-5.44521655864725
30
0
41
1
10
-0.51341298093098
20
-5.45496005292577
30
0
41
1
10
-0.562874322366525
20
-5.46212264681108
30
0
41
1
10
-0.585106616517606
20
-5.46199323188387
30
0
41
1
10
-0.627692822126733
20
-5.45533455005088
30
0
41
1
10
-0.648523068172722
20
-5.44883772858989
30
0
41
1
10
-0.699826196362153
20
-5.42613682765011
30
0
41
1
10
-0.728695564403466
20
-5.40623396070797
30
0
41
1
10
-0.806075449923839
20
-5.34007786619352
30
0
41
1
10
-0.847522380016557
20
-5.28655870152033
30
0
41
1
10
-1.01570466784386
20
-5.03084699030373
30
0
41
1
10
-1.09210771407481
20
-4.80149729085085
30
0
41
1
10
-1.21929875138235
20
-4.35887826398974
30
0
41
1
10
-1.26692602208391
20
-4.13998960128646
30
0
41
1
10
-1.30710678118655
20
-3.91806548057696
30
0
0
SPLINE
5
126
100
AcDbEntity
8
SK1
62
256
6
ByLayer
370
18
48
1
60
0
100
AcDbSpline
70
4
71
3
72
106
73
102
40
0
40
0
40
0
40
0
40
0.0075864941903821
40
0.0161184319198489
40
0.0246503696493158
40
0.0331823073787827
40
0.0417142451082495
40
0.0502461828377164
40
0.0587781205671832
40
0.0673100582966501
40
0.075841996026117
40
0.0843739337555838
40
0.0929058714850507
40
0.101437809214518
40
0.109969746943984
40
0.118501684673451
40
0.135565560132385
40
0.144097497861852
40
0.152629435591319
40
0.161161373320786
40
0.169693311050252
40
0.186757186509186
40
0.195289124238653
40
0.20382106196812
40
0.220884937427054
40
0.22941687515652
40
0.237948812885987
40
0.255012688344921
40
0.263544626074388
40
0.272076563803855
40
0.280608501533322
40
0.289140439262788
40
0.297672376992255
40
0.306204314721722
40
0.314736252451189
40
0.323268190180656
40
0.34033206563959
40
0.348864003369056
40
0.357395941098523
40
0.36592787882799
40
0.374459816557457
40
0.391523692016391
40
0.400055629745858
40
0.408587567475324
40
0.417119505204791
40
0.425651442934258
40
0.442715318393192
40
0.451247256122659
40
0.459779193852126
40
0.468311131581592
40
0.476843069311059
40
0.493906944769993
40
0.50243888249946
40
0.510970820228927
40
0.519502757958394
40
0.52803469568786
40
0.545098571146794
40
0.553630508876261
40
0.562162446605728
40
0.570694384335195
40
0.579226322064662
40
0.596290197523595
40
0.604822135253062
40
0.613354072982529
40
0.621886010711996
40
0.630417948441463
40
0.647481823900397
40
0.656013761629863
40
0.66454569935933
40
0.681609574818264
40
0.698673450277198
40
0.707205388006664
40
0.715737325736131
40
0.732801201195065
40
0.741333138924532
40
0.749865076653999
40
0.758397014383466
40
0.766928952112933
40
0.775460889842399
40
0.783992827571866
40
0.8010567030308
40
0.818120578489734
40
0.826652516219201
40
0.835184453948667
40
0.843716391678134
40
0.852248329407601
40
0.860780267137068
40
0.869312204866535
40
0.886376080325469
40
0.903439955784402
40
0.920503831243336
40
0.929035768972803
40
0.93756770670227
40
0.946099644431737
40
0.954631582161204
40
0.96316351989067
40
0.971695457620137
40
0.980227395349604
40
0.988759333079071
40
0.997291270808538
40
1
40
1
40
1
40
1
41
1
10
-0.394976888875277
20
17.3601838878918
30
0
41
1
10
-0.394976888875306
20
17.3617494124903
30
0
41
1
10
-0.394976888875277
20
17.3643151423794
30
0
41
1
10
-0.394976888875277
20
17.3658104187982
30
0
41
1
10
-0.394976888875277
20
17.364743357607
30
0
41
1
10
-0.394976888875277
20
17.3611046370287
30
0
41
1
10
-0.394976888875277
20
17.3549392673806
30
0
41
1
10
-0.394976888875277
20
17.3462909837355
30
0
41
1
10
-0.394976888875277
20
17.3352007293143
30
0
41
1
10
-0.394976888875277
20
17.3217086001335
30
0
41
1
10
-0.394976888875277
20
17.3058521283006
30
0
41
1
10
-0.394976888875277
20
17.2876678324761
30
0
41
1
10
-0.394976888875277
20
17.267190526317
30
0
41
1
10
-0.394976888875277
20
17.2444530966284
30
0
41
1
10
-0.394976888875277
20
17.2194882282903
30
0
41
1
10
-0.394976888875277
20
17.1832568130363
30
0
41
1
10
-0.394976888875277
20
17.1427382851614
30
0
41
1
10
-0.394976888875277
20
17.0979462613767
30
0
41
1
10
-0.394976888875277
20
17.0622798138473
30
0
41
1
10
-0.394976888875277
20
17.0245523789023
30
0
41
1
10
-0.394976888875277
20
16.9715145338597
30
0
41
1
10
-0.394976888875277
20
16.9145140859045
30
0
41
1
10
-0.394976888875277
20
16.8535135157982
30
0
41
1
10
-0.394976888875277
20
16.7899145739052
30
0
41
1
10
-0.394976888875277
20
16.7225357594453
30
0
41
1
10
-0.394976888875277
20
16.6513062647865
30
0
41
1
10
-0.394976888875277
20
16.577583428992
30
0
41
1
10
-0.394976888875277
20
16.5002370605308
30
0
41
1
10
-0.394976888875277
20
16.4191737242595
30
0
41
1
10
-0.394976888875277
20
16.3565947837564
30
0
41
1
10
-0.394976888875277
20
16.2922298184193
30
0
41
1
10
-0.394976888875277
20
16.2260943534788
30
0
41
1
10
-0.394976888875277
20
16.1582019227301
30
0
41
1
10
-0.394976888875277
20
16.0885677968918
30
0
41
1
10
-0.394976888875277
20
16.0172057910894
30
0
41
1
10
-0.394976888875277
20
15.9197362080175
30
0
41
1
10
-0.394976888875277
20
15.8189643575456
30
0
41
1
10
-0.394976888875277
20
15.7147364711228
30
0
41
1
10
-0.394976888875277
20
15.6349267495635
30
0
41
1
10
-0.394976888875277
20
15.553463729323
30
0
41
1
10
-0.394976888875277
20
15.4426195996911
30
0
41
1
10
-0.394976888875277
20
15.3286250260664
30
0
41
1
10
-0.394976888875277
20
15.2112966721243
30
0
41
1
10
-0.394976888875277
20
15.1217290697223
30
0
41
1
10
-0.394976888875277
20
15.0305709686995
30
0
41
1
10
-0.394976888875277
20
14.906878048735
30
0
41
1
10
-0.394976888875277
20
14.7801642402503
30
0
41
1
10
-0.394976888875277
20
14.6502180265082
30
0
41
1
10
-0.394976888875277
20
14.5512443698349
30
0
41
1
10
-0.394976888875277
20
14.4507333574048
30
0
41
1
10
-0.394976888875277
20
14.3146351144528
30
0
41
1
10
-0.394976888875277
20
14.1756274353422
30
0
41
1
10
-0.394976888875277
20
14.0334711437704
30
0
41
1
10
-0.394976888875277
20
13.9253889575191
30
0
41
1
10
-0.394976888875277
20
13.8158144643309
30
0
41
1
10
-0.394976888875277
20
13.6676860465324
30
0
41
1
10
-0.394976888875277
20
13.5167448397425
30
0
41
1
10
-0.394976888875277
20
13.3627236430939
30
0
41
1
10
-0.394976888875277
20
13.2457848907918
30
0
41
1
10
-0.394976888875277
20
13.127391952352
30
0
41
1
10
-0.394976888875277
20
12.9675509274721
30
0
41
1
10
-0.394976888875277
20
12.8049814419576
30
0
41
1
10
-0.394976888875277
20
12.6393872212047
30
0
41
1
10
-0.394976888875277
20
12.5138050377602
30
0
41
1
10
-0.394976888875277
20
12.3868007822861
30
0
41
1
10
-0.394976888875277
20
12.2155153079022
30
0
41
1
10
-0.394976888875277
20
12.0415756036957
30
0
41
1
10
-0.394976888875277
20
11.8646543426879
30
0
41
1
10
-0.394976888875277
20
11.6858676336886
30
0
41
1
10
-0.394976888875277
20
11.4590305058839
30
0
41
1
10
-0.394976888875277
20
11.2275701322441
30
0
41
1
10
-0.394976888875277
20
11.0395280715927
30
0
41
1
10
-0.394976888875277
20
10.8496518299165
30
0
41
1
10
-0.394976888875277
20
10.6572262982852
30
0
41
1
10
-0.394976888875277
20
10.4618684218406
30
0
41
1
10
-0.394976888875277
20
10.3140380853821
30
0
41
1
10
-0.394976888875277
20
10.1648479968029
30
0
41
1
10
-0.394976888875277
20
10.0143015620689
30
0
41
1
10
-0.394976888875277
20
9.86240079247779
30
0
41
1
10
-0.394976888875277
20
9.65799297250354
30
0
41
1
10
-0.394976888875277
20
9.3992804435735
30
0
41
1
10
-0.394976888875277
20
9.13609084815204
30
0
41
1
10
-0.394976888875277
20
8.92272120904667
30
0
41
1
10
-0.394976888875277
20
8.76141979935898
30
0
41
1
10
-0.394976888875277
20
8.59878513251641
30
0
41
1
10
-0.394976888875277
20
8.43482033812748
30
0
41
1
10
-0.394976888875277
20
8.26952734508268
30
0
41
1
10
-0.394976888875277
20
8.04728288893983
30
0
41
1
10
-0.394976888875277
20
7.76637137475097
30
0
41
1
10
-0.394976888875277
20
7.42389184310318
30
0
41
1
10
-0.394976888875277
20
7.13420904829047
30
0
41
1
10
-0.394976888875277
20
6.89966739484251
30
0
41
1
10
-0.394976888875277
20
6.7225342898117
30
0
41
1
10
-0.394976888875277
20
6.54409938064705
30
0
41
1
10
-0.394976888875277
20
6.36436626337326
30
0
41
1
10
-0.394976888875277
20
6.18333822517317
30
0
41
1
10
-0.394976888875277
20
6.0010194773844
30
0
41
1
10
-0.394976888875277
20
5.81741425905383
30
0
41
1
10
-0.394976888875277
20
5.63252720020009
30
0
41
1
10
-0.394976888875277
20
5.48871675629277
30
0
41
1
10
-0.394976888875277
20
5.40659331253005
30
0
41
1
10
-0.394976888875277
20
5.38678223324203
30
0
0
SPLINE
5
127
100
AcDbEntity
8
SK1
62
256
6
ByLayer
370
18
48
1
60
0
100
AcDbSpline
70
4
71
3
72
284
73
280
40
0
40
0
40
0
40
0
40
0.0001140950856999
40
0.0036847070903687
40
0.0072553190950374
40
0.0108259310997062
40
0.0143965431043749
40
0.0179671551090437
40
0.0215377671137124
40
0.0251083791183811
40
0.0286789911230499
40
0.0322496031277186
40
0.0358202151323874
40
0.0429614391417249
40
0.0465320511463936
40
0.0501026631510624
40
0.0536732751557311
40
0.0572438871603999
40
0.0643851111697374
40
0.0679557231744061
40
0.0715263351790748
40
0.0786675591884123
40
0.0822381711930811
40
0.0858087831977498
40
0.0929500072070873
40
0.0965206192117561
40
0.100091231216425
40
0.103661843221094
40
0.107232455225762
40
0.110803067230431
40
0.1143736792351
40
0.117944291239769
40
0.121514903244437
40
0.128656127253775
40
0.132226739258444
40
0.135797351263112
40
0.139367963267781
40
0.14293857527245
40
0.150079799281787
40
0.153650411286456
40
0.157221023291125
40
0.160791635295793
40
0.164362247300462
40
0.1715034713098
40
0.175074083314468
40
0.178644695319137
40
0.182215307323806
40
0.185785919328475
40
0.192927143337812
40
0.196497755342481
40
0.20006836734715
40
0.203638979351818
40
0.207209591356487
40
0.214350815365825
40
0.217921427370493
40
0.221492039375162
40
0.225062651379831
40
0.2286332633845
40
0.235774487393837
40
0.239345099398506
40
0.242915711403175
40
0.246486323407843
40
0.250056935412512
40
0.25719815942185
40
0.260768771426518
40
0.264339383431187
40
0.271480607440525
40
0.278621831449862
40
0.282192443454531
40
0.2857630554592
40
0.292904279468537
40
0.296474891473206
40
0.300045503477875
40
0.303616115482543
40
0.307186727487212
40
0.310757339491881
40
0.31432795149655
40
0.321469175505887
40
0.328610399515225
40
0.332181011519893
40
0.335751623524562
40
0.339322235529231
40
0.3428928475339
40
0.346463459538568
40
0.350034071543237
40
0.357175295552575
40
0.364316519561912
40
0.37145774357125
40
0.375028355575918
40
0.378598967580587
40
0.382169579585256
40
0.385740191589925
40
0.389310803594593
40
0.392881415599262
40
0.396452027603931
40
0.4000226396086
40
0.403593251613268
40
0.407163863617937
40
0.410734475622606
40
0.414305087627275
40
0.417875699631943
40
0.421446311636612
40
0.425016923641281
40
0.428587535645949
40
0.432158147650618
40
0.433943453652953
40
0.435728759655287
40
0.437514065657621
40
0.439299371659956
40
0.442869983664624
40
0.446440595669293
40
0.448225901671628
40
0.450011207673962
40
0.451796513676296
40
0.453581819678631
40
0.455367125680965
40
0.4571524316833
40
0.460723043687968
40
0.462508349690303
40
0.464293655692637
40
0.466078961694971
40
0.467864267697306
40
0.46964957369964
40
0.471434879701975
40
0.473220185704309
40
0.475005491706643
40
0.476790797708978
40
0.478576103711312
40
0.480361409713646
40
0.482146715715981
40
0.483932021718315
40
0.48571732772065
40
0.487502633722984
40
0.489287939725318
40
0.491073245727653
40
0.492858551729987
40
0.494643857732321
40
0.496429163734656
40
0.49821446973699
40
0.499999775739325
40
0.501785081741659
40
0.503570387743993
40
0.505355693746328
40
0.507140999748662
40
0.508926305750996
40
0.510711611753331
40
0.512496917755665
40
0.514282223757999
40
0.516067529760334
40
0.517852835762668
40
0.519638141765003
40
0.521423447767337
40
0.523208753769671
40
0.524994059772006
40
0.52677936577434
40
0.528564671776674
40
0.530349977779009
40
0.532135283781343
40
0.533920589783678
40
0.535705895786012
40
0.537491201788346
40
0.539276507790681
40
0.541061813793015
40
0.542847119795349
40
0.544632425797684
40
0.546417731800018
40
0.549988343804687
40
0.551773649807021
40
0.553558955809356
40
0.557129567814024
40
0.560700179818693
40
0.562485485821028
40
0.564270791823362
40
0.566056097825696
40
0.567841403828031
40
0.571412015832699
40
0.574982627837368
40
0.578553239842037
40
0.582123851846706
40
0.585694463851374
40
0.589265075856043
40
0.592835687860712
40
0.596406299865381
40
0.599976911870049
40
0.603547523874718
40
0.607118135879387
40
0.610688747884056
40
0.614259359888724
40
0.617829971893393
40
0.621400583898062
40
0.624971195902731
40
0.628541807907399
40
0.635683031916737
40
0.642824255926074
40
0.649965479935412
40
0.653536091940081
40
0.657106703944749
40
0.660677315949418
40
0.664247927954087
40
0.667818539958756
40
0.671389151963424
40
0.678530375972762
40
0.685671599982099
40
0.689242211986768
40
0.692812823991437
40
0.696383435996106
40
0.699954048000774
40
0.703524660005443
40
0.707095272010112
40
0.714236496019449
40
0.717807108024118
40
0.721377720028787
40
0.728518944038124
40
0.735660168047462
40
0.739230780052131
40
0.742801392056799
40
0.749942616066137
40
0.753513228070805
40
0.757083840075474
40
0.760654452080143
40
0.764225064084812
40
0.771366288094149
40
0.774936900098818
40
0.778507512103487
40
0.782078124108155
40
0.785648736112824
40
0.792789960122162
40
0.79636057212683
40
0.799931184131499
40
0.803501796136168
40
0.807072408140837
40
0.814213632150174
40
0.817784244154843
40
0.821354856159512
40
0.82492546816418
40
0.828496080168849
40
0.835637304178187
40
0.839207916182856
40
0.842778528187524
40
0.844563834189859
40
0.846349140192193
40
0.849919752196862
40
0.857060976206199
40
0.860631588210868
40
0.864202200215537
40
0.867772812220205
40
0.871343424224874
40
0.878484648234212
40
0.88205526023888
40
0.885625872243549
40
0.889196484248218
40
0.892767096252887
40
0.896337708257555
40
0.899908320262224
40
0.903478932266893
40
0.907049544271562
40
0.914190768280899
40
0.917761380285568
40
0.921331992290237
40
0.928473216299574
40
0.932043828304243
40
0.935614440308912
40
0.942755664318249
40
0.946326276322918
40
0.949896888327587
40
0.953467500332255
40
0.957038112336924
40
0.964179336346262
40
0.96774994835093
40
0.971320560355599
40
0.974891172360268
40
0.978461784364937
40
0.982032396369605
40
0.985603008374274
40
0.989173620378943
40
0.992744232383612
40
0.99631484438828
40
0.999885456392949
40
1
40
1
40
1
40
1
41
1
10
-1.99503997793928
20
17.3206502117304
30
0
41
1
10
-1.99503997793928
20
17.3205989733302
30
0
41
1
10
-1.99503997793928
20
17.3189303624606
30
0
41
1
10
-1.99503997793928
20
17.314763700365
30
0
41
1
10
-1.99503997793928
20
17.3061342577567
30
0
41
1
10
-1.99503997793928
20
17.295067771448
30
0
41
1
10
-1.99503997793928
20
17.2816041041457
30
0
41
1
10
-1.99503997793928
20
17.2657805776118
30
0
41
1
10
-1.99503997793928
20
17.2476335117891
30
0
41
1
10
-1.99503997793928
20
17.2271975457697
30
0
41
1
10
-1.99503997793928
20
17.2045053960087
30
0
41
1
10
-1.99503997793928
20
17.1795895960111
30
0
41
1
10
-1.99503997793928
20
17.143423992764
30
0
41
1
10
-1.99503997793928
20
17.1029924242497
30
0
41
1
10
-1.99503997793928
20
17.0582791326422
30
0
41
1
10
-1.99503997793928
20
17.0226787925821
30
0
41
1
10
-1.99503997793928
20
16.9850205529168
30
0
41
1
10
-1.99503997793928
20
16.9320728615657
30
0
41
1
10
-1.99503997793928
20
16.8751872660894
30
0
41
1
10
-1.99503997793928
20
16.8142877036056
30
0
41
1
10
-1.99503997793928
20
16.7507929832779
30
0
41
1
10
-1.99503997793928
20
16.6835453056651
30
0
41
1
10
-1.99503997793928
20
16.6124299551482
30
0
41
1
10
-1.99503997793928
20
16.5388242186582
30
0
41
1
10
-1.99503997793928
20
16.4616240004255
30
0
41
1
10
-1.99503997793928
20
16.3806869939664
30
0
41
1
10
-1.99503997793928
20
16.3182114219941
30
0
41
1
10
-1.99503997793928
20
16.2539521138774
30
0
41
1
10
-1.99503997793928
20
16.1879246249361
30
0
41
1
10
-1.99503997793928
20
16.1201424382026
30
0
41
1
10
-1.99503997793928
20
16.0506207732709
30
0
41
1
10
-1.99503997793928
20
15.979373490825
30
0
41
1
10
-1.99503997793928
20
15.8820499794418
30
0
41
1
10
-1.99503997793928
20
15.7814584486047
30
0
41
1
10
-1.99503997793928
20
15.677384958149
30
0
41
1
10
-1.99503997793928
20
15.5977008436634
30
0
41
1
10
-1.99503997793928
20
15.5163656256123
30
0
41
1
10
-1.99503997793928
20
15.4056838451686
30
0
41
1
10
-1.99503997793928
20
15.2918890118945
30
0
41
1
10
-1.99503997793928
20
15.1747311694574
30
0
41
1
10
-1.99503997793928
20
15.0853020659337
30
0
41
1
10
-1.99503997793928
20
14.9942846604514
30
0
41
1
10
-1.99503997793928
20
14.8707702235387
30
0
41
1
10
-1.99503997793928
20
14.7442755428493
30
0
41
1
10
-1.99503997793928
20
14.6145160455858
30
0
41
1
10
-1.99503997793928
20
14.5156939096276
30
0
41
1
10
-1.99503997793928
20
14.4153366771621
30
0
41
1
10
-1.99503997793928
20
14.2794333721973
30
0
41
1
10
-1.99503997793928
20
14.1406647198644
30
0
41
1
10
-1.99503997793928
20
13.9987118830366
30
0
41
1
10
-1.99503997793928
20
13.8907947247769
30
0
41
1
10
-1.99503997793928
20
13.7813876415877
30
0
41
1
10
-1.99503997793928
20
13.6334713769854
30
0
41
1
10
-1.99503997793928
20
13.482790135872
30
0
41
1
10
-1.99503997793928
20
13.328990109671
30
0
41
1
10
-1.99503997793928
20
13.2122307400427
30
0
41
1
10
-1.99503997793928
20
13.09401974916
30
0
41
1
10
-1.99503997793928
20
12.9344093145834
30
0
41
1
10
-1.99503997793928
20
12.7721223429484
30
0
41
1
10
-1.99503997793928
20
12.606768466692
30
0
41
1
10
-1.99503997793928
20
12.4813812679684
30
0
41
1
10
-1.99503997793928
20
12.3545748152048
30
0
41
1
10
-1.99503997793928
20
12.1835401119863
30
0
41
1
10
-1.99503997793928
20
12.0099077332894
30
0
41
1
10
-1.99503997793928
20
11.8332480165124
30
0
41
1
10
-1.99503997793928
20
11.6547268261542
30
0
41
1
10
-1.99503997793928
20
11.4282697000141
30
0
41
1
10
-1.99503997793928
20
11.1972001365959
30
0
41
1
10
-1.99503997793928
20
11.00944356136
30
0
41
1
10
-1.99503997793928
20
10.8198574498995
30
0
41
1
10
-1.99503997793928
20
10.627787937013
30
0
41
1
10
-1.99503997793928
20
10.4327334855784
30
0
41
1
10
-1.99503997793928
20
10.2851499168301
30
0
41
1
10
-1.99503997793928
20
10.13621047024
30
0
41
1
10
-1.99503997793928
20
9.98591879047714
30
0
41
1
10
-1.99503997793928
20
9.83427692622885
30
0
41
1
10
-1.99503997793928
20
9.63019833168175
30
0
41
1
10
-1.99503997793928
20
9.37195865327328
30
0
41
1
10
-1.99503997793928
20
9.1092571782612
30
0
41
1
10
-1.99503997793928
20
8.89624559944801
30
0
41
1
10
-1.99503997793928
20
8.73523611643316
30
0
41
1
10
-1.99503997793928
20
8.57289871794615
30
0
41
1
10
-1.99503997793928
20
8.40923673354897
30
0
41
1
10
-1.99503997793928
20
8.24425232954013
30
0
41
1
10
-1.99503997793928
20
8.0224014648056
30
0
41
1
10
-1.99503997793928
20
7.7420578132905
30
0
41
1
10
-1.99503997793928
20
7.40025290593451
30
0
41
1
10
-1.99503997793928
20
7.11118461088941
30
0
41
1
10
-1.99503997793928
20
6.87709665618266
30
0
41
1
10
-1.99503997793928
20
6.70033531356589
30
0
41
1
10
-1.99503997793928
20
6.52228078287746
30
0
41
1
10
-1.99503997793928
20
6.3429370741791
30
0
41
1
10
-1.99503997793928
20
6.16230788845579
30
0
41
1
10
-1.99503997793928
20
5.98039789106801
30
0
41
1
10
-1.99503997793928
20
5.79721186805691
30
0
41
1
10
-1.99503997793928
20
5.61275496243289
30
0
41
1
10
-1.99503997793928
20
5.42703270327695
30
0
41
1
10
-1.99503997793928
20
5.24005175731475
30
0
41
1
10
-1.99503997793928
20
5.05181945337139
30
0
41
1
10
-1.99503997793928
20
4.86234332329403
30
0
41
1
10
-1.99503997793928
20
4.67163207713236
30
0
41
1
10
-1.99503997793928
20
4.47969614999016
30
0
41
1
10
-1.99503997793928
20
4.28654656517494
30
0
41
1
10
-1.99503997793928
20
4.09219634432211
30
0
41
1
10
-1.99503997793928
20
3.92934661081907
30
0
41
1
10
-1.99503997793928
20
3.7982972967292
30
0
41
1
10
-1.99503997793928
20
3.69979994526253
30
0
41
1
10
-1.99503997793928
20
3.6010147061962
30
0
41
1
10
-1.99503997793928
20
3.46881385164499
30
0
41
1
10
-1.99503997793928
20
3.30310841087518
30
0
41
1
10
-1.99503997793928
20
3.13647579824178
30
0
41
1
10
-1.99503997793928
20
3.00241852965871
30
0
41
1
10
-1.99503997793928
20
2.90170218623106
30
0
41
1
10
-1.99503997793928
20
2.80072442890969
30
0
41
1
10
-1.99503997793928
20
2.69948931487846
30
0
41
1
10
-1.99503997793928
20
2.5980019734576
30
0
41
1
10
-1.99503997793928
20
2.46222694501739
30
0
41
1
10
-1.99503997793928
20
2.3263670801044
30
0
41
1
10
-1.99503997793928
20
2.18963187963746
30
0
41
1
10
-1.99503997793928
20
2.08696367451518
30
0
41
1
10
-1.99503997793928
20
1.98407765086858
30
0
41
1
10
-1.99503997793928
20
1.88098143773604
30
0
41
1
10
-1.99503997793928
20
1.777682765474
30
0
41
1
10
-1.99503997793928
20
1.67418894734925
30
0
41
1
10
-1.99503997793928
20
1.57050946303122
30
0
41
1
10
-1.99503997793928
20
1.46665209995737
30
0
41
1
10
-1.99503997793928
20
1.36262724011792
30
0
41
1
10
-1.99503997793928
20
1.2584437292094
30
0
41
1
10
-1.99503997793928
20
1.15411255471389
30
0
41
1
10
-1.99503997793928
20
1.04964378000579
30
0
41
1
10
-1.99503997793928
20
0.945048899580655
30
0
41
1
10
-1.99503997793928
20
0.840338961204225
30
0
41
1
10
-1.99503997793928
20
0.735526073032332
30
0
41
1
10
-1.99503997793928
20
0.630622105582688
30
0
41
1
10
-1.99503997793928
20
0.525639721157262
30
0
41
1
10
-1.99503997793928
20
0.420591350928731
30
0
41
1
10
-1.99503997793928
20
0.315490126623814
30
0
41
1
10
-1.99503997793928
20
0.210348939519463
30
0
41
1
10
-1.99503997793928
20
0.105181165306249
30
0
41
1
10
-1.99503997793928
20
-2.6093687E-09
30
0
41
1
10
-1.99503997793928
20
-0.10518117389941
30
0
41
1
10
-1.99503997793928
20
-0.21034895445402
30
0
41
1
10
-1.99503997793928
20
-0.315490140896515
30
0
41
1
10
-1.99503997793928
20
-0.420591355720489
30
0
41
1
10
-1.99503997793928
20
-0.525639723935797
30
0
41
1
10
-1.99503997793928
20
-0.630622120770198
30
0
41
1
10
-1.99503997793928
20
-0.735526093018507
30
0
41
1
10
-1.99503997793928
20
-0.840338966235578
30
0
41
1
10
-1.99503997793928
20
-0.945048896197648
30
0
41
1
10
-1.99503997793928
20
-1.04964379294299
30
0
41
1
10
-1.99503997793928
20
-1.15411258033262
30
0
41
1
10
-1.99503997793928
20
-1.25844373877695
30
0
41
1
10
-1.99503997793928
20
-1.36262723194542
30
0
41
1
10
-1.99503997793928
20
-1.46665210416356
30
0
41
1
10
-1.99503997793928
20
-1.57050948928742
30
0
41
1
10
-1.99503997793928
20
-1.67418896894682
30
0
41
1
10
-1.99503997793928
20
-1.77768276258209
30
0
41
1
10
-1.99503997793928
20
-1.88098142742643
30
0
41
1
10
-1.99503997793928
20
-1.98407766278629
30
0
41
1
10
-1.99503997793928
20
-2.08696370566375
30
0
41
1
10
-1.99503997793928
20
-2.18963189754737
30
0
41
1
10
-1.99503997793928
20
-2.29207637206397
30
0
41
1
10
-1.99503997793928
20
-2.39428973936722
30
0
41
1
10
-1.99503997793928
20
-2.4962670319988
30
0
41
1
10
-1.99503997793928
20
-2.59800197223717
30
0
41
1
10
-1.99503997793928
20
-2.73345090264118
30
0
41
1
10
-1.99503997793928
20
-2.86801083241156
30
0
41
1
10
-1.99503997793928
20
-3.00241855173454
30
0
41
1
10
-1.99503997793928
20
-3.13647582573117
30
0
41
1
10
-1.99503997793928
20
-3.30310842941955
30
0
41
1
10
-1.99503997793928
20
-3.46881383607317
30
0
41
1
10
-1.99503997793928
20
-3.60101470543907
30
0
41
1
10
-1.99503997793928
20
-3.69979996514493
30
0
41
1
10
-1.99503997793928
20
-3.79829732832764
30
0
41
1
10
-1.99503997793928
20
-3.92934662557204
30
0
41
1
10
-1.99503997793928
20
-4.09219631216945
30
0
41
1
10
-1.99503997793928
20
-4.28654650347451
30
0
41
1
10
-1.99503997793928
20
-4.47969611179559
30
0
41
1
10
-1.99503997793928
20
-4.67163198724225
30
0
41
1
10
-1.99503997793928
20
-4.86234315765492
30
0
41
1
10
-1.99503997793928
20
-5.05181944357969
30
0
41
1
10
-1.99503997793928
20
-5.24005183821342
30
0
41
1
10
-1.99503997793928
20
-5.42703263168386
30
0
41
1
10
-1.99503997793928
20
-5.61275497462711
30
0
41
1
10
-1.99503997793931
20
-5.79721217482029
30
0
41
1
10
-1.99503997793931
20
-5.98039819956611
30
0
41
1
10
-1.99503997793931
20
-6.16230794338162
30
0
41
1
10
-1.99503997793931
20
-6.34293700639154
30
0
41
1
10
-1.99503997793931
20
-6.52228076981257
30
0
41
1
10
-1.99503997793931
20
-6.70033533418757
30
0
41
1
10
-1.99503997793931
20
-6.87709665926303
30
0
41
1
10
-1.99503997793931
20
-7.11118459991687
30
0
41
1
10
-1.99503997793931
20
-7.40025292645402
30
0
41
1
10
-1.99503997793931
20
-7.74205781809903
30
0
41
1
10
-1.99503997793931
20
-8.02240145976876
30
0
41
1
10
-1.99503997793931
20
-8.24425235284596
30
0
41
1
10
-1.99503997793931
20
-8.40923674956807
30
0
41
1
10
-1.99503997793931
20
-8.57289871422529
30
0
41
1
10
-1.99503997793931
20
-8.73523610803539
30
0
41
1
10
-1.99503997793931
20
-8.89624560664996
30
0
41
1
10
-1.99503997793931
20
-9.10925720032841
30
0
41
1
10
-1.99503997793931
20
-9.37195865915049
30
0
41
1
10
-1.99503997793931
20
-9.6301983246166
30
0
41
1
10
-1.99503997793931
20
-9.83427694277646
30
0
41
1
10
-1.99503997793931
20
-9.98591881051331
30
0
41
1
10
-1.99503997793931
20
-10.1362104789651
30
0
41
1
10
-1.99503997793931
20
-10.2851499142426
30
0
41
1
10
-1.99503997793931
20
-10.432733482583
30
0
41
1
10
-1.99503997793931
20
-10.6277879483349
30
0
41
1
10
-1.99503997793931
20
-10.8198574709635
30
0
41
1
10
-1.99503997793931
20
-11.0094435667743
30
0
41
1
10
-1.99503997793931
20
-11.1972001338813
30
0
41
1
10
-1.99503997793931
20
-11.4282697094187
30
0
41
1
10
-1.99503997793931
20
-11.6547268446385
30
0
41
1
10
-1.99503997793931
20
-11.8332480225582
30
0
41
1
10
-1.99503997793931
20
-12.0099077334538
30
0
41
1
10
-1.99503997793931
20
-12.1835401209566
30
0
41
1
10
-1.99503997793931
20
-12.3545748313203
30
0
41
1
10
-1.99503997793931
20
-12.4813812819682
30
0
41
1
10
-1.99503997793931
20
-12.6067684751262
30
0
41
1
10
-1.99503997793931
20
-12.7721223466594
30
0
41
1
10
-1.99503997793931
20
-12.9344093235711
30
0
41
1
10
-1.99503997793931
20
-13.0940197637218
30
0
41
1
10
-1.99503997793931
20
-13.2122307543484
30
0
41
1
10
-1.99503997793931
20
-13.3289901210133
30
0
41
1
10
-1.99503997793931
20
-13.4827901435456
30
0
41
1
10
-1.99503997793931
20
-13.6334713858817
30
0
41
1
10
-1.99503997793931
20
-13.7813876543746
30
0
41
1
10
-1.99503997793931
20
-13.8907947392413
30
0
41
1
10
-1.99503997793931
20
-13.99871189727
30
0
41
1
10
-1.99503997793931
20
-14.1406647319193
30
0
41
1
10
-1.99503997793931
20
-14.2794333813788
30
0
41
1
10
-1.99503997793931
20
-14.4153366880849
30
0
41
1
10
-1.99503997793931
20
-14.5156939237825
30
0
41
1
10
-1.99503997793931
20
-14.614516060936
30
0
41
1
10
-1.99503997793931
20
-14.7442755571137
30
0
41
1
10
-1.99503997793931
20
-14.8707702595594
30
0
41
1
10
-1.99503997793931
20
-14.9942845913974
30
0
41
1
10
-1.99503997793931
20
-15.070107125687
30
0
41
1
10
-1.99503997793931
20
-15.130016414734
30
0
41
1
10
-1.99503997793931
20
-15.1893946011098
30
0
41
1
10
-1.99503997793931
20
-15.2918890331241
30
0
41
1
10
-1.99503997793931
20
-15.4056838559475
30
0
41
1
10
-1.99503997793931
20
-15.5163656330196
30
0
41
1
10
-1.99503997793931
20
-15.5977008570348
30
0
41
1
10
-1.99503997793931
20
-15.677384979663
30
0
41
1
10
-1.99503997793931
20
-15.781458474053
30
0
41
1
10
-1.99503997793931
20
-15.8820499896637
30
0
41
1
10
-1.99503997793931
20
-15.9793734967038
30
0
41
1
10
-1.99503997793931
20
-16.0506207879892
30
0
41
1
10
-1.99503997793931
20
-16.1201424632647
30
0
41
1
10
-1.99503997793931
20
-16.1879246525291
30
0
41
1
10
-1.99503997793931
20
-16.2539521307207
30
0
41
1
10
-1.99503997793931
20
-16.3182114280861
30
0
41
1
10
-1.99503997793931
20
-16.3806869997558
30
0
41
1
10
-1.99503997793931
20
-16.4616240235723
30
0
41
1
10
-1.99503997793931
20
-16.538824252381
30
0
41
1
10
-1.99503997793931
20
-16.6124299668847
30
0
41
1
10
-1.99503997793931
20
-16.6835453043615
30
0
41
1
10
-1.99503997793931
20
-16.7507930080793
30
0
41
1
10
-1.99503997793931
20
-16.8142877377232
30
0
41
1
10
-1.99503997793931
20
-16.8751872797734
30
0
41
1
10
-1.99503997793931
20
-16.9320728583858
30
0
41
1
10
-1.99503997793931
20
-16.9850205784631
30
0
41
1
10
-1.99503997793931
20
-17.0226788299273
30
0
41
1
10
-1.99503997793931
20
-17.0582791544303
30
0
41
1
10
-1.99503997793931
20
-17.1029924178939
30
0
41
1
10
-1.99503997793931
20
-17.1434240170936
30
0
41
1
10
-1.99503997793931
20
-17.1795896288677
30
0
41
1
10
-1.99503997793931
20
-17.204505416066
30
0
41
1
10
-1.99503997793931
20
-17.2271975480507
30
0
41
1
10
-1.99503997793931
20
-17.2476335178127
30
0
41
1
10
-1.99503997793931
20
-17.2657806121613
30
0
41
1
10
-1.99503997793931
20
-17.2816041393821
30
0
41
1
10
-1.99503997793931
20
-17.2950677779805
30
0
41
1
10
-1.99503997793931
20
-17.3061342543252
30
0
41
1
10
-1.99503997793931
20
-17.3147637210185
30
0
41
1
10
-1.99503997793931
20
-17.3189306220137
30
0
41
1
10
-1.99503997793928
20
-17.3205993527469
30
0
41
1
10
-1.99503997793928
20
-17.3206507882709
30
0
0
SPLINE
5
128
100
AcDbEntity
8
SK1
62
256
6
ByLayer
370
18
48
1
60
0
100
AcDbSpline
70
4
71
3
72
24
73
20
40
0
40
0
40
0
40
0
40
0.469770575826712
40
0.469770575826712
40
0.663612078687295
40
0.663612078687295
40
0.860454184613411
40
0.860454184613411
40
0.903064590395674
40
0.903064590395674
40
0.923089343972159
40
0.923089343972159
40
0.943389594779288
40
0.943389594779288
40
0.961332284531898
40
0.961332284531898
40
0.988068136377815
40
0.988068136377815
40
1
40
1
40
1
40
1
41
1
10
-0.199999999999989
20
-6.10344849123027
30
0
41
1
10
-0.199999999999989
20
-5.97798788494984
30
0
41
1
10
-0.204016575726513
20
-5.8509635670122
30
0
41
1
10
-0.223752631922082
20
-5.67079358995508
30
0
41
1
10
-0.231244965282229
20
-5.61789623093799
30
0
41
1
10
-0.253819137983157
20
-5.51250015101135
30
0
41
1
10
-0.267096215270385
20
-5.45724004647028
30
0
41
1
10
-0.303692478692511
20
-5.40035311573845
30
0
41
1
10
-0.311479622041333
20
-5.39039941672755
30
0
41
1
10
-0.32547775761438
20
-5.37891036834915
30
0
41
1
10
-0.330455622185014
20
-5.3756771312581
30
0
41
1
10
-0.341078704143143
20
-5.37102422840917
30
0
41
1
10
-0.346883276538165
20
-5.36960762575521
30
0
41
1
10
-0.357630415747792
20
-5.36914354197148
30
0
41
1
10
-0.362713068049601
20
-5.36981917830482
30
0
41
1
10
-0.37458340180882
20
-5.37316903610403
30
0
41
1
10
-0.3812109954861
20
-5.37664910167555
30
0
41
1
10
-0.38989246528871
20
-5.38265091141974
30
0
41
1
10
-0.392483363308571
20
-5.38466360919151
30
0
41
1
10
-0.394976888875334
20
-5.38678189578178
30
0
0
SPLINE
5
129
100
AcDbEntity
8
SK1
62
256
6
ByLayer
370
18
48
1
60
0
100
AcDbSpline
70
4
71
3
72
282
73
278
40
0
40
0
40
0
40
0
40
0.0031456605473596
40
0.0067202542394797
40
0.0102948479315999
40
0.01386944162372
40
0.0174440353158402
40
0.0210186290079604
40
0.0245932227000805
40
0.0281678163922007
40
0.0317424100843208
40
0.035317003776441
40
0.0424661911606813
40
0.0460407848528015
40
0.0496153785449216
40
0.0531899722370418
40
0.0567645659291619
40
0.0639137533134023
40
0.0674883470055224
40
0.0710629406976426
40
0.0782121280818829
40
0.081786721774003
40
0.0853613154661232
40
0.0925105028503635
40
0.0960850965424837
40
0.0996596902346038
40
0.103234283926724
40
0.106808877618844
40
0.110383471310964
40
0.113958065003085
40
0.117532658695205
40
0.121107252387325
40
0.128256439771565
40
0.131831033463685
40
0.135405627155805
40
0.138980220847926
40
0.142554814540046
40
0.149704001924286
40
0.153278595616406
40
0.156853189308526
40
0.160427783000647
40
0.164002376692767
40
0.171151564077007
40
0.174726157769127
40
0.178300751461247
40
0.181875345153368
40
0.185449938845488
40
0.192599126229728
40
0.196173719921848
40
0.199748313613968
40
0.203322907306088
40
0.206897500998209
40
0.214046688382449
40
0.217621282074569
40
0.221195875766689
40
0.224770469458809
40
0.22834506315093
40
0.23549425053517
40
0.23906884422729
40
0.24264343791941
40
0.24621803161153
40
0.249792625303651
40
0.256941812687891
40
0.260516406380011
40
0.264091000072131
40
0.271240187456371
40
0.278389374840612
40
0.281963968532732
40
0.285538562224852
40
0.292687749609092
40
0.296262343301212
40
0.299836936993333
40
0.303411530685453
40
0.306986124377573
40
0.310560718069693
40
0.314135311761813
40
0.321284499146054
40
0.328433686530294
40
0.332008280222414
40
0.335582873914534
40
0.339157467606654
40
0.342732061298774
40
0.346306654990895
40
0.349881248683015
40
0.357030436067255
40
0.364179623451496
40
0.371328810835736
40
0.374903404527856
40
0.378477998219976
40
0.382052591912096
40
0.385627185604216
40
0.389201779296337
40
0.392776372988457
40
0.396350966680577
40
0.399925560372697
40
0.403500154064817
40
0.407074747756937
40
0.410649341449058
40
0.414223935141178
40
0.417798528833298
40
0.421373122525418
40
0.424947716217538
40
0.428522309909658
40
0.432096903601778
40
0.433884200447838
40
0.435671497293899
40
0.437458794139959
40
0.439246090986019
40
0.442820684678139
40
0.446395278370259
40
0.448182575216319
40
0.449969872062379
40
0.451757168908439
40
0.4535444657545
40
0.45533176260056
40
0.45711905944662
40
0.46069365313874
40
0.4624809499848
40
0.46426824683086
40
0.46605554367692
40
0.46784284052298
40
0.46963013736904
40
0.4714174342151
40
0.47320473106116
40
0.47499202790722
40
0.47677932475328
40
0.478566621599341
40
0.480353918445401
40
0.482141215291461
40
0.483928512137521
40
0.485715808983581
40
0.487503105829641
40
0.489290402675701
40
0.491077699521761
40
0.492864996367821
40
0.494652293213881
40
0.496439590059941
40
0.498226886906001
40
0.500014183752062
40
0.501801480598122
40
0.503588777444182
40
0.505376074290242
40
0.507163371136302
40
0.508950667982362
40
0.510737964828422
40
0.512525261674482
40
0.514312558520542
40
0.516099855366602
40
0.517887152212662
40
0.519674449058722
40
0.521461745904782
40
0.523249042750843
40
0.525036339596903
40
0.526823636442963
40
0.528610933289023
40
0.530398230135083
40
0.532185526981143
40
0.533972823827203
40
0.535760120673263
40
0.537547417519323
40
0.539334714365383
40
0.541122011211443
40
0.542909308057503
40
0.544696604903564
40
0.546483901749623
40
0.550058495441744
40
0.551845792287804
40
0.553633089133864
40
0.557207682825984
40
0.560782276518104
40
0.562569573364164
40
0.564356870210224
40
0.566144167056284
40
0.567931463902345
40
0.571506057594465
40
0.575080651286585
40
0.578655244978705
40
0.582229838670825
40
0.585804432362945
40
0.589379026055065
40
0.592953619747186
40
0.596528213439306
40
0.600102807131426
40
0.603677400823546
40
0.607251994515666
40
0.610826588207786
40
0.614401181899907
40
0.617975775592027
40
0.621550369284147
40
0.625124962976267
40
0.628699556668387
40
0.635848744052627
40
0.642997931436868
40
0.650147118821108
40
0.653721712513228
40
0.657296306205348
40
0.660870899897469
40
0.664445493589589
40
0.668020087281709
40
0.671594680973829
40
0.678743868358069
40
0.68589305574231
40
0.68946764943443
40
0.69304224312655
40
0.69661683681867
40
0.70019143051079
40
0.70376602420291
40
0.707340617895031
40
0.714489805279271
40
0.718064398971391
40
0.721638992663511
40
0.728788180047752
40
0.735937367431992
40
0.739511961124112
40
0.743086554816232
40
0.750235742200473
40
0.753810335892593
40
0.757384929584713
40
0.760959523276833
40
0.764534116968953
40
0.771683304353194
40
0.775257898045314
40
0.778832491737434
40
0.782407085429554
40
0.785981679121674
40
0.793130866505914
40
0.796705460198035
40
0.800280053890155
40
0.803854647582275
40
0.807429241274395
40
0.814578428658635
40
0.818153022350756
40
0.821727616042876
40
0.825302209734996
40
0.828876803427116
40
0.836025990811356
40
0.839600584503477
40
0.843175178195597
40
0.844962475041657
40
0.846749771887717
40
0.850324365579837
40
0.857473552964077
40
0.861048146656197
40
0.864622740348318
40
0.868197334040438
40
0.871771927732558
40
0.878921115116798
40
0.882495708808918
40
0.886070302501039
40
0.889644896193159
40
0.893219489885279
40
0.896794083577399
40
0.900368677269519
40
0.903943270961639
40
0.907517864653759
40
0.914667052038
40
0.91824164573012
40
0.92181623942224
40
0.92896542680648
40
0.932540020498601
40
0.936114614190721
40
0.943263801574961
40
0.946838395267081
40
0.950412988959201
40
0.953987582651321
40
0.957562176343442
40
0.964711363727682
40
0.968285957419802
40
0.971860551111922
40
0.975435144804042
40
0.979009738496163
40
0.982584332188283
40
0.986158925880403
40
0.989733519572523
40
0.993308113264643
40
0.996882706956763
40
1
40
1
40
1
40
1
41
1
10
-2.19999999999999
20
17.5147448778302
30
0
41
1
10
-2.19999999999999
20
17.5132050124574
30
0
41
1
10
-2.19999999999999
20
17.5092143159742
30
0
41
1
10
-2.19999999999999
20
17.5008423359265
30
0
41
1
10
-2.19999999999999
20
17.4896606050755
30
0
41
1
10
-2.19999999999999
20
17.4760589345483
30
0
41
1
10
-2.19999999999999
20
17.4600756660116
30
0
41
1
10
-2.19999999999999
20
17.4417480829298
30
0
41
1
10
-2.19999999999999
20
17.4211116708093
30
0
41
1
10
-2.19999999999999
20
17.3981999720817
30
0
41
1
10
-2.19999999999999
20
17.373046254225
30
0
41
1
10
-2.19999999999999
20
17.3365615480365
30
0
41
1
10
-2.19999999999999
20
17.2957083393221
30
0
41
1
10
-2.19999999999999
20
17.2506132986913
30
0
41
1
10
-2.19999999999999
20
17.2146924230801
30
0
41
1
10
-2.19999999999999
20
17.1766986759847
30
0
41
1
10
-2.19999999999999
20
17.1233138560685
30
0
41
1
10
-2.19999999999999
20
17.0658713749173
30
0
41
1
10
-2.19999999999999
20
17.0044820563696
30
0
41
1
10
-2.19999999999999
20
16.9404819965209
30
0
41
1
10
-2.19999999999999
20
16.8725984751516
30
0
41
1
10
-2.19999999999999
20
16.8009296734765
30
0
41
1
10
-2.19999999999999
20
16.72675615712
30
0
41
1
10
-2.19999999999999
20
16.6488472996884
30
0
41
1
10
-2.19999999999999
20
16.5672977573629
30
0
41
1
10
-2.19999999999999
20
16.5043209819811
30
0
41
1
10
-2.19999999999999
20
16.4395493732765
30
0
41
1
10
-2.19999999999999
20
16.3729983406747
30
0
41
1
10
-2.19999999999999
20
16.3046816133433
30
0
41
1
10
-2.19999999999999
20
16.2346146587631
30
0
41
1
10
-2.19999999999999
20
16.1628111167189
30
0
41
1
10
-2.19999999999999
20
16.0647793469533
30
0
41
1
10
-2.19999999999999
20
15.9633134995801
30
0
41
1
10
-2.19999999999999
20
15.8584913887799
30
0
41
1
10
-2.19999999999999
20
15.7781982427732
30
0
41
1
10
-2.19999999999999
20
15.6962433497342
30
0
41
1
10
-2.19999999999999
20
15.5847743861311
30
0
41
1
10
-2.19999999999999
20
15.4700110710185
30
0
41
1
10
-2.19999999999999
20
15.3520264687641
30
0
41
1
10
-2.19999999999999
20
15.2619258251736
30
0
41
1
10
-2.19999999999999
20
15.1702262286607
30
0
41
1
10
-2.19999999999999
20
15.0458463802595
30
0
41
1
10
-2.19999999999999
20
14.9182892137509
30
0
41
1
10
-2.19999999999999
20
14.7876243835494
30
0
41
1
10
-2.19999999999999
20
14.6880675684927
30
0
41
1
10
-2.19999999999999
20
14.5869647024964
30
0
41
1
10
-2.19999999999999
20
14.4501162009323
30
0
41
1
10
-2.19999999999999
20
14.310188578504
30
0
41
1
10
-2.19999999999999
20
14.1672492498436
30
0
41
1
10
-2.19999999999999
20
14.0585319196999
30
0
41
1
10
-2.19999999999999
20
13.9483131149779
30
0
41
1
10
-2.19999999999999
20
13.7993681823229
30
0
41
1
10
-2.19999999999999
20
13.6474264445926
30
0
41
1
10
-2.19999999999999
20
13.4925540283558
30
0
41
1
10
-2.19999999999999
20
13.3749248852381
30
0
41
1
10
-2.19999999999999
20
13.2558316845062
30
0
41
1
10
-2.19999999999999
20
13.0951031858018
30
0
41
1
10
-2.19999999999999
20
12.9314463879873
30
0
41
1
10
-2.19999999999999
20
12.7649271524075
30
0
41
1
10
-2.19999999999999
20
12.6385945304865
30
0
41
1
10
-2.19999999999999
20
12.510828990928
30
0
41
1
10
-2.19999999999999
20
12.3385783725546
30
0
41
1
10
-2.19999999999999
20
12.1634558634281
30
0
41
1
10
-2.19999999999999
20
11.9855279960913
30
0
41
1
10
-2.19999999999999
20
11.8057193844339
30
0
41
1
10
-2.19999999999999
20
11.5774197426994
30
0
41
1
10
-2.19999999999999
20
11.3444552561941
30
0
41
1
10
-2.19999999999999
20
11.1553144466797
30
0
41
1
10
-2.19999999999999
20
10.96432157968
30
0
41
1
10
-2.19999999999999
20
10.7705258372791
30
0
41
1
10
-2.19999999999999
20
10.5740001677826
30
0
41
1
10
-2.19999999999999
20
10.4252200954492
30
0
41
1
10
-2.19999999999999
20
10.2750653600417
30
0
41
1
10
-2.19999999999999
20
10.1235384488298
30
0
41
1
10
-2.19999999999999
20
9.9706412292081
30
0
41
1
10
-2.19999999999999
20
9.76496631801302
30
0
41
1
10
-2.19999999999999
20
9.50443392738597
30
0
41
1
10
-2.19999999999999
20
9.23936570098886
30
0
41
1
10
-2.19999999999999
20
9.02461799380217
30
0
41
1
10
-2.19999999999999
20
8.86219304475887
30
0
41
1
10
-2.19999999999999
20
8.69841428000512
30
0
41
1
10
-2.19999999999999
20
8.53328405958746
30
0
41
1
10
-2.19999999999999
20
8.36680339868337
30
0
41
1
10
-2.19999999999999
20
8.14304412571011
30
0
41
1
10
-2.19999999999999
20
7.85994707617317
30
0
41
1
10
-2.19999999999999
20
7.51487111531026
30
0
41
1
10
-2.19999999999999
20
7.22282329277962
30
0
41
1
10
-2.19999999999999
20
6.98653548716825
30
0
41
1
10
-2.19999999999999
20
6.80797157864473
30
0
41
1
10
-2.19999999999999
20
6.62807270531454
30
0
41
1
10
-2.19999999999999
20
6.44684086969582
30
0
41
1
10
-2.19999999999999
20
6.26427776637016
30
0
41
1
10
-2.19999999999999
20
6.0803858592752
30
0
41
1
10
-2.19999999999999
20
5.89516728223867
30
0
41
1
10
-2.19999999999999
20
5.70862469092603
30
0
41
1
10
-2.19999999999999
20
5.52076103085633
30
0
41
1
10
-2.19999999999999
20
5.33157993388585
30
0
41
1
10
-2.19999999999999
20
5.14108511996025
30
0
41
1
10
-2.19999999999999
20
4.94928086714648
30
0
41
1
10
-2.19999999999999
20
4.75617251627347
30
0
41
1
10
-2.19999999999999
20
4.56176620564526
30
0
41
1
10
-2.19999999999999
20
4.36606873641344
30
0
41
1
10
-2.19999999999999
20
4.16908849962459
30
0
41
1
10
-2.19999999999999
20
4.00386590607064
30
0
41
1
10
-2.19999999999999
20
3.87107810854147
30
0
41
1
10
-2.19999999999999
20
3.7711641857039
30
0
41
1
10
-2.19999999999999
20
3.67093805129474
30
0
41
1
10
-2.19999999999999
20
3.5369018254882
30
0
41
1
10
-2.19999999999999
20
3.36855658184021
30
0
41
1
10
-2.19999999999999
20
3.19919951970698
30
0
41
1
10
-2.19999999999999
20
3.06314133422208
30
0
41
1
10
-2.19999999999999
20
2.96079189341756
30
0
41
1
10
-2.19999999999999
20
2.85815023786418
30
0
41
1
10
-2.19999999999999
20
2.75522026664271
30
0
41
1
10
-2.19999999999999
20
2.65200561172494
30
0
41
1
10
-2.19999999999999
20
2.51402705629772
30
0
41
1
10
-2.19999999999999
20
2.375450816946
30
0
41
1
10
-2.19999999999999
20
2.23639085040648
30
0
41
1
10
-2.19999999999999
20
2.13182395998015
30
0
41
1
10
-2.19999999999999
20
2.02700348752293
30
0
41
1
10
-2.19999999999999
20
1.92193653735015
30
0
41
1
10
-2.19999999999999
20
1.81663008016324
30
0
41
1
10
-2.19999999999999
20
1.71109231328518
30
0
41
1
10
-2.19999999999999
20
1.60533155404698
30
0
41
1
10
-2.19999999999999
20
1.49935698477981
30
0
41
1
10
-2.19999999999999
20
1.39317847233161
30
0
41
1
10
-2.19999999999999
20
1.28680633401083
30
0
41
1
10
-2.19999999999999
20
1.18025197439016
30
0
41
1
10
-2.19999999999999
20
1.073527020087
30
0
41
1
10
-2.19999999999999
20
0.96664434311532
30
0
41
1
10
-2.19999999999999
20
0.859616995486334
30
0
41
1
10
-2.19999999999999
20
0.752459219961509
30
0
41
1
10
-2.19999999999999
20
0.6451854537342
30
0
41
1
10
-2.19999999999999
20
0.537811163545626
30
0
41
1
10
-2.19999999999999
20
0.430352024765995
30
0
41
1
10
-2.19999999999999
20
0.322824496958617
30
0
41
1
10
-2.19999999999999
20
0.215245213108545
30
0
41
1
10
-2.19999999999999
20
0.107631302158183
30
0
41
1
10
-2.19999999999999
20
-5.9909553E-09
30
0
41
1
10
-2.19999999999999
20
-0.107631313716837
30
0
41
1
10
-2.19999999999999
20
-0.21524522393176
30
0
41
1
10
-2.19999999999999
20
-0.322824507999513
30
0
41
1
10
-2.19999999999999
20
-0.430352036900842
30
0
41
1
10
-2.19999999999999
20
-0.537811175438549
30
0
41
1
10
-2.19999999999999
20
-0.645185463980482
30
0
41
1
10
-2.19999999999999
20
-0.752459230354134
30
0
41
1
10
-2.19999999999999
20
-0.859617007920491
30
0
41
1
10
-2.19999999999999
20
-0.966644355262389
30
0
41
1
10
-2.19999999999999
20
-1.07352702949097
30
0
41
1
10
-2.19999999999999
20
-1.18025198377217
30
0
41
1
10
-2.19999999999999
20
-1.2868063464968
30
0
41
1
10
-2.19999999999999
20
-1.39317848503856
30
0
41
1
10
-2.19999999999999
20
-1.49935699380708
30
0
41
1
10
-2.19999999999999
20
-1.60533156181745
30
0
41
1
10
-2.19999999999999
20
-1.71109232444704
30
0
41
1
10
-2.19999999999999
20
-1.81663009373557
30
0
41
1
10
-2.19999999999999
20
-1.92193654804359
30
0
41
1
10
-2.19999999999999
20
-2.02700349385552
30
0
41
1
10
-2.19999999999999
20
-2.13182396747069
30
0
41
1
10
-2.19999999999999
20
-2.23639086291988
30
0
41
1
10
-2.19999999999999
20
-2.34069812940876
30
0
41
1
10
-2.19999999999999
20
-2.44473977839388
30
0
41
1
10
-2.19999999999999
20
-2.54851063247165
30
0
41
1
10
-2.19999999999999
20
-2.65200559968281
30
0
41
1
10
-2.19999999999999
20
-2.78960994504098
30
0
41
1
10
-2.19999999999999
20
-2.92668912429065
30
0
41
1
10
-2.19999999999999
20
-3.06314133551615
30
0
41
1
10
-2.19999999999999
20
-3.19919952332836
30
0
41
1
10
-2.19999999999999
20
-3.36855659963138
30
0
41
1
10
-2.19999999999999
20
-3.53690183437428
30
0
41
1
10
-2.19999999999999
20
-3.67093805397229
30
0
41
1
10
-2.19999999999999
20
-3.77116418775421
30
0
41
1
10
-2.19999999999999
20
-3.87107811616195
30
0
41
1
10
-2.19999999999999
20
-4.00386592221614
30
0
41
1
10
-2.19999999999999
20
-4.169088511784
30
0
41
1
10
-2.19999999999999
20
-4.36606871643775
30
0
41
1
10
-2.19999999999999
20
-4.56176617271481
30
0
41
1
10
-2.19999999999999
20
-4.75617249379653
30
0
41
1
10
-2.19999999999999
20
-4.94928076863457
30
0
41
1
10
-2.19999999999999
20
-5.14108500618136
30
0
41
1
10
-2.19999999999999
20
-5.33157993903225
30
0
41
1
10
-2.19999999999999
20
-5.52076102284181
30
0
41
1
10
-2.19999999999999
20
-5.70862461825791
30
0
41
1
10
-2.19999999999999
20
-5.89516734859464
30
0
41
1
10
-2.19999999999999
20
-6.0803860968085
30
0
41
1
10
-2.20000000000002
20
-6.26427796235188
30
0
41
1
10
-2.20000000000002
20
-6.44684092947378
30
0
41
1
10
-2.20000000000002
20
-6.6280727178615
30
0
41
1
10
-2.20000000000002
20
-6.80797159432129
30
0
41
1
10
-2.20000000000002
20
-6.98653550324826
30
0
41
1
10
-2.20000000000002
20
-7.22282328452872
30
0
41
1
10
-2.20000000000002
20
-7.51487112820209
30
0
41
1
10
-2.20000000000002
20
-7.85994708827315
30
0
41
1
10
-2.20000000000002
20
-8.14304411844034
30
0
41
1
10
-2.20000000000002
20
-8.36680341033821
30
0
41
1
10
-2.20000000000002
20
-8.53328407858575
30
0
41
1
10
-2.20000000000002
20
-8.69841428877766
30
0
41
1
10
-2.20000000000002
20
-8.86219304073114
30
0
41
1
10
-2.20000000000002
20
-9.02461799205523
30
0
41
1
10
-2.20000000000002
20
-9.23936571773672
30
0
41
1
10
-2.20000000000002
20
-9.50443394039922
30
0
41
1
10
-2.20000000000002
20
-9.76496631110049
30
0
41
1
10
-2.20000000000002
20
-9.97064123613964
30
0
41
1
10
-2.20000000000002
20
-10.123538466054
30
0
41
1
10
-2.20000000000002
20
-10.2750653748105
30
0
41
1
10
-2.20000000000002
20
-10.4252201002359
30
0
41
1
10
-2.20000000000002
20
-10.5740001651574
30
0
41
1
10
-2.20000000000002
20
-10.7705258416001
30
0
41
1
10
-2.20000000000002
20
-10.9643215989582
30
0
41
1
10
-2.20000000000002
20
-11.1553144582602
30
0
41
1
10
-2.20000000000002
20
-11.3444552554371
30
0
41
1
10
-2.20000000000002
20
-11.5774197477568
30
0
41
1
10
-2.20000000000002
20
-11.8057194023465
30
0
41
1
10
-2.20000000000002
20
-11.9855280067157
30
0
41
1
10
-2.20000000000002
20
-12.1634558646821
30
0
41
1
10
-2.20000000000002
20
-12.3385783781737
30
0
41
1
10
-2.20000000000002
20
-12.510829004708
30
0
41
1
10
-2.20000000000002
20
-12.6385945454976
30
0
41
1
10
-2.20000000000002
20
-12.7649271637091
30
0
41
1
10
-2.20000000000002
20
-12.9314463925932
30
0
41
1
10
-2.20000000000002
20
-13.0951031927999
30
0
41
1
10
-2.20000000000002
20
-13.2558316973182
30
0
41
1
10
-2.20000000000002
20
-13.3749248996582
30
0
41
1
10
-2.20000000000002
20
-13.4925540411334
30
0
41
1
10
-2.20000000000002
20
-13.6474264531923
30
0
41
1
10
-2.20000000000002
20
-13.7993681905533
30
0
41
1
10
-2.20000000000002
20
-13.9483131264862
30
0
41
1
10
-2.20000000000002
20
-14.0585319334344
30
0
41
1
10
-2.20000000000002
20
-14.1672492642274
30
0
41
1
10
-2.20000000000002
20
-14.3101885914782
30
0
41
1
10
-2.20000000000002
20
-14.4501162106047
30
0
41
1
10
-2.20000000000002
20
-14.5869647126432
30
0
41
1
10
-2.20000000000002
20
-14.6880675812844
30
0
41
1
10
-2.20000000000002
20
-14.7876243995297
30
0
41
1
10
-2.20000000000002
20
-14.9182892218295
30
0
41
1
10
-2.20000000000002
20
-15.0458464314392
30
0
41
1
10
-2.20000000000002
20
-15.1702261509224
30
0
41
1
10
-2.20000000000002
20
-15.2466455133785
30
0
41
1
10
-2.20000000000002
20
-15.3069761679616
30
0
41
1
10
-2.20000000000002
20
-15.3667724139347
30
0
41
1
10
-2.20000000000002
20
-15.4700110929875
30
0
41
1
10
-2.20000000000002
20
-15.5847743990242
30
0
41
1
10
-2.20000000000002
20
-15.6962433571227
30
0
41
1
10
-2.20000000000002
20
-15.7781982539187
30
0
41
1
10
-2.20000000000002
20
-15.8584914079188
30
0
41
1
10
-2.20000000000002
20
-15.9633135259672
30
0
41
1
10
-2.20000000000002
20
-16.0647793597711
30
0
41
1
10
-2.20000000000002
20
-16.1628111223414
30
0
41
1
10
-2.20000000000002
20
-16.2346146707391
30
0
41
1
10
-2.20000000000002
20
-16.3046816359758
30
0
41
1
10
-2.20000000000002
20
-16.3729983688048
30
0
41
1
10
-2.20000000000002
20
-16.439549393056
30
0
41
1
10
-2.20000000000002
20
-16.5043209901434
30
0
41
1
10
-2.20000000000002
20
-16.5672977619412
30
0
41
1
10
-2.20000000000002
20
-16.6488473199257
30
0
41
1
10
-2.20000000000002
20
-16.7267561914694
30
0
41
1
10
-2.20000000000002
20
-16.8009296884544
30
0
41
1
10
-2.20000000000002
20
-16.8725984731112
30
0
41
1
10
-2.20000000000002
20
-16.9404820184079
30
0
41
1
10
-2.20000000000002
20
-17.0044820909957
30
0
41
1
10
-2.20000000000002
20
-17.0658713913631
30
0
41
1
10
-2.20000000000002
20
-17.123313852319
30
0
41
1
10
-2.20000000000002
20
-17.1766986986672
30
0
41
1
10
-2.20000000000002
20
-17.2146924603873
30
0
41
1
10
-2.20000000000002
20
-17.250613323192
30
0
41
1
10
-2.20000000000002
20
-17.2957083328928
30
0
41
1
10
-2.20000000000002
20
-17.3365615705832
30
0
41
1
10
-2.20000000000002
20
-17.3730462873428
30
0
41
1
10
-2.20000000000002
20
-17.398199993695
30
0
41
1
10
-2.20000000000002
20
-17.4211116738093
30
0
41
1
10
-2.20000000000002
20
-17.4417480876219
30
0
41
1
10
-2.20000000000002
20
-17.4600756994924
30
0
41
1
10
-2.20000000000002
20
-17.4760589706817
30
0
41
1
10
-2.20000000000002
20
-17.4896606126054
30
0
41
1
10
-2.20000000000002
20
-17.5008423321234
30
0
41
1
10
-2.20000000000005
20
-17.5091912666971
30
0
41
1
10
-2.20000000000002
20
-17.5131713008782
30
0
41
1
10
-2.20000000000002
20
-17.5147031243708
30
0
0
SPLINE
5
12A
100
AcDbEntity
8
SK1
62
256
6
ByLayer
370
18
48
1
60
0
100
AcDbSpline
70
4
71
3
72
288
73
284
40
0
40
0
40
0
40
0
40
0.0022851238051323
40
0.005790164410461
40
0.0092952050157896
40
0.0128002456211184
40
0.0163052862264471
40
0.0198103268317757
40
0.0233153674371044
40
0.0268204080424331
40
0.0303254486477618
40
0.0338304892530905
40
0.0373355298584192
40
0.0408405704637479
40
0.0443456110690766
40
0.0513556922797339
40
0.0548607328850626
40
0.0583657734903913
40
0.06187081409572
40
0.0653758547010486
40
0.072385935911706
40
0.0758909765170347
40
0.0793960171223634
40
0.0864060983330208
40
0.0899111389383494
40
0.0934161795436781
40
0.100426260754335
40
0.103931301359664
40
0.107436341964993
40
0.110941382570322
40
0.11444642317565
40
0.117951463780979
40
0.121456504386308
40
0.124961544991636
40
0.128466585596965
40
0.135476666807622
40
0.138981707412951
40
0.14248674801828
40
0.145991788623608
40
0.149496829228937
40
0.156506910439594
40
0.160011951044923
40
0.163516991650252
40
0.167022032255581
40
0.170527072860909
40
0.177537154071567
40
0.181042194676895
40
0.184547235282224
40
0.188052275887553
40
0.191557316492881
40
0.198567397703539
40
0.202072438308868
40
0.205577478914196
40
0.209082519519525
40
0.212587560124854
40
0.219597641335511
40
0.223102681940839
40
0.226607722546168
40
0.230112763151497
40
0.233617803756826
40
0.240627884967483
40
0.244132925572812
40
0.24763796617814
40
0.251143006783469
40
0.254648047388798
40
0.261658128599455
40
0.265163169204784
40
0.268668209810113
40
0.27567829102077
40
0.282688372231427
40
0.286193412836756
40
0.289698453442085
40
0.296708534652742
40
0.300213575258071
40
0.303718615863399
40
0.307223656468728
40
0.310728697074057
40
0.314233737679385
40
0.317738778284714
40
0.324748859495372
40
0.331758940706029
40
0.335263981311357
40
0.338769021916686
40
0.342274062522015
40
0.345779103127344
40
0.349284143732672
40
0.352789184338001
40
0.359799265548658
40
0.366809346759316
40
0.373819427969973
40
0.377324468575302
40
0.38082950918063
40
0.384334549785959
40
0.387839590391288
40
0.391344630996616
40
0.394849671601945
40
0.398354712207274
40
0.401859752812603
40
0.405364793417931
40
0.40886983402326
40
0.412374874628589
40
0.415879915233917
40
0.419384955839246
40
0.422889996444574
40
0.426395037049903
40
0.429900077655232
40
0.433405118260561
40
0.435157638563225
40
0.436910158865889
40
0.438662679168554
40
0.440415199471218
40
0.443920240076547
40
0.447425280681875
40
0.44917780098454
40
0.450930321287204
40
0.452682841589868
40
0.454435361892533
40
0.456187882195197
40
0.457940402497861
40
0.46144544310319
40
0.463197963405855
40
0.464950483708519
40
0.466703004011183
40
0.468455524313848
40
0.470208044616512
40
0.471960564919176
40
0.473713085221841
40
0.475465605524505
40
0.477218125827169
40
0.478970646129833
40
0.480723166432498
40
0.482475686735162
40
0.484228207037826
40
0.485980727340491
40
0.487733247643155
40
0.48948576794582
40
0.491238288248484
40
0.492990808551148
40
0.494743328853813
40
0.496495849156477
40
0.498248369459141
40
0.500000889761806
40
0.50175341006447
40
0.503505930367134
40
0.505258450669799
40
0.507010970972463
40
0.508763491275127
40
0.510516011577792
40
0.512268531880456
40
0.51402105218312
40
0.515773572485785
40
0.517526092788449
40
0.519278613091113
40
0.521031133393778
40
0.522783653696442
40
0.524536173999107
40
0.526288694301771
40
0.528041214604435
40
0.529793734907099
40
0.531546255209764
40
0.533298775512428
40
0.535051295815093
40
0.536803816117757
40
0.538556336420421
40
0.540308856723085
40
0.54206137702575
40
0.543813897328414
40
0.545566417631078
40
0.549071458236407
40
0.550823978539072
40
0.552576498841736
40
0.556081539447065
40
0.559586580052393
40
0.561339100355058
40
0.563091620657722
40
0.564844140960386
40
0.566596661263051
40
0.57010170186838
40
0.573606742473708
40
0.577111783079037
40
0.580616823684365
40
0.584121864289694
40
0.587626904895023
40
0.591131945500351
40
0.59463698610568
40
0.598142026711009
40
0.601647067316337
40
0.605152107921666
40
0.608657148526995
40
0.612162189132324
40
0.615667229737652
40
0.619172270342981
40
0.62267731094831
40
0.626182351553638
40
0.633192432764296
40
0.640202513974953
40
0.64721259518561
40
0.650717635790939
40
0.654222676396268
40
0.657727717001596
40
0.661232757606925
40
0.664737798212254
40
0.668242838817582
40
0.67525292002824
40
0.682263001238897
40
0.685768041844226
40
0.689273082449555
40
0.692778123054883
40
0.696283163660212
40
0.699788204265541
40
0.703293244870869
40
0.710303326081527
40
0.713808366686856
40
0.717313407292184
40
0.724323488502842
40
0.731333569713499
40
0.734838610318827
40
0.738343650924156
40
0.745353732134814
40
0.748858772740142
40
0.752363813345471
40
0.7558688539508
40
0.759373894556128
40
0.766383975766786
40
0.769889016372114
40
0.773394056977443
40
0.776899097582772
40
0.780404138188101
40
0.787414219398758
40
0.790919260004086
40
0.794424300609415
40
0.797929341214744
40
0.801434381820073
40
0.80844446303073
40
0.811949503636059
40
0.815454544241387
40
0.818959584846716
40
0.822464625452045
40
0.829474706662702
40
0.832979747268031
40
0.836484787873359
40
0.838237308176024
40
0.839989828478688
40
0.843494869084017
40
0.850504950294674
40
0.854009990900003
40
0.857515031505331
40
0.86102007211066
40
0.864525112715989
40
0.871535193926646
40
0.875040234531975
40
0.878545275137304
40
0.882050315742632
40
0.885555356347961
40
0.88906039695329
40
0.892565437558618
40
0.896070478163947
40
0.899575518769276
40
0.906585599979933
40
0.910090640585262
40
0.913595681190591
40
0.920605762401248
40
0.924110803006576
40
0.927615843611905
40
0.934625924822563
40
0.938130965427891
40
0.94163600603322
40
0.945141046638548
40
0.948646087243877
40
0.955656168454535
40
0.959161209059863
40
0.962666249665192
40
0.966171290270521
40
0.969676330875849
40
0.973181371481178
40
0.976686412086507
40
0.980191452691836
40
0.983696493297164
40
0.987201533902493
40
0.990706574507822
40
0.99421161511315
40
0.997716655718479
40
1
40
1
40
1
40
1
41
1
10
-30
20
15.9926656748012
30
0
41
1
10
-30
20
15.9930575038061
30
0
41
1
10
-30
20
15.9936130015107
30
0
41
1
10
-30
20
15.992743696334
30
0
41
1
10
-30
20
15.9893850921089
30
0
41
1
10
-30
20
15.9836860314146
30
0
41
1
10
-30
20
15.9756808210229
30
0
41
1
10
-30
20
15.9654018084482
30
0
41
1
10
-30
20
15.9528811264941
30
0
41
1
10
-30
20
15.9381491278438
30
0
41
1
10
-30
20
15.9212355486336
30
0
41
1
10
-30
20
15.9021692443495
30
0
41
1
10
-30
20
15.8809772874924
30
0
41
1
10
-30
20
15.85768719628
30
0
41
1
10
-30
20
15.8237020449635
30
0
41
1
10
-30
20
15.786151572388
30
0
41
1
10
-30
20
15.7440467976174
30
0
41
1
10
-30
20
15.7106366986068
30
0
41
1
10
-30
20
15.6752710038507
30
0
41
1
10
-30
20
15.6253102414824
30
0
41
1
10
-30
20
15.5722298833997
30
0
41
1
10
-30
20
15.5146768571488
30
0
41
1
10
-30
20
15.454635155867
30
0
41
1
10
-30
20
15.3917322415495
30
0
41
1
10
-30
20
15.3243986601424
30
0
41
1
10
-30
20
15.2546726017927
30
0
41
1
10
-30
20
15.1823145630236
30
0
41
1
10
-30
20
15.1055630554725
30
0
41
1
10
-30
20
15.0465122402176
30
0
41
1
10
-30
20
14.9857535165871
30
0
41
1
10
-30
20
14.9233034368069
30
0
41
1
10
-30
20
14.8591738020486
30
0
41
1
10
-30
20
14.7933781380804
30
0
41
1
10
-30
20
14.7259318150055
30
0
41
1
10
-30
20
14.6334478809414
30
0
41
1
10
-30
20
14.5388306139923
30
0
41
1
10
-30
20
14.4398724968666
30
0
41
1
10
-30
20
14.3643499358608
30
0
41
1
10
-30
20
14.2872489988172
30
0
41
1
10
-30
20
14.1819460940194
30
0
41
1
10
-30
20
14.0747689624993
30
0
41
1
10
-30
20
13.9632604256822
30
0
41
1
10
-30
20
13.8784200007502
30
0
41
1
10
-30
20
13.7920640526129
30
0
41
1
10
-30
20
13.674463030797
30
0
41
1
10
-30
20
13.5552283874056
30
0
41
1
10
-30
20
13.4316550911985
30
0
41
1
10
-30
20
13.3378530670951
30
0
41
1
10
-30
20
13.2425907988595
30
0
41
1
10
-30
20
13.1131460860381
30
0
41
1
10
-30
20
12.9822967545724
30
0
41
1
10
-30
20
12.847084683004
30
0
41
1
10
-30
20
12.7446351532221
30
0
41
1
10
-30
20
12.6407746180399
30
0
41
1
10
-30
20
12.499887311655
30
0
41
1
10
-30
20
12.3578191289812
30
0
41
1
10
-30
20
12.2113468162578
30
0
41
1
10
-30
20
12.100530667573
30
0
41
1
10
-30
20
11.9883478761208
30
0
41
1
10
-30
20
11.836377249174
30
0
41
1
10
-30
20
11.6834503922585
30
0
41
1
10
-30
20
11.5260594948949
30
0
41
1
10
-30
20
11.407132436675
30
0
41
1
10
-30
20
11.2868794886981
30
0
41
1
10
-30
20
11.1241532157818
30
0
41
1
10
-30
20
10.9607029988619
30
0
41
1
10
-30
20
10.7927086404326
30
0
41
1
10
-30
20
10.6229844866849
30
0
41
1
10
-30
20
10.4091173939315
30
0
41
1
10
-30
20
10.1909959678347
30
0
41
1
10
-30
20
10.0126979588287
30
0
41
1
10
-30
20
9.83272430289387
30
0
41
1
10
-30
20
9.65245023276202
30
0
41
1
10
-30
20
9.46744871362012
30
0
41
1
10
-30
20
9.32804093460695
30
0
41
1
10
-30
20
9.18740563851227
30
0
41
1
10
-30
20
9.04555437859216
30
0
41
1
10
-30
20
8.90249044231985
30
0
41
1
10
-30
20
8.70931958714525
30
0
41
1
10
-30
20
8.46674616603485
30
0
41
1
10
-30
20
8.2202168629417
30
0
41
1
10
-30
20
8.0190683664558
30
0
41
1
10
-30
20
7.86773085832672
30
0
41
1
10
-30
20
7.71524241280145
30
0
41
1
10
-30
20
7.56161298420648
30
0
41
1
10
-30
20
7.40685260452801
30
0
41
1
10
-30
20
7.19804202206527
30
0
41
1
10
-30
20
6.93651252502838
30
0
41
1
10
-30
20
6.61705894701075
30
0
41
1
10
-30
20
6.34834996432818
30
0
41
1
10
-30
20
6.12929373929518
30
0
41
1
10
-30
20
5.9648494511537
30
0
41
1
10
-30
20
5.79939743818983
30
0
41
1
10
-30
20
5.63295542814626
30
0
41
1
10
-30
20
5.4655408318975
30
0
41
1
10
-30
20
5.29717335727503
30
0
41
1
10
-30
20
5.1278759130733
30
0
41
1
10
-30
20
4.95767063849863
30
0
41
1
10
-30
20
4.78658071628465
30
0
41
1
10
-30
20
4.61463355062486
30
0
41
1
10
-30
20
4.44186113006072
30
0
41
1
10
-30
20
4.26829321973952
30
0
41
1
10
-30
20
4.09396155182324
30
0
41
1
10
-30
20
3.91890592173871
30
0
41
1
10
-30
20
3.74316620306939
30
0
41
1
10
-30
20
3.56678705857652
30
0
41
1
10
-30
20
3.42015123791839
30
0
41
1
10
-30
20
3.30098109847953
30
0
41
1
10
-30
20
3.21216327477836
30
0
41
1
10
-30
20
3.12322377081895
30
0
41
1
10
-30
20
3.00356413190354
30
0
41
1
10
-30
20
2.85589664233004
30
0
41
1
10
-30
20
2.70788037697059
30
0
41
1
10
-30
20
2.58749550859636
30
0
41
1
10
-30
20
2.49793822974368
30
0
41
1
10
-30
20
2.40833000131909
30
0
41
1
10
-30
20
2.31867596083529
30
0
41
1
10
-30
20
2.22899146909504
30
0
41
1
10
-30
20
2.10827328924759
30
0
41
1
10
-30
20
1.99097459417123
30
0
41
1
10
-30
20
1.8701246771499
30
0
41
1
10
-30
20
1.7804303168304
30
0
41
1
10
-30
20
1.69076251244056
30
0
41
1
10
-30
20
1.60113247848608
30
0
41
1
10
-30
20
1.51155313609786
30
0
41
1
10
-30
20
1.42202575772706
30
0
41
1
10
-30
20
1.33256776537962
30
0
41
1
10
-30
20
1.24317741509077
30
0
41
1
10
-30
20
1.15386860885195
30
0
41
1
10
-30
20
1.0646401367365
30
0
41
1
10
-30
20
0.975500136218301
30
0
41
1
10
-30
20
0.886447988926875
30
0
41
1
10
-30
20
0.797485776681185
30
0
41
1
10
-30
20
0.708610852102652
30
0
41
1
10
-30
20
0.619820737442808
30
0
41
1
10
-30
20
0.531109764951282
30
0
41
1
10
-30
20
0.442471434007672
30
0
41
1
10
-30
20
0.353896007963499
30
0
41
1
10
-30
20
0.26537387921428
30
0
41
1
10
-30
20
0.17689237169219
30
0
41
1
10
-30
20
0.0884392148654172
30
0
41
1
10
-30
20
2.04974242E-08
30
0
41
1
10
-30
20
-0.0884392031952359
30
0
41
1
10
-30
20
-0.176892414719902
30
0
41
1
10
-30
20
-0.265373915570109
30
0
41
1
10
-30
20
-0.353895962579457
30
0
41
1
10
-30
20
-0.442471374506795
30
0
41
1
10
-30
20
-0.531109813902617
30
0
41
1
10
-30
20
-0.619820822982092
30
0
41
1
10
-30
20
-0.708610806550041
30
0
41
1
10
-30
20
-0.797485667180126
30
0
41
1
10
-30
20
-0.886448026006804
30
0
41
1
10
-30
20
-0.975500272783734
30
0
41
1
10
-30
20
-1.06464012636246
30
0
41
1
10
-30
20
-1.15386845800864
30
0
41
1
10
-30
20
-1.24317738635403
30
0
41
1
10
-30
20
-1.33256791795023
30
0
41
1
10
-30
20
-1.42202585063242
30
0
41
1
10
-30
20
-1.51155302070467
30
0
41
1
10
-30
20
-1.60113232466111
30
0
41
1
10
-30
20
-1.69076256252151
30
0
41
1
10
-30
20
-1.78043050963586
30
0
41
1
10
-30
20
-1.87012473193454
30
0
41
1
10
-30
20
-1.95984062320622
30
0
41
1
10
-30
20
-2.04956121840732
30
0
41
1
10
-30
20
-2.13928298465066
30
0
41
1
10
-30
20
-2.22899154181982
30
0
41
1
10
-30
20
-2.34971237639809
30
0
41
1
10
-30
20
-2.46705810448157
30
0
41
1
10
-30
20
-2.58749567267537
30
0
41
1
10
-30
20
-2.7078805675516
30
0
41
1
10
-30
20
-2.85589666602095
30
0
41
1
10
-30
20
-3.00356394920897
30
0
41
1
10
-30
20
-3.12322374659232
30
0
41
1
10
-30
20
-3.21216341650839
30
0
41
1
10
-30
20
-3.30098129392067
30
0
41
1
10
-30
20
-3.42015124315617
30
0
41
1
10
-30
20
-3.56678672363674
30
0
41
1
10
-30
20
-3.74316585626096
30
0
41
1
10
-30
20
-3.91890584757374
30
0
41
1
10
-30
20
-4.09396100129442
30
0
41
1
10
-30
20
-4.26829259541549
30
0
41
1
10
-30
20
-4.44186183082064
30
0
41
1
10
-30
20
-4.6146341491438
30
0
41
1
10
-30
20
-4.7865802102549
30
0
41
1
10
-30
20
-4.9576712305628
30
0
41
1
10
-30
20
-5.12787786255657
30
0
41
1
10
-30
20
-5.29717415068041
30
0
41
1
10
-30
20
-5.46553992297873
30
0
41
1
10
-30
20
-5.63295448869488
30
0
41
1
10
-30
20
-5.79939725011724
30
0
41
1
10
-30
20
-5.96484950556558
30
0
41
1
10
-30
20
-6.12929365354827
30
0
41
1
10
-30
20
-6.34834993475849
30
0
41
1
10
-30
20
-6.61705901965067
30
0
41
1
10
-30
20
-6.93651248001376
30
0
41
1
10
-30
20
-7.19804203228605
30
0
41
1
10
-30
20
-7.40685270744592
30
0
41
1
10
-30
20
-7.5616129798685
30
0
41
1
10
-30
20
-7.71524232371229
30
0
41
1
10
-30
20
-7.86773082006809
30
0
41
1
10
-30
20
-8.01906843480589
30
0
41
1
10
-30
20
-8.2202169213561
30
0
41
1
10
-30
20
-8.46674612315104
30
0
41
1
10
-30
20
-8.70931957903707
30
0
41
1
10
-30
20
-8.90249052457435
30
0
41
1
10
-30
20
-9.04555441784279
30
0
41
1
10
-30
20
-9.1874056059394
30
0
41
1
10
-30
20
-9.32804088163149
30
0
41
1
10
-30
20
-9.46744870809559
30
0
41
1
10
-30
20
-9.65245029192153
30
0
41
1
10
-30
20
-9.83272433616028
30
0
41
1
10
-30
20
-10.0126979221092
30
0
41
1
10
-30
20
-10.1909959517429
30
0
41
1
10
-30
20
-10.4091174330404
30
0
41
1
10
-30
20
-10.622984509075
30
0
41
1
10
-30
20
-10.7927086151922
30
0
41
1
10
-30
20
-10.9607029915804
30
0
41
1
10
-30
20
-11.1241532476502
30
0
41
1
10
-30
20
-11.286879520772
30
0
41
1
10
-30
20
-11.4071324437642
30
0
41
1
10
-30
20
-11.526059483736
30
0
41
1
10
-30
20
-11.683450389854
30
0
41
1
10
-30
20
-11.8363772717574
30
0
41
1
10
-30
20
-11.9883479026382
30
0
41
1
10
-30
20
-12.100530681097
30
0
41
1
10
-30
20
-12.2113468177929
30
0
41
1
10
-30
20
-12.3578191303264
30
0
41
1
10
-30
20
-12.4998873251013
30
0
41
1
10
-30
20
-12.640774639564
30
0
41
1
10
-30
20
-12.7446351726737
30
0
41
1
10
-30
20
-12.8470846962098
30
0
41
1
10
-30
20
-12.982296760346
30
0
41
1
10
-30
20
-13.1131460918651
30
0
41
1
10
-30
20
-13.2425908150843
30
0
41
1
10
-30
20
-13.3378530905646
30
0
41
1
10
-30
20
-13.4316551022429
30
0
41
1
10
-30
20
-13.555228443938
30
0
41
1
10
-30
20
-13.6744629632361
30
0
41
1
10
-30
20
-13.7920640428986
30
0
41
1
10
-30
20
-13.863808410054
30
0
41
1
10
-30
20
-13.9208384799595
30
0
41
1
10
-30
20
-13.9773600368973
30
0
41
1
10
-30
20
-14.0747689786766
30
0
41
1
10
-30
20
-14.1819460903517
30
0
41
1
10
-30
20
-14.287249006353
30
0
41
1
10
-30
20
-14.3643499644422
30
0
41
1
10
-30
20
-14.4398725346097
30
0
41
1
10
-30
20
-14.5388306330264
30
0
41
1
10
-30
20
-14.6334478734244
30
0
41
1
10
-30
20
-14.7259318226356
30
0
41
1
10
-30
20
-14.7933781715369
30
0
41
1
10
-30
20
-14.8591738437124
30
0
41
1
10
-30
20
-14.9233034607296
30
0
41
1
10
-30
20
-14.9857535133678
30
0
41
1
10
-30
20
-15.0465122321639
30
0
41
1
10
-30
20
-15.1055630695375
30
0
41
1
10
-30
20
-15.1823146060512
30
0
41
1
10
-30
20
-15.2546726312332
30
0
41
1
10
-30
20
-15.3243986497296
30
0
41
1
10
-30
20
-15.3917322452795
30
0
41
1
10
-30
20
-15.4546352005829
30
0
41
1
10
-30
20
-15.514676887791
30
0
41
1
10
-30
20
-15.5722298782127
30
0
41
1
10
-30
20
-15.6253102421943
30
0
41
1
10
-30
20
-15.6752710489662
30
0
41
1
10
-30
20
-15.7106367362117
30
0
41
1
10
-30
20
-15.7440468008704
30
0
41
1
10
-30
20
-15.7861515665345
30
0
41
1
10
-30
20
-15.8237020814765
30
0
41
1
10
-30
20
-15.8576872273509
30
0
41
1
10
-30
20
-15.8809772969169
30
0
41
1
10
-30
20
-15.9021692417172
30
0
41
1
10
-30
20
-15.921235563756
30
0
41
1
10
-30
20
-15.9381491696965
30
0
41
1
10
-30
20
-15.9528811556007
30
0
41
1
10
-30
20
-15.9654018081648
30
0
41
1
10
-30
20
-15.97568082013
30
0
41
1
10
-30
20
-15.9836860510364
30
0
41
1
10
-30
20
-15.989385071505
30
0
41
1
10
-30
20
-15.992743547039
30
0
41
1
10
-30
20
-15.993612628628
30
0
41
1
10
-30
20
-15.9930576922497
30
0
41
1
10
-30
20
-15.9926664677577
30
0
0
SPLINE
5
12B
100
AcDbEntity
8
SK1
62
256
6
ByLayer
370
18
48
1
60
0
100
AcDbSpline
70
4
71
3
72
284
73
280
40
0
40
0
40
0
40
0
40
0.0019583291057344
40
0.0055157669514606
40
0.0090732047971867
40
0.0126306426429129
40
0.0161880804886391
40
0.0197455183343653
40
0.0233029561800914
40
0.0268603940258176
40
0.0304178318715437
40
0.0339752697172699
40
0.037532707562996
40
0.0446475832544483
40
0.0482050211001745
40
0.0517624589459006
40
0.0553198967916268
40
0.058877334637353
40
0.0659922103288052
40
0.0695496481745314
40
0.0731070860202575
40
0.0802219617117099
40
0.083779399557436
40
0.0873368374031622
40
0.0944517130946145
40
0.0980091509403407
40
0.101566588786067
40
0.105124026631793
40
0.108681464477519
40
0.112238902323245
40
0.115796340168972
40
0.119353778014698
40
0.122911215860424
40
0.130026091551876
40
0.133583529397602
40
0.137140967243328
40
0.140698405089055
40
0.144255842934781
40
0.151370718626233
40
0.154928156471959
40
0.158485594317685
40
0.162043032163412
40
0.165600470009138
40
0.17271534570059
40
0.176272783546316
40
0.179830221392042
40
0.183387659237768
40
0.186945097083495
40
0.194059972774947
40
0.197617410620673
40
0.201174848466399
40
0.204732286312125
40
0.208289724157852
40
0.215404599849304
40
0.21896203769503
40
0.222519475540756
40
0.226076913386482
40
0.229634351232208
40
0.236749226923661
40
0.240306664769387
40
0.243864102615113
40
0.247421540460839
40
0.250978978306566
40
0.258093853998018
40
0.261651291843744
40
0.26520872968947
40
0.272323605380922
40
0.279438481072375
40
0.282995918918101
40
0.286553356763827
40
0.293668232455279
40
0.297225670301006
40
0.300783108146732
40
0.304340545992458
40
0.307897983838184
40
0.31145542168391
40
0.315012859529636
40
0.322127735221089
40
0.329242610912541
40
0.332800048758267
40
0.336357486603993
40
0.339914924449719
40
0.343472362295446
40
0.347029800141172
40
0.350587237986898
40
0.35770211367835
40
0.364816989369803
40
0.371931865061255
40
0.375489302906981
40
0.379046740752707
40
0.382604178598433
40
0.386161616444159
40
0.389719054289886
40
0.393276492135612
40
0.396833929981338
40
0.400391367827064
40
0.40394880567279
40
0.407506243518516
40
0.411063681364242
40
0.414621119209969
40
0.418178557055695
40
0.421735994901421
40
0.425293432747147
40
0.428850870592873
40
0.4324083084386
40
0.434187027361462
40
0.435965746284326
40
0.437744465207189
40
0.439523184130052
40
0.443080621975778
40
0.446638059821504
40
0.448416778744367
40
0.45019549766723
40
0.451974216590093
40
0.453752935512956
40
0.455531654435819
40
0.457310373358683
40
0.460867811204409
40
0.462646530127272
40
0.464425249050135
40
0.466203967972998
40
0.467982686895861
40
0.469761405818724
40
0.471540124741587
40
0.47331884366445
40
0.475097562587313
40
0.476876281510177
40
0.478655000433039
40
0.480433719355903
40
0.482212438278766
40
0.483991157201629
40
0.485769876124492
40
0.487548595047355
40
0.489327313970218
40
0.491106032893081
40
0.492884751815944
40
0.494663470738807
40
0.49644218966167
40
0.498220908584533
40
0.499999627507396
40
0.50177834643026
40
0.503557065353123
40
0.505335784275986
40
0.507114503198849
40
0.508893222121712
40
0.510671941044575
40
0.512450659967438
40
0.514229378890301
40
0.516008097813164
40
0.517786816736027
40
0.51956553565889
40
0.521344254581753
40
0.523122973504616
40
0.52490169242748
40
0.526680411350343
40
0.528459130273206
40
0.530237849196069
40
0.532016568118932
40
0.533795287041795
40
0.535574005964658
40
0.537352724887521
40
0.539131443810384
40
0.540910162733247
40
0.54268888165611
40
0.544467600578973
40
0.546246319501837
40
0.549803757347563
40
0.551582476270426
40
0.553361195193289
40
0.556918633039015
40
0.560476070884741
40
0.562254789807604
40
0.564033508730467
40
0.56581222765333
40
0.567590946576193
40
0.57114838442192
40
0.574705822267646
40
0.578263260113372
40
0.581820697959098
40
0.585378135804824
40
0.58893557365055
40
0.592493011496277
40
0.596050449342003
40
0.599607887187729
40
0.603165325033455
40
0.606722762879181
40
0.610280200724907
40
0.613837638570633
40
0.61739507641636
40
0.620952514262086
40
0.624509952107812
40
0.628067389953538
40
0.63518226564499
40
0.642297141336443
40
0.649412017027895
40
0.652969454873621
40
0.656526892719347
40
0.660084330565073
40
0.6636417684108
40
0.667199206256526
40
0.670756644102252
40
0.677871519793704
40
0.684986395485157
40
0.688543833330883
40
0.692101271176609
40
0.695658709022335
40
0.699216146868061
40
0.702773584713787
40
0.706331022559514
40
0.713445898250966
40
0.717003336096692
40
0.720560773942418
40
0.727675649633871
40
0.734790525325323
40
0.738347963171049
40
0.741905401016775
40
0.749020276708227
40
0.752577714553954
40
0.75613515239968
40
0.759692590245406
40
0.763250028091132
40
0.770364903782584
40
0.77392234162831
40
0.777479779474037
40
0.781037217319763
40
0.784594655165489
40
0.791709530856941
40
0.795266968702667
40
0.798824406548394
40
0.80238184439412
40
0.805939282239846
40
0.813054157931298
40
0.816611595777024
40
0.820169033622751
40
0.823726471468477
40
0.827283909314203
40
0.834398785005655
40
0.837956222851381
40
0.841513660697107
40
0.843292379619971
40
0.845071098542834
40
0.84862853638856
40
0.855743412080012
40
0.859300849925738
40
0.862858287771464
40
0.86641572561719
40
0.869973163462917
40
0.877088039154369
40
0.880645477000095
40
0.884202914845821
40
0.887760352691548
40
0.891317790537274
40
0.894875228383
40
0.898432666228726
40
0.901990104074452
40
0.905547541920178
40
0.91266241761163
40
0.916219855457357
40
0.919777293303083
40
0.926892168994535
40
0.930449606840261
40
0.934007044685988
40
0.94112192037744
40
0.944679358223166
40
0.948236796068892
40
0.951794233914618
40
0.955351671760344
40
0.962466547451797
40
0.966023985297523
40
0.969581423143249
40
0.973138860988975
40
0.976696298834701
40
0.980253736680427
40
0.983811174526154
40
0.98736861237188
40
0.990926050217606
40
0.994483488063332
40
0.998040925909058
40
1
40
1
40
1
40
1
41
1
10
-28.5
20
16.8570361857994
30
0
41
1
10
-28.5
20
16.8564113695848
30
0
41
1
10
-28.5
20
16.854298645478
30
0
41
1
10
-28.5
20
16.8492032887544
30
0
41
1
10
-28.5
20
16.8407921788659
30
0
41
1
10
-28.5
20
16.8300011209595
30
0
41
1
10
-28.5
20
16.8168672741156
30
0
41
1
10
-28.5
20
16.801425522577
30
0
41
1
10
-28.5
20
16.783709883521
30
0
41
1
10
-28.5
20
16.7637529731542
30
0
41
1
10
-28.5
20
16.7415855338906
30
0
41
1
10
-28.5
20
16.7172383450784
30
0
41
1
10
-28.5
20
16.6818353810987
30
0
41
1
10
-28.5
20
16.642411510514
30
0
41
1
10
-28.5
20
16.5986105790194
30
0
41
1
10
-28.5
20
16.5637763020887
30
0
41
1
10
-28.5
20
16.5269199075572
30
0
41
1
10
-28.5
20
16.4750169305148
30
0
41
1
10
-28.5
20
16.4194622625482
30
0
41
1
10
-28.5
20
16.3597331913306
30
0
41
1
10
-28.5
20
16.2974462059125
30
0
41
1
10
-28.5
20
16.2317181614777
30
0
41
1
10
-28.5
20
16.1619255301563
30
0
41
1
10
-28.5
20
16.0896767577218
30
0
41
1
10
-28.5
20
16.0141701499498
30
0
41
1
10
-28.5
20
15.9346970720351
30
0
41
1
10
-28.5
20
15.8734193498835
30
0
41
1
10
-28.5
20
15.8103844132608
30
0
41
1
10
-28.5
20
15.745608166167
30
0
41
1
10
-28.5
20
15.6791035033831
30
0
41
1
10
-28.5
20
15.6108850520675
30
0
41
1
10
-28.5
20
15.5409672008416
30
0
41
1
10
-28.5
20
15.4453363897878
30
0
41
1
10
-28.5
20
15.3468344295443
30
0
41
1
10
-28.5
20
15.2445501023873
30
0
41
1
10
-28.5
20
15.1663215412448
30
0
41
1
10
-28.5
20
15.0864673138636
30
0
41
1
10
-28.5
20
14.9776668598205
30
0
41
1
10
-28.5
20
14.8661866472664
30
0
41
1
10
-28.5
20
14.7510047173632
30
0
41
1
10
-28.5
20
14.6631805593238
30
0
41
1
10
-28.5
20
14.5737935545693
30
0
41
1
10
-28.5
20
14.4523474056541
30
0
41
1
10
-28.5
20
14.3283920102608
30
0
41
1
10
-28.5
20
14.2007962111626
30
0
41
1
10
-28.5
20
14.1037299196573
30
0
41
1
10
-28.5
20
14.0051547121626
30
0
41
1
10
-28.5
20
13.8715103774193
30
0
41
1
10
-28.5
20
13.7355116027341
30
0
41
1
10
-28.5
20
13.5959164295663
30
0
41
1
10
-28.5
20
13.4899116400767
30
0
41
1
10
-28.5
20
13.3824445287114
30
0
41
1
10
-28.5
20
13.2369867267197
30
0
41
1
10
-28.5
20
13.0893180063073
30
0
41
1
10
-28.5
20
12.9380809359595
30
0
41
1
10
-28.5
20
12.8234002792818
30
0
41
1
10
-28.5
20
12.7072977235969
30
0
41
1
10
-28.5
20
12.550359403554
30
0
41
1
10
-28.5
20
12.3913462445321
30
0
41
1
10
-28.5
20
12.2287775158425
30
0
41
1
10
-28.5
20
12.1056498288981
30
0
41
1
10
-28.5
20
11.9811355431937
30
0
41
1
10
-28.5
20
11.8130068133241
30
0
41
1
10
-28.5
20
11.642935768078
30
0
41
1
10
-28.5
20
11.4693068645234
30
0
41
1
10
-28.5
20
11.2938625434425
30
0
41
1
10
-28.5
20
11.0718089327865
30
0
41
1
10
-28.5
20
10.8452681360072
30
0
41
1
10
-28.5
20
10.6608198079833
30
0
41
1
10
-28.5
20
10.4745957683654
30
0
41
1
10
-28.5
20
10.28665185334
30
0
41
1
10
-28.5
20
10.0951135357909
30
0
41
1
10
-28.5
20
9.95038954775913
30
0
41
1
10
-28.5
20
9.80435457760413
30
0
41
1
10
-28.5
20
9.65701503611825
30
0
41
1
10
-28.5
20
9.50837340526914
30
0
41
1
10
-28.5
20
9.30810992365682
30
0
41
1
10
-28.5
20
9.05534970701547
30
0
41
1
10
-28.5
20
8.79830464348925
30
0
41
1
10
-28.5
20
8.58944232029057
30
0
41
1
10
-28.5
20
8.43181572672984
30
0
41
1
10
-28.5
20
8.27292311790595
30
0
41
1
10
-28.5
20
8.11277014047187
30
0
41
1
10
-28.5
20
7.95136171184492
30
0
41
1
10
-28.5
20
7.73407184255311
30
0
41
1
10
-28.5
20
7.46030866767532
30
0
41
1
10
-28.5
20
7.12632140637376
30
0
41
1
10
-28.5
20
6.84437402550572
30
0
41
1
10
-28.5
20
6.61554359890374
30
0
41
1
10
-28.5
20
6.4430902941161
30
0
41
1
10
-28.5
20
6.26944364545892
30
0
41
1
10
-28.5
20
6.09461246091774
30
0
41
1
10
-28.5
20
5.91860523667611
30
0
41
1
10
-28.5
20
5.74143189937956
30
0
41
1
10
-28.5
20
5.56310357372004
30
0
41
1
10
-28.5
20
5.38363134733169
30
0
41
1
10
-28.5
20
5.20302692387264
30
0
41
1
10
-28.5
20
5.02130422324723
30
0
41
1
10
-28.5
20
4.83847919931267
30
0
41
1
10
-28.5
20
4.65456716028007
30
0
41
1
10
-28.5
20
4.46958486845952
30
0
41
1
10
-28.5
20
4.28355302808072
30
0
41
1
10
-28.5
20
4.09649275318185
30
0
41
1
10
-28.5
20
3.90842813226234
30
0
41
1
10
-28.5
20
3.75124940963568
30
0
41
1
10
-28.5
20
3.62435497964392
30
0
41
1
10
-28.5
20
3.52924315934186
30
0
41
1
10
-28.5
20
3.43390158445524
30
0
41
1
10
-28.5
20
3.30608717079304
30
0
41
1
10
-28.5
20
3.14669072023426
30
0
41
1
10
-28.5
20
2.98656939879123
30
0
41
1
10
-28.5
20
2.85729421649614
30
0
41
1
10
-28.5
20
2.76048089001327
30
0
41
1
10
-28.5
20
2.66347976206257
30
0
41
1
10
-28.5
20
2.56629526768595
30
0
41
1
10
-28.5
20
2.46893611478757
30
0
41
1
10
-28.5
20
2.33842740009589
30
0
41
1
10
-28.5
20
2.20905952740148
30
0
41
1
10
-28.5
20
2.07788039572901
30
0
41
1
10
-28.5
20
1.97974994874619
30
0
41
1
10
-28.5
20
1.88148715614125
30
0
41
1
10
-28.5
20
1.7831009010128
30
0
41
1
10
-28.5
20
1.68460072925308
30
0
41
1
10
-28.5
20
1.58599184128099
30
0
41
1
10
-28.5
20
1.48728649469359
30
0
41
1
10
-28.5
20
1.38848914320593
30
0
41
1
10
-28.5
20
1.28961139997085
30
0
41
1
10
-28.5
20
1.1906585936099
30
0
41
1
10
-28.5
20
1.09164071478051
30
0
41
1
10
-28.5
20
0.992564090788477
30
0
41
1
10
-28.5
20
0.893436923932569
30
0
41
1
10
-28.5
20
0.794265471937194
30
0
41
1
10
-28.5
20
0.695056741362862
30
0
41
1
10
-28.5
20
0.59581646850728
30
0
41
1
10
-28.5
20
0.496550613210019
30
0
41
1
10
-28.5
20
0.39726385318184
30
0
41
1
10
-28.5
20
0.297961366795136
30
0
41
1
10
-28.5
20
0.198647102840766
30
0
41
1
10
-28.5
20
0.0993254669347721
30
0
41
1
10
-28.5
20
5.4725433E-09
30
0
41
1
10
-28.5
20
-0.0993254684405542
30
0
41
1
10
-28.5
20
-0.198647127601191
30
0
41
1
10
-28.5
20
-0.297961388791663
30
0
41
1
10
-28.5
20
-0.397263840423989
30
0
41
1
10
-28.5
20
-0.49655059420553
30
0
41
1
10
-28.5
20
-0.595816495504067
30
0
41
1
10
-28.5
20
-0.695056784276971
30
0
41
1
10
-28.5
20
-0.794265459276147
30
0
41
1
10
-28.5
20
-0.893436883433452
30
0
41
1
10
-28.5
20
-0.992564112169873
30
0
41
1
10
-28.5
20
-1.09164077920417
30
0
41
1
10
-28.5
20
-1.19065859620261
30
0
41
1
10
-28.5
20
-1.28961134189748
30
0
41
1
10
-28.5
20
-1.38848913588987
30
0
41
1
10
-28.5
20
-1.48728656512975
30
0
41
1
10
-28.5
20
-1.58599188781929
30
0
41
1
10
-28.5
20
-1.68460068701245
30
0
41
1
10
-28.5
20
-1.78310084050693
30
0
41
1
10
-28.5
20
-1.88148718140698
30
0
41
1
10
-28.5
20
-1.97975003643617
30
0
41
1
10
-28.5
20
-2.07788042653627
30
0
41
1
10
-28.5
20
-2.17587292609079
30
0
41
1
10
-28.5
20
-2.27371679621314
30
0
41
1
10
-28.5
20
-2.37140757120349
30
0
41
1
10
-28.5
20
-2.4689361394303
30
0
41
1
10
-28.5
20
-2.59923374131697
30
0
41
1
10
-28.5
20
-2.72777279716703
30
0
41
1
10
-28.5
20
-2.85729428823927
30
0
41
1
10
-28.5
20
-2.98656948332385
30
0
41
1
10
-28.5
20
-3.14669074057866
30
0
41
1
10
-28.5
20
-3.30608709676795
30
0
41
1
10
-28.5
20
-3.43390157548933
30
0
41
1
10
-28.5
20
-3.52924322184188
30
0
41
1
10
-28.5
20
-3.62435506854828
30
0
41
1
10
-28.5
20
-3.75124942106055
30
0
41
1
10
-28.5
20
-3.90842799420622
30
0
41
1
10
-28.5
20
-4.09649259176143
30
0
41
1
10
-28.5
20
-4.28355297730502
30
0
41
1
10
-28.5
20
-4.46958461745547
30
0
41
1
10
-28.5
20
-4.65456683421033
30
0
41
1
10
-28.5
20
-4.83847943804491
30
0
41
1
10
-28.5
20
-5.02130448518977
30
0
41
1
10
-28.5
20
-5.20302670033007
30
0
41
1
10
-28.5
20
-5.38363156234235
30
0
41
1
10
-28.5
20
-5.5631044550444
30
0
41
1
10
-28.5
20
-5.74143237747978
30
0
41
1
10
-28.5
20
-5.91860495448569
30
0
41
1
10
-28.5
20
-6.09461208825525
30
0
41
1
10
-28.5
20
-6.26944357118296
30
0
41
1
10
-28.5
20
-6.44309032655627
30
0
41
1
10
-28.5
20
-6.61554357091566
30
0
41
1
10
-28.5
20
-6.84437400802858
30
0
41
1
10
-28.5
20
-7.12632144512298
30
0
41
1
10
-28.5
20
-7.46030865505756
30
0
41
1
10
-28.5
20
-7.73407184285276
30
0
41
1
10
-28.5
20
-7.95136176299602
30
0
41
1
10
-28.5
20
-8.11277014937079
30
0
41
1
10
-28.5
20
-8.27292308432646
30
0
41
1
10
-28.5
20
-8.43181570788786
30
0
41
1
10
-28.5
20
-8.58944234887977
30
0
41
1
10
-28.5
20
-8.79830467826929
30
0
41
1
10
-28.5
20
-9.05534969583789
30
0
41
1
10
-28.5
20
-9.30810991622681
30
0
41
1
10
-28.5
20
-9.50837344479848
30
0
41
1
10
-28.5
20
-9.6570150628749
30
0
41
1
10
-28.5
20
-9.80435457188472
30
0
41
1
10
-28.5
20
-9.95038952754786
30
0
41
1
10
-28.5
20
-10.0951135319109
30
0
41
1
10
-28.5
20
-10.2866518813936
30
0
41
1
10
-28.5
20
-10.4745957936973
30
0
41
1
10
-28.5
20
-10.6608197986608
30
0
41
1
10
-28.5
20
-10.8452681286137
30
0
41
1
10
-28.5
20
-11.0718089525805
30
0
41
1
10
-28.5
20
-11.2938625632929
30
0
41
1
10
-28.5
20
-11.4693068596264
30
0
41
1
10
-28.5
20
-11.642935765638
30
0
41
1
10
-28.5
20
-11.8130068303032
30
0
41
1
10
-28.5
20
-11.9811355648908
30
0
41
1
10
-28.5
20
-12.1056498404808
30
0
41
1
10
-28.5
20
-12.2287775174238
30
0
41
1
10
-28.5
20
-12.3913462461042
30
0
41
1
10
-28.5
20
-12.550359417297
30
0
41
1
10
-28.5
20
-12.7072977423403
30
0
41
1
10
-28.5
20
-12.8234002933141
30
0
41
1
10
-28.5
20
-12.9380809438716
30
0
41
1
10
-28.5
20
-13.0893180117674
30
0
41
1
10
-28.5
20
-13.2369867372073
30
0
41
1
10
-28.5
20
-13.3824445445542
30
0
41
1
10
-28.5
20
-13.4899116562854
30
0
41
1
10
-28.5
20
-13.5959164434403
30
0
41
1
10
-28.5
20
-13.735511612592
30
0
41
1
10
-28.5
20
-13.8715103854275
30
0
41
1
10
-28.5
20
-14.0051547249397
30
0
41
1
10
-28.5
20
-14.1037299370701
30
0
41
1
10
-28.5
20
-14.2007962250068
30
0
41
1
10
-28.5
20
-14.328392039309
30
0
41
1
10
-28.5
20
-14.4523474054459
30
0
41
1
10
-28.5
20
-14.57379350627
30
0
41
1
10
-28.5
20
-14.648189652593
30
0
41
1
10
-28.5
20
-14.7070919001428
30
0
41
1
10
-28.5
20
-14.7654709460417
30
0
41
1
10
-28.5
20
-14.8661866667288
30
0
41
1
10
-28.5
20
-14.9776668655465
30
0
41
1
10
-28.5
20
-15.0864673213159
30
0
41
1
10
-28.5
20
-15.166321559936
30
0
41
1
10
-28.5
20
-15.2445501295776
30
0
41
1
10
-28.5
20
-15.3468344527491
30
0
41
1
10
-28.5
20
-15.4453363938052
30
0
41
1
10
-28.5
20
-15.5409672073329
30
0
41
1
10
-28.5
20
-15.6108850733397
30
0
41
1
10
-28.5
20
-15.6791035342519
30
0
41
1
10
-28.5
20
-15.7456081924762
30
0
41
1
10
-28.5
20
-15.810384423087
30
0
41
1
10
-28.5
20
-15.8734193510278
30
0
41
1
10
-28.5
20
-15.934697080719
30
0
41
1
10
-28.5
20
-16.0141701800501
30
0
41
1
10
-28.5
20
-16.0896767899467
30
0
41
1
10
-28.5
20
-16.1619255341457
30
0
41
1
10
-28.5
20
-16.2317181619347
30
0
41
1
10
-28.5
20
-16.2974462376792
30
0
41
1
10
-28.5
20
-16.3597332242326
30
0
41
1
10
-28.5
20
-16.4194622696319
30
0
41
1
10
-28.5
20
-16.4750169286961
30
0
41
1
10
-28.5
20
-16.5269199399481
30
0
41
1
10
-28.5
20
-16.5637763395247
30
0
41
1
10
-28.5
20
-16.5986105943247
30
0
41
1
10
-28.5
20
-16.642411504334
30
0
41
1
10
-28.5
20
-16.6818354096896
30
0
41
1
10
-28.5
20
-16.7172383773104
30
0
41
1
10
-28.5
20
-16.741585550229
30
0
41
1
10
-28.5
20
-16.7637529737167
30
0
41
1
10
-28.5
20
-16.7837098927271
30
0
41
1
10
-28.5
20
-16.8014255596809
30
0
41
1
10
-28.5
20
-16.816867307208
30
0
41
1
10
-28.5
20
-16.8300011251081
30
0
41
1
10
-28.5
20
-16.8407921763223
30
0
41
1
10
-28.5
20
-16.8492033090471
30
0
41
1
10
-28.5
20
-16.8542990569312
30
0
41
1
10
-28.5
20
-16.8564118761083
30
0
41
1
10
-28.5
20
-16.8570368137474
30
0
0
SPLINE
5
12C
100
AcDbEntity
8
SK1
62
256
6
ByLayer
370
18
48
1
60
0
100
AcDbSpline
70
4
71
3
72
22
73
18
40
0
40
0
40
0
40
0
40
0.0260455644157247
40
0.0260455644157247
40
0.0526262165848557
40
0.0526262165848557
40
0.0706056579866929
40
0.0706056579866929
40
0.0884949509195805
40
0.0884949509195805
40
0.11748921873202
40
0.11748921873202
40
0.17459086731972
40
0.17459086731972
40
0.37652425293745
40
0.37652425293745
40
1
40
1
40
1
40
1
41
1
10
-0.394976888872947
20
5.38678223324206
30
0
41
1
10
-0.389612432086409
20
5.38222504185003
30
0
41
1
10
-0.383763200778958
20
5.37811700449893
30
0
41
1
10
-0.3709728888754
20
5.37184824531644
30
0
41
1
10
-0.363785592650885
20
5.36968256852501
30
0
41
1
10
-0.351475656346565
20
5.3691458249703
30
0
41
1
10
-0.346317238365032
20
5.36979468027801
30
0
41
1
10
-0.336550133197363
20
5.3727304206256
30
0
41
1
10
-0.331829865964096
20
5.3750241182685
30
0
41
1
10
-0.320511111438321
20
5.38234306083376
30
0
41
1
10
-0.314321448136155
20
5.3882440687963
30
0
41
1
10
-0.298260159254511
20
5.40702817233921
30
0
41
1
10
-0.290032841564653
20
5.42147709180324
30
0
41
1
10
-0.258449669573651
20
5.48745345024415
30
0
41
1
10
-0.24608390551893
20
5.5434138926733
30
0
41
1
10
-0.204764795451894
20
5.7670899064446
30
0
41
1
10
-0.200000000000358
20
5.93709576978202
30
0
41
1
10
-0.200000000000358
20
6.10344667966001
30
0
0
SPLINE
5
12D
100
AcDbEntity
8
SK1
62
256
6
ByLayer
370
18
48
1
60
0
100
AcDbSpline
70
4
71
3
72
22
73
18
40
0
40
0
40
0
40
0
40
0.359503326352592
40
0.359503326352592
40
0.722215553677066
40
0.722215553677066
40
0.826527133697721
40
0.826527133697721
40
0.863141914878009
40
0.863141914878009
40
0.900378805007221
40
0.900378805007221
40
0.933500873078508
40
0.933500873078508
40
0.972947835056124
40
0.972947835056124
40
1
40
1
40
1
40
1
41
1
10
-1.30710678118655
20
3.91806548153781
30
0
41
1
10
-1.26486058419175
20
4.15139729989579
30
0
41
1
10
-1.21446435132793
20
4.3814323255595
30
0
41
1
10
-1.08204001032738
20
4.82987250608483
30
0
41
1
10
-1.00537527699572
20
5.05527264511531
30
0
41
1
10
-0.832356114396674
20
5.30654108347395
30
0
41
1
10
-0.78723829488635
20
5.36152992388779
30
0
41
1
10
-0.709490490588564
20
5.41877880440927
30
0
41
1
10
-0.687203973712826
20
5.43218986569767
30
0
41
1
10
-0.639076749164019
20
5.45244590583036
30
0
41
1
10
-0.612446414061679
20
5.45928056674788
30
0
41
1
10
-0.562058433231044
20
5.46233960302246
30
0
41
1
10
-0.537713914852588
20
5.45964677314575
30
0
41
1
10
-0.488053852696936
20
5.44628701250068
30
0
41
1
10
-0.462609559288751
20
5.43420976008088
30
0
41
1
10
-0.423860760477311
20
5.40985221311715
30
0
41
1
10
-0.408979654247759
20
5.39867780521598
30
0
41
1
10
-0.394976888875391
20
5.38678223323953
30
0
0
SPLINE
5
12E
100
AcDbEntity
8
1
62
256
6
ByLayer
370
18
48
1
60
0
100
AcDbSpline
70
4
71
3
72
8
73
4
40
0
40
0
40
0
40
0
40
1
40
1
40
1
40
1
41
1
10
56.3052990594435
20
-2.51539670058435
30
0
41
1
10
56.2505164941112
20
-2.55197746621337
30
0
41
1
10
56.1945389547551
20
-2.58676792862607
30
0
41
1
10
56.1374858437096
20
-2.61969393805507
30
0
0
SPLINE
5
12F
100
AcDbEntity
8
1
62
256
6
ByLayer
370
18
48
1
60
0
100
AcDbSpline
70
4
71
1
72
4
73
2
40
0
40
0
40
1
40
1
41
1
10
69.2461536812418
20
1.85871364117932
30
0
41
1
10
69.2476739929627
20
1.84134901366838
30
0
0
SPLINE
5
130
100
AcDbEntity
8
1
62
256
6
ByLayer
370
18
48
1
60
0
100
AcDbSpline
70
4
71
1
72
4
73
2
40
0
40
0
40
1
40
1
41
1
10
69.4579588149539
20
0.649933819487046
30
0
41
1
10
69.4776913896507
20
0.605664872845182
30
0
0
SPLINE
5
131
100
AcDbEntity
8
1
62
256
6
ByLayer
370
18
48
1
60
0
100
AcDbSpline
70
4
71
2
72
10
73
7
40
0
40
0
40
0
40
0.5
40
0.5
40
0.75
40
0.75
40
1
40
1
40
1
41
1
10
69.7489454293002
20
0.427732510204777
30
0
41
1
10
69.816971559792
20
0.407858076678451
30
0
41
1
10
69.8642406940838
20
0.356454953476629
30
0
41
1
10
69.8902924875812
20
0.328124763579268
30
0
41
1
10
69.9069308278902
20
0.292331783190861
30
0
41
1
10
69.9248324996176
20
0.253821080010397
30
0
41
1
10
69.9289462109302
20
0.210735573438768
30
0
0
SPLINE
5
132
100
AcDbEntity
8
1
62
256
6
ByLayer
370
18
48
1
60
0
100
AcDbSpline
70
4
71
1
72
4
73
2
40
0
40
0
40
1
40
1
41
1
10
69.9289462109707
20
0.210735573511158
30
0
41
1
10
69.9378609733855
20
0.0199999871505838
30
0
0
SPLINE
5
133
100
AcDbEntity
8
1
62
256
6
ByLayer
370
18
48
1
60
0
100
AcDbSpline
70
4
71
2
72
13
73
10
40
0
40
0
40
0
40
0.125
40
0.25
40
0.375
40
0.5
40
0.625
40
0.75
40
0.875
40
1
40
1
40
1
41
1
10
77.4
20
-8.53E-14
30
0
41
1
10
77.3998582671321
20
0.298135343688301
30
0
41
1
10
77.2839169764168
20
0.881896208372098
30
0
41
1
10
77.0560146441361
20
1.43238065640796
30
0
41
1
10
76.7250098246431
20
1.92786997974434
30
0
41
1
10
76.3037035841977
20
2.34932561765339
30
0
41
1
10
75.8083315977838
20
2.68050626115303
30
0
41
1
10
75.257927955751
20
2.90860407849198
30
0
41
1
10
74.6736777665416
20
3.02485798770576
30
0
41
1
10
74.37500002043
20
3.02499997960675
30
0
0
SPLINE
5
134
100
AcDbEntity
8
1
62
256
6
ByLayer
370
18
48
1
60
0
100
AcDbSpline
70
4
71
5
72
12
73
6
40
0
40
0
40
0
40
0
40
0
40
0
40
1
40
1
40
1
40
1
40
1
40
1
41
1
10
74.37499515936
20
3.02499998384678
30
0
41
1
10
74.05822067359
20
3.02499894231679
30
0
41
1
10
73.74144548406
20
2.98353592631679
30
0
41
1
10
73.43190974924
20
2.90059624307679
30
0
41
1
10
73.13684273426
20
2.77811702327679
30
0
41
1
10
72.8625072712
20
2.61973101294677
30
0
0
SPLINE
5
135
100
AcDbEntity
8
1
62
256
6
ByLayer
370
18
48
1
60
0
100
AcDbSpline
70
4
71
2
72
8
73
5
40
0
40
0
40
0
40
0.5
40
0.5
40
1
40
1
40
1
41
1
10
72.69469837289
20
2.51540037034675
30
0
41
1
10
72.4878910373665
20
2.37729203185307
30
0
41
1
10
72.2864608729633
20
2.27912730950069
30
0
41
1
10
72.069851952487
20
2.17356539130134
30
0
41
1
10
71.847568368291
20
2.10847431891347
30
0
0
SPLINE
5
136
100
AcDbEntity
8
1
62
256
6
ByLayer
370
18
48
1
60
0
100
AcDbSpline
70
4
71
2
72
6
73
3
40
0
40
0
40
0
40
1
40
1
40
1
41
1
10
71.84757614639
20
2.10844773691676
30
0
41
1
10
71.818628013463
20
2.10007532124123
30
0
41
1
10
71.78854230822
20
2.09999998642675
30
0
0
SPLINE
5
137
100
AcDbEntity
8
1
62
256
6
ByLayer
370
18
48
1
60
0
100
AcDbSpline
70
4
71
3
72
8
73
4
40
0
40
0
40
0
40
0
40
1
40
1
40
1
40
1
41
1
10
72.6947009679565
20
2.51539667351793
30
0
41
1
10
72.7494835332888
20
2.55197743914695
30
0
41
1
10
72.8054610726449
20
2.58676790155965
30
0
41
1
10
72.8625141836903
20
2.61969391098864
30
0
0
SPLINE
5
138
100
AcDbEntity
8
1
62
256
6
ByLayer
370
18
48
1
60
0
100
AcDbSpline
70
4
71
2
72
6
73
3
40
0
40
0
40
0
40
1
40
1
40
1
41
1
10
56.30530135141
20
2.51540010457677
30
0
41
1
10
56.2421377873853
20
2.55756266693911
30
0
41
1
10
56.13630528558
20
2.61764913086677
30
0
0
SPLINE
5
139
100
AcDbEntity
8
1
62
256
6
ByLayer
370
18
48
1
60
0
100
AcDbSpline
70
4
71
3
72
8
73
4
40
0
40
0
40
0
40
0
40
1
40
1
40
1
40
1
41
1
10
52.5249503166786
20
2.17721800662585
30
0
41
1
10
53.082153333949
20
2.71379245765934
30
0
41
1
10
53.8512490850712
20
3.02499998629872
30
0
41
1
10
54.6250000137
20
3.02499998632237
30
0
0
SPLINE
5
13A
100
AcDbEntity
8
1
62
256
6
ByLayer
370
18
48
1
60
0
100
AcDbSpline
70
4
71
5
72
12
73
6
40
0
40
0
40
0
40
0
40
0
40
0
40
1
40
1
40
1
40
1
40
1
40
1
41
1
10
54.62500486804
20
3.02499998384681
30
0
41
1
10
54.94177935381
20
3.02499894231681
30
0
41
1
10
55.25855454334
20
2.98353592631679
30
0
41
1
10
55.56809027816
20
2.90059624307679
30
0
41
1
10
55.86315729314
20
2.77811702327679
30
0
41
1
10
56.1374927562
20
2.6197310129468
30
0
0
SPLINE
5
13B
100
AcDbEntity
8
1
62
256
6
ByLayer
370
18
48
1
60
0
100
AcDbSpline
70
4
71
1
72
4
73
2
40
0
40
0
40
1
40
1
41
1
10
69.7489454293315
20
-0.42773253723837
30
0
41
1
10
69.5901186524854
20
-0.48308536530331
30
0
0
SPLINE
5
13C
100
AcDbEntity
8
1
62
256
6
ByLayer
370
18
48
1
60
0
100
AcDbSpline
70
4
71
1
72
4
73
2
40
0
40
0
40
1
40
1
41
1
10
69.59011865245
20
-0.483085365242289
30
0
41
1
10
69.5495226387937
20
-0.513887581567758
30
0
0
SPLINE
5
13D
100
AcDbEntity
8
1
62
256
6
ByLayer
370
18
48
1
60
0
100
AcDbSpline
70
4
71
2
72
6
73
3
40
0
40
0
40
0
40
1
40
1
40
1
41
1
10
72.69469867599
20
-2.51540013164325
30
0
41
1
10
72.7578622322555
20
-2.55756268989242
30
0
41
1
10
72.86369474182
20
-2.61764915793324
30
0
0
SPLINE
5
13E
100
AcDbEntity
8
1
62
256
6
ByLayer
370
18
48
1
60
0
100
AcDbSpline
70
4
71
3
72
8
73
4
40
0
40
0
40
0
40
0
40
1
40
1
40
1
40
1
41
1
10
71.8475761463903
20
-2.10844776398193
30
0
41
1
10
71.8284234352044
20
-2.1028536988552
30
0
41
1
10
71.8084798964836
20
-2.10000001373501
30
0
41
1
10
71.78854230822
20
-2.10000001349394
30
0
0
SPLINE
5
13F
100
AcDbEntity
8
1
62
256
6
ByLayer
370
18
48
1
60
0
100
AcDbSpline
70
4
71
3
72
8
73
4
40
0
40
0
40
0
40
0
40
1
40
1
40
1
40
1
41
1
10
69.2461536815654
20
-1.85871373891254
30
0
41
1
10
69.2466604520391
20
-1.85290776885679
30
0
41
1
10
69.2471672225128
20
-1.84710206587206
30
0
41
1
10
69.2476739929865
20
-1.84138429877166
30
0
0
SPLINE
5
140
100
AcDbEntity
8
1
62
256
6
ByLayer
370
18
48
1
60
0
100
AcDbSpline
70
4
71
3
72
9
73
5
40
0
40
0
40
0
40
0
40
0.500000001010469
40
1
40
1
40
1
40
1
41
1
10
69.4579588147763
20
-0.649933846518934
30
0
41
1
10
69.4612475772224
20
-0.64194890027801
30
0
41
1
10
69.4678251021012
20
-0.625979007828391
30
0
41
1
10
69.4744026270199
20
-0.612436269318181
30
0
41
1
10
69.4776913894726
20
-0.605664900076732
30
0
0
SPLINE
5
141
100
AcDbEntity
8
1
62
256
6
ByLayer
370
18
48
1
60
0
100
AcDbSpline
70
4
71
3
72
10
73
6
40
0
40
0
40
0
40
0
40
0.5
40
0.5
40
1
40
1
40
1
40
1
41
1
10
77.4000000134104
20
-2.70663918E-08
30
0
41
1
10
77.4000000098916
20
-0.79194317170581
30
0
41
1
10
77.0739863927454
20
-1.57900966158479
30
0
41
1
10
75.9540096557158
20
-2.69898639616395
30
0
41
1
10
75.1669431651074
20
-3.02500001160271
30
0
41
1
10
74.37500002043
20
-3.02500001338879
30
0
0
SPLINE
5
142
100
AcDbEntity
8
1
62
256
6
ByLayer
370
18
48
1
60
0
100
AcDbSpline
70
4
71
5
72
12
73
6
40
0
40
0
40
0
40
0
40
0
40
0
40
1
40
1
40
1
40
1
40
1
40
1
41
1
10
74.37499515936
20
-3.02500001091323
30
0
41
1
10
74.05822067359
20
-3.02499896938323
30
0
41
1
10
73.74144548406
20
-2.98353595338321
30
0
41
1
10
73.43190974924
20
-2.90059627014321
30
0
41
1
10
73.13684273426
20
-2.77811705034321
30
0
41
1
10
72.8625072712
20
-2.61973104001322
30
0
0
SPLINE
5
143
100
AcDbEntity
8
1
62
256
6
ByLayer
370
18
48
1
60
0
100
AcDbSpline
70
4
71
3
72
9
73
5
40
0
40
0
40
0
40
0
40
0.499999998752875
40
1
40
1
40
1
40
1
41
1
10
69.5901186522599
20
0.483085338289754
30
0
41
1
10
69.5833526499748
20
0.486904388979269
30
0
41
1
10
69.5698206453708
20
0.494542490377341
30
0
41
1
10
69.5562886408682
20
0.507439199761592
30
0
41
1
10
69.5495226385999
20
0.513887554469818
30
0
0
SPLINE
5
144
100
AcDbEntity
8
1
62
256
6
ByLayer
370
18
48
1
60
0
100
AcDbSpline
70
4
71
3
72
9
73
5
40
0
40
0
40
0
40
0
40
0.500000000000351
40
1
40
1
40
1
40
1
41
1
10
69.7489454291595
20
0.427732510168795
30
0
41
1
10
69.722474299683
20
0.435844021155532
30
0
41
1
10
69.6695320407299
20
0.452067043128977
30
0
41
1
10
69.6165897817768
20
0.472745906525773
30
0
41
1
10
69.5901186523002
20
0.483085338224129
30
0
0
SPLINE
5
145
100
AcDbEntity
8
1
62
256
6
ByLayer
370
18
48
1
60
0
100
AcDbSpline
70
4
71
2
72
9
73
6
40
0
40
0
40
0
40
0.232368319903913
40
0.488245546602608
40
0.744122773301304
40
1
40
1
40
1
41
1
10
52.5249801236394
20
-2.17725368548679
30
0
41
1
10
52.7190910472703
20
-2.36456496355618
30
0
41
1
10
53.1916684296162
20
-2.68050628821948
30
0
41
1
10
53.742072071649
20
-2.90860410555843
30
0
41
1
10
54.3263222608584
20
-3.02485801477224
30
0
41
1
10
54.62500000697
20
-3.02500000667322
30
0
0
SPLINE
5
146
100
AcDbEntity
8
1
62
256
6
ByLayer
370
18
48
1
60
0
100
AcDbSpline
70
4
71
5
72
12
73
6
40
0
40
0
40
0
40
0
40
0
40
0
40
1
40
1
40
1
40
1
40
1
40
1
41
1
10
54.62500486804
20
-3.0250000109132
30
0
41
1
10
54.94177935381
20
-3.0249989693832
30
0
41
1
10
55.25855454334
20
-2.98353595338321
30
0
41
1
10
55.56809027816
20
-2.90059627014321
30
0
41
1
10
55.86315729314
20
-2.77811705034321
30
0
41
1
10
56.1374927562
20
-2.61973104001319
30
0
0
SPLINE
5
147
100
AcDbEntity
8
1
62
256
6
ByLayer
370
18
48
1
60
0
100
AcDbSpline
70
4
71
2
72
8
73
5
40
0
40
0
40
0
40
0.632948700108532
40
0.632948700108532
40
1
40
1
40
1
41
1
10
56.30530165451
20
-2.51540039741323
30
0
41
1
10
56.5121089839748
20
-2.37729206296558
30
0
41
1
10
56.7135391424414
20
-2.27912734241025
30
0
41
1
10
56.8391521398788
20
-2.21791126193136
30
0
41
1
10
56.9666734810104
20
-2.17030520147648
30
0
0
SPLINE
5
148
100
AcDbEntity
8
1
62
256
6
ByLayer
370
18
48
1
60
0
100
AcDbSpline
70
4
71
3
72
9
73
5
40
0
40
0
40
0
40
0
40
0.508401852135564
40
1
40
1
40
1
40
1
41
1
10
69.74894542914
20
-0.427732537271226
30
0
41
1
10
69.7914845629581
20
-0.410703672394504
30
0
41
1
10
69.8751568266202
20
-0.37720878089246
30
0
41
1
10
69.9112184054287
20
-0.265601522177633
30
0
41
1
10
69.92894621078
20
-0.210735600505217
30
0
0
SPLINE
5
149
100
AcDbEntity
8
1
62
256
6
ByLayer
370
18
48
1
60
0
100
AcDbSpline
70
4
71
3
72
9
73
5
40
0
40
0
40
0
40
0
40
0.500000000002578
40
1
40
1
40
1
40
1
41
1
10
69.928946210825
20
-0.210735600577607
30
0
41
1
10
69.9304320045603
20
-0.178998390994735
30
0
41
1
10
69.9334035920308
20
-0.115523971829276
30
0
41
1
10
69.9363751795014
20
-0.0518413334204979
30
0
41
1
10
69.9378609732366
20
-0.0200000142162651
30
0
0
SPLINE
5
14A
100
AcDbEntity
8
1
62
256
6
ByLayer
370
18
48
1
60
0
100
AcDbSpline
70
4
71
3
72
9
73
5
40
0
40
0
40
0
40
0
40
0.441654957339549
40
1
40
1
40
1
40
1
41
1
10
72.6946983728937
20
-2.51540039741263
30
0
41
1
10
72.5772403779627
20
-2.4407276147374
30
0
41
1
10
72.3112906971564
20
-2.271652680936
30
0
41
1
10
72.0137231106533
20
-2.16691963616606
30
0
41
1
10
71.8475777238729
20
-2.10844245981605
30
0
0
SPLINE
5
14B
100
AcDbEntity
8
1
62
256
6
ByLayer
370
18
48
1
60
0
100
AcDbSpline
70
4
71
3
72
9
73
5
40
0
40
0
40
0
40
0
40
0.587799258483277
40
1
40
1
40
1
40
1
41
1
10
56.3053016545063
20
2.51540037034621
30
0
41
1
10
56.4227596517163
20
2.4407275862844
30
0
41
1
10
56.6225863706427
20
2.31368968519126
30
0
41
1
10
56.8402632147657
20
2.22297647923531
30
0
41
1
10
56.9313403161369
20
2.18833276374161
30
0
0
LINE
5
72
100
AcDbEntity
8
80
62
256
6
ByLayer
370
18
48
1
60
0
100
AcDbLine
10
0
20
0
30
0
11
-5
21
0
31
0
39
0
210
0
220
0
230
1
0
LINE
5
73
100
AcDbEntity
8
1
62
256
6
ByLayer
370
18
48
1
60
0
100
AcDbLine
10
0.3
20
25
30
0
11
0
21
24.7
31
0
39
0
210
0
220
0
230
1
0
LINE
5
75
100
AcDbEntity
8
1
62
256
6
ByLayer
370
18
48
1
60
0
100
AcDbLine
10
0
20
-24.7
30
0
11
0.3
21
-25
31
0
39
0
210
0
220
0
230
1
0
LINE
5
76
100
AcDbEntity
8
1
62
256
6
ByLayer
370
18
48
1
60
0
100
AcDbLine
10
0.3
20
-25
30
0
11
20.920792
21
-25
31
0
39
0
210
0
220
0
230
1
0
LINE
5
77
100
AcDbEntity
8
1
62
256
6
ByLayer
370
18
48
1
60
0
100
AcDbLine
10
21.592835
20
27.508098
30
0
11
20.920792
21
25
31
0
39
0
210
0
220
0
230
1
0
LINE
5
78
100
AcDbEntity
8
1
62
256
6
ByLayer
370
18
48
1
60
0
100
AcDbLine
10
20.920792
20
-25
30
0
11
21.592835
21
-27.508098
31
0
39
0
210
0
220
0
230
1
0
LINE
5
79
100
AcDbEntity
8
1
62
256
6
ByLayer
370
18
48
1
60
0
100
AcDbLine
10
36.361029
20
27.515672
30
0
11
21.592973
21
27.515672
31
0
39
0
210
0
220
0
230
1
0
LINE
5
7A
100
AcDbEntity
8
1
62
256
6
ByLayer
370
18
48
1
60
0
100
AcDbLine
10
21.592973
20
-27.515672
30
0
11
36.361029
21
-27.515672
31
0
39
0
210
0
220
0
230
1
0
LINE
5
7B
100
AcDbEntity
8
1
62
256
6
ByLayer
370
18
48
1
60
0
100
AcDbLine
10
20.920792
20
25
30
0
11
0.3
21
25
31
0
39
0
210
0
220
0
230
1
0
LINE
5
7C
100
AcDbEntity
8
81
62
256
6
ByLayer
370
18
48
1
60
0
100
AcDbLine
10
77
20
3
30
0
11
82
21
3
31
0
39
0
210
0
220
0
230
1
0
LINE
5
7D
100
AcDbEntity
8
4
62
256
6
ByLayer
370
18
48
0.05
60
0
100
AcDbLine
10
0
20
0
30
0
11
57
21
0
31
0
39
0
210
0
220
0
230
1
0
LINE
5
7F
100
AcDbEntity
8
SK4
62
256
6
ByLayer
370
18
48
0.05
60
0
100
AcDbLine
10
-35
20
0
30
0
11
57
21
0
31
0
39
0
210
0
220
0
230
1
0
LINE
5
81
100
AcDbEntity
8
1
62
256
6
ByLayer
370
18
48
1
60
0
100
AcDbLine
10
36.377489
20
-27.480374
30
0
11
32.616663
21
-27.448065
31
0
39
0
210
0
220
0
230
1
0
LINE
5
82
100
AcDbEntity
8
1
62
256
6
ByLayer
370
18
48
1
60
0
100
AcDbLine
10
69.960264
20
2.175
30
0
11
69.960042
21
2.099994
31
0
39
0
210
0
220
0
230
1
0
LINE
5
83
100
AcDbEntity
8
1
62
256
6
ByLayer
370
18
48
1
60
0
100
AcDbLine
10
69.960264
20
2.175
30
0
11
68.809404
21
2.175
31
0
39
0
210
0
220
0
230
1
0
LINE
5
84
100
AcDbEntity
8
1
62
256
6
ByLayer
370
18
48
1
60
0
100
AcDbLine
10
11.461325
20
23.83913
30
0
11
8.538675
21
23.83913
31
0
39
0
210
0
220
0
230
1
0
LINE
5
85
100
AcDbEntity
8
1
62
256
6
ByLayer
370
18
48
1
60
0
100
AcDbLine
10
0
20
-24.7
30
0
11
0
21
24.7
31
0
39
0
210
0
220
0
230
1
0
LINE
5
86
100
AcDbEntity
8
1
62
256
6
ByLayer
370
18
48
1
60
0
100
AcDbLine
10
8.538675
20
-23.83913
30
0
11
8.538675
21
-7.529667
31
0
39
0
210
0
220
0
230
1
0
LINE
5
87
100
AcDbEntity
8
1
62
256
6
ByLayer
370
18
48
1
60
0
100
AcDbLine
10
8.105662
20
8.055848
30
0
11
8.105662
21
23.666502
31
0
39
0
210
0
220
0
230
1
0
LINE
5
88
100
AcDbEntity
8
1
62
256
6
ByLayer
370
18
48
1
60
0
100
AcDbLine
10
16.992876
20
-2.523865
30
0
11
16.992876
21
-20.943732
31
0
39
0
210
0
220
0
230
1
0
LINE
5
89
100
AcDbEntity
8
1
62
256
6
ByLayer
370
18
48
1
60
0
100
AcDbLine
10
20.977655
20
23.144236
30
0
11
20.977655
21
-23.144236
31
0
39
0
210
0
220
0
230
1
0
LINE
5
8A
100
AcDbEntity
8
1
62
256
6
ByLayer
370
18
48
1
60
0
100
AcDbLine
10
36.364578
20
-27.508061
30
0
11
21.592973
21
-27.508061
31
0
39
0
210
0
220
0
230
1
0
LINE
5
8B
100
AcDbEntity
8
1
62
256
6
ByLayer
370
18
48
1
60
0
100
AcDbLine
10
33.914133
20
-27.327348
30
0
11
33.914133
21
-27.106167
31
0
39
0
210
0
220
0
230
1
0
LINE
5
8C
100
AcDbEntity
8
1
62
256
6
ByLayer
370
18
48
1
60
0
100
AcDbLine
10
33.914133
20
27.106167
30
0
11
33.914133
21
27.327348
31
0
39
0
210
0
220
0
230
1
0
LINE
5
8D
100
AcDbEntity
8
1
62
256
6
ByLayer
370
18
48
1
60
0
100
AcDbLine
10
16.992876
20
20.943732
30
0
11
16.992876
21
5.871565
31
0
39
0
210
0
220
0
230
1
0
LINE
5
8E
100
AcDbEntity
8
1
62
256
6
ByLayer
370
18
48
1
60
0
100
AcDbLine
10
11.894338
20
8.055848
30
0
11
11.894338
21
23.666502
31
0
39
0
210
0
220
0
230
1
0
LINE
5
8F
100
AcDbEntity
8
1
62
256
6
ByLayer
370
18
48
1
60
0
100
AcDbLine
10
36.364578
20
27.508061
30
0
11
36.361029
21
27.515672
31
0
39
0
210
0
220
0
230
1
0
LINE
5
90
100
AcDbEntity
8
1
62
256
6
ByLayer
370
18
48
1
60
0
100
AcDbLine
10
46.562153
20
5.63929
30
0
11
36.765433
21
26.648425
31
0
39
0
210
0
220
0
230
1
0
LINE
5
91
100
AcDbEntity
8
1
62
256
6
ByLayer
370
18
48
1
60
0
100
AcDbLine
10
56.927957
20
-2.175
30
0
11
52
21
-2.175
31
0
39
0
210
0
220
0
230
1
0
LINE
5
92
100
AcDbEntity
8
1
62
256
6
ByLayer
370
18
48
1
60
0
100
AcDbLine
10
11.461325
20
7.529667
30
0
11
11.461325
21
23.83913
31
0
39
0
210
0
220
0
230
1
0
LINE
5
93
100
AcDbEntity
8
1
62
256
6
ByLayer
370
18
48
1
60
0
100
AcDbLine
10
21.592973
20
27.508061
30
0
11
36.364578
21
27.508061
31
0
39
0
210
0
220
0
230
1
0
LINE
5
94
100
AcDbEntity
8
1
62
256
6
ByLayer
370
18
48
1
60
0
100
AcDbLine
10
46.562153
20
-5.63929
30
0
11
36.765433
21
-26.648425
31
0
39
0
210
0
220
0
230
1
0
LINE
5
95
100
AcDbEntity
8
1
62
256
6
ByLayer
370
18
48
1
60
0
100
AcDbLine
10
69.960042
20
-2.099994
30
0
11
69.960264
21
-2.175
31
0
39
0
210
0
220
0
230
1
0
LINE
5
96
100
AcDbEntity
8
1
62
256
6
ByLayer
370
18
48
1
60
0
100
AcDbLine
10
72.034168
20
2.175
30
0
11
69.960264
21
2.175
31
0
39
0
210
0
220
0
230
1
0
LINE
5
97
100
AcDbEntity
8
1
62
256
6
ByLayer
370
18
48
1
60
0
100
AcDbLine
10
21.594861
20
-27.515658
30
0
11
21.592973
21
-27.508061
31
0
39
0
210
0
220
0
230
1
0
LINE
5
98
100
AcDbEntity
8
1
62
256
6
ByLayer
370
18
48
1
60
0
100
AcDbLine
10
36.377489
20
-27.480374
30
0
11
36.364578
21
-27.508061
31
0
39
0
210
0
220
0
230
1
0
LINE
5
99
100
AcDbEntity
8
1
62
256
6
ByLayer
370
18
48
1
60
0
100
AcDbLine
10
36.377489
20
27.480374
30
0
11
36.438756
21
27.348987
31
0
39
0
210
0
220
0
230
1
0
LINE
5
9A
100
AcDbEntity
8
1
62
256
6
ByLayer
370
18
48
1
60
0
100
AcDbLine
10
33.914133
20
-27.327348
30
0
11
36.438732
21
-27.349036
31
0
39
0
210
0
220
0
230
1
0
LINE
5
9B
100
AcDbEntity
8
1
62
256
6
ByLayer
370
18
48
1
60
0
100
AcDbLine
10
36.361029
20
-27.515672
30
0
11
36.364578
21
-27.508061
31
0
39
0
210
0
220
0
230
1
0
LINE
5
9C
100
AcDbEntity
8
1
62
256
6
ByLayer
370
18
48
1
60
0
100
AcDbLine
10
11.461325
20
-7.529667
30
0
11
8.538675
21
-7.529667
31
0
39
0
210
0
220
0
230
1
0
LINE
5
9D
100
AcDbEntity
8
1
62
256
6
ByLayer
370
18
48
1
60
0
100
AcDbLine
10
36.364578
20
27.508061
30
0
11
36.377489
21
27.480374
31
0
39
0
210
0
220
0
230
1
0
LINE
5
9E
100
AcDbEntity
8
1
62
256
6
ByLayer
370
18
48
1
60
0
100
AcDbLine
10
21.848682
20
26.648425
30
0
11
36.765433
21
26.648425
31
0
39
0
210
0
220
0
230
1
0
LINE
5
9F
100
AcDbEntity
8
1
62
256
6
ByLayer
370
18
48
1
60
0
100
AcDbLine
10
33.914133
20
27.327348
30
0
11
36.438732
21
27.349036
31
0
39
0
210
0
220
0
230
1
0
LINE
5
A0
100
AcDbEntity
8
1
62
256
6
ByLayer
370
18
48
1
60
0
100
AcDbLine
10
36.438732
20
27.349036
30
0
11
36.765433
21
26.648425
31
0
39
0
210
0
220
0
230
1
0
LINE
5
A1
100
AcDbEntity
8
1
62
256
6
ByLayer
370
18
48
1
60
0
100
AcDbLine
10
72.034168
20
-2.175
30
0
11
69.960264
21
-2.175
31
0
39
0
210
0
220
0
230
1
0
LINE
5
A2
100
AcDbEntity
8
1
62
256
6
ByLayer
370
18
48
1
60
0
100
AcDbLine
10
56.927957
20
2.175
30
0
11
52
21
2.175
31
0
39
0
210
0
220
0
230
1
0
LINE
5
A3
100
AcDbEntity
8
1
62
256
6
ByLayer
370
18
48
1
60
0
100
AcDbLine
10
69.309223
20
-0.275
30
0
11
69.309223
21
0.275
31
0
39
0
210
0
220
0
230
1
0
LINE
5
A4
100
AcDbEntity
8
1
62
256
6
ByLayer
370
18
48
1
60
0
100
AcDbLine
10
8.538675
20
7.529667
30
0
11
8.538675
21
23.83913
31
0
39
0
210
0
220
0
230
1
0
LINE
5
A5
100
AcDbEntity
8
1
62
256
6
ByLayer
370
18
48
1
60
0
100
AcDbLine
10
68.809413
20
-2.175
30
0
11
56.927957
21
-2.175
31
0
39
0
210
0
220
0
230
1
0
LINE
5
A6
100
AcDbEntity
8
1
62
256
6
ByLayer
370
18
48
1
60
0
100
AcDbLine
10
8.538675
20
7.529667
30
0
11
11.461325
21
7.529667
31
0
39
0
210
0
220
0
230
1
0
LINE
5
A7
100
AcDbEntity
8
1
62
256
6
ByLayer
370
18
48
1
60
0
100
AcDbLine
10
32.616663
20
27.448065
30
0
11
32.616663
21
26.985737
31
0
39
0
210
0
220
0
230
1
0
LINE
5
A8
100
AcDbEntity
8
1
62
256
6
ByLayer
370
18
48
1
60
0
100
AcDbLine
10
32.616663
20
-26.985737
30
0
11
32.616663
21
-27.448065
31
0
39
0
210
0
220
0
230
1
0
LINE
5
A9
100
AcDbEntity
8
1
62
256
6
ByLayer
370
18
48
1
60
0
100
AcDbLine
10
36.377489
20
27.480374
30
0
11
32.616663
21
27.448065
31
0
39
0
210
0
220
0
230
1
0
LINE
5
AA
100
AcDbEntity
8
1
62
256
6
ByLayer
370
18
48
1
60
0
100
AcDbLine
10
36.765433
20
-26.648425
30
0
11
36.438732
21
-27.349036
31
0
39
0
210
0
220
0
230
1
0
LINE
5
AB
100
AcDbEntity
8
1
62
256
6
ByLayer
370
18
48
1
60
0
100
AcDbLine
10
36.377489
20
-27.480374
30
0
11
36.438756
21
-27.348987
31
0
39
0
210
0
220
0
230
1
0
LINE
5
AC
100
AcDbEntity
8
1
62
256
6
ByLayer
370
18
48
1
60
0
100
AcDbLine
10
21.592973
20
27.508061
30
0
11
21.594861
21
27.515658
31
0
39
0
210
0
220
0
230
1
0
LINE
5
AD
100
AcDbEntity
8
1
62
256
6
ByLayer
370
18
48
1
60
0
100
AcDbLine
10
0.3
20
-25
30
0
11
0.3
21
25
31
0
39
0
210
0
220
0
230
1
0
LINE
5
AE
100
AcDbEntity
8
1
62
256
6
ByLayer
370
18
48
1
60
0
100
AcDbLine
10
56.927957
20
2.175
30
0
11
56.927957
21
-2.175
31
0
39
0
210
0
220
0
230
1
0
LINE
5
AF
100
AcDbEntity
8
1
62
256
6
ByLayer
370
18
48
1
60
0
100
AcDbLine
10
8.105662
20
-23.666502
30
0
11
8.105662
21
-8.055848
31
0
39
0
210
0
220
0
230
1
0
LINE
5
B0
100
AcDbEntity
8
1
62
256
6
ByLayer
370
18
48
1
60
0
100
AcDbLine
10
69.960264
20
-2.175
30
0
11
68.809404
21
-2.175
31
0
39
0
210
0
220
0
230
1
0
LINE
5
B1
100
AcDbEntity
8
1
62
256
6
ByLayer
370
18
48
1
60
0
100
AcDbLine
10
21.848682
20
-26.648425
30
0
11
36.765433
21
-26.648425
31
0
39
0
210
0
220
0
230
1
0
LINE
5
B2
100
AcDbEntity
8
1
62
256
6
ByLayer
370
18
48
1
60
0
100
AcDbLine
10
20.920792
20
25
30
0
11
20.920792
21
22.912702
31
0
39
0
210
0
220
0
230
1
0
LINE
5
B3
100
AcDbEntity
8
1
62
256
6
ByLayer
370
18
48
1
60
0
100
AcDbLine
10
20.920792
20
-22.912702
30
0
11
20.920792
21
-25
31
0
39
0
210
0
220
0
230
1
0
LINE
5
B4
100
AcDbEntity
8
1
62
256
6
ByLayer
370
18
48
1
60
0
100
AcDbLine
10
8.538675
20
-23.83913
30
0
11
11.461325
21
-23.83913
31
0
39
0
210
0
220
0
230
1
0
LINE
5
B5
100
AcDbEntity
8
1
62
256
6
ByLayer
370
18
48
1
60
0
100
AcDbLine
10
11.461325
20
-23.83913
30
0
11
11.461325
21
-7.529667
31
0
39
0
210
0
220
0
230
1
0
LINE
5
B6
100
AcDbEntity
8
1
62
256
6
ByLayer
370
18
48
1
60
0
100
AcDbLine
10
68.809413
20
2.175
30
0
11
56.927957
21
2.175
31
0
39
0
210
0
220
0
230
1
0
LINE
5
B7
100
AcDbEntity
8
1
62
256
6
ByLayer
370
18
48
1
60
0
100
AcDbLine
10
11.894338
20
-23.666502
30
0
11
11.894338
21
-8.055848
31
0
39
0
210
0
220
0
230
1
0
LINE
5
B8
100
AcDbEntity
8
SK1
62
256
6
ByLayer
370
18
48
1
60
0
100
AcDbLine
10
-0.2
20
6.103447
30
0
11
-0.2
21
17.833485
31
0
39
0
210
0
220
0
230
1
0
LINE
5
BA
100
AcDbEntity
8
SK1
62
256
6
ByLayer
370
18
48
1
60
0
100
AcDbLine
10
-1.307107
20
-3.918065
30
0
11
-1.307107
21
3.918065
31
0
39
0
210
0
220
0
230
1
0
LINE
5
BB
100
AcDbEntity
8
SK1
62
256
6
ByLayer
370
18
48
1
60
0
100
AcDbLine
10
-0.2
20
-17.833485
30
0
11
-0.2
21
-6.103448
31
0
39
0
210
0
220
0
230
1
0
LINE
5
BC
100
AcDbEntity
8
1
62
256
6
ByLayer
370
18
48
1
60
0
100
AcDbLine
10
68.855189
20
1.858749
30
0
11
69.246154
21
1.858749
31
0
39
0
210
0
220
0
230
1
0
LINE
5
BD
100
AcDbEntity
8
1
62
256
6
ByLayer
370
18
48
1
60
0
100
AcDbLine
10
70.410331
20
2.1
30
0
11
69.246355
21
2.1
31
0
39
0
210
0
220
0
230
1
0
LINE
5
BE
100
AcDbEntity
8
1
62
256
6
ByLayer
370
18
48
1
60
0
100
AcDbLine
10
69.246355
20
2.1
30
0
11
69.246355
21
1.858714
31
0
39
0
210
0
220
0
230
1
0
LINE
5
BF
100
AcDbEntity
8
1
62
256
6
ByLayer
370
18
48
1
60
0
100
AcDbLine
10
69.247874
20
1.841384
30
0
11
69.457959
21
0.649934
31
0
39
0
210
0
220
0
230
1
0
LINE
5
C0
100
AcDbEntity
8
1
62
256
6
ByLayer
370
18
48
1
60
0
100
AcDbLine
10
69.477691
20
0.605665
30
0
11
69.549523
21
0.513888
31
0
39
0
210
0
220
0
230
1
0
LINE
5
C1
100
AcDbEntity
8
1
62
256
6
ByLayer
370
18
48
1
60
0
100
AcDbLine
10
69.937861
20
0.02
30
0
11
69.937861
21
-0.02
31
0
39
0
210
0
220
0
230
1
0
LINE
5
C2
100
AcDbEntity
8
1
62
256
6
ByLayer
370
18
48
1
60
0
100
AcDbLine
10
70.410331
20
2.1
30
0
11
70.410331
21
0
31
0
39
0
210
0
220
0
230
1
0
LINE
5
C3
100
AcDbEntity
8
1
62
256
6
ByLayer
370
18
48
1
60
0
100
AcDbLine
10
70.410331
20
0
30
0
11
70.940661
21
0
31
0
39
0
210
0
220
0
230
1
0
LINE
5
C4
100
AcDbEntity
8
1
62
256
6
ByLayer
370
18
48
1
60
0
100
AcDbLine
10
70.940661
20
2.1
30
0
11
70.940661
21
0
31
0
39
0
210
0
220
0
230
1
0
LINE
5
C5
100
AcDbEntity
8
1
62
256
6
ByLayer
370
18
48
1
60
0
100
AcDbLine
10
70.410331
20
-2.1
30
0
11
69.246355
21
-2.1
31
0
39
0
210
0
220
0
230
1
0
LINE
5
C6
100
AcDbEntity
8
1
62
256
6
ByLayer
370
18
48
1
60
0
100
AcDbLine
10
68.820221
20
-2.1
30
0
11
69.246355
21
-2.1
31
0
39
0
210
0
220
0
230
1
0
LINE
5
C7
100
AcDbEntity
8
1
62
256
6
ByLayer
370
18
48
1
60
0
100
AcDbLine
10
69.246355
20
-2.1
30
0
11
69.246355
21
-1.858714
31
0
39
0
210
0
220
0
230
1
0
LINE
5
C8
100
AcDbEntity
8
1
62
256
6
ByLayer
370
18
48
1
60
0
100
AcDbLine
10
70.410331
20
-2.1
30
0
11
70.410331
21
0
31
0
39
0
210
0
220
0
230
1
0
LINE
5
C9
100
AcDbEntity
8
1
62
256
6
ByLayer
370
18
48
1
60
0
100
AcDbLine
10
70.410331
20
-2.1
30
0
11
70.940661
21
-2.1
31
0
39
0
210
0
220
0
230
1
0
LINE
5
CA
100
AcDbEntity
8
1
62
256
6
ByLayer
370
18
48
1
60
0
100
AcDbLine
10
70.940661
20
-2.1
30
0
11
70.940661
21
0
31
0
39
0
210
0
220
0
230
1
0
LINE
5
CB
100
AcDbEntity
8
1
62
256
6
ByLayer
370
18
48
1
60
0
100
AcDbLine
10
70.940661
20
-2.1
30
0
11
71.788543
21
-2.1
31
0
39
0
210
0
220
0
230
1
0
LINE
5
CC
100
AcDbEntity
8
1
62
256
6
ByLayer
370
18
48
1
60
0
100
AcDbLine
10
68.855189
20
-1.858749
30
0
11
69.246154
21
-1.858749
31
0
39
0
210
0
220
0
230
1
0
LINE
5
CD
100
AcDbEntity
8
1
62
256
6
ByLayer
370
18
48
1
60
0
100
AcDbLine
10
68.857658
20
-1.841384
30
0
11
69.247874
21
-1.841384
31
0
39
0
210
0
220
0
230
1
0
LINE
5
CE
100
AcDbEntity
8
1
62
256
6
ByLayer
370
18
48
1
60
0
100
AcDbLine
10
69.247874
20
-1.841384
30
0
11
69.457959
21
-0.649934
31
0
39
0
210
0
220
0
230
1
0
LINE
5
CF
100
AcDbEntity
8
1
62
256
6
ByLayer
370
18
48
1
60
0
100
AcDbLine
10
69.03018
20
-0.649934
30
0
11
69.457959
21
-0.649934
31
0
39
0
210
0
220
0
230
1
0
LINE
5
D0
100
AcDbEntity
8
1
62
256
6
ByLayer
370
18
48
1
60
0
100
AcDbLine
10
69.036543
20
-0.605665
30
0
11
69.477691
21
-0.605665
31
0
39
0
210
0
220
0
230
1
0
LINE
5
D1
100
AcDbEntity
8
1
62
256
6
ByLayer
370
18
48
1
60
0
100
AcDbLine
10
69.477691
20
-0.605665
30
0
11
69.549523
21
-0.513888
31
0
39
0
210
0
220
0
230
1
0
LINE
5
D2
100
AcDbEntity
8
1
62
256
6
ByLayer
370
18
48
1
60
0
100
AcDbLine
10
69.066189
20
-0.513888
30
0
11
69.549523
21
-0.513888
31
0
39
0
210
0
220
0
230
1
0
LINE
5
D3
100
AcDbEntity
8
1
62
256
6
ByLayer
370
18
48
1
60
0
100
AcDbLine
10
69.590119
20
-0.483085
30
0
11
69.092957
21
-0.483085
31
0
39
0
210
0
220
0
230
1
0
LINE
5
D4
100
AcDbEntity
8
1
62
256
6
ByLayer
370
18
48
1
60
0
100
AcDbLine
10
68.857658
20
1.841384
30
0
11
69.247874
21
1.841384
31
0
39
0
210
0
220
0
230
1
0
LINE
5
D5
100
AcDbEntity
8
1
62
256
6
ByLayer
370
18
48
1
60
0
100
AcDbLine
10
69.03018
20
0.649934
30
0
11
69.457959
21
0.649934
31
0
39
0
210
0
220
0
230
1
0
LINE
5
D6
100
AcDbEntity
8
1
62
256
6
ByLayer
370
18
48
1
60
0
100
AcDbLine
10
69.036543
20
0.605665
30
0
11
69.477691
21
0.605665
31
0
39
0
210
0
220
0
230
1
0
LINE
5
D7
100
AcDbEntity
8
1
62
256
6
ByLayer
370
18
48
1
60
0
100
AcDbLine
10
69.065952
20
0.513888
30
0
11
69.549523
21
0.513888
31
0
39
0
210
0
220
0
230
1
0
LINE
5
D8
100
AcDbEntity
8
1
62
256
6
ByLayer
370
18
48
1
60
0
100
AcDbLine
10
69.590119
20
0.483085
30
0
11
69.092241
21
0.483085
31
0
39
0
210
0
220
0
230
1
0
LINE
5
D9
100
AcDbEntity
8
1
62
256
6
ByLayer
370
18
48
1
60
0
100
AcDbLine
10
69.201743
20
0.427733
30
0
11
69.748945
21
0.427733
31
0
39
0
210
0
220
0
230
1
0
LINE
5
DA
100
AcDbEntity
8
1
62
256
6
ByLayer
370
18
48
1
60
0
100
AcDbLine
10
69.309193
20
0.02
30
0
11
69.937861
21
0.02
31
0
39
0
210
0
220
0
230
1
0
LINE
5
DB
100
AcDbEntity
8
1
62
256
6
ByLayer
370
18
48
1
60
0
100
AcDbLine
10
69.309198
20
0.210736
30
0
11
69.928946
21
0.210736
31
0
39
0
210
0
220
0
230
1
0
LINE
5
DC
100
AcDbEntity
8
1
62
256
6
ByLayer
370
18
48
1
60
0
100
AcDbLine
10
69.201743
20
-0.427733
30
0
11
69.748945
21
-0.427733
31
0
39
0
210
0
220
0
230
1
0
LINE
5
DD
100
AcDbEntity
8
1
62
256
6
ByLayer
370
18
48
1
60
0
100
AcDbLine
10
69.309198
20
-0.210736
30
0
11
69.928946
21
-0.210736
31
0
39
0
210
0
220
0
230
1
0
LINE
5
DE
100
AcDbEntity
8
1
62
256
6
ByLayer
370
18
48
1
60
0
100
AcDbLine
10
69.309193
20
-0.02
30
0
11
69.937861
21
-0.02
31
0
39
0
210
0
220
0
230
1
0
LINE
5
DF
100
AcDbEntity
8
1
62
256
6
ByLayer
370
18
48
1
60
0
100
AcDbLine
10
68.820221
20
2.1
30
0
11
69.246355
21
2.1
31
0
39
0
210
0
220
0
230
1
0
LINE
5
E0
100
AcDbEntity
8
1
62
256
6
ByLayer
370
18
48
1
60
0
100
AcDbLine
10
70.410331
20
2.1
30
0
11
70.940661
21
2.1
31
0
39
0
210
0
220
0
230
1
0
LINE
5
E1
100
AcDbEntity
8
1
62
256
6
ByLayer
370
18
48
1
60
0
100
AcDbLine
10
70.940661
20
2.1
30
0
11
71.788543
21
2.1
31
0
39
0
210
0
220
0
230
1
0
MTEXT
5
14C
100
AcDbEntity
8
SK6
62
256
6
ByLayer
370
18
48
1
60
0
100
AcDbMText
10
-5.422475
20
-35.875
30
0
210
0
220
0
230
1
1
\W0.7430;C5-NF123J25-00077B
40
3.5
41
0
44
1.084337
50
0
71
7
72
5
7
iso_b_vert
0
DIMENSION
5
15D
100
AcDbEntity
8
2
62
256
6
ByLayer
370
13
48
1
60
0
100
AcDbDimension
2
DimnDraft3D1
10
101.65
20
-3
30
0
11
101.65
21
-1.006579
31
0
70
32
71
5
72
1
41
1
210
0
220
0
230
1
3
Standard
100
AcDbAlignedDimension
13
78.9
23
3
33
0
14
78.9
24
-3
34
0
50
90
100
AcDbRotatedDimension
1001
ACAD
1000
DSTYLE
1002
{
1070
    74
1070
     0
1070
   279
1070
     0
1070
   172
1070
     1
1070
   173
1070
     1
1070
   340
1005
14D
1070
   271
1070
     3
1070
   272
1070
     3
1070
    77
1070
     1
1070
    73
1070
     0
1070
   171
1070
     4
1070
   274
1070
     4
1070
   177
1070
     2
1070
   176
1070
     2
1070
   178
1070
     7
1070
    78
1070
     8
1070
    41
1041
3.0
1070
   147
1041
2.25
1070
    42
1041
1.5
1070
    44
1041
3.0
1070
   140
1041
4.5
1070
   343
1005
15E
1070
   344
1005
15E
1002
}
0
DIMENSION
5
173
100
AcDbEntity
8
SK2
62
256
6
ByLayer
370
13
48
1
60
0
100
AcDbDimension
2
DimnDraft3D2
10
-44.35
20
25
30
0
11
-44.35
21
-2.688158
31
0
70
32
71
5
72
1
41
1
210
0
220
0
230
1
3
Standard
100
AcDbAlignedDimension
13
-1.5
23
-25
33
0
14
-1.5
24
25
34
0
50
90
100
AcDbRotatedDimension
1001
ACAD
1000
DSTYLE
1002
{
1070
    74
1070
     0
1070
   279
1070
     0
1070
   172
1070
     1
1070
   173
1070
     1
1070
   340
1005
14D
1070
   271
1070
     3
1070
   272
1070
     3
1070
    77
1070
     1
1070
    73
1070
     0
1070
   171
1070
     4
1070
   274
1070
     4
1070
   177
1070
     2
1070
   176
1070
     2
1070
   178
1070
     7
1070
    78
1070
     8
1070
    41
1041
3.0
1070
   147
1041
2.25
1070
    42
1041
1.5
1070
    44
1041
3.0
1070
   140
1041
4.5
1070
   343
1005
15E
1070
   344
1005
15E
1002
}
0
DIMENSION
5
181
100
AcDbEntity
8
2
62
256
6
ByLayer
370
13
48
1
60
0
100
AcDbDimension
2
DimnDraft3D3
10
0
20
37.75
30
0
11
36.011842
21
37.75
31
0
70
32
71
5
72
1
41
1
210
0
220
0
230
1
3
Standard
100
AcDbAlignedDimension
13
77.4
23
4.5
33
0
14
0
24
25.5
34
0
50
0
100
AcDbRotatedDimension
1001
ACAD
1000
DSTYLE
1002
{
1070
   279
1070
     0
1070
   172
1070
     1
1070
   173
1070
     1
1070
   340
1005
14D
1070
   271
1070
     3
1070
   272
1070
     3
1070
    77
1070
     1
1070
    73
1070
     0
1070
   171
1070
     4
1070
   274
1070
     4
1070
   177
1070
     2
1070
   176
1070
     2
1070
   178
1070
     7
1070
    78
1070
     8
1070
    41
1041
3.0
1070
   147
1041
2.25
1070
    42
1041
1.5
1070
    44
1041
3.0
1070
   140
1041
4.5
1070
   343
1005
15E
1070
   344
1005
15E
1002
}
0
DIMENSION
5
18F
100
AcDbEntity
8
2
62
256
6
ByLayer
370
13
48
1
60
0
100
AcDbDimension
2
DimnDraft3D4
10
77.4
20
-14.25
30
0
11
62.011842
21
-14.25
31
0
70
32
71
5
72
1
41
1
210
0
220
0
230
1
3
Standard
100
AcDbAlignedDimension
13
52
23
-5.5
33
0
14
77.4
24
-4.5
34
0
50
0
100
AcDbRotatedDimension
1001
ACAD
1000
DSTYLE
1002
{
1070
   279
1070
     0
1070
   172
1070
     1
1070
   173
1070
     1
1070
   340
1005
14D
1070
   271
1070
     3
1070
   272
1070
     3
1070
    77
1070
     1
1070
    73
1070
     0
1070
   171
1070
     4
1070
   274
1070
     4
1070
   177
1070
     2
1070
   176
1070
     2
1070
   178
1070
     7
1070
    78
1070
     8
1070
    41
1041
3.0
1070
   147
1041
2.25
1070
    42
1041
1.5
1070
    44
1041
3.0
1070
   140
1041
4.5
1070
   343
1005
15E
1070
   344
1005
15E
1002
}
0
ENDSEC
0
SECTION
2
OBJECTS
0
DICTIONARY
5
1fa
330
0
100
AcDbDictionary
280
0
281
1
3
ACAD_GROUP
350
1fb
3
ACAD_MLINESTYLE
350
1fc
0
DICTIONARY
5
1fb
330
0
100
AcDbDictionary
280
0
281
1
0
DICTIONARY
5
1fc
330
0
100
AcDbDictionary
280
0
281
1
3
Standard
350
18
0
MLINESTYLE
5
18
330
1fc
100
AcDbMlineStyle
2
Standard
70
0
3

62
256
51
90
52
90
71
2
49
-0.5
62
256
6
ByLayer
49
0.5
62
256
6
ByLayer
0
RASTERVARIABLES
5
1e8
330

100
AcDbRasterVariables
90
0
70
1
71
1
72
1
0
ENDSEC
0
EOF
