0
SECTION
2
HEADER
9
$ACADVER
1
AC1015
9
$DWGCODEPAGE
3
ANSI_1252
9
$HANDSEED
5
210
9
$ANGBASE
50
0
9
$ANGDIR
70
0
9
$ATTMODE
70
1
9
$AUNITS
70
0
9
$AUPREC
70
0
9
$CECOLOR
62
256
9
$CELTSCALE
40
1
9
$CELTYPE
6
ByLayer
9
$CELWEIGHT
370
18
9
$CLAYER
8
0
9
$CMLJUST
70
0
9
$CMLSCALE
40
1
9
$CMLSTYLE
2
Standard
9
$DIMSTYLE
2
Standard
9
$TEXTSIZE
40
0.2
9
$TEXTSTYLE
7
Standard
9
$LUNITS
70
2
9
$LUPREC
70
4
9
$EXTNAMES
290
1
9
$INSUNITS
70
4
9
$LTSCALE
40
1
9
$LWDISPLAY
290
1
9
$PDMODE
70
0
9
$PDSIZE
40
0
9
$PLINEGEN
70
0
0
ENDSEC
0
SECTION
2
CLASSES
0
CLASS
1
RASTERVARIABLES
2
AcDbRasterVariables
3
ISM
90
0
280
0
281
0
0
ENDSEC
0
SECTION
2
TABLES
0
TABLE
2
VPORT
5
206
100
AcDbSymbolTable
0
VPORT
5
1
100
AcDbSymbolTableRecord
100
AcDbViewportTableRecord
2
*Active
70
0
10
0
20
0
11
1
21
1
12
-1
22
1
13
0
23
0
14
0.5
24
0.5
15
10
25
10
16
0
26
0
36
1
17
0
27
0
37
0
0
ENDTAB
0
TABLE
2
LTYPE
5
207
100
AcDbSymbolTable
0
LTYPE
5
14
100
AcDbSymbolTableRecord
100
AcDbLinetypeTableRecord
70
0
2
ByBlock
3

72
65
73
0
40
0
0
LTYPE
5
15
100
AcDbSymbolTableRecord
100
AcDbLinetypeTableRecord
70
0
2
ByLayer
3

72
65
73
0
40
0
0
LTYPE
5
16
100
AcDbSymbolTableRecord
100
AcDbLinetypeTableRecord
70
0
2
CONTINUOUS
3
Solid line
72
65
73
0
40
0
0
LTYPE
5
6A
100
AcDbSymbolTableRecord
100
AcDbLinetypeTableRecord
70
0
2
CENTER
3
____ _ ____ _ ____ _ ____
72
65
73
4
40
47.5
49
22
74
0
49
-8.5
74
0
49
8.5
74
0
49
-8.5
74
0
0
LTYPE
5
6B
100
AcDbSymbolTableRecord
100
AcDbLinetypeTableRecord
70
0
2
DASHED
3
__ __ __ __ __ __ __ __ __
72
65
73
2
40
25.72
49
12.86
74
0
49
-12.86
74
0
0
ENDTAB
0
TABLE
2
LAYER
5
208
100
AcDbSymbolTable
0
LAYER
5
10
100
AcDbSymbolTableRecord
100
AcDbLayerTableRecord
2
0
70
0
62
7
6
CONTINUOUS
290
1
370
-3
390
0
0
LAYER
5
6D
100
AcDbSymbolTableRecord
100
AcDbLayerTableRecord
2
80
70
0
62
-6
6
CONTINUOUS
290
1
370
-3
390
0
0
LAYER
5
6F
100
AcDbSymbolTableRecord
100
AcDbLayerTableRecord
2
81
70
0
62
-3
6
CONTINUOUS
290
1
370
-3
390
0
0
LAYER
5
71
100
AcDbSymbolTableRecord
100
AcDbLayerTableRecord
2
1
70
0
62
4
6
CONTINUOUS
290
1
370
-3
390
0
0
LAYER
5
163
100
AcDbSymbolTableRecord
100
AcDbLayerTableRecord
2
2
70
0
62
7
6
CONTINUOUS
290
1
370
-3
390
0
0
LAYER
5
1f3
100
AcDbSymbolTableRecord
100
AcDbLayerTableRecord
2
SK1
70
0
62
4
6
CONTINUOUS
290
1
370
-3
390
0
0
LAYER
5
1f4
100
AcDbSymbolTableRecord
100
AcDbLayerTableRecord
2
SK6
70
0
62
5
6
CONTINUOUS
290
1
370
-3
390
0
0
LAYER
5
1f5
100
AcDbSymbolTableRecord
100
AcDbLayerTableRecord
2
SK2
70
0
62
7
6
CONTINUOUS
290
1
370
-3
390
0
0
ENDTAB
0
TABLE
2
STYLE
5
209
100
AcDbSymbolTable
0
STYLE
5
11
100
AcDbSymbolTableRecord
100
AcDbTextStyleTableRecord
2
Standard
3
txt
70
0
71
0
40
0
41
1
42
0
50
0
0
STYLE
5
148
100
AcDbSymbolTableRecord
100
AcDbTextStyleTableRecord
2
iso_b_vert
3
simplex.shx
70
0
71
0
40
0
41
1
42
0
50
0
0
STYLE
5
149
100
AcDbSymbolTableRecord
100
AcDbTextStyleTableRecord
2
DWGDirectTextStyle
3
simplex
70
0
71
0
40
0
41
1
42
0
50
0
0
ENDTAB
0
TABLE
2
DIMSTYLE
5
20a
100
AcDbSymbolTable
100
AcDbDimStyleTable
0
DIMSTYLE
105
27
100
AcDbSymbolTableRecord
100
AcDbDimStyleTableRecord
2
Standard
70
0
3
<>
41
0.18
42
0.0625
44
0.18
140
0.18
147
0.09
73
0
74
0
77
1
271
2
275
0
278
52
280
0
340
11
0
ENDTAB
0
TABLE
2
VIEW
5
20b
100
AcDbSymbolTable
0
ENDTAB
0
TABLE
2
UCS
5
20c
100
AcDbSymbolTable
0
ENDTAB
0
TABLE
2
APPID
5
20d
100
AcDbSymbolTable
0
APPID
5
12
100
AcDbSymbolTableRecord
100
AcDbRegAppTableRecord
2
ACAD
70
0
0
ENDTAB
0
TABLE
2
BLOCK_RECORD
5
20e
100
AcDbSymbolTable
0
BLOCK_RECORD
5
1F
100
AcDbSymbolTableRecord
100
AcDbBlockTableRecord
2
*Model_Space
340
0
70
0
0
BLOCK_RECORD
5
1B
100
AcDbSymbolTableRecord
100
AcDbBlockTableRecord
2
*Paper_Space
340
0
70
0
0
BLOCK_RECORD
5
23
100
AcDbSymbolTableRecord
100
AcDbBlockTableRecord
2
*Paper_Space0
340
0
70
0
0
BLOCK_RECORD
5
14B
100
AcDbSymbolTableRecord
100
AcDbBlockTableRecord
2
DimnDraft3D1
340
0
70
0
0
BLOCK_RECORD
5
15A
100
AcDbSymbolTableRecord
100
AcDbBlockTableRecord
2
_CLOSED
340
0
70
0
0
BLOCK_RECORD
5
161
100
AcDbSymbolTableRecord
100
AcDbBlockTableRecord
2
DimnDraft3D2
340
0
70
0
0
BLOCK_RECORD
5
170
100
AcDbSymbolTableRecord
100
AcDbBlockTableRecord
2
DimnDraft3D3
340
0
70
0
0
BLOCK_RECORD
5
17E
100
AcDbSymbolTableRecord
100
AcDbBlockTableRecord
2
DimnDraft3D4
340
0
70
0
0
BLOCK_RECORD
5
18C
100
AcDbSymbolTableRecord
100
AcDbBlockTableRecord
2
DimnDraft3D5
340
0
70
0
0
ENDTAB
0
ENDSEC
0
SECTION
2
BLOCKS
0
BLOCK
5
20
100
AcDbEntity
8
0
100
AcDbBlockBegin
2
*Model_Space
70
0
10
0
20
0
30
0
3
*Model_Space
0
ENDBLK
5
21
100
AcDbEntity
8
0
100
AcDbBlockEnd
0
BLOCK
5
1C
100
AcDbEntity
8
0
100
AcDbBlockBegin
2
*Paper_Space
70
0
10
0
20
0
30
0
3
*Paper_Space
0
ENDBLK
5
1D
100
AcDbEntity
8
0
100
AcDbBlockEnd
0
BLOCK
5
24
100
AcDbEntity
8
0
100
AcDbBlockBegin
2
*Paper_Space0
70
0
10
0
20
0
30
0
3
*Paper_Space0
0
ENDBLK
5
25
100
AcDbEntity
8
0
100
AcDbBlockEnd
0
BLOCK
5
157
100
AcDbEntity
8
0
100
AcDbBlockBegin
2
DimnDraft3D1
70
0
10
0
20
0
30
0
3
DimnDraft3D1
0
MTEXT
5
14C
100
AcDbEntity
8
SK2
62
256
6
ByLayer
370
18
48
1
60
0
100
AcDbMText
10
33.784211
20
48.475
30
0
210
0
220
0
230
1
1
\W0.6740;70
40
3.5
41
0
44
1.084337
50
0
71
7
72
5
7
iso_b_vert
0
LINE
5
14E
100
AcDbEntity
8
SK2
62
256
6
ByLayer
370
13
48
1
60
0
100
AcDbLine
10
0
20
2
30
0
11
0
21
49.6
31
0
39
0
210
0
220
0
230
1
0
LINE
5
14F
100
AcDbEntity
8
SK2
62
256
6
ByLayer
370
13
48
1
60
0
100
AcDbLine
10
70
20
-31
30
0
11
70
21
49.6
31
0
39
0
210
0
220
0
230
1
0
LINE
5
150
100
AcDbEntity
8
SK2
62
256
6
ByLayer
370
13
48
1
60
0
100
AcDbLine
10
0
20
47.6
30
0
11
70
21
47.6
31
0
39
0
210
0
220
0
230
1
0
LINE
5
151
100
AcDbEntity
8
SK2
62
256
6
ByLayer
370
13
48
1
60
0
100
AcDbLine
10
0
20
47.6
30
0
11
3.174998
21
48.017997
31
0
39
0
210
0
220
0
230
1
0
LINE
5
152
100
AcDbEntity
8
SK2
62
256
6
ByLayer
370
13
48
1
60
0
100
AcDbLine
10
0
20
47.6
30
0
11
3.175002
21
47.182003
31
0
39
0
210
0
220
0
230
1
0
LINE
5
153
100
AcDbEntity
8
SK2
62
256
6
ByLayer
370
13
48
1
60
0
100
AcDbLine
10
3.174998
20
48.017997
30
0
11
3.175002
21
47.182003
31
0
39
0
210
0
220
0
230
1
0
LINE
5
154
100
AcDbEntity
8
SK2
62
256
6
ByLayer
370
13
48
1
60
0
100
AcDbLine
10
70
20
47.6
30
0
11
66.825002
21
47.182003
31
0
39
0
210
0
220
0
230
1
0
LINE
5
155
100
AcDbEntity
8
SK2
62
256
6
ByLayer
370
13
48
1
60
0
100
AcDbLine
10
70
20
47.6
30
0
11
66.824998
21
48.017997
31
0
39
0
210
0
220
0
230
1
0
LINE
5
156
100
AcDbEntity
8
SK2
62
256
6
ByLayer
370
13
48
1
60
0
100
AcDbLine
10
66.825002
20
47.182003
30
0
11
66.824998
21
48.017997
31
0
39
0
210
0
220
0
230
1
0
ENDBLK
5
158
100
AcDbEntity
8
0
100
AcDbBlockEnd
0
BLOCK
5
15B
100
AcDbEntity
8
0
100
AcDbBlockBegin
2
_CLOSED
70
0
10
0
20
0
30
0
3
_CLOSED
0
LINE
5
15D
100
AcDbEntity
8
0
62
256
6
ByLayer
370
-2
48
1
60
0
100
AcDbLine
10
-1
20
0.166667
30
0
11
0
21
0
31
0
39
0
210
0
220
0
230
1
0
LINE
5
15E
100
AcDbEntity
8
0
62
256
6
ByLayer
370
-2
48
1
60
0
100
AcDbLine
10
0
20
0
30
0
11
-1
21
-0.166667
31
0
39
0
210
0
220
0
230
1
0
LINE
5
15F
100
AcDbEntity
8
0
62
256
6
ByLayer
370
-2
48
1
60
0
100
AcDbLine
10
-1
20
0.166667
30
0
11
-1
21
-0.166667
31
0
39
0
210
0
220
0
230
1
0
LINE
5
160
100
AcDbEntity
8
0
62
256
6
ByLayer
370
-2
48
1
60
0
100
AcDbLine
10
0
20
0
30
0
11
-1
21
0
31
0
39
0
210
0
220
0
230
1
0
ENDBLK
5
15C
100
AcDbEntity
8
0
100
AcDbBlockEnd
0
BLOCK
5
16D
100
AcDbEntity
8
0
100
AcDbBlockBegin
2
DimnDraft3D2
70
0
10
0
20
0
30
0
3
DimnDraft3D2
0
MTEXT
5
162
100
AcDbEntity
8
2
62
256
6
ByLayer
370
18
48
1
60
0
100
AcDbMText
10
56.284211
20
-54.047598
30
0
210
0
220
0
230
1
1
\W0.6740;25
40
3.5
41
0
44
1.084337
50
0
71
7
72
5
7
iso_b_vert
0
LINE
5
164
100
AcDbEntity
8
2
62
256
6
ByLayer
370
13
48
1
60
0
100
AcDbLine
10
70
20
-35
30
0
11
70
21
-56.922598
31
0
39
0
210
0
220
0
230
1
0
LINE
5
165
100
AcDbEntity
8
2
62
256
6
ByLayer
370
13
48
1
60
0
100
AcDbLine
10
45
20
-27
30
0
11
45
21
-56.922598
31
0
39
0
210
0
220
0
230
1
0
LINE
5
166
100
AcDbEntity
8
2
62
256
6
ByLayer
370
13
48
1
60
0
100
AcDbLine
10
70
20
-54.922598
30
0
11
45
21
-54.922598
31
0
39
0
210
0
220
0
230
1
0
LINE
5
167
100
AcDbEntity
8
2
62
256
6
ByLayer
370
13
48
1
60
0
100
AcDbLine
10
70
20
-54.922598
30
0
11
66.825002
21
-55.340595
31
0
39
0
210
0
220
0
230
1
0
LINE
5
168
100
AcDbEntity
8
2
62
256
6
ByLayer
370
13
48
1
60
0
100
AcDbLine
10
70
20
-54.922598
30
0
11
66.824998
21
-54.504602
31
0
39
0
210
0
220
0
230
1
0
LINE
5
169
100
AcDbEntity
8
2
62
256
6
ByLayer
370
13
48
1
60
0
100
AcDbLine
10
66.825002
20
-55.340595
30
0
11
66.824998
21
-54.504602
31
0
39
0
210
0
220
0
230
1
0
LINE
5
16A
100
AcDbEntity
8
2
62
256
6
ByLayer
370
13
48
1
60
0
100
AcDbLine
10
45
20
-54.922598
30
0
11
48.174998
21
-54.504602
31
0
39
0
210
0
220
0
230
1
0
LINE
5
16B
100
AcDbEntity
8
2
62
256
6
ByLayer
370
13
48
1
60
0
100
AcDbLine
10
45
20
-54.922598
30
0
11
48.175002
21
-55.340595
31
0
39
0
210
0
220
0
230
1
0
LINE
5
16C
100
AcDbEntity
8
2
62
256
6
ByLayer
370
13
48
1
60
0
100
AcDbLine
10
48.174998
20
-54.504602
30
0
11
48.175002
21
-55.340595
31
0
39
0
210
0
220
0
230
1
0
ENDBLK
5
16E
100
AcDbEntity
8
0
100
AcDbBlockEnd
0
BLOCK
5
17B
100
AcDbEntity
8
0
100
AcDbBlockBegin
2
DimnDraft3D3
70
0
10
0
20
0
30
0
3
DimnDraft3D3
0
MTEXT
5
171
100
AcDbEntity
8
SK2
62
256
6
ByLayer
370
18
48
1
60
0
100
AcDbMText
10
-40.475
20
-1.215789
30
0
210
0
220
0
230
1
1
\W0.6740;50
40
3.5
41
0
44
1.084337
50
90
71
7
72
5
7
iso_b_vert
0
LINE
5
172
100
AcDbEntity
8
SK2
62
256
6
ByLayer
370
13
48
1
60
0
100
AcDbLine
10
-2
20
-25
30
0
11
-41.6
21
-25
31
0
39
0
210
0
220
0
230
1
0
LINE
5
173
100
AcDbEntity
8
SK2
62
256
6
ByLayer
370
13
48
1
60
0
100
AcDbLine
10
-2
20
25
30
0
11
-41.6
21
25
31
0
39
0
210
0
220
0
230
1
0
LINE
5
174
100
AcDbEntity
8
SK2
62
256
6
ByLayer
370
13
48
1
60
0
100
AcDbLine
10
-39.6
20
-25
30
0
11
-39.6
21
25
31
0
39
0
210
0
220
0
230
1
0
LINE
5
175
100
AcDbEntity
8
SK2
62
256
6
ByLayer
370
13
48
1
60
0
100
AcDbLine
10
-39.6
20
-25
30
0
11
-40.017997
21
-21.825002
31
0
39
0
210
0
220
0
230
1
0
LINE
5
176
100
AcDbEntity
8
SK2
62
256
6
ByLayer
370
13
48
1
60
0
100
AcDbLine
10
-39.6
20
-25
30
0
11
-39.182003
21
-21.824998
31
0
39
0
210
0
220
0
230
1
0
LINE
5
177
100
AcDbEntity
8
SK2
62
256
6
ByLayer
370
13
48
1
60
0
100
AcDbLine
10
-40.017997
20
-21.825002
30
0
11
-39.182003
21
-21.824998
31
0
39
0
210
0
220
0
230
1
0
LINE
5
178
100
AcDbEntity
8
SK2
62
256
6
ByLayer
370
13
48
1
60
0
100
AcDbLine
10
-39.6
20
25
30
0
11
-39.182003
21
21.825002
31
0
39
0
210
0
220
0
230
1
0
LINE
5
179
100
AcDbEntity
8
SK2
62
256
6
ByLayer
370
13
48
1
60
0
100
AcDbLine
10
-39.6
20
25
30
0
11
-40.017997
21
21.824998
31
0
39
0
210
0
220
0
230
1
0
LINE
5
17A
100
AcDbEntity
8
SK2
62
256
6
ByLayer
370
13
48
1
60
0
100
AcDbLine
10
-39.182003
20
21.825002
30
0
11
-40.017997
21
21.824998
31
0
39
0
210
0
220
0
230
1
0
ENDBLK
5
17C
100
AcDbEntity
8
0
100
AcDbBlockEnd
0
BLOCK
5
189
100
AcDbEntity
8
0
100
AcDbBlockBegin
2
DimnDraft3D4
70
0
10
0
20
0
30
0
3
DimnDraft3D4
0
MTEXT
5
17F
100
AcDbEntity
8
2
62
256
6
ByLayer
370
18
48
1
60
0
100
AcDbMText
10
94.225
20
-17.715789
30
0
210
0
220
0
230
1
1
\W0.6740;33
40
3.5
41
0
44
1.084337
50
90
71
7
72
5
7
iso_b_vert
0
LINE
5
180
100
AcDbEntity
8
2
62
256
6
ByLayer
370
13
48
1
60
0
100
AcDbLine
10
63
20
0
30
0
11
97.1
21
0
31
0
39
0
210
0
220
0
230
1
0
LINE
5
181
100
AcDbEntity
8
2
62
256
6
ByLayer
370
13
48
1
60
0
100
AcDbLine
10
72
20
-33
30
0
11
97.1
21
-33
31
0
39
0
210
0
220
0
230
1
0
LINE
5
182
100
AcDbEntity
8
2
62
256
6
ByLayer
370
13
48
1
60
0
100
AcDbLine
10
95.1
20
0
30
0
11
95.1
21
-33
31
0
39
0
210
0
220
0
230
1
0
LINE
5
183
100
AcDbEntity
8
2
62
256
6
ByLayer
370
13
48
1
60
0
100
AcDbLine
10
95.1
20
0
30
0
11
95.517997
21
-3.174998
31
0
39
0
210
0
220
0
230
1
0
LINE
5
184
100
AcDbEntity
8
2
62
256
6
ByLayer
370
13
48
1
60
0
100
AcDbLine
10
95.1
20
0
30
0
11
94.682003
21
-3.175002
31
0
39
0
210
0
220
0
230
1
0
LINE
5
185
100
AcDbEntity
8
2
62
256
6
ByLayer
370
13
48
1
60
0
100
AcDbLine
10
95.517997
20
-3.174998
30
0
11
94.682003
21
-3.175002
31
0
39
0
210
0
220
0
230
1
0
LINE
5
186
100
AcDbEntity
8
2
62
256
6
ByLayer
370
13
48
1
60
0
100
AcDbLine
10
95.1
20
-33
30
0
11
94.682003
21
-29.825002
31
0
39
0
210
0
220
0
230
1
0
LINE
5
187
100
AcDbEntity
8
2
62
256
6
ByLayer
370
13
48
1
60
0
100
AcDbLine
10
95.1
20
-33
30
0
11
95.517997
21
-29.824998
31
0
39
0
210
0
220
0
230
1
0
LINE
5
188
100
AcDbEntity
8
2
62
256
6
ByLayer
370
13
48
1
60
0
100
AcDbLine
10
94.682003
20
-29.825002
30
0
11
95.517997
21
-29.824998
31
0
39
0
210
0
220
0
230
1
0
ENDBLK
5
18A
100
AcDbEntity
8
0
100
AcDbBlockEnd
0
BLOCK
5
197
100
AcDbEntity
8
0
100
AcDbBlockBegin
2
DimnDraft3D5
70
0
10
0
20
0
30
0
3
DimnDraft3D5
0
MTEXT
5
18D
100
AcDbEntity
8
2
62
256
6
ByLayer
370
18
48
1
60
0
100
AcDbMText
10
87.225
20
-43.945789
30
0
210
0
220
0
230
1
1
\W0.5404;5
40
3.5
41
0
44
1.084337
50
90
71
7
72
5
7
iso_b_vert
0
LINE
5
18E
100
AcDbEntity
8
2
62
256
6
ByLayer
370
13
48
1
60
0
100
AcDbLine
10
72
20
-33
30
0
11
90.1
21
-33
31
0
39
0
210
0
220
0
230
1
0
LINE
5
18F
100
AcDbEntity
8
2
62
256
6
ByLayer
370
13
48
1
60
0
100
AcDbLine
10
72
20
-28
30
0
11
90.1
21
-28
31
0
39
0
210
0
220
0
230
1
0
LINE
5
190
100
AcDbEntity
8
2
62
256
6
ByLayer
370
13
48
1
60
0
100
AcDbLine
10
88.1
20
-19.25
30
0
11
88.1
21
-44.820789
31
0
39
0
210
0
220
0
230
1
0
LINE
5
191
100
AcDbEntity
8
2
62
256
6
ByLayer
370
13
48
1
60
0
100
AcDbLine
10
88.1
20
-33
30
0
11
88.517997
21
-36.174998
31
0
39
0
210
0
220
0
230
1
0
LINE
5
192
100
AcDbEntity
8
2
62
256
6
ByLayer
370
13
48
1
60
0
100
AcDbLine
10
88.1
20
-33
30
0
11
87.682003
21
-36.175002
31
0
39
0
210
0
220
0
230
1
0
LINE
5
193
100
AcDbEntity
8
2
62
256
6
ByLayer
370
13
48
1
60
0
100
AcDbLine
10
88.517997
20
-36.174998
30
0
11
87.682003
21
-36.175002
31
0
39
0
210
0
220
0
230
1
0
LINE
5
194
100
AcDbEntity
8
2
62
256
6
ByLayer
370
13
48
1
60
0
100
AcDbLine
10
88.1
20
-28
30
0
11
87.682003
21
-24.825002
31
0
39
0
210
0
220
0
230
1
0
LINE
5
195
100
AcDbEntity
8
2
62
256
6
ByLayer
370
13
48
1
60
0
100
AcDbLine
10
88.1
20
-28
30
0
11
88.517997
21
-24.824998
31
0
39
0
210
0
220
0
230
1
0
LINE
5
196
100
AcDbEntity
8
2
62
256
6
ByLayer
370
13
48
1
60
0
100
AcDbLine
10
87.682003
20
-24.825002
30
0
11
88.517997
21
-24.824998
31
0
39
0
210
0
220
0
230
1
0
ENDBLK
5
198
100
AcDbEntity
8
0
100
AcDbBlockEnd
0
ENDSEC
0
SECTION
2
ENTITIES
0
ARC
5
E5
100
AcDbEntity
8
1
62
256
6
ByLayer
370
13
48
1
60
0
100
AcDbCircle
39
0
10
-45
20
-26.725
30
0
40
1.6
210
0
220
0
230
-1
100
AcDbArc
50
314.631757
51
0
0
ARC
5
E6
100
AcDbEntity
8
1
62
256
6
ByLayer
370
13
48
1
60
0
100
AcDbCircle
39
0
10
-20.279208
20
-26.2
30
0
40
1.2
210
0
220
0
230
-1
100
AcDbArc
50
90
51
119.302884
0
ARC
5
E7
100
AcDbEntity
8
1
62
256
6
ByLayer
370
13
48
1
60
0
100
AcDbCircle
39
0
10
29.6
20
-25.65
30
0
40
0.5
210
0
220
0
230
1
100
AcDbArc
50
0
51
84.26083
0
ARC
5
E8
100
AcDbEntity
8
1
62
256
6
ByLayer
370
13
48
1
60
0
100
AcDbCircle
39
0
10
24.183417
20
4
30
0
40
4
210
0
220
0
230
1
100
AcDbArc
50
268.612329
51
269.521338
0
ARC
5
E9
100
AcDbEntity
8
1
62
256
6
ByLayer
370
18
48
1
60
0
100
AcDbCircle
39
0
10
69.7
20
-28.3
30
0
40
0.3
210
0
220
0
230
1
100
AcDbArc
50
0
51
92.5
0
ARC
5
EA
100
AcDbEntity
8
1
62
256
6
ByLayer
370
18
48
1
60
0
100
AcDbCircle
39
0
10
-62.55644
20
-29.832701
30
0
40
0.100000000024112
210
0
220
0
230
-1
100
AcDbArc
50
321.950819
51
349.999999
0
ARC
5
EB
100
AcDbEntity
8
1
62
256
6
ByLayer
370
18
48
1
60
0
100
AcDbCircle
39
0
10
-45.3
20
-28.3
30
0
40
0.3
210
0
220
0
230
-1
100
AcDbArc
50
0
51
92.5
0
ARC
5
EC
100
AcDbEntity
8
1
62
256
6
ByLayer
370
18
48
1
60
0
100
AcDbCircle
39
0
10
-69.7
20
-32.7
30
0
40
0.3
210
0
220
0
230
-1
100
AcDbArc
50
180
51
272.5
0
ARC
5
ED
100
AcDbEntity
8
1
62
256
6
ByLayer
370
18
48
1
60
0
100
AcDbCircle
39
0
10
-62.55644
20
-31.167299
30
0
40
0.100000000024112
210
0
220
0
230
-1
100
AcDbArc
50
10.000001
51
38.049181
0
ELLIPSE
5
EE
100
AcDbEntity
8
1
62
256
6
ByLayer
370
13
48
1
60
0
100
AcDbEllipse
10
21.056258
20
0
30
0
11
11.7092723497255
21
24.6771864409349
31
0
210
0
220
0
230
-1
40
0.341999
41
-2.97437958168079
42
-2.05975995310047
0
ELLIPSE
5
EF
100
AcDbEntity
8
1
62
256
6
ByLayer
370
13
48
1
60
0
100
AcDbEllipse
10
-367.273402
20
-93.048671
30
0
11
2819.08238473366
21
11.2508586625528
31
0
210
0
220
0
230
-1
40
0.02261
41
-1.42120677261941
42
-1.41801984397384
0
ELLIPSE
5
F0
100
AcDbEntity
8
1
62
256
6
ByLayer
370
13
48
1
60
0
100
AcDbEllipse
10
122.613866
20
-93.000495
30
0
11
467.423976251187
21
-11.5519818925555
31
0
210
0
220
0
230
-1
40
0.136141
41
-1.73359755285338
42
-1.72576560654797
0
ELLIPSE
5
F1
100
AcDbEntity
8
1
62
256
6
ByLayer
370
13
48
1
60
0
100
AcDbEllipse
10
64.788006
20
-93
30
0
11
92.3654723350844
21
9.33481536829658E-14
31
0
210
0
220
0
230
-1
40
0.700208
41
-1.74327763733557
42
-1.62807854438995
0
ELLIPSE
5
F2
100
AcDbEntity
8
1
62
256
6
ByLayer
370
13
48
1
60
0
100
AcDbEllipse
10
20.218172
20
0
30
0
11
-1.53075794227789E-15
21
24.9999999999987
31
0
210
0
220
0
230
-1
40
0.008727
41
-2.49483286400731
42
-0.785398163397453
0
ELLIPSE
5
F3
100
AcDbEntity
8
1
62
256
6
ByLayer
370
13
48
1
60
0
100
AcDbEllipse
10
62.162648
20
-31.111334
30
0
11
-9.1845476536655E-18
21
0.149999999999962
31
0
210
0
220
0
230
-1
40
0.747927
41
-1.39626340159549
42
-0.349065850398441
0
ELLIPSE
5
F4
100
AcDbEntity
8
1
62
256
6
ByLayer
370
13
48
1
60
0
100
AcDbEllipse
10
63.668331
20
-92.999998
30
0
11
72.8081293633626
21
7.35827390621032E-14
31
0
210
0
220
0
230
-1
40
0.888294
41
-1.62807854548898
42
-1.59583934080553
0
ELLIPSE
5
F5
100
AcDbEntity
8
1
62
256
6
ByLayer
370
13
48
1
60
0
100
AcDbEllipse
10
62.197811
20
-30.774969
30
0
11
-9.18454765368326E-18
21
0.150000000000252
31
0
210
0
220
0
230
-1
40
0.747927
41
1.5707963267949
42
2.79252680318969
0
ELLIPSE
5
F6
100
AcDbEntity
8
1
62
256
6
ByLayer
370
13
48
1
60
0
100
AcDbEllipse
10
75.406324
20
-93.180702
30
0
11
35.6268951127089
21
-59.3158368461582
31
0
210
0
220
0
230
-1
40
0.736178
41
-2.70127399980705
42
-2.70026049769039
0
ELLIPSE
5
F7
100
AcDbEntity
8
1
62
256
6
ByLayer
370
13
48
1
60
0
100
AcDbEllipse
10
74.020801
20
-118.2
30
0
11
-5.23672292047027E-15
21
85.5249999989765
31
0
210
0
220
0
230
-1
40
0.57735
41
-0.383490387083732
42
-0.101857206124961
0
ELLIPSE
5
F8
100
AcDbEntity
8
1
62
256
6
ByLayer
370
13
48
1
60
0
100
AcDbEllipse
10
61.046339
20
-30.512152
30
0
11
1.05292520887356
21
0.0229470523488213
31
0
210
0
220
0
230
-1
40
0.712081
41
0
42
6.28318530717959
0
ELLIPSE
5
F9
100
AcDbEntity
8
1
62
256
6
ByLayer
370
13
48
1
60
0
100
AcDbEllipse
10
21.056258
20
0
30
0
11
11.7092723497259
21
-24.6771864409353
31
0
210
0
220
0
230
-1
40
0.341999
41
2.05975995310049
42
2.97437958168079
0
ELLIPSE
5
FA
100
AcDbEntity
8
1
62
256
6
ByLayer
370
13
48
1
60
0
100
AcDbEllipse
10
62.162648
20
-29.888666
30
0
11
-9.18454765370475E-18
21
0.150000000000603
31
0
210
0
220
0
230
-1
40
0.747927
41
-2.79252680318798
42
-1.74532925199595
0
ELLIPSE
5
FB
100
AcDbEntity
8
1
62
256
6
ByLayer
370
13
48
1
60
0
100
AcDbEllipse
10
64.788006
20
-118.200001
30
0
11
122.1423587536
21
1.23441838036269E-13
31
0
210
0
220
0
230
-1
40
0.700208
41
-1.66979350795872
42
-1.61410365667732
0
ELLIPSE
5
FC
100
AcDbEntity
8
1
62
256
6
ByLayer
370
13
48
1
60
0
100
AcDbEllipse
10
543.443305
20
-115.899938
30
0
11
2140.22264459288
21
-14.1747607619419
31
0
210
0
220
0
230
-1
40
0.038318
41
-1.79867904477574
42
-1.79748018768481
0
ELLIPSE
5
FD
100
AcDbEntity
8
1
62
256
6
ByLayer
370
13
48
1
60
0
100
AcDbEllipse
10
-1.056258
20
0
30
0
11
11.7092723497271
21
-24.6771864409377
31
0
210
0
220
0
230
-1
40
0.341999
41
-1.08183270048926
42
-0.167213071908998
0
ELLIPSE
5
FE
100
AcDbEntity
8
1
62
256
6
ByLayer
370
13
48
1
60
0
100
AcDbEllipse
10
63.668331
20
-118.200001
30
0
11
96.2800990498223
21
9.73044283269487E-14
31
0
210
0
220
0
230
-1
40
0.888294
41
-1.61410365668758
42
-1.58978219705607
0
ELLIPSE
5
FF
100
AcDbEntity
8
1
62
256
6
ByLayer
370
13
48
1
60
0
100
AcDbEllipse
10
62.197811
20
-30.225031
30
0
11
-9.18454765368326E-18
21
0.150000000000252
31
0
210
0
220
0
230
-1
40
0.747927
41
0.349065850400103
42
1.5707963267949
0
ELLIPSE
5
100
100
AcDbEntity
8
1
62
256
6
ByLayer
370
13
48
1
60
0
100
AcDbEllipse
10
-1.056258
20
0
30
0
11
11.7092723497286
21
24.6771864409395
31
0
210
0
220
0
230
-1
40
0.341999
41
0.167213071908993
42
1.0818327004892
0
ELLIPSE
5
101
100
AcDbEntity
8
1
62
256
6
ByLayer
370
13
48
1
60
0
100
AcDbEllipse
10
52.363118
20
-30.60599
30
0
11
3.57037001685582
21
3.60835538012957E-15
31
0
210
0
220
0
230
-1
40
0.700208
41
1.47179914524101
42
2.85779854438134
0
ELLIPSE
5
102
100
AcDbEntity
8
1
62
256
6
ByLayer
370
18
48
1
60
0
100
AcDbEllipse
10
62.346355
20
-28.641251
30
0
11
0.0101152495713687
21
-0.0994870924875288
31
0
210
0
220
0
230
-1
40
1
41
1.49758919250072
42
1.67212211898932
0
ELLIPSE
5
103
100
AcDbEntity
8
1
62
256
6
ByLayer
370
18
48
1
60
0
100
AcDbEllipse
10
62.346355
20
-32.358749
30
0
11
0.0103091439905532
21
0.099467187646986
31
0
210
0
220
0
230
-1
40
1
41
-1.67407125359335
42
-1.49953832730338
0
POINT
5
6C
100
AcDbEntity
8
80
62
256
6
ByLayer
370
18
48
1
60
0
100
AcDbPoint
10
0
20
0
30
0
39
0
210
0
220
0
230
1
50
360
0
POINT
5
6E
100
AcDbEntity
8
81
62
256
6
ByLayer
370
18
48
1
60
0
100
AcDbPoint
10
70
20
-33
30
0
39
0
210
0
220
0
230
1
50
360
0
SPLINE
5
104
100
AcDbEntity
8
1
62
256
6
ByLayer
370
13
48
1
60
0
100
AcDbSpline
70
4
71
2
72
6
73
3
40
0
40
0
40
0
40
1
40
1
40
1
41
1
10
-0.0999999999998806
20
-17.3972002365843
30
0
41
1
10
-0.028841981620559
20
-17.437450708732
30
0
41
1
10
-0.0192590516599012
20
-17.4820735069127
30
0
0
SPLINE
5
105
100
AcDbEntity
8
1
62
256
6
ByLayer
370
13
48
1
60
0
100
AcDbSpline
70
4
71
2
72
6
73
3
40
0
40
0
40
0
40
1
40
1
40
1
41
1
10
-0.0187759217034511
20
17.483460506555
30
0
41
1
10
-0.0281162308700118
20
17.4381123578692
30
0
41
1
10
-0.0999999999999943
20
17.3972000914452
30
0
0
SPLINE
5
106
100
AcDbEntity
8
SK1
62
256
6
ByLayer
370
13
48
1
60
0
100
AcDbSpline
70
4
71
2
72
6
73
3
40
0
40
0
40
0
40
1
40
1
40
1
41
1
10
-28.5
20
-16.8545212066649
30
0
41
1
10
-15.2499999987993
20
-17.1871851888411
30
0
41
1
10
-2
20
-17.5198482068775
30
0
0
SPLINE
5
107
100
AcDbEntity
8
SK1
62
256
6
ByLayer
370
13
48
1
60
0
100
AcDbSpline
70
4
71
2
72
6
73
3
40
0
40
0
40
0
40
1
40
1
40
1
41
1
10
-1.99999999999997
20
17.5198479235725
30
0
41
1
10
-15.2499999987995
20
17.1871849060499
30
0
41
1
10
-28.5
20
16.8545209244113
30
0
0
SPLINE
5
108
100
AcDbEntity
8
SK1
62
256
6
ByLayer
370
13
48
1
60
0
100
AcDbSpline
70
4
71
3
72
13
73
9
40
0
40
0
40
0
40
0
40
0.239409099367236
40
0.368297400752156
40
0.499931438691541
40
0.631576866358109
40
0.760496583550983
40
1
40
1
40
1
40
1
41
1
10
-2
20
-17.525129116923
30
0
41
1
10
-1.99909125719799
20
-17.4990813944884
30
0
41
1
10
-1.99103211472604
20
-17.4617233046648
30
0
41
1
10
-1.96563495891917
20
-17.4155240253432
30
0
41
1
10
-1.93886250822575
20
-17.3842556209573
30
0
41
1
10
-1.90627575278674
20
-17.3590990612904
30
0
41
1
10
-1.85883875467888
20
-17.3360651360603
30
0
41
1
10
-1.82110932008982
20
-17.3298953840654
30
0
41
1
10
-1.7950399779393
20
-17.3302974649007
30
0
0
SPLINE
5
109
100
AcDbEntity
8
SK1
62
256
6
ByLayer
370
13
48
1
60
0
100
AcDbSpline
70
4
71
3
72
13
73
9
40
0
40
0
40
0
40
0
40
0.239503416121615
40
0.368423133196221
40
0.500068560814779
40
0.631702598790188
40
0.760590900287134
40
1
40
1
40
1
40
1
41
1
10
-1.7950399779393
20
17.3302973195575
30
0
41
1
10
-1.82110932009613
20
17.3298952387249
30
0
41
1
10
-1.85883875469074
20
17.3360649907381
30
0
41
1
10
-1.9062757527968
20
17.3590989160413
30
0
41
1
10
-1.93886250823533
20
17.3842554757878
30
0
41
1
10
-1.96563495892644
20
17.4155238802705
30
0
41
1
10
-1.99103211473135
20
17.461723159738
30
0
41
1
10
-1.99909125720336
20
17.4990812496682
30
0
41
1
10
-1.99999999999997
20
17.5251289721745
30
0
0
SPLINE
5
10A
100
AcDbEntity
8
SK1
62
256
6
ByLayer
370
13
48
1
60
0
100
AcDbSpline
70
4
71
2
72
6
73
3
40
0
40
0
40
0
40
1
40
1
40
1
41
1
10
-1.7950399779393
20
-17.3250646819564
30
0
41
1
10
-0.995008433403029
20
-17.3451508243471
30
0
41
1
10
-0.194976888875288
20
-17.3652369633
30
0
0
SPLINE
5
10B
100
AcDbEntity
8
SK1
62
256
6
ByLayer
370
13
48
1
60
0
100
AcDbSpline
70
4
71
2
72
6
73
3
40
0
40
0
40
0
40
1
40
1
40
1
41
1
10
-0.19497688887526
20
17.3652366802367
30
0
41
1
10
-0.995008433403029
20
17.3451505413153
30
0
41
1
10
-1.7950399779393
20
17.3250643989562
30
0
0
SPLINE
5
10C
100
AcDbEntity
8
SK1
62
256
6
ByLayer
370
13
48
1
60
0
100
AcDbSpline
70
4
71
2
72
6
73
3
40
0
40
0
40
0
40
1
40
1
40
1
41
1
10
-30
20
-15.9932495545753
30
0
41
1
10
-29.2499990770552
20
-16.4260289695446
30
0
41
1
10
-28.5
20
-16.8588008432385
30
0
0
SPLINE
5
10D
100
AcDbEntity
8
SK1
62
256
6
ByLayer
370
13
48
1
60
0
100
AcDbSpline
70
4
71
2
72
6
73
3
40
0
40
0
40
0
40
1
40
1
40
1
41
1
10
-28.5
20
16.8588006436881
30
0
41
1
10
-29.2499990770911
20
16.426028770442
30
0
41
1
10
-30
20
15.9932493559077
30
0
0
SPLINE
5
10E
100
AcDbEntity
8
SK1
62
256
6
ByLayer
370
13
48
1
60
0
100
AcDbSpline
70
4
71
2
72
6
73
3
40
0
40
0
40
0
40
1
40
1
40
1
41
1
10
-0.194976888875288
20
-17.3686329731267
30
0
41
1
10
-0.144192256517613
20
-17.3700856684201
30
0
41
1
10
-0.0999999999980048
20
-17.3953516284376
30
0
0
SPLINE
5
10F
100
AcDbEntity
8
SK1
62
256
6
ByLayer
370
13
48
1
60
0
100
AcDbSpline
70
4
71
2
72
6
73
3
40
0
40
0
40
0
40
1
40
1
40
1
41
1
10
-0.0999999999980901
20
17.3953514537788
30
0
41
1
10
-0.144192256507324
20
17.3700854937108
30
0
41
1
10
-0.19497688887526
20
17.3686327984194
30
0
0
SPLINE
5
110
100
AcDbEntity
8
SK1
62
256
6
ByLayer
370
13
48
1
60
0
100
AcDbSpline
70
4
71
3
72
39
73
35
40
0
40
0
40
0
40
0
40
0.0138412309377308
40
0.0424388008756996
40
0.0710363708136684
40
0.0996339407516373
40
0.156829080627575
40
0.214024220503513
40
0.242621790441481
40
0.27121936037945
40
0.328414500255388
40
0.357012070193357
40
0.385609640131325
40
0.414207210069294
40
0.442804780007263
40
0.471402349945232
40
0.485701134914217
40
0.499999919883201
40
0.514298704852185
40
0.52859748982117
40
0.557195059759139
40
0.585792629697107
40
0.614390199635076
40
0.642987769573045
40
0.671585339511014
40
0.728780479386952
40
0.75737804932492
40
0.785975619262889
40
0.843170759138827
40
0.900365899014765
40
0.928963468952733
40
0.957561038890702
40
0.986158608828671
40
1
40
1
40
1
40
1
41
1
10
-1.99999999999997
20
17.5197427588253
30
0
41
1
10
-1.99999999999997
20
17.5129400873603
30
0
41
1
10
-2
20
17.4725596420909
30
0
41
1
10
-1.99999999999997
20
17.3116343538074
30
0
41
1
10
-1.99999999999997
20
16.9815888329671
30
0
41
1
10
-2.00000000000003
20
16.3767064197526
30
0
41
1
10
-1.99999999999997
20
15.3340294930175
30
0
41
1
10
-1.99999999999997
20
13.951909224744
30
0
41
1
10
-1.99999999999997
20
12.6575651420821
30
0
41
1
10
-2.00000000000003
20
11.241205620246
30
0
41
1
10
-2
20
9.645347831989
30
0
41
1
10
-2
20
7.87638184130799
30
0
41
1
10
-2
20
6.46346246032294
30
0
41
1
10
-2
20
4.9652099996745
30
0
41
1
10
-1.99999999999997
20
3.38314408231233
30
0
41
1
10
-2.00000000000003
20
1.99851186782064
30
0
41
1
10
-2.00000000000003
20
0.861482441955332
30
0
41
1
10
-2.00000000000003
20
1.76096364E-08
30
0
41
1
10
-2.00000000000003
20
-0.861482365135686
30
0
41
1
10
-2.00000000000003
20
-1.99851187450366
30
0
41
1
10
-1.99999999999997
20
-3.38314406709776
30
0
41
1
10
-2
20
-4.96520967393036
30
0
41
1
10
-2
20
-6.46346255594881
30
0
41
1
10
-2
20
-7.87638169367133
30
0
41
1
10
-2
20
-9.64534763909759
30
0
41
1
10
-2.00000000000006
20
-11.241205608504
30
0
41
1
10
-1.99999999999997
20
-12.6575649796177
30
0
41
1
10
-2
20
-13.951909601472
30
0
41
1
10
-1.99999999999997
20
-15.3340290660617
30
0
41
1
10
-2.00000000000006
20
-16.3767071899765
30
0
41
1
10
-1.99999999999997
20
-16.9815887046989
30
0
41
1
10
-2.00000000000003
20
-17.3116346702719
30
0
41
1
10
-2.00000000000003
20
-17.4725605632632
30
0
41
1
10
-2.00000000000003
20
-17.5129407101285
30
0
41
1
10
-2
20
-17.519743240961
30
0
0
SPLINE
5
111
100
AcDbEntity
8
SK1
62
256
6
ByLayer
370
13
48
1
60
0
100
AcDbSpline
70
4
71
3
72
39
73
35
40
0
40
0
40
0
40
0
40
0.0161825869391829
40
0.0446424297833252
40
0.0731022726274675
40
0.10156211547161
40
0.158481801159894
40
0.215401486848179
40
0.243861329692321
40
0.272321172536463
40
0.329240858224748
40
0.35770070106889
40
0.386160543913033
40
0.414620386757175
40
0.443080229601317
40
0.471540072445459
40
0.48576999386753
40
0.499999915289602
40
0.514229836711673
40
0.528459758133744
40
0.556919600977886
40
0.585379443822028
40
0.613839286666171
40
0.642299129510313
40
0.670758972354455
40
0.72767865804274
40
0.756138500886882
40
0.784598343731024
40
0.841518029419309
40
0.898437715107593
40
0.926897557951735
40
0.955357400795878
40
0.98381724364002
40
1
40
1
40
1
40
1
41
1
10
-28.5
20
16.8572808134463
30
0
41
1
10
-28.5
20
16.8520758964565
30
0
41
1
10
-28.5
20
16.8141072485599
30
0
41
1
10
-28.5
20
16.6531187925377
30
0
41
1
10
-28.5
20
16.3328856609548
30
0
41
1
10
-28.5
20
15.743676951477
30
0
41
1
10
-28.5
20
14.7294543359371
30
0
41
1
10
-28.5
20
13.3839106046769
30
0
41
1
10
-28.5
20
12.1202809967189
30
0
41
1
10
-28.5
20
10.738392924524
30
0
41
1
10
-28.5
20
9.1921738345545
30
0
41
1
10
-28.5
20
7.47336198687185
30
0
41
1
10
-28.5
20
6.10816664300202
30
0
41
1
10
-28.5
20
4.66779636016514
30
0
41
1
10
-28.5
20
3.15909751485617
30
0
41
1
10
-28.5
20
1.85825194532182
30
0
41
1
10
-28.5
20
0.795563889585026
30
0
41
1
10
-28.5
20
1.286699671E-07
30
0
41
1
10
-28.5
20
-0.795563863901094
30
0
41
1
10
-28.5
20
-1.85825200188597
30
0
41
1
10
-28.5
20
-3.15909729188618
30
0
41
1
10
-28.5
20
-4.66779609215348
30
0
41
1
10
-28.5
20
-6.10816680102997
30
0
41
1
10
-28.5
20
-7.47336176426714
30
0
41
1
10
-28.5
20
-9.19217366708173
30
0
41
1
10
-28.5
20
-10.73839291766
30
0
41
1
10
-28.5
20
-12.1202808762332
30
0
41
1
10
-28.5
20
-13.3839109677472
30
0
41
1
10
-28.5
20
-14.7294539424714
30
0
41
1
10
-28.5
20
-15.7436777114931
30
0
41
1
10
-28.5
20
-16.3328855300395
30
0
41
1
10
-28.5
20
-16.653119129773
30
0
41
1
10
-28.5
20
-16.8141081780922
30
0
41
1
10
-28.5
20
-16.8520764720025
30
0
41
1
10
-28.5
20
-16.8572811865146
30
0
0
SPLINE
5
112
100
AcDbEntity
8
SK1
62
256
6
ByLayer
370
13
48
1
60
0
100
AcDbSpline
70
4
71
3
72
39
73
35
40
0
40
0
40
0
40
0
40
0.0181821458554473
40
0.0465244245970112
40
0.0748667033385751
40
0.103208982080139
40
0.159893539563267
40
0.216578097046394
40
0.244920375787958
40
0.273262654529522
40
0.32994721201265
40
0.358289490754214
40
0.386631769495778
40
0.414974048237342
40
0.443316326978905
40
0.471658605720469
40
0.485829745091251
40
0.500000884462033
40
0.514172023832815
40
0.528343163203597
40
0.556685441945161
40
0.585027720686725
40
0.613369999428289
40
0.641712278169852
40
0.670054556911416
40
0.726739114394544
40
0.755081393136108
40
0.783423671877672
40
0.8401082293608
40
0.896792786843927
40
0.925135065585491
40
0.953477344327055
40
0.981819623068619
40
1
40
1
40
1
40
1
41
1
10
-30
20
15.9932053878912
30
0
41
1
10
-30
20
15.9899219730634
30
0
41
1
10
-30
20
15.9548426676786
30
0
41
1
10
-30
20
15.7965327535813
30
0
41
1
10
-30
20
15.4890634139889
30
0
41
1
10
-30
20
14.9202427964399
30
0
41
1
10
-30
20
13.9430330734595
30
0
41
1
10
-30
20
12.6450674903884
30
0
41
1
10
-30
20
11.4213907579164
30
0
41
1
10
-30
20
10.0843425714311
30
0
41
1
10
-30
20
8.60269267078084
30
0
41
1
10
-30
20
6.94912049428416
30
0
41
1
10
-30
20
5.64600378047237
30
0
41
1
10
-30
20
4.28092566737897
30
0
41
1
10
-30
20
2.86766148350537
30
0
41
1
10
-30
20
1.6758041817393
30
0
41
1
10
-30
20
0.709818138095557
30
0
41
1
10
-30
20
2.731356403E-07
30
0
41
1
10
-30
20
-0.70981817892806
30
0
41
1
10
-30
20
-1.67580430318822
30
0
41
1
10
-30
20
-2.86766099029063
30
0
41
1
10
-30
20
-4.28092547446479
30
0
41
1
10
-30
20
-5.64600401967189
30
0
41
1
10
-30
20
-6.94912017416226
30
0
41
1
10
-30
20
-8.60269253637227
30
0
41
1
10
-30
20
-10.0843425709123
30
0
41
1
10
-30
20
-11.421390692036
30
0
41
1
10
-30
20
-12.6450678356931
30
0
41
1
10
-30
20
-13.943032723557
30
0
41
1
10
-30
20
-14.9202435431778
30
0
41
1
10
-30
20
-15.4890632796305
30
0
41
1
10
-30
20
-15.7965331178348
30
0
41
1
10
-30
20
-15.954839475707
30
0
41
1
10
-30
20
-15.9899195656275
30
0
41
1
10
-30
20
-15.993204612076
30
0
0
SPLINE
5
113
100
AcDbEntity
8
SK1
62
256
6
ByLayer
370
13
48
1
60
0
100
AcDbSpline
70
4
71
3
72
19
73
15
40
0
40
0
40
0
40
0
40
0.0340168326247402
40
0.103731952662809
40
0.173447072700877
40
0.243162192738945
40
0.382592432815082
40
0.522022672891219
40
0.591737792929287
40
0.661452912967355
40
0.800883153043492
40
0.87059827308156
40
0.940313393119628
40
1
40
1
40
1
40
1
41
1
10
-0.194976888875232
20
17.3652894531813
30
0
41
1
10
-0.19497688887526
20
17.3585856737677
30
0
41
1
10
-0.194976888875288
20
17.3185670125664
30
0
41
1
10
-0.194976888875288
20
17.1586060420318
30
0
41
1
10
-0.19497688887526
20
16.8308407609472
30
0
41
1
10
-0.194976888875317
20
16.2296006616933
30
0
41
1
10
-0.19497688887526
20
15.1935360543339
30
0
41
1
10
-0.194976888875288
20
13.8199155786832
30
0
41
1
10
-0.19497688887526
20
12.5327090406557
30
0
41
1
10
-0.194976888875317
20
11.124360123357
30
0
41
1
10
-0.194976888875288
20
9.54003756166787
30
0
41
1
10
-0.194976888875288
20
7.78272657852651
30
0
41
1
10
-0.194976888875288
20
6.44811514689019
30
0
41
1
10
-0.194976888875288
20
5.53313598468037
30
0
41
1
10
-0.194976888875288
20
5.1012534532241
30
0
0
SPLINE
5
114
100
AcDbEntity
8
1
62
256
6
ByLayer
370
13
48
1
60
0
100
AcDbSpline
70
4
71
3
72
10
73
6
40
0
40
0
40
0
40
0
40
0.814548862111281
40
0.814548862111281
40
1
40
1
40
1
40
1
41
1
10
21.4383186059725
20
-25.15
30
0
41
1
10
21.3347080499684
20
-25.15
30
0
41
1
10
21.0470698921873
20
-25.15
30
0
41
1
10
20.8853917363902
20
-25.15
30
0
41
1
10
20.8722119823488
20
-25.15
30
0
41
1
10
20.8721356059699
20
-25.15
30
0
0
SPLINE
5
115
100
AcDbEntity
8
1
62
256
6
ByLayer
370
13
48
1
60
0
100
AcDbSpline
70
4
71
3
72
14
73
10
40
0
40
0
40
0
40
0
40
0.291868294583394
40
0.291868294583394
40
0.580445142147181
40
0.580445142147181
40
0.918081166571944
40
0.918081166571944
40
1
40
1
40
1
40
1
41
1
10
45
20
-28.3331127056031
30
0
41
1
10
44.8453168713657
20
-28.3324401135634
30
0
41
1
10
44.6950367224116
20
-28.3081530819224
30
0
41
1
10
44.4304430182351
20
-28.2308038051771
30
0
41
1
10
44.3118514396191
20
-28.1773889978025
30
0
41
1
10
44.0918154167776
20
-28.0505561079972
30
0
41
1
10
43.9935604994761
20
-27.973392552623
30
0
41
1
10
43.9002607070499
20
-27.8874491758934
30
0
41
1
10
43.8832968121536
20
-27.8710392342174
30
0
41
1
10
43.8677017302886
20
-27.855399656675
30
0
0
SPLINE
5
116
100
AcDbEntity
8
1
62
256
6
ByLayer
370
13
48
1
60
0
100
AcDbSpline
70
4
71
3
72
12
73
8
40
0
40
0
40
0
40
0
40
0.351990479393166
40
0.351990479393166
40
0.715070435854667
40
0.715070435854667
40
1
40
1
40
1
40
1
41
1
10
29.6578049547364
20
-25.1533497359656
30
0
41
1
10
29.7763044171577
20
-25.167055316372
30
0
41
1
10
29.8529619358952
20
-25.217067524339
30
0
41
1
10
29.9158051678807
20
-25.2604332700547
30
0
41
1
10
29.8991609534495
20
-25.2430259481786
30
0
41
1
10
29.7861639333061
20
-25.1825115078726
30
0
41
1
10
29.7065202391714
20
-25.15
30
0
41
1
10
29.6
20
-25.15
30
0
0
SPLINE
5
117
100
AcDbEntity
8
1
62
256
6
ByLayer
370
13
48
1
60
0
100
AcDbSpline
70
4
71
3
72
10
73
6
40
0
40
0
40
0
40
0
40
0.085848370144723
40
0.085848370144723
40
1
40
1
40
1
40
1
41
1
10
29.9792156108742
20
-32.6797355885752
30
0
41
1
10
29.9854229555177
20
-32.6794691138676
30
0
41
1
10
29.9913948099521
20
-32.6792132670501
30
0
41
1
10
30.057914258065
20
-32.6763714048093
30
0
41
1
10
30.092099305982
20
-32.6750085750223
30
0
41
1
10
30.0987832499109
20
-32.6750011414071
30
0
0
SPLINE
5
118
100
AcDbEntity
8
1
62
256
6
ByLayer
370
13
48
1
60
0
100
AcDbSpline
70
4
71
3
72
10
73
6
40
0
40
0
40
0
40
0
40
0.0098332535490025
40
0.0098332535490025
40
1
40
1
40
1
40
1
41
1
10
29.8933156645823
20
-25.3565053428157
30
0
41
1
10
29.8933048709579
20
-25.3565423986615
30
0
41
1
10
29.8932940640036
20
-25.3565794591095
30
0
41
1
10
29.8921787916378
20
-25.3603998417825
30
0
41
1
10
29.8909390960634
20
-25.3642400382597
30
0
41
1
10
29.8895651857753
20
-25.3681402478397
30
0
0
SPLINE
5
119
100
AcDbEntity
8
SK1
62
256
6
ByLayer
370
13
48
1
60
0
100
AcDbSpline
70
4
71
3
72
39
73
35
40
0
40
0
40
0
40
0
40
0.014396663624551
40
0.0429615543892667
40
0.0715264451539824
40
0.100091335918698
40
0.15722111744813
40
0.214350898977561
40
0.242915789742277
40
0.271480680506992
40
0.328610462036424
40
0.35717535280114
40
0.385740243565855
40
0.414305134330571
40
0.442870025095287
40
0.471434915860003
40
0.48571736124236
40
0.499999806624718
40
0.514282252007076
40
0.528564697389434
40
0.55712958815415
40
0.585694478918865
40
0.614259369683581
40
0.642824260448297
40
0.671389151213012
40
0.728518932742444
40
0.75708382350716
40
0.785648714271875
40
0.842778495801307
40
0.899908277330738
40
0.928473168095454
40
0.95703805886017
40
0.985602949624885
40
1
40
1
40
1
40
1
41
1
10
-1.7950399779393
20
17.3257551204099
30
0
41
1
10
-1.7950399779393
20
17.3192800092779
30
0
41
1
10
-1.7950399779393
20
17.2795195297888
30
0
41
1
10
-1.7950399779393
20
17.1188450441766
30
0
41
1
10
-1.79503997793927
20
16.7916722325964
30
0
41
1
10
-1.79503997793932
20
16.1913785074866
30
0
41
1
10
-1.79503997793927
20
15.1570319640165
30
0
41
1
10
-1.7950399779393
20
13.785619970132
30
0
41
1
10
-1.79503997793927
20
12.500267964077
30
0
41
1
10
-1.79503997793932
20
11.0940004239179
30
0
41
1
10
-1.7950399779393
20
9.51267503388604
30
0
41
1
10
-1.7950399779393
20
7.75839234481921
30
0
41
1
10
-1.7950399779393
20
6.35944481918483
30
0
41
1
10
-1.7950399779393
20
4.87813814654285
30
0
41
1
10
-1.7950399779393
20
3.31755142876628
30
0
41
1
10
-1.7950399779393
20
1.95744888431975
30
0
41
1
10
-1.79503997793932
20
0.842183896938707
30
0
41
1
10
-1.79503997793932
20
5.01241004E-08
30
0
41
1
10
-1.79503997793932
20
-0.842183835089685
30
0
41
1
10
-1.79503997793932
20
-1.95744890560619
30
0
41
1
10
-1.7950399779393
20
-3.31755135272852
30
0
41
1
10
-1.7950399779393
20
-4.87813783770071
30
0
41
1
10
-1.7950399779393
20
-6.35944493307977
30
0
41
1
10
-1.7950399779393
20
-7.75839217523463
30
0
41
1
10
-1.7950399779393
20
-9.51267484843632
30
0
41
1
10
-1.79503997793935
20
-11.0940004136039
30
0
41
1
10
-1.7950399779393
20
-12.5002678139024
30
0
41
1
10
-1.7950399779393
20
-13.7856203428615
30
0
41
1
10
-1.7950399779393
20
-15.1570315468654
30
0
41
1
10
-1.79503997793935
20
-16.191379274722
30
0
41
1
10
-1.7950399779393
20
-16.7916721035532
30
0
41
1
10
-1.79503997793932
20
-17.118845366722
30
0
41
1
10
-1.79503997793932
20
-17.2795209560017
30
0
41
1
10
-1.79503997793932
20
-17.319281035717
30
0
41
1
10
-1.7950399779393
20
-17.3257558791629
30
0
0
SPLINE
5
11A
100
AcDbEntity
8
1
62
256
6
ByLayer
370
13
48
1
60
0
100
AcDbSpline
70
4
71
3
72
19
73
15
40
0
40
0
40
0
40
0
40
0.0636030563900973
40
0.132240029834551
40
0.200877003279004
40
0.338150950167911
40
0.406787923612364
40
0.475424897056817
40
0.612698843945724
40
0.74997279083463
40
0.818609764279084
40
0.887246737723537
40
0.95588371116799
40
1
40
1
40
1
40
1
41
0.874315756983011
10
-0.0999999999991903
20
5.00637906473341
30
0
41
0.874315756983011
10
-0.0999999999991903
20
5.47638304757541
30
0
41
0.874315756983011
10
-0.0999999999991903
20
6.42948063682265
30
0
41
0.874315756983011
10
-0.0999999999991903
20
7.79890847629959
30
0
41
0.874315756983011
10
-0.0999999999991903
20
9.55823322924898
30
0
41
0.874315756983011
10
-0.0999999999992229
20
11.1445488648089
30
0
41
0.874315756983011
10
-0.0999999999991578
20
12.5542818664599
30
0
41
0.874315756983011
10
-0.0999999999991903
20
13.8427216402308
30
0
41
0.874315756983011
10
-0.0999999999991578
20
15.2178107228901
30
0
41
0.874315756983011
10
-0.0999999999992229
20
16.2550178167794
30
0
41
0.874315756983011
10
-0.0999999999991578
20
16.8568872405413
30
0
41
0.874315756983011
10
-0.0999999999991903
20
17.1850465048953
30
0
41
0.874315756983011
10
-0.0999999999992229
20
17.3551845939166
30
0
41
0.874315756983011
10
-0.0999999999991903
20
17.393027844704
30
0
41
0.874315756983011
10
-0.0999999999991903
20
17.3964380647297
30
0
0
SPLINE
5
11B
100
AcDbEntity
8
1
62
256
6
ByLayer
370
13
48
1
60
0
100
AcDbSpline
70
4
71
3
72
19
73
15
40
0
40
0
40
0
40
0
40
0.0569804040323752
40
0.124693665087963
40
0.19240692614355
40
0.260120187199138
40
0.395546709310313
40
0.530973231421488
40
0.598686492477076
40
0.666399753532663
40
0.801826275643839
40
0.869539536699426
40
0.937252797755014
40
1
40
1
40
1
40
1
41
0.874315756982995
10
-0.0999999999992247
20
-17.3963031203885
30
0
41
0.874315756982995
10
-0.0999999999991921
20
-17.4011908300645
30
0
41
0.874315756982995
10
-0.0999999999991921
20
-17.3679803839929
30
0
41
0.874315756982995
10
-0.0999999999991921
20
-17.1850468253526
30
0
41
0.874315756982995
10
-0.0999999999991596
20
-16.8568871117642
30
0
41
0.874315756982995
10
-0.0999999999992572
20
-16.2550185850411
30
0
41
0.874315756982995
10
-0.0999999999991596
20
-15.2178103023722
30
0
41
0.874315756982995
10
-0.0999999999991921
20
-13.8427220143334
30
0
41
0.874315756982995
10
-0.0999999999991596
20
-12.5542817120651
30
0
41
0.874315756982995
10
-0.0999999999992572
20
-11.1445488540046
30
0
41
0.874315756982995
10
-0.0999999999991921
20
-9.55823304124386
30
0
41
0.874315756982995
10
-0.0999999999991921
20
-7.79890831425167
30
0
41
0.874315756982995
10
-0.0999999999991921
20
-6.42947996334211
30
0
41
0.874315756982995
10
-0.0999999999991921
20
-5.47638125605621
30
0
41
0.874315756982995
10
-0.0999999999991921
20
-5.00637635280604
30
0
0
SPLINE
5
11C
100
AcDbEntity
8
SK1
62
256
6
ByLayer
370
13
48
1
60
0
100
AcDbSpline
70
4
71
3
72
19
73
15
40
0
40
0
40
0
40
0
40
0.0596866936215632
40
0.129401785699901
40
0.199116877778239
40
0.338547061934916
40
0.408262154013254
40
0.477977246091592
40
0.617407430248269
40
0.756837614404945
40
0.826552706483283
40
0.896267798561621
40
0.96598289063996
40
1
40
1
40
1
40
1
41
1
10
-0.194976888875288
20
-5.10125086896662
30
0
41
1
10
-0.194976888875288
20
-5.53313428609079
30
0
41
1
10
-0.194976888875288
20
-6.44811450197946
30
0
41
1
10
-0.194976888875288
20
-7.78272641346848
30
0
41
1
10
-0.194976888875288
20
-9.54003737468338
30
0
41
1
10
-0.194976888875317
20
-11.1243601127486
30
0
41
1
10
-0.19497688887526
20
-12.5327088879465
30
0
41
1
10
-0.194976888875288
20
-13.8199159522374
30
0
41
1
10
-0.19497688887526
20
-15.1935356351606
30
0
41
1
10
-0.194976888875317
20
-16.2296014295451
30
0
41
1
10
-0.19497688887526
20
-16.8308406320639
30
0
41
1
10
-0.194976888875288
20
-17.1586063633231
30
0
41
1
10
-0.194976888875288
20
-17.318567836834
30
0
41
1
10
-0.194976888875288
20
-17.3585862137799
30
0
41
1
10
-0.194976888875317
20
-17.3652898688806
30
0
0
SPLINE
5
11D
100
AcDbEntity
8
SK1
62
256
6
ByLayer
370
13
48
1
60
0
100
AcDbSpline
70
4
71
3
72
19
73
15
40
0
40
0
40
0
40
0
40
0.0625584543327398
40
0.130068149816979
40
0.197577845301218
40
0.332597236269695
40
0.400106931753934
40
0.467616627238173
40
0.602636018206651
40
0.737655409175128
40
0.805165104659367
40
0.872674800143606
40
0.940184495627845
40
1
40
1
40
1
40
1
41
0.874315756983009
10
-0.0999999999991905
20
5.00637906473345
30
0
41
0.874315756983009
10
-0.0999999999991905
20
5.47638304757542
30
0
41
0.874315756983009
10
-0.0999999999991905
20
6.42948063682266
30
0
41
0.874315756983009
10
-0.0999999999991905
20
7.7989084762996
30
0
41
0.874315756983009
10
-0.0999999999991905
20
9.558233229249
30
0
41
0.874315756983009
10
-0.099999999999223
20
11.1445488648089
30
0
41
0.874315756983009
10
-0.0999999999991905
20
12.5542818664599
30
0
41
0.874315756983009
10
-0.0999999999991905
20
13.8427216402309
30
0
41
0.874315756983009
10
-0.0999999999991905
20
15.2178107228901
30
0
41
0.874315756983009
10
-0.099999999999223
20
16.2550178167794
30
0
41
0.874315756983009
10
-0.0999999999991905
20
16.8568872405413
30
0
41
0.874315756983009
10
-0.0999999999991905
20
17.1850465048953
30
0
41
0.874315756983009
10
-0.099999999999158
20
17.3708467847906
30
0
41
0.874315756983009
10
-0.099999999999158
20
17.4027470152232
30
0
41
0.874315756983009
10
-0.0999999999991905
20
17.3953581181678
30
0
0
SPLINE
5
11E
100
AcDbEntity
8
SK1
62
256
6
ByLayer
370
13
48
1
60
0
100
AcDbSpline
70
4
71
3
72
19
73
15
40
0
40
0
40
0
40
0
40
0.0598335069739203
40
0.127341901762545
40
0.194850296551169
40
0.262358691339793
40
0.397375480917041
40
0.532392270494289
40
0.599900665282913
40
0.667409060071537
40
0.802425849648786
40
0.86993424443741
40
0.937442639226034
40
1
40
1
40
1
40
1
41
0.874315756982995
10
-0.0999999999991921
20
-17.3953511202037
30
0
41
0.874315756982995
10
-0.0999999999991596
20
-17.4027567714077
30
0
41
0.874315756982995
10
-0.0999999999991921
20
-17.3708656466431
30
0
41
0.874315756982995
10
-0.0999999999991921
20
-17.1850468253526
30
0
41
0.874315756982995
10
-0.0999999999991596
20
-16.8568871117642
30
0
41
0.874315756982995
10
-0.0999999999992572
20
-16.2550185850411
30
0
41
0.874315756982995
10
-0.0999999999991596
20
-15.2178103023722
30
0
41
0.874315756982995
10
-0.0999999999991921
20
-13.8427220143334
30
0
41
0.874315756982995
10
-0.0999999999991596
20
-12.5542817120651
30
0
41
0.874315756982995
10
-0.0999999999992572
20
-11.1445488540046
30
0
41
0.874315756982995
10
-0.0999999999991921
20
-9.55823304124386
30
0
41
0.874315756982995
10
-0.0999999999991921
20
-7.79890831425167
30
0
41
0.874315756982995
10
-0.0999999999991596
20
-6.42947996334211
30
0
41
0.874315756982995
10
-0.0999999999991921
20
-5.47638125605625
30
0
41
0.874315756982995
10
-0.0999999999991921
20
-5.00637635280604
30
0
0
SPLINE
5
11F
100
AcDbEntity
8
1
62
256
6
ByLayer
370
13
48
1
60
0
100
AcDbSpline
70
4
71
3
72
16
73
12
40
0
40
0
40
0
40
0
40
0.461208588217097
40
0.461208588217097
40
0.643534962278537
40
0.643534962278537
40
0.828408472975271
40
0.828408472975271
40
0.943003644159971
40
0.943003644159971
40
1
40
1
40
1
40
1
41
1
10
11.8943375672973
20
8.05584836782819
30
0
41
1
10
11.866050391515
20
7.95080268681488
30
0
41
1
10
11.8273339192907
20
7.84628670970841
30
0
41
1
10
11.7473160248314
20
7.71442469145163
30
0
41
1
10
11.7212784637476
20
7.67825379650768
30
0
41
1
10
11.6606543989163
20
7.61290523367268
30
0
41
1
10
11.6251722226873
20
7.58305923051449
30
0
41
1
10
11.5599225851957
20
7.54855881865632
30
0
41
1
10
11.5324782774942
20
7.5385201810233
30
0
41
1
10
11.4901684747698
20
7.53097042135295
30
0
41
1
10
11.4757173930753
20
7.52966679426513
30
0
41
1
10
11.4613248654051
20
7.52966679426513
30
0
0
SPLINE
5
120
100
AcDbEntity
8
1
62
256
6
ByLayer
370
13
48
1
60
0
100
AcDbSpline
70
4
71
3
72
18
73
14
40
0
40
0
40
0
40
0
40
0.0042966654103689
40
0.0042966654103689
40
0.0267258293022332
40
0.0267258293022332
40
0.055731966068069
40
0.055731966068069
40
0.106446024543929
40
0.106446024543929
40
0.264762488061437
40
0.264762488061437
40
1
40
1
40
1
40
1
41
1
10
-0.0999999999997385
20
5.00637906473318
30
0
41
1
10
-0.0992197695732386
20
5.00653036686819
30
0
41
1
10
-0.098440439041326
20
5.00671116917371
30
0
41
1
10
-0.093655000231962
20
5.00800667379823
30
0
41
1
10
-0.0896865034612517
20
5.00992758750431
30
0
41
1
10
-0.0813787136888493
20
5.01564999887194
30
0
41
1
10
-0.0771254542123643
20
5.01988425829623
30
0
41
1
10
-0.066890972810171
20
5.03253319785671
30
0
41
1
10
-0.0616757119723843
20
5.04189507305239
30
0
41
1
10
-0.0435256268499984
20
5.08091090605146
30
0
41
1
10
-0.0358776288922229
20
5.11311220781042
30
0
41
1
10
-0.000812698296329
20
5.29017319543095
30
0
41
1
10
0
20
5.43661415624996
30
0
41
1
10
0
20
5.57923236301659
30
0
0
SPLINE
5
121
100
AcDbEntity
8
1
62
256
6
ByLayer
370
13
48
1
60
0
100
AcDbSpline
70
4
71
3
72
8
73
4
40
0
40
0
40
0
40
0
40
1
40
1
40
1
40
1
41
1
10
20.0867006124148
20
-19.9510136847593
30
0
41
1
10
20.0901225279692
20
-20.2470996122335
30
0
41
1
10
20.1520249787783
20
-20.5338381376117
30
0
41
1
10
20.2792076144253
20
-20.797219843749
30
0
0
SPLINE
5
122
100
AcDbEntity
8
1
62
256
6
ByLayer
370
13
48
1
60
0
100
AcDbSpline
70
4
71
3
72
16
73
12
40
0
40
0
40
0
40
0
40
0.111430279628034
40
0.111430279628034
40
0.248747543515433
40
0.248747543515433
40
0.465535329195232
40
0.465535329195232
40
0.883855351867503
40
0.883855351867503
40
1
40
1
40
1
40
1
41
1
10
11.4613248654051
20
-7.52966679426527
30
0
41
1
10
11.4891847159941
20
-7.52966679426527
30
0
41
1
10
11.5173911427754
20
-7.53471706780883
30
0
41
1
10
11.5758492032392
20
-7.55489210221054
30
0
41
1
10
11.6060413892305
20
-7.57218953888469
30
0
41
1
10
11.6751537543575
20
-7.62460019394115
30
0
41
1
10
11.7107854085704
20
-7.66489294253932
30
0
41
1
10
11.7989938907459
20
-7.78941367630378
30
0
41
1
10
11.8397320068508
20
-7.88247511004173
30
0
41
1
10
11.8792917015267
20
-8.00269269538035
30
0
41
1
10
11.887161598573
20
-8.02920008991606
30
0
41
1
10
11.8943375672975
20
-8.05584836782799
30
0
0
SPLINE
5
123
100
AcDbEntity
8
1
62
256
6
ByLayer
370
13
48
1
60
0
100
AcDbSpline
70
4
71
3
72
8
73
4
40
0
40
0
40
0
40
0
40
1
40
1
40
1
40
1
41
1
10
45.45
20
-28.3341017227781
30
0
41
1
10
45.298643822393
20
-28.3341017227781
30
0
41
1
10
45.1459558977799
20
-28.3337473499619
30
0
41
1
10
45
20
-28.3331127056031
30
0
0
SPLINE
5
124
100
AcDbEntity
8
1
62
256
6
ByLayer
370
13
48
1
60
0
100
AcDbSpline
70
4
71
3
72
14
73
10
40
0
40
0
40
0
40
0
40
0.500000000000001
40
0.500000000000001
40
0.750000000000001
40
0.750000000000001
40
0.875
40
0.875
40
1
40
1
40
1
40
1
41
1
10
24.0865483046715
20
0.0011731038295295
30
0
41
1
10
22.9002697684593
20
0.0299097078417674
30
0
41
1
10
21.8673111997827
20
0.598515942305085
30
0
41
1
10
20.8940192259024
20
1.67331249178204
30
0
41
1
10
20.6528062410344
20
2.06484580894784
30
0
41
1
10
20.3931596522766
20
2.70136207963043
30
0
41
1
10
20.3232280307105
20
2.92349141933886
30
0
41
1
10
20.2207639791511
20
3.4022452559208
30
0
41
1
10
20.1861593597447
20
3.66825025792602
30
0
41
1
10
20.1835688448922
20
3.96509385800655
30
0
0
SPLINE
5
125
100
AcDbEntity
8
1
62
256
6
ByLayer
370
13
48
1
60
0
100
AcDbSpline
70
4
71
3
72
8
73
4
40
0
40
0
40
0
40
0
40
1
40
1
40
1
40
1
41
1
10
21.4383186059722
20
-25.5639024148979
30
0
41
1
10
21.4460353311323
20
-25.5922743539107
30
0
41
1
10
21.4537877776949
20
-25.6211739726881
30
0
41
1
10
21.4614148664632
20
-25.65
30
0
0
SPLINE
5
126
100
AcDbEntity
8
1
62
256
6
ByLayer
370
13
48
1
60
0
100
AcDbSpline
70
4
71
3
72
16
73
12
40
0
40
0
40
0
40
0
40
0.11143027962803
40
0.11143027962803
40
0.248747543515448
40
0.248747543515448
40
0.465535329195226
40
0.465535329195226
40
0.883855351867558
40
0.883855351867558
40
1
40
1
40
1
40
1
41
1
10
11.4613248654051
20
23.8391299750502
30
0
41
1
10
11.4891847159941
20
23.8391299750502
30
0
41
1
10
11.5173911427754
20
23.8375361275706
30
0
41
1
10
11.5758492032392
20
23.8311506585889
30
0
41
1
10
11.6060413892305
20
23.8256668770179
30
0
41
1
10
11.6751537543575
20
23.8089605749787
30
0
41
1
10
11.7107854085704
20
23.7960379707759
30
0
41
1
10
11.7989938907459
20
23.7556824246831
30
0
41
1
10
11.8397320068508
20
23.725016539998
30
0
41
1
10
11.8792917015267
20
23.6845451449631
30
0
41
1
10
11.887161598573
20
23.6755726082077
30
0
41
1
10
11.8943375672975
20
23.6665017920808
30
0
0
SPLINE
5
127
100
AcDbEntity
8
1
62
256
6
ByLayer
370
13
48
1
60
0
100
AcDbSpline
70
4
71
3
72
8
73
4
40
0
40
0
40
0
40
0
40
1
40
1
40
1
40
1
41
1
10
21.4383186059722
20
-25.15
30
0
41
1
10
21.5566677798284
20
-25.15
30
0
41
1
10
21.7260264367998
20
-25.15
30
0
41
1
10
21.9367547998778
20
-25.15
30
0
0
SPLINE
5
128
100
AcDbEntity
8
1
62
256
6
ByLayer
370
13
48
1
60
0
100
AcDbSpline
70
4
71
3
72
16
73
12
40
0
40
0
40
0
40
0
40
0.46120858821705
40
0.46120858821705
40
0.643534962278509
40
0.643534962278509
40
0.828408472975252
40
0.828408472975252
40
0.943003644159962
40
0.943003644159962
40
1
40
1
40
1
40
1
41
1
10
11.8943375672973
20
-23.6665017920807
30
0
41
1
10
11.866050391515
20
-23.7022583261631
30
0
41
1
10
11.8273339192907
20
-23.7370095736337
30
0
41
1
10
11.7473160248314
20
-23.7800170858173
30
0
41
1
10
11.7212784637476
20
-23.7917125768792
30
0
41
1
10
11.6606543989163
20
-23.812703768495
30
0
41
1
10
11.6251722226873
20
-23.8222104320953
30
0
41
1
10
11.5599225851957
20
-23.8331586856491
30
0
41
1
10
11.5324782774943
20
-23.8363323784729
30
0
41
1
10
11.4901684747698
20
-23.8387183279985
30
0
41
1
10
11.4757173930753
20
-23.8391299750504
30
0
41
1
10
11.4613248654051
20
-23.8391299750504
30
0
0
SPLINE
5
129
100
AcDbEntity
8
1
62
256
6
ByLayer
370
13
48
1
60
0
100
AcDbSpline
70
4
71
3
72
8
73
4
40
0
40
0
40
0
40
0
40
1
40
1
40
1
40
1
41
1
10
21.4383186059722
20
-22.8866549886005
30
0
41
1
10
21.5989838474877
20
-23.6399863294193
30
0
41
1
10
21.7656167157514
20
-24.3944294184166
30
0
41
1
10
21.9367547998778
20
-25.15
30
0
0
SPLINE
5
12A
100
AcDbEntity
8
1
62
256
6
ByLayer
370
13
48
1
60
0
100
AcDbSpline
70
4
71
3
72
16
73
12
40
0
40
0
40
0
40
0
40
0.461208588216991
40
0.461208588216991
40
0.643534962278459
40
0.643534962278459
40
0.828408472975219
40
0.828408472975219
40
0.943003644159916
40
0.943003644159916
40
1
40
1
40
1
40
1
41
1
10
8.10566243270245
20
23.6665017920807
30
0
41
1
10
8.13394960848467
20
23.702258326163
30
0
41
1
10
8.17266608070901
20
23.7370095736336
30
0
41
1
10
8.25268397516822
20
23.7800170858172
30
0
41
1
10
8.27872153625205
20
23.7917125768791
30
0
41
1
10
8.33934560108332
20
23.8127037684949
30
0
41
1
10
8.37482777731233
20
23.8222104320952
30
0
41
1
10
8.44007741480388
20
23.8331586856491
30
0
41
1
10
8.4675217225053
20
23.8363323784728
30
0
41
1
10
8.50983152522971
20
23.8387183279984
30
0
41
1
10
8.52428260692429
20
23.8391299750503
30
0
41
1
10
8.53867513459446
20
23.8391299750503
30
0
0
SPLINE
5
12B
100
AcDbEntity
8
1
62
256
6
ByLayer
370
13
48
1
60
0
100
AcDbSpline
70
4
71
3
72
8
73
4
40
0
40
0
40
0
40
0
40
1
40
1
40
1
40
1
41
1
10
23.3513090706548
20
-32.7733318863482
30
0
41
1
10
22.720085396661
20
-30.3992103016981
30
0
41
1
10
22.0897783272044
20
-28.0248540014769
30
0
41
1
10
21.4614148664632
20
-25.65
30
0
0
SPLINE
5
12C
100
AcDbEntity
8
1
62
256
6
ByLayer
370
13
48
1
60
0
100
AcDbSpline
70
4
71
3
72
12
73
8
40
0
40
0
40
0
40
0
40
0.489594493765414
40
0.489594493765414
40
0.979164862094775
40
0.979164862094775
40
1
40
1
40
1
40
1
41
1
10
25.9
20
-32.7733318863482
30
0
41
1
10
26.3697813608099
20
-32.7733318863482
30
0
41
1
10
26.8460399833562
20
-32.7693383367333
30
0
41
1
10
27.7325973029409
20
-32.7552855210645
30
0
41
1
10
28.1551208210326
20
-32.7450905203223
30
0
41
1
10
28.5378217304362
20
-32.7337074957554
30
0
41
1
10
28.5535497777429
20
-32.733235512948
30
0
41
1
10
28.569184318541
20
-32.7327622958672
30
0
0
SPLINE
5
12D
100
AcDbEntity
8
1
62
256
6
ByLayer
370
13
48
1
60
0
100
AcDbSpline
70
4
71
3
72
12
73
8
40
0
40
0
40
0
40
0
40
0.198671787018815
40
0.198671787018815
40
0.512302827872757
40
0.512302827872757
40
1
40
1
40
1
40
1
41
1
10
21.4383186059722
20
-22.8866549886005
30
0
41
1
10
21.3967685460961
20
-22.691833992956
30
0
41
1
10
21.327526704236
20
-22.5063927775745
30
0
41
1
10
21.1228929710444
20
-22.0735853151121
30
0
41
1
10
20.9696763886826
20
-21.8429870109918
30
0
41
1
10
20.6062206815736
20
-21.324543257677
30
0
41
1
10
20.4072985447423
20
-21.0624825315049
30
0
41
1
10
20.2792076144253
20
-20.797219843749
30
0
0
SPLINE
5
12E
100
AcDbEntity
8
1
62
256
6
ByLayer
370
13
48
1
60
0
100
AcDbSpline
70
4
71
3
72
12
73
8
40
0
40
0
40
0
40
0
40
0.180556962169319
40
0.180556962169319
40
0.733077151848177
40
0.733077151848177
40
1
40
1
40
1
40
1
41
1
10
29.9792156108742
20
-25.65
30
0
41
1
10
29.9792156108742
20
-25.6318331580369
30
0
41
1
10
29.9781928228407
20
-25.6136378265921
30
0
41
1
10
29.9699965068578
20
-25.5409277985621
30
0
41
1
10
29.954196685626
20
-25.4865964013315
30
0
41
1
10
29.9185593643427
20
-25.4130950952138
30
0
41
1
10
29.904918810002
20
-25.3899614567314
30
0
41
1
10
29.8895651857754
20
-25.3681402478397
30
0
0
SPLINE
5
12F
100
AcDbEntity
8
1
62
256
6
ByLayer
370
13
48
1
60
0
100
AcDbSpline
70
4
71
3
72
16
73
12
40
0
40
0
40
0
40
0
40
0.241238964916131
40
0.241238964916131
40
0.482011989760929
40
0.482011989760929
40
0.74823361931689
40
0.74823361931689
40
0.947903698115443
40
0.947903698115443
40
1
40
1
40
1
40
1
41
1
10
21.4383186059722
20
-25.5639024148979
30
0
41
1
10
21.4228589269873
20
-25.5070621024313
30
0
41
1
10
21.4027173063031
20
-25.4524634215031
30
0
41
1
10
21.3577422028373
20
-25.356040789705
30
0
41
1
10
21.3323676591077
20
-25.3128310968322
30
0
41
1
10
21.2793656845292
20
-25.2370047477143
30
0
41
1
10
21.2509223915847
20
-25.2047260976393
30
0
41
1
10
21.2098309107478
20
-25.1662791813137
30
0
41
1
10
21.1947058249966
20
-25.1552934137918
30
0
41
1
10
21.1829627754251
20
-25.1505095970124
30
0
41
1
10
21.1808978747509
20
-25.1499999999997
30
0
41
1
10
21.1792720114709
20
-25.1499999999997
30
0
0
SPLINE
5
130
100
AcDbEntity
8
1
62
256
6
ByLayer
370
13
48
1
60
0
100
AcDbSpline
70
4
71
3
72
20
73
16
40
0
40
0
40
0
40
0
40
0.0078056482630764
40
0.0078056482630764
40
0.0178791649910227
40
0.0178791649910227
40
0.0421325437821704
40
0.0421325437821704
40
0.134068845820582
40
0.134068845820582
40
0.4866491138745
40
0.4866491138745
40
0.838559076532162
40
0.838559076532162
40
1
40
1
40
1
40
1
41
1
10
28.569184318541
20
-25.6499999999999
30
0
41
1
10
28.569184318541
20
-25.6433851841126
30
0
41
1
10
28.5680071478996
20
-25.6366851518018
30
0
41
1
10
28.5633820944978
20
-25.6225771543724
30
0
41
1
10
28.5593818811551
20
-25.6152420578063
30
0
41
1
10
28.5439533506108
20
-25.5929174621984
30
0
41
1
10
28.5298267419238
20
-25.5804408906991
30
0
41
1
10
28.460638857347
20
-25.5278287898489
30
0
41
1
10
28.3969206142521
20
-25.5017610563752
30
0
41
1
10
28.0891405632376
20
-25.3831567134509
30
0
41
1
10
27.8136794286975
20
-25.3236719611035
30
0
41
1
10
27.250576881357
20
-25.2217703918831
30
0
41
1
10
26.9545865556016
20
-25.1836685477779
30
0
41
1
10
26.5300952771764
20
-25.1550904818651
30
0
41
1
10
26.396292467654
20
-25.15
30
0
41
1
10
26.26476832549
20
-25.15
30
0
0
SPLINE
5
131
100
AcDbEntity
8
1
62
256
6
ByLayer
370
13
48
1
60
0
100
AcDbSpline
70
4
71
3
72
10
73
6
40
0
40
0
40
0
40
0
40
0.0291057692186861
40
0.0291057692186861
40
1
40
1
40
1
40
1
41
1
10
28.569184318541
20
-32.7327622958672
30
0
41
1
10
28.5779190794893
20
-32.7325472225125
30
0
41
1
10
28.5866231992971
20
-32.7323310596052
30
0
41
1
10
28.8804956433379
20
-32.7249711294788
30
0
41
1
10
29.1350573186842
20
-32.7165629232046
30
0
41
1
10
29.3366985862022
20
-32.7086809962555
30
0
0
SPLINE
5
132
100
AcDbEntity
8
1
62
256
6
ByLayer
370
13
48
1
60
0
100
AcDbSpline
70
4
71
3
72
10
73
6
40
0
40
0
40
0
40
0
40
0.5
40
0.5
40
1
40
1
40
1
40
1
41
1
10
27.9954098932863
20
-38.887166076353
30
0
41
1
10
26.8892902020642
20
-37.1283317039441
30
0
41
1
10
25.8457696075667
20
-35.7008026704812
30
0
41
1
10
24.1877823079249
20
-33.6463838547297
30
0
41
1
10
23.5750250696361
20
-33.0066346271705
30
0
41
1
10
23.3513090706548
20
-32.7733318863483
30
0
0
SPLINE
5
133
100
AcDbEntity
8
1
62
256
6
ByLayer
370
13
48
1
60
0
100
AcDbSpline
70
4
71
3
72
16
73
12
40
0
40
0
40
0
40
0
40
0.111430279627965
40
0.111430279627965
40
0.248747543515385
40
0.248747543515385
40
0.46553532919517
40
0.46553532919517
40
0.883855351867492
40
0.883855351867492
40
1
40
1
40
1
40
1
41
1
10
8.53867513459451
20
-23.8391299750501
30
0
41
1
10
8.51081528400547
20
-23.8391299750501
30
0
41
1
10
8.48260885722419
20
-23.8375361275704
30
0
41
1
10
8.42415079676044
20
-23.8311506585888
30
0
41
1
10
8.39395861076918
20
-23.8256668770177
30
0
41
1
10
8.32484624564219
20
-23.8089605749785
30
0
41
1
10
8.28921459142933
20
-23.7960379707757
30
0
41
1
10
8.2010061092538
20
-23.755682424683
30
0
41
1
10
8.16026799314895
20
-23.7250165399979
30
0
41
1
10
8.12070829847301
20
-23.6845451449631
30
0
41
1
10
8.1128384014267
20
-23.6755726082075
30
0
41
1
10
8.10566243270227
20
-23.6665017920807
30
0
0
SPLINE
5
134
100
AcDbEntity
8
1
62
256
6
ByLayer
370
13
48
1
60
0
100
AcDbSpline
70
4
71
3
72
20
73
16
40
0
40
0
40
0
40
0
40
0.652474605511901
40
0.652474605511901
40
0.766835177338703
40
0.766835177338703
40
0.876224833834819
40
0.876224833834819
40
0.918003607426547
40
0.918003607426547
40
0.960405915357164
40
0.960405915357164
40
0.983973082557122
40
0.983973082557122
40
1
40
1
40
1
40
1
41
1
10
0
20
-5.57923036606783
30
0
41
1
10
0
20
-5.45236806529758
30
0
41
1
10
-0.0023498218235147
20
-5.32313166238606
30
0
41
1
10
-0.0246707618043729
20
-5.17055408176375
30
0
41
1
10
-0.0286524877797945
20
-5.14764204467326
30
0
41
1
10
-0.038756054602743
20
-5.10317866975302
30
0
41
1
10
-0.0446943059310172
20
-5.08137365774502
30
0
41
1
10
-0.0565046990696203
20
-5.05263962384052
30
0
41
1
10
-0.0602008880997289
20
-5.04479189761074
30
0
41
1
10
-0.0689466158998755
20
-5.02994474169307
30
0
41
1
10
-0.0741217536318857
20
-5.02277054209372
30
0
41
1
10
-0.0837193538487497
20
-5.01389488612983
30
0
41
1
10
-0.0875463815133344
20
-5.01114472817915
30
0
41
1
10
-0.0942946169950005
20
-5.00789011186188
30
0
41
1
10
-0.0971485272952748
20
-5.00692930938632
30
0
41
1
10
-0.0999999999998238
20
-5.00637635280572
30
0
0
SPLINE
5
135
100
AcDbEntity
8
1
62
256
6
ByLayer
370
13
48
1
60
0
100
AcDbSpline
70
4
71
3
72
12
73
8
40
0
40
0
40
0
40
0
40
0.358040279078397
40
0.358040279078397
40
0.735606440641046
40
0.735606440641046
40
1
40
1
40
1
40
1
41
1
10
61.4912000756549
20
-28.3405774352754
30
0
41
1
10
61.5314270392267
20
-28.3405569349815
30
0
41
1
10
61.5723064747115
20
-28.3406794407793
30
0
41
1
10
61.6513662009848
20
-28.3412158001933
30
0
41
1
10
61.6903629086895
20
-28.3416534321126
30
0
41
1
10
61.7485249833382
20
-28.3426402098974
30
0
41
1
10
61.7705599729062
20
-28.3431230028712
30
0
41
1
10
61.7897539280043
20
-28.3436691380839
30
0
0
SPLINE
5
136
100
AcDbEntity
8
1
62
256
6
ByLayer
370
13
48
1
60
0
100
AcDbSpline
70
4
71
3
72
16
73
12
40
0
40
0
40
0
40
0
40
0.461208588217094
40
0.461208588217094
40
0.643534962278536
40
0.643534962278536
40
0.828408472975266
40
0.828408472975266
40
0.943003644159974
40
0.943003644159974
40
1
40
1
40
1
40
1
41
1
10
8.10566243270242
20
-8.05584836782822
30
0
41
1
10
8.13394960848467
20
-7.95080268681494
30
0
41
1
10
8.17266608070904
20
-7.84628670970852
30
0
41
1
10
8.25268397516828
20
-7.7144246914518
30
0
41
1
10
8.27872153625208
20
-7.67825379650782
30
0
41
1
10
8.33934560108335
20
-7.61290523367285
30
0
41
1
10
8.37482777731236
20
-7.58305923051469
30
0
41
1
10
8.44007741480394
20
-7.54855881865652
30
0
41
1
10
8.46752172250535
20
-7.5385201810235
30
0
41
1
10
8.50983152522974
20
-7.53097042135318
30
0
41
1
10
8.52428260692429
20
-7.52966679426532
30
0
41
1
10
8.53867513459443
20
-7.52966679426532
30
0
0
SPLINE
5
137
100
AcDbEntity
8
1
62
256
6
ByLayer
370
13
48
1
60
0
100
AcDbSpline
70
4
71
3
72
16
73
12
40
0
40
0
40
0
40
0
40
0.111430279627962
40
0.111430279627962
40
0.248747543515378
40
0.248747543515378
40
0.465535329195153
40
0.465535329195153
40
0.883855351867471
40
0.883855351867471
40
1
40
1
40
1
40
1
41
1
10
8.53867513459451
20
7.52966679426578
30
0
41
1
10
8.51081528400547
20
7.52966679426578
30
0
41
1
10
8.48260885722419
20
7.53471706780931
30
0
41
1
10
8.42415079676044
20
7.55489210221103
30
0
41
1
10
8.39395861076918
20
7.5721895388852
30
0
41
1
10
8.32484624564222
20
7.62460019394163
30
0
41
1
10
8.28921459142933
20
7.66489294253978
30
0
41
1
10
8.2010061092538
20
7.78941367630418
30
0
41
1
10
8.16026799314895
20
7.88247511004212
30
0
41
1
10
8.12070829847303
20
8.00269269538069
30
0
41
1
10
8.11283840142673
20
8.0292000899164
30
0
41
1
10
8.10566243270227
20
8.05584836782833
30
0
0
SPLINE
5
138
100
AcDbEntity
8
1
62
256
6
ByLayer
370
13
48
1
60
0
100
AcDbSpline
70
4
71
3
72
8
73
4
40
0
40
0
40
0
40
0
40
1
40
1
40
1
40
1
41
1
10
52.0209421369983
20
-28.3445826183612
30
0
41
1
10
52.2155092311612
20
-28.3452527397436
30
0
41
1
10
52.4129339996796
20
-28.3455458377524
30
0
41
1
10
52.609344894378
20
-28.3454312629384
30
0
0
SPLINE
5
139
100
AcDbEntity
8
1
62
256
6
ByLayer
370
13
48
1
60
0
100
AcDbSpline
70
4
71
3
72
18
73
14
40
0
40
0
40
0
40
0
40
0.0975965413165436
40
0.0975965413165436
40
0.317077444756863
40
0.317077444756863
40
0.535860949622866
40
0.535860949622866
40
0.752137627656754
40
0.752137627656754
40
0.885285104598905
40
0.885285104598905
40
1
40
1
40
1
40
1
41
1
10
43.4
20
-27.6611476608289
30
0
41
1
10
43.4
20
-27.7434166752905
30
0
41
1
10
43.4062009122325
20
-27.8259160992359
30
0
41
1
10
43.4460423145394
20
-28.0893641779061
30
0
41
1
10
43.5054043392913
20
-28.2692645792201
30
0
41
1
10
43.6780510961737
20
-28.5939573398291
30
0
41
1
10
43.7936079208547
20
-28.7433920202486
30
0
41
1
10
44.0630172836242
20
-28.9897030742881
30
0
41
1
10
44.2202126849816
20
-29.0905795223653
30
0
41
1
10
44.4914083174412
20
-29.2046453122607
30
0
41
1
10
44.6006314625434
20
-29.2373993597311
30
0
41
1
10
44.8064222634611
20
-29.2756967527094
30
0
41
1
10
44.9034133184816
20
-29.2846515743655
30
0
41
1
10
45
20
-29.2846515743655
30
0
0
SPLINE
5
13A
100
AcDbEntity
8
SK1
62
256
6
ByLayer
370
13
48
1
60
0
100
AcDbSpline
70
4
71
3
72
12
73
8
40
0
40
0
40
0
40
0
40
0.5
40
0.5
40
0.75
40
0.75
40
1
40
1
40
1
40
1
41
1
10
-1.31543506509499
20
3.91027172665432
30
0
41
1
10
-1.24592839325507
20
4.29459561059773
30
0
41
1
10
-1.16331416991258
20
4.66760511763016
30
0
41
1
10
-0.926521435133083
20
5.19044404924699
30
0
41
1
10
-0.835622884145778
20
5.40735814273438
30
0
41
1
10
-0.419282266252338
20
5.50342856768921
30
0
41
1
10
-0.281321823101081
20
5.27372622909877
30
0
41
1
10
-0.194976888875288
20
5.10125345321296
30
0
0
SPLINE
5
13B
100
AcDbEntity
8
SK1
62
256
6
ByLayer
370
13
48
1
60
0
100
AcDbSpline
70
4
71
3
72
16
73
12
40
0
40
0
40
0
40
0
40
0.0294305708120445
40
0.0294305708120445
40
0.112170650046949
40
0.112170650046949
40
0.25737086239255
40
0.25737086239255
40
0.627341233899003
40
0.627341233899003
40
1
40
1
40
1
40
1
41
1
10
-0.0999999999999943
20
-5.00637635280569
30
0
41
1
10
-0.101387275046875
20
-5.00610733291816
30
0
41
1
10
-0.102781101628636
20
-5.00593123535424
30
0
41
1
10
-0.108056444598589
20
-5.00560398939302
30
0
41
1
10
-0.111930329251322
20
-5.00608221695759
30
0
41
1
10
-0.121996996497359
20
-5.00880668081447
30
0
41
1
10
-0.127948105958325
20
-5.0120852800101
30
0
41
1
10
-0.14704493476205
20
-5.02590151619029
30
0
41
1
10
-0.158144588366468
20
-5.03988585432541
30
0
41
1
10
-0.178024754257223
20
-5.06915995887081
30
0
41
1
10
-0.18684024243035
20
-5.08499801267388
30
0
41
1
10
-0.194976888875459
20
-5.10125086895348
30
0
0
SPLINE
5
13C
100
AcDbEntity
8
SK1
62
256
6
ByLayer
370
13
48
1
60
0
100
AcDbSpline
70
4
71
3
72
14
73
10
40
0
40
0
40
0
40
0
40
0.623257131482582
40
0.623257131482582
40
0.77557344944781
40
0.77557344944781
40
0.930958973254743
40
0.930958973254743
40
1
40
1
40
1
40
1
41
1
10
-0.19497688886949
20
5.10125345319452
30
0
41
1
10
-0.181437028789787
20
5.07420777560077
30
0
41
1
10
-0.166263939419508
20
5.04747373607401
30
0
41
1
10
-0.140897870623178
20
5.02184016772026
30
0
41
1
10
-0.135473818669311
20
5.0171619666267
30
0
41
1
10
-0.123549655232011
20
5.00963193359098
30
0
41
1
10
-0.11682696094519
20
5.00671644858744
30
0
41
1
10
-0.106552429142084
20
5.00563780872838
30
0
41
1
10
-0.103252786629355
20
5.00574828497247
30
0
41
1
10
-0.0999999999999943
20
5.00637906473313
30
0
0
SPLINE
5
13D
100
AcDbEntity
8
SK1
62
256
6
ByLayer
370
13
48
1
60
0
100
AcDbSpline
70
4
71
3
72
10
73
6
40
0
40
0
40
0
40
0
40
0.5
40
0.5
40
1
40
1
40
1
40
1
41
1
10
-1.31543506509499
20
-3.91026939581312
30
0
41
1
10
-1.53994575342875
20
-2.66888211580181
30
0
41
1
10
-1.72361848453113
20
-1.33806859990835
30
0
41
1
10
-1.722765541792
20
1.34789001624878
30
0
41
1
10
-1.5399701421899
20
2.66874784662466
30
0
41
1
10
-1.31543506509502
20
3.91027172665437
30
0
0
SPLINE
5
13E
100
AcDbEntity
8
SK1
62
256
6
ByLayer
370
13
48
1
60
0
100
AcDbSpline
70
4
71
3
72
24
73
20
40
0
40
0
40
0
40
0
40
0.0865398844437074
40
0.0865398844437074
40
0.174606808973714
40
0.174606808973714
40
0.204283232250739
40
0.204283232250739
40
0.234430378299063
40
0.234430378299063
40
0.260963086962208
40
0.260963086962208
40
0.29689425193274
40
0.29689425193274
40
0.362560401604356
40
0.362560401604356
40
0.577775078513839
40
0.577775078513839
40
1
40
1
40
1
40
1
41
1
10
-0.194976888875288
20
-5.10125086895545
30
0
41
1
10
-0.224592653870246
20
-5.16040801377187
30
0
41
1
10
-0.257595479757356
20
-5.21831140841573
30
0
41
1
10
-0.336150389877986
20
-5.32723274028891
30
0
41
1
10
-0.382542848167304
20
-5.38041105877855
30
0
41
1
10
-0.462321250315597
20
-5.43127550158042
30
0
41
1
10
-0.484592781963585
20
-5.44242526658465
30
0
41
1
10
-0.532132005846421
20
-5.45772783053675
30
0
41
1
10
-0.55814289945306
20
-5.46179903845928
30
0
41
1
10
-0.606278947725428
20
-5.46041947085894
30
0
41
1
10
-0.629034072907615
20
-5.45606086620418
30
0
41
1
10
-0.67887724018766
20
-5.43930436278217
30
0
41
1
10
-0.705546599495364
20
-5.42456927125326
30
0
41
1
10
-0.773100753634935
20
-5.37672942900605
30
0
41
1
10
-0.809617767336448
20
-5.33795142049769
30
0
41
1
10
-0.945846243999398
20
-5.16581622302243
30
0
41
1
10
-1.01284657594553
20
-5.01170528380615
30
0
41
1
10
-1.18434707470064
20
-4.55468826919963
30
0
41
1
10
-1.25671595113781
20
-4.2349450791919
30
0
41
1
10
-1.31543506509547
20
-3.91026939581314
30
0
0
SPLINE
5
13F
100
AcDbEntity
8
1
62
256
6
ByLayer
370
18
48
1
60
0
100
AcDbSpline
70
4
71
2
72
10
73
7
40
0
40
0
40
0
40
0.5
40
0.5
40
0.75
40
0.75
40
1
40
1
40
1
41
1
10
62.7489454154405
20
-30.072267476262
30
0
41
1
10
62.816539241663
20
-30.0917621635149
30
0
41
1
10
62.8642354827661
20
-30.1434857110098
30
0
41
1
10
62.8902224727178
20
-30.171666952926
30
0
41
1
10
62.9068593747274
20
-30.2075223538962
30
0
41
1
10
62.9248252361493
20
-30.2462418922267
30
0
41
1
10
62.92894619708
20
-30.289264413028
30
0
0
SPLINE
5
140
100
AcDbEntity
8
1
62
256
6
ByLayer
370
18
48
1
60
0
100
AcDbSpline
70
4
71
2
72
6
73
3
40
0
40
0
40
0
40
1
40
1
40
1
41
1
10
62.928946197118
20
-30.289264412942
30
0
41
1
10
62.93783748929
20
-30.3844834459669
30
0
41
1
10
62.9378609595285
20
-30.4799999993024
30
0
0
SPLINE
5
141
100
AcDbEntity
8
1
62
256
6
ByLayer
370
18
48
1
60
0
100
AcDbSpline
70
4
71
3
72
8
73
4
40
0
40
0
40
0
40
0
40
1
40
1
40
1
40
1
41
1
10
62.74894541545
20
-30.072267476298
30
0
41
1
10
62.6960031564367
20
-30.0538165335886
30
0
41
1
10
62.6430608974233
20
-30.0353655908793
30
0
41
1
10
62.59011863841
20
-30.01691464817
30
0
0
SPLINE
5
142
100
AcDbEntity
8
1
62
256
6
ByLayer
370
18
48
1
60
0
100
AcDbSpline
70
4
71
3
72
8
73
4
40
0
40
0
40
0
40
0
40
1
40
1
40
1
40
1
41
1
10
62.59011863841
20
-30.016914648177
30
0
41
1
10
62.5765866338566
20
-30.0066472427349
30
0
41
1
10
62.5630546293033
20
-29.9963798372928
30
0
41
1
10
62.54952262475
20
-29.9861124318506
30
0
0
SPLINE
5
143
100
AcDbEntity
8
1
62
256
6
ByLayer
370
18
48
1
60
0
100
AcDbSpline
70
4
71
2
72
6
73
3
40
0
40
0
40
0
40
1
40
1
40
1
41
1
10
62.748945415449
20
-30.927732523702
30
0
41
1
10
62.6679467190096
20
-30.9509847566732
30
0
41
1
10
62.5901186384095
20
-30.98308535183
30
0
0
SPLINE
5
144
100
AcDbEntity
8
1
62
256
6
ByLayer
370
18
48
1
60
0
100
AcDbSpline
70
4
71
2
72
6
73
3
40
0
40
0
40
0
40
1
40
1
40
1
41
1
10
62.5901186384085
20
-30.983085351823
30
0
41
1
10
62.5658197594152
20
-30.9932546708635
30
0
41
1
10
62.549522624748
20
-31.013887568149
30
0
0
SPLINE
5
145
100
AcDbEntity
8
1
62
256
6
ByLayer
370
18
48
1
60
0
100
AcDbSpline
70
4
71
3
72
8
73
4
40
0
40
0
40
0
40
0
40
1
40
1
40
1
40
1
41
1
10
62.92894619712
20
-30.710735587058
30
0
41
1
10
62.93191778459
20
-30.6471570582712
30
0
41
1
10
62.93488937206
20
-30.5835785294844
30
0
41
1
10
62.93786095953
20
-30.5200000006976
30
0
0
SPLINE
5
146
100
AcDbEntity
8
1
62
256
6
ByLayer
370
18
48
1
60
0
100
AcDbSpline
70
4
71
3
72
9
73
5
40
0
40
0
40
0
40
0
40
0.508287091434109
40
1
40
1
40
1
40
1
41
1
10
62.74894541544
20
-30.927732523738
30
0
41
1
10
62.7914754634341
20
-30.9107098141082
30
0
41
1
10
62.8751487431826
20
-30.8772194699372
30
0
41
1
10
62.911212957408
20
-30.7656136227201
30
0
41
1
10
62.92894619708
20
-30.710735586972
30
0
0
LINE
5
70
100
AcDbEntity
8
1
62
256
6
ByLayer
370
13
48
1
60
0
100
AcDbLine
10
0.3
20
-25
30
0
11
20.279208
21
-25
31
0
39
0
210
0
220
0
230
1
0
LINE
5
72
100
AcDbEntity
8
1
62
256
6
ByLayer
370
13
48
1
60
0
100
AcDbLine
10
20
20
25
30
0
11
0.3
21
25
31
0
39
0
210
0
220
0
230
1
0
LINE
5
73
100
AcDbEntity
8
1
62
256
6
ByLayer
370
13
48
1
60
0
100
AcDbLine
10
0.3
20
25
30
0
11
0
21
24.7
31
0
39
0
210
0
220
0
230
1
0
LINE
5
74
100
AcDbEntity
8
1
62
256
6
ByLayer
370
13
48
1
60
0
100
AcDbLine
10
0
20
-24.7
30
0
11
0.3
21
-25
31
0
39
0
210
0
220
0
230
1
0
LINE
5
75
100
AcDbEntity
8
1
62
256
6
ByLayer
370
13
48
1
60
0
100
AcDbLine
10
30.1
20
-33.10599
30
0
11
52.363118
21
-33.10599
31
0
39
0
210
0
220
0
230
1
0
LINE
5
76
100
AcDbEntity
8
80
62
256
6
ByLayer
370
18
48
1
60
0
100
AcDbLine
10
0
20
0
30
0
11
-5
21
0
31
0
39
0
210
0
220
0
230
1
0
LINE
5
77
100
AcDbEntity
8
81
62
256
6
ByLayer
370
18
48
1
60
0
100
AcDbLine
10
70
20
-33
30
0
11
75
21
-33
31
0
39
0
210
0
220
0
230
1
0
LINE
5
78
100
AcDbEntity
8
1
62
256
6
ByLayer
370
13
48
1
60
0
100
AcDbLine
10
0.3
20
25
30
0
11
0.3
21
-25
31
0
39
0
210
0
220
0
230
1
0
LINE
5
79
100
AcDbEntity
8
1
62
256
6
ByLayer
370
13
48
1
60
0
100
AcDbLine
10
20.063901
20
17.67767
30
0
11
20
21
25
31
0
39
0
210
0
220
0
230
1
0
LINE
5
7A
100
AcDbEntity
8
1
62
256
6
ByLayer
370
13
48
1
60
0
100
AcDbLine
10
0
20
24.7
30
0
11
0
21
-24.7
31
0
39
0
210
0
220
0
230
1
0
LINE
5
7B
100
AcDbEntity
8
1
62
256
6
ByLayer
370
13
48
1
60
0
100
AcDbLine
10
20.086701
20
15.065094
30
0
11
20.086701
21
-19.951014
31
0
39
0
210
0
220
0
230
1
0
LINE
5
7C
100
AcDbEntity
8
1
62
256
6
ByLayer
370
13
48
1
60
0
100
AcDbLine
10
20.279208
20
-25
30
0
11
20.279208
21
-20.79722
31
0
39
0
210
0
220
0
230
1
0
LINE
5
7D
100
AcDbEntity
8
1
62
256
6
ByLayer
370
13
48
1
60
0
100
AcDbLine
10
11.894338
20
8.055848
30
0
11
11.894338
21
23.666502
31
0
39
0
210
0
220
0
230
1
0
LINE
5
7E
100
AcDbEntity
8
1
62
256
6
ByLayer
370
13
48
1
60
0
100
AcDbLine
10
11.461325
20
7.529667
30
0
11
11.461325
21
23.83913
31
0
39
0
210
0
220
0
230
1
0
LINE
5
7F
100
AcDbEntity
8
1
62
256
6
ByLayer
370
13
48
1
60
0
100
AcDbLine
10
8.538675
20
-23.83913
30
0
11
8.538675
21
-7.529667
31
0
39
0
210
0
220
0
230
1
0
LINE
5
80
100
AcDbEntity
8
1
62
256
6
ByLayer
370
13
48
1
60
0
100
AcDbLine
10
8.105662
20
-23.666502
30
0
11
8.105662
21
-8.055848
31
0
39
0
210
0
220
0
230
1
0
LINE
5
81
100
AcDbEntity
8
1
62
256
6
ByLayer
370
13
48
1
60
0
100
AcDbLine
10
11.894338
20
-23.666502
30
0
11
11.894338
21
-8.055848
31
0
39
0
210
0
220
0
230
1
0
LINE
5
82
100
AcDbEntity
8
SK1
62
256
6
ByLayer
370
13
48
1
60
0
100
AcDbLine
10
-0.194977
20
17.36866
30
0
11
-0.194977
21
17.365289
31
0
39
0
210
0
220
0
230
1
0
LINE
5
84
100
AcDbEntity
8
1
62
256
6
ByLayer
370
13
48
1
60
0
100
AcDbLine
10
25.9
20
-25.65
30
0
11
25.9
21
-25.15
31
0
39
0
210
0
220
0
230
1
0
LINE
5
85
100
AcDbEntity
8
1
62
256
6
ByLayer
370
13
48
1
60
0
100
AcDbLine
10
30.1
20
-33.10599
30
0
11
30.1
21
-31.30599
31
0
39
0
210
0
220
0
230
1
0
LINE
5
86
100
AcDbEntity
8
1
62
256
6
ByLayer
370
13
48
1
60
0
100
AcDbLine
10
21.461415
20
-25.65
30
0
11
25.9
21
-25.65
31
0
39
0
210
0
220
0
230
1
0
LINE
5
87
100
AcDbEntity
8
1
62
256
6
ByLayer
370
13
48
1
60
0
100
AcDbLine
10
29.649981
20
0
30
0
11
24.183417
21
0
31
0
39
0
210
0
220
0
230
1
0
LINE
5
88
100
AcDbEntity
8
1
62
256
6
ByLayer
370
13
48
1
60
0
100
AcDbLine
10
24.150018
20
-25.15
30
0
11
29.6
21
-25.15
31
0
39
0
210
0
220
0
230
1
0
LINE
5
89
100
AcDbEntity
8
1
62
256
6
ByLayer
370
13
48
1
60
0
100
AcDbLine
10
29.979216
20
-32.679736
30
0
11
30.100085
21
-32.679736
31
0
39
0
210
0
220
0
230
1
0
LINE
5
8A
100
AcDbEntity
8
1
62
256
6
ByLayer
370
13
48
1
60
0
100
AcDbLine
10
29.336699
20
-32.708681
30
0
11
29.336699
21
-25.149909
31
0
39
0
210
0
220
0
230
1
0
LINE
5
8B
100
AcDbEntity
8
1
62
256
6
ByLayer
370
13
48
1
60
0
100
AcDbLine
10
29.889565
20
-25.302738
30
0
11
29.889565
21
-25.36814
31
0
39
0
210
0
220
0
230
1
0
LINE
5
8C
100
AcDbEntity
8
SK1
62
256
6
ByLayer
370
13
48
1
60
0
100
AcDbLine
10
-1.79504
20
17.330272
30
0
11
-1.79504
21
17.325755
31
0
39
0
210
0
220
0
230
1
0
LINE
5
8D
100
AcDbEntity
8
SK1
62
256
6
ByLayer
370
13
48
1
60
0
100
AcDbLine
10
-1.79504
20
-17.325755
30
0
11
-1.79504
21
-17.330272
31
0
39
0
210
0
220
0
230
1
0
LINE
5
8E
100
AcDbEntity
8
1
62
256
6
ByLayer
370
13
48
1
60
0
100
AcDbLine
10
30.100072
20
-32.708681
30
0
11
29.336699
21
-32.708681
31
0
39
0
210
0
220
0
230
1
0
LINE
5
8F
100
AcDbEntity
8
1
62
256
6
ByLayer
370
13
48
1
60
0
100
AcDbLine
10
60.462968
20
-32.808886
30
0
11
57.956267
21
-32.808886
31
0
39
0
210
0
220
0
230
1
0
LINE
5
90
100
AcDbEntity
8
1
62
256
6
ByLayer
370
13
48
1
60
0
100
AcDbLine
10
65.476437
20
-32.803289
30
0
11
62.962948
21
-32.803289
31
0
39
0
210
0
220
0
230
1
0
LINE
5
91
100
AcDbEntity
8
1
62
256
6
ByLayer
370
13
48
1
60
0
100
AcDbLine
10
69
20
-32.969722
30
0
11
69
21
-33.118273
31
0
39
0
210
0
220
0
230
1
0
LINE
5
92
100
AcDbEntity
8
1
62
256
6
ByLayer
370
13
48
1
60
0
100
AcDbLine
10
8.105662
20
8.055848
30
0
11
8.105662
21
23.666502
31
0
39
0
210
0
220
0
230
1
0
LINE
5
93
100
AcDbEntity
8
1
62
256
6
ByLayer
370
13
48
1
60
0
100
AcDbLine
10
24.086548
20
-25.15
30
0
11
24.086548
21
0.001173
31
0
39
0
210
0
220
0
230
1
0
LINE
5
94
100
AcDbEntity
8
1
62
256
6
ByLayer
370
13
48
1
60
0
100
AcDbLine
10
62.962231
20
-32.599974
30
0
11
62.962948
21
-32.803289
31
0
39
0
210
0
220
0
230
1
0
LINE
5
95
100
AcDbEntity
8
1
62
256
6
ByLayer
370
13
48
1
60
0
100
AcDbLine
10
60.462663
20
-32.72241
30
0
11
60.462968
21
-32.808886
31
0
39
0
210
0
220
0
230
1
0
LINE
5
96
100
AcDbEntity
8
1
62
256
6
ByLayer
370
13
48
1
60
0
100
AcDbLine
10
21.438319
20
-25.15
30
0
11
21.438319
21
-22.886655
31
0
39
0
210
0
220
0
230
1
0
LINE
5
97
100
AcDbEntity
8
1
62
256
6
ByLayer
370
13
48
1
60
0
100
AcDbLine
10
45
20
-29.284652
30
0
11
45
21
-28.333113
31
0
39
0
210
0
220
0
230
1
0
LINE
5
98
100
AcDbEntity
8
1
62
256
6
ByLayer
370
13
48
1
60
0
100
AcDbLine
10
29.979216
20
-25.65
30
0
11
30.1
21
-25.65
31
0
39
0
210
0
220
0
230
1
0
LINE
5
99
100
AcDbEntity
8
1
62
256
6
ByLayer
370
13
48
1
60
0
100
AcDbLine
10
25.9
20
-32.773332
30
0
11
25.9
21
-25.65
31
0
39
0
210
0
220
0
230
1
0
LINE
5
9A
100
AcDbEntity
8
SK1
62
256
6
ByLayer
370
13
48
1
60
0
100
AcDbLine
10
-1.315435
20
-3.910269
30
0
11
-1.315435
21
3.910272
31
0
39
0
210
0
220
0
230
1
0
LINE
5
9B
100
AcDbEntity
8
SK1
62
256
6
ByLayer
370
13
48
1
60
0
100
AcDbLine
10
-0.194977
20
-17.36529
30
0
11
-0.194977
21
-17.36866
31
0
39
0
210
0
220
0
230
1
0
LINE
5
9C
100
AcDbEntity
8
1
62
256
6
ByLayer
370
13
48
1
60
0
100
AcDbLine
10
25.9
20
-25.65
30
0
11
28.569184
21
-25.65
31
0
39
0
210
0
220
0
230
1
0
LINE
5
9D
100
AcDbEntity
8
1
62
256
6
ByLayer
370
13
48
1
60
0
100
AcDbLine
10
8.538675
20
7.529667
30
0
11
8.538675
21
23.83913
31
0
39
0
210
0
220
0
230
1
0
LINE
5
9E
100
AcDbEntity
8
1
62
256
6
ByLayer
370
13
48
1
60
0
100
AcDbLine
10
11.461325
20
-23.83913
30
0
11
11.461325
21
-7.529667
31
0
39
0
210
0
220
0
230
1
0
LINE
5
9F
100
AcDbEntity
8
1
62
256
6
ByLayer
370
13
48
1
60
0
100
AcDbLine
10
48.935563
20
-31.30599
30
0
11
48.935563
21
-29.284652
31
0
39
0
210
0
220
0
230
1
0
LINE
5
A0
100
AcDbEntity
8
1
62
256
6
ByLayer
370
13
48
1
60
0
100
AcDbLine
10
59.5
20
-32.75519
30
0
11
59.5
21
-28.431078
31
0
39
0
210
0
220
0
230
1
0
LINE
5
A1
100
AcDbEntity
8
1
62
256
6
ByLayer
370
13
48
1
60
0
100
AcDbLine
10
24.086548
20
-25.15
30
0
11
21.936755
21
-25.15
31
0
39
0
210
0
220
0
230
1
0
LINE
5
A2
100
AcDbEntity
8
1
62
256
6
ByLayer
370
13
48
1
60
0
100
AcDbLine
10
62.124277
20
-30.97038
30
0
11
62.236182
21
-30.915923
31
0
39
0
210
0
220
0
230
1
0
LINE
5
A3
100
AcDbEntity
8
1
62
256
6
ByLayer
370
13
48
1
60
0
100
AcDbLine
10
62.31
20
-30.774969
30
0
11
62.31
21
-30.225031
31
0
39
0
210
0
220
0
230
1
0
LINE
5
A4
100
AcDbEntity
8
1
62
256
6
ByLayer
370
13
48
1
60
0
100
AcDbLine
10
-0.1
20
5.006379
30
0
11
-0.1
21
-5.006376
31
0
39
0
210
0
220
0
230
1
0
LINE
5
A5
100
AcDbEntity
8
1
62
256
6
ByLayer
370
13
48
1
60
0
100
AcDbLine
10
30.1
20
-31.30599
30
0
11
48.935563
21
-31.30599
31
0
39
0
210
0
220
0
230
1
0
LINE
5
A6
100
AcDbEntity
8
1
62
256
6
ByLayer
370
13
48
1
60
0
100
AcDbLine
10
24.15
20
0.00014
30
0
11
24.15
21
-25.15
31
0
39
0
210
0
220
0
230
1
0
LINE
5
A7
100
AcDbEntity
8
1
62
256
6
ByLayer
370
13
48
1
60
0
100
AcDbLine
10
61.840479
20
-32.690414
30
0
11
62.052163
21
-31.085287
31
0
39
0
210
0
220
0
230
1
0
LINE
5
A8
100
AcDbEntity
8
1
62
256
6
ByLayer
370
13
48
1
60
0
100
AcDbLine
10
48.404274
20
-28.334102
30
0
11
45.45
21
-28.334102
31
0
39
0
210
0
220
0
230
1
0
LINE
5
A9
100
AcDbEntity
8
1
62
256
6
ByLayer
370
13
48
1
60
0
100
AcDbLine
10
62.052163
20
-29.914713
30
0
11
61.845186
21
-28.345279
31
0
39
0
210
0
220
0
230
1
0
LINE
5
AA
100
AcDbEntity
8
1
62
256
6
ByLayer
370
13
48
1
60
0
100
AcDbLine
10
8.538675
20
23.83913
30
0
11
11.461325
21
23.83913
31
0
39
0
210
0
220
0
230
1
0
LINE
5
AB
100
AcDbEntity
8
1
62
256
6
ByLayer
370
13
48
1
60
0
100
AcDbLine
10
8.538675
20
-7.529667
30
0
11
11.461325
21
-7.529667
31
0
39
0
210
0
220
0
230
1
0
LINE
5
AC
100
AcDbEntity
8
1
62
256
6
ByLayer
370
13
48
1
60
0
100
AcDbLine
10
29.65
20
0
30
0
11
38.4
21
0
31
0
39
0
210
0
220
0
230
1
0
LINE
5
AD
100
AcDbEntity
8
1
62
256
6
ByLayer
370
13
48
1
60
0
100
AcDbLine
10
23.351309
20
-32.773332
30
0
11
25.9
21
-32.773332
31
0
39
0
210
0
220
0
230
1
0
LINE
5
AE
100
AcDbEntity
8
1
62
256
6
ByLayer
370
13
48
1
60
0
100
AcDbLine
10
11.461325
20
7.529667
30
0
11
8.538675
21
7.529667
31
0
39
0
210
0
220
0
230
1
0
LINE
5
AF
100
AcDbEntity
8
1
62
256
6
ByLayer
370
13
48
1
60
0
100
AcDbLine
10
30.1
20
-25.65
30
0
11
30.1
21
-31.30599
31
0
39
0
210
0
220
0
230
1
0
LINE
5
B0
100
AcDbEntity
8
1
62
256
6
ByLayer
370
13
48
1
60
0
100
AcDbLine
10
38.4
20
0
30
0
11
42.399843
21
-8.551239
31
0
39
0
210
0
220
0
230
1
0
LINE
5
B1
100
AcDbEntity
8
1
62
256
6
ByLayer
370
13
48
1
60
0
100
AcDbLine
10
11.461325
20
-23.83913
30
0
11
8.538675
21
-23.83913
31
0
39
0
210
0
220
0
230
1
0
LINE
5
B2
100
AcDbEntity
8
1
62
256
6
ByLayer
370
13
48
1
60
0
100
AcDbLine
10
43.4
20
-17.1
30
0
11
43.4
21
-27.661148
31
0
39
0
210
0
220
0
230
1
0
LINE
5
B3
100
AcDbEntity
8
1
62
256
6
ByLayer
370
13
48
1
60
0
100
AcDbLine
10
45
20
-29.284652
30
0
11
48.935563
21
-29.284652
31
0
39
0
210
0
220
0
230
1
0
LINE
5
B4
100
AcDbEntity
8
1
62
256
6
ByLayer
370
13
48
1
60
0
100
AcDbLine
10
42.399843
20
-8.551239
30
0
11
43.4
21
-17.1
31
0
39
0
210
0
220
0
230
1
0
LINE
5
B5
100
AcDbEntity
8
1
62
256
6
ByLayer
370
13
48
1
60
0
100
AcDbLine
10
24.086548
20
-25.15
30
0
11
24.15
21
-25.15
31
0
39
0
210
0
220
0
230
1
0
LINE
5
B6
100
AcDbEntity
8
1
62
256
6
ByLayer
370
13
48
1
60
0
100
AcDbLine
10
28.569184
20
-25.65
30
0
11
28.569184
21
-32.732762
31
0
39
0
210
0
220
0
230
1
0
LINE
5
B7
100
AcDbEntity
8
1
62
256
6
ByLayer
370
13
48
1
60
0
100
AcDbLine
10
29.979216
20
-25.65
30
0
11
29.979216
21
-32.679736
31
0
39
0
210
0
220
0
230
1
0
LINE
5
B8
100
AcDbEntity
8
1
62
256
6
ByLayer
370
13
48
1
60
0
100
AcDbLine
10
20.183569
20
3.965094
30
0
11
20.086701
21
15.065094
31
0
39
0
210
0
220
0
230
1
0
LINE
5
B9
100
AcDbEntity
8
1
62
256
6
ByLayer
370
13
48
1
60
0
100
AcDbLine
10
62.236182
20
-30.084077
30
0
11
62.124277
21
-30.02962
31
0
39
0
210
0
220
0
230
1
0
LINE
5
BA
100
AcDbEntity
8
1
62
256
6
ByLayer
370
13
48
1
60
0
100
AcDbLine
10
20.063901
20
17.67767
30
0
11
20.086701
21
15.065094
31
0
39
0
210
0
220
0
230
1
0
LINE
5
BB
100
AcDbEntity
8
1
62
256
6
ByLayer
370
13
48
1
60
0
100
AcDbLine
10
29.65
20
-25.152506
30
0
11
29.65
21
0
31
0
39
0
210
0
220
0
230
1
0
LINE
5
BC
100
AcDbEntity
8
1
62
256
6
ByLayer
370
13
48
1
60
0
100
AcDbLine
10
55.545592
20
-38.887166
30
0
11
27.99541
21
-38.887166
31
0
39
0
210
0
220
0
230
1
0
LINE
5
BD
100
AcDbEntity
8
SK1
62
256
6
ByLayer
370
13
48
1
60
0
100
AcDbLine
10
-0.1
20
5.006379
30
0
11
-0.1
21
-5.006376
31
0
39
0
210
0
220
0
230
1
0
LINE
5
BE
100
AcDbEntity
8
1
62
256
6
ByLayer
370
13
48
1
60
0
100
AcDbLine
10
62.309962
20
-30.289264
30
0
11
62.928946
21
-30.289264
31
0
39
0
210
0
220
0
230
1
0
LINE
5
BF
100
AcDbEntity
8
1
62
256
6
ByLayer
370
18
48
1
60
0
100
AcDbLine
10
49.5
20
-28.18309
30
0
11
49.767597
21
-28.337588
31
0
39
0
210
0
220
0
230
1
0
LINE
5
C0
100
AcDbEntity
8
1
62
256
6
ByLayer
370
13
48
1
60
0
100
AcDbLine
10
62.590119
20
-30.016915
30
0
11
62.10441
21
-30.016915
31
0
39
0
210
0
220
0
230
1
0
LINE
5
C1
100
AcDbEntity
8
1
62
256
6
ByLayer
370
13
48
1
60
0
100
AcDbLine
10
62.211913
20
-30.072267
30
0
11
62.748945
21
-30.072267
31
0
39
0
210
0
220
0
230
1
0
LINE
5
C2
100
AcDbEntity
8
1
62
256
6
ByLayer
370
13
48
1
60
0
100
AcDbLine
10
62.211913
20
-30.927733
30
0
11
62.748945
21
-30.927733
31
0
39
0
210
0
220
0
230
1
0
LINE
5
C3
100
AcDbEntity
8
1
62
256
6
ByLayer
370
13
48
1
60
0
100
AcDbLine
10
62.309962
20
-30.710736
30
0
11
62.928946
21
-30.710736
31
0
39
0
210
0
220
0
230
1
0
LINE
5
C4
100
AcDbEntity
8
1
62
256
6
ByLayer
370
13
48
1
60
0
100
AcDbLine
10
62.309958
20
-30.52
30
0
11
62.937861
21
-30.52
31
0
39
0
210
0
220
0
230
1
0
LINE
5
C5
100
AcDbEntity
8
1
62
256
6
ByLayer
370
13
48
1
60
0
100
AcDbLine
10
62.590119
20
-30.983085
30
0
11
62.10441
21
-30.983085
31
0
39
0
210
0
220
0
230
1
0
LINE
5
C6
100
AcDbEntity
8
1
62
256
6
ByLayer
370
18
48
1
60
0
100
AcDbLine
10
61.852259
20
-28.4
30
0
11
62.246355
21
-28.4
31
0
39
0
210
0
220
0
230
1
0
LINE
5
C7
100
AcDbEntity
8
1
62
256
6
ByLayer
370
18
48
1
60
0
100
AcDbLine
10
61.852259
20
-32.6
30
0
11
62.246355
21
-32.6
31
0
39
0
210
0
220
0
230
1
0
LINE
5
C8
100
AcDbEntity
8
1
62
256
6
ByLayer
370
13
48
1
60
0
100
AcDbLine
10
61.884149
20
-28.641251
30
0
11
62.246355
21
-28.641251
31
0
39
0
210
0
220
0
230
1
0
LINE
5
C9
100
AcDbEntity
8
1
62
256
6
ByLayer
370
13
48
1
60
0
100
AcDbLine
10
61.886442
20
-28.658616
30
0
11
62.247874
21
-28.658616
31
0
39
0
210
0
220
0
230
1
0
LINE
5
CA
100
AcDbEntity
8
1
62
256
6
ByLayer
370
13
48
1
60
0
100
AcDbLine
10
61.884149
20
-32.358749
30
0
11
62.246355
21
-32.358749
31
0
39
0
210
0
220
0
230
1
0
LINE
5
CB
100
AcDbEntity
8
1
62
256
6
ByLayer
370
13
48
1
60
0
100
AcDbLine
10
62.043504
20
-29.850066
30
0
11
62.457959
21
-29.850066
31
0
39
0
210
0
220
0
230
1
0
LINE
5
CC
100
AcDbEntity
8
1
62
256
6
ByLayer
370
13
48
1
60
0
100
AcDbLine
10
61.886442
20
-32.341384
30
0
11
62.247874
21
-32.341384
31
0
39
0
210
0
220
0
230
1
0
LINE
5
CD
100
AcDbEntity
8
1
62
256
6
ByLayer
370
13
48
1
60
0
100
AcDbLine
10
62.049454
20
-29.894335
30
0
11
62.477691
21
-29.894335
31
0
39
0
210
0
220
0
230
1
0
LINE
5
CE
100
AcDbEntity
8
1
62
256
6
ByLayer
370
13
48
1
60
0
100
AcDbLine
10
62.043504
20
-31.149934
30
0
11
62.457959
21
-31.149934
31
0
39
0
210
0
220
0
230
1
0
LINE
5
CF
100
AcDbEntity
8
1
62
256
6
ByLayer
370
13
48
1
60
0
100
AcDbLine
10
62.077313
20
-29.986112
30
0
11
62.549523
21
-29.986112
31
0
39
0
210
0
220
0
230
1
0
LINE
5
D0
100
AcDbEntity
8
1
62
256
6
ByLayer
370
13
48
1
60
0
100
AcDbLine
10
62.049454
20
-31.105665
30
0
11
62.477691
21
-31.105665
31
0
39
0
210
0
220
0
230
1
0
LINE
5
D1
100
AcDbEntity
8
1
62
256
6
ByLayer
370
13
48
1
60
0
100
AcDbLine
10
62.077313
20
-31.013888
30
0
11
62.549523
21
-31.013888
31
0
39
0
210
0
220
0
230
1
0
LINE
5
D2
100
AcDbEntity
8
1
62
256
6
ByLayer
370
13
48
1
60
0
100
AcDbLine
10
62.309958
20
-30.48
30
0
11
62.937861
21
-30.48
31
0
39
0
210
0
220
0
230
1
0
LINE
5
D3
100
AcDbEntity
8
1
62
256
6
ByLayer
370
18
48
1
60
0
100
AcDbLine
10
70
20
-32.7
30
0
11
70
21
-28.3
31
0
39
0
210
0
220
0
230
1
0
LINE
5
D4
100
AcDbEntity
8
1
62
256
6
ByLayer
370
18
48
1
60
0
100
AcDbLine
10
69.686914
20
-28.000286
30
0
11
65.5
21
-28.18309
31
0
39
0
210
0
220
0
230
1
0
LINE
5
D5
100
AcDbEntity
8
1
62
256
6
ByLayer
370
18
48
1
60
0
100
AcDbLine
10
65.5
20
-28.18309
30
0
11
65.124301
21
-28.4
31
0
39
0
210
0
220
0
230
1
0
LINE
5
D6
100
AcDbEntity
8
1
62
256
6
ByLayer
370
18
48
1
60
0
100
AcDbLine
10
63.63
20
-28.4
30
0
11
65.124301
21
-28.4
31
0
39
0
210
0
220
0
230
1
0
LINE
5
D7
100
AcDbEntity
8
1
62
256
6
ByLayer
370
18
48
1
60
0
100
AcDbLine
10
62.246355
20
-28.4
30
0
11
63.63
21
-28.4
31
0
39
0
210
0
220
0
230
1
0
LINE
5
D8
100
AcDbEntity
8
1
62
256
6
ByLayer
370
18
48
1
60
0
100
AcDbLine
10
63.63
20
-32.6
30
0
11
63.63
21
-28.4
31
0
39
0
210
0
220
0
230
1
0
LINE
5
D9
100
AcDbEntity
8
1
62
256
6
ByLayer
370
18
48
1
60
0
100
AcDbLine
10
62.246355
20
-28.641251
30
0
11
62.246355
21
-28.4
31
0
39
0
210
0
220
0
230
1
0
LINE
5
DA
100
AcDbEntity
8
1
62
256
6
ByLayer
370
18
48
1
60
0
100
AcDbLine
10
62.937861
20
-30.52
30
0
11
62.937861
21
-30.48
31
0
39
0
210
0
220
0
230
1
0
LINE
5
DB
100
AcDbEntity
8
1
62
256
6
ByLayer
370
18
48
1
60
0
100
AcDbLine
10
62.549523
20
-29.986112
30
0
11
62.477691
21
-29.894335
31
0
39
0
210
0
220
0
230
1
0
LINE
5
DC
100
AcDbEntity
8
1
62
256
6
ByLayer
370
18
48
1
60
0
100
AcDbLine
10
62.457959
20
-29.850066
30
0
11
62.247874
21
-28.658616
31
0
39
0
210
0
220
0
230
1
0
LINE
5
DD
100
AcDbEntity
8
1
62
256
6
ByLayer
370
18
48
1
60
0
100
AcDbLine
10
45.313086
20
-28.000286
30
0
11
49.5
21
-28.18309
31
0
39
0
210
0
220
0
230
1
0
LINE
5
DE
100
AcDbEntity
8
1
62
256
6
ByLayer
370
18
48
1
60
0
100
AcDbLine
10
69.686914
20
-32.999714
30
0
11
65.5
21
-32.81691
31
0
39
0
210
0
220
0
230
1
0
LINE
5
DF
100
AcDbEntity
8
1
62
256
6
ByLayer
370
18
48
1
60
0
100
AcDbLine
10
63.63
20
-32.6
30
0
11
65.124301
21
-32.6
31
0
39
0
210
0
220
0
230
1
0
LINE
5
E0
100
AcDbEntity
8
1
62
256
6
ByLayer
370
18
48
1
60
0
100
AcDbLine
10
65.5
20
-32.81691
30
0
11
65.124301
21
-32.6
31
0
39
0
210
0
220
0
230
1
0
LINE
5
E1
100
AcDbEntity
8
1
62
256
6
ByLayer
370
18
48
1
60
0
100
AcDbLine
10
62.549523
20
-31.013888
30
0
11
62.477691
21
-31.105665
31
0
39
0
210
0
220
0
230
1
0
LINE
5
E2
100
AcDbEntity
8
1
62
256
6
ByLayer
370
18
48
1
60
0
100
AcDbLine
10
62.457959
20
-31.149934
30
0
11
62.247874
21
-32.341384
31
0
39
0
210
0
220
0
230
1
0
LINE
5
E3
100
AcDbEntity
8
1
62
256
6
ByLayer
370
18
48
1
60
0
100
AcDbLine
10
62.246355
20
-32.358749
30
0
11
62.246355
21
-32.6
31
0
39
0
210
0
220
0
230
1
0
LINE
5
E4
100
AcDbEntity
8
1
62
256
6
ByLayer
370
18
48
1
60
0
100
AcDbLine
10
62.246355
20
-32.6
30
0
11
63.63
21
-32.6
31
0
39
0
210
0
220
0
230
1
0
MTEXT
5
147
100
AcDbEntity
8
SK6
62
256
6
ByLayer
370
18
48
1
60
0
100
AcDbMText
10
-11.625
20
-59.286299
30
0
210
0
220
0
230
1
1
\W0.7324;C5-LF123J25CE-120B
40
3.5
41
0
44
1.084337
50
0
71
7
72
5
7
iso_b_vert
0
DIMENSION
5
159
100
AcDbEntity
8
SK2
62
256
6
ByLayer
370
13
48
1
60
0
100
AcDbDimension
2
DimnDraft3D1
10
70
20
47.6
30
0
11
32.909211
21
47.6
31
0
70
32
71
5
72
1
41
1
210
0
220
0
230
1
3
Standard
100
AcDbAlignedDimension
13
0
23
2
33
0
14
70
24
-31
34
0
50
0
100
AcDbRotatedDimension
1001
ACAD
1000
DSTYLE
1002
{
1070
   279
1070
     0
1070
   172
1070
     1
1070
   173
1070
     1
1070
   340
1005
148
1070
   271
1070
     1
1070
    77
1070
     1
1070
    73
1070
     0
1070
   171
1070
     3
1070
   274
1070
     4
1070
   177
1070
     2
1070
   176
1070
     2
1070
   178
1070
     7
1070
    78
1070
     8
1070
    41
1041
3.175
1070
   147
1041
1.75
1070
    42
1041
2.0
1070
    44
1041
2.0
1070
   140
1041
3.5
1070
   343
1005
15A
1070
   344
1005
15A
1002
}
0
DIMENSION
5
16F
100
AcDbEntity
8
2
62
256
6
ByLayer
370
13
48
1
60
0
100
AcDbDimension
2
DimnDraft3D2
10
45
20
-54.922598
30
0
11
55.409211
21
-54.922598
31
0
70
32
71
5
72
1
41
1
210
0
220
0
230
1
3
Standard
100
AcDbAlignedDimension
13
70
23
-35
33
0
14
45
24
-27
34
0
50
0
100
AcDbRotatedDimension
1001
ACAD
1000
DSTYLE
1002
{
1070
   279
1070
     0
1070
   172
1070
     1
1070
   173
1070
     1
1070
   340
1005
148
1070
   271
1070
     1
1070
    77
1070
     1
1070
    73
1070
     0
1070
   171
1070
     3
1070
   274
1070
     4
1070
   177
1070
     2
1070
   176
1070
     2
1070
   178
1070
     7
1070
    78
1070
     8
1070
    41
1041
3.175
1070
   147
1041
1.75
1070
    42
1041
2.0
1070
    44
1041
2.0
1070
   140
1041
3.5
1070
   343
1005
15A
1070
   344
1005
15A
1002
}
0
DIMENSION
5
17D
100
AcDbEntity
8
SK2
62
256
6
ByLayer
370
13
48
1
60
0
100
AcDbDimension
2
DimnDraft3D3
10
-39.6
20
25
30
0
11
-39.6
21
-2.090789
31
0
70
32
71
5
72
1
41
1
210
0
220
0
230
1
3
Standard
100
AcDbAlignedDimension
13
-2
23
-25
33
0
14
-2
24
25
34
0
50
90
100
AcDbRotatedDimension
1001
ACAD
1000
DSTYLE
1002
{
1070
    74
1070
     0
1070
   279
1070
     0
1070
   172
1070
     1
1070
   173
1070
     1
1070
   340
1005
148
1070
   271
1070
     1
1070
    77
1070
     1
1070
    73
1070
     0
1070
   171
1070
     3
1070
   274
1070
     4
1070
   177
1070
     2
1070
   176
1070
     2
1070
   178
1070
     7
1070
    78
1070
     8
1070
    41
1041
3.175
1070
   147
1041
1.75
1070
    42
1041
2.0
1070
    44
1041
2.0
1070
   140
1041
3.5
1070
   343
1005
15A
1070
   344
1005
15A
1002
}
0
DIMENSION
5
18B
100
AcDbEntity
8
2
62
256
6
ByLayer
370
13
48
1
60
0
100
AcDbDimension
2
DimnDraft3D4
10
95.1
20
-33
30
0
11
95.1
21
-18.590789
31
0
70
32
71
5
72
1
41
1
210
0
220
0
230
1
3
Standard
100
AcDbAlignedDimension
13
63
23
0
33
0
14
72
24
-33
34
0
50
90
100
AcDbRotatedDimension
1001
ACAD
1000
DSTYLE
1002
{
1070
    74
1070
     0
1070
   279
1070
     0
1070
   172
1070
     1
1070
   173
1070
     1
1070
   340
1005
148
1070
   271
1070
     1
1070
    77
1070
     1
1070
    73
1070
     0
1070
   171
1070
     3
1070
   274
1070
     4
1070
   177
1070
     2
1070
   176
1070
     2
1070
   178
1070
     7
1070
    78
1070
     8
1070
    41
1041
3.175
1070
   147
1041
1.75
1070
    42
1041
2.0
1070
    44
1041
2.0
1070
   140
1041
3.5
1070
   343
1005
15A
1070
   344
1005
15A
1002
}
0
DIMENSION
5
199
100
AcDbEntity
8
2
62
256
6
ByLayer
370
13
48
1
60
0
100
AcDbDimension
2
DimnDraft3D5
10
88.1
20
-28
30
0
11
88.1
21
-44.820789
31
0
70
32
71
5
72
1
41
1
210
0
220
0
230
1
3
Standard
100
AcDbAlignedDimension
13
72
23
-33
33
0
14
72
24
-28
34
0
50
90
100
AcDbRotatedDimension
1001
ACAD
1000
DSTYLE
1002
{
1070
    74
1070
     0
1070
   279
1070
     0
1070
   172
1070
     1
1070
   173
1070
     1
1070
   340
1005
148
1070
   271
1070
     1
1070
    77
1070
     1
1070
    73
1070
     0
1070
   171
1070
     3
1070
   274
1070
     4
1070
   177
1070
     2
1070
   176
1070
     2
1070
   178
1070
     7
1070
    78
1070
     8
1070
    41
1041
3.175
1070
   147
1041
1.75
1070
    42
1041
2.0
1070
    44
1041
2.0
1070
   140
1041
3.5
1070
   343
1005
15A
1070
   344
1005
15A
1002
}
0
ENDSEC
0
SECTION
2
OBJECTS
0
DICTIONARY
5
203
330
0
100
AcDbDictionary
280
0
281
1
3
ACAD_GROUP
350
204
3
ACAD_MLINESTYLE
350
205
0
DICTIONARY
5
204
330
0
100
AcDbDictionary
280
0
281
1
0
DICTIONARY
5
205
330
0
100
AcDbDictionary
280
0
281
1
3
Standard
350
18
0
MLINESTYLE
5
18
330
205
100
AcDbMlineStyle
2
Standard
70
0
3

62
256
51
90
52
90
71
2
49
-0.5
62
256
6
ByLayer
49
0.5
62
256
6
ByLayer
0
RASTERVARIABLES
5
1f2
330

100
AcDbRasterVariables
90
0
70
1
71
1
72
1
0
ENDSEC
0
EOF
