  0
SECTION
  2
HEADER
  9
$ACADVER
  1
AC1015
  9
$ACADMAINTVER
 70
    20
  9
$DWGCODEPAGE
  3
ANSI_1252
  9
$INSBASE
 10
0.0
 20
0.0
 30
0.0
  9
$EXTMIN
 10
-15.918164
 20
-78.695637
 30
0.0
  9
$EXTMAX
 10
107.499157
 20
63.342589
 30
0.0
  9
$LIMMIN
 10
0.0
 20
0.0
  9
$LIMMAX
 10
12.0
 20
9.0
  9
$ORTHOMODE
 70
     0
  9
$REGENMODE
 70
     1
  9
$FILLMODE
 70
     1
  9
$QTEXTMODE
 70
     0
  9
$MIRRTEXT
 70
     1
  9
$LTSCALE
 40
1.0
  9
$ATTMODE
 70
     1
  9
$TEXTSIZE
 40
3.0
  9
$TRACEWID
 40
10.0
  9
$TEXTSTYLE
  7
SANDVIK_STYLE
  9
$CLAYER
  8
1
  9
$CELTYPE
  6
ByLayer
  9
$CECOLOR
 62
   256
  9
$CELTSCALE
 40
1.0
  9
$DISPSILH
 70
     0
  9
$DIMSCALE
 40
1.0
  9
$DIMASZ
 40
0.18
  9
$DIMEXO
 40
0.0625
  9
$DIMDLI
 40
0.38
  9
$DIMRND
 40
0.0
  9
$DIMDLE
 40
0.0
  9
$DIMEXE
 40
0.18
  9
$DIMTP
 40
0.0
  9
$DIMTM
 40
0.0
  9
$DIMTXT
 40
0.18
  9
$DIMCEN
 40
0.09
  9
$DIMTSZ
 40
0.0
  9
$DIMTOL
 70
     0
  9
$DIMLIM
 70
     0
  9
$DIMTIH
 70
     1
  9
$DIMTOH
 70
     1
  9
$DIMSE1
 70
     0
  9
$DIMSE2
 70
     0
  9
$DIMTAD
 70
     0
  9
$DIMZIN
 70
     0
  9
$DIMBLK
  1

  9
$DIMASO
 70
     1
  9
$DIMSHO
 70
     1
  9
$DIMPOST
  1

  9
$DIMAPOST
  1

  9
$DIMALT
 70
     0
  9
$DIMALTD
 70
     2
  9
$DIMALTF
 40
25.4
  9
$DIMLFAC
 40
1.0
  9
$DIMTOFL
 70
     0
  9
$DIMTVP
 40
0.0
  9
$DIMTIX
 70
     0
  9
$DIMSOXD
 70
     0
  9
$DIMSAH
 70
     0
  9
$DIMBLK1
  1

  9
$DIMBLK2
  1

  9
$DIMSTYLE
  2
STANDARD
  9
$DIMCLRD
 70
     0
  9
$DIMCLRE
 70
     0
  9
$DIMCLRT
 70
     0
  9
$DIMTFAC
 40
1.0
  9
$DIMGAP
 40
0.09
  9
$DIMJUST
 70
     0
  9
$DIMSD1
 70
     0
  9
$DIMSD2
 70
     0
  9
$DIMTOLJ
 70
     1
  9
$DIMTZIN
 70
     0
  9
$DIMALTZ
 70
     0
  9
$DIMALTTZ
 70
     0
  9
$DIMUPT
 70
     0
  9
$DIMDEC
 70
     4
  9
$DIMTDEC
 70
     4
  9
$DIMALTU
 70
     2
  9
$DIMALTTD
 70
     2
  9
$DIMTXSTY
  7
STANDARD
  9
$DIMAUNIT
 70
     0
  9
$DIMADEC
 70
     0
  9
$DIMALTRND
 40
0.0
  9
$DIMAZIN
 70
     0
  9
$DIMDSEP
 70
    46
  9
$DIMATFIT
 70
     3
  9
$DIMFRAC
 70
     0
  9
$DIMLDRBLK
  1

  9
$DIMLUNIT
 70
     2
  9
$DIMLWD
 70
    -2
  9
$DIMLWE
 70
    -2
  9
$DIMTMOVE
 70
     0
  9
$LUNITS
 70
     2
  9
$LUPREC
 70
     2
  9
$SKETCHINC
 40
0.0
  9
$FILLETRAD
 40
0.0
  9
$AUNITS
 70
     0
  9
$AUPREC
 70
     2
  9
$MENU
  1
acad
  9
$ELEVATION
 40
0.0
  9
$PELEVATION
 40
0.0
  9
$THICKNESS
 40
0.0
  9
$LIMCHECK
 70
     0
  9
$CHAMFERA
 40
0.0
  9
$CHAMFERB
 40
0.0
  9
$CHAMFERC
 40
0.0
  9
$CHAMFERD
 40
0.0
  9
$SKPOLY
 70
     0
  9
$TDCREATE
 40
2456818.646689642
  9
$TDUCREATE
 40
2456818.563356308
  9
$TDUPDATE
 40
2457246.424514884
  9
$TDUUPDATE
 40
2457246.341181551
  9
$TDINDWG
 40
0.0057849190
  9
$TDUSRTIMER
 40
0.0057848495
  9
$USRTIMER
 70
     1
  9
$ANGBASE
 50
0.0
  9
$ANGDIR
 70
     0
  9
$PDMODE
 70
     0
  9
$PDSIZE
 40
0.0
  9
$PLINEWID
 40
0.0
  9
$SPLFRAME
 70
     0
  9
$SPLINETYPE
 70
     6
  9
$SPLINESEGS
 70
     8
  9
$HANDSEED
  5
9A2
  9
$SURFTAB1
 70
     6
  9
$SURFTAB2
 70
     6
  9
$SURFTYPE
 70
     6
  9
$SURFU
 70
     6
  9
$SURFV
 70
     6
  9
$UCSBASE
  2

  9
$UCSNAME
  2

  9
$UCSORG
 10
0.0
 20
0.0
 30
0.0
  9
$UCSXDIR
 10
1.0
 20
0.0
 30
0.0
  9
$UCSYDIR
 10
0.0
 20
1.0
 30
0.0
  9
$UCSORTHOREF
  2

  9
$UCSORTHOVIEW
 70
     0
  9
$UCSORGTOP
 10
0.0
 20
0.0
 30
0.0
  9
$UCSORGBOTTOM
 10
0.0
 20
0.0
 30
0.0
  9
$UCSORGLEFT
 10
0.0
 20
0.0
 30
0.0
  9
$UCSORGRIGHT
 10
0.0
 20
0.0
 30
0.0
  9
$UCSORGFRONT
 10
0.0
 20
0.0
 30
0.0
  9
$UCSORGBACK
 10
0.0
 20
0.0
 30
0.0
  9
$PUCSBASE
  2

  9
$PUCSNAME
  2

  9
$PUCSORG
 10
0.0
 20
0.0
 30
0.0
  9
$PUCSXDIR
 10
1.0
 20
0.0
 30
0.0
  9
$PUCSYDIR
 10
0.0
 20
1.0
 30
0.0
  9
$PUCSORTHOREF
  2

  9
$PUCSORTHOVIEW
 70
     0
  9
$PUCSORGTOP
 10
0.0
 20
0.0
 30
0.0
  9
$PUCSORGBOTTOM
 10
0.0
 20
0.0
 30
0.0
  9
$PUCSORGLEFT
 10
0.0
 20
0.0
 30
0.0
  9
$PUCSORGRIGHT
 10
0.0
 20
0.0
 30
0.0
  9
$PUCSORGFRONT
 10
0.0
 20
0.0
 30
0.0
  9
$PUCSORGBACK
 10
0.0
 20
0.0
 30
0.0
  9
$USERI1
 70
     0
  9
$USERI2
 70
     0
  9
$USERI3
 70
     0
  9
$USERI4
 70
     0
  9
$USERI5
 70
     0
  9
$USERR1
 40
0.0
  9
$USERR2
 40
0.0
  9
$USERR3
 40
0.0
  9
$USERR4
 40
0.0
  9
$USERR5
 40
0.0
  9
$WORLDVIEW
 70
     1
  9
$SHADEDGE
 70
     3
  9
$SHADEDIF
 70
    70
  9
$TILEMODE
 70
     1
  9
$MAXACTVP
 70
    16
  9
$PINSBASE
 10
0.0
 20
0.0
 30
0.0
  9
$PLIMCHECK
 70
     0
  9
$PEXTMIN
 10
1.000000000000000E+20
 20
1.000000000000000E+20
 30
1.000000000000000E+20
  9
$PEXTMAX
 10
-1.000000000000000E+20
 20
-1.000000000000000E+20
 30
-1.000000000000000E+20
  9
$PLIMMIN
 10
0.0
 20
0.0
  9
$PLIMMAX
 10
12.0
 20
9.0
  9
$UNITMODE
 70
     0
  9
$VISRETAIN
 70
     0
  9
$PLINEGEN
 70
     0
  9
$PSLTSCALE
 70
     1
  9
$TREEDEPTH
 70
  3020
  9
$CMLSTYLE
  2
Standard
  9
$CMLJUST
 70
     0
  9
$CMLSCALE
 40
1.0
  9
$PROXYGRAPHICS
 70
     1
  9
$MEASUREMENT
 70
     0
  9
$CELWEIGHT
370
    -1
  9
$ENDCAPS
280
     0
  9
$JOINSTYLE
280
     0
  9
$LWDISPLAY
290
     0
  9
$INSUNITS
 70
     0
  9
$HYPERLINKBASE
  1

  9
$STYLESHEET
  1

  9
$XEDIT
290
     1
  9
$CEPSNTYPE
380
     0
  9
$PSTYLEMODE
290
     1
  9
$FINGERPRINTGUID
  2
{173F81C2-E331-4050-B968-0D22C1C876B3}
  9
$VERSIONGUID
  2
{23A3D712-1AC7-42B3-8836-E5BF8A9946B6}
  9
$EXTNAMES
290
     1
  9
$PSVPSCALE
 40
0.0
  9
$OLESTARTUP
290
     0
  0
ENDSEC
  0
SECTION
  2
CLASSES
  0
CLASS
  1
ACDBDICTIONARYWDFLT
  2
AcDbDictionaryWithDefault
  3
ObjectDBX Classes
 90
        0
280
     0
281
     0
  0
CLASS
  1
MATERIAL
  2
AcDbMaterial
  3
ObjectDBX Classes
 90
     1153
280
     0
281
     0
  0
CLASS
  1
VISUALSTYLE
  2
AcDbVisualStyle
  3
ObjectDBX Classes
 90
     4095
280
     0
281
     0
  0
CLASS
  1
SCALE
  2
AcDbScale
  3
ObjectDBX Classes
 90
     1153
280
     0
281
     0
  0
CLASS
  1
TABLESTYLE
  2
AcDbTableStyle
  3
ObjectDBX Classes
 90
     4095
280
     0
281
     0
  0
CLASS
  1
MLEADERSTYLE
  2
AcDbMLeaderStyle
  3
ACDB_MLEADERSTYLE_CLASS
 90
     4095
280
     0
281
     0
  0
CLASS
  1
ACDBSECTIONVIEWSTYLE
  2
AcDbSectionViewStyle
  3
ObjectDBX Classes
 90
     1025
280
     0
281
     0
  0
CLASS
  1
ACDBDETAILVIEWSTYLE
  2
AcDbDetailViewStyle
  3
ObjectDBX Classes
 90
     1025
280
     0
281
     0
  0
CLASS
  1
EXACXREFPANELOBJECT
  2
ExAcXREFPanelObject
  3
EXAC_ESW
 90
    33793
280
     0
281
     0
  0
CLASS
  1
NPOCOLLECTION
  2
AcDbImpNonPersistentObjectsCollection
  3
ObjectDBX Classes
 90
    33921
280
     0
281
     0
  0
CLASS
  1
DICTIONARYVAR
  2
AcDbDictionaryVar
  3
ObjectDBX Classes
 90
        0
280
     0
281
     0
  0
CLASS
  1
CELLSTYLEMAP
  2
AcDbCellStyleMap
  3
ObjectDBX Classes
 90
     1152
280
     0
281
     0
  0
CLASS
  1
ACDBPLACEHOLDER
  2
AcDbPlaceHolder
  3
ObjectDBX Classes
 90
        0
280
     0
281
     0
  0
CLASS
  1
LAYOUT
  2
AcDbLayout
  3
ObjectDBX Classes
 90
        0
280
     0
281
     0
  0
CLASS
  1
AMGSETTINGSOBJ
  2
AmgSettingsObj
  3
"AcadM|Product Description: AutoCAD Mechanical|Company: Autodesk, Inc."
 90
     1024
280
     0
281
     0
  0
CLASS
  1
ACME_DOCUMENT
  2
AcMeDbDoc
  3
AcMeServices
 90
     1024
280
     0
281
     0
  0
CLASS
  1
ACMESCOPE
  2
AcMeScope
  3
AcMeServices
 90
     1024
280
     0
281
     0
  0
CLASS
  1
ACMECOMMANDHISTORY
  2
AcMeCommandHistory
  3
AcMeServices
 90
     1024
280
     0
281
     0
  0
CLASS
  1
ACIMSYSVARMAN
  2
AcImSysVarManager
  3
AcMeServices
 90
     1024
280
     0
281
     0
  0
CLASS
  1
ACIMINTSYSVAR
  2
AcImIntSysVar
  3
AcMeServices
 90
     1024
280
     0
281
     0
  0
CLASS
  1
ACMESTATEMGR
  2
AcMeStateMgr
  3
AcMeServices
 90
     1024
280
     0
281
     0
  0
CLASS
  1
ACDBENTITYCACHE
  2
AcMeEntityCache
  3
AcMeServices
 90
     1024
280
     0
281
     0
  0
CLASS
  1
ACGREFMASTER
  2
AcGrefMaster
  3
AcAttribServices
 90
     1024
280
     0
281
     0
  0
CLASS
  1
ACME_DATABASE
  2
AcMeDbDatabase
  3
AcMeServices
 90
     1024
280
     0
281
     0
  0
CLASS
  1
ACRFINSADJUSTERMGR
  2
AcRfInsAdjusterMgr
  3
AcMeServices
 90
     1024
280
     0
281
     0
  0
CLASS
  1
ACGREFACADMASTER
  2
AcGrefacadMaster
  3
AcGrefServices
 90
     1024
280
     0
281
     0
  0
CLASS
  1
AMDTMENUSTATEMGR
  2
AmdtMenuStateMgr
  3
McadcomServices
 90
     1024
280
     0
281
     0
  0
CLASS
  1
AMDTMCOMMENUSTATE
  2
AmdtMcomMenuState
  3
McadcomServices
 90
     1024
280
     0
281
     0
  0
CLASS
  1
AMIMASTER
  2
AmiMaster
  3
AmiServices
 90
     1024
280
     0
281
     0
  0
CLASS
  1
MAPIAMMOUDLE
  2
MApiAmModule
  3
MApiAmServices
 90
     1024
280
     0
281
     0
  0
CLASS
  1
ACIMSTRSYSVAR
  2
AcImStrSysVar
  3
AcMeServices
 90
     1024
280
     0
281
     0
  0
CLASS
  1
AMDTAMMENUSTATE
  2
AmdtAmMenuState
  3
DesignerAssemblies
 90
     1024
280
     0
281
     0
  0
CLASS
  1
ACAMPROJECT
  2
AcAmProject
  3
DesignerAssemblies
 90
     1024
280
     0
281
     0
  0
CLASS
  1
ACAMGRCOMPDEF
  2
AcAmGrCompDef
  3
DesignerAssemblies
 90
     1024
280
     0
281
     0
  0
CLASS
  1
ACAMCOMPDEF
  2
AcAmCompDef
  3
DesignerAssemblies
 90
     1024
280
     0
281
     0
  0
CLASS
  1
ACAMCOMPDEFMGR
  2
AcAmCompDefMgr
  3
DesignerAssemblies
 90
     1024
280
     0
281
     0
  0
CLASS
  1
AMCONTEXTMGR
  2
AcAmContextMgr
  3
DesignerAssemblies
 90
     1024
280
     0
281
     0
  0
CLASS
  1
ACAMCONTEXTMODELER
  2
AcAmContextModeler
  3
DesignerAssemblies
 90
     1024
280
     0
281
     0
  0
CLASS
  1
ACMDATADICTIONARY
  2
AcmDataDictionary
  3
"AcmSymBB|Product Description: AutoCAD Mechanical|Company: Autodesk, Inc."
 90
     1024
280
     0
281
     0
  0
CLASS
  1
ACAMGRCOMPDEFSET
  2
AcAmGrCompDefSet
  3
DesignerAssemblies
 90
     1024
280
     0
281
     0
  0
CLASS
  1
AMDTBROWSERDBTAB
  2
AmdtBrowserDbTab
  3
McadcomServices
 90
     1024
280
     0
281
     0
  0
CLASS
  1
CBROWSERAPPOBJECT
  2
CBrowserAppObject
  3
McadcomServices
 90
     1024
280
     0
281
     0
  0
CLASS
  1
DM_PLACEHOLDER
  2
AcDmSelsetPlaceholder
  3
McadcomServices
 90
     1024
280
     0
281
     0
  0
CLASS
  1
ACMSTANDARDANSI
  2
AcmStandardANSI
  3
"Amdt_StdImp|Product Description: AutoCAD Mechanical|Company: Autodesk, Inc."
 90
     1024
280
     0
281
     0
  0
CLASS
  1
ACMSURFSTANDARDANSI
  2
AcmSurfTextStdANSI
  3
"Amdt_StdImp|Product Description: AutoCAD Mechanical|Company: Autodesk, Inc."
 90
     1024
280
     0
281
     0
  0
CLASS
  1
ACMFCFSTANDARDANSI
  2
AcmFCFStdANSI
  3
"Amdt_StdImp|Product Description: AutoCAD Mechanical|Company: Autodesk, Inc."
 90
     1024
280
     0
281
     0
  0
CLASS
  1
ACMWELDSTANDARDANSI
  2
AcmWeldingStdANSI
  3
"Amdt_StdImp|Product Description: AutoCAD Mechanical|Company: Autodesk, Inc."
 90
     1024
280
     0
281
     0
  0
CLASS
  1
ACMIDSTANDARDANSI
  2
AcmIdStdANSI
  3
"Amdt_StdImp|Product Description: AutoCAD Mechanical|Company: Autodesk, Inc."
 90
     1024
280
     0
281
     0
  0
CLASS
  1
ACMDATUMSTANDARDANSI
  2
AcmDatumStdANSI
  3
"Amdt_StdImp|Product Description: AutoCAD Mechanical|Company: Autodesk, Inc."
 90
     1024
280
     0
281
     0
  0
CLASS
  1
ACMBOMSTANDARDANSI
  2
AcmBOMStdANSI
  3
"Amdt_StdImp|Product Description: AutoCAD Mechanical|Company: Autodesk, Inc."
 90
     1024
280
     0
281
     0
  0
CLASS
  1
ACMDETAILSTANDARDANSI
  2
AmdtDetailSymStdANSI
  3
"Amdt_StdImp|Product Description: AutoCAD Mechanical|Company: Autodesk, Inc."
 90
     1024
280
     0
281
     0
  0
CLASS
  1
ACMSECTIONSTANDARDANSI
  2
AmdtSectionSymStdANSI
  3
"Amdt_StdImp|Product Description: AutoCAD Mechanical|Company: Autodesk, Inc."
 90
     1024
280
     0
281
     0
  0
CLASS
  1
ACMCENTERLINESTANDARDANSI
  2
AmdtCenterLineStdANSI
  3
"Amdt_StdImp|Product Description: AutoCAD Mechanical|Company: Autodesk, Inc."
 90
     1024
280
     0
281
     0
  0
CLASS
  1
ACMTHREADLINESTANDARDANSI
  2
AmdtThreadLineStdANSI
  3
"Amdt_StdImp|Product Description: AutoCAD Mechanical|Company: Autodesk, Inc."
 90
     1024
280
     0
281
     0
  0
CLASS
  1
ACMNOTESTANDARDANSI
  2
AmdtNoteStdANSI
  3
"Amdt_StdImp|Product Description: AutoCAD Mechanical|Company: Autodesk, Inc."
 90
     1024
280
     0
281
     0
  0
CLASS
  1
ACMTAPERSTANDARDANSI
  2
AcmTaperStdANSI
  3
"Amdt_StdImp|Product Description: AutoCAD Mechanical|Company: Autodesk, Inc."
 90
     1024
280
     0
281
     0
  0
CLASS
  1
ACMANOOTATIONVIEWSTANDARDANSI
  2
AmdtAnViewStdANSI
  3
"Amdt_StdImp|Product Description: AutoCAD Mechanical|Company: Autodesk, Inc."
 90
     1024
280
     0
281
     0
  0
CLASS
  1
ACAMGLAYSTD
  2
AcAmgLayStd
  3
"AmgLay|Product Description: AutoCAD Mechanical|Company: Autodesk, Inc."
 90
     1024
280
     0
281
     0
  0
CLASS
  1
ACAMGDIMSTD
  2
AcAmgDimStd
  3
"AmgDim|Product Description: AutoCAD Mechanical|Company: Autodesk, Inc."
 90
     1024
280
     0
281
     0
  0
CLASS
  1
AMGOBJPROPCFG
  2
AmgObjPropCfg
  3
"AmgLay|Product Description: AutoCAD Mechanical|Company: Autodesk, Inc."
 90
     1024
280
     0
281
     0
  0
CLASS
  1
ACAMGHOLECHARTSTDANSI
  2
AcAmgHoleChartStdANSI
  3
AmgDim|Product Description: AutoCAD Mechanical|Company: Autodesk, Inc.
 90
     1024
280
     0
281
     0
  0
CLASS
  1
ACAMGTITLESTD
  2
AcAmgTitleStd
  3
"AmgTitle|Product Description: AutoCAD Mechanical|Company: Autodesk, Inc."
 90
     1024
280
     0
281
     0
  0
CLASS
  1
ACMSECTIONSTANDARDCUSTOM
  2
AmdtSectionSymStdCustom
  3
"Amdt_StdImp|Product Description: AutoCAD Mechanical|Company: Autodesk, Inc."
 90
     1024
280
     0
281
     0
  0
CLASS
  1
ACMDETAILTANDARDCUSTOM
  2
AmdtDetailSymStdCustom
  3
"Amdt_StdImp|Product Description: AutoCAD Mechanical|Company: Autodesk, Inc."
 90
     1024
280
     0
281
     0
  0
CLASS
  1
FIELD
  2
AcDbField
  3
ObjectDBX Classes
 90
     1152
280
     0
281
     0
  0
CLASS
  1
FIELDLIST
  2
AcDbFieldList
  3
ObjectDBX Classes
 90
     1152
280
     0
281
     0
  0
CLASS
  1
AMDTNOTETEMPLATEDB
  2
AmdtNoteTemplateDB
  3
AcmSymBB|Product Description: AutoCAD Mechanical|Company: Autodesk, Inc.
 90
     1024
280
     0
281
     0
  0
CLASS
  1
ACAMGFILTERDAT
  2
AcAmgFilterDat
  3
"AcadM|Product Description: AutoCAD Mechanical|Company: Autodesk, Inc."
 90
     1024
280
     0
281
     0
  0
ENDSEC
  0
SECTION
  2
TABLES
  0
TABLE
  2
VPORT
  5
70D
330
0
100
AcDbSymbolTable
 70
     1
  0
VPORT
  5
7A4
330
70D
100
AcDbSymbolTableRecord
100
AcDbViewportTableRecord
  2
*Active
 70
     0
 10
0.0
 20
0.0
 11
1.0
 21
1.0
 12
72.08476929516644
 22
-25.27077786776721
 13
0.0
 23
0.0
 14
1.0
 24
1.0
 15
0.0
 25
0.0
 16
0.0
 26
0.0
 36
1.0
 17
0.0
 27
0.0
 37
0.0
 40
213.5276342938599
 41
1.652866242038216
 42
50.0
 43
0.0
 44
0.0
 50
0.0
 51
0.0
 71
     0
 72
   100
 73
     1
 74
     1
 75
     0
 76
     0
 77
     0
 78
     0
281
     0
 65
     0
110
0.0
120
0.0
130
0.0
111
1.0
121
0.0
131
0.0
112
0.0
122
1.0
132
0.0
 79
     0
146
0.0
1001
ACAD_NAV_VCDISPLAY
1070
     3
  0
ENDTAB
  0
TABLE
  2
LTYPE
  5
70A
330
0
100
AcDbSymbolTable
 70
    18
  0
LTYPE
  5
75F
330
70A
100
AcDbSymbolTableRecord
100
AcDbLinetypeTableRecord
  2
ByBlock
 70
     0
  3

 72
    65
 73
     0
 40
0.0
  0
LTYPE
  5
760
330
70A
100
AcDbSymbolTableRecord
100
AcDbLinetypeTableRecord
  2
ByLayer
 70
     0
  3

 72
    65
 73
     0
 40
0.0
  0
LTYPE
  5
761
330
70A
100
AcDbSymbolTableRecord
100
AcDbLinetypeTableRecord
  2
CONTINUOUS
 70
     0
  3
Solid line
 72
    65
 73
     0
 40
0.0
  0
LTYPE
  5
76D
330
70A
100
AcDbSymbolTableRecord
100
AcDbLinetypeTableRecord
  2
PHANTOM2
 70
     0
  3
Phantom (.5x) ___ _ _ ___ _ _ ___ _ _ ___ _ _
 72
    65
 73
     6
 40
1.25
 49
0.625
 74
     0
 49
-0.125
 74
     0
 49
0.125
 74
     0
 49
-0.125
 74
     0
 49
0.125
 74
     0
 49
-0.125
 74
     0
  0
LTYPE
  5
77B
330
70A
100
AcDbSymbolTableRecord
100
AcDbLinetypeTableRecord
  2
CENTER
 70
     0
  3
____ _ ____ _ ____ _ ____ _ ____ _ ____ _ ____
 72
    65
 73
     4
 40
5.059897
 49
3.162434999999998
 74
     0
 49
-0.6324870000000002
 74
     0
 49
0.6324870000000002
 74
     0
 49
-0.6324870000000002
 74
     0
  0
LTYPE
  5
77C
330
70A
100
AcDbSymbolTableRecord
100
AcDbLinetypeTableRecord
  2
DASHED
 70
     0
  3
__ __ __ __ __ __ __ __ __ __ __ __ __ __ __ __
 72
    65
 73
     2
 40
7.589844999999998
 49
5.059897
 74
     0
 49
-2.529948
 74
     0
  0
LTYPE
  5
854
330
70A
100
AcDbSymbolTableRecord
100
AcDbLinetypeTableRecord
  2
HIDDEN
 70
     0
  3
Hidden __ __ __ __ __ __ __ __ __ __ __ __ __ _
 72
    65
 73
     2
 40
0.375
 49
0.25
 74
     0
 49
-0.125
 74
     0
  0
LTYPE
  5
88E
330
70A
100
AcDbSymbolTableRecord
100
AcDbLinetypeTableRecord
  2
AM_ISO02W050
 70
     0
  3
__ __ __ __ __ __ __ __ __ __ __ __ __ __ __
 72
    65
 73
     2
 40
7.5
 49
6.0
 74
     0
 49
-1.5
 74
     0
  0
LTYPE
  5
88F
330
70A
100
AcDbSymbolTableRecord
100
AcDbLinetypeTableRecord
  2
AM_ISO08W050
 70
     0
  3
____ . ____ . ____ . ____ . ____ . ____ . ____
 72
    65
 73
     4
 40
18.0
 49
12.0
 74
     0
 49
-1.5
 74
     0
 49
3.0
 74
     0
 49
-1.5
 74
     0
  0
LTYPE
  5
890
330
70A
100
AcDbSymbolTableRecord
100
AcDbLinetypeTableRecord
  2
AM_ISO09W050
 70
     0
  3
_____ . . _____ . . _____ . . ____ .. ____
 72
    65
 73
     6
 40
22.5
 49
12.0
 74
     0
 49
-1.5
 74
     0
 49
3.0
 74
     0
 49
-1.5
 74
     0
 49
3.0
 74
     0
 49
-1.5
 74
     0
  0
LTYPE
  5
891
330
70A
100
AcDbSymbolTableRecord
100
AcDbLinetypeTableRecord
  2
Amconstr
 70
     0
  3
_______________________
 72
    65
 73
     2
 40
9999.0
 49
9999.0
 74
     0
 49
0.0
 74
     0
  0
LTYPE
  5
892
330
70A
100
AcDbSymbolTableRecord
100
AcDbLinetypeTableRecord
  2
AM_ISO08W050x2
 70
     0
  3
__ . __ . __ . __ . __ . __
 72
    65
 73
     4
 40
9.0
 49
6.0
 74
     0
 49
-0.75
 74
     0
 49
1.5
 74
     0
 49
-0.75
 74
     0
  0
LTYPE
  5
893
330
70A
100
AcDbSymbolTableRecord
100
AcDbLinetypeTableRecord
  2
AM_ISO02W050x2
 70
     0
  3
 _ _ _ _ _ _ _ _ _ _ _ _
 72
    65
 73
     2
 40
3.75
 49
3.0
 74
     0
 49
-0.75
 74
     0
  0
LTYPE
  5
896
330
70A
100
AcDbSymbolTableRecord
100
AcDbLinetypeTableRecord
  2
Amzigzag
 70
     0
  3
/\/-/\/-/\/-/\/-/\/-/\/
 72
    65
 73
     2
 40
11.0001
 49
0.0001
 74
     4
 75
   136
340
895
 46
0.04
 50
0.0
 44
0.0
 45
0.0
 49
-11.0
 74
     0
  0
LTYPE
  5
897
330
70A
100
AcDbSymbolTableRecord
100
AcDbLinetypeTableRecord
  2
CENTER2
 70
     0
  3
Center (.5x) ___ _ ___ _ ___ _ ___ _ ___ _ ___
 72
    65
 73
     4
 40
1.125
 49
0.75
 74
     0
 49
-0.125
 74
     0
 49
0.125
 74
     0
 49
-0.125
 74
     0
  0
LTYPE
  5
898
330
70A
100
AcDbSymbolTableRecord
100
AcDbLinetypeTableRecord
  2
HIDDEN2
 70
     0
  3
Hidden (.5x) _ _ _ _ _ _ _ _ _ _ _ _ _ _ _ _ _
 72
    65
 73
     2
 40
0.1875
 49
0.125
 74
     0
 49
-0.0625
 74
     0
  0
LTYPE
  5
899
330
70A
100
AcDbSymbolTableRecord
100
AcDbLinetypeTableRecord
  2
Amzigzag2
 70
     0
  3
/\/-/\/-/\/-/\/-/\/-/\/
 72
    65
 73
     2
 40
0.4401
 49
0.0001
 74
     4
 75
   136
340
895
 46
0.0016
 50
0.0
 44
0.0
 45
0.0
 49
-0.4400000000000001
 74
     0
  0
LTYPE
  5
8A9
330
70A
100
AcDbSymbolTableRecord
100
AcDbLinetypeTableRecord
  2
ACANSTGB
 70
     0
  3
__ . . __ . .
 72
    65
 73
     6
 40
0.35433070866
 49
0.15748031496
 74
     0
 49
-0.03937007874
 74
     0
 49
0.03937007874
 74
     0
 49
-0.03937007874
 74
     0
 49
0.03937007874
 74
     0
 49
-0.03937007874
 74
     0
  0
LTYPE
  5
8AA
330
70A
100
AcDbSymbolTableRecord
100
AcDbLinetypeTableRecord
  2
ACANSTGL
 70
     0
  3
_ _ _ _ _
 72
    65
 73
     2
 40
0.11811023622
 49
0.07874015748
 74
     0
 49
-0.03937007874
 74
     0
  0
ENDTAB
  0
TABLE
  2
LAYER
  5
707
330
0
100
AcDbSymbolTable
 70
    39
  0
LAYER
  5
759
102
{ACAD_XDICTIONARY
360
7AF
102
}
330
707
100
AcDbSymbolTableRecord
100
AcDbLayerTableRecord
  2
0
 70
     0
 62
     7
  6
CONTINUOUS
370
    -3
390
714
  0
LAYER
  5
779
102
{ACAD_XDICTIONARY
360
7B1
102
}
330
707
100
AcDbSymbolTableRecord
100
AcDbLayerTableRecord
  2
1
 70
     0
 62
     4
  6
CONTINUOUS
370
    -3
390
714
  0
LAYER
  5
77D
102
{ACAD_XDICTIONARY
360
7B3
102
}
330
707
100
AcDbSymbolTableRecord
100
AcDbLayerTableRecord
  2
61
 70
     0
 62
     5
  6
CONTINUOUS
370
    -3
390
714
  0
LAYER
  5
77E
102
{ACAD_XDICTIONARY
360
7B5
102
}
330
707
100
AcDbSymbolTableRecord
100
AcDbLayerTableRecord
  2
62
 70
     0
 62
    -5
  6
CONTINUOUS
370
    -3
390
714
  0
LAYER
  5
77F
102
{ACAD_XDICTIONARY
360
7B7
102
}
330
707
100
AcDbSymbolTableRecord
100
AcDbLayerTableRecord
  2
63
 70
     0
 62
    -5
  6
CONTINUOUS
370
    -3
390
714
  0
LAYER
  5
780
102
{ACAD_XDICTIONARY
360
7B9
102
}
330
707
100
AcDbSymbolTableRecord
100
AcDbLayerTableRecord
  2
64
 70
     0
 62
    -5
  6
CONTINUOUS
370
    -3
390
714
  0
LAYER
  5
781
102
{ACAD_XDICTIONARY
360
7BB
102
}
330
707
100
AcDbSymbolTableRecord
100
AcDbLayerTableRecord
  2
65
 70
     0
 62
    -5
  6
CONTINUOUS
370
    -3
390
714
  0
LAYER
  5
782
102
{ACAD_XDICTIONARY
360
7BD
102
}
330
707
100
AcDbSymbolTableRecord
100
AcDbLayerTableRecord
  2
66
 70
     0
 62
    -5
  6
CONTINUOUS
370
    -3
390
714
  0
LAYER
  5
783
102
{ACAD_XDICTIONARY
360
7BF
102
}
330
707
100
AcDbSymbolTableRecord
100
AcDbLayerTableRecord
  2
67
 70
     0
 62
    -5
  6
CONTINUOUS
370
    -3
390
714
  0
LAYER
  5
784
102
{ACAD_XDICTIONARY
360
7C1
102
}
330
707
100
AcDbSymbolTableRecord
100
AcDbLayerTableRecord
  2
68
 70
     0
 62
    -5
  6
CONTINUOUS
370
    -3
390
714
  0
LAYER
  5
785
102
{ACAD_XDICTIONARY
360
7C3
102
}
330
707
100
AcDbSymbolTableRecord
100
AcDbLayerTableRecord
  2
69
 70
     0
 62
    -5
  6
CONTINUOUS
370
    -3
390
714
  0
LAYER
  5
786
102
{ACAD_XDICTIONARY
360
7C5
102
}
330
707
100
AcDbSymbolTableRecord
100
AcDbLayerTableRecord
  2
70
 70
     0
 62
     5
  6
CONTINUOUS
370
    -3
390
714
  0
LAYER
  5
787
102
{ACAD_XDICTIONARY
360
7C7
102
}
330
707
100
AcDbSymbolTableRecord
100
AcDbLayerTableRecord
  2
2
 70
     0
 62
     7
  6
CONTINUOUS
370
    -3
390
714
  0
LAYER
  5
788
102
{ACAD_XDICTIONARY
360
7C9
102
}
330
707
100
AcDbSymbolTableRecord
100
AcDbLayerTableRecord
  2
3
 70
     0
 62
     1
  6
DASHED
370
    -3
390
714
  0
LAYER
  5
789
102
{ACAD_XDICTIONARY
360
7CB
102
}
330
707
100
AcDbSymbolTableRecord
100
AcDbLayerTableRecord
  2
4
 70
     0
 62
    -2
  6
CENTER
370
    -3
390
714
  0
LAYER
  5
78A
102
{ACAD_XDICTIONARY
360
7CD
102
}
330
707
100
AcDbSymbolTableRecord
100
AcDbLayerTableRecord
  2
5
 70
     0
 62
    -7
  6
CONTINUOUS
370
    -3
390
714
  0
LAYER
  5
78B
102
{ACAD_XDICTIONARY
360
7CF
102
}
330
707
100
AcDbSymbolTableRecord
100
AcDbLayerTableRecord
  2
SK1
 70
     0
 62
     4
  6
CONTINUOUS
370
    -3
390
714
  0
LAYER
  5
78C
102
{ACAD_XDICTIONARY
360
7D1
102
}
330
707
100
AcDbSymbolTableRecord
100
AcDbLayerTableRecord
  2
6
 70
     0
 62
     5
  6
CONTINUOUS
370
    -3
390
714
  0
LAYER
  5
78D
102
{ACAD_XDICTIONARY
360
7D3
102
}
330
707
100
AcDbSymbolTableRecord
100
AcDbLayerTableRecord
  2
SK2
 70
     0
 62
     7
  6
CONTINUOUS
370
    -3
390
714
  0
LAYER
  5
78E
102
{ACAD_XDICTIONARY
360
7D5
102
}
330
707
100
AcDbSymbolTableRecord
100
AcDbLayerTableRecord
  2
SK3
 70
     0
 62
     1
  6
DASHED
370
    -3
390
714
  0
LAYER
  5
78F
102
{ACAD_XDICTIONARY
360
7D7
102
}
330
707
100
AcDbSymbolTableRecord
100
AcDbLayerTableRecord
  2
SK4
 70
     0
 62
     2
  6
CENTER
370
    -3
390
714
  0
LAYER
  5
790
102
{ACAD_XDICTIONARY
360
7D9
102
}
330
707
100
AcDbSymbolTableRecord
100
AcDbLayerTableRecord
  2
CUT
 70
     0
 62
    -1
  6
CONTINUOUS
370
    -3
390
714
  0
LAYER
  5
791
102
{ACAD_XDICTIONARY
360
7DB
102
}
330
707
100
AcDbSymbolTableRecord
100
AcDbLayerTableRecord
  2
SK6
 70
     0
 62
     5
  6
CONTINUOUS
370
    -3
390
714
  0
LAYER
  5
792
102
{ACAD_XDICTIONARY
360
7DD
102
}
330
707
100
AcDbSymbolTableRecord
100
AcDbLayerTableRecord
  2
80
 70
     0
 62
    -2
  6
CENTER
370
    -3
390
714
  0
LAYER
  5
793
102
{ACAD_XDICTIONARY
360
7DF
102
}
330
707
100
AcDbSymbolTableRecord
100
AcDbLayerTableRecord
  2
81
 70
     0
 62
    -2
  6
CENTER
370
    -3
390
714
  0
LAYER
  5
794
102
{ACAD_XDICTIONARY
360
7E1
102
}
330
707
100
AcDbSymbolTableRecord
100
AcDbLayerTableRecord
  2
82
 70
     0
 62
    -2
  6
CENTER
370
    -3
390
714
  0
LAYER
  5
795
102
{ACAD_XDICTIONARY
360
7E3
102
}
330
707
100
AcDbSymbolTableRecord
100
AcDbLayerTableRecord
  2
NOCUT
 70
     0
 62
     7
  6
CONTINUOUS
370
    -3
390
714
  0
LAYER
  5
796
102
{ACAD_XDICTIONARY
360
7E5
102
}
330
707
100
AcDbSymbolTableRecord
100
AcDbLayerTableRecord
  2
50
 70
     0
 62
    -7
  6
CONTINUOUS
370
    -3
390
714
  0
LAYER
  5
797
102
{ACAD_XDICTIONARY
360
7E7
102
}
330
707
100
AcDbSymbolTableRecord
100
AcDbLayerTableRecord
  2
51
 70
     0
 62
     7
  6
CONTINUOUS
370
    -3
390
714
  0
LAYER
  5
798
102
{ACAD_XDICTIONARY
360
7E9
102
}
330
707
100
AcDbSymbolTableRecord
100
AcDbLayerTableRecord
  2
52
 70
     0
 62
    -7
  6
CONTINUOUS
370
    -3
390
714
  0
LAYER
  5
799
102
{ACAD_XDICTIONARY
360
7EB
102
}
330
707
100
AcDbSymbolTableRecord
100
AcDbLayerTableRecord
  2
53
 70
     0
 62
    -7
  6
CONTINUOUS
370
    -3
390
714
  0
LAYER
  5
79A
102
{ACAD_XDICTIONARY
360
7ED
102
}
330
707
100
AcDbSymbolTableRecord
100
AcDbLayerTableRecord
  2
54
 70
     0
 62
    -7
  6
CONTINUOUS
370
    -3
390
714
  0
LAYER
  5
79B
102
{ACAD_XDICTIONARY
360
7EF
102
}
330
707
100
AcDbSymbolTableRecord
100
AcDbLayerTableRecord
  2
55
 70
     0
 62
    -7
  6
CONTINUOUS
370
    -3
390
714
  0
LAYER
  5
79C
102
{ACAD_XDICTIONARY
360
7F1
102
}
330
707
100
AcDbSymbolTableRecord
100
AcDbLayerTableRecord
  2
56
 70
     0
 62
    -7
  6
CONTINUOUS
370
    -3
390
714
  0
LAYER
  5
79D
102
{ACAD_XDICTIONARY
360
7F3
102
}
330
707
100
AcDbSymbolTableRecord
100
AcDbLayerTableRecord
  2
57
 70
     0
 62
    -7
  6
CONTINUOUS
370
    -3
390
714
  0
LAYER
  5
79E
102
{ACAD_XDICTIONARY
360
7F5
102
}
330
707
100
AcDbSymbolTableRecord
100
AcDbLayerTableRecord
  2
58
 70
     0
 62
    -7
  6
CONTINUOUS
370
    -3
390
714
  0
LAYER
  5
79F
102
{ACAD_XDICTIONARY
360
7F7
102
}
330
707
100
AcDbSymbolTableRecord
100
AcDbLayerTableRecord
  2
2L
 70
     0
 62
     7
  6
CONTINUOUS
370
    -3
390
714
  0
LAYER
  5
7A0
102
{ACAD_XDICTIONARY
360
7F9
102
}
330
707
100
AcDbSymbolTableRecord
100
AcDbLayerTableRecord
  2
59
 70
     0
 62
    -7
  6
CONTINUOUS
370
    -3
390
714
  0
LAYER
  5
954
330
707
100
AcDbSymbolTableRecord
100
AcDbLayerTableRecord
  2
Defpoints
 70
     0
 62
     7
  6
CONTINUOUS
290
     0
370
    -3
390
714
  0
ENDTAB
  0
TABLE
  2
STYLE
  5
708
330
0
100
AcDbSymbolTable
 70
     6
  0
STYLE
  5
75A
330
708
100
AcDbSymbolTableRecord
100
AcDbTextStyleTableRecord
  2
STANDARD
 70
     0
 40
0.0
 41
1.0
 50
0.0
 71
     0
 42
4.5
  3
simplex.shx
  4

  0
STYLE
  5
75E
330
708
100
AcDbSymbolTableRecord
100
AcDbTextStyleTableRecord
  2
Annotative
 70
     0
 40
0.0
 41
1.0
 50
0.0
 71
     0
 42
0.2
  3
txt
  4

1001
AcadAnnotative
1000
AnnotativeData
1002
{
1070
     1
1070
     1
1002
}
  0
STYLE
  5
77A
330
708
100
AcDbSymbolTableRecord
100
AcDbTextStyleTableRecord
  2
SANDVIK_STYLE
 70
     0
 40
3.0
 41
1.0
 50
0.0
 71
     0
 42
3.0
  3
simplex.shx
  4

  0
STYLE
  5
895
330
708
100
AcDbSymbolTableRecord
100
AcDbTextStyleTableRecord
  2

 70
     1
 40
0.0
 41
1.0
 50
0.0
 71
     0
 42
3.0
  3
genltshp.shx
  4

  0
STYLE
  5
8A7
330
708
100
AcDbSymbolTableRecord
100
AcDbTextStyleTableRecord
  2
ACANSTS
 70
     0
 40
0.0
 41
1.0
 50
0.0
 71
     0
 42
3.0
  3
romans.shx
  4

  0
STYLE
  5
8A8
330
708
100
AcDbSymbolTableRecord
100
AcDbTextStyleTableRecord
  2
ACANSGDT
 70
     0
 40
0.0
 41
1.0
 50
0.0
 71
     0
 42
3.0
  3
amgdt.shx
  4

  0
ENDTAB
  0
TABLE
  2
VIEW
  5
70B
330
0
100
AcDbSymbolTable
 70
     0
  0
ENDTAB
  0
TABLE
  2
UCS
  5
70C
330
0
100
AcDbSymbolTable
 70
     0
  0
ENDTAB
  0
TABLE
  2
APPID
  5
70E
330
0
100
AcDbSymbolTable
 70
    15
  0
APPID
  5
75B
330
70E
100
AcDbSymbolTableRecord
100
AcDbRegAppTableRecord
  2
ACAD
 70
     0
  0
APPID
  5
762
330
70E
100
AcDbSymbolTableRecord
100
AcDbRegAppTableRecord
  2
AcadAnnotative
 70
     0
  0
APPID
  5
805
330
70E
100
AcDbSymbolTableRecord
100
AcDbRegAppTableRecord
  2
ACAD_NAV_VCDISPLAY
 70
     0
  0
APPID
  5
83F
330
70E
100
AcDbSymbolTableRecord
100
AcDbRegAppTableRecord
  2
ACAD_MLEADERVER
 70
     0
  0
APPID
  5
84D
330
70E
100
AcDbSymbolTableRecord
100
AcDbRegAppTableRecord
  2
MCAD_NO_VIS
 70
     0
  0
APPID
  5
84E
330
70E
100
AcDbSymbolTableRecord
100
AcDbRegAppTableRecord
  2
ACAD_TEMP_GRAPHIC
 70
     0
  0
APPID
  5
859
330
70E
100
AcDbSymbolTableRecord
100
AcDbRegAppTableRecord
  2
ACATTRIBSERVICES
 70
     0
  0
APPID
  5
871
330
70E
100
AcDbSymbolTableRecord
100
AcDbRegAppTableRecord
  2
DESIGNERASSEMBLIES
 70
     0
  0
APPID
  5
88B
330
70E
100
AcDbSymbolTableRecord
100
AcDbRegAppTableRecord
  2
ACAD_DSTYLE_DIMJAG
 70
     0
  0
APPID
  5
88C
330
70E
100
AcDbSymbolTableRecord
100
AcDbRegAppTableRecord
  2
ACAD_DSTYLE_DIMBREAK
 70
     0
  0
APPID
  5
8C0
330
70E
100
AcDbSymbolTableRecord
100
AcDbRegAppTableRecord
  2
ACAD_EXEMPT_FROM_CAD_STANDARDS
 70
     0
  0
APPID
  5
99E
330
70E
100
AcDbSymbolTableRecord
100
AcDbRegAppTableRecord
  2
ACAD_DSTYLE_DIMARC_LENGTH_SYMBOL
 70
     0
  0
APPID
  5
99F
330
70E
100
AcDbSymbolTableRecord
100
AcDbRegAppTableRecord
  2
ACAD_DSTYLE_DIM_LINETYPE
 70
     0
  0
APPID
  5
9A0
330
70E
100
AcDbSymbolTableRecord
100
AcDbRegAppTableRecord
  2
ACAD_DSTYLE_DIM_EXT1_LINETYPE
 70
     0
  0
APPID
  5
9A1
330
70E
100
AcDbSymbolTableRecord
100
AcDbRegAppTableRecord
  2
ACAD_DSTYLE_DIM_EXT2_LINETYPE
 70
     0
  0
ENDTAB
  0
TABLE
  2
DIMSTYLE
  5
70F
330
0
100
AcDbSymbolTable
 70
     9
100
AcDbDimStyleTable
 71
     0
  0
DIMSTYLE
105
75C
330
70F
100
AcDbSymbolTableRecord
100
AcDbDimStyleTableRecord
  2
STANDARD
 70
     0
  4
 
 41
3.0
 42
2.5
 43
10.0
 44
2.5
 46
1.25
 73
     0
 74
     0
140
3.0
141
-3.0
143
0.039
145
1.5
146
0.75
147
1.5
271
     2
272
     2
279
     2
340
77A
  0
DIMSTYLE
105
75D
330
70F
100
AcDbSymbolTableRecord
100
AcDbDimStyleTableRecord
  2
Annotative
 70
     0
340
75A
1001
AcadAnnotative
1000
AnnotativeData
1002
{
1070
     1
1070
     1
1002
}
  0
DIMSTYLE
105
7A1
102
{ACAD_REACTORS
330
40A
330
40B
330
40C
330
40D
330
40E
102
}
330
70F
100
AcDbSymbolTableRecord
100
AcDbDimStyleTableRecord
  2
SANDVIK_DIM
 70
     0
  4
 
 40
0.0
 41
4.57
 42
0.0
 44
5.0
 73
     0
 74
     0
 77
     1
 78
     8
140
4.5
147
2.299999999999998
176
   256
177
   256
178
   256
271
     2
272
     2
279
     2
340
77A
  0
DIMSTYLE
105
88A
102
{ACAD_REACTORS
330
87A
102
}
330
70F
100
AcDbSymbolTableRecord
100
AcDbDimStyleTableRecord
  2
AM_ANSI
 70
     0
  4
mm
 41
0.12
 42
0.05
 43
0.5
 44
0.1
 47
0.1
 48
0.1
 78
     7
 79
     2
140
0.12
141
0.0
146
0.71
147
0.06
176
   256
177
   256
178
     2
274
     4
284
     7
340
75A
371
    -1
372
    -1
1001
ACAD_DSTYLE_DIMJAG
1070
   388
1040
1.5
1001
ACAD_DSTYLE_DIMBREAK
1070
   391
1040
0.125
1001
ACAD_DSTYLE_DIMARC_LENGTH_SYMBOL
1070
   379
1070
     1
1001
ACAD_DSTYLE_DIM_LINETYPE
1070
   380
1005
75F
1001
ACAD_DSTYLE_DIM_EXT1_LINETYPE
1070
   381
1005
75F
1001
ACAD_DSTYLE_DIM_EXT2_LINETYPE
1070
   382
1005
75F
  0
DIMSTYLE
105
89A
330
70F
100
AcDbSymbolTableRecord
100
AcDbDimStyleTableRecord
  2
AM_ANSI$3
 70
     0
  4
mm
 41
0.12
 42
0.05
 43
0.5
 44
0.1
 47
0.1
 48
0.1
 78
     7
 79
     2
140
0.12
141
0.0
146
0.71
147
0.06
176
   256
177
   256
178
     2
274
     4
284
     7
288
     1
289
     0
340
75A
371
    -1
372
    -1
1001
ACAD_DSTYLE_DIMBREAK
1070
   391
1040
0.125
1001
ACAD_DSTYLE_DIMJAG
1070
   388
1040
1.5
1001
ACAD_DSTYLE_DIMARC_LENGTH_SYMBOL
1070
   379
1070
     1
1001
ACAD_DSTYLE_DIM_LINETYPE
1070
   380
1005
75F
1001
ACAD_DSTYLE_DIM_EXT1_LINETYPE
1070
   381
1005
75F
1001
ACAD_DSTYLE_DIM_EXT2_LINETYPE
1070
   382
1005
75F
  0
DIMSTYLE
105
89B
330
70F
100
AcDbSymbolTableRecord
100
AcDbDimStyleTableRecord
  2
AM_ANSI$4
 70
     0
  4
mm
 41
0.12
 42
0.05
 43
0.5
 44
0.1
 47
0.1
 48
0.1
 78
     7
 79
     2
140
0.12
141
0.0
146
0.71
147
0.06
176
   256
177
   256
178
     2
274
     4
284
     7
288
     1
289
     0
340
75A
371
    -1
372
    -1
1001
ACAD_DSTYLE_DIMBREAK
1070
   391
1040
0.125
1001
ACAD_DSTYLE_DIMJAG
1070
   388
1040
1.5
1001
ACAD_DSTYLE_DIMARC_LENGTH_SYMBOL
1070
   379
1070
     1
1001
ACAD_DSTYLE_DIM_LINETYPE
1070
   380
1005
75F
1001
ACAD_DSTYLE_DIM_EXT1_LINETYPE
1070
   381
1005
75F
1001
ACAD_DSTYLE_DIM_EXT2_LINETYPE
1070
   382
1005
75F
  0
DIMSTYLE
105
89C
330
70F
100
AcDbSymbolTableRecord
100
AcDbDimStyleTableRecord
  2
AM_ANSI$7
 70
     0
  4
mm
 41
0.12
 42
0.05
 43
0.5
 44
0.1
 47
0.1
 48
0.1
 78
     7
 79
     2
140
0.12
141
0.0
146
0.71
147
0.06
176
   256
177
   256
178
     2
274
     4
284
     7
340
75A
371
    -1
372
    -1
1001
ACAD_DSTYLE_DIMBREAK
1070
   391
1040
0.125
1001
ACAD_DSTYLE_DIMJAG
1070
   388
1040
1.5
1001
ACAD_DSTYLE_DIMARC_LENGTH_SYMBOL
1070
   379
1070
     1
1001
ACAD_DSTYLE_DIM_LINETYPE
1070
   380
1005
75F
1001
ACAD_DSTYLE_DIM_EXT1_LINETYPE
1070
   381
1005
75F
1001
ACAD_DSTYLE_DIM_EXT2_LINETYPE
1070
   382
1005
75F
  0
DIMSTYLE
105
89D
330
70F
100
AcDbSymbolTableRecord
100
AcDbDimStyleTableRecord
  2
AM_ANSI$SF
 70
     0
  4
mm
 41
0.12
 42
0.05
 43
0.5
 44
0.1
 47
0.1
 48
0.1
 75
     1
 76
     1
 78
     7
 79
     2
140
0.12
141
0.0
146
0.71
147
0.06
176
   256
177
   256
178
     2
274
     4
284
     7
340
75A
371
    -1
372
    -1
1001
ACAD_DSTYLE_DIMBREAK
1070
   391
1040
0.125
1001
ACAD_DSTYLE_DIMJAG
1070
   388
1040
1.5
1001
ACAD_DSTYLE_DIMARC_LENGTH_SYMBOL
1070
   379
1070
     1
1001
ACAD_DSTYLE_DIM_LINETYPE
1070
   380
1005
75F
1001
ACAD_DSTYLE_DIM_EXT1_LINETYPE
1070
   381
1005
75F
1001
ACAD_DSTYLE_DIM_EXT2_LINETYPE
1070
   382
1005
75F
  0
DIMSTYLE
105
8A2
330
70F
100
AcDbSymbolTableRecord
100
AcDbDimStyleTableRecord
  2
AM_ANSI$SH
 70
     0
  4
mm
 41
0.12
 42
0.05
 43
0.5
 44
0.1
 47
0.1
 48
0.1
 75
     1
 76
     1
 78
     7
 79
     2
140
0.12
141
0.0
146
0.71
147
0.06
173
     1
176
   256
177
   256
178
     2
274
     4
284
     7
340
75A
343
89E
371
    -1
372
    -1
1001
ACAD_DSTYLE_DIMBREAK
1070
   391
1040
0.125
1001
ACAD_DSTYLE_DIMJAG
1070
   388
1040
1.5
1001
ACAD_DSTYLE_DIMARC_LENGTH_SYMBOL
1070
   379
1070
     1
1001
ACAD_DSTYLE_DIM_LINETYPE
1070
   380
1005
75F
1001
ACAD_DSTYLE_DIM_EXT1_LINETYPE
1070
   381
1005
75F
1001
ACAD_DSTYLE_DIM_EXT2_LINETYPE
1070
   382
1005
75F
  0
ENDTAB
  0
TABLE
  2
BLOCK_RECORD
  5
706
330
0
100
AcDbSymbolTable
 70
    10
  0
BLOCK_RECORD
  5
775
330
706
100
AcDbSymbolTableRecord
100
AcDbBlockTableRecord
  2
*Model_Space
340
778
  0
BLOCK_RECORD
  5
771
330
706
100
AcDbSymbolTableRecord
100
AcDbBlockTableRecord
  2
*Paper_Space
340
774
  0
BLOCK_RECORD
  5
7A5
330
706
100
AcDbSymbolTableRecord
100
AcDbBlockTableRecord
  2
*D0
340
0
  0
BLOCK_RECORD
  5
7A6
330
706
100
AcDbSymbolTableRecord
100
AcDbBlockTableRecord
  2
*D1
340
0
  0
BLOCK_RECORD
  5
7A7
330
706
100
AcDbSymbolTableRecord
100
AcDbBlockTableRecord
  2
*D2
340
0
  0
BLOCK_RECORD
  5
7A8
330
706
100
AcDbSymbolTableRecord
100
AcDbBlockTableRecord
  2
*D3
340
0
  0
BLOCK_RECORD
  5
7A9
330
706
100
AcDbSymbolTableRecord
100
AcDbBlockTableRecord
  2
*D4
340
0
  0
BLOCK_RECORD
  5
7AA
330
706
100
AcDbSymbolTableRecord
100
AcDbBlockTableRecord
  2
*D5
340
0
  0
BLOCK_RECORD
  5
89E
330
706
100
AcDbSymbolTableRecord
100
AcDbBlockTableRecord
  2
GENAXEH
340
0
  0
BLOCK_RECORD
  5
8AC
330
706
100
AcDbSymbolTableRecord
100
AcDbBlockTableRecord
  2
_ACMFILLEDHALF
340
0
  0
BLOCK_RECORD
  5
955
330
706
100
AcDbSymbolTableRecord
100
AcDbBlockTableRecord
  2
*D9
340
0
  0
ENDTAB
  0
ENDSEC
  0
SECTION
  2
BLOCKS
  0
BLOCK
  5
776
330
775
100
AcDbEntity
  8
0
100
AcDbBlockBegin
  2
*Model_Space
 70
     0
 10
0.0
 20
0.0
 30
0.0
  3
*Model_Space
  1

  0
ENDBLK
  5
777
330
775
100
AcDbEntity
  8
0
100
AcDbBlockEnd
  0
BLOCK
  5
772
330
771
100
AcDbEntity
 67
     1
  8
0
100
AcDbBlockBegin
  2
*Paper_Space
 70
     0
 10
0.0
 20
0.0
 30
0.0
  3
*Paper_Space
  1

  0
ENDBLK
  5
773
330
771
100
AcDbEntity
 67
     1
  8
0
100
AcDbBlockEnd
  0
BLOCK
  5
2
330
7A5
100
AcDbEntity
  8
0
100
AcDbBlockBegin
  2
*D0
 70
     1
 10
0.0
 20
0.0
 30
0.0
  3
*D0
  1

  0
LINE
  5
3
330
7A5
100
AcDbEntity
  8
0
100
AcDbLine
 10
0.0
 20
33.5875
 30
0.0
 11
0.0
 21
60.092589
 31
0.0
  0
LINE
  5
4
330
7A5
100
AcDbEntity
  8
0
100
AcDbLine
 10
75.0
 20
26.5875
 30
0.0
 11
75.0
 21
60.092589
 31
0.0
  0
LINE
  5
5
330
7A5
100
AcDbEntity
  8
0
100
AcDbLine
 10
0.0
 20
58.092589
 30
0.0
 11
75.0
 21
58.092589
 31
0.0
  0
SOLID
  5
6
330
7A5
100
AcDbEntity
  8
0
100
AcDbTrace
 10
0.0
 20
58.092589
 30
0.0
 11
3.5
 21
58.553373
 31
0.0
 12
3.5
 22
57.631805
 32
0.0
 13
3.5
 23
57.631805
 33
0.0
  0
SOLID
  5
7
330
7A5
100
AcDbEntity
  8
0
100
AcDbTrace
 10
75.0
 20
58.092589
 30
0.0
 11
71.5
 21
57.631805
 31
0.0
 12
71.5
 22
58.553373
 32
0.0
 13
71.5
 23
58.553373
 33
0.0
  0
TEXT
  5
8
330
7A5
100
AcDbEntity
  8
0
100
AcDbText
 10
35.45526300000001
 20
59.842589
 30
0.0
 40
3.5
  1
75
100
AcDbText
  0
ENDBLK
  5
9
330
7A5
100
AcDbEntity
  8
0
100
AcDbBlockEnd
  0
BLOCK
  5
A
330
7A6
100
AcDbEntity
  8
0
100
AcDbBlockBegin
  2
*D1
 70
     1
 10
0.0
 20
0.0
 30
0.0
  3
*D1
  1

  0
LINE
  5
B
330
7A6
100
AcDbEntity
  8
0
100
AcDbLine
 10
39.161514
 20
32.0
 30
0.0
 11
107.499157
 21
32.0
 31
0.0
  0
LINE
  5
C
330
7A6
100
AcDbEntity
  8
0
100
AcDbLine
 10
39.161514
 20
-32.0
 30
0.0
 11
107.499157
 21
-32.0
 31
0.0
  0
LINE
  5
D
330
7A6
100
AcDbEntity
  8
0
100
AcDbLine
 10
105.499157
 20
32.0
 30
0.0
 11
105.499157
 21
-32.0
 31
0.0
  0
SOLID
  5
E
330
7A6
100
AcDbEntity
  8
0
100
AcDbTrace
 10
105.499157
 20
32.0
 30
0.0
 11
105.959941
 21
28.5
 31
0.0
 12
105.038373
 22
28.5
 32
0.0
 13
105.038373
 23
28.5
 33
0.0
  0
SOLID
  5
F
330
7A6
100
AcDbEntity
  8
0
100
AcDbTrace
 10
105.499157
 20
-32.0
 30
0.0
 11
105.038373
 21
-28.5
 31
0.0
 12
105.959941
 22
-28.5
 32
0.0
 13
105.959941
 23
-28.5
 33
0.0
  0
TEXT
  5
10
330
7A6
100
AcDbEntity
  8
0
100
AcDbText
 10
103.749157
 20
-2.228947
 30
0.0
 40
3.5
  1
64
 50
90.0
100
AcDbText
  0
ENDBLK
  5
11
330
7A6
100
AcDbEntity
  8
0
100
AcDbBlockEnd
  0
BLOCK
  5
12
330
7A7
100
AcDbEntity
  8
0
100
AcDbBlockBegin
  2
*D2
 70
     1
 10
0.0
 20
0.0
 30
0.0
  3
*D2
  1

  0
LINE
  5
13
330
7A7
100
AcDbEntity
  8
0
100
AcDbLine
 10
71.0875
 20
30.0
 30
0.0
 11
96.885673
 21
30.0
 31
0.0
  0
LINE
  5
14
330
7A7
100
AcDbEntity
  8
0
100
AcDbLine
 10
71.0875
 20
-30.0
 30
0.0
 11
96.885673
 21
-30.0
 31
0.0
  0
LINE
  5
15
330
7A7
100
AcDbEntity
  8
0
100
AcDbLine
 10
94.88567299999999
 20
30.0
 30
0.0
 11
94.88567299999999
 21
-30.0
 31
0.0
  0
SOLID
  5
16
330
7A7
100
AcDbEntity
  8
0
100
AcDbTrace
 10
94.88567299999999
 20
30.0
 30
0.0
 11
95.34645600000001
 21
26.5
 31
0.0
 12
94.424889
 22
26.5
 32
0.0
 13
94.424889
 23
26.5
 33
0.0
  0
SOLID
  5
17
330
7A7
100
AcDbEntity
  8
0
100
AcDbTrace
 10
94.88567299999999
 20
-30.0
 30
0.0
 11
94.424889
 21
-26.5
 31
0.0
 12
95.34645600000001
 22
-26.5
 32
0.0
 13
95.34645600000001
 23
-26.5
 33
0.0
  0
TEXT
  5
18
330
7A7
100
AcDbEntity
  8
0
100
AcDbText
 10
93.135673
 20
-2.044737
 30
0.0
 40
3.5
  1
60
 50
90.0
100
AcDbText
  0
ENDBLK
  5
19
330
7A7
100
AcDbEntity
  8
0
100
AcDbBlockEnd
  0
BLOCK
  5
1A
330
7A8
100
AcDbEntity
  8
0
100
AcDbBlockBegin
  2
*D3
 70
     1
 10
0.0
 20
0.0
 30
0.0
  3
*D3
  1

  0
LINE
  5
1B
330
7A8
100
AcDbEntity
  8
0
100
AcDbLine
 10
75.0
 20
-26.5875
 30
0.0
 11
75.0
 21
-56.406464
 31
0.0
  0
LINE
  5
1C
330
7A8
100
AcDbEntity
  8
0
100
AcDbLine
 10
44.20792399999998
 20
-31.5875
 30
0.0
 11
44.20792399999998
 21
-56.406464
 31
0.0
  0
LINE
  5
1D
330
7A8
100
AcDbEntity
  8
0
100
AcDbLine
 10
75.0
 20
-54.406464
 30
0.0
 11
44.20792399999998
 21
-54.406464
 31
0.0
  0
SOLID
  5
1E
330
7A8
100
AcDbEntity
  8
0
100
AcDbTrace
 10
75.0
 20
-54.406464
 30
0.0
 11
71.5
 21
-54.867248
 31
0.0
 12
71.5
 22
-53.94568
 32
0.0
 13
71.5
 23
-53.94568
 33
0.0
  0
SOLID
  5
1F
330
7A8
100
AcDbEntity
  8
0
100
AcDbTrace
 10
44.20792399999998
 20
-54.406464
 30
0.0
 11
47.707924
 21
-53.94568
 31
0.0
 12
47.707924
 22
-54.867248
 32
0.0
 13
47.707924
 23
-54.867248
 33
0.0
  0
TEXT
  5
20
330
7A8
100
AcDbEntity
  8
0
100
AcDbText
 10
57.99672499999999
 20
-52.656464
 30
0.0
 40
3.5
  1
31
100
AcDbText
  0
ENDBLK
  5
21
330
7A8
100
AcDbEntity
  8
0
100
AcDbBlockEnd
  0
BLOCK
  5
22
330
7A9
100
AcDbEntity
  8
0
100
AcDbBlockBegin
  2
*D4
 70
     1
 10
0.0
 20
0.0
 30
0.0
  3
*D4
  1

  0
LINE
  5
23
330
7A9
100
AcDbEntity
  8
0
100
AcDbLine
 10
75.0
 20
-26.5875
 30
0.0
 11
75.0
 21
-66.202324
 31
0.0
  0
LINE
  5
24
330
7A9
100
AcDbEntity
  8
0
100
AcDbLine
 10
0.0
 20
-33.5875
 30
0.0
 11
0.0
 21
-66.202324
 31
0.0
  0
LINE
  5
25
330
7A9
100
AcDbEntity
  8
0
100
AcDbLine
 10
75.0
 20
-64.202324
 30
0.0
 11
0.0
 21
-64.202324
 31
0.0
  0
SOLID
  5
26
330
7A9
100
AcDbEntity
  8
0
100
AcDbTrace
 10
75.0
 20
-64.202324
 30
0.0
 11
71.5
 21
-64.66310799999999
 31
0.0
 12
71.5
 22
-63.74154
 32
0.0
 13
71.5
 23
-63.74154
 33
0.0
  0
SOLID
  5
27
330
7A9
100
AcDbEntity
  8
0
100
AcDbTrace
 10
0.0
 20
-64.202324
 30
0.0
 11
3.5
 21
-63.74154
 31
0.0
 12
3.5
 22
-64.66310799999999
 32
0.0
 13
3.5
 23
-64.66310799999999
 33
0.0
  0
TEXT
  5
28
330
7A9
100
AcDbEntity
  8
0
100
AcDbText
 10
35.45526300000001
 20
-62.45232399999999
 30
0.0
 40
3.5
  1
75
100
AcDbText
  0
ENDBLK
  5
29
330
7A9
100
AcDbEntity
  8
0
100
AcDbBlockEnd
  0
BLOCK
  5
2A
330
7AA
100
AcDbEntity
  8
0
100
AcDbBlockBegin
  2
*D5
 70
     1
 10
0.0
 20
0.0
 30
0.0
  3
*D5
  1

  0
LINE
  5
2B
330
7AA
100
AcDbEntity
  8
0
100
AcDbLine
 10
75.0
 20
-26.5875
 30
0.0
 11
75.0
 21
-78.695637
 31
0.0
  0
LINE
  5
2C
330
7AA
100
AcDbEntity
  8
0
100
AcDbLine
 10
-10.0
 20
-16.088743
 30
0.0
 11
-10.0
 21
-78.695637
 31
0.0
  0
LINE
  5
2D
330
7AA
100
AcDbEntity
  8
0
100
AcDbLine
 10
75.0
 20
-76.69563700000002
 30
0.0
 11
-10.0
 21
-76.69563700000002
 31
0.0
  0
SOLID
  5
2E
330
7AA
100
AcDbEntity
  8
0
100
AcDbTrace
 10
75.0
 20
-76.69563700000002
 30
0.0
 11
71.5
 21
-77.156421
 31
0.0
 12
71.5
 22
-76.234853
 32
0.0
 13
71.5
 23
-76.234853
 33
0.0
  0
SOLID
  5
2F
330
7AA
100
AcDbEntity
  8
0
100
AcDbTrace
 10
-10.0
 20
-76.69563700000002
 30
0.0
 11
-6.5
 21
-76.234853
 31
0.0
 12
-6.5
 22
-77.156421
 32
0.0
 13
-6.5
 23
-77.156421
 33
0.0
  0
TEXT
  5
30
330
7AA
100
AcDbEntity
  8
0
100
AcDbText
 10
30.45526300000001
 20
-74.945637
 30
0.0
 40
3.5
  1
85
100
AcDbText
  0
ENDBLK
  5
31
330
7AA
100
AcDbEntity
  8
0
100
AcDbBlockEnd
  0
BLOCK
  5
8A0
330
89E
100
AcDbEntity
  8
0
100
AcDbBlockBegin
  2
GENAXEH
 70
     0
 10
0.0
 20
0.0
 30
0.0
  3
GENAXEH
  1

  0
LINE
  5
89F
330
89E
100
AcDbEntity
  8
0
100
AcDbLine
 10
-1.0
 20
0.0
 30
0.0
 11
1.0
 21
0.0
 31
0.0
  0
ENDBLK
  5
8A1
330
89E
100
AcDbEntity
  8
0
100
AcDbBlockEnd
  0
BLOCK
  5
8AD
330
8AC
100
AcDbEntity
  8
0
100
AcDbBlockBegin
  2
_ACMFILLEDHALF
 70
     0
 10
0.0
 20
0.0
 30
0.0
  3
_ACMFILLEDHALF
  1

  0
TRACE
  5
8AF
330
8AC
100
AcDbEntity
  8
1
 62
     0
100
AcDbTrace
 10
-0.8
 20
0.0
 30
0.0
 11
-1.0
 21
0.166666666
 31
0.0
 12
0.0
 22
0.0
 32
0.0
 13
0.0
 23
0.0
 33
0.0
  0
LINE
  5
8B0
330
8AC
100
AcDbEntity
  8
1
 62
     0
100
AcDbLine
 10
-1.0
 20
0.0
 30
0.0
 11
-0.8
 21
0.0
 31
0.0
  0
ENDBLK
  5
8AE
330
8AC
100
AcDbEntity
  8
0
100
AcDbBlockEnd
  0
BLOCK
  5
956
330
955
100
AcDbEntity
  8
0
100
AcDbBlockBegin
  2
*D9
 70
     1
 10
0.0
 20
0.0
 30
0.0
  3
*D9
  1

  0
LINE
  5
958
330
955
100
AcDbEntity
  8
2
370
    -2
100
AcDbLine
 10
75.0
 20
-26.5875
 30
0.0
 11
75.0
 21
-69.202324
 31
0.0
  0
LINE
  5
959
330
955
100
AcDbEntity
  8
2
370
    -2
100
AcDbLine
 10
0.0
 20
-33.5875
 30
0.0
 11
-0.0000000000000022
 21
-69.202324
 31
0.0
  0
LINE
  5
95A
330
955
100
AcDbEntity
  8
2
370
    -2
100
AcDbLine
 10
70.43000000000001
 20
-64.202324
 30
0.0
 11
4.569999999999998
 21
-64.202324
 31
0.0
  0
SOLID
  5
95B
330
955
100
AcDbEntity
  8
2
100
AcDbTrace
 10
70.43000000000001
 20
-63.44065733333334
 30
0.0
 11
70.43000000000001
 21
-64.96399066666667
 31
0.0
 12
75.0
 22
-64.202324
 32
0.0
 13
75.0
 23
-64.202324
 33
0.0
  0
SOLID
  5
95C
330
955
100
AcDbEntity
  8
2
100
AcDbTrace
 10
4.569999999999998
 20
-63.44065733333334
 30
0.0
 11
4.569999999999998
 21
-64.96399066666667
 31
0.0
 12
-0.0000000000000019
 22
-64.202324
 32
0.0
 13
-0.0000000000000019
 23
-64.202324
 33
0.0
  0
MTEXT
  5
95D
330
955
100
AcDbEntity
  8
2
100
AcDbMText
 10
37.5
 20
-60.402324
 30
0.0
 40
3.0
 41
0.0
 71
     5
 72
     1
  1
\A1;75
  7
SANDVIK_STYLE
 73
     1
 44
1.0
1001
ACAD
1000
MTEXTBEGIN
1070
    73
1070
     1
1070
    44
1040
1.0
1070
    74
1070
     0
1000
MTEXTEND
  0
POINT
  5
95E
330
955
100
AcDbEntity
  8
Defpoints
 62
     0
100
AcDbPoint
 10
75.0
 20
-26.5875
 30
0.0
  0
POINT
  5
95F
330
955
100
AcDbEntity
  8
Defpoints
 62
     0
100
AcDbPoint
 10
0.0
 20
-33.5875
 30
0.0
  0
POINT
  5
960
330
955
100
AcDbEntity
  8
Defpoints
 62
     0
100
AcDbPoint
 10
-0.0000000000000019
 20
-64.202324
 30
0.0
  0
ENDBLK
  5
957
330
955
100
AcDbEntity
  8
0
100
AcDbBlockEnd
  0
ENDSEC
  0
SECTION
  2
ENTITIES
  0
LINE
  5
32
330
775
100
AcDbEntity
  8
1
100
AcDbLine
 10
39.2
 20
-12.0675
 30
0.0
 11
33.669275
 21
-12.0675
 31
0.0
  0
LINE
  5
33
330
775
100
AcDbEntity
  8
1
100
AcDbLine
 10
32.0
 20
-24.9325
 30
0.0
 11
39.2
 21
-24.9325
 31
0.0
  0
LINE
  5
34
330
775
100
AcDbEntity
  8
SK1
100
AcDbLine
 10
-12.233
 20
-14.5
 30
0.0
 11
-13.0
 21
-15.267
 31
0.0
  0
LINE
  5
35
330
775
100
AcDbEntity
  8
SK1
100
AcDbLine
 10
-13.0
 20
-21.733
 30
0.0
 11
-12.233
 21
-22.5
 31
0.0
  0
LINE
  5
36
330
775
100
AcDbEntity
  8
SK1
100
AcDbLine
 10
-12.233
 20
-22.5
 30
0.0
 11
0.000516
 21
-22.5
 31
0.0
  0
LINE
  5
37
330
775
100
AcDbEntity
  8
SK1
100
AcDbLine
 10
0.000516
 20
-14.5
 30
0.0
 11
-12.233
 21
-14.5
 31
0.0
  0
LINE
  5
38
330
775
100
AcDbEntity
  8
1
100
AcDbLine
 10
69.5
 20
-30.0
 30
0.0
 11
74.5
 21
-25.0
 31
0.0
  0
LINE
  5
39
330
775
100
AcDbEntity
  8
1
100
AcDbLine
 10
74.5
 20
25.0
 30
0.0
 11
69.5
 21
30.0
 31
0.0
  0
LINE
  5
3A
330
775
100
AcDbEntity
  8
1
100
AcDbLine
 10
75.0
 20
25.0
 30
0.0
 11
74.5
 21
25.0
 31
0.0
  0
LINE
  5
3B
330
775
100
AcDbEntity
  8
1
100
AcDbLine
 10
74.5
 20
-25.0
 30
0.0
 11
75.0
 21
-25.0
 31
0.0
  0
LINE
  5
3C
330
775
100
AcDbEntity
  8
1
100
AcDbLine
 10
69.5
 20
30.0
 30
0.0
 11
44.20792399999998
 21
30.0
 31
0.0
  0
LINE
  5
3D
330
775
100
AcDbEntity
  8
1
100
AcDbLine
 10
44.20792399999998
 20
-30.0
 30
0.0
 11
69.5
 21
-30.0
 31
0.0
  0
LINE
  5
3E
330
775
100
AcDbEntity
  8
SK1
100
AcDbLine
 10
0.000219
 20
6.006249999999998
 30
0.0
 11
-8.5
 21
6.006249999999998
 31
0.0
  0
LINE
  5
3F
330
775
100
AcDbEntity
  8
SK1
100
AcDbLine
 10
-8.5
 20
-6.006249999999998
 30
0.0
 11
0.000219
 21
-6.006249999999998
 31
0.0
  0
LINE
  5
40
330
775
100
AcDbEntity
  8
SK1
100
AcDbLine
 10
-8.5
 20
6.006249999999998
 30
0.0
 11
-9.0
 21
5.824265
 31
0.0
  0
LINE
  5
41
330
775
100
AcDbEntity
  8
SK1
100
AcDbLine
 10
-9.0
 20
-5.824265
 30
0.0
 11
-8.5
 21
-6.006249999999998
 31
0.0
  0
LINE
  5
42
330
775
100
AcDbEntity
  8
1
100
AcDbLine
 10
39.2
 20
24.9325
 30
0.0
 11
32.0
 21
24.9325
 31
0.0
  0
LINE
  5
43
330
775
100
AcDbEntity
  8
1
100
AcDbLine
 10
33.674
 20
12.0675
 30
0.0
 11
39.2
 21
12.0675
 31
0.0
  0
LINE
  5
44
330
775
100
AcDbEntity
  8
SK1
100
AcDbLine
 10
-12.233
 20
22.5
 30
0.0
 11
-13.0
 21
21.733
 31
0.0
  0
LINE
  5
45
330
775
100
AcDbEntity
  8
SK1
100
AcDbLine
 10
-13.0
 20
15.267
 30
0.0
 11
-12.233
 21
14.5
 31
0.0
  0
LINE
  5
46
330
775
100
AcDbEntity
  8
SK1
100
AcDbLine
 10
-12.233
 20
14.5
 30
0.0
 11
0.000516
 21
14.5
 31
0.0
  0
LINE
  5
47
330
775
100
AcDbEntity
  8
SK1
100
AcDbLine
 10
0.000516
 20
22.5
 30
0.0
 11
-12.233
 21
22.5
 31
0.0
  0
LINE
  5
48
330
775
100
AcDbEntity
  8
SK1
100
AcDbLine
 10
-0.375
 20
-22.499835
 30
0.0
 11
-0.375
 21
-26.35
 31
0.0
  0
LINE
  5
49
330
775
100
AcDbEntity
  8
SK1
100
AcDbLine
 10
-0.375
 20
26.35
 30
0.0
 11
-0.375
 21
22.499835
 31
0.0
  0
LINE
  5
4A
330
775
100
AcDbEntity
  8
1
100
AcDbLine
 10
0.0
 20
7.0
 30
0.0
 11
0.0
 21
23.785444
 31
0.0
  0
LINE
  5
4B
330
775
100
AcDbEntity
  8
SK1
100
AcDbLine
 10
-8.0
 20
14.501179
 30
0.0
 11
-8.0
 21
6.006416999999999
 31
0.0
  0
LINE
  5
4C
330
775
100
AcDbEntity
  8
SK1
100
AcDbLine
 10
-8.0
 20
-6.004544
 30
0.0
 11
-8.0
 21
-14.499826
 31
0.0
  0
LINE
  5
4D
330
775
100
AcDbEntity
  8
1
100
AcDbLine
 10
0.0
 20
-23.785444
 30
0.0
 11
0.0
 21
-7.0
 31
0.0
  0
LINE
  5
4E
330
775
100
AcDbEntity
  8
1
100
AcDbLine
 10
32.0
 20
-18.014287
 30
0.0
 11
32.0
 21
-16.91898
 31
0.0
  0
LINE
  5
4F
330
775
100
AcDbEntity
  8
1
100
AcDbLine
 10
69.5
 20
20.62348
 30
0.0
 11
44.20792399999998
 21
20.62348
 31
0.0
  0
LINE
  5
50
330
775
100
AcDbEntity
  8
1
100
AcDbLine
 10
11.1262
 20
-32.0
 30
0.0
 11
0.0
 21
-32.0
 31
0.0
  0
LINE
  5
51
330
775
100
AcDbEntity
  8
1
100
AcDbLine
 10
31.58803
 20
-23.785444
 30
0.0
 11
0.0
 21
-23.785444
 31
0.0
  0
LINE
  5
52
330
775
100
AcDbEntity
  8
1
100
AcDbLine
 10
69.5
 20
-20.62348
 30
0.0
 11
69.5
 21
-30.0
 31
0.0
  0
LINE
  5
53
330
775
100
AcDbEntity
  8
1
100
AcDbLine
 10
-0.02129
 20
6.005799999999998
 30
0.0
 11
-0.02129
 21
14.499861
 31
0.0
  0
LINE
  5
54
330
775
100
AcDbEntity
  8
1
100
AcDbLine
 10
-0.02129
 20
-14.501141
 30
0.0
 11
-0.02129
 21
-6.007621
 31
0.0
  0
LINE
  5
55
330
775
100
AcDbEntity
  8
1
100
AcDbLine
 10
32.0
 20
-25.398463
 30
0.0
 11
32.0
 21
-18.014287
 31
0.0
  0
LINE
  5
56
330
775
100
AcDbEntity
  8
1
100
AcDbLine
 10
32.28277999999999
 20
26.471451
 30
0.0
 11
32.0
 21
26.471451
 31
0.0
  0
LINE
  5
57
330
775
100
AcDbEntity
  8
1
100
AcDbLine
 10
0.0
 20
7.0
 30
0.0
 11
32.15762700000001
 21
7.0
 31
0.0
  0
LINE
  5
58
330
775
100
AcDbEntity
  8
1
100
AcDbLine
 10
32.0
 20
-26.471451
 30
0.0
 11
32.28277999999999
 21
-26.471451
 31
0.0
  0
LINE
  5
59
330
775
100
AcDbEntity
  8
1
100
AcDbLine
 10
44.20792399999998
 20
-10.631984
 30
0.0
 11
44.20792399999998
 21
10.631984
 31
0.0
  0
LINE
  5
5A
330
775
100
AcDbEntity
  8
1
100
AcDbLine
 10
35.096726
 20
-32.0
 30
0.0
 11
17.8738
 21
-32.0
 31
0.0
  0
LINE
  5
5B
330
775
100
AcDbEntity
  8
1
100
AcDbLine
 10
75.0
 20
-25.0
 30
0.0
 11
75.0
 21
25.0
 31
0.0
  0
LINE
  5
5C
330
775
100
AcDbEntity
  8
1
100
AcDbLine
 10
44.20792399999998
 20
-30.0
 30
0.0
 11
44.20792399999998
 21
-20.62348
 31
0.0
  0
LINE
  5
5D
330
775
100
AcDbEntity
  8
1
100
AcDbLine
 10
19.517
 20
32.0
 30
0.0
 11
20.17057
 21
32.0
 31
0.0
  0
LINE
  5
5E
330
775
100
AcDbEntity
  8
1
100
AcDbLine
 10
35.096726
 20
32.0
 30
0.0
 11
20.17057
 21
32.0
 31
0.0
  0
LINE
  5
5F
330
775
100
AcDbEntity
  8
1
100
AcDbLine
 10
8.82943
 20
32.0
 30
0.0
 11
0.0
 21
32.0
 31
0.0
  0
LINE
  5
60
330
775
100
AcDbEntity
  8
1
100
AcDbLine
 10
44.20792399999998
 20
-20.62348
 30
0.0
 11
69.5
 21
-20.62348
 31
0.0
  0
LINE
  5
61
330
775
100
AcDbEntity
  8
1
100
AcDbLine
 10
32.053562
 20
16.91898
 30
0.0
 11
32.0
 21
16.91898
 31
0.0
  0
LINE
  5
62
330
775
100
AcDbEntity
  8
SK1
100
AcDbLine
 10
-2.5
 20
-6.006416999999999
 30
0.0
 11
-2.5
 21
-14.501179
 31
0.0
  0
LINE
  5
63
330
775
100
AcDbEntity
  8
SK1
100
AcDbLine
 10
-2.5
 20
14.499826
 30
0.0
 11
-2.5
 21
6.004544
 31
0.0
  0
LINE
  5
64
330
775
100
AcDbEntity
  8
1
100
AcDbLine
 10
32.0
 20
26.471451
 30
0.0
 11
32.0
 21
25.398463
 31
0.0
  0
LINE
  5
65
330
775
100
AcDbEntity
  8
1
100
AcDbLine
 10
32.616814
 20
14.164399
 30
0.0
 11
32.616814
 21
-14.164399
 31
0.0
  0
LINE
  5
66
330
775
100
AcDbEntity
  8
1
100
AcDbLine
 10
32.0
 20
-16.91898
 30
0.0
 11
32.053562
 21
-16.91898
 31
0.0
  0
LINE
  5
67
330
775
100
AcDbEntity
  8
SK1
100
AcDbLine
 10
-1.834315
 20
6.007621
 30
0.0
 11
-1.834315
 21
14.501141
 31
0.0
  0
LINE
  5
68
330
775
100
AcDbEntity
  8
SK1
100
AcDbLine
 10
-1.834315
 20
-14.499861
 30
0.0
 11
-1.834315
 21
-6.005799999999998
 31
0.0
  0
LINE
  5
69
330
775
100
AcDbEntity
  8
1
100
AcDbLine
 10
0.0
 20
-7.0
 30
0.0
 11
32.15762700000001
 21
-7.0
 31
0.0
  0
LINE
  5
6A
330
775
100
AcDbEntity
  8
1
100
AcDbLine
 10
0.0
 20
-23.785444
 30
0.0
 11
0.0
 21
-32.0
 31
0.0
  0
LINE
  5
6B
330
775
100
AcDbEntity
  8
1
100
AcDbLine
 10
0.0
 20
32.0
 30
0.0
 11
0.0
 21
23.785444
 31
0.0
  0
LINE
  5
6C
330
775
100
AcDbEntity
  8
SK1
100
AcDbLine
 10
-10.0
 20
14.499968
 30
0.0
 11
-10.0
 21
-14.501243
 31
0.0
  0
LINE
  5
6D
330
775
100
AcDbEntity
  8
1
100
AcDbLine
 10
19.517476
 20
-31.76308
 30
0.0
 11
19.517479
 21
-32.000832
 31
0.0
  0
LINE
  5
6E
330
775
100
AcDbEntity
  8
1
100
AcDbLine
 10
8.82943
 20
32.0
 30
0.0
 11
9.482999999999998
 21
32.0
 31
0.0
  0
LINE
  5
6F
330
775
100
AcDbEntity
  8
1
100
AcDbLine
 10
69.5
 20
30.0
 30
0.0
 11
69.5
 21
20.62348
 31
0.0
  0
LINE
  5
70
330
775
100
AcDbEntity
  8
1
100
AcDbLine
 10
69.5
 20
-10.631984
 30
0.0
 11
44.20792399999998
 21
-10.631984
 31
0.0
  0
LINE
  5
71
330
775
100
AcDbEntity
  8
1
100
AcDbLine
 10
32.0
 20
-25.398463
 30
0.0
 11
32.0
 21
-26.471451
 31
0.0
  0
LINE
  5
72
330
775
100
AcDbEntity
  8
1
100
AcDbLine
 10
32.616814
 20
-26.440341
 30
0.0
 11
32.616814
 21
-27.703043
 31
0.0
  0
LINE
  5
73
330
775
100
AcDbEntity
  8
1
100
AcDbLine
 10
69.5
 20
10.631984
 30
0.0
 11
69.5
 21
-10.631984
 31
0.0
  0
LINE
  5
74
330
775
100
AcDbEntity
  8
1
100
AcDbLine
 10
0.0
 20
-7.0
 30
0.0
 11
0.0
 21
7.0
 31
0.0
  0
LINE
  5
75
330
775
100
AcDbEntity
  8
1
100
AcDbLine
 10
44.20792399999998
 20
10.631984
 30
0.0
 11
69.5
 21
10.631984
 31
0.0
  0
LINE
  5
76
330
775
100
AcDbEntity
  8
1
100
AcDbLine
 10
74.5
 20
25.0
 30
0.0
 11
74.5
 21
-25.0
 31
0.0
  0
LINE
  5
77
330
775
100
AcDbEntity
  8
1
100
AcDbLine
 10
32.0
 20
16.91898
 30
0.0
 11
32.0
 21
18.014287
 31
0.0
  0
LINE
  5
78
330
775
100
AcDbEntity
  8
SK1
100
AcDbLine
 10
-2.117157
 20
-6.007058999999999
 30
0.0
 11
-2.117157
 21
-14.500383
 31
0.0
  0
LINE
  5
79
330
775
100
AcDbEntity
  8
SK1
100
AcDbLine
 10
-2.117157
 20
14.499086
 30
0.0
 11
-2.117157
 21
6.005226
 31
0.0
  0
LINE
  5
7A
330
775
100
AcDbEntity
  8
1
100
AcDbLine
 10
0.0
 20
23.785444
 30
0.0
 11
31.58803
 21
23.785444
 31
0.0
  0
LINE
  5
7B
330
775
100
AcDbEntity
  8
1
100
AcDbLine
 10
44.20792399999998
 20
20.62348
 30
0.0
 11
44.20792399999998
 21
30.0
 31
0.0
  0
LINE
  5
7C
330
775
100
AcDbEntity
  8
1
100
AcDbLine
 10
32.616814
 20
27.703043
 30
0.0
 11
32.616814
 21
26.440341
 31
0.0
  0
LINE
  5
7D
330
775
100
AcDbEntity
  8
1
100
AcDbLine
 10
32.0
 20
18.014287
 30
0.0
 11
32.0
 21
25.398463
 31
0.0
  0
LINE
  5
7E
330
775
100
AcDbEntity
  8
1
100
AcDbLine
 10
17.872687
 20
-32.0
 30
0.0
 11
11.117865
 21
-32.0
 31
0.0
  0
LINE
  5
7F
330
775
100
AcDbEntity
  8
1
100
AcDbLine
 10
40.0
 20
24.1325
 30
0.0
 11
40.0
 21
12.8675
 31
0.0
  0
LINE
  5
80
330
775
100
AcDbEntity
  8
1
100
AcDbLine
 10
39.2
 20
18.5
 30
0.0
 11
39.2
 21
12.0675
 31
0.0
  0
LINE
  5
81
330
775
100
AcDbEntity
  8
1
100
AcDbLine
 10
39.2
 20
24.9325
 30
0.0
 11
39.2
 21
18.5
 31
0.0
  0
LINE
  5
82
330
775
100
AcDbEntity
  8
1
100
AcDbLine
 10
32.0
 20
22.670848
 30
0.0
 11
32.0
 21
18.014201
 31
0.0
  0
LINE
  5
83
330
775
100
AcDbEntity
  8
SK1
100
AcDbLine
 10
-12.233
 20
18.5
 30
0.0
 11
-12.233
 21
22.5
 31
0.0
  0
LINE
  5
84
330
775
100
AcDbEntity
  8
SK1
100
AcDbLine
 10
-12.233
 20
14.5
 30
0.0
 11
-12.233
 21
18.5
 31
0.0
  0
LINE
  5
85
330
775
100
AcDbEntity
  8
SK1
100
AcDbLine
 10
-13.0
 20
15.267
 30
0.0
 11
-13.0
 21
18.5
 31
0.0
  0
LINE
  5
86
330
775
100
AcDbEntity
  8
SK1
100
AcDbLine
 10
-13.0
 20
18.5
 30
0.0
 11
-13.0
 21
21.733
 31
0.0
  0
LINE
  5
87
330
775
100
AcDbEntity
  8
1
100
AcDbLine
 10
16.900438
 20
-29.183145
 30
0.0
 11
12.100438
 21
-29.183217
 31
0.0
  0
LINE
  5
88
330
775
100
AcDbEntity
  8
SK1
100
AcDbLine
 10
0.0
 20
4.607464
 30
0.0
 11
-8.912122
 21
4.607464
 31
0.0
  0
LINE
  5
89
330
775
100
AcDbEntity
  8
SK1
100
AcDbLine
 10
0.0
 20
-4.607464
 30
0.0
 11
-8.912122
 21
-4.607464
 31
0.0
  0
LINE
  5
8A
330
775
100
AcDbEntity
  8
SK1
100
AcDbLine
 10
-8.5
 20
6.006249999999998
 30
0.0
 11
-8.5
 21
4.88109
 31
0.0
  0
LINE
  5
8B
330
775
100
AcDbEntity
  8
SK1
100
AcDbLine
 10
0.0
 20
-4.843491999999998
 30
0.0
 11
-8.583838
 21
-4.843491999999998
 31
0.0
  0
LINE
  5
8C
330
775
100
AcDbEntity
  8
SK1
100
AcDbLine
 10
0.0
 20
4.843491999999998
 30
0.0
 11
-8.583838
 21
4.843491999999998
 31
0.0
  0
LINE
  5
8D
330
775
100
AcDbEntity
  8
SK1
100
AcDbLine
 10
-8.5
 20
4.88109
 30
0.0
 11
0.0
 21
4.88109
 31
0.0
  0
LINE
  5
8E
330
775
100
AcDbEntity
  8
SK1
100
AcDbLine
 10
-9.0
 20
-5.824265
 30
0.0
 11
-9.0
 21
5.824265
 31
0.0
  0
LINE
  5
8F
330
775
100
AcDbEntity
  8
SK1
100
AcDbLine
 10
0.0
 20
-4.88109
 30
0.0
 11
-8.5
 21
-4.88109
 31
0.0
  0
LINE
  5
90
330
775
100
AcDbEntity
  8
SK1
100
AcDbLine
 10
-8.5
 20
-4.88109
 30
0.0
 11
-8.5
 21
-6.006249999999998
 31
0.0
  0
LINE
  5
91
330
775
100
AcDbEntity
  8
SK1
100
AcDbLine
 10
-8.912122
 20
4.607464
 30
0.0
 11
-8.912122
 21
-4.607464
 31
0.0
  0
LINE
  5
92
330
775
100
AcDbEntity
  8
1
100
AcDbLine
 10
19.517158
 20
-31.800832
 30
0.0
 11
9.483308
 21
-31.800983
 31
0.0
  0
LINE
  5
93
330
775
100
AcDbEntity
  8
1
100
AcDbLine
 10
19.516662
 20
32.0
 30
0.0
 11
9.48286
 21
32.0
 31
0.0
  0
LINE
  5
94
330
775
100
AcDbEntity
  8
1
100
AcDbLine
 10
40.0
 20
-12.8675
 30
0.0
 11
40.0
 21
-24.1325
 31
0.0
  0
LINE
  5
95
330
775
100
AcDbEntity
  8
1
100
AcDbLine
 10
32.0
 20
-18.014831
 30
0.0
 11
32.0
 21
-22.671329
 31
0.0
  0
LINE
  5
96
330
775
100
AcDbEntity
  8
SK1
100
AcDbLine
 10
-12.233
 20
-18.5
 30
0.0
 11
-12.233
 21
-14.5
 31
0.0
  0
LINE
  5
97
330
775
100
AcDbEntity
  8
SK1
100
AcDbLine
 10
-12.233
 20
-22.5
 30
0.0
 11
-12.233
 21
-18.5
 31
0.0
  0
LINE
  5
98
330
775
100
AcDbEntity
  8
1
100
AcDbLine
 10
39.2
 20
-18.5
 30
0.0
 11
39.2
 21
-24.9325
 31
0.0
  0
LINE
  5
99
330
775
100
AcDbEntity
  8
1
100
AcDbLine
 10
39.2
 20
-12.0675
 30
0.0
 11
39.2
 21
-18.5
 31
0.0
  0
LINE
  5
9A
330
775
100
AcDbEntity
  8
SK1
100
AcDbLine
 10
-13.0
 20
-21.733
 30
0.0
 11
-13.0
 21
-18.5
 31
0.0
  0
LINE
  5
9B
330
775
100
AcDbEntity
  8
SK1
100
AcDbLine
 10
-13.0
 20
-18.5
 30
0.0
 11
-13.0
 21
-15.267
 31
0.0
  0
LINE
  5
9C
330
775
100
AcDbEntity
  8
4
100
AcDbLine
 10
75.0
 20
0.0
 30
0.0
 11
0.0
 21
0.0
 31
0.0
  0
LINE
  5
9D
330
775
100
AcDbEntity
  8
SK4
100
AcDbLine
 10
81.49116600000002
 20
0.000049
 30
0.0
 11
-15.918164
 21
-0.000682
 31
0.0
  0
LINE
  5
9E
330
775
100
AcDbEntity
  8
80
100
AcDbLine
 10
0.0
 20
0.0
 30
0.0
 11
-10.0
 21
-0.000637
 31
0.0
  0
LINE
  5
9F
330
775
100
AcDbEntity
  8
81
100
AcDbLine
 10
75.0
 20
0.0
 30
0.0
 11
85.0
 21
0.0
 31
0.0
  0
POINT
  5
A0
330
775
100
AcDbEntity
  8
80
100
AcDbPoint
 10
0.0
 20
0.0
 30
0.0
  0
POINT
  5
A1
330
775
100
AcDbEntity
  8
81
100
AcDbPoint
 10
75.0
 20
0.0
 30
0.0
  0
ARC
  5
A2
330
775
100
AcDbEntity
  8
SK1
100
AcDbCircle
 10
0.425
 20
-26.35
 30
0.0
 40
0.8
100
AcDbArc
 50
180.0
 51
237.91221
  0
ARC
  5
A3
330
775
100
AcDbEntity
  8
1
100
AcDbCircle
 10
39.2
 20
-12.8675
 30
0.0
 40
0.8
100
AcDbArc
 50
0.0
 51
90.0
  0
ARC
  5
A4
330
775
100
AcDbEntity
  8
1
100
AcDbCircle
 10
39.2
 20
-24.1325
 30
0.0
 40
0.8
100
AcDbArc
 50
270.0
 51
0.0
  0
ARC
  5
A5
330
775
100
AcDbEntity
  8
1
100
AcDbCircle
 10
-44.20792399999998
 20
42.0
 30
0.0
 40
12.0
210
0.0
220
0.0
230
-1.0
100
AcDbArc
 50
270.0
 51
303.558712
  0
ARC
  5
A6
330
775
100
AcDbEntity
  8
1
100
AcDbCircle
 10
-44.20792399999998
 20
-42.0
 30
0.0
 40
12.0
210
0.0
220
0.0
230
-1.0
100
AcDbArc
 50
56.441561
 51
90.0
  0
ARC
  5
A7
330
775
100
AcDbEntity
  8
1
100
AcDbCircle
 10
39.2
 20
24.1325
 30
0.0
 40
0.8
100
AcDbArc
 50
0.0
 51
90.0
  0
ARC
  5
A8
330
775
100
AcDbEntity
  8
1
100
AcDbCircle
 10
39.2
 20
12.8675
 30
0.0
 40
0.8
100
AcDbArc
 50
270.0
 51
0.0
  0
ARC
  5
A9
330
775
100
AcDbEntity
  8
SK1
100
AcDbCircle
 10
0.425
 20
26.35
 30
0.0
 40
0.8
100
AcDbArc
 50
122.08779
 51
180.0
  0
TEXT
  5
AA
330
775
100
AcDbEntity
  8
SK6
100
AcDbText
 10
2.140536999999999
 20
-51.00964099999998
 30
0.0
 40
3.5
  1
C5-LC2095-00075
 41
0.7376272721311477
  7
SANDVIK_STYLE
 72
     5
 11
39.63659000000001
 21
-51.00964099999998
 31
0.0
100
AcDbText
  0
POLYLINE
  5
AB
330
775
100
AcDbEntity
  8
1
100
AcDb3dPolyline
 66
     1
 10
0.0
 20
0.0
 30
0.0
 70
     8
  0
VERTEX
  5
AC
330
AB
100
AcDbEntity
  8
1
100
AcDbVertex
100
AcDb3dPolylineVertex
 10
31.58803
 20
-23.785444
 30
0.0
 70
    32
  0
VERTEX
  5
AD
330
AB
100
AcDbEntity
  8
1
100
AcDbVertex
100
AcDb3dPolylineVertex
 10
31.648247
 20
-24.024905
 30
0.0
 70
    32
  0
VERTEX
  5
AE
330
AB
100
AcDbEntity
  8
1
100
AcDbVertex
100
AcDb3dPolylineVertex
 10
31.708021
 20
-24.261353
 30
0.0
 70
    32
  0
VERTEX
  5
AF
330
AB
100
AcDbEntity
  8
1
100
AcDbVertex
100
AcDb3dPolylineVertex
 10
31.767345
 20
-24.49479
 30
0.0
 70
    32
  0
VERTEX
  5
B0
330
AB
100
AcDbEntity
  8
1
100
AcDbVertex
100
AcDb3dPolylineVertex
 10
31.826211
 20
-24.725218
 30
0.0
 70
    32
  0
VERTEX
  5
B1
330
AB
100
AcDbEntity
  8
1
100
AcDbVertex
100
AcDb3dPolylineVertex
 10
31.884614
 20
-24.952638
 30
0.0
 70
    32
  0
VERTEX
  5
B2
330
AB
100
AcDbEntity
  8
1
100
AcDbVertex
100
AcDb3dPolylineVertex
 10
31.942545
 20
-25.177052
 30
0.0
 70
    32
  0
VERTEX
  5
B3
330
AB
100
AcDbEntity
  8
1
100
AcDbVertex
100
AcDb3dPolylineVertex
 10
32.0
 20
-25.398463
 30
0.0
 70
    32
  0
SEQEND
  5
B4
330
AB
100
AcDbEntity
  8
1
  0
POLYLINE
  5
B5
330
775
100
AcDbEntity
  8
1
100
AcDb3dPolyline
 66
     1
 10
0.0
 20
0.0
 30
0.0
 70
     8
  0
VERTEX
  5
B6
330
B5
100
AcDbEntity
  8
1
100
AcDbVertex
100
AcDb3dPolylineVertex
 10
32.0
 20
18.014287
 30
0.0
 70
    32
  0
VERTEX
  5
B7
330
B5
100
AcDbEntity
  8
1
100
AcDbVertex
100
AcDb3dPolylineVertex
 10
31.954329
 20
18.839155
 30
0.0
 70
    32
  0
VERTEX
  5
B8
330
B5
100
AcDbEntity
  8
1
100
AcDbVertex
100
AcDb3dPolylineVertex
 10
31.904147
 20
19.663881
 30
0.0
 70
    32
  0
VERTEX
  5
B9
330
B5
100
AcDbEntity
  8
1
100
AcDbVertex
100
AcDb3dPolylineVertex
 10
31.849524
 20
20.488466
 30
0.0
 70
    32
  0
VERTEX
  5
BA
330
B5
100
AcDbEntity
  8
1
100
AcDbVertex
100
AcDb3dPolylineVertex
 10
31.790531
 20
21.312912
 30
0.0
 70
    32
  0
VERTEX
  5
BB
330
B5
100
AcDbEntity
  8
1
100
AcDbVertex
100
AcDb3dPolylineVertex
 10
31.727237
 20
22.137223
 30
0.0
 70
    32
  0
VERTEX
  5
BC
330
B5
100
AcDbEntity
  8
1
100
AcDbVertex
100
AcDb3dPolylineVertex
 10
31.659713
 20
22.961399
 30
0.0
 70
    32
  0
VERTEX
  5
BD
330
B5
100
AcDbEntity
  8
1
100
AcDbVertex
100
AcDb3dPolylineVertex
 10
31.58803
 20
23.785444
 30
0.0
 70
    32
  0
SEQEND
  5
BE
330
B5
100
AcDbEntity
  8
1
  0
POLYLINE
  5
BF
330
775
100
AcDbEntity
  8
1
100
AcDb3dPolyline
 66
     1
 10
0.0
 20
0.0
 30
0.0
 70
     8
  0
VERTEX
  5
C0
330
BF
100
AcDbEntity
  8
1
100
AcDbVertex
100
AcDb3dPolylineVertex
 10
44.20792399999998
 20
10.631984
 30
0.0
 70
    32
  0
VERTEX
  5
C1
330
BF
100
AcDbEntity
  8
1
100
AcDbVertex
100
AcDb3dPolylineVertex
 10
43.870152
 20
10.630974
 30
0.0
 70
    32
  0
VERTEX
  5
C2
330
BF
100
AcDbEntity
  8
1
100
AcDbVertex
100
AcDb3dPolylineVertex
 10
43.534511
 20
10.628012
 30
0.0
 70
    32
  0
VERTEX
  5
C3
330
BF
100
AcDbEntity
  8
1
100
AcDbVertex
100
AcDb3dPolylineVertex
 10
43.20095999999998
 20
10.623204
 30
0.0
 70
    32
  0
VERTEX
  5
C4
330
BF
100
AcDbEntity
  8
1
100
AcDbVertex
100
AcDb3dPolylineVertex
 10
42.869457
 20
10.616672
 30
0.0
 70
    32
  0
VERTEX
  5
C5
330
BF
100
AcDbEntity
  8
1
100
AcDbVertex
100
AcDb3dPolylineVertex
 10
42.53996599999999
 20
10.608617
 30
0.0
 70
    32
  0
VERTEX
  5
C6
330
BF
100
AcDbEntity
  8
1
100
AcDbVertex
100
AcDb3dPolylineVertex
 10
42.212449
 20
10.599254
 30
0.0
 70
    32
  0
VERTEX
  5
C7
330
BF
100
AcDbEntity
  8
1
100
AcDbVertex
100
AcDb3dPolylineVertex
 10
41.88687
 20
10.588814
 30
0.0
 70
    32
  0
VERTEX
  5
C8
330
BF
100
AcDbEntity
  8
1
100
AcDbVertex
100
AcDb3dPolylineVertex
 10
41.563195
 20
10.577589
 30
0.0
 70
    32
  0
VERTEX
  5
C9
330
BF
100
AcDbEntity
  8
1
100
AcDbVertex
100
AcDb3dPolylineVertex
 10
41.24139399999999
 20
10.565884
 30
0.0
 70
    32
  0
VERTEX
  5
CA
330
BF
100
AcDbEntity
  8
1
100
AcDbVertex
100
AcDb3dPolylineVertex
 10
40.92143599999999
 20
10.554017
 30
0.0
 70
    32
  0
VERTEX
  5
CB
330
BF
100
AcDbEntity
  8
1
100
AcDbVertex
100
AcDb3dPolylineVertex
 10
40.60329699999999
 20
10.542358
 30
0.0
 70
    32
  0
VERTEX
  5
CC
330
BF
100
AcDbEntity
  8
1
100
AcDbVertex
100
AcDb3dPolylineVertex
 10
40.286955
 20
10.531289
 30
0.0
 70
    32
  0
VERTEX
  5
CD
330
BF
100
AcDbEntity
  8
1
100
AcDbVertex
100
AcDb3dPolylineVertex
 10
39.973189
 20
10.521234
 30
0.0
 70
    32
  0
VERTEX
  5
CE
330
BF
100
AcDbEntity
  8
1
100
AcDbVertex
100
AcDb3dPolylineVertex
 10
39.663887
 20
10.512669
 30
0.0
 70
    32
  0
VERTEX
  5
CF
330
BF
100
AcDbEntity
  8
1
100
AcDbVertex
100
AcDb3dPolylineVertex
 10
39.359023
 20
10.506
 30
0.0
 70
    32
  0
VERTEX
  5
D0
330
BF
100
AcDbEntity
  8
1
100
AcDbVertex
100
AcDb3dPolylineVertex
 10
39.058495
 20
10.501636
 30
0.0
 70
    32
  0
VERTEX
  5
D1
330
BF
100
AcDbEntity
  8
1
100
AcDbVertex
100
AcDb3dPolylineVertex
 10
38.76222199999999
 20
10.5
 30
0.0
 70
    32
  0
VERTEX
  5
D2
330
BF
100
AcDbEntity
  8
1
100
AcDbVertex
100
AcDb3dPolylineVertex
 10
38.470135
 20
10.501525
 30
0.0
 70
    32
  0
VERTEX
  5
D3
330
BF
100
AcDbEntity
  8
1
100
AcDbVertex
100
AcDb3dPolylineVertex
 10
38.182171
 20
10.506647
 30
0.0
 70
    32
  0
VERTEX
  5
D4
330
BF
100
AcDbEntity
  8
1
100
AcDbVertex
100
AcDb3dPolylineVertex
 10
37.898293
 20
10.515839
 30
0.0
 70
    32
  0
VERTEX
  5
D5
330
BF
100
AcDbEntity
  8
1
100
AcDbVertex
100
AcDb3dPolylineVertex
 10
37.618473
 20
10.529586
 30
0.0
 70
    32
  0
VERTEX
  5
D6
330
BF
100
AcDbEntity
  8
1
100
AcDbVertex
100
AcDb3dPolylineVertex
 10
37.342687
 20
10.548388
 30
0.0
 70
    32
  0
VERTEX
  5
D7
330
BF
100
AcDbEntity
  8
1
100
AcDbVertex
100
AcDb3dPolylineVertex
 10
37.070908
 20
10.572796
 30
0.0
 70
    32
  0
VERTEX
  5
D8
330
BF
100
AcDbEntity
  8
1
100
AcDbVertex
100
AcDb3dPolylineVertex
 10
36.803888
 20
10.603289
 30
0.0
 70
    32
  0
VERTEX
  5
D9
330
BF
100
AcDbEntity
  8
1
100
AcDbVertex
100
AcDb3dPolylineVertex
 10
36.543217
 20
10.640186
 30
0.0
 70
    32
  0
VERTEX
  5
DA
330
BF
100
AcDbEntity
  8
1
100
AcDbVertex
100
AcDb3dPolylineVertex
 10
36.28896500000001
 20
10.683933
 30
0.0
 70
    32
  0
VERTEX
  5
DB
330
BF
100
AcDbEntity
  8
1
100
AcDbVertex
100
AcDb3dPolylineVertex
 10
36.041098
 20
10.735001
 30
0.0
 70
    32
  0
VERTEX
  5
DC
330
BF
100
AcDbEntity
  8
1
100
AcDbVertex
100
AcDb3dPolylineVertex
 10
35.799592
 20
10.793874
 30
0.0
 70
    32
  0
VERTEX
  5
DD
330
BF
100
AcDbEntity
  8
1
100
AcDbVertex
100
AcDb3dPolylineVertex
 10
35.564449
 20
10.861093
 30
0.0
 70
    32
  0
VERTEX
  5
DE
330
BF
100
AcDbEntity
  8
1
100
AcDbVertex
100
AcDb3dPolylineVertex
 10
35.33568
 20
10.937219
 30
0.0
 70
    32
  0
VERTEX
  5
DF
330
BF
100
AcDbEntity
  8
1
100
AcDbVertex
100
AcDb3dPolylineVertex
 10
35.113304
 20
11.022843
 30
0.0
 70
    32
  0
VERTEX
  5
E0
330
BF
100
AcDbEntity
  8
1
100
AcDbVertex
100
AcDb3dPolylineVertex
 10
34.897362
 20
11.118627
 30
0.0
 70
    32
  0
VERTEX
  5
E1
330
BF
100
AcDbEntity
  8
1
100
AcDbVertex
100
AcDb3dPolylineVertex
 10
34.687996
 20
11.225235
 30
0.0
 70
    32
  0
VERTEX
  5
E2
330
BF
100
AcDbEntity
  8
1
100
AcDbVertex
100
AcDb3dPolylineVertex
 10
34.487091
 20
11.342297
 30
0.0
 70
    32
  0
VERTEX
  5
E3
330
BF
100
AcDbEntity
  8
1
100
AcDbVertex
100
AcDb3dPolylineVertex
 10
34.295271
 20
11.469808
 30
0.0
 70
    32
  0
VERTEX
  5
E4
330
BF
100
AcDbEntity
  8
1
100
AcDbVertex
100
AcDb3dPolylineVertex
 10
34.112396
 20
11.608148
 30
0.0
 70
    32
  0
VERTEX
  5
E5
330
BF
100
AcDbEntity
  8
1
100
AcDbVertex
100
AcDb3dPolylineVertex
 10
33.938333
 20
11.757704
 30
0.0
 70
    32
  0
VERTEX
  5
E6
330
BF
100
AcDbEntity
  8
1
100
AcDbVertex
100
AcDb3dPolylineVertex
 10
33.772973
 20
11.918935
 30
0.0
 70
    32
  0
VERTEX
  5
E7
330
BF
100
AcDbEntity
  8
1
100
AcDbVertex
100
AcDb3dPolylineVertex
 10
33.616211
 20
12.092321
 30
0.0
 70
    32
  0
VERTEX
  5
E8
330
BF
100
AcDbEntity
  8
1
100
AcDbVertex
100
AcDb3dPolylineVertex
 10
33.467928
 20
12.278404
 30
0.0
 70
    32
  0
VERTEX
  5
E9
330
BF
100
AcDbEntity
  8
1
100
AcDbVertex
100
AcDb3dPolylineVertex
 10
33.328445
 20
12.477172
 30
0.0
 70
    32
  0
VERTEX
  5
EA
330
BF
100
AcDbEntity
  8
1
100
AcDbVertex
100
AcDb3dPolylineVertex
 10
33.19910800000001
 20
12.686595
 30
0.0
 70
    32
  0
VERTEX
  5
EB
330
BF
100
AcDbEntity
  8
1
100
AcDbVertex
100
AcDb3dPolylineVertex
 10
33.07969400000001
 20
12.906367
 30
0.0
 70
    32
  0
VERTEX
  5
EC
330
BF
100
AcDbEntity
  8
1
100
AcDbVertex
100
AcDb3dPolylineVertex
 10
32.969765
 20
13.136574
 30
0.0
 70
    32
  0
VERTEX
  5
ED
330
BF
100
AcDbEntity
  8
1
100
AcDbVertex
100
AcDb3dPolylineVertex
 10
32.868901
 20
13.377326
 30
0.0
 70
    32
  0
VERTEX
  5
EE
330
BF
100
AcDbEntity
  8
1
100
AcDbVertex
100
AcDb3dPolylineVertex
 10
32.776696
 20
13.628745
 30
0.0
 70
    32
  0
VERTEX
  5
EF
330
BF
100
AcDbEntity
  8
1
100
AcDbVertex
100
AcDb3dPolylineVertex
 10
32.692785
 20
13.89103
 30
0.0
 70
    32
  0
VERTEX
  5
F0
330
BF
100
AcDbEntity
  8
1
100
AcDbVertex
100
AcDb3dPolylineVertex
 10
32.616814
 20
14.164399
 30
0.0
 70
    32
  0
SEQEND
  5
F1
330
BF
100
AcDbEntity
  8
1
  0
POLYLINE
  5
F2
330
775
100
AcDbEntity
  8
1
100
AcDb3dPolyline
 66
     1
 10
0.0
 20
0.0
 30
0.0
 70
     8
  0
VERTEX
  5
F3
330
F2
100
AcDbEntity
  8
1
100
AcDbVertex
100
AcDb3dPolylineVertex
 10
32.616814
 20
26.440341
 30
0.0
 70
    32
  0
VERTEX
  5
F4
330
F2
100
AcDbEntity
  8
1
100
AcDbVertex
100
AcDb3dPolylineVertex
 10
32.669474
 20
26.408651
 30
0.0
 70
    32
  0
VERTEX
  5
F5
330
F2
100
AcDbEntity
  8
1
100
AcDbVertex
100
AcDb3dPolylineVertex
 10
32.726024
 20
26.370649
 30
0.0
 70
    32
  0
VERTEX
  5
F6
330
F2
100
AcDbEntity
  8
1
100
AcDbVertex
100
AcDb3dPolylineVertex
 10
32.78659000000001
 20
26.326498
 30
0.0
 70
    32
  0
VERTEX
  5
F7
330
F2
100
AcDbEntity
  8
1
100
AcDbVertex
100
AcDb3dPolylineVertex
 10
32.851298
 20
26.276364
 30
0.0
 70
    32
  0
VERTEX
  5
F8
330
F2
100
AcDbEntity
  8
1
100
AcDbVertex
100
AcDb3dPolylineVertex
 10
32.920273
 20
26.220406
 30
0.0
 70
    32
  0
VERTEX
  5
F9
330
F2
100
AcDbEntity
  8
1
100
AcDbVertex
100
AcDb3dPolylineVertex
 10
32.993657
 20
26.158751
 30
0.0
 70
    32
  0
VERTEX
  5
FA
330
F2
100
AcDbEntity
  8
1
100
AcDbVertex
100
AcDb3dPolylineVertex
 10
33.071597
 20
26.091518
 30
0.0
 70
    32
  0
VERTEX
  5
FB
330
F2
100
AcDbEntity
  8
1
100
AcDbVertex
100
AcDb3dPolylineVertex
 10
33.154242
 20
26.018824
 30
0.0
 70
    32
  0
VERTEX
  5
FC
330
F2
100
AcDbEntity
  8
1
100
AcDbVertex
100
AcDb3dPolylineVertex
 10
33.241744
 20
25.940788
 30
0.0
 70
    32
  0
VERTEX
  5
FD
330
F2
100
AcDbEntity
  8
1
100
AcDbVertex
100
AcDb3dPolylineVertex
 10
33.334282
 20
25.857495
 30
0.0
 70
    32
  0
VERTEX
  5
FE
330
F2
100
AcDbEntity
  8
1
100
AcDbVertex
100
AcDb3dPolylineVertex
 10
33.431816
 20
25.769236
 30
0.0
 70
    32
  0
VERTEX
  5
FF
330
F2
100
AcDbEntity
  8
1
100
AcDbVertex
100
AcDb3dPolylineVertex
 10
33.533673
 20
25.676875
 30
0.0
 70
    32
  0
VERTEX
  5
100
330
F2
100
AcDbEntity
  8
1
100
AcDbVertex
100
AcDb3dPolylineVertex
 10
33.639768
 20
25.580744
 30
0.0
 70
    32
  0
VERTEX
  5
101
330
F2
100
AcDbEntity
  8
1
100
AcDbVertex
100
AcDb3dPolylineVertex
 10
33.750135
 20
25.48106
 30
0.0
 70
    32
  0
VERTEX
  5
102
330
F2
100
AcDbEntity
  8
1
100
AcDbVertex
100
AcDb3dPolylineVertex
 10
33.864813
 20
25.378013
 30
0.0
 70
    32
  0
VERTEX
  5
103
330
F2
100
AcDbEntity
  8
1
100
AcDbVertex
100
AcDb3dPolylineVertex
 10
33.983844
 20
25.271792
 30
0.0
 70
    32
  0
VERTEX
  5
104
330
F2
100
AcDbEntity
  8
1
100
AcDbVertex
100
AcDb3dPolylineVertex
 10
34.107272
 20
25.162582
 30
0.0
 70
    32
  0
VERTEX
  5
105
330
F2
100
AcDbEntity
  8
1
100
AcDbVertex
100
AcDb3dPolylineVertex
 10
34.23514
 20
25.050564
 30
0.0
 70
    32
  0
VERTEX
  5
106
330
F2
100
AcDbEntity
  8
1
100
AcDbVertex
100
AcDb3dPolylineVertex
 10
34.3675
 20
24.9359
 30
0.0
 70
    32
  0
SEQEND
  5
107
330
F2
100
AcDbEntity
  8
1
  0
POLYLINE
  5
108
330
775
100
AcDbEntity
  8
1
100
AcDb3dPolyline
 66
     1
 10
0.0
 20
0.0
 30
0.0
 70
     8
  0
VERTEX
  5
109
330
108
100
AcDbEntity
  8
1
100
AcDbVertex
100
AcDb3dPolylineVertex
 10
39.999108
 20
21.440166
 30
0.0
 70
    32
  0
VERTEX
  5
10A
330
108
100
AcDbEntity
  8
1
100
AcDbVertex
100
AcDb3dPolylineVertex
 10
40.22333999999999
 20
21.356671
 30
0.0
 70
    32
  0
VERTEX
  5
10B
330
108
100
AcDbEntity
  8
1
100
AcDbVertex
100
AcDb3dPolylineVertex
 10
40.449888
 20
21.276727
 30
0.0
 70
    32
  0
VERTEX
  5
10C
330
108
100
AcDbEntity
  8
1
100
AcDbVertex
100
AcDb3dPolylineVertex
 10
40.677757
 20
21.200821
 30
0.0
 70
    32
  0
VERTEX
  5
10D
330
108
100
AcDbEntity
  8
1
100
AcDbVertex
100
AcDb3dPolylineVertex
 10
40.906504
 20
21.129197
 30
0.0
 70
    32
  0
VERTEX
  5
10E
330
108
100
AcDbEntity
  8
1
100
AcDbVertex
100
AcDb3dPolylineVertex
 10
41.13614899999999
 20
21.061933
 30
0.0
 70
    32
  0
VERTEX
  5
10F
330
108
100
AcDbEntity
  8
1
100
AcDbVertex
100
AcDb3dPolylineVertex
 10
41.366699
 20
20.999114
 30
0.0
 70
    32
  0
VERTEX
  5
110
330
108
100
AcDbEntity
  8
1
100
AcDbVertex
100
AcDb3dPolylineVertex
 10
41.598164
 20
20.940825
 30
0.0
 70
    32
  0
VERTEX
  5
111
330
108
100
AcDbEntity
  8
1
100
AcDbVertex
100
AcDb3dPolylineVertex
 10
41.830555
 20
20.887153
 30
0.0
 70
    32
  0
VERTEX
  5
112
330
108
100
AcDbEntity
  8
1
100
AcDbVertex
100
AcDb3dPolylineVertex
 10
42.063881
 20
20.838185
 30
0.0
 70
    32
  0
VERTEX
  5
113
330
108
100
AcDbEntity
  8
1
100
AcDbVertex
100
AcDb3dPolylineVertex
 10
42.29815499999999
 20
20.794009
 30
0.0
 70
    32
  0
VERTEX
  5
114
330
108
100
AcDbEntity
  8
1
100
AcDbVertex
100
AcDb3dPolylineVertex
 10
42.53338699999999
 20
20.754713
 30
0.0
 70
    32
  0
VERTEX
  5
115
330
108
100
AcDbEntity
  8
1
100
AcDbVertex
100
AcDb3dPolylineVertex
 10
42.76959
 20
20.720384
 30
0.0
 70
    32
  0
VERTEX
  5
116
330
108
100
AcDbEntity
  8
1
100
AcDbVertex
100
AcDb3dPolylineVertex
 10
43.006777
 20
20.691108
 30
0.0
 70
    32
  0
VERTEX
  5
117
330
108
100
AcDbEntity
  8
1
100
AcDbVertex
100
AcDb3dPolylineVertex
 10
43.24495999999999
 20
20.666973
 30
0.0
 70
    32
  0
VERTEX
  5
118
330
108
100
AcDbEntity
  8
1
100
AcDbVertex
100
AcDb3dPolylineVertex
 10
43.484153
 20
20.648063
 30
0.0
 70
    32
  0
VERTEX
  5
119
330
108
100
AcDbEntity
  8
1
100
AcDbVertex
100
AcDb3dPolylineVertex
 10
43.724368
 20
20.634458
 30
0.0
 70
    32
  0
VERTEX
  5
11A
330
108
100
AcDbEntity
  8
1
100
AcDbVertex
100
AcDb3dPolylineVertex
 10
43.96562099999999
 20
20.626238
 30
0.0
 70
    32
  0
VERTEX
  5
11B
330
108
100
AcDbEntity
  8
1
100
AcDbVertex
100
AcDb3dPolylineVertex
 10
44.20792399999998
 20
20.62348
 30
0.0
 70
    32
  0
SEQEND
  5
11C
330
108
100
AcDbEntity
  8
1
  0
POLYLINE
  5
11D
330
775
100
AcDbEntity
  8
1
100
AcDb3dPolyline
 66
     1
 10
0.0
 20
0.0
 30
0.0
 70
     8
  0
VERTEX
  5
11E
330
11D
100
AcDbEntity
  8
1
100
AcDbVertex
100
AcDb3dPolylineVertex
 10
37.208805
 20
-24.934848
 30
0.0
 70
    32
  0
VERTEX
  5
11F
330
11D
100
AcDbEntity
  8
1
100
AcDbVertex
100
AcDb3dPolylineVertex
 10
37.139336
 20
-24.953607
 30
0.0
 70
    32
  0
VERTEX
  5
120
330
11D
100
AcDbEntity
  8
1
100
AcDbVertex
100
AcDb3dPolylineVertex
 10
37.071624
 20
-24.969866
 30
0.0
 70
    32
  0
VERTEX
  5
121
330
11D
100
AcDbEntity
  8
1
100
AcDbVertex
100
AcDb3dPolylineVertex
 10
37.005581
 20
-24.983768
 30
0.0
 70
    32
  0
VERTEX
  5
122
330
11D
100
AcDbEntity
  8
1
100
AcDbVertex
100
AcDb3dPolylineVertex
 10
36.941099
 20
-24.995458
 30
0.0
 70
    32
  0
VERTEX
  5
123
330
11D
100
AcDbEntity
  8
1
100
AcDbVertex
100
AcDb3dPolylineVertex
 10
36.878079
 20
-25.005061
 30
0.0
 70
    32
  0
VERTEX
  5
124
330
11D
100
AcDbEntity
  8
1
100
AcDbVertex
100
AcDb3dPolylineVertex
 10
36.816443
 20
-25.012675
 30
0.0
 70
    32
  0
VERTEX
  5
125
330
11D
100
AcDbEntity
  8
1
100
AcDbVertex
100
AcDb3dPolylineVertex
 10
36.756117
 20
-25.018393
 30
0.0
 70
    32
  0
VERTEX
  5
126
330
11D
100
AcDbEntity
  8
1
100
AcDbVertex
100
AcDb3dPolylineVertex
 10
36.697029
 20
-25.022303
 30
0.0
 70
    32
  0
VERTEX
  5
127
330
11D
100
AcDbEntity
  8
1
100
AcDbVertex
100
AcDb3dPolylineVertex
 10
36.639119
 20
-25.024472
 30
0.0
 70
    32
  0
VERTEX
  5
128
330
11D
100
AcDbEntity
  8
1
100
AcDbVertex
100
AcDb3dPolylineVertex
 10
36.5824
 20
-25.024968
 30
0.0
 70
    32
  0
VERTEX
  5
129
330
11D
100
AcDbEntity
  8
1
100
AcDbVertex
100
AcDb3dPolylineVertex
 10
36.527108
 20
-25.023863
 30
0.0
 70
    32
  0
VERTEX
  5
12A
330
11D
100
AcDbEntity
  8
1
100
AcDbVertex
100
AcDb3dPolylineVertex
 10
36.473235
 20
-25.021241
 30
0.0
 70
    32
  0
VERTEX
  5
12B
330
11D
100
AcDbEntity
  8
1
100
AcDbVertex
100
AcDb3dPolylineVertex
 10
36.420693
 20
-25.017173
 30
0.0
 70
    32
  0
VERTEX
  5
12C
330
11D
100
AcDbEntity
  8
1
100
AcDbVertex
100
AcDb3dPolylineVertex
 10
36.36940300000001
 20
-25.011727
 30
0.0
 70
    32
  0
VERTEX
  5
12D
330
11D
100
AcDbEntity
  8
1
100
AcDbVertex
100
AcDb3dPolylineVertex
 10
36.319291
 20
-25.00497
 30
0.0
 70
    32
  0
VERTEX
  5
12E
330
11D
100
AcDbEntity
  8
1
100
AcDbVertex
100
AcDb3dPolylineVertex
 10
36.270302
 20
-24.996946
 30
0.0
 70
    32
  0
VERTEX
  5
12F
330
11D
100
AcDbEntity
  8
1
100
AcDbVertex
100
AcDb3dPolylineVertex
 10
36.222391
 20
-24.987693
 30
0.0
 70
    32
  0
VERTEX
  5
130
330
11D
100
AcDbEntity
  8
1
100
AcDbVertex
100
AcDb3dPolylineVertex
 10
36.17551
 20
-24.97725
 30
0.0
 70
    32
  0
VERTEX
  5
131
330
11D
100
AcDbEntity
  8
1
100
AcDbVertex
100
AcDb3dPolylineVertex
 10
36.129611
 20
-24.965654
 30
0.0
 70
    32
  0
VERTEX
  5
132
330
11D
100
AcDbEntity
  8
1
100
AcDbVertex
100
AcDb3dPolylineVertex
 10
36.084647
 20
-24.952944
 30
0.0
 70
    32
  0
VERTEX
  5
133
330
11D
100
AcDbEntity
  8
1
100
AcDbVertex
100
AcDb3dPolylineVertex
 10
36.040574
 20
-24.939156
 30
0.0
 70
    32
  0
SEQEND
  5
134
330
11D
100
AcDbEntity
  8
1
  0
POLYLINE
  5
135
330
775
100
AcDbEntity
  8
1
100
AcDb3dPolyline
 66
     1
 10
0.0
 20
0.0
 30
0.0
 70
     8
  0
VERTEX
  5
136
330
135
100
AcDbEntity
  8
1
100
AcDbVertex
100
AcDb3dPolylineVertex
 10
32.616814
 20
27.703043
 30
0.0
 70
    32
  0
VERTEX
  5
137
330
135
100
AcDbEntity
  8
1
100
AcDbVertex
100
AcDb3dPolylineVertex
 10
32.570461
 20
27.534459
 30
0.0
 70
    32
  0
VERTEX
  5
138
330
135
100
AcDbEntity
  8
1
100
AcDbVertex
100
AcDb3dPolylineVertex
 10
32.523641
 20
27.363418
 30
0.0
 70
    32
  0
VERTEX
  5
139
330
135
100
AcDbEntity
  8
1
100
AcDbVertex
100
AcDb3dPolylineVertex
 10
32.476362
 20
27.189923
 30
0.0
 70
    32
  0
VERTEX
  5
13A
330
135
100
AcDbEntity
  8
1
100
AcDbVertex
100
AcDb3dPolylineVertex
 10
32.428629
 20
27.013977
 30
0.0
 70
    32
  0
VERTEX
  5
13B
330
135
100
AcDbEntity
  8
1
100
AcDbVertex
100
AcDb3dPolylineVertex
 10
32.38045
 20
26.835581
 30
0.0
 70
    32
  0
VERTEX
  5
13C
330
135
100
AcDbEntity
  8
1
100
AcDbVertex
100
AcDb3dPolylineVertex
 10
32.331832
 20
26.654738
 30
0.0
 70
    32
  0
VERTEX
  5
13D
330
135
100
AcDbEntity
  8
1
100
AcDbVertex
100
AcDb3dPolylineVertex
 10
32.28277999999999
 20
26.471451
 30
0.0
 70
    32
  0
SEQEND
  5
13E
330
135
100
AcDbEntity
  8
1
  0
POLYLINE
  5
13F
330
775
100
AcDbEntity
  8
1
100
AcDb3dPolyline
 66
     1
 10
0.0
 20
0.0
 30
0.0
 70
     8
  0
VERTEX
  5
140
330
13F
100
AcDbEntity
  8
1
100
AcDbVertex
100
AcDb3dPolylineVertex
 10
32.15762700000001
 20
7.0
 30
0.0
 70
    32
  0
VERTEX
  5
141
330
13F
100
AcDbEntity
  8
1
100
AcDbVertex
100
AcDb3dPolylineVertex
 10
32.180401
 20
8.103196
 30
0.0
 70
    32
  0
VERTEX
  5
142
330
13F
100
AcDbEntity
  8
1
100
AcDbVertex
100
AcDb3dPolylineVertex
 10
32.194581
 20
9.20612
 30
0.0
 70
    32
  0
VERTEX
  5
143
330
13F
100
AcDbEntity
  8
1
100
AcDbVertex
100
AcDb3dPolylineVertex
 10
32.200153
 20
10.308771
 30
0.0
 70
    32
  0
VERTEX
  5
144
330
13F
100
AcDbEntity
  8
1
100
AcDbVertex
100
AcDb3dPolylineVertex
 10
32.197107
 20
11.41115
 30
0.0
 70
    32
  0
VERTEX
  5
145
330
13F
100
AcDbEntity
  8
1
100
AcDbVertex
100
AcDb3dPolylineVertex
 10
32.185432
 20
12.513255
 30
0.0
 70
    32
  0
VERTEX
  5
146
330
13F
100
AcDbEntity
  8
1
100
AcDbVertex
100
AcDb3dPolylineVertex
 10
32.165163
 20
13.615088
 30
0.0
 70
    32
  0
VERTEX
  5
147
330
13F
100
AcDbEntity
  8
1
100
AcDbVertex
100
AcDb3dPolylineVertex
 10
32.136376
 20
14.716652
 30
0.0
 70
    32
  0
VERTEX
  5
148
330
13F
100
AcDbEntity
  8
1
100
AcDbVertex
100
AcDb3dPolylineVertex
 10
32.09915
 20
15.817948
 30
0.0
 70
    32
  0
VERTEX
  5
149
330
13F
100
AcDbEntity
  8
1
100
AcDbVertex
100
AcDb3dPolylineVertex
 10
32.053562
 20
16.91898
 30
0.0
 70
    32
  0
SEQEND
  5
14A
330
13F
100
AcDbEntity
  8
1
  0
POLYLINE
  5
14B
330
775
100
AcDbEntity
  8
1
100
AcDb3dPolyline
 66
     1
 10
0.0
 20
0.0
 30
0.0
 70
     8
  0
VERTEX
  5
14C
330
14B
100
AcDbEntity
  8
1
100
AcDbVertex
100
AcDb3dPolylineVertex
 10
32.616814
 20
-27.703043
 30
0.0
 70
    32
  0
VERTEX
  5
14D
330
14B
100
AcDbEntity
  8
1
100
AcDbVertex
100
AcDb3dPolylineVertex
 10
32.752384
 20
-28.155149
 30
0.0
 70
    32
  0
VERTEX
  5
14E
330
14B
100
AcDbEntity
  8
1
100
AcDbVertex
100
AcDb3dPolylineVertex
 10
32.903084
 20
-28.58624000000001
 30
0.0
 70
    32
  0
VERTEX
  5
14F
330
14B
100
AcDbEntity
  8
1
100
AcDbVertex
100
AcDb3dPolylineVertex
 10
33.067418
 20
-28.996594
 30
0.0
 70
    32
  0
VERTEX
  5
150
330
14B
100
AcDbEntity
  8
1
100
AcDbVertex
100
AcDb3dPolylineVertex
 10
33.243892
 20
-29.386484
 30
0.0
 70
    32
  0
VERTEX
  5
151
330
14B
100
AcDbEntity
  8
1
100
AcDbVertex
100
AcDb3dPolylineVertex
 10
33.43095
 20
-29.756116
 30
0.0
 70
    32
  0
VERTEX
  5
152
330
14B
100
AcDbEntity
  8
1
100
AcDbVertex
100
AcDb3dPolylineVertex
 10
33.62696500000001
 20
-30.105666
 30
0.0
 70
    32
  0
VERTEX
  5
153
330
14B
100
AcDbEntity
  8
1
100
AcDbVertex
100
AcDb3dPolylineVertex
 10
33.830307
 20
-30.435311
 30
0.0
 70
    32
  0
VERTEX
  5
154
330
14B
100
AcDbEntity
  8
1
100
AcDbVertex
100
AcDb3dPolylineVertex
 10
34.03921500000001
 20
-30.745177
 30
0.0
 70
    32
  0
VERTEX
  5
155
330
14B
100
AcDbEntity
  8
1
100
AcDbVertex
100
AcDb3dPolylineVertex
 10
34.251754
 20
-31.035346
 30
0.0
 70
    32
  0
VERTEX
  5
156
330
14B
100
AcDbEntity
  8
1
100
AcDbVertex
100
AcDb3dPolylineVertex
 10
34.465975
 20
-31.305895
 30
0.0
 70
    32
  0
VERTEX
  5
157
330
14B
100
AcDbEntity
  8
1
100
AcDbVertex
100
AcDb3dPolylineVertex
 10
34.679797
 20
-31.55687
 30
0.0
 70
    32
  0
VERTEX
  5
158
330
14B
100
AcDbEntity
  8
1
100
AcDbVertex
100
AcDb3dPolylineVertex
 10
34.890851
 20
-31.788249
 30
0.0
 70
    32
  0
VERTEX
  5
159
330
14B
100
AcDbEntity
  8
1
100
AcDbVertex
100
AcDb3dPolylineVertex
 10
35.096726
 20
-32.0
 30
0.0
 70
    32
  0
SEQEND
  5
15A
330
14B
100
AcDbEntity
  8
1
  0
POLYLINE
  5
15B
330
775
100
AcDbEntity
  8
1
100
AcDb3dPolyline
 66
     1
 10
0.0
 20
0.0
 30
0.0
 70
     8
  0
VERTEX
  5
15C
330
15B
100
AcDbEntity
  8
1
100
AcDbVertex
100
AcDb3dPolylineVertex
 10
32.15762700000001
 20
-7.0
 30
0.0
 70
    32
  0
VERTEX
  5
15D
330
15B
100
AcDbEntity
  8
1
100
AcDbVertex
100
AcDb3dPolylineVertex
 10
32.211046
 20
-5.730687999999998
 30
0.0
 70
    32
  0
VERTEX
  5
15E
330
15B
100
AcDbEntity
  8
1
100
AcDbVertex
100
AcDb3dPolylineVertex
 10
32.254008
 20
-4.460676999999998
 30
0.0
 70
    32
  0
VERTEX
  5
15F
330
15B
100
AcDbEntity
  8
1
100
AcDbVertex
100
AcDb3dPolylineVertex
 10
32.286409
 20
-3.189959999999998
 30
0.0
 70
    32
  0
VERTEX
  5
160
330
15B
100
AcDbEntity
  8
1
100
AcDbVertex
100
AcDb3dPolylineVertex
 10
32.308141
 20
-1.918529999999999
 30
0.0
 70
    32
  0
VERTEX
  5
161
330
15B
100
AcDbEntity
  8
1
100
AcDbVertex
100
AcDb3dPolylineVertex
 10
32.319101
 20
-0.6463800000000001
 30
0.0
 70
    32
  0
VERTEX
  5
162
330
15B
100
AcDbEntity
  8
1
100
AcDbVertex
100
AcDb3dPolylineVertex
 10
32.319192
 20
0.626497
 30
0.0
 70
    32
  0
VERTEX
  5
163
330
15B
100
AcDbEntity
  8
1
100
AcDbVertex
100
AcDb3dPolylineVertex
 10
32.308418
 20
1.900100999999999
 30
0.0
 70
    32
  0
VERTEX
  5
164
330
15B
100
AcDbEntity
  8
1
100
AcDbVertex
100
AcDb3dPolylineVertex
 10
32.286809
 20
3.174427999999998
 30
0.0
 70
    32
  0
VERTEX
  5
165
330
15B
100
AcDbEntity
  8
1
100
AcDbVertex
100
AcDb3dPolylineVertex
 10
32.254393
 20
4.449551
 30
0.0
 70
    32
  0
VERTEX
  5
166
330
15B
100
AcDbEntity
  8
1
100
AcDbVertex
100
AcDb3dPolylineVertex
 10
32.211275
 20
5.725095999999998
 30
0.0
 70
    32
  0
VERTEX
  5
167
330
15B
100
AcDbEntity
  8
1
100
AcDbVertex
100
AcDb3dPolylineVertex
 10
32.15762700000001
 20
7.0
 30
0.0
 70
    32
  0
SEQEND
  5
168
330
15B
100
AcDbEntity
  8
1
  0
POLYLINE
  5
169
330
775
100
AcDbEntity
  8
1
100
AcDb3dPolyline
 66
     1
 10
0.0
 20
0.0
 30
0.0
 70
     8
  0
VERTEX
  5
16A
330
169
100
AcDbEntity
  8
1
100
AcDbVertex
100
AcDb3dPolylineVertex
 10
17.8738
 20
-32.0
 30
0.0
 70
    32
  0
VERTEX
  5
16B
330
169
100
AcDbEntity
  8
1
100
AcDbVertex
100
AcDb3dPolylineVertex
 10
17.483504
 20
-31.982767
 30
0.0
 70
    32
  0
VERTEX
  5
16C
330
169
100
AcDbEntity
  8
1
100
AcDbVertex
100
AcDb3dPolylineVertex
 10
17.091778
 20
-31.967596
 30
0.0
 70
    32
  0
VERTEX
  5
16D
330
169
100
AcDbEntity
  8
1
100
AcDbVertex
100
AcDb3dPolylineVertex
 10
16.698633
 20
-31.95451
 30
0.0
 70
    32
  0
VERTEX
  5
16E
330
169
100
AcDbEntity
  8
1
100
AcDbVertex
100
AcDb3dPolylineVertex
 10
16.304083
 20
-31.943535
 30
0.0
 70
    32
  0
VERTEX
  5
16F
330
169
100
AcDbEntity
  8
1
100
AcDbVertex
100
AcDb3dPolylineVertex
 10
15.908139
 20
-31.934695
 30
0.0
 70
    32
  0
VERTEX
  5
170
330
169
100
AcDbEntity
  8
1
100
AcDbVertex
100
AcDb3dPolylineVertex
 10
15.510799
 20
-31.928014
 30
0.0
 70
    32
  0
VERTEX
  5
171
330
169
100
AcDbEntity
  8
1
100
AcDbVertex
100
AcDb3dPolylineVertex
 10
15.112059
 20
-31.923516
 30
0.0
 70
    32
  0
VERTEX
  5
172
330
169
100
AcDbEntity
  8
1
100
AcDbVertex
100
AcDb3dPolylineVertex
 10
14.711912
 20
-31.921223
 30
0.0
 70
    32
  0
VERTEX
  5
173
330
169
100
AcDbEntity
  8
1
100
AcDbVertex
100
AcDb3dPolylineVertex
 10
14.310352
 20
-31.921161
 30
0.0
 70
    32
  0
VERTEX
  5
174
330
169
100
AcDbEntity
  8
1
100
AcDbVertex
100
AcDb3dPolylineVertex
 10
13.907307
 20
-31.923354
 30
0.0
 70
    32
  0
VERTEX
  5
175
330
169
100
AcDbEntity
  8
1
100
AcDbVertex
100
AcDb3dPolylineVertex
 10
13.503628
 20
-31.927813
 30
0.0
 70
    32
  0
VERTEX
  5
176
330
169
100
AcDbEntity
  8
1
100
AcDbVertex
100
AcDb3dPolylineVertex
 10
13.101857
 20
-31.9345
 30
0.0
 70
    32
  0
VERTEX
  5
177
330
169
100
AcDbEntity
  8
1
100
AcDbVertex
100
AcDb3dPolylineVertex
 10
12.702307
 20
-31.943375
 30
0.0
 70
    32
  0
VERTEX
  5
178
330
169
100
AcDbEntity
  8
1
100
AcDbVertex
100
AcDb3dPolylineVertex
 10
12.304962
 20
-31.9544
 30
0.0
 70
    32
  0
VERTEX
  5
179
330
169
100
AcDbEntity
  8
1
100
AcDbVertex
100
AcDb3dPolylineVertex
 10
11.909825
 20
-31.967538
 30
0.0
 70
    32
  0
VERTEX
  5
17A
330
169
100
AcDbEntity
  8
1
100
AcDbVertex
100
AcDb3dPolylineVertex
 10
11.516902
 20
-31.98275
 30
0.0
 70
    32
  0
VERTEX
  5
17B
330
169
100
AcDbEntity
  8
1
100
AcDbVertex
100
AcDb3dPolylineVertex
 10
11.1262
 20
-32.0
 30
0.0
 70
    32
  0
SEQEND
  5
17C
330
169
100
AcDbEntity
  8
1
  0
POLYLINE
  5
17D
330
775
100
AcDbEntity
  8
1
100
AcDb3dPolyline
 66
     1
 10
0.0
 20
0.0
 30
0.0
 70
     8
  0
VERTEX
  5
17E
330
17D
100
AcDbEntity
  8
1
100
AcDbVertex
100
AcDb3dPolylineVertex
 10
8.829909999999998
 20
-32.000992
 30
0.0
 70
    32
  0
VERTEX
  5
17F
330
17D
100
AcDbEntity
  8
1
100
AcDbVertex
100
AcDb3dPolylineVertex
 10
8.602289999999998
 20
-31.960842
 30
0.0
 70
    32
  0
VERTEX
  5
180
330
17D
100
AcDbEntity
  8
1
100
AcDbVertex
100
AcDb3dPolylineVertex
 10
8.385944
 20
-31.918562
 30
0.0
 70
    32
  0
VERTEX
  5
181
330
17D
100
AcDbEntity
  8
1
100
AcDbVertex
100
AcDb3dPolylineVertex
 10
8.180714
 20
-31.874099
 30
0.0
 70
    32
  0
VERTEX
  5
182
330
17D
100
AcDbEntity
  8
1
100
AcDbVertex
100
AcDb3dPolylineVertex
 10
7.986482999999998
 20
-31.827386
 30
0.0
 70
    32
  0
VERTEX
  5
183
330
17D
100
AcDbEntity
  8
1
100
AcDbVertex
100
AcDb3dPolylineVertex
 10
7.803171
 20
-31.778354
 30
0.0
 70
    32
  0
VERTEX
  5
184
330
17D
100
AcDbEntity
  8
1
100
AcDbVertex
100
AcDb3dPolylineVertex
 10
7.630803
 20
-31.726914
 30
0.0
 70
    32
  0
VERTEX
  5
185
330
17D
100
AcDbEntity
  8
1
100
AcDbVertex
100
AcDb3dPolylineVertex
 10
7.469419
 20
-31.672975
 30
0.0
 70
    32
  0
VERTEX
  5
186
330
17D
100
AcDbEntity
  8
1
100
AcDbVertex
100
AcDb3dPolylineVertex
 10
7.319052
 20
-31.616424
 30
0.0
 70
    32
  0
VERTEX
  5
187
330
17D
100
AcDbEntity
  8
1
100
AcDbVertex
100
AcDb3dPolylineVertex
 10
7.180433999999999
 20
-31.557424
 30
0.0
 70
    32
  0
VERTEX
  5
188
330
17D
100
AcDbEntity
  8
1
100
AcDbVertex
100
AcDb3dPolylineVertex
 10
7.054694999999998
 20
-31.496414
 30
0.0
 70
    32
  0
VERTEX
  5
189
330
17D
100
AcDbEntity
  8
1
100
AcDbVertex
100
AcDb3dPolylineVertex
 10
6.941724
 20
-31.433415
 30
0.0
 70
    32
  0
VERTEX
  5
18A
330
17D
100
AcDbEntity
  8
1
100
AcDbVertex
100
AcDb3dPolylineVertex
 10
6.841333
 20
-31.36839
 30
0.0
 70
    32
  0
VERTEX
  5
18B
330
17D
100
AcDbEntity
  8
1
100
AcDbVertex
100
AcDb3dPolylineVertex
 10
6.753449999999999
 20
-31.3013
 30
0.0
 70
    32
  0
VERTEX
  5
18C
330
17D
100
AcDbEntity
  8
1
100
AcDbVertex
100
AcDb3dPolylineVertex
 10
6.678050999999999
 20
-31.232101
 30
0.0
 70
    32
  0
VERTEX
  5
18D
330
17D
100
AcDbEntity
  8
1
100
AcDbVertex
100
AcDb3dPolylineVertex
 10
6.615116999999998
 20
-31.160748
 30
0.0
 70
    32
  0
VERTEX
  5
18E
330
17D
100
AcDbEntity
  8
1
100
AcDbVertex
100
AcDb3dPolylineVertex
 10
6.564727
 20
-31.087192
 30
0.0
 70
    32
  0
VERTEX
  5
18F
330
17D
100
AcDbEntity
  8
1
100
AcDbVertex
100
AcDb3dPolylineVertex
 10
6.527080999999999
 20
-31.011507
 30
0.0
 70
    32
  0
VERTEX
  5
190
330
17D
100
AcDbEntity
  8
1
100
AcDbVertex
100
AcDb3dPolylineVertex
 10
6.502479
 20
-30.934366
 30
0.0
 70
    32
  0
VERTEX
  5
191
330
17D
100
AcDbEntity
  8
1
100
AcDbVertex
100
AcDb3dPolylineVertex
 10
6.490765
 20
-30.855953
 30
0.0
 70
    32
  0
VERTEX
  5
192
330
17D
100
AcDbEntity
  8
1
100
AcDbVertex
100
AcDb3dPolylineVertex
 10
6.491765
 20
-30.776265
 30
0.0
 70
    32
  0
VERTEX
  5
193
330
17D
100
AcDbEntity
  8
1
100
AcDbVertex
100
AcDb3dPolylineVertex
 10
6.505398999999998
 20
-30.695307
 30
0.0
 70
    32
  0
VERTEX
  5
194
330
17D
100
AcDbEntity
  8
1
100
AcDbVertex
100
AcDb3dPolylineVertex
 10
6.53159
 20
-30.613087
 30
0.0
 70
    32
  0
VERTEX
  5
195
330
17D
100
AcDbEntity
  8
1
100
AcDbVertex
100
AcDb3dPolylineVertex
 10
6.570322999999999
 20
-30.529612
 30
0.0
 70
    32
  0
VERTEX
  5
196
330
17D
100
AcDbEntity
  8
1
100
AcDbVertex
100
AcDb3dPolylineVertex
 10
6.621686999999998
 20
-30.444891
 30
0.0
 70
    32
  0
VERTEX
  5
197
330
17D
100
AcDbEntity
  8
1
100
AcDbVertex
100
AcDb3dPolylineVertex
 10
6.685799
 20
-30.358947
 30
0.0
 70
    32
  0
VERTEX
  5
198
330
17D
100
AcDbEntity
  8
1
100
AcDbVertex
100
AcDb3dPolylineVertex
 10
6.762303
 20
-30.272356
 30
0.0
 70
    32
  0
VERTEX
  5
199
330
17D
100
AcDbEntity
  8
1
100
AcDbVertex
100
AcDb3dPolylineVertex
 10
6.8506
 20
-30.185701
 30
0.0
 70
    32
  0
VERTEX
  5
19A
330
17D
100
AcDbEntity
  8
1
100
AcDbVertex
100
AcDb3dPolylineVertex
 10
6.950580999999998
 20
-30.099016
 30
0.0
 70
    32
  0
VERTEX
  5
19B
330
17D
100
AcDbEntity
  8
1
100
AcDbVertex
100
AcDb3dPolylineVertex
 10
7.062147
 20
-30.012349
 30
0.0
 70
    32
  0
VERTEX
  5
19C
330
17D
100
AcDbEntity
  8
1
100
AcDbVertex
100
AcDb3dPolylineVertex
 10
7.185210999999998
 20
-29.925745
 30
0.0
 70
    32
  0
VERTEX
  5
19D
330
17D
100
AcDbEntity
  8
1
100
AcDbVertex
100
AcDb3dPolylineVertex
 10
7.319816
 20
-29.839265
 30
0.0
 70
    32
  0
VERTEX
  5
19E
330
17D
100
AcDbEntity
  8
1
100
AcDbVertex
100
AcDb3dPolylineVertex
 10
7.466074
 20
-29.752974
 30
0.0
 70
    32
  0
VERTEX
  5
19F
330
17D
100
AcDbEntity
  8
1
100
AcDbVertex
100
AcDb3dPolylineVertex
 10
7.624099
 20
-29.666939
 30
0.0
 70
    32
  0
VERTEX
  5
1A0
330
17D
100
AcDbEntity
  8
1
100
AcDbVertex
100
AcDb3dPolylineVertex
 10
7.793922999999998
 20
-29.581304
 30
0.0
 70
    32
  0
VERTEX
  5
1A1
330
17D
100
AcDbEntity
  8
1
100
AcDbVertex
100
AcDb3dPolylineVertex
 10
7.974011999999999
 20
-29.496965
 30
0.0
 70
    32
  0
VERTEX
  5
1A2
330
17D
100
AcDbEntity
  8
1
100
AcDbVertex
100
AcDb3dPolylineVertex
 10
8.163774
 20
-29.414227
 30
0.0
 70
    32
  0
VERTEX
  5
1A3
330
17D
100
AcDbEntity
  8
1
100
AcDbVertex
100
AcDb3dPolylineVertex
 10
8.363137
 20
-29.33315999999999
 30
0.0
 70
    32
  0
VERTEX
  5
1A4
330
17D
100
AcDbEntity
  8
1
100
AcDbVertex
100
AcDb3dPolylineVertex
 10
8.57207
 20
-29.253839
 30
0.0
 70
    32
  0
VERTEX
  5
1A5
330
17D
100
AcDbEntity
  8
1
100
AcDbVertex
100
AcDb3dPolylineVertex
 10
8.790632999999997
 20
-29.176361
 30
0.0
 70
    32
  0
VERTEX
  5
1A6
330
17D
100
AcDbEntity
  8
1
100
AcDbVertex
100
AcDb3dPolylineVertex
 10
9.018897
 20
-29.100827
 30
0.0
 70
    32
  0
VERTEX
  5
1A7
330
17D
100
AcDbEntity
  8
1
100
AcDbVertex
100
AcDb3dPolylineVertex
 10
9.256958
 20
-29.027341
 30
0.0
 70
    32
  0
VERTEX
  5
1A8
330
17D
100
AcDbEntity
  8
1
100
AcDbVertex
100
AcDb3dPolylineVertex
 10
9.505015
 20
-28.956035
 30
0.0
 70
    32
  0
VERTEX
  5
1A9
330
17D
100
AcDbEntity
  8
1
100
AcDbVertex
100
AcDb3dPolylineVertex
 10
9.762788
 20
-28.887183
 30
0.0
 70
    32
  0
VERTEX
  5
1AA
330
17D
100
AcDbEntity
  8
1
100
AcDbVertex
100
AcDb3dPolylineVertex
 10
10.027574
 20
-28.821631
 30
0.0
 70
    32
  0
VERTEX
  5
1AB
330
17D
100
AcDbEntity
  8
1
100
AcDbVertex
100
AcDb3dPolylineVertex
 10
10.298882
 20
-28.759545
 30
0.0
 70
    32
  0
VERTEX
  5
1AC
330
17D
100
AcDbEntity
  8
1
100
AcDbVertex
100
AcDb3dPolylineVertex
 10
10.576704
 20
-28.701004
 30
0.0
 70
    32
  0
VERTEX
  5
1AD
330
17D
100
AcDbEntity
  8
1
100
AcDbVertex
100
AcDb3dPolylineVertex
 10
10.861053
 20
-28.646094
 30
0.0
 70
    32
  0
VERTEX
  5
1AE
330
17D
100
AcDbEntity
  8
1
100
AcDbVertex
100
AcDb3dPolylineVertex
 10
11.151947
 20
-28.594903
 30
0.0
 70
    32
  0
VERTEX
  5
1AF
330
17D
100
AcDbEntity
  8
1
100
AcDbVertex
100
AcDb3dPolylineVertex
 10
11.449463
 20
-28.547547
 30
0.0
 70
    32
  0
VERTEX
  5
1B0
330
17D
100
AcDbEntity
  8
1
100
AcDbVertex
100
AcDb3dPolylineVertex
 10
11.753711
 20
-28.504159
 30
0.0
 70
    32
  0
VERTEX
  5
1B1
330
17D
100
AcDbEntity
  8
1
100
AcDbVertex
100
AcDb3dPolylineVertex
 10
12.064869
 20
-28.464885
 30
0.0
 70
    32
  0
VERTEX
  5
1B2
330
17D
100
AcDbEntity
  8
1
100
AcDbVertex
100
AcDb3dPolylineVertex
 10
12.381007
 20
-28.430108
 30
0.0
 70
    32
  0
VERTEX
  5
1B3
330
17D
100
AcDbEntity
  8
1
100
AcDbVertex
100
AcDb3dPolylineVertex
 10
12.699322
 20
-28.40019
 30
0.0
 70
    32
  0
VERTEX
  5
1B4
330
17D
100
AcDbEntity
  8
1
100
AcDbVertex
100
AcDb3dPolylineVertex
 10
13.019738
 20
-28.375142
 30
0.0
 70
    32
  0
VERTEX
  5
1B5
330
17D
100
AcDbEntity
  8
1
100
AcDbVertex
100
AcDb3dPolylineVertex
 10
13.342241
 20
-28.354971
 30
0.0
 70
    32
  0
VERTEX
  5
1B6
330
17D
100
AcDbEntity
  8
1
100
AcDbVertex
100
AcDb3dPolylineVertex
 10
13.666823
 20
-28.33969600000001
 30
0.0
 70
    32
  0
VERTEX
  5
1B7
330
17D
100
AcDbEntity
  8
1
100
AcDbVertex
100
AcDb3dPolylineVertex
 10
13.993503
 20
-28.329379
 30
0.0
 70
    32
  0
VERTEX
  5
1B8
330
17D
100
AcDbEntity
  8
1
100
AcDbVertex
100
AcDb3dPolylineVertex
 10
14.322303
 20
-28.324086
 30
0.0
 70
    32
  0
VERTEX
  5
1B9
330
17D
100
AcDbEntity
  8
1
100
AcDbVertex
100
AcDb3dPolylineVertex
 10
14.653314
 20
-28.323887
 30
0.0
 70
    32
  0
VERTEX
  5
1BA
330
17D
100
AcDbEntity
  8
1
100
AcDbVertex
100
AcDb3dPolylineVertex
 10
14.984855
 20
-28.328848
 30
0.0
 70
    32
  0
VERTEX
  5
1BB
330
17D
100
AcDbEntity
  8
1
100
AcDbVertex
100
AcDb3dPolylineVertex
 10
15.313682
 20
-28.338888
 30
0.0
 70
    32
  0
VERTEX
  5
1BC
330
17D
100
AcDbEntity
  8
1
100
AcDbVertex
100
AcDb3dPolylineVertex
 10
15.639635
 20
-28.353906
 30
0.0
 70
    32
  0
VERTEX
  5
1BD
330
17D
100
AcDbEntity
  8
1
100
AcDbVertex
100
AcDb3dPolylineVertex
 10
15.962753
 20
-28.37381500000001
 30
0.0
 70
    32
  0
VERTEX
  5
1BE
330
17D
100
AcDbEntity
  8
1
100
AcDbVertex
100
AcDb3dPolylineVertex
 10
16.283051
 20
-28.398555
 30
0.0
 70
    32
  0
VERTEX
  5
1BF
330
17D
100
AcDbEntity
  8
1
100
AcDbVertex
100
AcDb3dPolylineVertex
 10
16.600529
 20
-28.428086
 30
0.0
 70
    32
  0
VERTEX
  5
1C0
330
17D
100
AcDbEntity
  8
1
100
AcDbVertex
100
AcDb3dPolylineVertex
 10
16.915186
 20
-28.462367
 30
0.0
 70
    32
  0
VERTEX
  5
1C1
330
17D
100
AcDbEntity
  8
1
100
AcDbVertex
100
AcDb3dPolylineVertex
 10
17.226957
 20
-28.501375
 30
0.0
 70
    32
  0
VERTEX
  5
1C2
330
17D
100
AcDbEntity
  8
1
100
AcDbVertex
100
AcDb3dPolylineVertex
 10
17.533616
 20
-28.544782
 30
0.0
 70
    32
  0
VERTEX
  5
1C3
330
17D
100
AcDbEntity
  8
1
100
AcDbVertex
100
AcDb3dPolylineVertex
 10
17.833096
 20
-28.59216
 30
0.0
 70
    32
  0
VERTEX
  5
1C4
330
17D
100
AcDbEntity
  8
1
100
AcDbVertex
100
AcDb3dPolylineVertex
 10
18.12558
 20
-28.643366
 30
0.0
 70
    32
  0
VERTEX
  5
1C5
330
17D
100
AcDbEntity
  8
1
100
AcDbVertex
100
AcDb3dPolylineVertex
 10
18.411173
 20
-28.698271
 30
0.0
 70
    32
  0
VERTEX
  5
1C6
330
17D
100
AcDbEntity
  8
1
100
AcDbVertex
100
AcDb3dPolylineVertex
 10
18.689918
 20
-28.756774
 30
0.0
 70
    32
  0
VERTEX
  5
1C7
330
17D
100
AcDbEntity
  8
1
100
AcDbVertex
100
AcDb3dPolylineVertex
 10
18.961848
 20
-28.818777
 30
0.0
 70
    32
  0
VERTEX
  5
1C8
330
17D
100
AcDbEntity
  8
1
100
AcDbVertex
100
AcDb3dPolylineVertex
 10
19.22698
 20
-28.884191
 30
0.0
 70
    32
  0
VERTEX
  5
1C9
330
17D
100
AcDbEntity
  8
1
100
AcDbVertex
100
AcDb3dPolylineVertex
 10
19.485129
 20
-28.952918
 30
0.0
 70
    32
  0
VERTEX
  5
1CA
330
17D
100
AcDbEntity
  8
1
100
AcDbVertex
100
AcDb3dPolylineVertex
 10
19.733973
 20
-29.02422700000001
 30
0.0
 70
    32
  0
VERTEX
  5
1CB
330
17D
100
AcDbEntity
  8
1
100
AcDbVertex
100
AcDb3dPolylineVertex
 10
19.972853
 20
-29.09775
 30
0.0
 70
    32
  0
VERTEX
  5
1CC
330
17D
100
AcDbEntity
  8
1
100
AcDbVertex
100
AcDb3dPolylineVertex
 10
20.201961
 20
-29.173357
 30
0.0
 70
    32
  0
VERTEX
  5
1CD
330
17D
100
AcDbEntity
  8
1
100
AcDbVertex
100
AcDb3dPolylineVertex
 10
20.421387
 20
-29.250942
 30
0.0
 70
    32
  0
VERTEX
  5
1CE
330
17D
100
AcDbEntity
  8
1
100
AcDbVertex
100
AcDb3dPolylineVertex
 10
20.631195
 20
-29.330406
 30
0.0
 70
    32
  0
VERTEX
  5
1CF
330
17D
100
AcDbEntity
  8
1
100
AcDbVertex
100
AcDb3dPolylineVertex
 10
20.831439
 20
-29.411653
 30
0.0
 70
    32
  0
VERTEX
  5
1D0
330
17D
100
AcDbEntity
  8
1
100
AcDbVertex
100
AcDb3dPolylineVertex
 10
21.022079
 20
-29.494606
 30
0.0
 70
    32
  0
VERTEX
  5
1D1
330
17D
100
AcDbEntity
  8
1
100
AcDbVertex
100
AcDb3dPolylineVertex
 10
21.203008
 20
-29.579183
 30
0.0
 70
    32
  0
VERTEX
  5
1D2
330
17D
100
AcDbEntity
  8
1
100
AcDbVertex
100
AcDb3dPolylineVertex
 10
21.372771
 20
-29.664629
 30
0.0
 70
    32
  0
VERTEX
  5
1D3
330
17D
100
AcDbEntity
  8
1
100
AcDbVertex
100
AcDb3dPolylineVertex
 10
21.530788
 20
-29.750482
 30
0.0
 70
    32
  0
VERTEX
  5
1D4
330
17D
100
AcDbEntity
  8
1
100
AcDbVertex
100
AcDb3dPolylineVertex
 10
21.677205
 20
-29.836669
 30
0.0
 70
    32
  0
VERTEX
  5
1D5
330
17D
100
AcDbEntity
  8
1
100
AcDbVertex
100
AcDb3dPolylineVertex
 10
21.812104
 20
-29.923122
 30
0.0
 70
    32
  0
VERTEX
  5
1D6
330
17D
100
AcDbEntity
  8
1
100
AcDbVertex
100
AcDb3dPolylineVertex
 10
21.935567
 20
-30.009775
 30
0.0
 70
    32
  0
VERTEX
  5
1D7
330
17D
100
AcDbEntity
  8
1
100
AcDbVertex
100
AcDb3dPolylineVertex
 10
22.047608
 20
-30.096569
 30
0.0
 70
    32
  0
VERTEX
  5
1D8
330
17D
100
AcDbEntity
  8
1
100
AcDbVertex
100
AcDb3dPolylineVertex
 10
22.148113
 20
-30.183456
 30
0.0
 70
    32
  0
VERTEX
  5
1D9
330
17D
100
AcDbEntity
  8
1
100
AcDbVertex
100
AcDb3dPolylineVertex
 10
22.236954
 20
-30.270392
 30
0.0
 70
    32
  0
VERTEX
  5
1DA
330
17D
100
AcDbEntity
  8
1
100
AcDbVertex
100
AcDb3dPolylineVertex
 10
22.313857
 20
-30.357163
 30
0.0
 70
    32
  0
VERTEX
  5
1DB
330
17D
100
AcDbEntity
  8
1
100
AcDbVertex
100
AcDb3dPolylineVertex
 10
22.378155
 20
-30.44303300000001
 30
0.0
 70
    32
  0
VERTEX
  5
1DC
330
17D
100
AcDbEntity
  8
1
100
AcDbVertex
100
AcDb3dPolylineVertex
 10
22.429819
 20
-30.527899
 30
0.0
 70
    32
  0
VERTEX
  5
1DD
330
17D
100
AcDbEntity
  8
1
100
AcDbVertex
100
AcDb3dPolylineVertex
 10
22.468893
 20
-30.611739
 30
0.0
 70
    32
  0
VERTEX
  5
1DE
330
17D
100
AcDbEntity
  8
1
100
AcDbVertex
100
AcDb3dPolylineVertex
 10
22.495376
 20
-30.694531
 30
0.0
 70
    32
  0
VERTEX
  5
1DF
330
17D
100
AcDbEntity
  8
1
100
AcDbVertex
100
AcDb3dPolylineVertex
 10
22.509151
 20
-30.776263
 30
0.0
 70
    32
  0
VERTEX
  5
1E0
330
17D
100
AcDbEntity
  8
1
100
AcDbVertex
100
AcDb3dPolylineVertex
 10
22.510073
 20
-30.856824
 30
0.0
 70
    32
  0
VERTEX
  5
1E1
330
17D
100
AcDbEntity
  8
1
100
AcDbVertex
100
AcDb3dPolylineVertex
 10
22.498119
 20
-30.935544
 30
0.0
 70
    32
  0
VERTEX
  5
1E2
330
17D
100
AcDbEntity
  8
1
100
AcDbVertex
100
AcDb3dPolylineVertex
 10
22.473445
 20
-31.012315
 30
0.0
 70
    32
  0
VERTEX
  5
1E3
330
17D
100
AcDbEntity
  8
1
100
AcDbVertex
100
AcDb3dPolylineVertex
 10
22.436102
 20
-31.087169
 30
0.0
 70
    32
  0
VERTEX
  5
1E4
330
17D
100
AcDbEntity
  8
1
100
AcDbVertex
100
AcDb3dPolylineVertex
 10
22.386117
 20
-31.160132
 30
0.0
 70
    32
  0
VERTEX
  5
1E5
330
17D
100
AcDbEntity
  8
1
100
AcDbVertex
100
AcDb3dPolylineVertex
 10
22.323509
 20
-31.23123400000001
 30
0.0
 70
    32
  0
VERTEX
  5
1E6
330
17D
100
AcDbEntity
  8
1
100
AcDbVertex
100
AcDb3dPolylineVertex
 10
22.248174
 20
-31.300497
 30
0.0
 70
    32
  0
VERTEX
  5
1E7
330
17D
100
AcDbEntity
  8
1
100
AcDbVertex
100
AcDb3dPolylineVertex
 10
22.159919
 20
-31.367943
 30
0.0
 70
    32
  0
VERTEX
  5
1E8
330
17D
100
AcDbEntity
  8
1
100
AcDbVertex
100
AcDb3dPolylineVertex
 10
22.058546
 20
-31.433592
 30
0.0
 70
    32
  0
VERTEX
  5
1E9
330
17D
100
AcDbEntity
  8
1
100
AcDbVertex
100
AcDb3dPolylineVertex
 10
21.94459
 20
-31.497061
 30
0.0
 70
    32
  0
VERTEX
  5
1EA
330
17D
100
AcDbEntity
  8
1
100
AcDbVertex
100
AcDb3dPolylineVertex
 10
21.818881
 20
-31.55795900000001
 30
0.0
 70
    32
  0
VERTEX
  5
1EB
330
17D
100
AcDbEntity
  8
1
100
AcDbVertex
100
AcDb3dPolylineVertex
 10
21.68153
 20
-31.616367
 30
0.0
 70
    32
  0
VERTEX
  5
1EC
330
17D
100
AcDbEntity
  8
1
100
AcDbVertex
100
AcDb3dPolylineVertex
 10
21.532646
 20
-31.672369
 30
0.0
 70
    32
  0
VERTEX
  5
1ED
330
17D
100
AcDbEntity
  8
1
100
AcDbVertex
100
AcDb3dPolylineVertex
 10
21.372252
 20
-31.726043
 30
0.0
 70
    32
  0
VERTEX
  5
1EE
330
17D
100
AcDbEntity
  8
1
100
AcDbVertex
100
AcDb3dPolylineVertex
 10
21.200252
 20
-31.777454
 30
0.0
 70
    32
  0
VERTEX
  5
1EF
330
17D
100
AcDbEntity
  8
1
100
AcDbVertex
100
AcDb3dPolylineVertex
 10
21.016546
 20
-31.826665
 30
0.0
 70
    32
  0
VERTEX
  5
1F0
330
17D
100
AcDbEntity
  8
1
100
AcDbVertex
100
AcDb3dPolylineVertex
 10
20.821009
 20
-31.873734
 30
0.0
 70
    32
  0
VERTEX
  5
1F1
330
17D
100
AcDbEntity
  8
1
100
AcDbVertex
100
AcDb3dPolylineVertex
 10
20.613748
 20
-31.918639
 30
0.0
 70
    32
  0
VERTEX
  5
1F2
330
17D
100
AcDbEntity
  8
1
100
AcDbVertex
100
AcDb3dPolylineVertex
 10
20.396903
 20
-31.960993
 30
0.0
 70
    32
  0
VERTEX
  5
1F3
330
17D
100
AcDbEntity
  8
1
100
AcDbVertex
100
AcDb3dPolylineVertex
 10
20.17105
 20
-32.000822
 30
0.0
 70
    32
  0
SEQEND
  5
1F4
330
17D
100
AcDbEntity
  8
1
  0
POLYLINE
  5
1F5
330
775
100
AcDbEntity
  8
1
100
AcDb3dPolyline
 66
     1
 10
0.0
 20
0.0
 30
0.0
 70
     8
  0
VERTEX
  5
1F6
330
1F5
100
AcDbEntity
  8
1
100
AcDbVertex
100
AcDb3dPolylineVertex
 10
69.5
 20
-10.631984
 30
0.0
 70
    32
  0
VERTEX
  5
1F7
330
1F5
100
AcDbEntity
  8
1
100
AcDbVertex
100
AcDb3dPolylineVertex
 10
69.67896999999999
 20
-10.672909
 30
0.0
 70
    32
  0
VERTEX
  5
1F8
330
1F5
100
AcDbEntity
  8
1
100
AcDbVertex
100
AcDb3dPolylineVertex
 10
69.85544499999999
 20
-10.719564
 30
0.0
 70
    32
  0
VERTEX
  5
1F9
330
1F5
100
AcDbEntity
  8
1
100
AcDbVertex
100
AcDb3dPolylineVertex
 10
70.029338
 20
-10.772065
 30
0.0
 70
    32
  0
VERTEX
  5
1FA
330
1F5
100
AcDbEntity
  8
1
100
AcDbVertex
100
AcDb3dPolylineVertex
 10
70.200559
 20
-10.83053
 30
0.0
 70
    32
  0
VERTEX
  5
1FB
330
1F5
100
AcDbEntity
  8
1
100
AcDbVertex
100
AcDb3dPolylineVertex
 10
70.36899699999998
 20
-10.895116
 30
0.0
 70
    32
  0
VERTEX
  5
1FC
330
1F5
100
AcDbEntity
  8
1
100
AcDbVertex
100
AcDb3dPolylineVertex
 10
70.53451800000002
 20
-10.966016
 30
0.0
 70
    32
  0
VERTEX
  5
1FD
330
1F5
100
AcDbEntity
  8
1
100
AcDbVertex
100
AcDb3dPolylineVertex
 10
70.696987
 20
-11.043425
 30
0.0
 70
    32
  0
VERTEX
  5
1FE
330
1F5
100
AcDbEntity
  8
1
100
AcDbVertex
100
AcDb3dPolylineVertex
 10
70.85625400000002
 20
-11.127567
 30
0.0
 70
    32
  0
VERTEX
  5
1FF
330
1F5
100
AcDbEntity
  8
1
100
AcDbVertex
100
AcDb3dPolylineVertex
 10
71.012119
 20
-11.218747
 30
0.0
 70
    32
  0
VERTEX
  5
200
330
1F5
100
AcDbEntity
  8
1
100
AcDbVertex
100
AcDb3dPolylineVertex
 10
71.164377
 20
-11.317278
 30
0.0
 70
    32
  0
VERTEX
  5
201
330
1F5
100
AcDbEntity
  8
1
100
AcDbVertex
100
AcDb3dPolylineVertex
 10
71.31280600000002
 20
-11.423506
 30
0.0
 70
    32
  0
VERTEX
  5
202
330
1F5
100
AcDbEntity
  8
1
100
AcDbVertex
100
AcDb3dPolylineVertex
 10
71.45713399999998
 20
-11.537877
 30
0.0
 70
    32
  0
VERTEX
  5
203
330
1F5
100
AcDbEntity
  8
1
100
AcDbVertex
100
AcDb3dPolylineVertex
 10
71.596947
 20
-11.660791
 30
0.0
 70
    32
  0
VERTEX
  5
204
330
1F5
100
AcDbEntity
  8
1
100
AcDbVertex
100
AcDb3dPolylineVertex
 10
71.73075799999998
 20
-11.791614
 30
0.0
 70
    32
  0
VERTEX
  5
205
330
1F5
100
AcDbEntity
  8
1
100
AcDbVertex
100
AcDb3dPolylineVertex
 10
71.857781
 20
-11.930164
 30
0.0
 70
    32
  0
VERTEX
  5
206
330
1F5
100
AcDbEntity
  8
1
100
AcDbVertex
100
AcDb3dPolylineVertex
 10
71.97769499999998
 20
-12.076747
 30
0.0
 70
    32
  0
VERTEX
  5
207
330
1F5
100
AcDbEntity
  8
1
100
AcDbVertex
100
AcDb3dPolylineVertex
 10
72.090156
 20
-12.231667
 30
0.0
 70
    32
  0
VERTEX
  5
208
330
1F5
100
AcDbEntity
  8
1
100
AcDbVertex
100
AcDb3dPolylineVertex
 10
72.194775
 20
-12.395281
 30
0.0
 70
    32
  0
VERTEX
  5
209
330
1F5
100
AcDbEntity
  8
1
100
AcDbVertex
100
AcDb3dPolylineVertex
 10
72.29108
 20
-12.568032
 30
0.0
 70
    32
  0
VERTEX
  5
20A
330
1F5
100
AcDbEntity
  8
1
100
AcDbVertex
100
AcDb3dPolylineVertex
 10
72.37853699999998
 20
-12.750398
 30
0.0
 70
    32
  0
VERTEX
  5
20B
330
1F5
100
AcDbEntity
  8
1
100
AcDbVertex
100
AcDb3dPolylineVertex
 10
72.455794
 20
-12.940898
 30
0.0
 70
    32
  0
VERTEX
  5
20C
330
1F5
100
AcDbEntity
  8
1
100
AcDbVertex
100
AcDb3dPolylineVertex
 10
72.522026
 20
-13.138386
 30
0.0
 70
    32
  0
VERTEX
  5
20D
330
1F5
100
AcDbEntity
  8
1
100
AcDbVertex
100
AcDb3dPolylineVertex
 10
72.577005
 20
-13.342969
 30
0.0
 70
    32
  0
VERTEX
  5
20E
330
1F5
100
AcDbEntity
  8
1
100
AcDbVertex
100
AcDb3dPolylineVertex
 10
72.62050000000002
 20
-13.554752
 30
0.0
 70
    32
  0
VERTEX
  5
20F
330
1F5
100
AcDbEntity
  8
1
100
AcDbVertex
100
AcDb3dPolylineVertex
 10
72.65223399999998
 20
-13.773881
 30
0.0
 70
    32
  0
VERTEX
  5
210
330
1F5
100
AcDbEntity
  8
1
100
AcDbVertex
100
AcDb3dPolylineVertex
 10
72.671855
 20
-14.000557
 30
0.0
 70
    32
  0
VERTEX
  5
211
330
1F5
100
AcDbEntity
  8
1
100
AcDbVertex
100
AcDb3dPolylineVertex
 10
72.679005
 20
-14.23499
 30
0.0
 70
    32
  0
VERTEX
  5
212
330
1F5
100
AcDbEntity
  8
1
100
AcDbVertex
100
AcDb3dPolylineVertex
 10
72.673379
 20
-14.475545
 30
0.0
 70
    32
  0
VERTEX
  5
213
330
1F5
100
AcDbEntity
  8
1
100
AcDbVertex
100
AcDb3dPolylineVertex
 10
72.655152
 20
-14.718875
 30
0.0
 70
    32
  0
VERTEX
  5
214
330
1F5
100
AcDbEntity
  8
1
100
AcDbVertex
100
AcDb3dPolylineVertex
 10
72.624666
 20
-14.964844
 30
0.0
 70
    32
  0
VERTEX
  5
215
330
1F5
100
AcDbEntity
  8
1
100
AcDbVertex
100
AcDb3dPolylineVertex
 10
72.582224
 20
-15.2134
 30
0.0
 70
    32
  0
VERTEX
  5
216
330
1F5
100
AcDbEntity
  8
1
100
AcDbVertex
100
AcDb3dPolylineVertex
 10
72.52808900000002
 20
-15.464505
 30
0.0
 70
    32
  0
VERTEX
  5
217
330
1F5
100
AcDbEntity
  8
1
100
AcDbVertex
100
AcDb3dPolylineVertex
 10
72.46249099999999
 20
-15.718138
 30
0.0
 70
    32
  0
VERTEX
  5
218
330
1F5
100
AcDbEntity
  8
1
100
AcDbVertex
100
AcDb3dPolylineVertex
 10
72.385887
 20
-15.973473
 30
0.0
 70
    32
  0
VERTEX
  5
219
330
1F5
100
AcDbEntity
  8
1
100
AcDbVertex
100
AcDb3dPolylineVertex
 10
72.299699
 20
-16.227313
 30
0.0
 70
    32
  0
VERTEX
  5
21A
330
1F5
100
AcDbEntity
  8
1
100
AcDbVertex
100
AcDb3dPolylineVertex
 10
72.204568
 20
-16.479416
 30
0.0
 70
    32
  0
VERTEX
  5
21B
330
1F5
100
AcDbEntity
  8
1
100
AcDbVertex
100
AcDb3dPolylineVertex
 10
72.101001
 20
-16.729902
 30
0.0
 70
    32
  0
VERTEX
  5
21C
330
1F5
100
AcDbEntity
  8
1
100
AcDbVertex
100
AcDb3dPolylineVertex
 10
71.989478
 20
-16.978882
 30
0.0
 70
    32
  0
VERTEX
  5
21D
330
1F5
100
AcDbEntity
  8
1
100
AcDbVertex
100
AcDb3dPolylineVertex
 10
71.870361
 20
-17.226446
 30
0.0
 70
    32
  0
VERTEX
  5
21E
330
1F5
100
AcDbEntity
  8
1
100
AcDbVertex
100
AcDb3dPolylineVertex
 10
71.743978
 20
-17.472676
 30
0.0
 70
    32
  0
VERTEX
  5
21F
330
1F5
100
AcDbEntity
  8
1
100
AcDbVertex
100
AcDb3dPolylineVertex
 10
71.61064399999998
 20
-17.717671
 30
0.0
 70
    32
  0
VERTEX
  5
220
330
1F5
100
AcDbEntity
  8
1
100
AcDbVertex
100
AcDb3dPolylineVertex
 10
71.47144200000003
 20
-17.960107
 30
0.0
 70
    32
  0
VERTEX
  5
221
330
1F5
100
AcDbEntity
  8
1
100
AcDbVertex
100
AcDb3dPolylineVertex
 10
71.327512
 20
-18.198768
 30
0.0
 70
    32
  0
VERTEX
  5
222
330
1F5
100
AcDbEntity
  8
1
100
AcDbVertex
100
AcDb3dPolylineVertex
 10
71.179168
 20
-18.433876
 30
0.0
 70
    32
  0
VERTEX
  5
223
330
1F5
100
AcDbEntity
  8
1
100
AcDbVertex
100
AcDb3dPolylineVertex
 10
71.026688
 20
-18.665647
 30
0.0
 70
    32
  0
VERTEX
  5
224
330
1F5
100
AcDbEntity
  8
1
100
AcDbVertex
100
AcDb3dPolylineVertex
 10
70.870292
 20
-18.89425199999999
 30
0.0
 70
    32
  0
VERTEX
  5
225
330
1F5
100
AcDbEntity
  8
1
100
AcDbVertex
100
AcDb3dPolylineVertex
 10
70.71018599999998
 20
-19.119851
 30
0.0
 70
    32
  0
VERTEX
  5
226
330
1F5
100
AcDbEntity
  8
1
100
AcDbVertex
100
AcDb3dPolylineVertex
 10
70.54656899999997
 20
-19.342598
 30
0.0
 70
    32
  0
VERTEX
  5
227
330
1F5
100
AcDbEntity
  8
1
100
AcDbVertex
100
AcDb3dPolylineVertex
 10
70.37959100000001
 20
-19.562609
 30
0.0
 70
    32
  0
VERTEX
  5
228
330
1F5
100
AcDbEntity
  8
1
100
AcDbVertex
100
AcDb3dPolylineVertex
 10
70.209386
 20
-19.779989
 30
0.0
 70
    32
  0
VERTEX
  5
229
330
1F5
100
AcDbEntity
  8
1
100
AcDbVertex
100
AcDb3dPolylineVertex
 10
70.03607999999998
 20
-19.994848
 30
0.0
 70
    32
  0
VERTEX
  5
22A
330
1F5
100
AcDbEntity
  8
1
100
AcDbVertex
100
AcDb3dPolylineVertex
 10
69.85980600000001
 20
-20.207237
 30
0.0
 70
    32
  0
VERTEX
  5
22B
330
1F5
100
AcDbEntity
  8
1
100
AcDbVertex
100
AcDb3dPolylineVertex
 10
69.680965
 20
-20.416887
 30
0.0
 70
    32
  0
VERTEX
  5
22C
330
1F5
100
AcDbEntity
  8
1
100
AcDbVertex
100
AcDb3dPolylineVertex
 10
69.5
 20
-20.62348
 30
0.0
 70
    32
  0
SEQEND
  5
22D
330
1F5
100
AcDbEntity
  8
1
  0
POLYLINE
  5
22E
330
775
100
AcDbEntity
  8
1
100
AcDb3dPolyline
 66
     1
 10
0.0
 20
0.0
 30
0.0
 70
     8
  0
VERTEX
  5
22F
330
22E
100
AcDbEntity
  8
1
100
AcDbVertex
100
AcDb3dPolylineVertex
 10
32.28277999999999
 20
-26.471451
 30
0.0
 70
    32
  0
VERTEX
  5
230
330
22E
100
AcDbEntity
  8
1
100
AcDbVertex
100
AcDb3dPolylineVertex
 10
32.331832
 20
-26.654738
 30
0.0
 70
    32
  0
VERTEX
  5
231
330
22E
100
AcDbEntity
  8
1
100
AcDbVertex
100
AcDb3dPolylineVertex
 10
32.38045
 20
-26.835581
 30
0.0
 70
    32
  0
VERTEX
  5
232
330
22E
100
AcDbEntity
  8
1
100
AcDbVertex
100
AcDb3dPolylineVertex
 10
32.428629
 20
-27.013977
 30
0.0
 70
    32
  0
VERTEX
  5
233
330
22E
100
AcDbEntity
  8
1
100
AcDbVertex
100
AcDb3dPolylineVertex
 10
32.476362
 20
-27.189923
 30
0.0
 70
    32
  0
VERTEX
  5
234
330
22E
100
AcDbEntity
  8
1
100
AcDbVertex
100
AcDb3dPolylineVertex
 10
32.523641
 20
-27.363418
 30
0.0
 70
    32
  0
VERTEX
  5
235
330
22E
100
AcDbEntity
  8
1
100
AcDbVertex
100
AcDb3dPolylineVertex
 10
32.570461
 20
-27.534459
 30
0.0
 70
    32
  0
VERTEX
  5
236
330
22E
100
AcDbEntity
  8
1
100
AcDbVertex
100
AcDb3dPolylineVertex
 10
32.616814
 20
-27.703043
 30
0.0
 70
    32
  0
SEQEND
  5
237
330
22E
100
AcDbEntity
  8
1
  0
POLYLINE
  5
238
330
775
100
AcDbEntity
  8
1
100
AcDb3dPolyline
 66
     1
 10
0.0
 20
0.0
 30
0.0
 70
     8
  0
VERTEX
  5
239
330
238
100
AcDbEntity
  8
1
100
AcDbVertex
100
AcDb3dPolylineVertex
 10
32.616814
 20
-26.440341
 30
0.0
 70
    32
  0
VERTEX
  5
23A
330
238
100
AcDbEntity
  8
1
100
AcDbVertex
100
AcDb3dPolylineVertex
 10
32.576965
 20
-26.460749
 30
0.0
 70
    32
  0
VERTEX
  5
23B
330
238
100
AcDbEntity
  8
1
100
AcDbVertex
100
AcDb3dPolylineVertex
 10
32.537823
 20
-26.476874
 30
0.0
 70
    32
  0
VERTEX
  5
23C
330
238
100
AcDbEntity
  8
1
100
AcDbVertex
100
AcDb3dPolylineVertex
 10
32.499376
 20
-26.488739
 30
0.0
 70
    32
  0
VERTEX
  5
23D
330
238
100
AcDbEntity
  8
1
100
AcDbVertex
100
AcDb3dPolylineVertex
 10
32.461614
 20
-26.496371
 30
0.0
 70
    32
  0
VERTEX
  5
23E
330
238
100
AcDbEntity
  8
1
100
AcDbVertex
100
AcDb3dPolylineVertex
 10
32.424526
 20
-26.499794
 30
0.0
 70
    32
  0
VERTEX
  5
23F
330
238
100
AcDbEntity
  8
1
100
AcDbVertex
100
AcDb3dPolylineVertex
 10
32.388104
 20
-26.499017
 30
0.0
 70
    32
  0
VERTEX
  5
240
330
238
100
AcDbEntity
  8
1
100
AcDbVertex
100
AcDb3dPolylineVertex
 10
32.352344
 20
-26.494038
 30
0.0
 70
    32
  0
VERTEX
  5
241
330
238
100
AcDbEntity
  8
1
100
AcDbVertex
100
AcDb3dPolylineVertex
 10
32.317237
 20
-26.48485
 30
0.0
 70
    32
  0
VERTEX
  5
242
330
238
100
AcDbEntity
  8
1
100
AcDbVertex
100
AcDb3dPolylineVertex
 10
32.28277999999999
 20
-26.471451
 30
0.0
 70
    32
  0
SEQEND
  5
243
330
238
100
AcDbEntity
  8
1
  0
POLYLINE
  5
244
330
775
100
AcDbEntity
  8
1
100
AcDb3dPolyline
 66
     1
 10
0.0
 20
0.0
 30
0.0
 70
     8
  0
VERTEX
  5
245
330
244
100
AcDbEntity
  8
1
100
AcDbVertex
100
AcDb3dPolylineVertex
 10
35.096726
 20
-32.0
 30
0.0
 70
    32
  0
VERTEX
  5
246
330
244
100
AcDbEntity
  8
1
100
AcDbVertex
100
AcDb3dPolylineVertex
 10
35.23571
 20
-32.0
 30
0.0
 70
    32
  0
VERTEX
  5
247
330
244
100
AcDbEntity
  8
1
100
AcDbVertex
100
AcDb3dPolylineVertex
 10
35.37471200000001
 20
-32.0
 30
0.0
 70
    32
  0
VERTEX
  5
248
330
244
100
AcDbEntity
  8
1
100
AcDbVertex
100
AcDb3dPolylineVertex
 10
35.51336
 20
-32.0
 30
0.0
 70
    32
  0
VERTEX
  5
249
330
244
100
AcDbEntity
  8
1
100
AcDbVertex
100
AcDb3dPolylineVertex
 10
35.651287
 20
-32.0
 30
0.0
 70
    32
  0
VERTEX
  5
24A
330
244
100
AcDbEntity
  8
1
100
AcDbVertex
100
AcDb3dPolylineVertex
 10
35.788121
 20
-32.0
 30
0.0
 70
    32
  0
VERTEX
  5
24B
330
244
100
AcDbEntity
  8
1
100
AcDbVertex
100
AcDb3dPolylineVertex
 10
35.923495
 20
-32.0
 30
0.0
 70
    32
  0
VERTEX
  5
24C
330
244
100
AcDbEntity
  8
1
100
AcDbVertex
100
AcDb3dPolylineVertex
 10
36.057036
 20
-32.0
 30
0.0
 70
    32
  0
VERTEX
  5
24D
330
244
100
AcDbEntity
  8
1
100
AcDbVertex
100
AcDb3dPolylineVertex
 10
36.188317
 20
-32.0
 30
0.0
 70
    32
  0
VERTEX
  5
24E
330
244
100
AcDbEntity
  8
1
100
AcDbVertex
100
AcDb3dPolylineVertex
 10
36.316849
 20
-32.0
 30
0.0
 70
    32
  0
VERTEX
  5
24F
330
244
100
AcDbEntity
  8
1
100
AcDbVertex
100
AcDb3dPolylineVertex
 10
36.442137
 20
-32.0
 30
0.0
 70
    32
  0
VERTEX
  5
250
330
244
100
AcDbEntity
  8
1
100
AcDbVertex
100
AcDb3dPolylineVertex
 10
36.563687
 20
-32.0
 30
0.0
 70
    32
  0
VERTEX
  5
251
330
244
100
AcDbEntity
  8
1
100
AcDbVertex
100
AcDb3dPolylineVertex
 10
36.681004
 20
-32.0
 30
0.0
 70
    32
  0
VERTEX
  5
252
330
244
100
AcDbEntity
  8
1
100
AcDbVertex
100
AcDb3dPolylineVertex
 10
36.793595
 20
-32.0
 30
0.0
 70
    32
  0
VERTEX
  5
253
330
244
100
AcDbEntity
  8
1
100
AcDbVertex
100
AcDb3dPolylineVertex
 10
36.900924
 20
-32.0
 30
0.0
 70
    32
  0
VERTEX
  5
254
330
244
100
AcDbEntity
  8
1
100
AcDbVertex
100
AcDb3dPolylineVertex
 10
37.002403
 20
-32.0
 30
0.0
 70
    32
  0
VERTEX
  5
255
330
244
100
AcDbEntity
  8
1
100
AcDbVertex
100
AcDb3dPolylineVertex
 10
37.097461
 20
-32.0
 30
0.0
 70
    32
  0
VERTEX
  5
256
330
244
100
AcDbEntity
  8
1
100
AcDbVertex
100
AcDb3dPolylineVertex
 10
37.185524
 20
-32.0
 30
0.0
 70
    32
  0
VERTEX
  5
257
330
244
100
AcDbEntity
  8
1
100
AcDbVertex
100
AcDb3dPolylineVertex
 10
37.266023
 20
-32.0
 30
0.0
 70
    32
  0
VERTEX
  5
258
330
244
100
AcDbEntity
  8
1
100
AcDbVertex
100
AcDb3dPolylineVertex
 10
37.338383
 20
-32.0
 30
0.0
 70
    32
  0
VERTEX
  5
259
330
244
100
AcDbEntity
  8
1
100
AcDbVertex
100
AcDb3dPolylineVertex
 10
37.402034
 20
-32.0
 30
0.0
 70
    32
  0
VERTEX
  5
25A
330
244
100
AcDbEntity
  8
1
100
AcDbVertex
100
AcDb3dPolylineVertex
 10
37.456438
 20
-32.0
 30
0.0
 70
    32
  0
VERTEX
  5
25B
330
244
100
AcDbEntity
  8
1
100
AcDbVertex
100
AcDb3dPolylineVertex
 10
37.501113
 20
-32.0
 30
0.0
 70
    32
  0
VERTEX
  5
25C
330
244
100
AcDbEntity
  8
1
100
AcDbVertex
100
AcDb3dPolylineVertex
 10
37.535583
 20
-32.0
 30
0.0
 70
    32
  0
VERTEX
  5
25D
330
244
100
AcDbEntity
  8
1
100
AcDbVertex
100
AcDb3dPolylineVertex
 10
37.55942800000001
 20
-32.0
 30
0.0
 70
    32
  0
VERTEX
  5
25E
330
244
100
AcDbEntity
  8
1
100
AcDbVertex
100
AcDb3dPolylineVertex
 10
37.572312
 20
-32.0
 30
0.0
 70
    32
  0
VERTEX
  5
25F
330
244
100
AcDbEntity
  8
1
100
AcDbVertex
100
AcDb3dPolylineVertex
 10
37.574014
 20
-32.0
 30
0.0
 70
    32
  0
SEQEND
  5
260
330
244
100
AcDbEntity
  8
1
  0
POLYLINE
  5
261
330
775
100
AcDbEntity
  8
1
100
AcDb3dPolyline
 66
     1
 10
0.0
 20
0.0
 30
0.0
 70
     8
  0
VERTEX
  5
262
330
261
100
AcDbEntity
  8
1
100
AcDbVertex
100
AcDb3dPolylineVertex
 10
32.616814
 20
-14.164399
 30
0.0
 70
    32
  0
VERTEX
  5
263
330
261
100
AcDbEntity
  8
1
100
AcDbVertex
100
AcDb3dPolylineVertex
 10
32.689605
 20
-13.90172
 30
0.0
 70
    32
  0
VERTEX
  5
264
330
261
100
AcDbEntity
  8
1
100
AcDbVertex
100
AcDb3dPolylineVertex
 10
32.76972
 20
-13.649215
 30
0.0
 70
    32
  0
VERTEX
  5
265
330
261
100
AcDbEntity
  8
1
100
AcDbVertex
100
AcDb3dPolylineVertex
 10
32.857477
 20
-13.406696
 30
0.0
 70
    32
  0
VERTEX
  5
266
330
261
100
AcDbEntity
  8
1
100
AcDbVertex
100
AcDb3dPolylineVertex
 10
32.953201
 20
-13.17399
 30
0.0
 70
    32
  0
VERTEX
  5
267
330
261
100
AcDbEntity
  8
1
100
AcDbVertex
100
AcDb3dPolylineVertex
 10
33.05725200000001
 20
-12.950986
 30
0.0
 70
    32
  0
VERTEX
  5
268
330
261
100
AcDbEntity
  8
1
100
AcDbVertex
100
AcDb3dPolylineVertex
 10
33.17001
 20
-12.737596
 30
0.0
 70
    32
  0
VERTEX
  5
269
330
261
100
AcDbEntity
  8
1
100
AcDbVertex
100
AcDb3dPolylineVertex
 10
33.29186
 20
-12.533737
 30
0.0
 70
    32
  0
VERTEX
  5
26A
330
261
100
AcDbEntity
  8
1
100
AcDbVertex
100
AcDb3dPolylineVertex
 10
33.42310900000001
 20
-12.339538
 30
0.0
 70
    32
  0
VERTEX
  5
26B
330
261
100
AcDbEntity
  8
1
100
AcDbVertex
100
AcDb3dPolylineVertex
 10
33.562597
 20
-12.156905
 30
0.0
 70
    32
  0
VERTEX
  5
26C
330
261
100
AcDbEntity
  8
1
100
AcDbVertex
100
AcDb3dPolylineVertex
 10
33.709985
 20
-11.985993
 30
0.0
 70
    32
  0
VERTEX
  5
26D
330
261
100
AcDbEntity
  8
1
100
AcDbVertex
100
AcDb3dPolylineVertex
 10
33.86537
 20
-11.826347
 30
0.0
 70
    32
  0
VERTEX
  5
26E
330
261
100
AcDbEntity
  8
1
100
AcDbVertex
100
AcDb3dPolylineVertex
 10
34.028855
 20
-11.677565
 30
0.0
 70
    32
  0
VERTEX
  5
26F
330
261
100
AcDbEntity
  8
1
100
AcDbVertex
100
AcDb3dPolylineVertex
 10
34.200549
 20
-11.539249
 30
0.0
 70
    32
  0
VERTEX
  5
270
330
261
100
AcDbEntity
  8
1
100
AcDbVertex
100
AcDb3dPolylineVertex
 10
34.380576
 20
-11.41105
 30
0.0
 70
    32
  0
VERTEX
  5
271
330
261
100
AcDbEntity
  8
1
100
AcDbVertex
100
AcDb3dPolylineVertex
 10
34.569075
 20
-11.292638
 30
0.0
 70
    32
  0
VERTEX
  5
272
330
261
100
AcDbEntity
  8
1
100
AcDbVertex
100
AcDb3dPolylineVertex
 10
34.765536
 20
-11.184041
 30
0.0
 70
    32
  0
VERTEX
  5
273
330
261
100
AcDbEntity
  8
1
100
AcDbVertex
100
AcDb3dPolylineVertex
 10
34.968232
 20
-11.085692
 30
0.0
 70
    32
  0
VERTEX
  5
274
330
261
100
AcDbEntity
  8
1
100
AcDbVertex
100
AcDb3dPolylineVertex
 10
35.17701
 20
-10.997038
 30
0.0
 70
    32
  0
VERTEX
  5
275
330
261
100
AcDbEntity
  8
1
100
AcDbVertex
100
AcDb3dPolylineVertex
 10
35.391832
 20
-10.917474
 30
0.0
 70
    32
  0
VERTEX
  5
276
330
261
100
AcDbEntity
  8
1
100
AcDbVertex
100
AcDb3dPolylineVertex
 10
35.612672
 20
-10.846445
 30
0.0
 70
    32
  0
VERTEX
  5
277
330
261
100
AcDbEntity
  8
1
100
AcDbVertex
100
AcDb3dPolylineVertex
 10
35.839525
 20
-10.783466
 30
0.0
 70
    32
  0
VERTEX
  5
278
330
261
100
AcDbEntity
  8
1
100
AcDbVertex
100
AcDb3dPolylineVertex
 10
36.07239000000002
 20
-10.728057
 30
0.0
 70
    32
  0
VERTEX
  5
279
330
261
100
AcDbEntity
  8
1
100
AcDbVertex
100
AcDb3dPolylineVertex
 10
36.311272
 20
-10.679761
 30
0.0
 70
    32
  0
VERTEX
  5
27A
330
261
100
AcDbEntity
  8
1
100
AcDbVertex
100
AcDb3dPolylineVertex
 10
36.55620600000001
 20
-10.638166
 30
0.0
 70
    32
  0
VERTEX
  5
27B
330
261
100
AcDbEntity
  8
1
100
AcDbVertex
100
AcDb3dPolylineVertex
 10
36.807226
 20
-10.602865
 30
0.0
 70
    32
  0
VERTEX
  5
27C
330
261
100
AcDbEntity
  8
1
100
AcDbVertex
100
AcDb3dPolylineVertex
 10
37.063473
 20
-10.573552
 30
0.0
 70
    32
  0
VERTEX
  5
27D
330
261
100
AcDbEntity
  8
1
100
AcDbVertex
100
AcDb3dPolylineVertex
 10
37.32354
 20
-10.549906
 30
0.0
 70
    32
  0
VERTEX
  5
27E
330
261
100
AcDbEntity
  8
1
100
AcDbVertex
100
AcDb3dPolylineVertex
 10
37.587269
 20
-10.531437
 30
0.0
 70
    32
  0
VERTEX
  5
27F
330
261
100
AcDbEntity
  8
1
100
AcDbVertex
100
AcDb3dPolylineVertex
 10
37.854699
 20
-10.517658
 30
0.0
 70
    32
  0
VERTEX
  5
280
330
261
100
AcDbEntity
  8
1
100
AcDbVertex
100
AcDb3dPolylineVertex
 10
38.125847
 20
-10.508123
 30
0.0
 70
    32
  0
VERTEX
  5
281
330
261
100
AcDbEntity
  8
1
100
AcDbVertex
100
AcDb3dPolylineVertex
 10
38.400739
 20
-10.502408
 30
0.0
 70
    32
  0
VERTEX
  5
282
330
261
100
AcDbEntity
  8
1
100
AcDbVertex
100
AcDb3dPolylineVertex
 10
38.67940200000001
 20
-10.500092
 30
0.0
 70
    32
  0
VERTEX
  5
283
330
261
100
AcDbEntity
  8
1
100
AcDbVertex
100
AcDb3dPolylineVertex
 10
38.961887
 20
-10.500785
 30
0.0
 70
    32
  0
VERTEX
  5
284
330
261
100
AcDbEntity
  8
1
100
AcDbVertex
100
AcDb3dPolylineVertex
 10
39.24825300000001
 20
-10.504109
 30
0.0
 70
    32
  0
VERTEX
  5
285
330
261
100
AcDbEntity
  8
1
100
AcDbVertex
100
AcDb3dPolylineVertex
 10
39.538563
 20
-10.509686
 30
0.0
 70
    32
  0
VERTEX
  5
286
330
261
100
AcDbEntity
  8
1
100
AcDbVertex
100
AcDb3dPolylineVertex
 10
39.832901
 20
-10.517155
 30
0.0
 70
    32
  0
VERTEX
  5
287
330
261
100
AcDbEntity
  8
1
100
AcDbVertex
100
AcDb3dPolylineVertex
 10
40.13136699999999
 20
-10.52616
 30
0.0
 70
    32
  0
VERTEX
  5
288
330
261
100
AcDbEntity
  8
1
100
AcDbVertex
100
AcDb3dPolylineVertex
 10
40.434026
 20
-10.536346
 30
0.0
 70
    32
  0
VERTEX
  5
289
330
261
100
AcDbEntity
  8
1
100
AcDbVertex
100
AcDb3dPolylineVertex
 10
40.739292
 20
-10.547305
 30
0.0
 70
    32
  0
VERTEX
  5
28A
330
261
100
AcDbEntity
  8
1
100
AcDbVertex
100
AcDb3dPolylineVertex
 10
41.046145
 20
-10.558649
 30
0.0
 70
    32
  0
VERTEX
  5
28B
330
261
100
AcDbEntity
  8
1
100
AcDbVertex
100
AcDb3dPolylineVertex
 10
41.354615
 20
-10.570046
 30
0.0
 70
    32
  0
VERTEX
  5
28C
330
261
100
AcDbEntity
  8
1
100
AcDbVertex
100
AcDb3dPolylineVertex
 10
41.664726
 20
-10.581183
 30
0.0
 70
    32
  0
VERTEX
  5
28D
330
261
100
AcDbEntity
  8
1
100
AcDbVertex
100
AcDb3dPolylineVertex
 10
41.976502
 20
-10.591786
 30
0.0
 70
    32
  0
VERTEX
  5
28E
330
261
100
AcDbEntity
  8
1
100
AcDbVertex
100
AcDb3dPolylineVertex
 10
42.289968
 20
-10.601582
 30
0.0
 70
    32
  0
VERTEX
  5
28F
330
261
100
AcDbEntity
  8
1
100
AcDbVertex
100
AcDb3dPolylineVertex
 10
42.605153
 20
-10.610326
 30
0.0
 70
    32
  0
VERTEX
  5
290
330
261
100
AcDbEntity
  8
1
100
AcDbVertex
100
AcDb3dPolylineVertex
 10
42.922086
 20
-10.617819
 30
0.0
 70
    32
  0
VERTEX
  5
291
330
261
100
AcDbEntity
  8
1
100
AcDbVertex
100
AcDb3dPolylineVertex
 10
43.24079799999998
 20
-10.623873
 30
0.0
 70
    32
  0
VERTEX
  5
292
330
261
100
AcDbEntity
  8
1
100
AcDbVertex
100
AcDb3dPolylineVertex
 10
43.56132
 20
-10.628319
 30
0.0
 70
    32
  0
VERTEX
  5
293
330
261
100
AcDbEntity
  8
1
100
AcDbVertex
100
AcDb3dPolylineVertex
 10
43.883684
 20
-10.631052
 30
0.0
 70
    32
  0
VERTEX
  5
294
330
261
100
AcDbEntity
  8
1
100
AcDbVertex
100
AcDb3dPolylineVertex
 10
44.20792399999998
 20
-10.631984
 30
0.0
 70
    32
  0
SEQEND
  5
295
330
261
100
AcDbEntity
  8
1
  0
POLYLINE
  5
296
330
775
100
AcDbEntity
  8
1
100
AcDb3dPolyline
 66
     1
 10
0.0
 20
0.0
 30
0.0
 70
     8
  0
VERTEX
  5
297
330
296
100
AcDbEntity
  8
1
100
AcDbVertex
100
AcDb3dPolylineVertex
 10
32.28277999999999
 20
26.471451
 30
0.0
 70
    32
  0
VERTEX
  5
298
330
296
100
AcDbEntity
  8
1
100
AcDbVertex
100
AcDb3dPolylineVertex
 10
32.310804
 20
26.482686
 30
0.0
 70
    32
  0
VERTEX
  5
299
330
296
100
AcDbEntity
  8
1
100
AcDbVertex
100
AcDb3dPolylineVertex
 10
32.339297
 20
26.491134
 30
0.0
 70
    32
  0
VERTEX
  5
29A
330
296
100
AcDbEntity
  8
1
100
AcDbVertex
100
AcDb3dPolylineVertex
 10
32.368265
 20
26.496786
 30
0.0
 70
    32
  0
VERTEX
  5
29B
330
296
100
AcDbEntity
  8
1
100
AcDbVertex
100
AcDb3dPolylineVertex
 10
32.39771300000001
 20
26.499633
 30
0.0
 70
    32
  0
VERTEX
  5
29C
330
296
100
AcDbEntity
  8
1
100
AcDbVertex
100
AcDb3dPolylineVertex
 10
32.427645
 20
26.499666
 30
0.0
 70
    32
  0
VERTEX
  5
29D
330
296
100
AcDbEntity
  8
1
100
AcDbVertex
100
AcDb3dPolylineVertex
 10
32.458072
 20
26.496874
 30
0.0
 70
    32
  0
VERTEX
  5
29E
330
296
100
AcDbEntity
  8
1
100
AcDbVertex
100
AcDb3dPolylineVertex
 10
32.488994
 20
26.491235
 30
0.0
 70
    32
  0
VERTEX
  5
29F
330
296
100
AcDbEntity
  8
1
100
AcDbVertex
100
AcDb3dPolylineVertex
 10
32.520361
 20
26.482755
 30
0.0
 70
    32
  0
VERTEX
  5
2A0
330
296
100
AcDbEntity
  8
1
100
AcDbVertex
100
AcDb3dPolylineVertex
 10
32.552122
 20
26.47144
 30
0.0
 70
    32
  0
VERTEX
  5
2A1
330
296
100
AcDbEntity
  8
1
100
AcDbVertex
100
AcDb3dPolylineVertex
 10
32.584271
 20
26.457301
 30
0.0
 70
    32
  0
VERTEX
  5
2A2
330
296
100
AcDbEntity
  8
1
100
AcDbVertex
100
AcDb3dPolylineVertex
 10
32.616814
 20
26.440341
 30
0.0
 70
    32
  0
SEQEND
  5
2A3
330
296
100
AcDbEntity
  8
1
  0
POLYLINE
  5
2A4
330
775
100
AcDbEntity
  8
1
100
AcDb3dPolyline
 66
     1
 10
0.0
 20
0.0
 30
0.0
 70
     8
  0
VERTEX
  5
2A5
330
2A4
100
AcDbEntity
  8
1
100
AcDbVertex
100
AcDb3dPolylineVertex
 10
32.053562
 20
-16.91898
 30
0.0
 70
    32
  0
VERTEX
  5
2A6
330
2A4
100
AcDbEntity
  8
1
100
AcDbVertex
100
AcDb3dPolylineVertex
 10
32.090393
 20
-16.692952
 30
0.0
 70
    32
  0
VERTEX
  5
2A7
330
2A4
100
AcDbEntity
  8
1
100
AcDbVertex
100
AcDb3dPolylineVertex
 10
32.128286
 20
-16.46924
 30
0.0
 70
    32
  0
VERTEX
  5
2A8
330
2A4
100
AcDbEntity
  8
1
100
AcDbVertex
100
AcDb3dPolylineVertex
 10
32.167248
 20
-16.247833
 30
0.0
 70
    32
  0
VERTEX
  5
2A9
330
2A4
100
AcDbEntity
  8
1
100
AcDbVertex
100
AcDb3dPolylineVertex
 10
32.207286
 20
-16.028722
 30
0.0
 70
    32
  0
VERTEX
  5
2AA
330
2A4
100
AcDbEntity
  8
1
100
AcDbVertex
100
AcDb3dPolylineVertex
 10
32.248406
 20
-15.811895
 30
0.0
 70
    32
  0
VERTEX
  5
2AB
330
2A4
100
AcDbEntity
  8
1
100
AcDbVertex
100
AcDb3dPolylineVertex
 10
32.290615
 20
-15.597343
 30
0.0
 70
    32
  0
VERTEX
  5
2AC
330
2A4
100
AcDbEntity
  8
1
100
AcDbVertex
100
AcDb3dPolylineVertex
 10
32.33392
 20
-15.385059
 30
0.0
 70
    32
  0
VERTEX
  5
2AD
330
2A4
100
AcDbEntity
  8
1
100
AcDbVertex
100
AcDb3dPolylineVertex
 10
32.37834
 20
-15.175057
 30
0.0
 70
    32
  0
VERTEX
  5
2AE
330
2A4
100
AcDbEntity
  8
1
100
AcDbVertex
100
AcDb3dPolylineVertex
 10
32.423896
 20
-14.967356
 30
0.0
 70
    32
  0
VERTEX
  5
2AF
330
2A4
100
AcDbEntity
  8
1
100
AcDbVertex
100
AcDb3dPolylineVertex
 10
32.470608
 20
-14.761977
 30
0.0
 70
    32
  0
VERTEX
  5
2B0
330
2A4
100
AcDbEntity
  8
1
100
AcDbVertex
100
AcDb3dPolylineVertex
 10
32.518419
 20
-14.559275
 30
0.0
 70
    32
  0
VERTEX
  5
2B1
330
2A4
100
AcDbEntity
  8
1
100
AcDbVertex
100
AcDb3dPolylineVertex
 10
32.567159
 20
-14.360051
 30
0.0
 70
    32
  0
VERTEX
  5
2B2
330
2A4
100
AcDbEntity
  8
1
100
AcDbVertex
100
AcDb3dPolylineVertex
 10
32.616814
 20
-14.164399
 30
0.0
 70
    32
  0
SEQEND
  5
2B3
330
2A4
100
AcDbEntity
  8
1
  0
POLYLINE
  5
2B4
330
775
100
AcDbEntity
  8
1
100
AcDb3dPolyline
 66
     1
 10
0.0
 20
0.0
 30
0.0
 70
     8
  0
VERTEX
  5
2B5
330
2B4
100
AcDbEntity
  8
1
100
AcDbVertex
100
AcDb3dPolylineVertex
 10
32.053562
 20
-16.91898
 30
0.0
 70
    32
  0
VERTEX
  5
2B6
330
2B4
100
AcDbEntity
  8
1
100
AcDbVertex
100
AcDb3dPolylineVertex
 10
32.09915
 20
-15.817948
 30
0.0
 70
    32
  0
VERTEX
  5
2B7
330
2B4
100
AcDbEntity
  8
1
100
AcDbVertex
100
AcDb3dPolylineVertex
 10
32.136376
 20
-14.716652
 30
0.0
 70
    32
  0
VERTEX
  5
2B8
330
2B4
100
AcDbEntity
  8
1
100
AcDbVertex
100
AcDb3dPolylineVertex
 10
32.165163
 20
-13.615088
 30
0.0
 70
    32
  0
VERTEX
  5
2B9
330
2B4
100
AcDbEntity
  8
1
100
AcDbVertex
100
AcDb3dPolylineVertex
 10
32.185432
 20
-12.513255
 30
0.0
 70
    32
  0
VERTEX
  5
2BA
330
2B4
100
AcDbEntity
  8
1
100
AcDbVertex
100
AcDb3dPolylineVertex
 10
32.197107
 20
-11.41115
 30
0.0
 70
    32
  0
VERTEX
  5
2BB
330
2B4
100
AcDbEntity
  8
1
100
AcDbVertex
100
AcDb3dPolylineVertex
 10
32.200153
 20
-10.308771
 30
0.0
 70
    32
  0
VERTEX
  5
2BC
330
2B4
100
AcDbEntity
  8
1
100
AcDbVertex
100
AcDb3dPolylineVertex
 10
32.194581
 20
-9.20612
 30
0.0
 70
    32
  0
VERTEX
  5
2BD
330
2B4
100
AcDbEntity
  8
1
100
AcDbVertex
100
AcDb3dPolylineVertex
 10
32.180401
 20
-8.103196
 30
0.0
 70
    32
  0
VERTEX
  5
2BE
330
2B4
100
AcDbEntity
  8
1
100
AcDbVertex
100
AcDb3dPolylineVertex
 10
32.15762700000001
 20
-7.0
 30
0.0
 70
    32
  0
SEQEND
  5
2BF
330
2B4
100
AcDbEntity
  8
1
  0
POLYLINE
  5
2C0
330
775
100
AcDbEntity
  8
1
100
AcDb3dPolyline
 66
     1
 10
0.0
 20
0.0
 30
0.0
 70
     8
  0
VERTEX
  5
2C1
330
2C0
100
AcDbEntity
  8
1
100
AcDbVertex
100
AcDb3dPolylineVertex
 10
35.096726
 20
32.0
 30
0.0
 70
    32
  0
VERTEX
  5
2C2
330
2C0
100
AcDbEntity
  8
1
100
AcDbVertex
100
AcDb3dPolylineVertex
 10
34.890851
 20
31.788249
 30
0.0
 70
    32
  0
VERTEX
  5
2C3
330
2C0
100
AcDbEntity
  8
1
100
AcDbVertex
100
AcDb3dPolylineVertex
 10
34.679797
 20
31.55687
 30
0.0
 70
    32
  0
VERTEX
  5
2C4
330
2C0
100
AcDbEntity
  8
1
100
AcDbVertex
100
AcDb3dPolylineVertex
 10
34.465975
 20
31.305895
 30
0.0
 70
    32
  0
VERTEX
  5
2C5
330
2C0
100
AcDbEntity
  8
1
100
AcDbVertex
100
AcDb3dPolylineVertex
 10
34.251754
 20
31.035346
 30
0.0
 70
    32
  0
VERTEX
  5
2C6
330
2C0
100
AcDbEntity
  8
1
100
AcDbVertex
100
AcDb3dPolylineVertex
 10
34.03921500000001
 20
30.745177
 30
0.0
 70
    32
  0
VERTEX
  5
2C7
330
2C0
100
AcDbEntity
  8
1
100
AcDbVertex
100
AcDb3dPolylineVertex
 10
33.830307
 20
30.435311
 30
0.0
 70
    32
  0
VERTEX
  5
2C8
330
2C0
100
AcDbEntity
  8
1
100
AcDbVertex
100
AcDb3dPolylineVertex
 10
33.62696500000001
 20
30.105666
 30
0.0
 70
    32
  0
VERTEX
  5
2C9
330
2C0
100
AcDbEntity
  8
1
100
AcDbVertex
100
AcDb3dPolylineVertex
 10
33.43095
 20
29.756116
 30
0.0
 70
    32
  0
VERTEX
  5
2CA
330
2C0
100
AcDbEntity
  8
1
100
AcDbVertex
100
AcDb3dPolylineVertex
 10
33.243892
 20
29.386484
 30
0.0
 70
    32
  0
VERTEX
  5
2CB
330
2C0
100
AcDbEntity
  8
1
100
AcDbVertex
100
AcDb3dPolylineVertex
 10
33.067418
 20
28.996594
 30
0.0
 70
    32
  0
VERTEX
  5
2CC
330
2C0
100
AcDbEntity
  8
1
100
AcDbVertex
100
AcDb3dPolylineVertex
 10
32.903084
 20
28.58624000000001
 30
0.0
 70
    32
  0
VERTEX
  5
2CD
330
2C0
100
AcDbEntity
  8
1
100
AcDbVertex
100
AcDb3dPolylineVertex
 10
32.752384
 20
28.155149
 30
0.0
 70
    32
  0
VERTEX
  5
2CE
330
2C0
100
AcDbEntity
  8
1
100
AcDbVertex
100
AcDb3dPolylineVertex
 10
32.616814
 20
27.703043
 30
0.0
 70
    32
  0
SEQEND
  5
2CF
330
2C0
100
AcDbEntity
  8
1
  0
POLYLINE
  5
2D0
330
775
100
AcDbEntity
  8
1
100
AcDb3dPolyline
 66
     1
 10
0.0
 20
0.0
 30
0.0
 70
     8
  0
VERTEX
  5
2D1
330
2D0
100
AcDbEntity
  8
1
100
AcDbVertex
100
AcDb3dPolylineVertex
 10
35.096726
 20
32.0
 30
0.0
 70
    32
  0
VERTEX
  5
2D2
330
2D0
100
AcDbEntity
  8
1
100
AcDbVertex
100
AcDb3dPolylineVertex
 10
35.23571
 20
32.0
 30
0.0
 70
    32
  0
VERTEX
  5
2D3
330
2D0
100
AcDbEntity
  8
1
100
AcDbVertex
100
AcDb3dPolylineVertex
 10
35.37471200000001
 20
32.0
 30
0.0
 70
    32
  0
VERTEX
  5
2D4
330
2D0
100
AcDbEntity
  8
1
100
AcDbVertex
100
AcDb3dPolylineVertex
 10
35.51336
 20
32.0
 30
0.0
 70
    32
  0
VERTEX
  5
2D5
330
2D0
100
AcDbEntity
  8
1
100
AcDbVertex
100
AcDb3dPolylineVertex
 10
35.651287
 20
32.0
 30
0.0
 70
    32
  0
VERTEX
  5
2D6
330
2D0
100
AcDbEntity
  8
1
100
AcDbVertex
100
AcDb3dPolylineVertex
 10
35.788121
 20
32.0
 30
0.0
 70
    32
  0
VERTEX
  5
2D7
330
2D0
100
AcDbEntity
  8
1
100
AcDbVertex
100
AcDb3dPolylineVertex
 10
35.923495
 20
32.0
 30
0.0
 70
    32
  0
VERTEX
  5
2D8
330
2D0
100
AcDbEntity
  8
1
100
AcDbVertex
100
AcDb3dPolylineVertex
 10
36.057036
 20
32.0
 30
0.0
 70
    32
  0
VERTEX
  5
2D9
330
2D0
100
AcDbEntity
  8
1
100
AcDbVertex
100
AcDb3dPolylineVertex
 10
36.188317
 20
32.0
 30
0.0
 70
    32
  0
VERTEX
  5
2DA
330
2D0
100
AcDbEntity
  8
1
100
AcDbVertex
100
AcDb3dPolylineVertex
 10
36.316849
 20
32.0
 30
0.0
 70
    32
  0
VERTEX
  5
2DB
330
2D0
100
AcDbEntity
  8
1
100
AcDbVertex
100
AcDb3dPolylineVertex
 10
36.442137
 20
32.0
 30
0.0
 70
    32
  0
VERTEX
  5
2DC
330
2D0
100
AcDbEntity
  8
1
100
AcDbVertex
100
AcDb3dPolylineVertex
 10
36.563687
 20
32.0
 30
0.0
 70
    32
  0
VERTEX
  5
2DD
330
2D0
100
AcDbEntity
  8
1
100
AcDbVertex
100
AcDb3dPolylineVertex
 10
36.681004
 20
32.0
 30
0.0
 70
    32
  0
VERTEX
  5
2DE
330
2D0
100
AcDbEntity
  8
1
100
AcDbVertex
100
AcDb3dPolylineVertex
 10
36.793595
 20
32.0
 30
0.0
 70
    32
  0
VERTEX
  5
2DF
330
2D0
100
AcDbEntity
  8
1
100
AcDbVertex
100
AcDb3dPolylineVertex
 10
36.900924
 20
32.0
 30
0.0
 70
    32
  0
VERTEX
  5
2E0
330
2D0
100
AcDbEntity
  8
1
100
AcDbVertex
100
AcDb3dPolylineVertex
 10
37.002403
 20
32.0
 30
0.0
 70
    32
  0
VERTEX
  5
2E1
330
2D0
100
AcDbEntity
  8
1
100
AcDbVertex
100
AcDb3dPolylineVertex
 10
37.097461
 20
32.0
 30
0.0
 70
    32
  0
VERTEX
  5
2E2
330
2D0
100
AcDbEntity
  8
1
100
AcDbVertex
100
AcDb3dPolylineVertex
 10
37.185524
 20
32.0
 30
0.0
 70
    32
  0
VERTEX
  5
2E3
330
2D0
100
AcDbEntity
  8
1
100
AcDbVertex
100
AcDb3dPolylineVertex
 10
37.266023
 20
32.0
 30
0.0
 70
    32
  0
VERTEX
  5
2E4
330
2D0
100
AcDbEntity
  8
1
100
AcDbVertex
100
AcDb3dPolylineVertex
 10
37.338383
 20
32.0
 30
0.0
 70
    32
  0
VERTEX
  5
2E5
330
2D0
100
AcDbEntity
  8
1
100
AcDbVertex
100
AcDb3dPolylineVertex
 10
37.402034
 20
32.0
 30
0.0
 70
    32
  0
VERTEX
  5
2E6
330
2D0
100
AcDbEntity
  8
1
100
AcDbVertex
100
AcDb3dPolylineVertex
 10
37.456438
 20
32.0
 30
0.0
 70
    32
  0
VERTEX
  5
2E7
330
2D0
100
AcDbEntity
  8
1
100
AcDbVertex
100
AcDb3dPolylineVertex
 10
37.501113
 20
32.0
 30
0.0
 70
    32
  0
VERTEX
  5
2E8
330
2D0
100
AcDbEntity
  8
1
100
AcDbVertex
100
AcDb3dPolylineVertex
 10
37.535583
 20
32.0
 30
0.0
 70
    32
  0
VERTEX
  5
2E9
330
2D0
100
AcDbEntity
  8
1
100
AcDbVertex
100
AcDb3dPolylineVertex
 10
37.55942800000001
 20
32.0
 30
0.0
 70
    32
  0
VERTEX
  5
2EA
330
2D0
100
AcDbEntity
  8
1
100
AcDbVertex
100
AcDb3dPolylineVertex
 10
37.572312
 20
32.0
 30
0.0
 70
    32
  0
VERTEX
  5
2EB
330
2D0
100
AcDbEntity
  8
1
100
AcDbVertex
100
AcDb3dPolylineVertex
 10
37.574014
 20
32.0
 30
0.0
 70
    32
  0
SEQEND
  5
2EC
330
2D0
100
AcDbEntity
  8
1
  0
POLYLINE
  5
2ED
330
775
100
AcDbEntity
  8
1
100
AcDb3dPolyline
 66
     1
 10
0.0
 20
0.0
 30
0.0
 70
     8
  0
VERTEX
  5
2EE
330
2ED
100
AcDbEntity
  8
1
100
AcDbVertex
100
AcDb3dPolylineVertex
 10
32.0
 20
25.398463
 30
0.0
 70
    32
  0
VERTEX
  5
2EF
330
2ED
100
AcDbEntity
  8
1
100
AcDbVertex
100
AcDb3dPolylineVertex
 10
31.942545
 20
25.177052
 30
0.0
 70
    32
  0
VERTEX
  5
2F0
330
2ED
100
AcDbEntity
  8
1
100
AcDbVertex
100
AcDb3dPolylineVertex
 10
31.884614
 20
24.952638
 30
0.0
 70
    32
  0
VERTEX
  5
2F1
330
2ED
100
AcDbEntity
  8
1
100
AcDbVertex
100
AcDb3dPolylineVertex
 10
31.826211
 20
24.725218
 30
0.0
 70
    32
  0
VERTEX
  5
2F2
330
2ED
100
AcDbEntity
  8
1
100
AcDbVertex
100
AcDb3dPolylineVertex
 10
31.767345
 20
24.49479
 30
0.0
 70
    32
  0
VERTEX
  5
2F3
330
2ED
100
AcDbEntity
  8
1
100
AcDbVertex
100
AcDb3dPolylineVertex
 10
31.708021
 20
24.261353
 30
0.0
 70
    32
  0
VERTEX
  5
2F4
330
2ED
100
AcDbEntity
  8
1
100
AcDbVertex
100
AcDb3dPolylineVertex
 10
31.648247
 20
24.024905
 30
0.0
 70
    32
  0
VERTEX
  5
2F5
330
2ED
100
AcDbEntity
  8
1
100
AcDbVertex
100
AcDb3dPolylineVertex
 10
31.58803
 20
23.785444
 30
0.0
 70
    32
  0
SEQEND
  5
2F6
330
2ED
100
AcDbEntity
  8
1
  0
POLYLINE
  5
2F7
330
775
100
AcDbEntity
  8
1
100
AcDb3dPolyline
 66
     1
 10
0.0
 20
0.0
 30
0.0
 70
     8
  0
VERTEX
  5
2F8
330
2F7
100
AcDbEntity
  8
1
100
AcDbVertex
100
AcDb3dPolylineVertex
 10
34.359811
 20
-24.942523
 30
0.0
 70
    32
  0
VERTEX
  5
2F9
330
2F7
100
AcDbEntity
  8
1
100
AcDbVertex
100
AcDb3dPolylineVertex
 10
34.213148
 20
-25.069746
 30
0.0
 70
    32
  0
VERTEX
  5
2FA
330
2F7
100
AcDbEntity
  8
1
100
AcDbVertex
100
AcDb3dPolylineVertex
 10
34.071953
 20
-25.193741
 30
0.0
 70
    32
  0
VERTEX
  5
2FB
330
2F7
100
AcDbEntity
  8
1
100
AcDbVertex
100
AcDb3dPolylineVertex
 10
33.936173
 20
-25.314251
 30
0.0
 70
    32
  0
VERTEX
  5
2FC
330
2F7
100
AcDbEntity
  8
1
100
AcDbVertex
100
AcDb3dPolylineVertex
 10
33.805755
 20
-25.431018
 30
0.0
 70
    32
  0
VERTEX
  5
2FD
330
2F7
100
AcDbEntity
  8
1
100
AcDbVertex
100
AcDb3dPolylineVertex
 10
33.680648
 20
-25.543781
 30
0.0
 70
    32
  0
VERTEX
  5
2FE
330
2F7
100
AcDbEntity
  8
1
100
AcDbVertex
100
AcDb3dPolylineVertex
 10
33.5608
 20
-25.652279
 30
0.0
 70
    32
  0
VERTEX
  5
2FF
330
2F7
100
AcDbEntity
  8
1
100
AcDbVertex
100
AcDb3dPolylineVertex
 10
33.446163
 20
-25.756231
 30
0.0
 70
    32
  0
VERTEX
  5
300
330
2F7
100
AcDbEntity
  8
1
100
AcDbVertex
100
AcDb3dPolylineVertex
 10
33.336974
 20
-25.855064
 30
0.0
 70
    32
  0
VERTEX
  5
301
330
2F7
100
AcDbEntity
  8
1
100
AcDbVertex
100
AcDb3dPolylineVertex
 10
33.234106
 20
-25.947633
 30
0.0
 70
    32
  0
VERTEX
  5
302
330
2F7
100
AcDbEntity
  8
1
100
AcDbVertex
100
AcDb3dPolylineVertex
 10
33.13743200000001
 20
-26.033704
 30
0.0
 70
    32
  0
VERTEX
  5
303
330
2F7
100
AcDbEntity
  8
1
100
AcDbVertex
100
AcDb3dPolylineVertex
 10
33.046732
 20
-26.113126
 30
0.0
 70
    32
  0
VERTEX
  5
304
330
2F7
100
AcDbEntity
  8
1
100
AcDbVertex
100
AcDb3dPolylineVertex
 10
32.961793
 20
-26.185751
 30
0.0
 70
    32
  0
VERTEX
  5
305
330
2F7
100
AcDbEntity
  8
1
100
AcDbVertex
100
AcDb3dPolylineVertex
 10
32.882406
 20
-26.251423
 30
0.0
 70
    32
  0
VERTEX
  5
306
330
2F7
100
AcDbEntity
  8
1
100
AcDbVertex
100
AcDb3dPolylineVertex
 10
32.808393
 20
-26.309934
 30
0.0
 70
    32
  0
VERTEX
  5
307
330
2F7
100
AcDbEntity
  8
1
100
AcDbVertex
100
AcDb3dPolylineVertex
 10
32.739575
 20
-26.361067
 30
0.0
 70
    32
  0
VERTEX
  5
308
330
2F7
100
AcDbEntity
  8
1
100
AcDbVertex
100
AcDb3dPolylineVertex
 10
32.675774
 20
-26.404607
 30
0.0
 70
    32
  0
VERTEX
  5
309
330
2F7
100
AcDbEntity
  8
1
100
AcDbVertex
100
AcDb3dPolylineVertex
 10
32.616814
 20
-26.440341
 30
0.0
 70
    32
  0
SEQEND
  5
30A
330
2F7
100
AcDbEntity
  8
1
  0
POLYLINE
  5
30B
330
775
100
AcDbEntity
  8
1
100
AcDb3dPolyline
 66
     1
 10
0.0
 20
0.0
 30
0.0
 70
     8
  0
VERTEX
  5
30C
330
30B
100
AcDbEntity
  8
1
100
AcDbVertex
100
AcDb3dPolylineVertex
 10
32.616814
 20
14.164399
 30
0.0
 70
    32
  0
VERTEX
  5
30D
330
30B
100
AcDbEntity
  8
1
100
AcDbVertex
100
AcDb3dPolylineVertex
 10
32.567238
 20
14.359713
 30
0.0
 70
    32
  0
VERTEX
  5
30E
330
30B
100
AcDbEntity
  8
1
100
AcDbVertex
100
AcDb3dPolylineVertex
 10
32.518753
 20
14.557825
 30
0.0
 70
    32
  0
VERTEX
  5
30F
330
30B
100
AcDbEntity
  8
1
100
AcDbVertex
100
AcDb3dPolylineVertex
 10
32.471342
 20
14.758722
 30
0.0
 70
    32
  0
VERTEX
  5
310
330
30B
100
AcDbEntity
  8
1
100
AcDbVertex
100
AcDb3dPolylineVertex
 10
32.424988
 20
14.962392
 30
0.0
 70
    32
  0
VERTEX
  5
311
330
30B
100
AcDbEntity
  8
1
100
AcDbVertex
100
AcDb3dPolylineVertex
 10
32.37967600000001
 20
15.16882
 30
0.0
 70
    32
  0
VERTEX
  5
312
330
30B
100
AcDbEntity
  8
1
100
AcDbVertex
100
AcDb3dPolylineVertex
 10
32.335387
 20
15.377994
 30
0.0
 70
    32
  0
VERTEX
  5
313
330
30B
100
AcDbEntity
  8
1
100
AcDbVertex
100
AcDb3dPolylineVertex
 10
32.292107
 20
15.589905
 30
0.0
 70
    32
  0
VERTEX
  5
314
330
30B
100
AcDbEntity
  8
1
100
AcDbVertex
100
AcDb3dPolylineVertex
 10
32.24983
 20
15.804569
 30
0.0
 70
    32
  0
VERTEX
  5
315
330
30B
100
AcDbEntity
  8
1
100
AcDbVertex
100
AcDb3dPolylineVertex
 10
32.20855200000001
 20
16.022006
 30
0.0
 70
    32
  0
VERTEX
  5
316
330
30B
100
AcDbEntity
  8
1
100
AcDbVertex
100
AcDb3dPolylineVertex
 10
32.168269
 20
16.242239
 30
0.0
 70
    32
  0
VERTEX
  5
317
330
30B
100
AcDbEntity
  8
1
100
AcDbVertex
100
AcDb3dPolylineVertex
 10
32.12898
 20
16.465295
 30
0.0
 70
    32
  0
VERTEX
  5
318
330
30B
100
AcDbEntity
  8
1
100
AcDbVertex
100
AcDb3dPolylineVertex
 10
32.090702
 20
16.691121
 30
0.0
 70
    32
  0
VERTEX
  5
319
330
30B
100
AcDbEntity
  8
1
100
AcDbVertex
100
AcDb3dPolylineVertex
 10
32.053562
 20
16.91898
 30
0.0
 70
    32
  0
SEQEND
  5
31A
330
30B
100
AcDbEntity
  8
1
  0
POLYLINE
  5
31B
330
775
100
AcDbEntity
  8
1
100
AcDb3dPolyline
 66
     1
 10
0.0
 20
0.0
 30
0.0
 70
     8
  0
VERTEX
  5
31C
330
31B
100
AcDbEntity
  8
1
100
AcDbVertex
100
AcDb3dPolylineVertex
 10
69.5
 20
20.62348
 30
0.0
 70
    32
  0
VERTEX
  5
31D
330
31B
100
AcDbEntity
  8
1
100
AcDbVertex
100
AcDb3dPolylineVertex
 10
69.682323
 20
20.415326
 30
0.0
 70
    32
  0
VERTEX
  5
31E
330
31B
100
AcDbEntity
  8
1
100
AcDbVertex
100
AcDb3dPolylineVertex
 10
69.862054
 20
20.204578
 30
0.0
 70
    32
  0
VERTEX
  5
31F
330
31B
100
AcDbEntity
  8
1
100
AcDbVertex
100
AcDb3dPolylineVertex
 10
70.03910199999999
 20
19.991156
 30
0.0
 70
    32
  0
VERTEX
  5
320
330
31B
100
AcDbEntity
  8
1
100
AcDbVertex
100
AcDb3dPolylineVertex
 10
70.21336999999999
 20
19.774976
 30
0.0
 70
    32
  0
VERTEX
  5
321
330
31B
100
AcDbEntity
  8
1
100
AcDbVertex
100
AcDb3dPolylineVertex
 10
70.38473899999998
 20
19.55593
 30
0.0
 70
    32
  0
VERTEX
  5
322
330
31B
100
AcDbEntity
  8
1
100
AcDbVertex
100
AcDb3dPolylineVertex
 10
70.553066
 20
19.333891
 30
0.0
 70
    32
  0
VERTEX
  5
323
330
31B
100
AcDbEntity
  8
1
100
AcDbVertex
100
AcDb3dPolylineVertex
 10
70.71820999999999
 20
19.108734
 30
0.0
 70
    32
  0
VERTEX
  5
324
330
31B
100
AcDbEntity
  8
1
100
AcDbVertex
100
AcDb3dPolylineVertex
 10
70.880004
 20
18.880307
 30
0.0
 70
    32
  0
VERTEX
  5
325
330
31B
100
AcDbEntity
  8
1
100
AcDbVertex
100
AcDb3dPolylineVertex
 10
71.038234
 20
18.648418
 30
0.0
 70
    32
  0
VERTEX
  5
326
330
31B
100
AcDbEntity
  8
1
100
AcDbVertex
100
AcDb3dPolylineVertex
 10
71.192684
 20
18.41287
 30
0.0
 70
    32
  0
VERTEX
  5
327
330
31B
100
AcDbEntity
  8
1
100
AcDbVertex
100
AcDb3dPolylineVertex
 10
71.34310699999997
 20
18.17344
 30
0.0
 70
    32
  0
VERTEX
  5
328
330
31B
100
AcDbEntity
  8
1
100
AcDbVertex
100
AcDb3dPolylineVertex
 10
71.489226
 20
17.929807
 30
0.0
 70
    32
  0
VERTEX
  5
329
330
31B
100
AcDbEntity
  8
1
100
AcDbVertex
100
AcDb3dPolylineVertex
 10
71.630383
 20
17.682246
 30
0.0
 70
    32
  0
VERTEX
  5
32A
330
31B
100
AcDbEntity
  8
1
100
AcDbVertex
100
AcDb3dPolylineVertex
 10
71.764983
 20
17.43278
 30
0.0
 70
    32
  0
VERTEX
  5
32B
330
31B
100
AcDbEntity
  8
1
100
AcDbVertex
100
AcDb3dPolylineVertex
 10
71.892455
 20
17.181769
 30
0.0
 70
    32
  0
VERTEX
  5
32C
330
31B
100
AcDbEntity
  8
1
100
AcDbVertex
100
AcDb3dPolylineVertex
 10
72.01244599999998
 20
16.9291
 30
0.0
 70
    32
  0
VERTEX
  5
32D
330
31B
100
AcDbEntity
  8
1
100
AcDbVertex
100
AcDb3dPolylineVertex
 10
72.12458999999999
 20
16.67467
 30
0.0
 70
    32
  0
VERTEX
  5
32E
330
31B
100
AcDbEntity
  8
1
100
AcDbVertex
100
AcDb3dPolylineVertex
 10
72.22843899999998
 20
16.418357
 30
0.0
 70
    32
  0
VERTEX
  5
32F
330
31B
100
AcDbEntity
  8
1
100
AcDbVertex
100
AcDb3dPolylineVertex
 10
72.323482
 20
16.160024
 30
0.0
 70
    32
  0
VERTEX
  5
330
330
31B
100
AcDbEntity
  8
1
100
AcDbVertex
100
AcDb3dPolylineVertex
 10
72.408973
 20
15.900047
 30
0.0
 70
    32
  0
VERTEX
  5
331
330
31B
100
AcDbEntity
  8
1
100
AcDbVertex
100
AcDb3dPolylineVertex
 10
72.48336899999998
 20
15.64179
 30
0.0
 70
    32
  0
VERTEX
  5
332
330
31B
100
AcDbEntity
  8
1
100
AcDbVertex
100
AcDb3dPolylineVertex
 10
72.546227
 20
15.385895
 30
0.0
 70
    32
  0
VERTEX
  5
333
330
31B
100
AcDbEntity
  8
1
100
AcDbVertex
100
AcDb3dPolylineVertex
 10
72.597305
 20
15.132381
 30
0.0
 70
    32
  0
VERTEX
  5
334
330
31B
100
AcDbEntity
  8
1
100
AcDbVertex
100
AcDb3dPolylineVertex
 10
72.636348
 20
14.881275
 30
0.0
 70
    32
  0
VERTEX
  5
335
330
31B
100
AcDbEntity
  8
1
100
AcDbVertex
100
AcDb3dPolylineVertex
 10
72.663021
 20
14.632627
 30
0.0
 70
    32
  0
VERTEX
  5
336
330
31B
100
AcDbEntity
  8
1
100
AcDbVertex
100
AcDb3dPolylineVertex
 10
72.67694300000002
 20
14.386502
 30
0.0
 70
    32
  0
VERTEX
  5
337
330
31B
100
AcDbEntity
  8
1
100
AcDbVertex
100
AcDb3dPolylineVertex
 10
72.67773599999998
 20
14.14332
 30
0.0
 70
    32
  0
VERTEX
  5
338
330
31B
100
AcDbEntity
  8
1
100
AcDbVertex
100
AcDb3dPolylineVertex
 10
72.665296
 20
13.906854
 30
0.0
 70
    32
  0
VERTEX
  5
339
330
31B
100
AcDbEntity
  8
1
100
AcDbVertex
100
AcDb3dPolylineVertex
 10
72.63996999999998
 20
13.678228
 30
0.0
 70
    32
  0
VERTEX
  5
33A
330
31B
100
AcDbEntity
  8
1
100
AcDbVertex
100
AcDb3dPolylineVertex
 10
72.60209300000003
 20
13.457214
 30
0.0
 70
    32
  0
VERTEX
  5
33B
330
31B
100
AcDbEntity
  8
1
100
AcDbVertex
100
AcDb3dPolylineVertex
 10
72.551965
 20
13.243653
 30
0.0
 70
    32
  0
VERTEX
  5
33C
330
31B
100
AcDbEntity
  8
1
100
AcDbVertex
100
AcDb3dPolylineVertex
 10
72.48984200000002
 20
13.037425
 30
0.0
 70
    32
  0
VERTEX
  5
33D
330
31B
100
AcDbEntity
  8
1
100
AcDbVertex
100
AcDb3dPolylineVertex
 10
72.415981
 20
12.838517
 30
0.0
 70
    32
  0
VERTEX
  5
33E
330
31B
100
AcDbEntity
  8
1
100
AcDbVertex
100
AcDb3dPolylineVertex
 10
72.33165200000001
 20
12.64901
 30
0.0
 70
    32
  0
VERTEX
  5
33F
330
31B
100
AcDbEntity
  8
1
100
AcDbVertex
100
AcDb3dPolylineVertex
 10
72.237848
 20
12.469448
 30
0.0
 70
    32
  0
VERTEX
  5
340
330
31B
100
AcDbEntity
  8
1
100
AcDbVertex
100
AcDb3dPolylineVertex
 10
72.135108
 20
12.299338
 30
0.0
 70
    32
  0
VERTEX
  5
341
330
31B
100
AcDbEntity
  8
1
100
AcDbVertex
100
AcDb3dPolylineVertex
 10
72.023961
 20
12.138195
 30
0.0
 70
    32
  0
VERTEX
  5
342
330
31B
100
AcDbEntity
  8
1
100
AcDbVertex
100
AcDb3dPolylineVertex
 10
71.904825
 20
11.985652
 30
0.0
 70
    32
  0
VERTEX
  5
343
330
31B
100
AcDbEntity
  8
1
100
AcDbVertex
100
AcDb3dPolylineVertex
 10
71.77804999999998
 20
11.841413
 30
0.0
 70
    32
  0
VERTEX
  5
344
330
31B
100
AcDbEntity
  8
1
100
AcDbVertex
100
AcDb3dPolylineVertex
 10
71.643973
 20
11.705173
 30
0.0
 70
    32
  0
VERTEX
  5
345
330
31B
100
AcDbEntity
  8
1
100
AcDbVertex
100
AcDb3dPolylineVertex
 10
71.503387
 20
11.577119
 30
0.0
 70
    32
  0
VERTEX
  5
346
330
31B
100
AcDbEntity
  8
1
100
AcDbVertex
100
AcDb3dPolylineVertex
 10
71.35775699999998
 20
11.457879
 30
0.0
 70
    32
  0
VERTEX
  5
347
330
31B
100
AcDbEntity
  8
1
100
AcDbVertex
100
AcDb3dPolylineVertex
 10
71.207482
 20
11.347032
 30
0.0
 70
    32
  0
VERTEX
  5
348
330
31B
100
AcDbEntity
  8
1
100
AcDbVertex
100
AcDb3dPolylineVertex
 10
71.052862
 20
11.24415
 30
0.0
 70
    32
  0
VERTEX
  5
349
330
31B
100
AcDbEntity
  8
1
100
AcDbVertex
100
AcDb3dPolylineVertex
 10
70.894142
 20
11.148891
 30
0.0
 70
    32
  0
VERTEX
  5
34A
330
31B
100
AcDbEntity
  8
1
100
AcDbVertex
100
AcDb3dPolylineVertex
 10
70.731538
 20
11.060955
 30
0.0
 70
    32
  0
VERTEX
  5
34B
330
31B
100
AcDbEntity
  8
1
100
AcDbVertex
100
AcDb3dPolylineVertex
 10
70.565263
 20
10.980048
 30
0.0
 70
    32
  0
VERTEX
  5
34C
330
31B
100
AcDbEntity
  8
1
100
AcDbVertex
100
AcDb3dPolylineVertex
 10
70.39548299999998
 20
10.905949
 30
0.0
 70
    32
  0
VERTEX
  5
34D
330
31B
100
AcDbEntity
  8
1
100
AcDbVertex
100
AcDb3dPolylineVertex
 10
70.222341
 20
10.838475
 30
0.0
 70
    32
  0
VERTEX
  5
34E
330
31B
100
AcDbEntity
  8
1
100
AcDbVertex
100
AcDb3dPolylineVertex
 10
70.04597199999999
 20
10.777445
 30
0.0
 70
    32
  0
VERTEX
  5
34F
330
31B
100
AcDbEntity
  8
1
100
AcDbVertex
100
AcDb3dPolylineVertex
 10
69.86650799999999
 20
10.722722
 30
0.0
 70
    32
  0
VERTEX
  5
350
330
31B
100
AcDbEntity
  8
1
100
AcDbVertex
100
AcDb3dPolylineVertex
 10
69.68436
 20
10.674251
 30
0.0
 70
    32
  0
VERTEX
  5
351
330
31B
100
AcDbEntity
  8
1
100
AcDbVertex
100
AcDb3dPolylineVertex
 10
69.5
 20
10.631984
 30
0.0
 70
    32
  0
SEQEND
  5
352
330
31B
100
AcDbEntity
  8
1
  0
POLYLINE
  5
353
330
775
100
AcDbEntity
  8
1
100
AcDb3dPolyline
 66
     1
 10
0.0
 20
0.0
 30
0.0
 70
     8
  0
VERTEX
  5
354
330
353
100
AcDbEntity
  8
1
100
AcDbVertex
100
AcDb3dPolylineVertex
 10
31.58803
 20
-23.785444
 30
0.0
 70
    32
  0
VERTEX
  5
355
330
353
100
AcDbEntity
  8
1
100
AcDbVertex
100
AcDb3dPolylineVertex
 10
31.659713
 20
-22.961399
 30
0.0
 70
    32
  0
VERTEX
  5
356
330
353
100
AcDbEntity
  8
1
100
AcDbVertex
100
AcDb3dPolylineVertex
 10
31.727237
 20
-22.137223
 30
0.0
 70
    32
  0
VERTEX
  5
357
330
353
100
AcDbEntity
  8
1
100
AcDbVertex
100
AcDb3dPolylineVertex
 10
31.790531
 20
-21.312912
 30
0.0
 70
    32
  0
VERTEX
  5
358
330
353
100
AcDbEntity
  8
1
100
AcDbVertex
100
AcDb3dPolylineVertex
 10
31.849524
 20
-20.488466
 30
0.0
 70
    32
  0
VERTEX
  5
359
330
353
100
AcDbEntity
  8
1
100
AcDbVertex
100
AcDb3dPolylineVertex
 10
31.904147
 20
-19.663881
 30
0.0
 70
    32
  0
VERTEX
  5
35A
330
353
100
AcDbEntity
  8
1
100
AcDbVertex
100
AcDb3dPolylineVertex
 10
31.954329
 20
-18.839155
 30
0.0
 70
    32
  0
VERTEX
  5
35B
330
353
100
AcDbEntity
  8
1
100
AcDbVertex
100
AcDb3dPolylineVertex
 10
32.0
 20
-18.014287
 30
0.0
 70
    32
  0
SEQEND
  5
35C
330
353
100
AcDbEntity
  8
1
  0
POLYLINE
  5
35D
330
775
100
AcDbEntity
  8
1
100
AcDb3dPolyline
 66
     1
 10
0.0
 20
0.0
 30
0.0
 70
     8
  0
VERTEX
  5
35E
330
35D
100
AcDbEntity
  8
1
100
AcDbVertex
100
AcDb3dPolylineVertex
 10
44.20792399999998
 20
-20.62348
 30
0.0
 70
    32
  0
VERTEX
  5
35F
330
35D
100
AcDbEntity
  8
1
100
AcDbVertex
100
AcDb3dPolylineVertex
 10
43.951172
 20
-20.626577
 30
0.0
 70
    32
  0
VERTEX
  5
360
330
35D
100
AcDbEntity
  8
1
100
AcDbVertex
100
AcDb3dPolylineVertex
 10
43.695656
 20
-20.635801
 30
0.0
 70
    32
  0
VERTEX
  5
361
330
35D
100
AcDbEntity
  8
1
100
AcDbVertex
100
AcDb3dPolylineVertex
 10
43.441356
 20
-20.651055
 30
0.0
 70
    32
  0
VERTEX
  5
362
330
35D
100
AcDbEntity
  8
1
100
AcDbVertex
100
AcDb3dPolylineVertex
 10
43.18825499999999
 20
-20.67224
 30
0.0
 70
    32
  0
VERTEX
  5
363
330
35D
100
AcDbEntity
  8
1
100
AcDbVertex
100
AcDb3dPolylineVertex
 10
42.936335
 20
-20.699258
 30
0.0
 70
    32
  0
VERTEX
  5
364
330
35D
100
AcDbEntity
  8
1
100
AcDbVertex
100
AcDb3dPolylineVertex
 10
42.68558
 20
-20.732003
 30
0.0
 70
    32
  0
VERTEX
  5
365
330
35D
100
AcDbEntity
  8
1
100
AcDbVertex
100
AcDb3dPolylineVertex
 10
42.435973
 20
-20.770369
 30
0.0
 70
    32
  0
VERTEX
  5
366
330
35D
100
AcDbEntity
  8
1
100
AcDbVertex
100
AcDb3dPolylineVertex
 10
42.187499
 20
-20.81425
 30
0.0
 70
    32
  0
VERTEX
  5
367
330
35D
100
AcDbEntity
  8
1
100
AcDbVertex
100
AcDb3dPolylineVertex
 10
41.94014099999999
 20
-20.863539
 30
0.0
 70
    32
  0
VERTEX
  5
368
330
35D
100
AcDbEntity
  8
1
100
AcDbVertex
100
AcDb3dPolylineVertex
 10
41.693884
 20
-20.918127
 30
0.0
 70
    32
  0
VERTEX
  5
369
330
35D
100
AcDbEntity
  8
1
100
AcDbVertex
100
AcDb3dPolylineVertex
 10
41.44871499999999
 20
-20.97791
 30
0.0
 70
    32
  0
VERTEX
  5
36A
330
35D
100
AcDbEntity
  8
1
100
AcDbVertex
100
AcDb3dPolylineVertex
 10
41.204622
 20
-21.042781
 30
0.0
 70
    32
  0
VERTEX
  5
36B
330
35D
100
AcDbEntity
  8
1
100
AcDbVertex
100
AcDb3dPolylineVertex
 10
40.96159
 20
-21.112637
 30
0.0
 70
    32
  0
VERTEX
  5
36C
330
35D
100
AcDbEntity
  8
1
100
AcDbVertex
100
AcDb3dPolylineVertex
 10
40.719609
 20
-21.187372
 30
0.0
 70
    32
  0
VERTEX
  5
36D
330
35D
100
AcDbEntity
  8
1
100
AcDbVertex
100
AcDb3dPolylineVertex
 10
40.478668
 20
-21.266889
 30
0.0
 70
    32
  0
VERTEX
  5
36E
330
35D
100
AcDbEntity
  8
1
100
AcDbVertex
100
AcDb3dPolylineVertex
 10
40.238734
 20
-21.351099
 30
0.0
 70
    32
  0
VERTEX
  5
36F
330
35D
100
AcDbEntity
  8
1
100
AcDbVertex
100
AcDb3dPolylineVertex
 10
40.000498
 20
-21.43964
 30
0.0
 70
    32
  0
SEQEND
  5
370
330
35D
100
AcDbEntity
  8
1
  0
POLYLINE
  5
371
330
775
100
AcDbEntity
  8
SK1
100
AcDb3dPolyline
 66
     1
 10
0.0
 20
0.0
 30
0.0
 70
     8
  0
VERTEX
  5
372
330
371
100
AcDbEntity
  8
SK1
100
AcDbVertex
100
AcDb3dPolylineVertex
 10
-8.583838
 20
4.843491999999998
 30
0.0
 70
    32
  0
VERTEX
  5
373
330
371
100
AcDbEntity
  8
SK1
100
AcDbVertex
100
AcDb3dPolylineVertex
 10
-8.605099
 20
4.833829999999998
 30
0.0
 70
    32
  0
VERTEX
  5
374
330
371
100
AcDbEntity
  8
SK1
100
AcDbVertex
100
AcDb3dPolylineVertex
 10
-8.626228999999996
 20
4.823985999999998
 30
0.0
 70
    32
  0
VERTEX
  5
375
330
371
100
AcDbEntity
  8
SK1
100
AcDbVertex
100
AcDb3dPolylineVertex
 10
-8.647218999999997
 20
4.813944999999998
 30
0.0
 70
    32
  0
VERTEX
  5
376
330
371
100
AcDbEntity
  8
SK1
100
AcDbVertex
100
AcDb3dPolylineVertex
 10
-8.668055999999998
 20
4.803691
 30
0.0
 70
    32
  0
VERTEX
  5
377
330
371
100
AcDbEntity
  8
SK1
100
AcDbVertex
100
AcDb3dPolylineVertex
 10
-8.688731999999998
 20
4.79321
 30
0.0
 70
    32
  0
VERTEX
  5
378
330
371
100
AcDbEntity
  8
SK1
100
AcDbVertex
100
AcDb3dPolylineVertex
 10
-8.709235000000001
 20
4.782487
 30
0.0
 70
    32
  0
VERTEX
  5
379
330
371
100
AcDbEntity
  8
SK1
100
AcDbVertex
100
AcDb3dPolylineVertex
 10
-8.72954
 20
4.771487
 30
0.0
 70
    32
  0
VERTEX
  5
37A
330
371
100
AcDbEntity
  8
SK1
100
AcDbVertex
100
AcDb3dPolylineVertex
 10
-8.749622999999997
 20
4.760171999999998
 30
0.0
 70
    32
  0
VERTEX
  5
37B
330
371
100
AcDbEntity
  8
SK1
100
AcDbVertex
100
AcDb3dPolylineVertex
 10
-8.769453999999999
 20
4.748504
 30
0.0
 70
    32
  0
VERTEX
  5
37C
330
371
100
AcDbEntity
  8
SK1
100
AcDbVertex
100
AcDb3dPolylineVertex
 10
-8.789010000000001
 20
4.736438999999998
 30
0.0
 70
    32
  0
VERTEX
  5
37D
330
371
100
AcDbEntity
  8
SK1
100
AcDbVertex
100
AcDb3dPolylineVertex
 10
-8.808211
 20
4.723924
 30
0.0
 70
    32
  0
VERTEX
  5
37E
330
371
100
AcDbEntity
  8
SK1
100
AcDbVertex
100
AcDb3dPolylineVertex
 10
-8.82685
 20
4.710962
 30
0.0
 70
    32
  0
VERTEX
  5
37F
330
371
100
AcDbEntity
  8
SK1
100
AcDbVertex
100
AcDb3dPolylineVertex
 10
-8.84478
 20
4.697498
 30
0.0
 70
    32
  0
VERTEX
  5
380
330
371
100
AcDbEntity
  8
SK1
100
AcDbVertex
100
AcDb3dPolylineVertex
 10
-8.861705
 20
4.683512
 30
0.0
 70
    32
  0
VERTEX
  5
381
330
371
100
AcDbEntity
  8
SK1
100
AcDbVertex
100
AcDb3dPolylineVertex
 10
-8.877259999999997
 20
4.66901
 30
0.0
 70
    32
  0
VERTEX
  5
382
330
371
100
AcDbEntity
  8
SK1
100
AcDbVertex
100
AcDb3dPolylineVertex
 10
-8.890947
 20
4.653951999999998
 30
0.0
 70
    32
  0
VERTEX
  5
383
330
371
100
AcDbEntity
  8
SK1
100
AcDbVertex
100
AcDb3dPolylineVertex
 10
-8.902053999999997
 20
4.638359999999998
 30
0.0
 70
    32
  0
VERTEX
  5
384
330
371
100
AcDbEntity
  8
SK1
100
AcDbVertex
100
AcDb3dPolylineVertex
 10
-8.909463
 20
4.622681
 30
0.0
 70
    32
  0
VERTEX
  5
385
330
371
100
AcDbEntity
  8
SK1
100
AcDbVertex
100
AcDb3dPolylineVertex
 10
-8.912122
 20
4.607464
 30
0.0
 70
    32
  0
SEQEND
  5
386
330
371
100
AcDbEntity
  8
SK1
  0
POLYLINE
  5
387
330
775
100
AcDbEntity
  8
SK1
100
AcDb3dPolyline
 66
     1
 10
0.0
 20
0.0
 30
0.0
 70
     8
  0
VERTEX
  5
388
330
387
100
AcDbEntity
  8
SK1
100
AcDbVertex
100
AcDb3dPolylineVertex
 10
-8.912122
 20
-4.607464
 30
0.0
 70
    32
  0
VERTEX
  5
389
330
387
100
AcDbEntity
  8
SK1
100
AcDbVertex
100
AcDb3dPolylineVertex
 10
-8.909494999999997
 20
-4.622587999999998
 30
0.0
 70
    32
  0
VERTEX
  5
38A
330
387
100
AcDbEntity
  8
SK1
100
AcDbVertex
100
AcDb3dPolylineVertex
 10
-8.902063
 20
-4.638338
 30
0.0
 70
    32
  0
VERTEX
  5
38B
330
387
100
AcDbEntity
  8
SK1
100
AcDbVertex
100
AcDb3dPolylineVertex
 10
-8.890953999999997
 20
-4.653932
 30
0.0
 70
    32
  0
VERTEX
  5
38C
330
387
100
AcDbEntity
  8
SK1
100
AcDbVertex
100
AcDb3dPolylineVertex
 10
-8.877152
 20
-4.669108
 30
0.0
 70
    32
  0
VERTEX
  5
38D
330
387
100
AcDbEntity
  8
SK1
100
AcDbVertex
100
AcDb3dPolylineVertex
 10
-8.861527
 20
-4.683667999999999
 30
0.0
 70
    32
  0
VERTEX
  5
38E
330
387
100
AcDbEntity
  8
SK1
100
AcDbVertex
100
AcDb3dPolylineVertex
 10
-8.844635999999997
 20
-4.697613999999998
 30
0.0
 70
    32
  0
VERTEX
  5
38F
330
387
100
AcDbEntity
  8
SK1
100
AcDbVertex
100
AcDb3dPolylineVertex
 10
-8.826703
 20
-4.711068
 30
0.0
 70
    32
  0
VERTEX
  5
390
330
387
100
AcDbEntity
  8
SK1
100
AcDbVertex
100
AcDb3dPolylineVertex
 10
-8.808047999999997
 20
-4.724034999999998
 30
0.0
 70
    32
  0
VERTEX
  5
391
330
387
100
AcDbEntity
  8
SK1
100
AcDbVertex
100
AcDb3dPolylineVertex
 10
-8.788956999999998
 20
-4.736473999999998
 30
0.0
 70
    32
  0
VERTEX
  5
392
330
387
100
AcDbEntity
  8
SK1
100
AcDbVertex
100
AcDb3dPolylineVertex
 10
-8.769503999999999
 20
-4.748473999999998
 30
0.0
 70
    32
  0
VERTEX
  5
393
330
387
100
AcDbEntity
  8
SK1
100
AcDbVertex
100
AcDb3dPolylineVertex
 10
-8.749744999999997
 20
-4.760101
 30
0.0
 70
    32
  0
VERTEX
  5
394
330
387
100
AcDbEntity
  8
SK1
100
AcDbVertex
100
AcDb3dPolylineVertex
 10
-8.729708999999997
 20
-4.771392999999998
 30
0.0
 70
    32
  0
VERTEX
  5
395
330
387
100
AcDbEntity
  8
SK1
100
AcDbVertex
100
AcDb3dPolylineVertex
 10
-8.709425999999997
 20
-4.782384999999998
 30
0.0
 70
    32
  0
VERTEX
  5
396
330
387
100
AcDbEntity
  8
SK1
100
AcDbVertex
100
AcDb3dPolylineVertex
 10
-8.688924
 20
-4.793112
 30
0.0
 70
    32
  0
VERTEX
  5
397
330
387
100
AcDbEntity
  8
SK1
100
AcDbVertex
100
AcDb3dPolylineVertex
 10
-8.668224
 20
-4.803607
 30
0.0
 70
    32
  0
VERTEX
  5
398
330
387
100
AcDbEntity
  8
SK1
100
AcDbVertex
100
AcDb3dPolylineVertex
 10
-8.647339999999998
 20
-4.813884999999999
 30
0.0
 70
    32
  0
VERTEX
  5
399
330
387
100
AcDbEntity
  8
SK1
100
AcDbVertex
100
AcDb3dPolylineVertex
 10
-8.626297
 20
-4.823954
 30
0.0
 70
    32
  0
VERTEX
  5
39A
330
387
100
AcDbEntity
  8
SK1
100
AcDbVertex
100
AcDb3dPolylineVertex
 10
-8.605119999999999
 20
-4.833819999999998
 30
0.0
 70
    32
  0
VERTEX
  5
39B
330
387
100
AcDbEntity
  8
SK1
100
AcDbVertex
100
AcDb3dPolylineVertex
 10
-8.583838
 20
-4.843491999999998
 30
0.0
 70
    32
  0
SEQEND
  5
39C
330
387
100
AcDbEntity
  8
SK1
  0
POLYLINE
  5
39D
330
775
100
AcDbEntity
  8
SK1
100
AcDb3dPolyline
 66
     1
 10
0.0
 20
0.0
 30
0.0
 70
     8
  0
VERTEX
  5
39E
330
39D
100
AcDbEntity
  8
SK1
100
AcDbVertex
100
AcDb3dPolylineVertex
 10
-8.583838
 20
4.843491999999998
 30
0.0
 70
    32
  0
VERTEX
  5
39F
330
39D
100
AcDbEntity
  8
SK1
100
AcDbVertex
100
AcDb3dPolylineVertex
 10
-8.571863
 20
4.848868
 30
0.0
 70
    32
  0
VERTEX
  5
3A0
330
39D
100
AcDbEntity
  8
SK1
100
AcDbVertex
100
AcDb3dPolylineVertex
 10
-8.559888
 20
4.854243
 30
0.0
 70
    32
  0
VERTEX
  5
3A1
330
39D
100
AcDbEntity
  8
SK1
100
AcDbVertex
100
AcDb3dPolylineVertex
 10
-8.547912
 20
4.859615999999999
 30
0.0
 70
    32
  0
VERTEX
  5
3A2
330
39D
100
AcDbEntity
  8
SK1
100
AcDbVertex
100
AcDb3dPolylineVertex
 10
-8.535935
 20
4.864987
 30
0.0
 70
    32
  0
VERTEX
  5
3A3
330
39D
100
AcDbEntity
  8
SK1
100
AcDbVertex
100
AcDb3dPolylineVertex
 10
-8.523957000000001
 20
4.870356
 30
0.0
 70
    32
  0
VERTEX
  5
3A4
330
39D
100
AcDbEntity
  8
SK1
100
AcDbVertex
100
AcDb3dPolylineVertex
 10
-8.511979
 20
4.875723999999999
 30
0.0
 70
    32
  0
VERTEX
  5
3A5
330
39D
100
AcDbEntity
  8
SK1
100
AcDbVertex
100
AcDb3dPolylineVertex
 10
-8.5
 20
4.88109
 30
0.0
 70
    32
  0
SEQEND
  5
3A6
330
39D
100
AcDbEntity
  8
SK1
  0
POLYLINE
  5
3A7
330
775
100
AcDbEntity
  8
SK1
100
AcDb3dPolyline
 66
     1
 10
0.0
 20
0.0
 30
0.0
 70
     8
  0
VERTEX
  5
3A8
330
3A7
100
AcDbEntity
  8
SK1
100
AcDbVertex
100
AcDb3dPolylineVertex
 10
-8.5
 20
-4.88109
 30
0.0
 70
    32
  0
VERTEX
  5
3A9
330
3A7
100
AcDbEntity
  8
SK1
100
AcDbVertex
100
AcDb3dPolylineVertex
 10
-8.511979
 20
-4.875723999999999
 30
0.0
 70
    32
  0
VERTEX
  5
3AA
330
3A7
100
AcDbEntity
  8
SK1
100
AcDbVertex
100
AcDb3dPolylineVertex
 10
-8.523957000000001
 20
-4.870356
 30
0.0
 70
    32
  0
VERTEX
  5
3AB
330
3A7
100
AcDbEntity
  8
SK1
100
AcDbVertex
100
AcDb3dPolylineVertex
 10
-8.535935
 20
-4.864987
 30
0.0
 70
    32
  0
VERTEX
  5
3AC
330
3A7
100
AcDbEntity
  8
SK1
100
AcDbVertex
100
AcDb3dPolylineVertex
 10
-8.547912
 20
-4.859615999999999
 30
0.0
 70
    32
  0
VERTEX
  5
3AD
330
3A7
100
AcDbEntity
  8
SK1
100
AcDbVertex
100
AcDb3dPolylineVertex
 10
-8.559888
 20
-4.854243
 30
0.0
 70
    32
  0
VERTEX
  5
3AE
330
3A7
100
AcDbEntity
  8
SK1
100
AcDbVertex
100
AcDb3dPolylineVertex
 10
-8.571863
 20
-4.848868
 30
0.0
 70
    32
  0
VERTEX
  5
3AF
330
3A7
100
AcDbEntity
  8
SK1
100
AcDbVertex
100
AcDb3dPolylineVertex
 10
-8.583838
 20
-4.843491999999998
 30
0.0
 70
    32
  0
SEQEND
  5
3B0
330
3A7
100
AcDbEntity
  8
SK1
  0
POLYLINE
  5
3B1
330
775
100
AcDbEntity
  8
1
100
AcDb3dPolyline
 66
     1
 10
0.0
 20
0.0
 30
0.0
 70
     8
  0
VERTEX
  5
3B2
330
3B1
100
AcDbEntity
  8
1
100
AcDbVertex
100
AcDb3dPolylineVertex
 10
14.50047
 20
-31.34766
 30
0.0
 70
    32
  0
VERTEX
  5
3B3
330
3B1
100
AcDbEntity
  8
1
100
AcDbVertex
100
AcDb3dPolylineVertex
 10
15.961617
 20
-31.282306
 30
0.0
 70
    32
  0
VERTEX
  5
3B4
330
3B1
100
AcDbEntity
  8
1
100
AcDbVertex
100
AcDb3dPolylineVertex
 10
17.264423
 20
-31.09337
 30
0.0
 70
    32
  0
VERTEX
  5
3B5
330
3B1
100
AcDbEntity
  8
1
100
AcDbVertex
100
AcDb3dPolylineVertex
 10
18.267711
 20
-30.801326
 30
0.0
 70
    32
  0
VERTEX
  5
3B6
330
3B1
100
AcDbEntity
  8
1
100
AcDbVertex
100
AcDb3dPolylineVertex
 10
18.862758
 20
-30.437822
 30
0.0
 70
    32
  0
VERTEX
  5
3B7
330
3B1
100
AcDbEntity
  8
1
100
AcDbVertex
100
AcDb3dPolylineVertex
 10
18.985081
 20
-30.042249
 30
0.0
 70
    32
  0
VERTEX
  5
3B8
330
3B1
100
AcDbEntity
  8
1
100
AcDbVertex
100
AcDb3dPolylineVertex
 10
18.621425
 20
-29.657474
 30
0.0
 70
    32
  0
VERTEX
  5
3B9
330
3B1
100
AcDbEntity
  8
1
100
AcDbVertex
100
AcDb3dPolylineVertex
 10
17.811197
 20
-29.325192
 30
0.0
 70
    32
  0
VERTEX
  5
3BA
330
3B1
100
AcDbEntity
  8
1
100
AcDbVertex
100
AcDb3dPolylineVertex
 10
16.642199
 20
-29.081412
 30
0.0
 70
    32
  0
VERTEX
  5
3BB
330
3B1
100
AcDbEntity
  8
1
100
AcDbVertex
100
AcDb3dPolylineVertex
 10
15.24111
 20
-28.952551
 30
0.0
 70
    32
  0
VERTEX
  5
3BC
330
3B1
100
AcDbEntity
  8
1
100
AcDbVertex
100
AcDb3dPolylineVertex
 10
13.759759
 20
-28.952573
 30
0.0
 70
    32
  0
VERTEX
  5
3BD
330
3B1
100
AcDbEntity
  8
1
100
AcDbVertex
100
AcDb3dPolylineVertex
 10
12.358673
 20
-29.081476
 30
0.0
 70
    32
  0
VERTEX
  5
3BE
330
3B1
100
AcDbEntity
  8
1
100
AcDbVertex
100
AcDb3dPolylineVertex
 10
11.189682
 20
-29.325291
 30
0.0
 70
    32
  0
VERTEX
  5
3BF
330
3B1
100
AcDbEntity
  8
1
100
AcDbVertex
100
AcDb3dPolylineVertex
 10
10.379465
 20
-29.65759699999999
 30
0.0
 70
    32
  0
VERTEX
  5
3C0
330
3B1
100
AcDbEntity
  8
1
100
AcDbVertex
100
AcDb3dPolylineVertex
 10
10.01582
 20
-30.042384
 30
0.0
 70
    32
  0
VERTEX
  5
3C1
330
3B1
100
AcDbEntity
  8
1
100
AcDbVertex
100
AcDb3dPolylineVertex
 10
10.138155
 20
-30.43795300000001
 30
0.0
 70
    32
  0
VERTEX
  5
3C2
330
3B1
100
AcDbEntity
  8
1
100
AcDbVertex
100
AcDb3dPolylineVertex
 10
10.733213
 20
-30.801439
 30
0.0
 70
    32
  0
VERTEX
  5
3C3
330
3B1
100
AcDbEntity
  8
1
100
AcDbVertex
100
AcDb3dPolylineVertex
 10
11.736509
 20
-31.09345300000001
 30
0.0
 70
    32
  0
VERTEX
  5
3C4
330
3B1
100
AcDbEntity
  8
1
100
AcDbVertex
100
AcDb3dPolylineVertex
 10
13.039322
 20
-31.28235
 30
0.0
 70
    32
  0
VERTEX
  5
3C5
330
3B1
100
AcDbEntity
  8
1
100
AcDbVertex
100
AcDb3dPolylineVertex
 10
14.50047
 20
-31.34766
 30
0.0
 70
    32
  0
SEQEND
  5
3C6
330
3B1
100
AcDbEntity
  8
1
  0
POLYLINE
  5
3C7
330
775
100
AcDbEntity
  8
1
100
AcDb3dPolyline
 66
     1
 10
0.0
 20
0.0
 30
0.0
 70
     8
  0
VERTEX
  5
3C8
330
3C7
100
AcDbEntity
  8
1
100
AcDbVertex
100
AcDb3dPolylineVertex
 10
19.649657
 20
-31.778935
 30
0.0
 70
    32
  0
VERTEX
  5
3C9
330
3C7
100
AcDbEntity
  8
1
100
AcDbVertex
100
AcDb3dPolylineVertex
 10
19.135632
 20
-31.720349
 30
0.0
 70
    32
  0
VERTEX
  5
3CA
330
3C7
100
AcDbEntity
  8
1
100
AcDbVertex
100
AcDb3dPolylineVertex
 10
18.612351
 20
-31.667974
 30
0.0
 70
    32
  0
VERTEX
  5
3CB
330
3C7
100
AcDbEntity
  8
1
100
AcDbVertex
100
AcDb3dPolylineVertex
 10
18.080858
 20
-31.621916
 30
0.0
 70
    32
  0
VERTEX
  5
3CC
330
3C7
100
AcDbEntity
  8
1
100
AcDbVertex
100
AcDb3dPolylineVertex
 10
17.542214
 20
-31.582266
 30
0.0
 70
    32
  0
VERTEX
  5
3CD
330
3C7
100
AcDbEntity
  8
1
100
AcDbVertex
100
AcDb3dPolylineVertex
 10
16.997497
 20
-31.549105
 30
0.0
 70
    32
  0
VERTEX
  5
3CE
330
3C7
100
AcDbEntity
  8
1
100
AcDbVertex
100
AcDb3dPolylineVertex
 10
16.447793
 20
-31.522498
 30
0.0
 70
    32
  0
VERTEX
  5
3CF
330
3C7
100
AcDbEntity
  8
1
100
AcDbVertex
100
AcDb3dPolylineVertex
 10
15.8942
 20
-31.502498
 30
0.0
 70
    32
  0
VERTEX
  5
3D0
330
3C7
100
AcDbEntity
  8
1
100
AcDbVertex
100
AcDb3dPolylineVertex
 10
15.337824
 20
-31.489145
 30
0.0
 70
    32
  0
VERTEX
  5
3D1
330
3C7
100
AcDbEntity
  8
1
100
AcDbVertex
100
AcDb3dPolylineVertex
 10
14.779775
 20
-31.482466
 30
0.0
 70
    32
  0
VERTEX
  5
3D2
330
3C7
100
AcDbEntity
  8
1
100
AcDbVertex
100
AcDb3dPolylineVertex
 10
14.221169
 20
-31.482475
 30
0.0
 70
    32
  0
VERTEX
  5
3D3
330
3C7
100
AcDbEntity
  8
1
100
AcDbVertex
100
AcDb3dPolylineVertex
 10
13.663121
 20
-31.48917
 30
0.0
 70
    32
  0
VERTEX
  5
3D4
330
3C7
100
AcDbEntity
  8
1
100
AcDbVertex
100
AcDb3dPolylineVertex
 10
13.106745
 20
-31.50254
 30
0.0
 70
    32
  0
VERTEX
  5
3D5
330
3C7
100
AcDbEntity
  8
1
100
AcDbVertex
100
AcDb3dPolylineVertex
 10
12.553153
 20
-31.522556
 30
0.0
 70
    32
  0
VERTEX
  5
3D6
330
3C7
100
AcDbEntity
  8
1
100
AcDbVertex
100
AcDb3dPolylineVertex
 10
12.003449
 20
-31.54918
 30
0.0
 70
    32
  0
VERTEX
  5
3D7
330
3C7
100
AcDbEntity
  8
1
100
AcDbVertex
100
AcDb3dPolylineVertex
 10
11.458733
 20
-31.582358
 30
0.0
 70
    32
  0
VERTEX
  5
3D8
330
3C7
100
AcDbEntity
  8
1
100
AcDbVertex
100
AcDb3dPolylineVertex
 10
10.920091
 20
-31.622023
 30
0.0
 70
    32
  0
VERTEX
  5
3D9
330
3C7
100
AcDbEntity
  8
1
100
AcDbVertex
100
AcDb3dPolylineVertex
 10
10.388599
 20
-31.668097
 30
0.0
 70
    32
  0
VERTEX
  5
3DA
330
3C7
100
AcDbEntity
  8
1
100
AcDbVertex
100
AcDb3dPolylineVertex
 10
9.865318999999999
 20
-31.720488
 30
0.0
 70
    32
  0
VERTEX
  5
3DB
330
3C7
100
AcDbEntity
  8
1
100
AcDbVertex
100
AcDb3dPolylineVertex
 10
9.351295999999999
 20
-31.77909
 30
0.0
 70
    32
  0
SEQEND
  5
3DC
330
3C7
100
AcDbEntity
  8
1
  0
POLYLINE
  5
3DD
330
775
100
AcDbEntity
  8
1
100
AcDb3dPolyline
 66
     1
 10
0.0
 20
0.0
 30
0.0
 70
     8
  0
VERTEX
  5
3DE
330
3DD
100
AcDbEntity
  8
1
100
AcDbVertex
100
AcDb3dPolylineVertex
 10
6.606352
 20
-30.473139
 30
0.0
 70
    32
  0
VERTEX
  5
3DF
330
3DD
100
AcDbEntity
  8
1
100
AcDbVertex
100
AcDb3dPolylineVertex
 10
6.658455
 20
-30.55250900000001
 30
0.0
 70
    32
  0
VERTEX
  5
3E0
330
3DD
100
AcDbEntity
  8
1
100
AcDbVertex
100
AcDb3dPolylineVertex
 10
6.721669
 20
-30.631298
 30
0.0
 70
    32
  0
VERTEX
  5
3E1
330
3DD
100
AcDbEntity
  8
1
100
AcDbVertex
100
AcDb3dPolylineVertex
 10
6.795903999999998
 20
-30.709393
 30
0.0
 70
    32
  0
VERTEX
  5
3E2
330
3DD
100
AcDbEntity
  8
1
100
AcDbVertex
100
AcDb3dPolylineVertex
 10
6.881056
 20
-30.786683
 30
0.0
 70
    32
  0
VERTEX
  5
3E3
330
3DD
100
AcDbEntity
  8
1
100
AcDbVertex
100
AcDb3dPolylineVertex
 10
6.977002999999998
 20
-30.863061
 30
0.0
 70
    32
  0
VERTEX
  5
3E4
330
3DD
100
AcDbEntity
  8
1
100
AcDbVertex
100
AcDb3dPolylineVertex
 10
7.08361
 20
-30.938416
 30
0.0
 70
    32
  0
VERTEX
  5
3E5
330
3DD
100
AcDbEntity
  8
1
100
AcDbVertex
100
AcDb3dPolylineVertex
 10
7.200725999999998
 20
-31.012643
 30
0.0
 70
    32
  0
VERTEX
  5
3E6
330
3DD
100
AcDbEntity
  8
1
100
AcDbVertex
100
AcDb3dPolylineVertex
 10
7.328185
 20
-31.085636
 30
0.0
 70
    32
  0
VERTEX
  5
3E7
330
3DD
100
AcDbEntity
  8
1
100
AcDbVertex
100
AcDb3dPolylineVertex
 10
7.465805
 20
-31.157292
 30
0.0
 70
    32
  0
VERTEX
  5
3E8
330
3DD
100
AcDbEntity
  8
1
100
AcDbVertex
100
AcDb3dPolylineVertex
 10
7.613392999999998
 20
-31.22751
 30
0.0
 70
    32
  0
VERTEX
  5
3E9
330
3DD
100
AcDbEntity
  8
1
100
AcDbVertex
100
AcDb3dPolylineVertex
 10
7.770738999999998
 20
-31.296189
 30
0.0
 70
    32
  0
VERTEX
  5
3EA
330
3DD
100
AcDbEntity
  8
1
100
AcDbVertex
100
AcDb3dPolylineVertex
 10
7.937619999999999
 20
-31.363232
 30
0.0
 70
    32
  0
VERTEX
  5
3EB
330
3DD
100
AcDbEntity
  8
1
100
AcDbVertex
100
AcDb3dPolylineVertex
 10
8.113799999999999
 20
-31.428546
 30
0.0
 70
    32
  0
VERTEX
  5
3EC
330
3DD
100
AcDbEntity
  8
1
100
AcDbVertex
100
AcDb3dPolylineVertex
 10
8.299028999999999
 20
-31.492036
 30
0.0
 70
    32
  0
VERTEX
  5
3ED
330
3DD
100
AcDbEntity
  8
1
100
AcDbVertex
100
AcDb3dPolylineVertex
 10
8.493045
 20
-31.553613
 30
0.0
 70
    32
  0
VERTEX
  5
3EE
330
3DD
100
AcDbEntity
  8
1
100
AcDbVertex
100
AcDb3dPolylineVertex
 10
8.695572
 20
-31.61319000000001
 30
0.0
 70
    32
  0
VERTEX
  5
3EF
330
3DD
100
AcDbEntity
  8
1
100
AcDbVertex
100
AcDb3dPolylineVertex
 10
8.906323999999997
 20
-31.670682
 30
0.0
 70
    32
  0
VERTEX
  5
3F0
330
3DD
100
AcDbEntity
  8
1
100
AcDbVertex
100
AcDb3dPolylineVertex
 10
9.125002
 20
-31.726008
 30
0.0
 70
    32
  0
VERTEX
  5
3F1
330
3DD
100
AcDbEntity
  8
1
100
AcDbVertex
100
AcDb3dPolylineVertex
 10
9.351295999999999
 20
-31.77909
 30
0.0
 70
    32
  0
SEQEND
  5
3F2
330
3DD
100
AcDbEntity
  8
1
  0
POLYLINE
  5
3F3
330
775
100
AcDbEntity
  8
1
100
AcDb3dPolyline
 66
     1
 10
0.0
 20
0.0
 30
0.0
 70
     8
  0
VERTEX
  5
3F4
330
3F3
100
AcDbEntity
  8
1
100
AcDbVertex
100
AcDb3dPolylineVertex
 10
19.649657
 20
-31.778935
 30
0.0
 70
    32
  0
VERTEX
  5
3F5
330
3F3
100
AcDbEntity
  8
1
100
AcDbVertex
100
AcDb3dPolylineVertex
 10
19.877516
 20
-31.72546500000001
 30
0.0
 70
    32
  0
VERTEX
  5
3F6
330
3F3
100
AcDbEntity
  8
1
100
AcDbVertex
100
AcDb3dPolylineVertex
 10
20.097649
 20
-31.66972
 30
0.0
 70
    32
  0
VERTEX
  5
3F7
330
3F3
100
AcDbEntity
  8
1
100
AcDbVertex
100
AcDb3dPolylineVertex
 10
20.30974
 20
-31.611779
 30
0.0
 70
    32
  0
VERTEX
  5
3F8
330
3F3
100
AcDbEntity
  8
1
100
AcDbVertex
100
AcDb3dPolylineVertex
 10
20.513483
 20
-31.551725
 30
0.0
 70
    32
  0
VERTEX
  5
3F9
330
3F3
100
AcDbEntity
  8
1
100
AcDbVertex
100
AcDb3dPolylineVertex
 10
20.708586
 20
-31.489647
 30
0.0
 70
    32
  0
VERTEX
  5
3FA
330
3F3
100
AcDbEntity
  8
1
100
AcDbVertex
100
AcDb3dPolylineVertex
 10
20.894769
 20
-31.425631
 30
0.0
 70
    32
  0
VERTEX
  5
3FB
330
3F3
100
AcDbEntity
  8
1
100
AcDbVertex
100
AcDb3dPolylineVertex
 10
21.071764
 20
-31.359771
 30
0.0
 70
    32
  0
VERTEX
  5
3FC
330
3F3
100
AcDbEntity
  8
1
100
AcDbVertex
100
AcDb3dPolylineVertex
 10
21.239317
 20
-31.292161
 30
0.0
 70
    32
  0
VERTEX
  5
3FD
330
3F3
100
AcDbEntity
  8
1
100
AcDbVertex
100
AcDb3dPolylineVertex
 10
21.397187
 20
-31.222898
 30
0.0
 70
    32
  0
VERTEX
  5
3FE
330
3F3
100
AcDbEntity
  8
1
100
AcDbVertex
100
AcDb3dPolylineVertex
 10
21.545146
 20
-31.152082
 30
0.0
 70
    32
  0
VERTEX
  5
3FF
330
3F3
100
AcDbEntity
  8
1
100
AcDbVertex
100
AcDb3dPolylineVertex
 10
21.682984
 20
-31.07981500000001
 30
0.0
 70
    32
  0
VERTEX
  5
400
330
3F3
100
AcDbEntity
  8
1
100
AcDbVertex
100
AcDb3dPolylineVertex
 10
21.810501
 20
-31.006199
 30
0.0
 70
    32
  0
VERTEX
  5
401
330
3F3
100
AcDbEntity
  8
1
100
AcDbVertex
100
AcDb3dPolylineVertex
 10
21.927514
 20
-30.931342
 30
0.0
 70
    32
  0
VERTEX
  5
402
330
3F3
100
AcDbEntity
  8
1
100
AcDbVertex
100
AcDb3dPolylineVertex
 10
22.033855
 20
-30.85535
 30
0.0
 70
    32
  0
VERTEX
  5
403
330
3F3
100
AcDbEntity
  8
1
100
AcDbVertex
100
AcDb3dPolylineVertex
 10
22.129372
 20
-30.778334
 30
0.0
 70
    32
  0
VERTEX
  5
404
330
3F3
100
AcDbEntity
  8
1
100
AcDbVertex
100
AcDb3dPolylineVertex
 10
22.213926
 20
-30.700402
 30
0.0
 70
    32
  0
VERTEX
  5
405
330
3F3
100
AcDbEntity
  8
1
100
AcDbVertex
100
AcDb3dPolylineVertex
 10
22.287398
 20
-30.621669
 30
0.0
 70
    32
  0
VERTEX
  5
406
330
3F3
100
AcDbEntity
  8
1
100
AcDbVertex
100
AcDb3dPolylineVertex
 10
22.34968
 20
-30.542245
 30
0.0
 70
    32
  0
VERTEX
  5
407
330
3F3
100
AcDbEntity
  8
1
100
AcDbVertex
100
AcDb3dPolylineVertex
 10
22.400684
 20
-30.462247
 30
0.0
 70
    32
  0
SEQEND
  5
408
330
3F3
100
AcDbEntity
  8
1
  0
DIMENSION
  5
40A
330
775
100
AcDbEntity
  8
SK2
100
AcDbDimension
  2
*D1
 10
105.499157
 20
-32.0
 30
0.0
 11
103.749157
 21
-2.228947
 31
0.0
  1
64
 71
     5
 42
-1.0
  3
SANDVIK_DIM
100
AcDbAlignedDimension
 13
39.161514
 23
32.0
 33
0.0
 14
39.161514
 24
-32.0
 34
0.0
 50
90.0
100
AcDbRotatedDimension
  0
DIMENSION
  5
40B
330
775
100
AcDbEntity
  8
SK2
100
AcDbDimension
  2
*D2
 10
94.88567299999999
 20
-30.0
 30
0.0
 11
93.135673
 21
-2.044737
 31
0.0
  1
60
 71
     5
 42
-1.0
  3
SANDVIK_DIM
100
AcDbAlignedDimension
 13
71.0875
 23
30.0
 33
0.0
 14
71.0875
 24
-30.0
 34
0.0
 50
90.0
100
AcDbRotatedDimension
  0
DIMENSION
  5
40C
330
775
100
AcDbEntity
  8
SK2
100
AcDbDimension
  2
*D3
 10
44.20792399999998
 20
-54.406464
 30
0.0
 11
57.99672499999999
 21
-52.656464
 31
0.0
  1
31
 71
     5
 42
-1.0
  3
SANDVIK_DIM
100
AcDbAlignedDimension
 13
75.0
 23
-26.5875
 33
0.0
 14
44.20792399999998
 24
-31.5875
 34
0.0
100
AcDbRotatedDimension
  0
DIMENSION
  5
40D
330
775
100
AcDbEntity
  8
2
100
AcDbDimension
  2
*D9
 10
-0.0000000000000019
 20
-64.202324
 30
0.0
 11
37.5
 21
-60.402324
 31
0.0
 70
    32
  1
75
 71
     5
 42
75.0
  3
SANDVIK_DIM
100
AcDbAlignedDimension
 13
75.0
 23
-26.5875
 33
0.0
 14
0.0
 24
-33.5875
 34
0.0
100
AcDbRotatedDimension
1001
ACAD
1000
DSTYLE
1002
{
1070
    40
1040
1.0
1002
}
  0
DIMENSION
  5
40E
330
775
100
AcDbEntity
  8
SK2
100
AcDbDimension
  2
*D5
 10
-10.0
 20
-76.69563700000002
 30
0.0
 11
30.45526300000001
 21
-74.945637
 31
0.0
  1
85
 71
     5
 42
-1.0
  3
SANDVIK_DIM
100
AcDbAlignedDimension
 13
75.0
 23
-26.5875
 33
0.0
 14
-10.0
 24
-16.088743
 34
0.0
100
AcDbRotatedDimension
  0
ENDSEC
  0
SECTION
  2
OBJECTS
  0
DICTIONARY
  5
711
330
0
100
AcDbDictionary
281
     1
  3
ACAD_CIP_PREVIOUS_PRODUCT_INFO
350
7AC
  3
ACAD_COLOR
350
767
  3
ACAD_DETAILVIEWSTYLE
350
76F
  3
ACAD_FIELDLIST
350
8B6
  3
ACAD_GROUP
350
712
  3
ACAD_LAYOUT
350
766
  3
ACAD_MATERIAL
350
715
  3
ACAD_MLEADERSTYLE
350
76A
  3
ACAD_MLINESTYLE
350
763
  3
ACAD_PLOTSETTINGS
350
765
  3
ACAD_PLOTSTYLENAME
350
713
  3
ACAD_SCALELIST
350
747
  3
ACAD_SECTIONVIEWSTYLE
350
76C
  3
ACAD_TABLESTYLE
350
768
  3
ACAD_VISUALSTYLE
350
72E
  3
ACDB_RECOMPOSE_DATA
350
963
  3
AcDbVariableDictionary
350
7FB
  3
AcmDictionary
350
872
  3
AMG
350
848
  3
AMGSNAPSETTINGS
350
8C2
  3
DWGPROPS
350
964
  0
DICTIONARY
  5
7AF
330
759
100
AcDbDictionary
280
     1
281
     1
  3
ADSK_XREC_LAYER_RECONCILED
360
7B0
  0
DICTIONARY
  5
7B1
330
779
100
AcDbDictionary
280
     1
281
     1
  3
ADSK_XREC_LAYER_RECONCILED
360
7B2
  0
DICTIONARY
  5
7B3
330
77D
100
AcDbDictionary
280
     1
281
     1
  3
ADSK_XREC_LAYER_RECONCILED
360
7B4
  0
DICTIONARY
  5
7B5
330
77E
100
AcDbDictionary
280
     1
281
     1
  3
ADSK_XREC_LAYER_RECONCILED
360
7B6
  0
DICTIONARY
  5
7B7
330
77F
100
AcDbDictionary
280
     1
281
     1
  3
ADSK_XREC_LAYER_RECONCILED
360
7B8
  0
DICTIONARY
  5
7B9
330
780
100
AcDbDictionary
280
     1
281
     1
  3
ADSK_XREC_LAYER_RECONCILED
360
7BA
  0
DICTIONARY
  5
7BB
330
781
100
AcDbDictionary
280
     1
281
     1
  3
ADSK_XREC_LAYER_RECONCILED
360
7BC
  0
DICTIONARY
  5
7BD
330
782
100
AcDbDictionary
280
     1
281
     1
  3
ADSK_XREC_LAYER_RECONCILED
360
7BE
  0
DICTIONARY
  5
7BF
330
783
100
AcDbDictionary
280
     1
281
     1
  3
ADSK_XREC_LAYER_RECONCILED
360
7C0
  0
DICTIONARY
  5
7C1
330
784
100
AcDbDictionary
280
     1
281
     1
  3
ADSK_XREC_LAYER_RECONCILED
360
7C2
  0
DICTIONARY
  5
7C3
330
785
100
AcDbDictionary
280
     1
281
     1
  3
ADSK_XREC_LAYER_RECONCILED
360
7C4
  0
DICTIONARY
  5
7C5
330
786
100
AcDbDictionary
280
     1
281
     1
  3
ADSK_XREC_LAYER_RECONCILED
360
7C6
  0
DICTIONARY
  5
7C7
330
787
100
AcDbDictionary
280
     1
281
     1
  3
ADSK_XREC_LAYER_RECONCILED
360
7C8
  0
DICTIONARY
  5
7C9
330
788
100
AcDbDictionary
280
     1
281
     1
  3
ADSK_XREC_LAYER_RECONCILED
360
7CA
  0
DICTIONARY
  5
7CB
330
789
100
AcDbDictionary
280
     1
281
     1
  3
ADSK_XREC_LAYER_RECONCILED
360
7CC
  0
DICTIONARY
  5
7CD
330
78A
100
AcDbDictionary
280
     1
281
     1
  3
ADSK_XREC_LAYER_RECONCILED
360
7CE
  0
DICTIONARY
  5
7CF
330
78B
100
AcDbDictionary
280
     1
281
     1
  3
ADSK_XREC_LAYER_RECONCILED
360
7D0
  0
DICTIONARY
  5
7D1
330
78C
100
AcDbDictionary
280
     1
281
     1
  3
ADSK_XREC_LAYER_RECONCILED
360
7D2
  0
DICTIONARY
  5
7D3
330
78D
100
AcDbDictionary
280
     1
281
     1
  3
ADSK_XREC_LAYER_RECONCILED
360
7D4
  0
DICTIONARY
  5
7D5
330
78E
100
AcDbDictionary
280
     1
281
     1
  3
ADSK_XREC_LAYER_RECONCILED
360
7D6
  0
DICTIONARY
  5
7D7
330
78F
100
AcDbDictionary
280
     1
281
     1
  3
ADSK_XREC_LAYER_RECONCILED
360
7D8
  0
DICTIONARY
  5
7D9
330
790
100
AcDbDictionary
280
     1
281
     1
  3
ADSK_XREC_LAYER_RECONCILED
360
7DA
  0
DICTIONARY
  5
7DB
330
791
100
AcDbDictionary
280
     1
281
     1
  3
ADSK_XREC_LAYER_RECONCILED
360
7DC
  0
DICTIONARY
  5
7DD
330
792
100
AcDbDictionary
280
     1
281
     1
  3
ADSK_XREC_LAYER_RECONCILED
360
7DE
  0
DICTIONARY
  5
7DF
330
793
100
AcDbDictionary
280
     1
281
     1
  3
ADSK_XREC_LAYER_RECONCILED
360
7E0
  0
DICTIONARY
  5
7E1
330
794
100
AcDbDictionary
280
     1
281
     1
  3
ADSK_XREC_LAYER_RECONCILED
360
7E2
  0
DICTIONARY
  5
7E3
330
795
100
AcDbDictionary
280
     1
281
     1
  3
ADSK_XREC_LAYER_RECONCILED
360
7E4
  0
DICTIONARY
  5
7E5
330
796
100
AcDbDictionary
280
     1
281
     1
  3
ADSK_XREC_LAYER_RECONCILED
360
7E6
  0
DICTIONARY
  5
7E7
330
797
100
AcDbDictionary
280
     1
281
     1
  3
ADSK_XREC_LAYER_RECONCILED
360
7E8
  0
DICTIONARY
  5
7E9
330
798
100
AcDbDictionary
280
     1
281
     1
  3
ADSK_XREC_LAYER_RECONCILED
360
7EA
  0
DICTIONARY
  5
7EB
330
799
100
AcDbDictionary
280
     1
281
     1
  3
ADSK_XREC_LAYER_RECONCILED
360
7EC
  0
DICTIONARY
  5
7ED
330
79A
100
AcDbDictionary
280
     1
281
     1
  3
ADSK_XREC_LAYER_RECONCILED
360
7EE
  0
DICTIONARY
  5
7EF
330
79B
100
AcDbDictionary
280
     1
281
     1
  3
ADSK_XREC_LAYER_RECONCILED
360
7F0
  0
DICTIONARY
  5
7F1
330
79C
100
AcDbDictionary
280
     1
281
     1
  3
ADSK_XREC_LAYER_RECONCILED
360
7F2
  0
DICTIONARY
  5
7F3
330
79D
100
AcDbDictionary
280
     1
281
     1
  3
ADSK_XREC_LAYER_RECONCILED
360
7F4
  0
DICTIONARY
  5
7F5
330
79E
100
AcDbDictionary
280
     1
281
     1
  3
ADSK_XREC_LAYER_RECONCILED
360
7F6
  0
DICTIONARY
  5
7F7
330
79F
100
AcDbDictionary
280
     1
281
     1
  3
ADSK_XREC_LAYER_RECONCILED
360
7F8
  0
DICTIONARY
  5
7F9
330
7A0
100
AcDbDictionary
280
     1
281
     1
  3
ADSK_XREC_LAYER_RECONCILED
360
7FA
  0
XRECORD
  5
7AC
102
{ACAD_REACTORS
330
711
102
}
330
711
100
AcDbXrecord
280
     1
300
AMECH_PP
300
2014
300
86138AMECH_PP_2014_0F
  0
DICTIONARY
  5
767
102
{ACAD_REACTORS
330
711
102
}
330
711
100
AcDbDictionary
281
     1
  0
DICTIONARY
  5
76F
102
{ACAD_REACTORS
330
711
102
}
330
711
100
AcDbDictionary
281
     1
  3
Imperial24
350
770
  0
FIELDLIST
  5
8B6
102
{ACAD_REACTORS
330
711
102
}
330
711
100
AcDbIdSet
 90
        4
330
8B4
330
8B5
330
8B7
330
8B8
100
AcDbFieldList
  0
DICTIONARY
  5
712
102
{ACAD_REACTORS
330
711
102
}
330
711
100
AcDbDictionary
281
     1
  0
DICTIONARY
  5
766
102
{ACAD_REACTORS
330
711
102
}
330
711
100
AcDbDictionary
281
     1
  3
Layout1
350
774
  3
Model
350
778
  0
DICTIONARY
  5
715
102
{ACAD_REACTORS
330
711
102
}
330
711
100
AcDbDictionary
281
     1
  3
ByBlock
350
71E
  3
ByLayer
350
716
  3
Global
350
726
  0
DICTIONARY
  5
76A
102
{ACAD_REACTORS
330
711
102
}
330
711
100
AcDbDictionary
281
     1
  3
Standard
350
76B
  0
DICTIONARY
  5
763
102
{ACAD_REACTORS
330
711
102
}
330
711
100
AcDbDictionary
281
     1
  3
Standard
350
764
  0
DICTIONARY
  5
765
102
{ACAD_REACTORS
330
711
102
}
330
711
100
AcDbDictionary
281
     1
  0
ACDBDICTIONARYWDFLT
  5
713
102
{ACAD_REACTORS
330
711
102
}
330
711
100
AcDbDictionary
281
     1
  3
Normal
350
714
100
AcDbDictionaryWithDefault
340
714
  0
DICTIONARY
  5
747
102
{ACAD_REACTORS
330
711
102
}
330
711
100
AcDbDictionary
281
     1
  3
A0
350
748
  3
A1
350
749
  3
A2
350
74A
  3
A3
350
74B
  3
A4
350
74C
  3
A5
350
74D
  3
A6
350
74E
  3
A7
350
74F
  3
A8
350
750
  3
A9
350
751
  3
B0
350
752
  3
B1
350
753
  3
B2
350
754
  3
B3
350
755
  3
B4
350
756
  3
B5
350
757
  3
B6
350
758
  0
DICTIONARY
  5
76C
102
{ACAD_REACTORS
330
711
102
}
330
711
100
AcDbDictionary
281
     1
  3
Imperial24
350
76E
  0
DICTIONARY
  5
768
102
{ACAD_REACTORS
330
711
102
}
330
711
100
AcDbDictionary
281
     1
  3
Standard
350
769
  0
DICTIONARY
  5
72E
102
{ACAD_REACTORS
330
711
102
}
330
711
100
AcDbDictionary
281
     1
  3
2dWireframe
350
734
  3
Basic
350
733
  3
Brighten
350
73A
  3
ColorChange
350
73E
  3
Conceptual
350
737
  3
Dim
350
739
  3
EdgeColorOff
350
746
  3
Facepattern
350
73D
  3
Flat
350
72F
  3
FlatWithEdges
350
730
  3
Gouraud
350
731
  3
GouraudWithEdges
350
732
  3
Hidden
350
736
  3
JitterOff
350
744
  3
Linepattern
350
73C
  3
OverhangOff
350
745
  3
Realistic
350
738
  3
Shaded
350
743
  3
Shaded with edges
350
742
  3
Shades of Gray
350
73F
  3
Sketchy
350
740
  3
Thicken
350
73B
  3
Wireframe
350
735
  3
X-Ray
350
741
  0
XRECORD
  5
963
102
{ACAD_REACTORS
330
711
102
}
330
711
100
AcDbXrecord
280
     1
 90
        1
330
769
  0
DICTIONARY
  5
7FB
102
{ACAD_REACTORS
330
711
102
}
330
711
100
AcDbDictionary
281
     1
  3
CANNOSCALE
350
800
  3
CMLEADERSTYLE
350
7FD
  3
CTABLESTYLE
350
7FC
  3
CVIEWDETAILSTYLE
350
7FE
  3
CVIEWSECTIONSTYLE
350
7FF
  3
DIMASSOC
350
803
  3
INDEXCTL
350
802
  3
SORTENTS
350
801
  3
XCLIPFRAME
350
961
  0
DICTIONARY
  5
872
102
{ACAD_REACTORS
330
711
102
}
330
711
100
AcDbDictionary
281
     1
  3
AcmStdDictionary
350
879
  0
DICTIONARY
  5
848
102
{ACAD_REACTORS
330
711
102
}
330
711
100
AcDbDictionary
281
     1
  0
DICTIONARY
  5
8C2
102
{ACAD_REACTORS
330
711
102
}
330
711
100
AcDbDictionary
281
     1
  0
XRECORD
  5
964
102
{ACAD_REACTORS
330
711
102
}
330
711
100
AcDbXrecord
280
     1
  1
DWGPROPS COOKIE
  2

  3

  4

  6

  7

  8
lq4847
  9

300
=
301
=
302
=
303
=
304
=
305
=
306
=
307
=
308
=
309
=
 40
0.0057797685185185
 41
2456818.646689642
 42
2457246.424514884
  1

 90
        0
  0
XRECORD
  5
7B0
102
{ACAD_REACTORS
330
7AF
102
}
330
7AF
100
AcDbXrecord
280
     1
290
     1
  0
XRECORD
  5
7B2
102
{ACAD_REACTORS
330
7B1
102
}
330
7B1
100
AcDbXrecord
280
     1
290
     1
  0
XRECORD
  5
7B4
102
{ACAD_REACTORS
330
7B3
102
}
330
7B3
100
AcDbXrecord
280
     1
290
     1
  0
XRECORD
  5
7B6
102
{ACAD_REACTORS
330
7B5
102
}
330
7B5
100
AcDbXrecord
280
     1
290
     1
  0
XRECORD
  5
7B8
102
{ACAD_REACTORS
330
7B7
102
}
330
7B7
100
AcDbXrecord
280
     1
290
     1
  0
XRECORD
  5
7BA
102
{ACAD_REACTORS
330
7B9
102
}
330
7B9
100
AcDbXrecord
280
     1
290
     1
  0
XRECORD
  5
7BC
102
{ACAD_REACTORS
330
7BB
102
}
330
7BB
100
AcDbXrecord
280
     1
290
     1
  0
XRECORD
  5
7BE
102
{ACAD_REACTORS
330
7BD
102
}
330
7BD
100
AcDbXrecord
280
     1
290
     1
  0
XRECORD
  5
7C0
102
{ACAD_REACTORS
330
7BF
102
}
330
7BF
100
AcDbXrecord
280
     1
290
     1
  0
XRECORD
  5
7C2
102
{ACAD_REACTORS
330
7C1
102
}
330
7C1
100
AcDbXrecord
280
     1
290
     1
  0
XRECORD
  5
7C4
102
{ACAD_REACTORS
330
7C3
102
}
330
7C3
100
AcDbXrecord
280
     1
290
     1
  0
XRECORD
  5
7C6
102
{ACAD_REACTORS
330
7C5
102
}
330
7C5
100
AcDbXrecord
280
     1
290
     1
  0
XRECORD
  5
7C8
102
{ACAD_REACTORS
330
7C7
102
}
330
7C7
100
AcDbXrecord
280
     1
290
     1
  0
XRECORD
  5
7CA
102
{ACAD_REACTORS
330
7C9
102
}
330
7C9
100
AcDbXrecord
280
     1
290
     1
  0
XRECORD
  5
7CC
102
{ACAD_REACTORS
330
7CB
102
}
330
7CB
100
AcDbXrecord
280
     1
290
     1
  0
XRECORD
  5
7CE
102
{ACAD_REACTORS
330
7CD
102
}
330
7CD
100
AcDbXrecord
280
     1
290
     1
  0
XRECORD
  5
7D0
102
{ACAD_REACTORS
330
7CF
102
}
330
7CF
100
AcDbXrecord
280
     1
290
     1
  0
XRECORD
  5
7D2
102
{ACAD_REACTORS
330
7D1
102
}
330
7D1
100
AcDbXrecord
280
     1
290
     1
  0
XRECORD
  5
7D4
102
{ACAD_REACTORS
330
7D3
102
}
330
7D3
100
AcDbXrecord
280
     1
290
     1
  0
XRECORD
  5
7D6
102
{ACAD_REACTORS
330
7D5
102
}
330
7D5
100
AcDbXrecord
280
     1
290
     1
  0
XRECORD
  5
7D8
102
{ACAD_REACTORS
330
7D7
102
}
330
7D7
100
AcDbXrecord
280
     1
290
     1
  0
XRECORD
  5
7DA
102
{ACAD_REACTORS
330
7D9
102
}
330
7D9
100
AcDbXrecord
280
     1
290
     1
  0
XRECORD
  5
7DC
102
{ACAD_REACTORS
330
7DB
102
}
330
7DB
100
AcDbXrecord
280
     1
290
     1
  0
XRECORD
  5
7DE
102
{ACAD_REACTORS
330
7DD
102
}
330
7DD
100
AcDbXrecord
280
     1
290
     1
  0
XRECORD
  5
7E0
102
{ACAD_REACTORS
330
7DF
102
}
330
7DF
100
AcDbXrecord
280
     1
290
     1
  0
XRECORD
  5
7E2
102
{ACAD_REACTORS
330
7E1
102
}
330
7E1
100
AcDbXrecord
280
     1
290
     1
  0
XRECORD
  5
7E4
102
{ACAD_REACTORS
330
7E3
102
}
330
7E3
100
AcDbXrecord
280
     1
290
     1
  0
XRECORD
  5
7E6
102
{ACAD_REACTORS
330
7E5
102
}
330
7E5
100
AcDbXrecord
280
     1
290
     1
  0
XRECORD
  5
7E8
102
{ACAD_REACTORS
330
7E7
102
}
330
7E7
100
AcDbXrecord
280
     1
290
     1
  0
XRECORD
  5
7EA
102
{ACAD_REACTORS
330
7E9
102
}
330
7E9
100
AcDbXrecord
280
     1
290
     1
  0
XRECORD
  5
7EC
102
{ACAD_REACTORS
330
7EB
102
}
330
7EB
100
AcDbXrecord
280
     1
290
     1
  0
XRECORD
  5
7EE
102
{ACAD_REACTORS
330
7ED
102
}
330
7ED
100
AcDbXrecord
280
     1
290
     1
  0
XRECORD
  5
7F0
102
{ACAD_REACTORS
330
7EF
102
}
330
7EF
100
AcDbXrecord
280
     1
290
     1
  0
XRECORD
  5
7F2
102
{ACAD_REACTORS
330
7F1
102
}
330
7F1
100
AcDbXrecord
280
     1
290
     1
  0
XRECORD
  5
7F4
102
{ACAD_REACTORS
330
7F3
102
}
330
7F3
100
AcDbXrecord
280
     1
290
     1
  0
XRECORD
  5
7F6
102
{ACAD_REACTORS
330
7F5
102
}
330
7F5
100
AcDbXrecord
280
     1
290
     1
  0
XRECORD
  5
7F8
102
{ACAD_REACTORS
330
7F7
102
}
330
7F7
100
AcDbXrecord
280
     1
290
     1
  0
XRECORD
  5
7FA
102
{ACAD_REACTORS
330
7F9
102
}
330
7F9
100
AcDbXrecord
280
     1
290
     1
  0
ACDBDETAILVIEWSTYLE
  5
770
102
{ACAD_XDICTIONARY
360
998
102
}
102
{ACAD_REACTORS
330
76F
330
8A6
102
}
330
76F
100
AcDbModelDocViewStyle
 70
     0
  3
Imperial24
290
     0
100
AcDbDetailViewStyle
 70
     0
 71
     0
 90
        3
 71
     1
340
75A
 40
0.24
340
0
 40
0.24
300

 40
0.36
280
     3
 71
     2
340
761
 90
       25
 71
     3
340
75A
 40
0.24
 90
        1
 40
0.75
 90
        1
300
%<\AcVar ViewType \f "%tc1">% %<\AcVar ViewDetailId>%\PSCALE %<\AcVar ViewScale \f "%sn">%
 71
     4
340
761
 90
       25
340
761
 90
       25
280
     0
  0
LAYOUT
  5
774
102
{ACAD_XDICTIONARY
360
99A
102
}
102
{ACAD_REACTORS
330
766
102
}
330
766
100
AcDbPlotSettings
  1

  2
Brother DCP-9020CDW Printer
  4

  6

 40
0.0
 41
0.0
 42
0.0
 43
0.0
 44
0.0
 45
0.0
 46
0.0
 47
0.0
 48
0.0
 49
0.0
140
0.0
141
0.0
142
1.0
143
1.0
 70
   688
 72
     0
 73
     0
 74
     5
  7

 75
    16
147
1.0
148
0.0
149
0.0
100
AcDbLayout
  1
Layout1
 70
     1
 71
     1
 10
0.0
 20
0.0
 11
12.0
 21
9.0
 12
0.0
 22
0.0
 32
0.0
 14
1.000000000000000E+20
 24
1.000000000000000E+20
 34
1.000000000000000E+20
 15
-1.000000000000000E+20
 25
-1.000000000000000E+20
 35
-1.000000000000000E+20
146
0.0
 13
0.0
 23
0.0
 33
0.0
 16
1.0
 26
0.0
 36
0.0
 17
0.0
 27
1.0
 37
0.0
 76
     0
330
771
  0
LAYOUT
  5
778
102
{ACAD_XDICTIONARY
360
99C
102
}
102
{ACAD_REACTORS
330
766
102
}
330
766
100
AcDbPlotSettings
  1

  2
Brother DCP-9020CDW Printer
  4

  6

 40
0.0
 41
0.0
 42
0.0
 43
0.0
 44
0.0
 45
0.0
 46
0.0
 47
0.0
 48
0.0
 49
0.0
140
0.0
141
0.0
142
1.0
143
1.0
 70
  1712
 72
     0
 73
     0
 74
     0
  7

 75
     0
147
1.0
148
0.0
149
0.0
100
AcDbLayout
  1
Model
 70
     1
 71
     0
 10
0.0
 20
0.0
 11
12.0
 21
9.0
 12
0.0
 22
0.0
 32
0.0
 14
0.0
 24
0.0
 34
0.0
 15
0.0
 25
0.0
 35
0.0
146
0.0
 13
0.0
 23
0.0
 33
0.0
 16
1.0
 26
0.0
 36
0.0
 17
0.0
 27
1.0
 37
0.0
 76
     0
330
775
331
7A4
  0
MATERIAL
  5
71E
102
{ACAD_XDICTIONARY
360
71F
102
}
102
{ACAD_REACTORS
330
715
102
}
330
715
100
AcDbMaterial
  1
ByBlock
 72
     0
 43
0.0208333333333333
 43
0.0
 43
0.0
 43
0.0
 43
0.0
 43
0.0208333333333333
 43
0.0
 43
0.0
 43
0.0
 43
0.0
 43
1.0
 43
0.0
 43
0.0
 43
0.0
 43
0.0
 43
1.0
 77
     0
 47
0.0208333333333333
 47
0.0
 47
0.0
 47
0.0
 47
0.0
 47
0.0208333333333333
 47
0.0
 47
0.0
 47
0.0
 47
0.0
 47
1.0
 47
0.0
 47
0.0
 47
0.0
 47
0.0
 47
1.0
171
     0
 49
0.0208333333333333
 49
0.0
 49
0.0
 49
0.0
 49
0.0
 49
0.0208333333333333
 49
0.0
 49
0.0
 49
0.0
 49
0.0
 49
1.0
 49
0.0
 49
0.0
 49
0.0
 49
0.0
 49
1.0
175
     0
142
0.0208333333333333
142
0.0
142
0.0
142
0.0
142
0.0
142
0.0208333333333333
142
0.0
142
0.0
142
0.0
142
0.0
142
1.0
142
0.0
142
0.0
142
0.0
142
0.0
142
1.0
179
     0
144
0.0208333333333333
144
0.0
144
0.0
144
0.0
144
0.0
144
0.0208333333333333
144
0.0
144
0.0
144
0.0
144
0.0
144
1.0
144
0.0
144
0.0
144
0.0
144
0.0
144
1.0
147
0.0208333333333333
147
0.0
147
0.0
147
0.0
147
0.0
147
0.0208333333333333
147
0.0
147
0.0
147
0.0
147
0.0
147
1.0
147
0.0
147
0.0
147
0.0
147
0.0
147
1.0
  0
MATERIAL
  5
716
102
{ACAD_XDICTIONARY
360
717
102
}
102
{ACAD_REACTORS
330
715
102
}
330
715
100
AcDbMaterial
  1
ByLayer
 72
     0
 43
0.0208333333333333
 43
0.0
 43
0.0
 43
0.0
 43
0.0
 43
0.0208333333333333
 43
0.0
 43
0.0
 43
0.0
 43
0.0
 43
1.0
 43
0.0
 43
0.0
 43
0.0
 43
0.0
 43
1.0
 77
     0
 47
0.0208333333333333
 47
0.0
 47
0.0
 47
0.0
 47
0.0
 47
0.0208333333333333
 47
0.0
 47
0.0
 47
0.0
 47
0.0
 47
1.0
 47
0.0
 47
0.0
 47
0.0
 47
0.0
 47
1.0
171
     0
 49
0.0208333333333333
 49
0.0
 49
0.0
 49
0.0
 49
0.0
 49
0.0208333333333333
 49
0.0
 49
0.0
 49
0.0
 49
0.0
 49
1.0
 49
0.0
 49
0.0
 49
0.0
 49
0.0
 49
1.0
175
     0
142
0.0208333333333333
142
0.0
142
0.0
142
0.0
142
0.0
142
0.0208333333333333
142
0.0
142
0.0
142
0.0
142
0.0
142
1.0
142
0.0
142
0.0
142
0.0
142
0.0
142
1.0
179
     0
144
0.0208333333333333
144
0.0
144
0.0
144
0.0
144
0.0
144
0.0208333333333333
144
0.0
144
0.0
144
0.0
144
0.0
144
1.0
144
0.0
144
0.0
144
0.0
144
0.0
144
1.0
147
0.0208333333333333
147
0.0
147
0.0
147
0.0
147
0.0
147
0.0208333333333333
147
0.0
147
0.0
147
0.0
147
0.0
147
1.0
147
0.0
147
0.0
147
0.0
147
0.0
147
1.0
  0
MATERIAL
  5
726
102
{ACAD_XDICTIONARY
360
727
102
}
102
{ACAD_REACTORS
330
715
102
}
330
715
100
AcDbMaterial
  1
Global
 72
     0
 43
0.0208333333333333
 43
0.0
 43
0.0
 43
0.0
 43
0.0
 43
0.0208333333333333
 43
0.0
 43
0.0
 43
0.0
 43
0.0
 43
1.0
 43
0.0
 43
0.0
 43
0.0
 43
0.0
 43
1.0
 77
     0
 47
0.0208333333333333
 47
0.0
 47
0.0
 47
0.0
 47
0.0
 47
0.0208333333333333
 47
0.0
 47
0.0
 47
0.0
 47
0.0
 47
1.0
 47
0.0
 47
0.0
 47
0.0
 47
0.0
 47
1.0
171
     0
 49
0.0208333333333333
 49
0.0
 49
0.0
 49
0.0
 49
0.0
 49
0.0208333333333333
 49
0.0
 49
0.0
 49
0.0
 49
0.0
 49
1.0
 49
0.0
 49
0.0
 49
0.0
 49
0.0
 49
1.0
175
     0
142
0.0208333333333333
142
0.0
142
0.0
142
0.0
142
0.0
142
0.0208333333333333
142
0.0
142
0.0
142
0.0
142
0.0
142
1.0
142
0.0
142
0.0
142
0.0
142
0.0
142
1.0
179
     0
144
0.0208333333333333
144
0.0
144
0.0
144
0.0
144
0.0
144
0.0208333333333333
144
0.0
144
0.0
144
0.0
144
0.0
144
1.0
144
0.0
144
0.0
144
0.0
144
0.0
144
1.0
147
0.0208333333333333
147
0.0
147
0.0
147
0.0
147
0.0
147
0.0208333333333333
147
0.0
147
0.0
147
0.0
147
0.0
147
1.0
147
0.0
147
0.0
147
0.0
147
0.0
147
1.0
  0
MLEADERSTYLE
  5
76B
102
{ACAD_REACTORS
330
76A
102
}
330
76A
100
AcDbMLeaderStyle
170
     2
171
     1
172
     0
 90
        2
 40
0.0
 41
0.0
173
     1
 91
-1056964608
340
75F
 92
       -2
290
     1
 42
0.09
291
     1
 43
0.36
  3
Standard
 44
0.18
300

342
75A
174
     1
178
     6
175
     1
176
     0
 93
-1056964608
 45
0.18
292
     0
297
     0
 46
0.18
 94
-1056964608
 47
1.0
 49
1.0
140
1.0
293
     1
141
0.0
294
     1
177
     0
142
1.0
295
     0
296
     0
143
0.125
1001
ACAD_MLEADERVER
1070
     2
  0
MLINESTYLE
  5
764
102
{ACAD_REACTORS
330
763
102
}
330
763
100
AcDbMlineStyle
  2
STANDARD
 70
     0
  3

 62
   256
 51
90.0
 52
90.0
 71
     2
 49
0.5
 62
   256
  6
BYLAYER
 49
-0.5
 62
   256
  6
BYLAYER
  0
ACDBPLACEHOLDER
  5
714
102
{ACAD_REACTORS
330
713
102
}
330
713
  0
SCALE
  5
748
102
{ACAD_REACTORS
330
747
102
}
330
747
100
AcDbScale
 70
     0
300
1:1
140
1.0
141
1.0
290
     1
  0
SCALE
  5
749
102
{ACAD_REACTORS
330
747
102
}
330
747
100
AcDbScale
 70
     0
300
1/128" = 1'-0"
140
0.0078125
141
12.0
290
     0
  0
SCALE
  5
74A
102
{ACAD_REACTORS
330
747
102
}
330
747
100
AcDbScale
 70
     0
300
1/64" = 1'-0"
140
0.015625
141
12.0
290
     0
  0
SCALE
  5
74B
102
{ACAD_REACTORS
330
747
102
}
330
747
100
AcDbScale
 70
     0
300
1/32" = 1'-0"
140
0.03125
141
12.0
290
     0
  0
SCALE
  5
74C
102
{ACAD_REACTORS
330
747
102
}
330
747
100
AcDbScale
 70
     0
300
1/16" = 1'-0"
140
0.0625
141
12.0
290
     0
  0
SCALE
  5
74D
102
{ACAD_REACTORS
330
747
102
}
330
747
100
AcDbScale
 70
     0
300
3/32" = 1'-0"
140
0.09375
141
12.0
290
     0
  0
SCALE
  5
74E
102
{ACAD_REACTORS
330
747
102
}
330
747
100
AcDbScale
 70
     0
300
1/8" = 1'-0"
140
0.125
141
12.0
290
     0
  0
SCALE
  5
74F
102
{ACAD_REACTORS
330
747
102
}
330
747
100
AcDbScale
 70
     0
300
3/16" = 1'-0"
140
0.1875
141
12.0
290
     0
  0
SCALE
  5
750
102
{ACAD_REACTORS
330
747
102
}
330
747
100
AcDbScale
 70
     0
300
1/4" = 1'-0"
140
0.25
141
12.0
290
     0
  0
SCALE
  5
751
102
{ACAD_REACTORS
330
747
102
}
330
747
100
AcDbScale
 70
     0
300
3/8" = 1'-0"
140
0.375
141
12.0
290
     0
  0
SCALE
  5
752
102
{ACAD_REACTORS
330
747
102
}
330
747
100
AcDbScale
 70
     0
300
1/2" = 1'-0"
140
0.5
141
12.0
290
     0
  0
SCALE
  5
753
102
{ACAD_REACTORS
330
747
102
}
330
747
100
AcDbScale
 70
     0
300
3/4" = 1'-0"
140
0.75
141
12.0
290
     0
  0
SCALE
  5
754
102
{ACAD_REACTORS
330
747
102
}
330
747
100
AcDbScale
 70
     0
300
1" = 1'-0"
140
1.0
141
12.0
290
     0
  0
SCALE
  5
755
102
{ACAD_REACTORS
330
747
102
}
330
747
100
AcDbScale
 70
     0
300
1-1/2" = 1'-0"
140
1.5
141
12.0
290
     0
  0
SCALE
  5
756
102
{ACAD_REACTORS
330
747
102
}
330
747
100
AcDbScale
 70
     0
300
3" = 1'-0"
140
3.0
141
12.0
290
     0
  0
SCALE
  5
757
102
{ACAD_REACTORS
330
747
102
}
330
747
100
AcDbScale
 70
     0
300
6" = 1'-0"
140
6.0
141
12.0
290
     0
  0
SCALE
  5
758
102
{ACAD_REACTORS
330
747
102
}
330
747
100
AcDbScale
 70
     0
300
1'-0" = 1'-0"
140
12.0
141
12.0
290
     0
  0
ACDBSECTIONVIEWSTYLE
  5
76E
102
{ACAD_XDICTIONARY
360
996
102
}
102
{ACAD_REACTORS
330
76C
330
8A5
102
}
330
76C
100
AcDbModelDocViewStyle
 70
     0
  3
Imperial24
290
     0
100
AcDbSectionViewStyle
 70
     0
 71
     0
 90
       78
 71
     1
340
75A
 40
0.24
340
0
340
0
 40
0.24
300
I, O, Q, S, X, Z
 40
0.48
 90
        3
 40
0.18
 90
        1
 71
     2
340
76D
 90
       25
340
761
 90
       50
 40
0.24
 40
0.0
 40
0.24
 71
     3
340
75A
 40
0.24
 90
        1
 40
0.75
 90
        1
300
%<\AcVar ViewType \f "%tc1">% %<\AcVar ViewSectionStartId>%-%<\AcVar ViewSectionEndId>%\PSCALE %<\AcVar ViewScale \f "%sn">%
 71
     4
300
ANSI31
 40
1.0
 90
        0
290
     0
290
     0
 90
        6
 40
0.0
 40
1.570796326794896
 40
0.2617993877991494
 40
1.308996938995747
 40
-0.2617993877991494
 40
1.832595714594045
  0
TABLESTYLE
  5
769
102
{ACAD_XDICTIONARY
360
806
102
}
102
{ACAD_REACTORS
330
768
102
}
330
768
100
AcDbTableStyle
  3
Standard
 70
     0
 71
     0
 40
0.06
 41
0.06
280
     0
281
     0
  7
STANDARD
140
0.18
170
     2
 62
     0
 63
     7
283
     0
274
    -2
284
     1
 64
     0
275
    -2
285
     1
 65
     0
276
    -2
286
     1
 66
     0
277
    -2
287
     1
 67
     0
278
    -2
288
     1
 68
     0
279
    -2
289
     1
 69
     0
  7
STANDARD
140
0.25
170
     5
 62
     0
 63
     7
283
     0
274
    -2
284
     1
 64
     0
275
    -2
285
     1
 65
     0
276
    -2
286
     1
 66
     0
277
    -2
287
     1
 67
     0
278
    -2
288
     1
 68
     0
279
    -2
289
     1
 69
     0
  7
STANDARD
140
0.18
170
     5
 62
     0
 63
     7
283
     0
274
    -2
284
     1
 64
     0
275
    -2
285
     1
 65
     0
276
    -2
286
     1
 66
     0
277
    -2
287
     1
 67
     0
278
    -2
288
     1
 68
     0
279
    -2
289
     1
 69
     0
  0
VISUALSTYLE
  5
734
102
{ACAD_XDICTIONARY
360
96F
102
}
102
{ACAD_REACTORS
330
72E
102
}
330
72E
100
AcDbVisualStyle
  2

 70
     4
 71
     0
 72
     2
 73
     0
 90
        0
 40
-0.6
 41
-30.0
 62
     5
 63
     7
 74
     1
 91
        4
 64
     7
 65
   257
 75
     1
175
     1
 42
1.0
 92
        0
 66
   257
 43
1.0
 76
     1
 77
     6
 78
     2
 67
     7
 79
     5
170
     0
171
     0
290
     0
174
     0
 93
        1
 44
0.0
173
     0
291
     0
 45
0.0
1001
ACAD
1000
AcDbSavedByObjectVersion
1070
     0
  0
VISUALSTYLE
  5
733
102
{ACAD_XDICTIONARY
360
96D
102
}
102
{ACAD_REACTORS
330
72E
102
}
330
72E
100
AcDbVisualStyle
  2

 70
     7
 71
     1
 72
     0
 73
     1
 90
        0
 40
-0.6
 41
-30.0
 62
     5
 63
     7
 74
     0
 91
        4
 64
     7
 65
   257
 75
     1
175
     1
 42
1.0
 92
        8
 66
     7
 43
1.0
 76
     1
 77
     6
 78
     2
 67
     7
 79
     5
170
     0
171
     0
290
     0
174
     0
 93
        1
 44
0.0
173
     0
291
     1
 45
0.0
1001
ACAD
1000
AcDbSavedByObjectVersion
1070
     0
  0
VISUALSTYLE
  5
73A
102
{ACAD_XDICTIONARY
360
97B
102
}
102
{ACAD_REACTORS
330
72E
102
}
330
72E
100
AcDbVisualStyle
  2

 70
    12
 71
     2
 72
     2
 73
     0
 90
        0
 40
-0.6
 41
-30.0
 62
     5
 63
     7
 74
     1
 91
        4
 64
     7
 65
   257
 75
     1
175
     1
 42
1.0
 92
        8
 66
     7
 43
1.0
 76
     1
 77
     6
 78
     2
 67
     7
 79
     5
170
     0
171
     0
290
     0
174
     0
 93
        1
 44
50.0
173
     0
291
     1
 45
0.0
1001
ACAD
1000
AcDbSavedByObjectVersion
1070
     0
  0
VISUALSTYLE
  5
73E
102
{ACAD_XDICTIONARY
360
983
102
}
102
{ACAD_REACTORS
330
72E
102
}
330
72E
100
AcDbVisualStyle
  2

 70
    16
 71
     2
 72
     2
 73
     3
 90
        0
 40
-0.6
 41
-30.0
 62
     5
 63
     8
 74
     1
 91
        4
 64
     7
 65
   257
 75
     1
175
     1
 42
1.0
 92
        8
 66
     8
 43
1.0
 76
     1
 77
     6
 78
     2
 67
     7
 79
     5
170
     0
171
     0
290
     0
174
     0
 93
        1
 44
0.0
173
     0
291
     1
 45
0.0
1001
ACAD
1000
AcDbSavedByObjectVersion
1070
     0
  0
VISUALSTYLE
  5
737
102
{ACAD_XDICTIONARY
360
975
102
}
102
{ACAD_REACTORS
330
72E
102
}
330
72E
100
AcDbVisualStyle
  2

 70
     9
 71
     3
 72
     2
 73
     0
 90
        0
 40
-0.6
 41
-30.0
 62
     5
 63
     7
 74
     2
 91
        2
 64
     7
 65
   257
 75
     1
175
     1
 42
179.0
 92
        8
 66
     7
 43
1.0
 76
     1
 77
     6
 78
     2
 67
     7
 79
     3
170
     0
171
     0
290
     0
174
     0
 93
        1
 44
0.0
173
     0
291
     0
 45
0.0
1001
ACAD
1000
AcDbSavedByObjectVersion
1070
     0
  0
VISUALSTYLE
  5
739
102
{ACAD_XDICTIONARY
360
979
102
}
102
{ACAD_REACTORS
330
72E
102
}
330
72E
100
AcDbVisualStyle
  2

 70
    11
 71
     2
 72
     2
 73
     0
 90
        0
 40
-0.6
 41
-30.0
 62
     5
 63
     7
 74
     1
 91
        4
 64
     7
 65
   257
 75
     1
175
     1
 42
1.0
 92
        8
 66
     7
 43
1.0
 76
     1
 77
     6
 78
     2
 67
     7
 79
     5
170
     0
171
     0
290
     0
174
     0
 93
        1
 44
-50.0
173
     0
291
     1
 45
0.0
1001
ACAD
1000
AcDbSavedByObjectVersion
1070
     0
  0
VISUALSTYLE
  5
746
102
{ACAD_XDICTIONARY
360
993
102
}
102
{ACAD_REACTORS
330
72E
102
}
330
72E
100
AcDbVisualStyle
  2

 70
    22
 71
     2
 72
     2
 73
     0
 90
        0
 40
-0.6
 41
-30.0
 62
     5
 63
     7
 74
     1
 91
        4
 64
     7
 65
   257
 75
     1
175
     1
 42
1.0
 92
        8
 66
     7
 43
1.0
 76
     1
 77
     6
 78
     2
 67
     7
 79
     5
170
     0
171
     0
290
     0
174
     0
 93
        1
 44
0.0
173
     0
291
     1
 45
0.0
1001
ACAD
1000
AcDbSavedByObjectVersion
1070
     0
  0
VISUALSTYLE
  5
73D
102
{ACAD_XDICTIONARY
360
981
102
}
102
{ACAD_REACTORS
330
72E
102
}
330
72E
100
AcDbVisualStyle
  2

 70
    15
 71
     2
 72
     2
 73
     0
 90
        0
 40
-0.6
 41
-30.0
 62
     5
 63
     7
 74
     1
 91
        4
 64
     7
 65
   257
 75
     1
175
     1
 42
1.0
 92
        8
 66
     7
 43
1.0
 76
     1
 77
     6
 78
     2
 67
     7
 79
     5
170
     0
171
     0
290
     0
174
     0
 93
        1
 44
0.0
173
     0
291
     1
 45
0.0
1001
ACAD
1000
AcDbSavedByObjectVersion
1070
     0
  0
VISUALSTYLE
  5
72F
102
{ACAD_XDICTIONARY
360
965
102
}
102
{ACAD_REACTORS
330
72E
102
}
330
72E
100
AcDbVisualStyle
  2

 70
     0
 71
     2
 72
     1
 73
     1
 90
        2
 40
-0.6
 41
30.0
 62
     5
 63
     7
 74
     0
 91
        0
 64
     7
 65
   257
 75
     1
175
     1
 42
1.0
 92
        8
 66
     7
 43
1.0
 76
     1
 77
     6
 78
     2
 67
     7
 79
     5
170
     0
171
     0
290
     0
174
     0
 93
       13
 44
0.0
173
     0
291
     1
 45
0.0
1001
ACAD
1000
AcDbSavedByObjectVersion
1070
     0
  0
VISUALSTYLE
  5
730
102
{ACAD_XDICTIONARY
360
967
102
}
102
{ACAD_REACTORS
330
72E
102
}
330
72E
100
AcDbVisualStyle
  2

 70
     1
 71
     2
 72
     1
 73
     1
 90
        2
 40
-0.6
 41
30.0
 62
     5
 63
     7
 74
     1
 91
        0
 64
     7
 65
   257
 75
     1
175
     1
 42
1.0
 92
        0
 66
   257
 43
1.0
 76
     1
 77
     6
 78
     2
 67
     7
 79
     5
170
     0
171
     0
290
     0
174
     0
 93
       13
 44
0.0
173
     0
291
     1
 45
0.0
1001
ACAD
1000
AcDbSavedByObjectVersion
1070
     0
  0
VISUALSTYLE
  5
731
102
{ACAD_XDICTIONARY
360
969
102
}
102
{ACAD_REACTORS
330
72E
102
}
330
72E
100
AcDbVisualStyle
  2

 70
     2
 71
     2
 72
     2
 73
     1
 90
        2
 40
-0.6
 41
30.0
 62
     5
 63
     7
 74
     0
 91
        0
 64
     7
 65
   257
 75
     1
175
     1
 42
1.0
 92
        0
 66
     7
 43
1.0
 76
     1
 77
     6
 78
     2
 67
     7
 79
     5
170
     0
171
     0
290
     0
174
     0
 93
       13
 44
0.0
173
     0
291
     1
 45
0.0
1001
ACAD
1000
AcDbSavedByObjectVersion
1070
     0
  0
VISUALSTYLE
  5
732
102
{ACAD_XDICTIONARY
360
96B
102
}
102
{ACAD_REACTORS
330
72E
102
}
330
72E
100
AcDbVisualStyle
  2

 70
     3
 71
     2
 72
     2
 73
     1
 90
        2
 40
-0.6
 41
30.0
 62
     5
 63
     7
 74
     1
 91
        0
 64
     7
 65
   257
 75
     1
175
     1
 42
1.0
 92
        0
 66
   257
 43
1.0
 76
     1
 77
     6
 78
     2
 67
     7
 79
     5
170
     0
171
     0
290
     0
174
     0
 93
       13
 44
0.0
173
     0
291
     1
 45
0.0
1001
ACAD
1000
AcDbSavedByObjectVersion
1070
     0
  0
VISUALSTYLE
  5
736
102
{ACAD_XDICTIONARY
360
973
102
}
102
{ACAD_REACTORS
330
72E
102
}
330
72E
100
AcDbVisualStyle
  2

 70
     6
 71
     1
 72
     2
 73
     2
 90
        0
 40
-0.6
 41
-30.0
 62
     5
 63
     7
 74
     2
 91
        2
 64
     7
 65
   257
 75
     2
175
     1
 42
40.0
 92
        0
 66
   257
 43
1.0
 76
     1
 77
     6
 78
     2
 67
     7
 79
     3
170
     0
171
     0
290
     0
174
     0
 93
        1
 44
0.0
173
     0
291
     0
 45
0.0
1001
ACAD
1000
AcDbSavedByObjectVersion
1070
     0
  0
VISUALSTYLE
  5
744
102
{ACAD_XDICTIONARY
360
98F
102
}
102
{ACAD_REACTORS
330
72E
102
}
330
72E
100
AcDbVisualStyle
  2

 70
    20
 71
     2
 72
     2
 73
     0
 90
        0
 40
-0.6
 41
-30.0
 62
     5
 63
     7
 74
     1
 91
        4
 64
     7
 65
   257
 75
     1
175
     1
 42
1.0
 92
       10
 66
     7
 43
1.0
 76
     1
 77
     6
 78
     2
 67
     7
 79
     5
170
     0
171
     0
290
     0
174
     0
 93
        1
 44
0.0
173
     0
291
     1
 45
0.0
1001
ACAD
1000
AcDbSavedByObjectVersion
1070
     0
  0
VISUALSTYLE
  5
73C
102
{ACAD_XDICTIONARY
360
97F
102
}
102
{ACAD_REACTORS
330
72E
102
}
330
72E
100
AcDbVisualStyle
  2

 70
    14
 71
     2
 72
     2
 73
     0
 90
        0
 40
-0.6
 41
-30.0
 62
     5
 63
     7
 74
     1
 91
        4
 64
     7
 65
   257
 75
     7
175
     7
 42
1.0
 92
        8
 66
     7
 43
1.0
 76
     1
 77
     6
 78
     2
 67
     7
 79
     5
170
     0
171
     0
290
     0
174
     0
 93
        1
 44
0.0
173
     0
291
     1
 45
0.0
1001
ACAD
1000
AcDbSavedByObjectVersion
1070
     0
  0
VISUALSTYLE
  5
745
102
{ACAD_XDICTIONARY
360
991
102
}
102
{ACAD_REACTORS
330
72E
102
}
330
72E
100
AcDbVisualStyle
  2

 70
    21
 71
     2
 72
     2
 73
     0
 90
        0
 40
-0.6
 41
-30.0
 62
     5
 63
     7
 74
     1
 91
        4
 64
     7
 65
   257
 75
     1
175
     1
 42
1.0
 92
        9
 66
     7
 43
1.0
 76
     1
 77
     6
 78
     2
 67
     7
 79
     5
170
     0
171
     0
290
     0
174
     0
 93
        1
 44
0.0
173
     0
291
     1
 45
0.0
1001
ACAD
1000
AcDbSavedByObjectVersion
1070
     0
  0
VISUALSTYLE
  5
738
102
{ACAD_XDICTIONARY
360
977
102
}
102
{ACAD_REACTORS
330
72E
102
}
330
72E
100
AcDbVisualStyle
  2

 70
     8
 71
     2
 72
     3
 73
     0
 90
        2
 40
-0.6
 41
30.0
 62
     5
 63
     7
 74
     0
 91
        0
 64
     7
 65
   257
 75
     1
175
     1
 42
1.0
 92
        8
 66
   257
 43
1.0
 76
     1
 77
     6
 78
     2
 67
     7
 79
     3
170
     0
171
     0
290
     0
174
     0
 93
       13
 44
0.0
173
     0
291
     0
 45
0.0
1001
ACAD
1000
AcDbSavedByObjectVersion
1070
     0
  0
VISUALSTYLE
  5
743
102
{ACAD_XDICTIONARY
360
98D
102
}
102
{ACAD_REACTORS
330
72E
102
}
330
72E
100
AcDbVisualStyle
  2

 70
    27
 71
     2
 72
     2
 73
     1
 90
        2
 40
-0.6
 41
30.0
 62
     5
 63
     7
 74
     0
 91
        4
 64
     7
 65
   257
 75
     1
175
     1
 42
1.0
 92
        8
 66
   257
 43
1.0
 76
     1
 77
     6
 78
     2
 67
     8
 79
     3
170
     0
171
     0
290
     0
174
     0
 93
        5
 44
0.0
173
     0
291
     0
 45
0.0
1001
ACAD
1000
AcDbSavedByObjectVersion
1070
     0
  0
VISUALSTYLE
  5
742
102
{ACAD_XDICTIONARY
360
98B
102
}
102
{ACAD_REACTORS
330
72E
102
}
330
72E
100
AcDbVisualStyle
  2

 70
    26
 71
     2
 72
     2
 73
     1
 90
        2
 40
-0.6
 41
30.0
 62
     5
 63
     7
 74
     1
 91
       10
 64
     7
 65
   257
 75
     2
175
     1
 42
1.0
 92
        8
 66
   257
 43
1.0
 76
     1
 77
     6
 78
     2
 67
     7
 79
     3
170
     0
171
     0
290
     0
174
     0
 93
        5
 44
0.0
173
     0
291
     0
 45
0.0
1001
ACAD
1000
AcDbSavedByObjectVersion
1070
     0
  0
VISUALSTYLE
  5
73F
102
{ACAD_XDICTIONARY
360
985
102
}
102
{ACAD_REACTORS
330
72E
102
}
330
72E
100
AcDbVisualStyle
  2

 70
    23
 71
     2
 72
     2
 73
     3
 90
        0
 40
-0.6
 41
-30.0
 62
     5
 63
     7
 74
     2
 91
        2
 64
     7
 65
     7
 75
     1
175
     1
 42
40.0
 92
        8
 66
     7
 43
1.0
 76
     1
 77
     6
 78
     2
 67
     7
 79
     3
170
     0
171
     0
290
     0
174
     0
 93
        1
 44
0.0
173
     0
291
     0
 45
0.0
1001
ACAD
1000
AcDbSavedByObjectVersion
1070
     0
  0
VISUALSTYLE
  5
740
102
{ACAD_XDICTIONARY
360
987
102
}
102
{ACAD_REACTORS
330
72E
102
}
330
72E
100
AcDbVisualStyle
  2

 70
    24
 71
     1
 72
     2
 73
     2
 90
        0
 40
-0.6
 41
-30.0
 62
     5
 63
     7
 74
     2
 91
        2
 64
     7
 65
     7
 75
     1
175
     1
 42
40.0
 92
       11
 66
     7
 43
1.0
 76
     1
 77
     6
 78
     2
 67
     7
 79
     6
170
     0
171
     0
290
     0
174
     0
 93
        1
 44
0.0
173
     0
291
     0
 45
0.0
1001
ACAD
1000
AcDbSavedByObjectVersion
1070
     0
  0
VISUALSTYLE
  5
73B
102
{ACAD_XDICTIONARY
360
97D
102
}
102
{ACAD_REACTORS
330
72E
102
}
330
72E
100
AcDbVisualStyle
  2

 70
    13
 71
     2
 72
     2
 73
     0
 90
        0
 40
-0.6
 41
-30.0
 62
     5
 63
     7
 74
     1
 91
        4
 64
     7
 65
   257
 75
     1
175
     1
 42
1.0
 92
       12
 66
     7
 43
1.0
 76
     1
 77
     6
 78
     2
 67
     7
 79
     5
170
     0
171
     0
290
     0
174
     0
 93
        1
 44
0.0
173
     0
291
     1
 45
0.0
1001
ACAD
1000
AcDbSavedByObjectVersion
1070
     0
  0
VISUALSTYLE
  5
735
102
{ACAD_XDICTIONARY
360
971
102
}
102
{ACAD_REACTORS
330
72E
102
}
330
72E
100
AcDbVisualStyle
  2

 70
     5
 71
     0
 72
     2
 73
     0
 90
        0
 40
-0.6
 41
-30.0
 62
     5
 63
     7
 74
     1
 91
        4
 64
     7
 65
   257
 75
     1
175
     1
 42
1.0
 92
        0
 66
   257
 43
1.0
 76
     1
 77
     6
 78
     2
 67
     7
 79
     3
170
     0
171
     0
290
     0
174
     0
 93
        1
 44
0.0
173
     0
291
     0
 45
0.0
1001
ACAD
1000
AcDbSavedByObjectVersion
1070
     0
  0
VISUALSTYLE
  5
741
102
{ACAD_XDICTIONARY
360
989
102
}
102
{ACAD_REACTORS
330
72E
102
}
330
72E
100
AcDbVisualStyle
  2

 70
    25
 71
     2
 72
     2
 73
     1
 90
        1
 40
0.5
 41
-30.0
 62
     5
 63
     7
 74
     1
 91
        0
 64
     7
 65
   257
 75
     1
175
     1
 42
1.0
 92
        8
 66
     7
 43
1.0
 76
     1
 77
     6
 78
     2
 67
     7
 79
     3
170
     0
171
     0
290
     0
174
     0
 93
       13
 44
0.0
173
     0
291
     0
 45
0.0
1001
ACAD
1000
AcDbSavedByObjectVersion
1070
     0
  0
DICTIONARYVAR
  5
800
102
{ACAD_REACTORS
330
7FB
102
}
330
7FB
100
DictionaryVariables
280
     0
  1
1:1
  0
DICTIONARYVAR
  5
7FD
102
{ACAD_REACTORS
330
7FB
102
}
330
7FB
100
DictionaryVariables
280
     0
  1
STANDARD
  0
DICTIONARYVAR
  5
7FC
102
{ACAD_REACTORS
330
7FB
102
}
330
7FB
100
DictionaryVariables
280
     0
  1
STANDARD
  0
DICTIONARYVAR
  5
7FE
102
{ACAD_REACTORS
330
7FB
102
}
330
7FB
100
DictionaryVariables
280
     0
  1
Imperial24
  0
DICTIONARYVAR
  5
7FF
102
{ACAD_REACTORS
330
7FB
102
}
330
7FB
100
DictionaryVariables
280
     0
  1
Imperial24
  0
DICTIONARYVAR
  5
803
102
{ACAD_REACTORS
330
7FB
102
}
330
7FB
100
DictionaryVariables
280
     0
  1
1
  0
DICTIONARYVAR
  5
802
102
{ACAD_REACTORS
330
7FB
102
}
330
7FB
100
DictionaryVariables
280
     0
  1
0
  0
DICTIONARYVAR
  5
801
102
{ACAD_REACTORS
330
7FB
102
}
330
7FB
100
DictionaryVariables
280
     0
  1
127
  0
DICTIONARYVAR
  5
961
102
{ACAD_REACTORS
330
7FB
102
}
330
7FB
100
DictionaryVariables
280
     0
  1
2
  0
DICTIONARY
  5
879
102
{ACAD_REACTORS
330
872
102
}
330
872
100
AcDbDictionary
281
     1
  0
DICTIONARY
  5
998
330
770
100
AcDbDictionary
280
     1
281
     1
  3
ACAD_XREC_ROUNDTRIP
360
999
  0
DICTIONARY
  5
99A
330
774
100
AcDbDictionary
280
     1
281
     1
  3
ACAD_XREC_ROUNDTRIP
360
99B
  0
DICTIONARY
  5
99C
330
778
100
AcDbDictionary
280
     1
281
     1
  3
ACAD_XREC_ROUNDTRIP
360
99D
  0
DICTIONARY
  5
71F
330
71E
100
AcDbDictionary
280
     1
281
     1
  3
ACAD_XREC_ROUNDTRIP
360
80C
  3
BUMPTILE
360
721
  3
DIFFUSETILE
360
720
  3
OPACITYTILE
360
724
  3
REFLECTIONTILE
360
723
  3
REFRACTIONTILE
360
725
  3
SPECULARTILE
360
722
  0
DICTIONARY
  5
717
330
716
100
AcDbDictionary
280
     1
281
     1
  3
ACAD_XREC_ROUNDTRIP
360
80B
  3
BUMPTILE
360
719
  3
DIFFUSETILE
360
718
  3
OPACITYTILE
360
71C
  3
REFLECTIONTILE
360
71B
  3
REFRACTIONTILE
360
71D
  3
SPECULARTILE
360
71A
  0
DICTIONARY
  5
727
330
726
100
AcDbDictionary
280
     1
281
     1
  3
ACAD_XREC_ROUNDTRIP
360
80D
  3
BUMPTILE
360
729
  3
DIFFUSETILE
360
728
  3
OPACITYTILE
360
72C
  3
REFLECTIONTILE
360
72B
  3
REFRACTIONTILE
360
72D
  3
SPECULARTILE
360
72A
  0
DICTIONARY
  5
996
330
76E
100
AcDbDictionary
280
     1
281
     1
  3
ACAD_XREC_ROUNDTRIP
360
997
  0
DICTIONARY
  5
806
330
769
100
AcDbDictionary
280
     1
281
     1
  3
ACAD_ROUNDTRIP_2008_TABLESTYLE_CELLSTYLEMAP
360
962
  3
ACAD_XREC_ROUNDTRIP
360
995
  0
DICTIONARY
  5
96F
330
734
100
AcDbDictionary
280
     1
281
     1
  3
ACAD_XREC_ROUNDTRIP
360
970
  0
DICTIONARY
  5
96D
330
733
100
AcDbDictionary
280
     1
281
     1
  3
ACAD_XREC_ROUNDTRIP
360
96E
  0
DICTIONARY
  5
97B
330
73A
100
AcDbDictionary
280
     1
281
     1
  3
ACAD_XREC_ROUNDTRIP
360
97C
  0
DICTIONARY
  5
983
330
73E
100
AcDbDictionary
280
     1
281
     1
  3
ACAD_XREC_ROUNDTRIP
360
984
  0
DICTIONARY
  5
975
330
737
100
AcDbDictionary
280
     1
281
     1
  3
ACAD_XREC_ROUNDTRIP
360
976
  0
DICTIONARY
  5
979
330
739
100
AcDbDictionary
280
     1
281
     1
  3
ACAD_XREC_ROUNDTRIP
360
97A
  0
DICTIONARY
  5
993
330
746
100
AcDbDictionary
280
     1
281
     1
  3
ACAD_XREC_ROUNDTRIP
360
994
  0
DICTIONARY
  5
981
330
73D
100
AcDbDictionary
280
     1
281
     1
  3
ACAD_XREC_ROUNDTRIP
360
982
  0
DICTIONARY
  5
965
330
72F
100
AcDbDictionary
280
     1
281
     1
  3
ACAD_XREC_ROUNDTRIP
360
966
  0
DICTIONARY
  5
967
330
730
100
AcDbDictionary
280
     1
281
     1
  3
ACAD_XREC_ROUNDTRIP
360
968
  0
DICTIONARY
  5
969
330
731
100
AcDbDictionary
280
     1
281
     1
  3
ACAD_XREC_ROUNDTRIP
360
96A
  0
DICTIONARY
  5
96B
330
732
100
AcDbDictionary
280
     1
281
     1
  3
ACAD_XREC_ROUNDTRIP
360
96C
  0
DICTIONARY
  5
973
330
736
100
AcDbDictionary
280
     1
281
     1
  3
ACAD_XREC_ROUNDTRIP
360
974
  0
DICTIONARY
  5
98F
330
744
100
AcDbDictionary
280
     1
281
     1
  3
ACAD_XREC_ROUNDTRIP
360
990
  0
DICTIONARY
  5
97F
330
73C
100
AcDbDictionary
280
     1
281
     1
  3
ACAD_XREC_ROUNDTRIP
360
980
  0
DICTIONARY
  5
991
330
745
100
AcDbDictionary
280
     1
281
     1
  3
ACAD_XREC_ROUNDTRIP
360
992
  0
DICTIONARY
  5
977
330
738
100
AcDbDictionary
280
     1
281
     1
  3
ACAD_XREC_ROUNDTRIP
360
978
  0
DICTIONARY
  5
98D
330
743
100
AcDbDictionary
280
     1
281
     1
  3
ACAD_XREC_ROUNDTRIP
360
98E
  0
DICTIONARY
  5
98B
330
742
100
AcDbDictionary
280
     1
281
     1
  3
ACAD_XREC_ROUNDTRIP
360
98C
  0
DICTIONARY
  5
985
330
73F
100
AcDbDictionary
280
     1
281
     1
  3
ACAD_XREC_ROUNDTRIP
360
986
  0
DICTIONARY
  5
987
330
740
100
AcDbDictionary
280
     1
281
     1
  3
ACAD_XREC_ROUNDTRIP
360
988
  0
DICTIONARY
  5
97D
330
73B
100
AcDbDictionary
280
     1
281
     1
  3
ACAD_XREC_ROUNDTRIP
360
97E
  0
DICTIONARY
  5
971
330
735
100
AcDbDictionary
280
     1
281
     1
  3
ACAD_XREC_ROUNDTRIP
360
972
  0
DICTIONARY
  5
989
330
741
100
AcDbDictionary
280
     1
281
     1
  3
ACAD_XREC_ROUNDTRIP
360
98A
  0
XRECORD
  5
999
102
{ACAD_REACTORS
330
998
102
}
330
998
100
AcDbXrecord
280
     1
102
DISPLAYNAME
  1
Imperial24
102
FLAGS
 90
        0
  0
XRECORD
  5
99B
102
{ACAD_REACTORS
330
99A
102
}
330
99A
100
AcDbXrecord
280
     1
102
SHADEPLOT
 70
     0
102
SHADEPLOTRESLEVEL
 70
     2
102
SHADEPLOTCUSTOMDPI
 70
   300
  0
XRECORD
  5
99D
102
{ACAD_REACTORS
330
99C
102
}
330
99C
100
AcDbXrecord
280
     1
102
SHADEPLOT
 70
     0
102
SHADEPLOTRESLEVEL
 70
     2
102
SHADEPLOTCUSTOMDPI
 70
   300
  0
XRECORD
  5
80C
102
{ACAD_REACTORS
330
71F
102
}
330
71F
100
AcDbXrecord
280
     1
102
MATERIAL
148
0.0
149
0.0
149
0.0
 93
        0
 94
      127
282
     0
 72
     0
 77
     0
171
     0
175
     0
179
     0
273
     0
  0
XRECORD
  5
721
102
{ACAD_REACTORS
330
71F
102
}
330
71F
100
AcDbXrecord
280
     1
270
     1
271
     1
  0
XRECORD
  5
720
102
{ACAD_REACTORS
330
71F
102
}
330
71F
100
AcDbXrecord
280
     1
270
     1
271
     1
  0
XRECORD
  5
724
102
{ACAD_REACTORS
330
71F
102
}
330
71F
100
AcDbXrecord
280
     1
270
     1
271
     1
  0
XRECORD
  5
723
102
{ACAD_REACTORS
330
71F
102
}
330
71F
100
AcDbXrecord
280
     1
270
     1
271
     1
  0
XRECORD
  5
725
102
{ACAD_REACTORS
330
71F
102
}
330
71F
100
AcDbXrecord
280
     1
270
     1
271
     1
  0
XRECORD
  5
722
102
{ACAD_REACTORS
330
71F
102
}
330
71F
100
AcDbXrecord
280
     1
270
     1
271
     1
  0
XRECORD
  5
80B
102
{ACAD_REACTORS
330
717
102
}
330
717
100
AcDbXrecord
280
     1
102
MATERIAL
148
0.0
149
0.0
149
0.0
 93
        0
 94
      127
282
     0
 72
     0
 77
     0
171
     0
175
     0
179
     0
273
     0
  0
XRECORD
  5
719
102
{ACAD_REACTORS
330
717
102
}
330
717
100
AcDbXrecord
280
     1
270
     1
271
     1
  0
XRECORD
  5
718
102
{ACAD_REACTORS
330
717
102
}
330
717
100
AcDbXrecord
280
     1
270
     1
271
     1
  0
XRECORD
  5
71C
102
{ACAD_REACTORS
330
717
102
}
330
717
100
AcDbXrecord
280
     1
270
     1
271
     1
  0
XRECORD
  5
71B
102
{ACAD_REACTORS
330
717
102
}
330
717
100
AcDbXrecord
280
     1
270
     1
271
     1
  0
XRECORD
  5
71D
102
{ACAD_REACTORS
330
717
102
}
330
717
100
AcDbXrecord
280
     1
270
     1
271
     1
  0
XRECORD
  5
71A
102
{ACAD_REACTORS
330
717
102
}
330
717
100
AcDbXrecord
280
     1
270
     1
271
     1
  0
XRECORD
  5
80D
102
{ACAD_REACTORS
330
727
102
}
330
727
100
AcDbXrecord
280
     1
102
MATERIAL
148
0.0
149
0.0
149
0.0
 93
        0
 94
      127
282
     0
 72
     0
 77
     0
171
     0
175
     0
179
     0
273
     0
  0
XRECORD
  5
729
102
{ACAD_REACTORS
330
727
102
}
330
727
100
AcDbXrecord
280
     1
270
     1
271
     1
  0
XRECORD
  5
728
102
{ACAD_REACTORS
330
727
102
}
330
727
100
AcDbXrecord
280
     1
270
     1
271
     1
  0
XRECORD
  5
72C
102
{ACAD_REACTORS
330
727
102
}
330
727
100
AcDbXrecord
280
     1
270
     1
271
     1
  0
XRECORD
  5
72B
102
{ACAD_REACTORS
330
727
102
}
330
727
100
AcDbXrecord
280
     1
270
     1
271
     1
  0
XRECORD
  5
72D
102
{ACAD_REACTORS
330
727
102
}
330
727
100
AcDbXrecord
280
     1
270
     1
271
     1
  0
XRECORD
  5
72A
102
{ACAD_REACTORS
330
727
102
}
330
727
100
AcDbXrecord
280
     1
270
     1
271
     1
  0
XRECORD
  5
997
102
{ACAD_REACTORS
330
996
102
}
330
996
100
AcDbXrecord
280
     1
102
DISPLAYNAME
  1
Imperial24
102
FLAGS
 90
        0
  0
CELLSTYLEMAP
  5
962
102
{ACAD_REACTORS
330
806
102
}
330
806
100
AcDbCellStyleMap
 90
        3
300
CELLSTYLE
  1
TABLEFORMAT_BEGIN
 90
        5
170
     1
 91
        0
 92
    32768
 62
   257
 93
        1
300
CONTENTFORMAT
  1
CONTENTFORMAT_BEGIN
 90
        0
 91
        0
 92
      512
 93
        0
300

 40
0.0
140
1.0
 94
        5
 62
     0
340
75A
144
0.25
309
CONTENTFORMAT_END
171
     1
301
MARGIN
  1
CELLMARGIN_BEGIN
 40
0.06
 40
0.06
 40
0.06
 40
0.06
 40
0.18
 40
0.18
309
CELLMARGIN_END
 94
        6
 95
        1
302
GRIDFORMAT
  1
GRIDFORMAT_BEGIN
 90
        0
 91
        1
 62
     0
 92
       -2
340
0
 93
        0
 40
0.045
309
GRIDFORMAT_END
 95
        2
302
GRIDFORMAT
  1
GRIDFORMAT_BEGIN
 90
        0
 91
        1
 62
     0
 92
       -2
340
0
 93
        0
 40
0.045
309
GRIDFORMAT_END
 95
        4
302
GRIDFORMAT
  1
GRIDFORMAT_BEGIN
 90
        0
 91
        1
 62
     0
 92
       -2
340
0
 93
        0
 40
0.045
309
GRIDFORMAT_END
 95
        8
302
GRIDFORMAT
  1
GRIDFORMAT_BEGIN
 90
        0
 91
        1
 62
     0
 92
       -2
340
0
 93
        0
 40
0.045
309
GRIDFORMAT_END
 95
       16
302
GRIDFORMAT
  1
GRIDFORMAT_BEGIN
 90
        0
 91
        1
 62
     0
 92
       -2
340
0
 93
        0
 40
0.045
309
GRIDFORMAT_END
 95
       32
302
GRIDFORMAT
  1
GRIDFORMAT_BEGIN
 90
        0
 91
        1
 62
     0
 92
       -2
340
0
 93
        0
 40
0.045
309
GRIDFORMAT_END
309
TABLEFORMAT_END
  1
CELLSTYLE_BEGIN
 90
        1
 91
        1
300
_TITLE
309
CELLSTYLE_END
300
CELLSTYLE
  1
TABLEFORMAT_BEGIN
 90
        5
170
     1
 91
        0
 92
        0
 62
   257
 93
        1
300
CONTENTFORMAT
  1
CONTENTFORMAT_BEGIN
 90
        0
 91
        0
 92
      512
 93
        0
300

 40
0.0
140
1.0
 94
        5
 62
     0
340
75A
144
0.18
309
CONTENTFORMAT_END
171
     1
301
MARGIN
  1
CELLMARGIN_BEGIN
 40
0.06
 40
0.06
 40
0.06
 40
0.06
 40
0.18
 40
0.18
309
CELLMARGIN_END
 94
        6
 95
        1
302
GRIDFORMAT
  1
GRIDFORMAT_BEGIN
 90
        0
 91
        1
 62
     0
 92
       -2
340
0
 93
        0
 40
0.045
309
GRIDFORMAT_END
 95
        2
302
GRIDFORMAT
  1
GRIDFORMAT_BEGIN
 90
        0
 91
        1
 62
     0
 92
       -2
340
0
 93
        0
 40
0.045
309
GRIDFORMAT_END
 95
        4
302
GRIDFORMAT
  1
GRIDFORMAT_BEGIN
 90
        0
 91
        1
 62
     0
 92
       -2
340
0
 93
        0
 40
0.045
309
GRIDFORMAT_END
 95
        8
302
GRIDFORMAT
  1
GRIDFORMAT_BEGIN
 90
        0
 91
        1
 62
     0
 92
       -2
340
0
 93
        0
 40
0.045
309
GRIDFORMAT_END
 95
       16
302
GRIDFORMAT
  1
GRIDFORMAT_BEGIN
 90
        0
 91
        1
 62
     0
 92
       -2
340
0
 93
        0
 40
0.045
309
GRIDFORMAT_END
 95
       32
302
GRIDFORMAT
  1
GRIDFORMAT_BEGIN
 90
        0
 91
        1
 62
     0
 92
       -2
340
0
 93
        0
 40
0.045
309
GRIDFORMAT_END
309
TABLEFORMAT_END
  1
CELLSTYLE_BEGIN
 90
        2
 91
        1
300
_HEADER
309
CELLSTYLE_END
300
CELLSTYLE
  1
TABLEFORMAT_BEGIN
 90
        5
170
     1
 91
        0
 92
        0
 62
   257
 93
        1
300
CONTENTFORMAT
  1
CONTENTFORMAT_BEGIN
 90
        0
 91
        0
 92
      512
 93
        0
300

 40
0.0
140
1.0
 94
        2
 62
     0
340
75A
144
0.18
309
CONTENTFORMAT_END
171
     1
301
MARGIN
  1
CELLMARGIN_BEGIN
 40
0.06
 40
0.06
 40
0.06
 40
0.06
 40
0.18
 40
0.18
309
CELLMARGIN_END
 94
        6
 95
        1
302
GRIDFORMAT
  1
GRIDFORMAT_BEGIN
 90
        0
 91
        1
 62
     0
 92
       -2
340
0
 93
        0
 40
0.045
309
GRIDFORMAT_END
 95
        2
302
GRIDFORMAT
  1
GRIDFORMAT_BEGIN
 90
        0
 91
        1
 62
     0
 92
       -2
340
0
 93
        0
 40
0.045
309
GRIDFORMAT_END
 95
        4
302
GRIDFORMAT
  1
GRIDFORMAT_BEGIN
 90
        0
 91
        1
 62
     0
 92
       -2
340
0
 93
        0
 40
0.045
309
GRIDFORMAT_END
 95
        8
302
GRIDFORMAT
  1
GRIDFORMAT_BEGIN
 90
        0
 91
        1
 62
     0
 92
       -2
340
0
 93
        0
 40
0.045
309
GRIDFORMAT_END
 95
       16
302
GRIDFORMAT
  1
GRIDFORMAT_BEGIN
 90
        0
 91
        1
 62
     0
 92
       -2
340
0
 93
        0
 40
0.045
309
GRIDFORMAT_END
 95
       32
302
GRIDFORMAT
  1
GRIDFORMAT_BEGIN
 90
        0
 91
        1
 62
     0
 92
       -2
340
0
 93
        0
 40
0.045
309
GRIDFORMAT_END
309
TABLEFORMAT_END
  1
CELLSTYLE_BEGIN
 90
        3
 91
        2
300
_DATA
309
CELLSTYLE_END
  0
XRECORD
  5
995
102
{ACAD_REACTORS
330
806
102
}
330
806
100
AcDbXrecord
280
     1
102
ACAD_ROUNDTRIP_PRE2007_TABLESTYLE
 90
      512
 91
        0
  1

 92
      512
 93
        0
  2

 94
      512
 95
        0
  3

  0
XRECORD
  5
970
102
{ACAD_REACTORS
330
96F
102
}
330
96F
100
AcDbXrecord
280
     1
102
RTVSPost2010Prop28
280
     1
102
RTVSPost2010PropOp28
 70
     1
102
RTVSPost2010Prop29
280
     1
102
RTVSPost2010PropOp29
 70
     1
102
RTVSPost2010Prop30
280
     0
102
RTVSPost2010PropOp30
 70
     1
102
RTVSPost2010Prop31
280
     0
102
RTVSPost2010PropOp31
 70
     1
102
RTVSPost2010Prop32
280
     0
102
RTVSPost2010PropOp32
 70
     1
102
RTVSPost2010Prop33
280
     0
102
RTVSPost2010PropOp33
 70
     1
102
RTVSPost2010Prop34
280
     0
102
RTVSPost2010PropOp34
 70
     1
102
RTVSPost2010Prop35
280
     0
102
RTVSPost2010PropOp35
 70
     1
102
RTVSPost2010Prop36
280
     0
102
RTVSPost2010PropOp36
 70
     1
102
RTVSPost2010Prop37
 90
       50
102
RTVSPost2010PropOp37
 70
     1
102
RTVSPost2010Prop38
140
0.0
102
RTVSPost2010PropOp38
 70
     1
102
RTVSPost2010Prop39
140
1.0
102
RTVSPost2010PropOp39
 70
     1
102
RTVSPost2010Prop40
 90
        0
102
RTVSPost2010PropOp40
 70
     1
102
RTVSPost2010Prop41ColorIndex
 90
       18
102
RTVSPost2010Prop41ColorRGB
 90
        0
102
RTVSPost2010PropOp41
 70
     1
102
RTVSPost2010Prop42
 90
       50
102
RTVSPost2010PropOp42
 70
     1
102
RTVSPost2010Prop43
 90
        3
102
RTVSPost2010PropOp43
 70
     1
102
RTVSPost2010Prop44ColorIndex
 90
        5
102
RTVSPost2010Prop44ColorRGB
 90
      255
102
RTVSPost2010PropOp44
 70
     1
102
RTVSPost2010Prop45
280
     0
102
RTVSPost2010PropOp45
 70
     1
102
RTVSPost2010Prop46
 90
       50
102
RTVSPost2010PropOp46
 70
     1
102
RTVSPost2010Prop47
 90
       50
102
RTVSPost2010PropOp47
 70
     1
102
RTVSPost2010Prop48
 90
       50
102
RTVSPost2010PropOp48
 70
     1
102
RTVSPost2010Prop49
280
     0
102
RTVSPost2010PropOp49
 70
     1
102
RTVSPost2010Prop50
 90
       50
102
RTVSPost2010PropOp50
 70
     1
102
RTVSPost2010Prop51ColorIndex
 90
      256
102
RTVSPost2010Prop51ColorRGB
 90
-16777216
102
RTVSPost2010PropOp51
 70
     0
102
RTVSPost2010Prop52
140
1.0
102
RTVSPost2010PropOp52
 70
     0
102
RTVSPost2010Prop53
 90
        2
102
RTVSPost2010PropOp53
 70
     1
102
RTVSPost2010Prop54
  1
strokes_ogs.tif
102
RTVSPost2010PropOp54
 70
     1
102
RTVSPost2010Prop55
280
     0
102
RTVSPost2010PropOp55
 70
     1
102
RTVSPost2010Prop56
140
1.0
102
RTVSPost2010PropOp56
 70
     1
102
RTVSPost2010Prop57
140
1.0
102
RTVSPost2010PropOp57
 70
     1
102
RTVSPropertyOp0
 70
     1
102
RTVSPropertyOp1
 70
     1
102
RTVSPropertyOp2
 70
     1
102
RTVSPropertyOp3
 70
     1
102
RTVSPropertyOp4
 70
     1
102
RTVSPropertyOp5
 70
     1
102
RTVSPropertyOp6
 70
     1
102
RTVSPropertyOp7
 70
     1
102
RTVSPropertyOp8
 70
     1
102
RTVSPropertyOp9
 70
     1
102
RTVSPropertyOp10
 70
     1
102
RTVSPropertyOp11
 70
     1
102
RTVSPropertyOp12
 70
     1
102
RTVSPropertyOp13
 70
     1
102
RTVSPropertyOp14
 70
     1
102
RTVSPropertyOp15
 70
     1
102
RTVSPropertyOp16
 70
     1
102
RTVSPropertyOp17
 70
     1
102
RTVSPropertyOp18
 70
     1
102
RTVSPropertyOp19
 70
     1
102
RTVSPropertyOp20
 70
     1
102
RTVSPropertyOp21
 70
     1
102
RTVSPropertyOp22
 70
     1
102
RTVSPropertyOp23
 70
     1
102
RTVSPropertyOp24
 70
     1
102
RTVSPropertyOp25
 70
     1
102
RTVSPropertyOp26
 70
     1
102
RTVSPropertyOp27
 70
     1
102
RTVSPropertyOp28
 70
     1
102
RTVSPropertyOp29
 70
     1
102
RTVSPropertyOp30
 70
     1
102
RTVSPropertyOp31
 70
     1
102
RTVSPropertyOp32
 70
     1
102
RTVSPropertyOp33
 70
     1
102
RTVSPropertyOp34
 70
     1
102
RTVSPropertyOp35
 70
     1
102
RTVSPropertyOp36
 70
     1
102
RTVSPropertyOp37
 70
     1
102
RTVSPropertyOp38
 70
     1
102
RTVSPropertyOp39
 70
     1
102
RTVSPropertyOp40
 70
     1
102
RTVSPropertyOp41
 70
     1
102
RTVSPropertyOp42
 70
     1
102
RTVSPropertyOp43
 70
     1
102
RTVSPropertyOp44
 70
     1
102
RTVSPropertyOp45
 70
     1
102
RTVSPropertyOp46
 70
     1
102
RTVSPropertyOp47
 70
     1
102
RTVSPropertyOp48
 70
     1
102
RTVSPropertyOp49
 70
     1
102
RTVSPropertyOp50
 70
     1
102
RTVSPropertyOp51
 70
     0
102
RTVSPropertyOp52
 70
     0
102
RTVSPropertyOp53
 70
     1
102
RTVSPropertyOp54
 70
     1
102
RTVSPropertyOp55
 70
     1
102
RTVSPropertyOp56
 70
     1
102
RTVSPropertyOp57
 70
     1
102
RTVSPropertyOp58
 70
     1
102
RTVSPropertyOp59
 70
     1
102
RTVSPropertyOp60
 70
     1
102
RTVSPropertyOp61
 70
     1
102
RTVSPropertyOp62
 70
     1
  0
XRECORD
  5
96E
102
{ACAD_REACTORS
330
96D
102
}
330
96D
100
AcDbXrecord
280
     1
102
RTVSPost2010Prop28
280
     0
102
RTVSPost2010PropOp28
 70
     1
102
RTVSPost2010Prop29
280
     1
102
RTVSPost2010PropOp29
 70
     1
102
RTVSPost2010Prop30
280
     1
102
RTVSPost2010PropOp30
 70
     1
102
RTVSPost2010Prop31
280
     0
102
RTVSPost2010PropOp31
 70
     1
102
RTVSPost2010Prop32
280
     0
102
RTVSPost2010PropOp32
 70
     1
102
RTVSPost2010Prop33
280
     0
102
RTVSPost2010PropOp33
 70
     1
102
RTVSPost2010Prop34
280
     0
102
RTVSPost2010PropOp34
 70
     1
102
RTVSPost2010Prop35
280
     0
102
RTVSPost2010PropOp35
 70
     1
102
RTVSPost2010Prop36
280
     0
102
RTVSPost2010PropOp36
 70
     1
102
RTVSPost2010Prop37
 90
       50
102
RTVSPost2010PropOp37
 70
     1
102
RTVSPost2010Prop38
140
0.0
102
RTVSPost2010PropOp38
 70
     1
102
RTVSPost2010Prop39
140
1.0
102
RTVSPost2010PropOp39
 70
     1
102
RTVSPost2010Prop40
 90
        0
102
RTVSPost2010PropOp40
 70
     1
102
RTVSPost2010Prop41ColorIndex
 90
       18
102
RTVSPost2010Prop41ColorRGB
 90
        0
102
RTVSPost2010PropOp41
 70
     1
102
RTVSPost2010Prop42
 90
       50
102
RTVSPost2010PropOp42
 70
     1
102
RTVSPost2010Prop43
 90
        3
102
RTVSPost2010PropOp43
 70
     1
102
RTVSPost2010Prop44ColorIndex
 90
        5
102
RTVSPost2010Prop44ColorRGB
 90
      255
102
RTVSPost2010PropOp44
 70
     1
102
RTVSPost2010Prop45
280
     0
102
RTVSPost2010PropOp45
 70
     1
102
RTVSPost2010Prop46
 90
       50
102
RTVSPost2010PropOp46
 70
     1
102
RTVSPost2010Prop47
 90
       50
102
RTVSPost2010PropOp47
 70
     1
102
RTVSPost2010Prop48
 90
       50
102
RTVSPost2010PropOp48
 70
     1
102
RTVSPost2010Prop49
280
     0
102
RTVSPost2010PropOp49
 70
     1
102
RTVSPost2010Prop50
 90
       50
102
RTVSPost2010PropOp50
 70
     1
102
RTVSPost2010Prop51ColorIndex
 90
      256
102
RTVSPost2010Prop51ColorRGB
 90
-16777216
102
RTVSPost2010PropOp51
 70
     0
102
RTVSPost2010Prop52
140
1.0
102
RTVSPost2010PropOp52
 70
     0
102
RTVSPost2010Prop53
 90
        2
102
RTVSPost2010PropOp53
 70
     1
102
RTVSPost2010Prop54
  1
strokes_ogs.tif
102
RTVSPost2010PropOp54
 70
     1
102
RTVSPost2010Prop55
280
     0
102
RTVSPost2010PropOp55
 70
     1
102
RTVSPost2010Prop56
140
1.0
102
RTVSPost2010PropOp56
 70
     1
102
RTVSPost2010Prop57
140
1.0
102
RTVSPost2010PropOp57
 70
     1
102
RTVSPropertyOp0
 70
     1
102
RTVSPropertyOp1
 70
     1
102
RTVSPropertyOp2
 70
     1
102
RTVSPropertyOp3
 70
     1
102
RTVSPropertyOp4
 70
     1
102
RTVSPropertyOp5
 70
     1
102
RTVSPropertyOp6
 70
     1
102
RTVSPropertyOp7
 70
     1
102
RTVSPropertyOp8
 70
     1
102
RTVSPropertyOp9
 70
     1
102
RTVSPropertyOp10
 70
     1
102
RTVSPropertyOp11
 70
     1
102
RTVSPropertyOp12
 70
     1
102
RTVSPropertyOp13
 70
     1
102
RTVSPropertyOp14
 70
     1
102
RTVSPropertyOp15
 70
     1
102
RTVSPropertyOp16
 70
     1
102
RTVSPropertyOp17
 70
     1
102
RTVSPropertyOp18
 70
     1
102
RTVSPropertyOp19
 70
     1
102
RTVSPropertyOp20
 70
     1
102
RTVSPropertyOp21
 70
     1
102
RTVSPropertyOp22
 70
     1
102
RTVSPropertyOp23
 70
     1
102
RTVSPropertyOp24
 70
     1
102
RTVSPropertyOp25
 70
     1
102
RTVSPropertyOp26
 70
     1
102
RTVSPropertyOp27
 70
     1
102
RTVSPropertyOp28
 70
     1
102
RTVSPropertyOp29
 70
     1
102
RTVSPropertyOp30
 70
     1
102
RTVSPropertyOp31
 70
     1
102
RTVSPropertyOp32
 70
     1
102
RTVSPropertyOp33
 70
     1
102
RTVSPropertyOp34
 70
     1
102
RTVSPropertyOp35
 70
     1
102
RTVSPropertyOp36
 70
     1
102
RTVSPropertyOp37
 70
     1
102
RTVSPropertyOp38
 70
     1
102
RTVSPropertyOp39
 70
     1
102
RTVSPropertyOp40
 70
     1
102
RTVSPropertyOp41
 70
     1
102
RTVSPropertyOp42
 70
     1
102
RTVSPropertyOp43
 70
     1
102
RTVSPropertyOp44
 70
     1
102
RTVSPropertyOp45
 70
     1
102
RTVSPropertyOp46
 70
     1
102
RTVSPropertyOp47
 70
     1
102
RTVSPropertyOp48
 70
     1
102
RTVSPropertyOp49
 70
     1
102
RTVSPropertyOp50
 70
     1
102
RTVSPropertyOp51
 70
     0
102
RTVSPropertyOp52
 70
     0
102
RTVSPropertyOp53
 70
     1
102
RTVSPropertyOp54
 70
     1
102
RTVSPropertyOp55
 70
     1
102
RTVSPropertyOp56
 70
     1
102
RTVSPropertyOp57
 70
     1
102
RTVSPropertyOp58
 70
     1
102
RTVSPropertyOp59
 70
     1
102
RTVSPropertyOp60
 70
     1
102
RTVSPropertyOp61
 70
     1
102
RTVSPropertyOp62
 70
     1
  0
XRECORD
  5
97C
102
{ACAD_REACTORS
330
97B
102
}
330
97B
100
AcDbXrecord
280
     1
102
RTVSPost2010Prop28
280
     0
102
RTVSPost2010PropOp28
 70
     1
102
RTVSPost2010Prop29
280
     1
102
RTVSPost2010PropOp29
 70
     1
102
RTVSPost2010Prop30
280
     1
102
RTVSPost2010PropOp30
 70
     1
102
RTVSPost2010Prop31
280
     0
102
RTVSPost2010PropOp31
 70
     1
102
RTVSPost2010Prop32
280
     0
102
RTVSPost2010PropOp32
 70
     1
102
RTVSPost2010Prop33
280
     0
102
RTVSPost2010PropOp33
 70
     1
102
RTVSPost2010Prop34
280
     0
102
RTVSPost2010PropOp34
 70
     1
102
RTVSPost2010Prop35
280
     0
102
RTVSPost2010PropOp35
 70
     1
102
RTVSPost2010Prop36
280
     0
102
RTVSPost2010PropOp36
 70
     1
102
RTVSPost2010Prop37
 90
       50
102
RTVSPost2010PropOp37
 70
     1
102
RTVSPost2010Prop38
140
0.0
102
RTVSPost2010PropOp38
 70
     1
102
RTVSPost2010Prop39
140
1.0
102
RTVSPost2010PropOp39
 70
     1
102
RTVSPost2010Prop40
 90
        0
102
RTVSPost2010PropOp40
 70
     1
102
RTVSPost2010Prop41ColorIndex
 90
       18
102
RTVSPost2010Prop41ColorRGB
 90
        0
102
RTVSPost2010PropOp41
 70
     1
102
RTVSPost2010Prop42
 90
       50
102
RTVSPost2010PropOp42
 70
     1
102
RTVSPost2010Prop43
 90
        3
102
RTVSPost2010PropOp43
 70
     1
102
RTVSPost2010Prop44ColorIndex
 90
        5
102
RTVSPost2010Prop44ColorRGB
 90
      255
102
RTVSPost2010PropOp44
 70
     1
102
RTVSPost2010Prop45
280
     0
102
RTVSPost2010PropOp45
 70
     1
102
RTVSPost2010Prop46
 90
       50
102
RTVSPost2010PropOp46
 70
     1
102
RTVSPost2010Prop47
 90
       50
102
RTVSPost2010PropOp47
 70
     1
102
RTVSPost2010Prop48
 90
       50
102
RTVSPost2010PropOp48
 70
     1
102
RTVSPost2010Prop49
280
     0
102
RTVSPost2010PropOp49
 70
     1
102
RTVSPost2010Prop50
 90
       50
102
RTVSPost2010PropOp50
 70
     1
102
RTVSPost2010Prop51ColorIndex
 90
      256
102
RTVSPost2010Prop51ColorRGB
 90
-16777216
102
RTVSPost2010PropOp51
 70
     0
102
RTVSPost2010Prop52
140
1.0
102
RTVSPost2010PropOp52
 70
     0
102
RTVSPost2010Prop53
 90
        2
102
RTVSPost2010PropOp53
 70
     1
102
RTVSPost2010Prop54
  1
strokes_ogs.tif
102
RTVSPost2010PropOp54
 70
     1
102
RTVSPost2010Prop55
280
     0
102
RTVSPost2010PropOp55
 70
     1
102
RTVSPost2010Prop56
140
1.0
102
RTVSPost2010PropOp56
 70
     1
102
RTVSPost2010Prop57
140
1.0
102
RTVSPost2010PropOp57
 70
     1
102
RTVSPropertyOp0
 70
     1
102
RTVSPropertyOp1
 70
     1
102
RTVSPropertyOp2
 70
     1
102
RTVSPropertyOp3
 70
     1
102
RTVSPropertyOp4
 70
     1
102
RTVSPropertyOp5
 70
     1
102
RTVSPropertyOp6
 70
     1
102
RTVSPropertyOp7
 70
     1
102
RTVSPropertyOp8
 70
     1
102
RTVSPropertyOp9
 70
     1
102
RTVSPropertyOp10
 70
     1
102
RTVSPropertyOp11
 70
     1
102
RTVSPropertyOp12
 70
     1
102
RTVSPropertyOp13
 70
     1
102
RTVSPropertyOp14
 70
     1
102
RTVSPropertyOp15
 70
     1
102
RTVSPropertyOp16
 70
     1
102
RTVSPropertyOp17
 70
     1
102
RTVSPropertyOp18
 70
     1
102
RTVSPropertyOp19
 70
     1
102
RTVSPropertyOp20
 70
     1
102
RTVSPropertyOp21
 70
     1
102
RTVSPropertyOp22
 70
     1
102
RTVSPropertyOp23
 70
     1
102
RTVSPropertyOp24
 70
     1
102
RTVSPropertyOp25
 70
     1
102
RTVSPropertyOp26
 70
     1
102
RTVSPropertyOp27
 70
     1
102
RTVSPropertyOp28
 70
     1
102
RTVSPropertyOp29
 70
     1
102
RTVSPropertyOp30
 70
     1
102
RTVSPropertyOp31
 70
     1
102
RTVSPropertyOp32
 70
     1
102
RTVSPropertyOp33
 70
     1
102
RTVSPropertyOp34
 70
     1
102
RTVSPropertyOp35
 70
     1
102
RTVSPropertyOp36
 70
     1
102
RTVSPropertyOp37
 70
     1
102
RTVSPropertyOp38
 70
     1
102
RTVSPropertyOp39
 70
     1
102
RTVSPropertyOp40
 70
     1
102
RTVSPropertyOp41
 70
     1
102
RTVSPropertyOp42
 70
     1
102
RTVSPropertyOp43
 70
     1
102
RTVSPropertyOp44
 70
     1
102
RTVSPropertyOp45
 70
     1
102
RTVSPropertyOp46
 70
     1
102
RTVSPropertyOp47
 70
     1
102
RTVSPropertyOp48
 70
     1
102
RTVSPropertyOp49
 70
     1
102
RTVSPropertyOp50
 70
     1
102
RTVSPropertyOp51
 70
     0
102
RTVSPropertyOp52
 70
     0
102
RTVSPropertyOp53
 70
     1
102
RTVSPropertyOp54
 70
     1
102
RTVSPropertyOp55
 70
     1
102
RTVSPropertyOp56
 70
     1
102
RTVSPropertyOp57
 70
     1
102
RTVSPropertyOp58
 70
     1
102
RTVSPropertyOp59
 70
     1
102
RTVSPropertyOp60
 70
     1
102
RTVSPropertyOp61
 70
     1
102
RTVSPropertyOp62
 70
     1
  0
XRECORD
  5
984
102
{ACAD_REACTORS
330
983
102
}
330
983
100
AcDbXrecord
280
     1
102
RTVSPost2010Prop28
280
     0
102
RTVSPost2010PropOp28
 70
     1
102
RTVSPost2010Prop29
280
     1
102
RTVSPost2010PropOp29
 70
     1
102
RTVSPost2010Prop30
280
     1
102
RTVSPost2010PropOp30
 70
     1
102
RTVSPost2010Prop31
280
     0
102
RTVSPost2010PropOp31
 70
     1
102
RTVSPost2010Prop32
280
     0
102
RTVSPost2010PropOp32
 70
     1
102
RTVSPost2010Prop33
280
     0
102
RTVSPost2010PropOp33
 70
     1
102
RTVSPost2010Prop34
280
     0
102
RTVSPost2010PropOp34
 70
     1
102
RTVSPost2010Prop35
280
     0
102
RTVSPost2010PropOp35
 70
     1
102
RTVSPost2010Prop36
280
     0
102
RTVSPost2010PropOp36
 70
     1
102
RTVSPost2010Prop37
 90
       50
102
RTVSPost2010PropOp37
 70
     1
102
RTVSPost2010Prop38
140
0.0
102
RTVSPost2010PropOp38
 70
     1
102
RTVSPost2010Prop39
140
1.0
102
RTVSPost2010PropOp39
 70
     1
102
RTVSPost2010Prop40
 90
        0
102
RTVSPost2010PropOp40
 70
     1
102
RTVSPost2010Prop41ColorIndex
 90
       18
102
RTVSPost2010Prop41ColorRGB
 90
        0
102
RTVSPost2010PropOp41
 70
     1
102
RTVSPost2010Prop42
 90
       50
102
RTVSPost2010PropOp42
 70
     1
102
RTVSPost2010Prop43
 90
        3
102
RTVSPost2010PropOp43
 70
     1
102
RTVSPost2010Prop44ColorIndex
 90
        5
102
RTVSPost2010Prop44ColorRGB
 90
      255
102
RTVSPost2010PropOp44
 70
     1
102
RTVSPost2010Prop45
280
     0
102
RTVSPost2010PropOp45
 70
     1
102
RTVSPost2010Prop46
 90
       50
102
RTVSPost2010PropOp46
 70
     1
102
RTVSPost2010Prop47
 90
       50
102
RTVSPost2010PropOp47
 70
     1
102
RTVSPost2010Prop48
 90
       50
102
RTVSPost2010PropOp48
 70
     1
102
RTVSPost2010Prop49
280
     0
102
RTVSPost2010PropOp49
 70
     1
102
RTVSPost2010Prop50
 90
       50
102
RTVSPost2010PropOp50
 70
     1
102
RTVSPost2010Prop51ColorIndex
 90
      256
102
RTVSPost2010Prop51ColorRGB
 90
-16777216
102
RTVSPost2010PropOp51
 70
     0
102
RTVSPost2010Prop52
140
1.0
102
RTVSPost2010PropOp52
 70
     0
102
RTVSPost2010Prop53
 90
        2
102
RTVSPost2010PropOp53
 70
     1
102
RTVSPost2010Prop54
  1
strokes_ogs.tif
102
RTVSPost2010PropOp54
 70
     1
102
RTVSPost2010Prop55
280
     0
102
RTVSPost2010PropOp55
 70
     1
102
RTVSPost2010Prop56
140
1.0
102
RTVSPost2010PropOp56
 70
     1
102
RTVSPost2010Prop57
140
1.0
102
RTVSPost2010PropOp57
 70
     1
102
RTVSPropertyOp0
 70
     1
102
RTVSPropertyOp1
 70
     1
102
RTVSPropertyOp2
 70
     1
102
RTVSPropertyOp3
 70
     1
102
RTVSPropertyOp4
 70
     1
102
RTVSPropertyOp5
 70
     1
102
RTVSPropertyOp6
 70
     1
102
RTVSPropertyOp7
 70
     1
102
RTVSPropertyOp8
 70
     1
102
RTVSPropertyOp9
 70
     1
102
RTVSPropertyOp10
 70
     1
102
RTVSPropertyOp11
 70
     1
102
RTVSPropertyOp12
 70
     1
102
RTVSPropertyOp13
 70
     1
102
RTVSPropertyOp14
 70
     1
102
RTVSPropertyOp15
 70
     1
102
RTVSPropertyOp16
 70
     1
102
RTVSPropertyOp17
 70
     1
102
RTVSPropertyOp18
 70
     1
102
RTVSPropertyOp19
 70
     1
102
RTVSPropertyOp20
 70
     1
102
RTVSPropertyOp21
 70
     1
102
RTVSPropertyOp22
 70
     1
102
RTVSPropertyOp23
 70
     1
102
RTVSPropertyOp24
 70
     1
102
RTVSPropertyOp25
 70
     1
102
RTVSPropertyOp26
 70
     1
102
RTVSPropertyOp27
 70
     1
102
RTVSPropertyOp28
 70
     1
102
RTVSPropertyOp29
 70
     1
102
RTVSPropertyOp30
 70
     1
102
RTVSPropertyOp31
 70
     1
102
RTVSPropertyOp32
 70
     1
102
RTVSPropertyOp33
 70
     1
102
RTVSPropertyOp34
 70
     1
102
RTVSPropertyOp35
 70
     1
102
RTVSPropertyOp36
 70
     1
102
RTVSPropertyOp37
 70
     1
102
RTVSPropertyOp38
 70
     1
102
RTVSPropertyOp39
 70
     1
102
RTVSPropertyOp40
 70
     1
102
RTVSPropertyOp41
 70
     1
102
RTVSPropertyOp42
 70
     1
102
RTVSPropertyOp43
 70
     1
102
RTVSPropertyOp44
 70
     1
102
RTVSPropertyOp45
 70
     1
102
RTVSPropertyOp46
 70
     1
102
RTVSPropertyOp47
 70
     1
102
RTVSPropertyOp48
 70
     1
102
RTVSPropertyOp49
 70
     1
102
RTVSPropertyOp50
 70
     1
102
RTVSPropertyOp51
 70
     0
102
RTVSPropertyOp52
 70
     0
102
RTVSPropertyOp53
 70
     1
102
RTVSPropertyOp54
 70
     1
102
RTVSPropertyOp55
 70
     1
102
RTVSPropertyOp56
 70
     1
102
RTVSPropertyOp57
 70
     1
102
RTVSPropertyOp58
 70
     1
102
RTVSPropertyOp59
 70
     1
102
RTVSPropertyOp60
 70
     1
102
RTVSPropertyOp61
 70
     1
102
RTVSPropertyOp62
 70
     1
  0
XRECORD
  5
976
102
{ACAD_REACTORS
330
975
102
}
330
975
100
AcDbXrecord
280
     1
102
RTVSPost2010Prop28
280
     0
102
RTVSPost2010PropOp28
 70
     1
102
RTVSPost2010Prop29
280
     1
102
RTVSPost2010PropOp29
 70
     1
102
RTVSPost2010Prop30
280
     1
102
RTVSPost2010PropOp30
 70
     1
102
RTVSPost2010Prop31
280
     0
102
RTVSPost2010PropOp31
 70
     1
102
RTVSPost2010Prop32
280
     0
102
RTVSPost2010PropOp32
 70
     1
102
RTVSPost2010Prop33
280
     0
102
RTVSPost2010PropOp33
 70
     1
102
RTVSPost2010Prop34
280
     0
102
RTVSPost2010PropOp34
 70
     1
102
RTVSPost2010Prop35
280
     0
102
RTVSPost2010PropOp35
 70
     1
102
RTVSPost2010Prop36
280
     0
102
RTVSPost2010PropOp36
 70
     1
102
RTVSPost2010Prop37
 90
       50
102
RTVSPost2010PropOp37
 70
     1
102
RTVSPost2010Prop38
140
0.0
102
RTVSPost2010PropOp38
 70
     1
102
RTVSPost2010Prop39
140
1.0
102
RTVSPost2010PropOp39
 70
     1
102
RTVSPost2010Prop40
 90
        0
102
RTVSPost2010PropOp40
 70
     1
102
RTVSPost2010Prop41ColorIndex
 90
       18
102
RTVSPost2010Prop41ColorRGB
 90
        0
102
RTVSPost2010PropOp41
 70
     1
102
RTVSPost2010Prop42
 90
       50
102
RTVSPost2010PropOp42
 70
     1
102
RTVSPost2010Prop43
 90
        3
102
RTVSPost2010PropOp43
 70
     1
102
RTVSPost2010Prop44ColorIndex
 90
        5
102
RTVSPost2010Prop44ColorRGB
 90
      255
102
RTVSPost2010PropOp44
 70
     1
102
RTVSPost2010Prop45
280
     0
102
RTVSPost2010PropOp45
 70
     1
102
RTVSPost2010Prop46
 90
       50
102
RTVSPost2010PropOp46
 70
     1
102
RTVSPost2010Prop47
 90
       50
102
RTVSPost2010PropOp47
 70
     1
102
RTVSPost2010Prop48
 90
       50
102
RTVSPost2010PropOp48
 70
     1
102
RTVSPost2010Prop49
280
     0
102
RTVSPost2010PropOp49
 70
     1
102
RTVSPost2010Prop50
 90
       50
102
RTVSPost2010PropOp50
 70
     1
102
RTVSPost2010Prop51ColorIndex
 90
      256
102
RTVSPost2010Prop51ColorRGB
 90
-16777216
102
RTVSPost2010PropOp51
 70
     0
102
RTVSPost2010Prop52
140
1.0
102
RTVSPost2010PropOp52
 70
     0
102
RTVSPost2010Prop53
 90
        2
102
RTVSPost2010PropOp53
 70
     1
102
RTVSPost2010Prop54
  1
strokes_ogs.tif
102
RTVSPost2010PropOp54
 70
     1
102
RTVSPost2010Prop55
280
     0
102
RTVSPost2010PropOp55
 70
     1
102
RTVSPost2010Prop56
140
1.0
102
RTVSPost2010PropOp56
 70
     1
102
RTVSPost2010Prop57
140
1.0
102
RTVSPost2010PropOp57
 70
     1
102
RTVSPropertyOp0
 70
     1
102
RTVSPropertyOp1
 70
     1
102
RTVSPropertyOp2
 70
     1
102
RTVSPropertyOp3
 70
     1
102
RTVSPropertyOp4
 70
     1
102
RTVSPropertyOp5
 70
     1
102
RTVSPropertyOp6
 70
     1
102
RTVSPropertyOp7
 70
     1
102
RTVSPropertyOp8
 70
     1
102
RTVSPropertyOp9
 70
     1
102
RTVSPropertyOp10
 70
     1
102
RTVSPropertyOp11
 70
     1
102
RTVSPropertyOp12
 70
     1
102
RTVSPropertyOp13
 70
     1
102
RTVSPropertyOp14
 70
     1
102
RTVSPropertyOp15
 70
     1
102
RTVSPropertyOp16
 70
     1
102
RTVSPropertyOp17
 70
     1
102
RTVSPropertyOp18
 70
     1
102
RTVSPropertyOp19
 70
     1
102
RTVSPropertyOp20
 70
     1
102
RTVSPropertyOp21
 70
     1
102
RTVSPropertyOp22
 70
     1
102
RTVSPropertyOp23
 70
     1
102
RTVSPropertyOp24
 70
     1
102
RTVSPropertyOp25
 70
     1
102
RTVSPropertyOp26
 70
     1
102
RTVSPropertyOp27
 70
     1
102
RTVSPropertyOp28
 70
     1
102
RTVSPropertyOp29
 70
     1
102
RTVSPropertyOp30
 70
     1
102
RTVSPropertyOp31
 70
     1
102
RTVSPropertyOp32
 70
     1
102
RTVSPropertyOp33
 70
     1
102
RTVSPropertyOp34
 70
     1
102
RTVSPropertyOp35
 70
     1
102
RTVSPropertyOp36
 70
     1
102
RTVSPropertyOp37
 70
     1
102
RTVSPropertyOp38
 70
     1
102
RTVSPropertyOp39
 70
     1
102
RTVSPropertyOp40
 70
     1
102
RTVSPropertyOp41
 70
     1
102
RTVSPropertyOp42
 70
     1
102
RTVSPropertyOp43
 70
     1
102
RTVSPropertyOp44
 70
     1
102
RTVSPropertyOp45
 70
     1
102
RTVSPropertyOp46
 70
     1
102
RTVSPropertyOp47
 70
     1
102
RTVSPropertyOp48
 70
     1
102
RTVSPropertyOp49
 70
     1
102
RTVSPropertyOp50
 70
     1
102
RTVSPropertyOp51
 70
     0
102
RTVSPropertyOp52
 70
     0
102
RTVSPropertyOp53
 70
     1
102
RTVSPropertyOp54
 70
     1
102
RTVSPropertyOp55
 70
     1
102
RTVSPropertyOp56
 70
     1
102
RTVSPropertyOp57
 70
     1
102
RTVSPropertyOp58
 70
     1
102
RTVSPropertyOp59
 70
     1
102
RTVSPropertyOp60
 70
     1
102
RTVSPropertyOp61
 70
     1
102
RTVSPropertyOp62
 70
     1
  0
XRECORD
  5
97A
102
{ACAD_REACTORS
330
979
102
}
330
979
100
AcDbXrecord
280
     1
102
RTVSPost2010Prop28
280
     0
102
RTVSPost2010PropOp28
 70
     1
102
RTVSPost2010Prop29
280
     1
102
RTVSPost2010PropOp29
 70
     1
102
RTVSPost2010Prop30
280
     1
102
RTVSPost2010PropOp30
 70
     1
102
RTVSPost2010Prop31
280
     0
102
RTVSPost2010PropOp31
 70
     1
102
RTVSPost2010Prop32
280
     0
102
RTVSPost2010PropOp32
 70
     1
102
RTVSPost2010Prop33
280
     0
102
RTVSPost2010PropOp33
 70
     1
102
RTVSPost2010Prop34
280
     0
102
RTVSPost2010PropOp34
 70
     1
102
RTVSPost2010Prop35
280
     0
102
RTVSPost2010PropOp35
 70
     1
102
RTVSPost2010Prop36
280
     0
102
RTVSPost2010PropOp36
 70
     1
102
RTVSPost2010Prop37
 90
       50
102
RTVSPost2010PropOp37
 70
     1
102
RTVSPost2010Prop38
140
0.0
102
RTVSPost2010PropOp38
 70
     1
102
RTVSPost2010Prop39
140
1.0
102
RTVSPost2010PropOp39
 70
     1
102
RTVSPost2010Prop40
 90
        0
102
RTVSPost2010PropOp40
 70
     1
102
RTVSPost2010Prop41ColorIndex
 90
       18
102
RTVSPost2010Prop41ColorRGB
 90
        0
102
RTVSPost2010PropOp41
 70
     1
102
RTVSPost2010Prop42
 90
       50
102
RTVSPost2010PropOp42
 70
     1
102
RTVSPost2010Prop43
 90
        3
102
RTVSPost2010PropOp43
 70
     1
102
RTVSPost2010Prop44ColorIndex
 90
        5
102
RTVSPost2010Prop44ColorRGB
 90
      255
102
RTVSPost2010PropOp44
 70
     1
102
RTVSPost2010Prop45
280
     0
102
RTVSPost2010PropOp45
 70
     1
102
RTVSPost2010Prop46
 90
       50
102
RTVSPost2010PropOp46
 70
     1
102
RTVSPost2010Prop47
 90
       50
102
RTVSPost2010PropOp47
 70
     1
102
RTVSPost2010Prop48
 90
       50
102
RTVSPost2010PropOp48
 70
     1
102
RTVSPost2010Prop49
280
     0
102
RTVSPost2010PropOp49
 70
     1
102
RTVSPost2010Prop50
 90
       50
102
RTVSPost2010PropOp50
 70
     1
102
RTVSPost2010Prop51ColorIndex
 90
      256
102
RTVSPost2010Prop51ColorRGB
 90
-16777216
102
RTVSPost2010PropOp51
 70
     0
102
RTVSPost2010Prop52
140
1.0
102
RTVSPost2010PropOp52
 70
     0
102
RTVSPost2010Prop53
 90
        2
102
RTVSPost2010PropOp53
 70
     1
102
RTVSPost2010Prop54
  1
strokes_ogs.tif
102
RTVSPost2010PropOp54
 70
     1
102
RTVSPost2010Prop55
280
     0
102
RTVSPost2010PropOp55
 70
     1
102
RTVSPost2010Prop56
140
1.0
102
RTVSPost2010PropOp56
 70
     1
102
RTVSPost2010Prop57
140
1.0
102
RTVSPost2010PropOp57
 70
     1
102
RTVSPropertyOp0
 70
     1
102
RTVSPropertyOp1
 70
     1
102
RTVSPropertyOp2
 70
     1
102
RTVSPropertyOp3
 70
     1
102
RTVSPropertyOp4
 70
     1
102
RTVSPropertyOp5
 70
     1
102
RTVSPropertyOp6
 70
     1
102
RTVSPropertyOp7
 70
     1
102
RTVSPropertyOp8
 70
     1
102
RTVSPropertyOp9
 70
     1
102
RTVSPropertyOp10
 70
     1
102
RTVSPropertyOp11
 70
     1
102
RTVSPropertyOp12
 70
     1
102
RTVSPropertyOp13
 70
     1
102
RTVSPropertyOp14
 70
     1
102
RTVSPropertyOp15
 70
     1
102
RTVSPropertyOp16
 70
     1
102
RTVSPropertyOp17
 70
     1
102
RTVSPropertyOp18
 70
     1
102
RTVSPropertyOp19
 70
     1
102
RTVSPropertyOp20
 70
     1
102
RTVSPropertyOp21
 70
     1
102
RTVSPropertyOp22
 70
     1
102
RTVSPropertyOp23
 70
     1
102
RTVSPropertyOp24
 70
     1
102
RTVSPropertyOp25
 70
     1
102
RTVSPropertyOp26
 70
     1
102
RTVSPropertyOp27
 70
     1
102
RTVSPropertyOp28
 70
     1
102
RTVSPropertyOp29
 70
     1
102
RTVSPropertyOp30
 70
     1
102
RTVSPropertyOp31
 70
     1
102
RTVSPropertyOp32
 70
     1
102
RTVSPropertyOp33
 70
     1
102
RTVSPropertyOp34
 70
     1
102
RTVSPropertyOp35
 70
     1
102
RTVSPropertyOp36
 70
     1
102
RTVSPropertyOp37
 70
     1
102
RTVSPropertyOp38
 70
     1
102
RTVSPropertyOp39
 70
     1
102
RTVSPropertyOp40
 70
     1
102
RTVSPropertyOp41
 70
     1
102
RTVSPropertyOp42
 70
     1
102
RTVSPropertyOp43
 70
     1
102
RTVSPropertyOp44
 70
     1
102
RTVSPropertyOp45
 70
     1
102
RTVSPropertyOp46
 70
     1
102
RTVSPropertyOp47
 70
     1
102
RTVSPropertyOp48
 70
     1
102
RTVSPropertyOp49
 70
     1
102
RTVSPropertyOp50
 70
     1
102
RTVSPropertyOp51
 70
     0
102
RTVSPropertyOp52
 70
     0
102
RTVSPropertyOp53
 70
     1
102
RTVSPropertyOp54
 70
     1
102
RTVSPropertyOp55
 70
     1
102
RTVSPropertyOp56
 70
     1
102
RTVSPropertyOp57
 70
     1
102
RTVSPropertyOp58
 70
     1
102
RTVSPropertyOp59
 70
     1
102
RTVSPropertyOp60
 70
     1
102
RTVSPropertyOp61
 70
     1
102
RTVSPropertyOp62
 70
     1
  0
XRECORD
  5
994
102
{ACAD_REACTORS
330
993
102
}
330
993
100
AcDbXrecord
280
     1
102
RTVSPost2010Prop28
280
     0
102
RTVSPost2010PropOp28
 70
     1
102
RTVSPost2010Prop29
280
     1
102
RTVSPost2010PropOp29
 70
     1
102
RTVSPost2010Prop30
280
     1
102
RTVSPost2010PropOp30
 70
     1
102
RTVSPost2010Prop31
280
     0
102
RTVSPost2010PropOp31
 70
     1
102
RTVSPost2010Prop32
280
     0
102
RTVSPost2010PropOp32
 70
     1
102
RTVSPost2010Prop33
280
     0
102
RTVSPost2010PropOp33
 70
     1
102
RTVSPost2010Prop34
280
     0
102
RTVSPost2010PropOp34
 70
     1
102
RTVSPost2010Prop35
280
     0
102
RTVSPost2010PropOp35
 70
     1
102
RTVSPost2010Prop36
280
     0
102
RTVSPost2010PropOp36
 70
     1
102
RTVSPost2010Prop37
 90
       50
102
RTVSPost2010PropOp37
 70
     0
102
RTVSPost2010Prop38
140
0.0
102
RTVSPost2010PropOp38
 70
     0
102
RTVSPost2010Prop39
140
1.0
102
RTVSPost2010PropOp39
 70
     0
102
RTVSPost2010Prop40
 90
        0
102
RTVSPost2010PropOp40
 70
     0
102
RTVSPost2010Prop41ColorIndex
 90
       18
102
RTVSPost2010Prop41ColorRGB
 90
        0
102
RTVSPost2010PropOp41
 70
     0
102
RTVSPost2010Prop42
 90
       50
102
RTVSPost2010PropOp42
 70
     0
102
RTVSPost2010Prop43
 90
        3
102
RTVSPost2010PropOp43
 70
     0
102
RTVSPost2010Prop44ColorIndex
 90
        5
102
RTVSPost2010Prop44ColorRGB
 90
      255
102
RTVSPost2010PropOp44
 70
     0
102
RTVSPost2010Prop45
280
     0
102
RTVSPost2010PropOp45
 70
     1
102
RTVSPost2010Prop46
 90
       50
102
RTVSPost2010PropOp46
 70
     0
102
RTVSPost2010Prop47
 90
       50
102
RTVSPost2010PropOp47
 70
     0
102
RTVSPost2010Prop48
 90
       50
102
RTVSPost2010PropOp48
 70
     0
102
RTVSPost2010Prop49
280
     0
102
RTVSPost2010PropOp49
 70
     1
102
RTVSPost2010Prop50
 90
       50
102
RTVSPost2010PropOp50
 70
     0
102
RTVSPost2010Prop51ColorIndex
 90
      256
102
RTVSPost2010Prop51ColorRGB
 90
-16777216
102
RTVSPost2010PropOp51
 70
     0
102
RTVSPost2010Prop52
140
1.0
102
RTVSPost2010PropOp52
 70
     0
102
RTVSPost2010Prop53
 90
        2
102
RTVSPost2010PropOp53
 70
     0
102
RTVSPost2010Prop54
  1
strokes_ogs.tif
102
RTVSPost2010PropOp54
 70
     0
102
RTVSPost2010Prop55
280
     0
102
RTVSPost2010PropOp55
 70
     1
102
RTVSPost2010Prop56
140
1.0
102
RTVSPost2010PropOp56
 70
     0
102
RTVSPost2010Prop57
140
1.0
102
RTVSPost2010PropOp57
 70
     0
102
RTVSPropertyOp0
 70
     0
102
RTVSPropertyOp1
 70
     0
102
RTVSPropertyOp2
 70
     0
102
RTVSPropertyOp3
 70
     0
102
RTVSPropertyOp4
 70
     0
102
RTVSPropertyOp5
 70
     0
102
RTVSPropertyOp6
 70
     0
102
RTVSPropertyOp7
 70
     0
102
RTVSPropertyOp8
 70
     0
102
RTVSPropertyOp9
 70
     0
102
RTVSPropertyOp10
 70
     0
102
RTVSPropertyOp11
 70
     0
102
RTVSPropertyOp12
 70
     0
102
RTVSPropertyOp13
 70
     0
102
RTVSPropertyOp14
 70
     2
102
RTVSPropertyOp15
 70
     0
102
RTVSPropertyOp16
 70
     0
102
RTVSPropertyOp17
 70
     0
102
RTVSPropertyOp18
 70
     0
102
RTVSPropertyOp19
 70
     0
102
RTVSPropertyOp20
 70
     0
102
RTVSPropertyOp21
 70
     0
102
RTVSPropertyOp22
 70
     0
102
RTVSPropertyOp23
 70
     0
102
RTVSPropertyOp24
 70
     0
102
RTVSPropertyOp25
 70
     0
102
RTVSPropertyOp26
 70
     0
102
RTVSPropertyOp27
 70
     0
102
RTVSPropertyOp28
 70
     1
102
RTVSPropertyOp29
 70
     1
102
RTVSPropertyOp30
 70
     1
102
RTVSPropertyOp31
 70
     1
102
RTVSPropertyOp32
 70
     1
102
RTVSPropertyOp33
 70
     1
102
RTVSPropertyOp34
 70
     1
102
RTVSPropertyOp35
 70
     1
102
RTVSPropertyOp36
 70
     1
102
RTVSPropertyOp37
 70
     0
102
RTVSPropertyOp38
 70
     0
102
RTVSPropertyOp39
 70
     0
102
RTVSPropertyOp40
 70
     0
102
RTVSPropertyOp41
 70
     0
102
RTVSPropertyOp42
 70
     0
102
RTVSPropertyOp43
 70
     0
102
RTVSPropertyOp44
 70
     0
102
RTVSPropertyOp45
 70
     1
102
RTVSPropertyOp46
 70
     0
102
RTVSPropertyOp47
 70
     0
102
RTVSPropertyOp48
 70
     0
102
RTVSPropertyOp49
 70
     1
102
RTVSPropertyOp50
 70
     0
102
RTVSPropertyOp51
 70
     0
102
RTVSPropertyOp52
 70
     0
102
RTVSPropertyOp53
 70
     0
102
RTVSPropertyOp54
 70
     0
102
RTVSPropertyOp55
 70
     1
102
RTVSPropertyOp56
 70
     0
102
RTVSPropertyOp57
 70
     0
102
RTVSPropertyOp58
 70
     0
102
RTVSPropertyOp59
 70
     0
102
RTVSPropertyOp60
 70
     0
102
RTVSPropertyOp61
 70
     0
102
RTVSPropertyOp62
 70
     0
  0
XRECORD
  5
982
102
{ACAD_REACTORS
330
981
102
}
330
981
100
AcDbXrecord
280
     1
102
RTVSPost2010Prop28
280
     0
102
RTVSPost2010PropOp28
 70
     1
102
RTVSPost2010Prop29
280
     1
102
RTVSPost2010PropOp29
 70
     1
102
RTVSPost2010Prop30
280
     1
102
RTVSPost2010PropOp30
 70
     1
102
RTVSPost2010Prop31
280
     0
102
RTVSPost2010PropOp31
 70
     1
102
RTVSPost2010Prop32
280
     0
102
RTVSPost2010PropOp32
 70
     1
102
RTVSPost2010Prop33
280
     0
102
RTVSPost2010PropOp33
 70
     1
102
RTVSPost2010Prop34
280
     0
102
RTVSPost2010PropOp34
 70
     1
102
RTVSPost2010Prop35
280
     0
102
RTVSPost2010PropOp35
 70
     1
102
RTVSPost2010Prop36
280
     0
102
RTVSPost2010PropOp36
 70
     1
102
RTVSPost2010Prop37
 90
       50
102
RTVSPost2010PropOp37
 70
     1
102
RTVSPost2010Prop38
140
0.0
102
RTVSPost2010PropOp38
 70
     1
102
RTVSPost2010Prop39
140
1.0
102
RTVSPost2010PropOp39
 70
     1
102
RTVSPost2010Prop40
 90
        0
102
RTVSPost2010PropOp40
 70
     1
102
RTVSPost2010Prop41ColorIndex
 90
       18
102
RTVSPost2010Prop41ColorRGB
 90
        0
102
RTVSPost2010PropOp41
 70
     1
102
RTVSPost2010Prop42
 90
       50
102
RTVSPost2010PropOp42
 70
     1
102
RTVSPost2010Prop43
 90
        3
102
RTVSPost2010PropOp43
 70
     1
102
RTVSPost2010Prop44ColorIndex
 90
        5
102
RTVSPost2010Prop44ColorRGB
 90
      255
102
RTVSPost2010PropOp44
 70
     1
102
RTVSPost2010Prop45
280
     0
102
RTVSPost2010PropOp45
 70
     1
102
RTVSPost2010Prop46
 90
       50
102
RTVSPost2010PropOp46
 70
     1
102
RTVSPost2010Prop47
 90
       50
102
RTVSPost2010PropOp47
 70
     1
102
RTVSPost2010Prop48
 90
       50
102
RTVSPost2010PropOp48
 70
     1
102
RTVSPost2010Prop49
280
     0
102
RTVSPost2010PropOp49
 70
     1
102
RTVSPost2010Prop50
 90
       50
102
RTVSPost2010PropOp50
 70
     1
102
RTVSPost2010Prop51ColorIndex
 90
      256
102
RTVSPost2010Prop51ColorRGB
 90
-16777216
102
RTVSPost2010PropOp51
 70
     0
102
RTVSPost2010Prop52
140
1.0
102
RTVSPost2010PropOp52
 70
     0
102
RTVSPost2010Prop53
 90
        2
102
RTVSPost2010PropOp53
 70
     1
102
RTVSPost2010Prop54
  1
strokes_ogs.tif
102
RTVSPost2010PropOp54
 70
     1
102
RTVSPost2010Prop55
280
     0
102
RTVSPost2010PropOp55
 70
     1
102
RTVSPost2010Prop56
140
1.0
102
RTVSPost2010PropOp56
 70
     1
102
RTVSPost2010Prop57
140
1.0
102
RTVSPost2010PropOp57
 70
     1
102
RTVSPropertyOp0
 70
     1
102
RTVSPropertyOp1
 70
     1
102
RTVSPropertyOp2
 70
     1
102
RTVSPropertyOp3
 70
     1
102
RTVSPropertyOp4
 70
     1
102
RTVSPropertyOp5
 70
     1
102
RTVSPropertyOp6
 70
     1
102
RTVSPropertyOp7
 70
     1
102
RTVSPropertyOp8
 70
     1
102
RTVSPropertyOp9
 70
     1
102
RTVSPropertyOp10
 70
     1
102
RTVSPropertyOp11
 70
     1
102
RTVSPropertyOp12
 70
     1
102
RTVSPropertyOp13
 70
     1
102
RTVSPropertyOp14
 70
     1
102
RTVSPropertyOp15
 70
     1
102
RTVSPropertyOp16
 70
     1
102
RTVSPropertyOp17
 70
     1
102
RTVSPropertyOp18
 70
     1
102
RTVSPropertyOp19
 70
     1
102
RTVSPropertyOp20
 70
     1
102
RTVSPropertyOp21
 70
     1
102
RTVSPropertyOp22
 70
     1
102
RTVSPropertyOp23
 70
     1
102
RTVSPropertyOp24
 70
     1
102
RTVSPropertyOp25
 70
     1
102
RTVSPropertyOp26
 70
     1
102
RTVSPropertyOp27
 70
     1
102
RTVSPropertyOp28
 70
     1
102
RTVSPropertyOp29
 70
     1
102
RTVSPropertyOp30
 70
     1
102
RTVSPropertyOp31
 70
     1
102
RTVSPropertyOp32
 70
     1
102
RTVSPropertyOp33
 70
     1
102
RTVSPropertyOp34
 70
     1
102
RTVSPropertyOp35
 70
     1
102
RTVSPropertyOp36
 70
     1
102
RTVSPropertyOp37
 70
     1
102
RTVSPropertyOp38
 70
     1
102
RTVSPropertyOp39
 70
     1
102
RTVSPropertyOp40
 70
     1
102
RTVSPropertyOp41
 70
     1
102
RTVSPropertyOp42
 70
     1
102
RTVSPropertyOp43
 70
     1
102
RTVSPropertyOp44
 70
     1
102
RTVSPropertyOp45
 70
     1
102
RTVSPropertyOp46
 70
     1
102
RTVSPropertyOp47
 70
     1
102
RTVSPropertyOp48
 70
     1
102
RTVSPropertyOp49
 70
     1
102
RTVSPropertyOp50
 70
     1
102
RTVSPropertyOp51
 70
     0
102
RTVSPropertyOp52
 70
     0
102
RTVSPropertyOp53
 70
     1
102
RTVSPropertyOp54
 70
     1
102
RTVSPropertyOp55
 70
     1
102
RTVSPropertyOp56
 70
     1
102
RTVSPropertyOp57
 70
     1
102
RTVSPropertyOp58
 70
     1
102
RTVSPropertyOp59
 70
     1
102
RTVSPropertyOp60
 70
     1
102
RTVSPropertyOp61
 70
     1
102
RTVSPropertyOp62
 70
     1
  0
XRECORD
  5
966
102
{ACAD_REACTORS
330
965
102
}
330
965
100
AcDbXrecord
280
     1
102
RTVSPost2010Prop28
280
     0
102
RTVSPost2010PropOp28
 70
     1
102
RTVSPost2010Prop29
280
     1
102
RTVSPost2010PropOp29
 70
     1
102
RTVSPost2010Prop30
280
     1
102
RTVSPost2010PropOp30
 70
     1
102
RTVSPost2010Prop31
280
     0
102
RTVSPost2010PropOp31
 70
     1
102
RTVSPost2010Prop32
280
     0
102
RTVSPost2010PropOp32
 70
     1
102
RTVSPost2010Prop33
280
     0
102
RTVSPost2010PropOp33
 70
     1
102
RTVSPost2010Prop34
280
     0
102
RTVSPost2010PropOp34
 70
     1
102
RTVSPost2010Prop35
280
     0
102
RTVSPost2010PropOp35
 70
     1
102
RTVSPost2010Prop36
280
     0
102
RTVSPost2010PropOp36
 70
     1
102
RTVSPost2010Prop37
 90
       50
102
RTVSPost2010PropOp37
 70
     1
102
RTVSPost2010Prop38
140
0.0
102
RTVSPost2010PropOp38
 70
     1
102
RTVSPost2010Prop39
140
1.0
102
RTVSPost2010PropOp39
 70
     1
102
RTVSPost2010Prop40
 90
        0
102
RTVSPost2010PropOp40
 70
     1
102
RTVSPost2010Prop41ColorIndex
 90
       18
102
RTVSPost2010Prop41ColorRGB
 90
        0
102
RTVSPost2010PropOp41
 70
     1
102
RTVSPost2010Prop42
 90
       50
102
RTVSPost2010PropOp42
 70
     1
102
RTVSPost2010Prop43
 90
        3
102
RTVSPost2010PropOp43
 70
     1
102
RTVSPost2010Prop44ColorIndex
 90
        5
102
RTVSPost2010Prop44ColorRGB
 90
      255
102
RTVSPost2010PropOp44
 70
     1
102
RTVSPost2010Prop45
280
     0
102
RTVSPost2010PropOp45
 70
     1
102
RTVSPost2010Prop46
 90
       50
102
RTVSPost2010PropOp46
 70
     1
102
RTVSPost2010Prop47
 90
       50
102
RTVSPost2010PropOp47
 70
     1
102
RTVSPost2010Prop48
 90
       50
102
RTVSPost2010PropOp48
 70
     1
102
RTVSPost2010Prop49
280
     0
102
RTVSPost2010PropOp49
 70
     1
102
RTVSPost2010Prop50
 90
       50
102
RTVSPost2010PropOp50
 70
     1
102
RTVSPost2010Prop51ColorIndex
 90
      256
102
RTVSPost2010Prop51ColorRGB
 90
-16777216
102
RTVSPost2010PropOp51
 70
     0
102
RTVSPost2010Prop52
140
1.0
102
RTVSPost2010PropOp52
 70
     0
102
RTVSPost2010Prop53
 90
        2
102
RTVSPost2010PropOp53
 70
     1
102
RTVSPost2010Prop54
  1
strokes_ogs.tif
102
RTVSPost2010PropOp54
 70
     1
102
RTVSPost2010Prop55
280
     0
102
RTVSPost2010PropOp55
 70
     1
102
RTVSPost2010Prop56
140
1.0
102
RTVSPost2010PropOp56
 70
     1
102
RTVSPost2010Prop57
140
1.0
102
RTVSPost2010PropOp57
 70
     1
102
RTVSPropertyOp0
 70
     1
102
RTVSPropertyOp1
 70
     1
102
RTVSPropertyOp2
 70
     1
102
RTVSPropertyOp3
 70
     1
102
RTVSPropertyOp4
 70
     1
102
RTVSPropertyOp5
 70
     1
102
RTVSPropertyOp6
 70
     1
102
RTVSPropertyOp7
 70
     1
102
RTVSPropertyOp8
 70
     1
102
RTVSPropertyOp9
 70
     1
102
RTVSPropertyOp10
 70
     1
102
RTVSPropertyOp11
 70
     1
102
RTVSPropertyOp12
 70
     1
102
RTVSPropertyOp13
 70
     1
102
RTVSPropertyOp14
 70
     1
102
RTVSPropertyOp15
 70
     1
102
RTVSPropertyOp16
 70
     1
102
RTVSPropertyOp17
 70
     1
102
RTVSPropertyOp18
 70
     1
102
RTVSPropertyOp19
 70
     1
102
RTVSPropertyOp20
 70
     1
102
RTVSPropertyOp21
 70
     1
102
RTVSPropertyOp22
 70
     1
102
RTVSPropertyOp23
 70
     1
102
RTVSPropertyOp24
 70
     1
102
RTVSPropertyOp25
 70
     1
102
RTVSPropertyOp26
 70
     1
102
RTVSPropertyOp27
 70
     1
102
RTVSPropertyOp28
 70
     1
102
RTVSPropertyOp29
 70
     1
102
RTVSPropertyOp30
 70
     1
102
RTVSPropertyOp31
 70
     1
102
RTVSPropertyOp32
 70
     1
102
RTVSPropertyOp33
 70
     1
102
RTVSPropertyOp34
 70
     1
102
RTVSPropertyOp35
 70
     1
102
RTVSPropertyOp36
 70
     1
102
RTVSPropertyOp37
 70
     1
102
RTVSPropertyOp38
 70
     1
102
RTVSPropertyOp39
 70
     1
102
RTVSPropertyOp40
 70
     1
102
RTVSPropertyOp41
 70
     1
102
RTVSPropertyOp42
 70
     1
102
RTVSPropertyOp43
 70
     1
102
RTVSPropertyOp44
 70
     1
102
RTVSPropertyOp45
 70
     1
102
RTVSPropertyOp46
 70
     1
102
RTVSPropertyOp47
 70
     1
102
RTVSPropertyOp48
 70
     1
102
RTVSPropertyOp49
 70
     1
102
RTVSPropertyOp50
 70
     1
102
RTVSPropertyOp51
 70
     0
102
RTVSPropertyOp52
 70
     0
102
RTVSPropertyOp53
 70
     1
102
RTVSPropertyOp54
 70
     1
102
RTVSPropertyOp55
 70
     1
102
RTVSPropertyOp56
 70
     1
102
RTVSPropertyOp57
 70
     1
102
RTVSPropertyOp58
 70
     1
102
RTVSPropertyOp59
 70
     1
102
RTVSPropertyOp60
 70
     1
102
RTVSPropertyOp61
 70
     1
102
RTVSPropertyOp62
 70
     1
  0
XRECORD
  5
968
102
{ACAD_REACTORS
330
967
102
}
330
967
100
AcDbXrecord
280
     1
102
RTVSPost2010Prop28
280
     0
102
RTVSPost2010PropOp28
 70
     1
102
RTVSPost2010Prop29
280
     1
102
RTVSPost2010PropOp29
 70
     1
102
RTVSPost2010Prop30
280
     1
102
RTVSPost2010PropOp30
 70
     1
102
RTVSPost2010Prop31
280
     0
102
RTVSPost2010PropOp31
 70
     1
102
RTVSPost2010Prop32
280
     0
102
RTVSPost2010PropOp32
 70
     1
102
RTVSPost2010Prop33
280
     0
102
RTVSPost2010PropOp33
 70
     1
102
RTVSPost2010Prop34
280
     0
102
RTVSPost2010PropOp34
 70
     1
102
RTVSPost2010Prop35
280
     0
102
RTVSPost2010PropOp35
 70
     1
102
RTVSPost2010Prop36
280
     0
102
RTVSPost2010PropOp36
 70
     1
102
RTVSPost2010Prop37
 90
       50
102
RTVSPost2010PropOp37
 70
     1
102
RTVSPost2010Prop38
140
0.0
102
RTVSPost2010PropOp38
 70
     1
102
RTVSPost2010Prop39
140
1.0
102
RTVSPost2010PropOp39
 70
     1
102
RTVSPost2010Prop40
 90
        0
102
RTVSPost2010PropOp40
 70
     1
102
RTVSPost2010Prop41ColorIndex
 90
       18
102
RTVSPost2010Prop41ColorRGB
 90
        0
102
RTVSPost2010PropOp41
 70
     1
102
RTVSPost2010Prop42
 90
       50
102
RTVSPost2010PropOp42
 70
     1
102
RTVSPost2010Prop43
 90
        3
102
RTVSPost2010PropOp43
 70
     1
102
RTVSPost2010Prop44ColorIndex
 90
        5
102
RTVSPost2010Prop44ColorRGB
 90
      255
102
RTVSPost2010PropOp44
 70
     1
102
RTVSPost2010Prop45
280
     0
102
RTVSPost2010PropOp45
 70
     1
102
RTVSPost2010Prop46
 90
       50
102
RTVSPost2010PropOp46
 70
     1
102
RTVSPost2010Prop47
 90
       50
102
RTVSPost2010PropOp47
 70
     1
102
RTVSPost2010Prop48
 90
       50
102
RTVSPost2010PropOp48
 70
     1
102
RTVSPost2010Prop49
280
     0
102
RTVSPost2010PropOp49
 70
     1
102
RTVSPost2010Prop50
 90
       50
102
RTVSPost2010PropOp50
 70
     1
102
RTVSPost2010Prop51ColorIndex
 90
      256
102
RTVSPost2010Prop51ColorRGB
 90
-16777216
102
RTVSPost2010PropOp51
 70
     0
102
RTVSPost2010Prop52
140
1.0
102
RTVSPost2010PropOp52
 70
     0
102
RTVSPost2010Prop53
 90
        2
102
RTVSPost2010PropOp53
 70
     1
102
RTVSPost2010Prop54
  1
strokes_ogs.tif
102
RTVSPost2010PropOp54
 70
     1
102
RTVSPost2010Prop55
280
     0
102
RTVSPost2010PropOp55
 70
     1
102
RTVSPost2010Prop56
140
1.0
102
RTVSPost2010PropOp56
 70
     1
102
RTVSPost2010Prop57
140
1.0
102
RTVSPost2010PropOp57
 70
     1
102
RTVSPropertyOp0
 70
     1
102
RTVSPropertyOp1
 70
     1
102
RTVSPropertyOp2
 70
     1
102
RTVSPropertyOp3
 70
     1
102
RTVSPropertyOp4
 70
     1
102
RTVSPropertyOp5
 70
     1
102
RTVSPropertyOp6
 70
     1
102
RTVSPropertyOp7
 70
     1
102
RTVSPropertyOp8
 70
     1
102
RTVSPropertyOp9
 70
     1
102
RTVSPropertyOp10
 70
     1
102
RTVSPropertyOp11
 70
     1
102
RTVSPropertyOp12
 70
     1
102
RTVSPropertyOp13
 70
     1
102
RTVSPropertyOp14
 70
     1
102
RTVSPropertyOp15
 70
     1
102
RTVSPropertyOp16
 70
     1
102
RTVSPropertyOp17
 70
     1
102
RTVSPropertyOp18
 70
     1
102
RTVSPropertyOp19
 70
     1
102
RTVSPropertyOp20
 70
     1
102
RTVSPropertyOp21
 70
     1
102
RTVSPropertyOp22
 70
     1
102
RTVSPropertyOp23
 70
     1
102
RTVSPropertyOp24
 70
     1
102
RTVSPropertyOp25
 70
     1
102
RTVSPropertyOp26
 70
     1
102
RTVSPropertyOp27
 70
     1
102
RTVSPropertyOp28
 70
     1
102
RTVSPropertyOp29
 70
     1
102
RTVSPropertyOp30
 70
     1
102
RTVSPropertyOp31
 70
     1
102
RTVSPropertyOp32
 70
     1
102
RTVSPropertyOp33
 70
     1
102
RTVSPropertyOp34
 70
     1
102
RTVSPropertyOp35
 70
     1
102
RTVSPropertyOp36
 70
     1
102
RTVSPropertyOp37
 70
     1
102
RTVSPropertyOp38
 70
     1
102
RTVSPropertyOp39
 70
     1
102
RTVSPropertyOp40
 70
     1
102
RTVSPropertyOp41
 70
     1
102
RTVSPropertyOp42
 70
     1
102
RTVSPropertyOp43
 70
     1
102
RTVSPropertyOp44
 70
     1
102
RTVSPropertyOp45
 70
     1
102
RTVSPropertyOp46
 70
     1
102
RTVSPropertyOp47
 70
     1
102
RTVSPropertyOp48
 70
     1
102
RTVSPropertyOp49
 70
     1
102
RTVSPropertyOp50
 70
     1
102
RTVSPropertyOp51
 70
     0
102
RTVSPropertyOp52
 70
     0
102
RTVSPropertyOp53
 70
     1
102
RTVSPropertyOp54
 70
     1
102
RTVSPropertyOp55
 70
     1
102
RTVSPropertyOp56
 70
     1
102
RTVSPropertyOp57
 70
     1
102
RTVSPropertyOp58
 70
     1
102
RTVSPropertyOp59
 70
     1
102
RTVSPropertyOp60
 70
     1
102
RTVSPropertyOp61
 70
     1
102
RTVSPropertyOp62
 70
     1
  0
XRECORD
  5
96A
102
{ACAD_REACTORS
330
969
102
}
330
969
100
AcDbXrecord
280
     1
102
RTVSPost2010Prop28
280
     0
102
RTVSPost2010PropOp28
 70
     1
102
RTVSPost2010Prop29
280
     1
102
RTVSPost2010PropOp29
 70
     1
102
RTVSPost2010Prop30
280
     1
102
RTVSPost2010PropOp30
 70
     1
102
RTVSPost2010Prop31
280
     0
102
RTVSPost2010PropOp31
 70
     1
102
RTVSPost2010Prop32
280
     0
102
RTVSPost2010PropOp32
 70
     1
102
RTVSPost2010Prop33
280
     0
102
RTVSPost2010PropOp33
 70
     1
102
RTVSPost2010Prop34
280
     0
102
RTVSPost2010PropOp34
 70
     1
102
RTVSPost2010Prop35
280
     0
102
RTVSPost2010PropOp35
 70
     1
102
RTVSPost2010Prop36
280
     0
102
RTVSPost2010PropOp36
 70
     1
102
RTVSPost2010Prop37
 90
       50
102
RTVSPost2010PropOp37
 70
     1
102
RTVSPost2010Prop38
140
0.0
102
RTVSPost2010PropOp38
 70
     1
102
RTVSPost2010Prop39
140
1.0
102
RTVSPost2010PropOp39
 70
     1
102
RTVSPost2010Prop40
 90
        0
102
RTVSPost2010PropOp40
 70
     1
102
RTVSPost2010Prop41ColorIndex
 90
       18
102
RTVSPost2010Prop41ColorRGB
 90
        0
102
RTVSPost2010PropOp41
 70
     1
102
RTVSPost2010Prop42
 90
       50
102
RTVSPost2010PropOp42
 70
     1
102
RTVSPost2010Prop43
 90
        3
102
RTVSPost2010PropOp43
 70
     1
102
RTVSPost2010Prop44ColorIndex
 90
        5
102
RTVSPost2010Prop44ColorRGB
 90
      255
102
RTVSPost2010PropOp44
 70
     1
102
RTVSPost2010Prop45
280
     0
102
RTVSPost2010PropOp45
 70
     1
102
RTVSPost2010Prop46
 90
       50
102
RTVSPost2010PropOp46
 70
     1
102
RTVSPost2010Prop47
 90
       50
102
RTVSPost2010PropOp47
 70
     1
102
RTVSPost2010Prop48
 90
       50
102
RTVSPost2010PropOp48
 70
     1
102
RTVSPost2010Prop49
280
     0
102
RTVSPost2010PropOp49
 70
     1
102
RTVSPost2010Prop50
 90
       50
102
RTVSPost2010PropOp50
 70
     1
102
RTVSPost2010Prop51ColorIndex
 90
      256
102
RTVSPost2010Prop51ColorRGB
 90
-16777216
102
RTVSPost2010PropOp51
 70
     0
102
RTVSPost2010Prop52
140
1.0
102
RTVSPost2010PropOp52
 70
     0
102
RTVSPost2010Prop53
 90
        2
102
RTVSPost2010PropOp53
 70
     1
102
RTVSPost2010Prop54
  1
strokes_ogs.tif
102
RTVSPost2010PropOp54
 70
     1
102
RTVSPost2010Prop55
280
     0
102
RTVSPost2010PropOp55
 70
     1
102
RTVSPost2010Prop56
140
1.0
102
RTVSPost2010PropOp56
 70
     1
102
RTVSPost2010Prop57
140
1.0
102
RTVSPost2010PropOp57
 70
     1
102
RTVSPropertyOp0
 70
     1
102
RTVSPropertyOp1
 70
     1
102
RTVSPropertyOp2
 70
     1
102
RTVSPropertyOp3
 70
     1
102
RTVSPropertyOp4
 70
     1
102
RTVSPropertyOp5
 70
     1
102
RTVSPropertyOp6
 70
     1
102
RTVSPropertyOp7
 70
     1
102
RTVSPropertyOp8
 70
     1
102
RTVSPropertyOp9
 70
     1
102
RTVSPropertyOp10
 70
     1
102
RTVSPropertyOp11
 70
     1
102
RTVSPropertyOp12
 70
     1
102
RTVSPropertyOp13
 70
     1
102
RTVSPropertyOp14
 70
     1
102
RTVSPropertyOp15
 70
     1
102
RTVSPropertyOp16
 70
     1
102
RTVSPropertyOp17
 70
     1
102
RTVSPropertyOp18
 70
     1
102
RTVSPropertyOp19
 70
     1
102
RTVSPropertyOp20
 70
     1
102
RTVSPropertyOp21
 70
     1
102
RTVSPropertyOp22
 70
     1
102
RTVSPropertyOp23
 70
     1
102
RTVSPropertyOp24
 70
     1
102
RTVSPropertyOp25
 70
     1
102
RTVSPropertyOp26
 70
     1
102
RTVSPropertyOp27
 70
     1
102
RTVSPropertyOp28
 70
     1
102
RTVSPropertyOp29
 70
     1
102
RTVSPropertyOp30
 70
     1
102
RTVSPropertyOp31
 70
     1
102
RTVSPropertyOp32
 70
     1
102
RTVSPropertyOp33
 70
     1
102
RTVSPropertyOp34
 70
     1
102
RTVSPropertyOp35
 70
     1
102
RTVSPropertyOp36
 70
     1
102
RTVSPropertyOp37
 70
     1
102
RTVSPropertyOp38
 70
     1
102
RTVSPropertyOp39
 70
     1
102
RTVSPropertyOp40
 70
     1
102
RTVSPropertyOp41
 70
     1
102
RTVSPropertyOp42
 70
     1
102
RTVSPropertyOp43
 70
     1
102
RTVSPropertyOp44
 70
     1
102
RTVSPropertyOp45
 70
     1
102
RTVSPropertyOp46
 70
     1
102
RTVSPropertyOp47
 70
     1
102
RTVSPropertyOp48
 70
     1
102
RTVSPropertyOp49
 70
     1
102
RTVSPropertyOp50
 70
     1
102
RTVSPropertyOp51
 70
     0
102
RTVSPropertyOp52
 70
     0
102
RTVSPropertyOp53
 70
     1
102
RTVSPropertyOp54
 70
     1
102
RTVSPropertyOp55
 70
     1
102
RTVSPropertyOp56
 70
     1
102
RTVSPropertyOp57
 70
     1
102
RTVSPropertyOp58
 70
     1
102
RTVSPropertyOp59
 70
     1
102
RTVSPropertyOp60
 70
     1
102
RTVSPropertyOp61
 70
     1
102
RTVSPropertyOp62
 70
     1
  0
XRECORD
  5
96C
102
{ACAD_REACTORS
330
96B
102
}
330
96B
100
AcDbXrecord
280
     1
102
RTVSPost2010Prop28
280
     0
102
RTVSPost2010PropOp28
 70
     1
102
RTVSPost2010Prop29
280
     1
102
RTVSPost2010PropOp29
 70
     1
102
RTVSPost2010Prop30
280
     1
102
RTVSPost2010PropOp30
 70
     1
102
RTVSPost2010Prop31
280
     0
102
RTVSPost2010PropOp31
 70
     1
102
RTVSPost2010Prop32
280
     0
102
RTVSPost2010PropOp32
 70
     1
102
RTVSPost2010Prop33
280
     0
102
RTVSPost2010PropOp33
 70
     1
102
RTVSPost2010Prop34
280
     0
102
RTVSPost2010PropOp34
 70
     1
102
RTVSPost2010Prop35
280
     0
102
RTVSPost2010PropOp35
 70
     1
102
RTVSPost2010Prop36
280
     0
102
RTVSPost2010PropOp36
 70
     1
102
RTVSPost2010Prop37
 90
       50
102
RTVSPost2010PropOp37
 70
     1
102
RTVSPost2010Prop38
140
0.0
102
RTVSPost2010PropOp38
 70
     1
102
RTVSPost2010Prop39
140
1.0
102
RTVSPost2010PropOp39
 70
     1
102
RTVSPost2010Prop40
 90
        0
102
RTVSPost2010PropOp40
 70
     1
102
RTVSPost2010Prop41ColorIndex
 90
       18
102
RTVSPost2010Prop41ColorRGB
 90
        0
102
RTVSPost2010PropOp41
 70
     1
102
RTVSPost2010Prop42
 90
       50
102
RTVSPost2010PropOp42
 70
     1
102
RTVSPost2010Prop43
 90
        3
102
RTVSPost2010PropOp43
 70
     1
102
RTVSPost2010Prop44ColorIndex
 90
        5
102
RTVSPost2010Prop44ColorRGB
 90
      255
102
RTVSPost2010PropOp44
 70
     1
102
RTVSPost2010Prop45
280
     0
102
RTVSPost2010PropOp45
 70
     1
102
RTVSPost2010Prop46
 90
       50
102
RTVSPost2010PropOp46
 70
     1
102
RTVSPost2010Prop47
 90
       50
102
RTVSPost2010PropOp47
 70
     1
102
RTVSPost2010Prop48
 90
       50
102
RTVSPost2010PropOp48
 70
     1
102
RTVSPost2010Prop49
280
     0
102
RTVSPost2010PropOp49
 70
     1
102
RTVSPost2010Prop50
 90
       50
102
RTVSPost2010PropOp50
 70
     1
102
RTVSPost2010Prop51ColorIndex
 90
      256
102
RTVSPost2010Prop51ColorRGB
 90
-16777216
102
RTVSPost2010PropOp51
 70
     0
102
RTVSPost2010Prop52
140
1.0
102
RTVSPost2010PropOp52
 70
     0
102
RTVSPost2010Prop53
 90
        2
102
RTVSPost2010PropOp53
 70
     1
102
RTVSPost2010Prop54
  1
strokes_ogs.tif
102
RTVSPost2010PropOp54
 70
     1
102
RTVSPost2010Prop55
280
     0
102
RTVSPost2010PropOp55
 70
     1
102
RTVSPost2010Prop56
140
1.0
102
RTVSPost2010PropOp56
 70
     1
102
RTVSPost2010Prop57
140
1.0
102
RTVSPost2010PropOp57
 70
     1
102
RTVSPropertyOp0
 70
     1
102
RTVSPropertyOp1
 70
     1
102
RTVSPropertyOp2
 70
     1
102
RTVSPropertyOp3
 70
     1
102
RTVSPropertyOp4
 70
     1
102
RTVSPropertyOp5
 70
     1
102
RTVSPropertyOp6
 70
     1
102
RTVSPropertyOp7
 70
     1
102
RTVSPropertyOp8
 70
     1
102
RTVSPropertyOp9
 70
     1
102
RTVSPropertyOp10
 70
     1
102
RTVSPropertyOp11
 70
     1
102
RTVSPropertyOp12
 70
     1
102
RTVSPropertyOp13
 70
     1
102
RTVSPropertyOp14
 70
     1
102
RTVSPropertyOp15
 70
     1
102
RTVSPropertyOp16
 70
     1
102
RTVSPropertyOp17
 70
     1
102
RTVSPropertyOp18
 70
     1
102
RTVSPropertyOp19
 70
     1
102
RTVSPropertyOp20
 70
     1
102
RTVSPropertyOp21
 70
     1
102
RTVSPropertyOp22
 70
     1
102
RTVSPropertyOp23
 70
     1
102
RTVSPropertyOp24
 70
     1
102
RTVSPropertyOp25
 70
     1
102
RTVSPropertyOp26
 70
     1
102
RTVSPropertyOp27
 70
     1
102
RTVSPropertyOp28
 70
     1
102
RTVSPropertyOp29
 70
     1
102
RTVSPropertyOp30
 70
     1
102
RTVSPropertyOp31
 70
     1
102
RTVSPropertyOp32
 70
     1
102
RTVSPropertyOp33
 70
     1
102
RTVSPropertyOp34
 70
     1
102
RTVSPropertyOp35
 70
     1
102
RTVSPropertyOp36
 70
     1
102
RTVSPropertyOp37
 70
     1
102
RTVSPropertyOp38
 70
     1
102
RTVSPropertyOp39
 70
     1
102
RTVSPropertyOp40
 70
     1
102
RTVSPropertyOp41
 70
     1
102
RTVSPropertyOp42
 70
     1
102
RTVSPropertyOp43
 70
     1
102
RTVSPropertyOp44
 70
     1
102
RTVSPropertyOp45
 70
     1
102
RTVSPropertyOp46
 70
     1
102
RTVSPropertyOp47
 70
     1
102
RTVSPropertyOp48
 70
     1
102
RTVSPropertyOp49
 70
     1
102
RTVSPropertyOp50
 70
     1
102
RTVSPropertyOp51
 70
     0
102
RTVSPropertyOp52
 70
     0
102
RTVSPropertyOp53
 70
     1
102
RTVSPropertyOp54
 70
     1
102
RTVSPropertyOp55
 70
     1
102
RTVSPropertyOp56
 70
     1
102
RTVSPropertyOp57
 70
     1
102
RTVSPropertyOp58
 70
     1
102
RTVSPropertyOp59
 70
     1
102
RTVSPropertyOp60
 70
     1
102
RTVSPropertyOp61
 70
     1
102
RTVSPropertyOp62
 70
     1
  0
XRECORD
  5
974
102
{ACAD_REACTORS
330
973
102
}
330
973
100
AcDbXrecord
280
     1
102
RTVSPost2010Prop28
280
     0
102
RTVSPost2010PropOp28
 70
     1
102
RTVSPost2010Prop29
280
     1
102
RTVSPost2010PropOp29
 70
     1
102
RTVSPost2010Prop30
280
     1
102
RTVSPost2010PropOp30
 70
     1
102
RTVSPost2010Prop31
280
     0
102
RTVSPost2010PropOp31
 70
     1
102
RTVSPost2010Prop32
280
     0
102
RTVSPost2010PropOp32
 70
     1
102
RTVSPost2010Prop33
280
     0
102
RTVSPost2010PropOp33
 70
     1
102
RTVSPost2010Prop34
280
     0
102
RTVSPost2010PropOp34
 70
     1
102
RTVSPost2010Prop35
280
     0
102
RTVSPost2010PropOp35
 70
     1
102
RTVSPost2010Prop36
280
     0
102
RTVSPost2010PropOp36
 70
     1
102
RTVSPost2010Prop37
 90
       50
102
RTVSPost2010PropOp37
 70
     1
102
RTVSPost2010Prop38
140
0.0
102
RTVSPost2010PropOp38
 70
     1
102
RTVSPost2010Prop39
140
1.0
102
RTVSPost2010PropOp39
 70
     1
102
RTVSPost2010Prop40
 90
        0
102
RTVSPost2010PropOp40
 70
     1
102
RTVSPost2010Prop41ColorIndex
 90
       18
102
RTVSPost2010Prop41ColorRGB
 90
        0
102
RTVSPost2010PropOp41
 70
     1
102
RTVSPost2010Prop42
 90
       50
102
RTVSPost2010PropOp42
 70
     1
102
RTVSPost2010Prop43
 90
        3
102
RTVSPost2010PropOp43
 70
     1
102
RTVSPost2010Prop44ColorIndex
 90
        5
102
RTVSPost2010Prop44ColorRGB
 90
      255
102
RTVSPost2010PropOp44
 70
     1
102
RTVSPost2010Prop45
280
     0
102
RTVSPost2010PropOp45
 70
     1
102
RTVSPost2010Prop46
 90
       50
102
RTVSPost2010PropOp46
 70
     1
102
RTVSPost2010Prop47
 90
       50
102
RTVSPost2010PropOp47
 70
     1
102
RTVSPost2010Prop48
 90
       50
102
RTVSPost2010PropOp48
 70
     1
102
RTVSPost2010Prop49
280
     0
102
RTVSPost2010PropOp49
 70
     1
102
RTVSPost2010Prop50
 90
       50
102
RTVSPost2010PropOp50
 70
     1
102
RTVSPost2010Prop51ColorIndex
 90
      256
102
RTVSPost2010Prop51ColorRGB
 90
-16777216
102
RTVSPost2010PropOp51
 70
     0
102
RTVSPost2010Prop52
140
1.0
102
RTVSPost2010PropOp52
 70
     0
102
RTVSPost2010Prop53
 90
        2
102
RTVSPost2010PropOp53
 70
     1
102
RTVSPost2010Prop54
  1
strokes_ogs.tif
102
RTVSPost2010PropOp54
 70
     1
102
RTVSPost2010Prop55
280
     0
102
RTVSPost2010PropOp55
 70
     1
102
RTVSPost2010Prop56
140
1.0
102
RTVSPost2010PropOp56
 70
     1
102
RTVSPost2010Prop57
140
1.0
102
RTVSPost2010PropOp57
 70
     1
102
RTVSPropertyOp0
 70
     1
102
RTVSPropertyOp1
 70
     1
102
RTVSPropertyOp2
 70
     1
102
RTVSPropertyOp3
 70
     1
102
RTVSPropertyOp4
 70
     1
102
RTVSPropertyOp5
 70
     1
102
RTVSPropertyOp6
 70
     1
102
RTVSPropertyOp7
 70
     1
102
RTVSPropertyOp8
 70
     1
102
RTVSPropertyOp9
 70
     1
102
RTVSPropertyOp10
 70
     1
102
RTVSPropertyOp11
 70
     1
102
RTVSPropertyOp12
 70
     1
102
RTVSPropertyOp13
 70
     1
102
RTVSPropertyOp14
 70
     1
102
RTVSPropertyOp15
 70
     1
102
RTVSPropertyOp16
 70
     1
102
RTVSPropertyOp17
 70
     1
102
RTVSPropertyOp18
 70
     1
102
RTVSPropertyOp19
 70
     1
102
RTVSPropertyOp20
 70
     1
102
RTVSPropertyOp21
 70
     1
102
RTVSPropertyOp22
 70
     1
102
RTVSPropertyOp23
 70
     1
102
RTVSPropertyOp24
 70
     1
102
RTVSPropertyOp25
 70
     1
102
RTVSPropertyOp26
 70
     1
102
RTVSPropertyOp27
 70
     1
102
RTVSPropertyOp28
 70
     1
102
RTVSPropertyOp29
 70
     1
102
RTVSPropertyOp30
 70
     1
102
RTVSPropertyOp31
 70
     1
102
RTVSPropertyOp32
 70
     1
102
RTVSPropertyOp33
 70
     1
102
RTVSPropertyOp34
 70
     1
102
RTVSPropertyOp35
 70
     1
102
RTVSPropertyOp36
 70
     1
102
RTVSPropertyOp37
 70
     1
102
RTVSPropertyOp38
 70
     1
102
RTVSPropertyOp39
 70
     1
102
RTVSPropertyOp40
 70
     1
102
RTVSPropertyOp41
 70
     1
102
RTVSPropertyOp42
 70
     1
102
RTVSPropertyOp43
 70
     1
102
RTVSPropertyOp44
 70
     1
102
RTVSPropertyOp45
 70
     1
102
RTVSPropertyOp46
 70
     1
102
RTVSPropertyOp47
 70
     1
102
RTVSPropertyOp48
 70
     1
102
RTVSPropertyOp49
 70
     1
102
RTVSPropertyOp50
 70
     1
102
RTVSPropertyOp51
 70
     0
102
RTVSPropertyOp52
 70
     0
102
RTVSPropertyOp53
 70
     1
102
RTVSPropertyOp54
 70
     1
102
RTVSPropertyOp55
 70
     1
102
RTVSPropertyOp56
 70
     1
102
RTVSPropertyOp57
 70
     1
102
RTVSPropertyOp58
 70
     1
102
RTVSPropertyOp59
 70
     1
102
RTVSPropertyOp60
 70
     1
102
RTVSPropertyOp61
 70
     1
102
RTVSPropertyOp62
 70
     1
  0
XRECORD
  5
990
102
{ACAD_REACTORS
330
98F
102
}
330
98F
100
AcDbXrecord
280
     1
102
RTVSPost2010Prop28
280
     0
102
RTVSPost2010PropOp28
 70
     1
102
RTVSPost2010Prop29
280
     1
102
RTVSPost2010PropOp29
 70
     1
102
RTVSPost2010Prop30
280
     1
102
RTVSPost2010PropOp30
 70
     1
102
RTVSPost2010Prop31
280
     0
102
RTVSPost2010PropOp31
 70
     1
102
RTVSPost2010Prop32
280
     0
102
RTVSPost2010PropOp32
 70
     1
102
RTVSPost2010Prop33
280
     0
102
RTVSPost2010PropOp33
 70
     1
102
RTVSPost2010Prop34
280
     0
102
RTVSPost2010PropOp34
 70
     1
102
RTVSPost2010Prop35
280
     0
102
RTVSPost2010PropOp35
 70
     1
102
RTVSPost2010Prop36
280
     0
102
RTVSPost2010PropOp36
 70
     1
102
RTVSPost2010Prop37
 90
       50
102
RTVSPost2010PropOp37
 70
     0
102
RTVSPost2010Prop38
140
0.0
102
RTVSPost2010PropOp38
 70
     0
102
RTVSPost2010Prop39
140
1.0
102
RTVSPost2010PropOp39
 70
     0
102
RTVSPost2010Prop40
 90
        0
102
RTVSPost2010PropOp40
 70
     0
102
RTVSPost2010Prop41ColorIndex
 90
       18
102
RTVSPost2010Prop41ColorRGB
 90
        0
102
RTVSPost2010PropOp41
 70
     0
102
RTVSPost2010Prop42
 90
       50
102
RTVSPost2010PropOp42
 70
     0
102
RTVSPost2010Prop43
 90
        3
102
RTVSPost2010PropOp43
 70
     0
102
RTVSPost2010Prop44ColorIndex
 90
        5
102
RTVSPost2010Prop44ColorRGB
 90
      255
102
RTVSPost2010PropOp44
 70
     0
102
RTVSPost2010Prop45
280
     0
102
RTVSPost2010PropOp45
 70
     1
102
RTVSPost2010Prop46
 90
       50
102
RTVSPost2010PropOp46
 70
     0
102
RTVSPost2010Prop47
 90
       50
102
RTVSPost2010PropOp47
 70
     0
102
RTVSPost2010Prop48
 90
       50
102
RTVSPost2010PropOp48
 70
     0
102
RTVSPost2010Prop49
280
     0
102
RTVSPost2010PropOp49
 70
     1
102
RTVSPost2010Prop50
 90
       50
102
RTVSPost2010PropOp50
 70
     0
102
RTVSPost2010Prop51ColorIndex
 90
      256
102
RTVSPost2010Prop51ColorRGB
 90
-16777216
102
RTVSPost2010PropOp51
 70
     0
102
RTVSPost2010Prop52
140
1.0
102
RTVSPost2010PropOp52
 70
     0
102
RTVSPost2010Prop53
 90
        2
102
RTVSPost2010PropOp53
 70
     0
102
RTVSPost2010Prop54
  1
strokes_ogs.tif
102
RTVSPost2010PropOp54
 70
     0
102
RTVSPost2010Prop55
280
     0
102
RTVSPost2010PropOp55
 70
     1
102
RTVSPost2010Prop56
140
1.0
102
RTVSPost2010PropOp56
 70
     0
102
RTVSPost2010Prop57
140
1.0
102
RTVSPost2010PropOp57
 70
     0
102
RTVSPropertyOp0
 70
     0
102
RTVSPropertyOp1
 70
     0
102
RTVSPropertyOp2
 70
     0
102
RTVSPropertyOp3
 70
     0
102
RTVSPropertyOp4
 70
     0
102
RTVSPropertyOp5
 70
     0
102
RTVSPropertyOp6
 70
     0
102
RTVSPropertyOp7
 70
     0
102
RTVSPropertyOp8
 70
     0
102
RTVSPropertyOp9
 70
     0
102
RTVSPropertyOp10
 70
     0
102
RTVSPropertyOp11
 70
     0
102
RTVSPropertyOp12
 70
     0
102
RTVSPropertyOp13
 70
     0
102
RTVSPropertyOp14
 70
     2
102
RTVSPropertyOp15
 70
     0
102
RTVSPropertyOp16
 70
     0
102
RTVSPropertyOp17
 70
     0
102
RTVSPropertyOp18
 70
     0
102
RTVSPropertyOp19
 70
     0
102
RTVSPropertyOp20
 70
     0
102
RTVSPropertyOp21
 70
     0
102
RTVSPropertyOp22
 70
     0
102
RTVSPropertyOp23
 70
     0
102
RTVSPropertyOp24
 70
     0
102
RTVSPropertyOp25
 70
     0
102
RTVSPropertyOp26
 70
     0
102
RTVSPropertyOp27
 70
     0
102
RTVSPropertyOp28
 70
     1
102
RTVSPropertyOp29
 70
     1
102
RTVSPropertyOp30
 70
     1
102
RTVSPropertyOp31
 70
     1
102
RTVSPropertyOp32
 70
     1
102
RTVSPropertyOp33
 70
     1
102
RTVSPropertyOp34
 70
     1
102
RTVSPropertyOp35
 70
     1
102
RTVSPropertyOp36
 70
     1
102
RTVSPropertyOp37
 70
     0
102
RTVSPropertyOp38
 70
     0
102
RTVSPropertyOp39
 70
     0
102
RTVSPropertyOp40
 70
     0
102
RTVSPropertyOp41
 70
     0
102
RTVSPropertyOp42
 70
     0
102
RTVSPropertyOp43
 70
     0
102
RTVSPropertyOp44
 70
     0
102
RTVSPropertyOp45
 70
     1
102
RTVSPropertyOp46
 70
     0
102
RTVSPropertyOp47
 70
     0
102
RTVSPropertyOp48
 70
     0
102
RTVSPropertyOp49
 70
     1
102
RTVSPropertyOp50
 70
     0
102
RTVSPropertyOp51
 70
     0
102
RTVSPropertyOp52
 70
     0
102
RTVSPropertyOp53
 70
     0
102
RTVSPropertyOp54
 70
     0
102
RTVSPropertyOp55
 70
     1
102
RTVSPropertyOp56
 70
     0
102
RTVSPropertyOp57
 70
     0
102
RTVSPropertyOp58
 70
     0
102
RTVSPropertyOp59
 70
     0
102
RTVSPropertyOp60
 70
     0
102
RTVSPropertyOp61
 70
     0
102
RTVSPropertyOp62
 70
     0
  0
XRECORD
  5
980
102
{ACAD_REACTORS
330
97F
102
}
330
97F
100
AcDbXrecord
280
     1
102
RTVSPost2010Prop28
280
     0
102
RTVSPost2010PropOp28
 70
     1
102
RTVSPost2010Prop29
280
     1
102
RTVSPost2010PropOp29
 70
     1
102
RTVSPost2010Prop30
280
     1
102
RTVSPost2010PropOp30
 70
     1
102
RTVSPost2010Prop31
280
     0
102
RTVSPost2010PropOp31
 70
     1
102
RTVSPost2010Prop32
280
     0
102
RTVSPost2010PropOp32
 70
     1
102
RTVSPost2010Prop33
280
     0
102
RTVSPost2010PropOp33
 70
     1
102
RTVSPost2010Prop34
280
     0
102
RTVSPost2010PropOp34
 70
     1
102
RTVSPost2010Prop35
280
     0
102
RTVSPost2010PropOp35
 70
     1
102
RTVSPost2010Prop36
280
     0
102
RTVSPost2010PropOp36
 70
     1
102
RTVSPost2010Prop37
 90
       50
102
RTVSPost2010PropOp37
 70
     1
102
RTVSPost2010Prop38
140
0.0
102
RTVSPost2010PropOp38
 70
     1
102
RTVSPost2010Prop39
140
1.0
102
RTVSPost2010PropOp39
 70
     1
102
RTVSPost2010Prop40
 90
        0
102
RTVSPost2010PropOp40
 70
     1
102
RTVSPost2010Prop41ColorIndex
 90
       18
102
RTVSPost2010Prop41ColorRGB
 90
        0
102
RTVSPost2010PropOp41
 70
     1
102
RTVSPost2010Prop42
 90
       50
102
RTVSPost2010PropOp42
 70
     1
102
RTVSPost2010Prop43
 90
        3
102
RTVSPost2010PropOp43
 70
     1
102
RTVSPost2010Prop44ColorIndex
 90
        5
102
RTVSPost2010Prop44ColorRGB
 90
      255
102
RTVSPost2010PropOp44
 70
     1
102
RTVSPost2010Prop45
280
     0
102
RTVSPost2010PropOp45
 70
     1
102
RTVSPost2010Prop46
 90
       50
102
RTVSPost2010PropOp46
 70
     1
102
RTVSPost2010Prop47
 90
       50
102
RTVSPost2010PropOp47
 70
     1
102
RTVSPost2010Prop48
 90
       50
102
RTVSPost2010PropOp48
 70
     1
102
RTVSPost2010Prop49
280
     0
102
RTVSPost2010PropOp49
 70
     1
102
RTVSPost2010Prop50
 90
       50
102
RTVSPost2010PropOp50
 70
     1
102
RTVSPost2010Prop51ColorIndex
 90
      256
102
RTVSPost2010Prop51ColorRGB
 90
-16777216
102
RTVSPost2010PropOp51
 70
     0
102
RTVSPost2010Prop52
140
1.0
102
RTVSPost2010PropOp52
 70
     0
102
RTVSPost2010Prop53
 90
        2
102
RTVSPost2010PropOp53
 70
     1
102
RTVSPost2010Prop54
  1
strokes_ogs.tif
102
RTVSPost2010PropOp54
 70
     1
102
RTVSPost2010Prop55
280
     0
102
RTVSPost2010PropOp55
 70
     1
102
RTVSPost2010Prop56
140
1.0
102
RTVSPost2010PropOp56
 70
     1
102
RTVSPost2010Prop57
140
1.0
102
RTVSPost2010PropOp57
 70
     1
102
RTVSPropertyOp0
 70
     1
102
RTVSPropertyOp1
 70
     1
102
RTVSPropertyOp2
 70
     1
102
RTVSPropertyOp3
 70
     1
102
RTVSPropertyOp4
 70
     1
102
RTVSPropertyOp5
 70
     1
102
RTVSPropertyOp6
 70
     1
102
RTVSPropertyOp7
 70
     1
102
RTVSPropertyOp8
 70
     1
102
RTVSPropertyOp9
 70
     1
102
RTVSPropertyOp10
 70
     1
102
RTVSPropertyOp11
 70
     1
102
RTVSPropertyOp12
 70
     1
102
RTVSPropertyOp13
 70
     1
102
RTVSPropertyOp14
 70
     1
102
RTVSPropertyOp15
 70
     1
102
RTVSPropertyOp16
 70
     1
102
RTVSPropertyOp17
 70
     1
102
RTVSPropertyOp18
 70
     1
102
RTVSPropertyOp19
 70
     1
102
RTVSPropertyOp20
 70
     1
102
RTVSPropertyOp21
 70
     1
102
RTVSPropertyOp22
 70
     1
102
RTVSPropertyOp23
 70
     1
102
RTVSPropertyOp24
 70
     1
102
RTVSPropertyOp25
 70
     1
102
RTVSPropertyOp26
 70
     1
102
RTVSPropertyOp27
 70
     1
102
RTVSPropertyOp28
 70
     1
102
RTVSPropertyOp29
 70
     1
102
RTVSPropertyOp30
 70
     1
102
RTVSPropertyOp31
 70
     1
102
RTVSPropertyOp32
 70
     1
102
RTVSPropertyOp33
 70
     1
102
RTVSPropertyOp34
 70
     1
102
RTVSPropertyOp35
 70
     1
102
RTVSPropertyOp36
 70
     1
102
RTVSPropertyOp37
 70
     1
102
RTVSPropertyOp38
 70
     1
102
RTVSPropertyOp39
 70
     1
102
RTVSPropertyOp40
 70
     1
102
RTVSPropertyOp41
 70
     1
102
RTVSPropertyOp42
 70
     1
102
RTVSPropertyOp43
 70
     1
102
RTVSPropertyOp44
 70
     1
102
RTVSPropertyOp45
 70
     1
102
RTVSPropertyOp46
 70
     1
102
RTVSPropertyOp47
 70
     1
102
RTVSPropertyOp48
 70
     1
102
RTVSPropertyOp49
 70
     1
102
RTVSPropertyOp50
 70
     1
102
RTVSPropertyOp51
 70
     0
102
RTVSPropertyOp52
 70
     0
102
RTVSPropertyOp53
 70
     1
102
RTVSPropertyOp54
 70
     1
102
RTVSPropertyOp55
 70
     1
102
RTVSPropertyOp56
 70
     1
102
RTVSPropertyOp57
 70
     1
102
RTVSPropertyOp58
 70
     1
102
RTVSPropertyOp59
 70
     1
102
RTVSPropertyOp60
 70
     1
102
RTVSPropertyOp61
 70
     1
102
RTVSPropertyOp62
 70
     1
  0
XRECORD
  5
992
102
{ACAD_REACTORS
330
991
102
}
330
991
100
AcDbXrecord
280
     1
102
RTVSPost2010Prop28
280
     0
102
RTVSPost2010PropOp28
 70
     1
102
RTVSPost2010Prop29
280
     1
102
RTVSPost2010PropOp29
 70
     1
102
RTVSPost2010Prop30
280
     1
102
RTVSPost2010PropOp30
 70
     1
102
RTVSPost2010Prop31
280
     0
102
RTVSPost2010PropOp31
 70
     1
102
RTVSPost2010Prop32
280
     0
102
RTVSPost2010PropOp32
 70
     1
102
RTVSPost2010Prop33
280
     0
102
RTVSPost2010PropOp33
 70
     1
102
RTVSPost2010Prop34
280
     0
102
RTVSPost2010PropOp34
 70
     1
102
RTVSPost2010Prop35
280
     0
102
RTVSPost2010PropOp35
 70
     1
102
RTVSPost2010Prop36
280
     0
102
RTVSPost2010PropOp36
 70
     1
102
RTVSPost2010Prop37
 90
       50
102
RTVSPost2010PropOp37
 70
     0
102
RTVSPost2010Prop38
140
0.0
102
RTVSPost2010PropOp38
 70
     0
102
RTVSPost2010Prop39
140
1.0
102
RTVSPost2010PropOp39
 70
     0
102
RTVSPost2010Prop40
 90
        0
102
RTVSPost2010PropOp40
 70
     0
102
RTVSPost2010Prop41ColorIndex
 90
       18
102
RTVSPost2010Prop41ColorRGB
 90
        0
102
RTVSPost2010PropOp41
 70
     0
102
RTVSPost2010Prop42
 90
       50
102
RTVSPost2010PropOp42
 70
     0
102
RTVSPost2010Prop43
 90
        3
102
RTVSPost2010PropOp43
 70
     0
102
RTVSPost2010Prop44ColorIndex
 90
        5
102
RTVSPost2010Prop44ColorRGB
 90
      255
102
RTVSPost2010PropOp44
 70
     0
102
RTVSPost2010Prop45
280
     0
102
RTVSPost2010PropOp45
 70
     1
102
RTVSPost2010Prop46
 90
       50
102
RTVSPost2010PropOp46
 70
     0
102
RTVSPost2010Prop47
 90
       50
102
RTVSPost2010PropOp47
 70
     0
102
RTVSPost2010Prop48
 90
       50
102
RTVSPost2010PropOp48
 70
     0
102
RTVSPost2010Prop49
280
     0
102
RTVSPost2010PropOp49
 70
     1
102
RTVSPost2010Prop50
 90
       50
102
RTVSPost2010PropOp50
 70
     0
102
RTVSPost2010Prop51ColorIndex
 90
      256
102
RTVSPost2010Prop51ColorRGB
 90
-16777216
102
RTVSPost2010PropOp51
 70
     0
102
RTVSPost2010Prop52
140
1.0
102
RTVSPost2010PropOp52
 70
     0
102
RTVSPost2010Prop53
 90
        2
102
RTVSPost2010PropOp53
 70
     0
102
RTVSPost2010Prop54
  1
strokes_ogs.tif
102
RTVSPost2010PropOp54
 70
     0
102
RTVSPost2010Prop55
280
     0
102
RTVSPost2010PropOp55
 70
     1
102
RTVSPost2010Prop56
140
1.0
102
RTVSPost2010PropOp56
 70
     0
102
RTVSPost2010Prop57
140
1.0
102
RTVSPost2010PropOp57
 70
     0
102
RTVSPropertyOp0
 70
     0
102
RTVSPropertyOp1
 70
     0
102
RTVSPropertyOp2
 70
     0
102
RTVSPropertyOp3
 70
     0
102
RTVSPropertyOp4
 70
     0
102
RTVSPropertyOp5
 70
     0
102
RTVSPropertyOp6
 70
     0
102
RTVSPropertyOp7
 70
     0
102
RTVSPropertyOp8
 70
     0
102
RTVSPropertyOp9
 70
     0
102
RTVSPropertyOp10
 70
     0
102
RTVSPropertyOp11
 70
     0
102
RTVSPropertyOp12
 70
     0
102
RTVSPropertyOp13
 70
     0
102
RTVSPropertyOp14
 70
     2
102
RTVSPropertyOp15
 70
     0
102
RTVSPropertyOp16
 70
     0
102
RTVSPropertyOp17
 70
     0
102
RTVSPropertyOp18
 70
     0
102
RTVSPropertyOp19
 70
     0
102
RTVSPropertyOp20
 70
     0
102
RTVSPropertyOp21
 70
     0
102
RTVSPropertyOp22
 70
     0
102
RTVSPropertyOp23
 70
     0
102
RTVSPropertyOp24
 70
     0
102
RTVSPropertyOp25
 70
     0
102
RTVSPropertyOp26
 70
     0
102
RTVSPropertyOp27
 70
     0
102
RTVSPropertyOp28
 70
     1
102
RTVSPropertyOp29
 70
     1
102
RTVSPropertyOp30
 70
     1
102
RTVSPropertyOp31
 70
     1
102
RTVSPropertyOp32
 70
     1
102
RTVSPropertyOp33
 70
     1
102
RTVSPropertyOp34
 70
     1
102
RTVSPropertyOp35
 70
     1
102
RTVSPropertyOp36
 70
     1
102
RTVSPropertyOp37
 70
     0
102
RTVSPropertyOp38
 70
     0
102
RTVSPropertyOp39
 70
     0
102
RTVSPropertyOp40
 70
     0
102
RTVSPropertyOp41
 70
     0
102
RTVSPropertyOp42
 70
     0
102
RTVSPropertyOp43
 70
     0
102
RTVSPropertyOp44
 70
     0
102
RTVSPropertyOp45
 70
     1
102
RTVSPropertyOp46
 70
     0
102
RTVSPropertyOp47
 70
     0
102
RTVSPropertyOp48
 70
     0
102
RTVSPropertyOp49
 70
     1
102
RTVSPropertyOp50
 70
     0
102
RTVSPropertyOp51
 70
     0
102
RTVSPropertyOp52
 70
     0
102
RTVSPropertyOp53
 70
     0
102
RTVSPropertyOp54
 70
     0
102
RTVSPropertyOp55
 70
     1
102
RTVSPropertyOp56
 70
     0
102
RTVSPropertyOp57
 70
     0
102
RTVSPropertyOp58
 70
     0
102
RTVSPropertyOp59
 70
     0
102
RTVSPropertyOp60
 70
     0
102
RTVSPropertyOp61
 70
     0
102
RTVSPropertyOp62
 70
     0
  0
XRECORD
  5
978
102
{ACAD_REACTORS
330
977
102
}
330
977
100
AcDbXrecord
280
     1
102
RTVSPost2010Prop28
280
     0
102
RTVSPost2010PropOp28
 70
     1
102
RTVSPost2010Prop29
280
     1
102
RTVSPost2010PropOp29
 70
     1
102
RTVSPost2010Prop30
280
     1
102
RTVSPost2010PropOp30
 70
     1
102
RTVSPost2010Prop31
280
     0
102
RTVSPost2010PropOp31
 70
     1
102
RTVSPost2010Prop32
280
     0
102
RTVSPost2010PropOp32
 70
     1
102
RTVSPost2010Prop33
280
     0
102
RTVSPost2010PropOp33
 70
     1
102
RTVSPost2010Prop34
280
     0
102
RTVSPost2010PropOp34
 70
     1
102
RTVSPost2010Prop35
280
     0
102
RTVSPost2010PropOp35
 70
     1
102
RTVSPost2010Prop36
280
     0
102
RTVSPost2010PropOp36
 70
     1
102
RTVSPost2010Prop37
 90
       50
102
RTVSPost2010PropOp37
 70
     1
102
RTVSPost2010Prop38
140
0.0
102
RTVSPost2010PropOp38
 70
     1
102
RTVSPost2010Prop39
140
1.0
102
RTVSPost2010PropOp39
 70
     1
102
RTVSPost2010Prop40
 90
        0
102
RTVSPost2010PropOp40
 70
     1
102
RTVSPost2010Prop41ColorIndex
 90
       18
102
RTVSPost2010Prop41ColorRGB
 90
        0
102
RTVSPost2010PropOp41
 70
     1
102
RTVSPost2010Prop42
 90
       50
102
RTVSPost2010PropOp42
 70
     1
102
RTVSPost2010Prop43
 90
        3
102
RTVSPost2010PropOp43
 70
     1
102
RTVSPost2010Prop44ColorIndex
 90
        5
102
RTVSPost2010Prop44ColorRGB
 90
      255
102
RTVSPost2010PropOp44
 70
     1
102
RTVSPost2010Prop45
280
     0
102
RTVSPost2010PropOp45
 70
     1
102
RTVSPost2010Prop46
 90
       50
102
RTVSPost2010PropOp46
 70
     1
102
RTVSPost2010Prop47
 90
       50
102
RTVSPost2010PropOp47
 70
     1
102
RTVSPost2010Prop48
 90
       50
102
RTVSPost2010PropOp48
 70
     1
102
RTVSPost2010Prop49
280
     0
102
RTVSPost2010PropOp49
 70
     1
102
RTVSPost2010Prop50
 90
       50
102
RTVSPost2010PropOp50
 70
     1
102
RTVSPost2010Prop51ColorIndex
 90
      256
102
RTVSPost2010Prop51ColorRGB
 90
-16777216
102
RTVSPost2010PropOp51
 70
     0
102
RTVSPost2010Prop52
140
1.0
102
RTVSPost2010PropOp52
 70
     0
102
RTVSPost2010Prop53
 90
        2
102
RTVSPost2010PropOp53
 70
     1
102
RTVSPost2010Prop54
  1
strokes_ogs.tif
102
RTVSPost2010PropOp54
 70
     1
102
RTVSPost2010Prop55
280
     0
102
RTVSPost2010PropOp55
 70
     1
102
RTVSPost2010Prop56
140
1.0
102
RTVSPost2010PropOp56
 70
     1
102
RTVSPost2010Prop57
140
1.0
102
RTVSPost2010PropOp57
 70
     1
102
RTVSPropertyOp0
 70
     1
102
RTVSPropertyOp1
 70
     1
102
RTVSPropertyOp2
 70
     1
102
RTVSPropertyOp3
 70
     1
102
RTVSPropertyOp4
 70
     1
102
RTVSPropertyOp5
 70
     1
102
RTVSPropertyOp6
 70
     1
102
RTVSPropertyOp7
 70
     1
102
RTVSPropertyOp8
 70
     1
102
RTVSPropertyOp9
 70
     1
102
RTVSPropertyOp10
 70
     1
102
RTVSPropertyOp11
 70
     1
102
RTVSPropertyOp12
 70
     1
102
RTVSPropertyOp13
 70
     1
102
RTVSPropertyOp14
 70
     1
102
RTVSPropertyOp15
 70
     1
102
RTVSPropertyOp16
 70
     1
102
RTVSPropertyOp17
 70
     1
102
RTVSPropertyOp18
 70
     1
102
RTVSPropertyOp19
 70
     1
102
RTVSPropertyOp20
 70
     1
102
RTVSPropertyOp21
 70
     1
102
RTVSPropertyOp22
 70
     1
102
RTVSPropertyOp23
 70
     1
102
RTVSPropertyOp24
 70
     1
102
RTVSPropertyOp25
 70
     1
102
RTVSPropertyOp26
 70
     1
102
RTVSPropertyOp27
 70
     1
102
RTVSPropertyOp28
 70
     1
102
RTVSPropertyOp29
 70
     1
102
RTVSPropertyOp30
 70
     1
102
RTVSPropertyOp31
 70
     1
102
RTVSPropertyOp32
 70
     1
102
RTVSPropertyOp33
 70
     1
102
RTVSPropertyOp34
 70
     1
102
RTVSPropertyOp35
 70
     1
102
RTVSPropertyOp36
 70
     1
102
RTVSPropertyOp37
 70
     1
102
RTVSPropertyOp38
 70
     1
102
RTVSPropertyOp39
 70
     1
102
RTVSPropertyOp40
 70
     1
102
RTVSPropertyOp41
 70
     1
102
RTVSPropertyOp42
 70
     1
102
RTVSPropertyOp43
 70
     1
102
RTVSPropertyOp44
 70
     1
102
RTVSPropertyOp45
 70
     1
102
RTVSPropertyOp46
 70
     1
102
RTVSPropertyOp47
 70
     1
102
RTVSPropertyOp48
 70
     1
102
RTVSPropertyOp49
 70
     1
102
RTVSPropertyOp50
 70
     1
102
RTVSPropertyOp51
 70
     0
102
RTVSPropertyOp52
 70
     0
102
RTVSPropertyOp53
 70
     1
102
RTVSPropertyOp54
 70
     1
102
RTVSPropertyOp55
 70
     1
102
RTVSPropertyOp56
 70
     1
102
RTVSPropertyOp57
 70
     1
102
RTVSPropertyOp58
 70
     1
102
RTVSPropertyOp59
 70
     1
102
RTVSPropertyOp60
 70
     1
102
RTVSPropertyOp61
 70
     1
102
RTVSPropertyOp62
 70
     1
  0
XRECORD
  5
98E
102
{ACAD_REACTORS
330
98D
102
}
330
98D
100
AcDbXrecord
280
     1
102
RTVSPost2010Prop28
280
     0
102
RTVSPost2010PropOp28
 70
     1
102
RTVSPost2010Prop29
280
     1
102
RTVSPost2010PropOp29
 70
     1
102
RTVSPost2010Prop30
280
     1
102
RTVSPost2010PropOp30
 70
     1
102
RTVSPost2010Prop31
280
     0
102
RTVSPost2010PropOp31
 70
     1
102
RTVSPost2010Prop32
280
     0
102
RTVSPost2010PropOp32
 70
     1
102
RTVSPost2010Prop33
280
     0
102
RTVSPost2010PropOp33
 70
     1
102
RTVSPost2010Prop34
280
     0
102
RTVSPost2010PropOp34
 70
     1
102
RTVSPost2010Prop35
280
     0
102
RTVSPost2010PropOp35
 70
     1
102
RTVSPost2010Prop36
280
     0
102
RTVSPost2010PropOp36
 70
     1
102
RTVSPost2010Prop37
 90
       50
102
RTVSPost2010PropOp37
 70
     1
102
RTVSPost2010Prop38
140
0.0
102
RTVSPost2010PropOp38
 70
     1
102
RTVSPost2010Prop39
140
1.0
102
RTVSPost2010PropOp39
 70
     1
102
RTVSPost2010Prop40
 90
        0
102
RTVSPost2010PropOp40
 70
     1
102
RTVSPost2010Prop41ColorIndex
 90
       18
102
RTVSPost2010Prop41ColorRGB
 90
        0
102
RTVSPost2010PropOp41
 70
     1
102
RTVSPost2010Prop42
 90
       50
102
RTVSPost2010PropOp42
 70
     1
102
RTVSPost2010Prop43
 90
        3
102
RTVSPost2010PropOp43
 70
     1
102
RTVSPost2010Prop44ColorIndex
 90
        5
102
RTVSPost2010Prop44ColorRGB
 90
      255
102
RTVSPost2010PropOp44
 70
     1
102
RTVSPost2010Prop45
280
     0
102
RTVSPost2010PropOp45
 70
     1
102
RTVSPost2010Prop46
 90
       50
102
RTVSPost2010PropOp46
 70
     1
102
RTVSPost2010Prop47
 90
       50
102
RTVSPost2010PropOp47
 70
     1
102
RTVSPost2010Prop48
 90
       50
102
RTVSPost2010PropOp48
 70
     1
102
RTVSPost2010Prop49
280
     0
102
RTVSPost2010PropOp49
 70
     1
102
RTVSPost2010Prop50
 90
       50
102
RTVSPost2010PropOp50
 70
     1
102
RTVSPost2010Prop51ColorIndex
 90
      256
102
RTVSPost2010Prop51ColorRGB
 90
-16777216
102
RTVSPost2010PropOp51
 70
     0
102
RTVSPost2010Prop52
140
1.0
102
RTVSPost2010PropOp52
 70
     0
102
RTVSPost2010Prop53
 90
        2
102
RTVSPost2010PropOp53
 70
     1
102
RTVSPost2010Prop54
  1
strokes_ogs.tif
102
RTVSPost2010PropOp54
 70
     1
102
RTVSPost2010Prop55
280
     0
102
RTVSPost2010PropOp55
 70
     1
102
RTVSPost2010Prop56
140
1.0
102
RTVSPost2010PropOp56
 70
     1
102
RTVSPost2010Prop57
140
1.0
102
RTVSPost2010PropOp57
 70
     1
102
RTVSPropertyOp0
 70
     1
102
RTVSPropertyOp1
 70
     1
102
RTVSPropertyOp2
 70
     1
102
RTVSPropertyOp3
 70
     1
102
RTVSPropertyOp4
 70
     1
102
RTVSPropertyOp5
 70
     1
102
RTVSPropertyOp6
 70
     1
102
RTVSPropertyOp7
 70
     1
102
RTVSPropertyOp8
 70
     1
102
RTVSPropertyOp9
 70
     1
102
RTVSPropertyOp10
 70
     1
102
RTVSPropertyOp11
 70
     1
102
RTVSPropertyOp12
 70
     1
102
RTVSPropertyOp13
 70
     1
102
RTVSPropertyOp14
 70
     1
102
RTVSPropertyOp15
 70
     1
102
RTVSPropertyOp16
 70
     1
102
RTVSPropertyOp17
 70
     1
102
RTVSPropertyOp18
 70
     1
102
RTVSPropertyOp19
 70
     1
102
RTVSPropertyOp20
 70
     1
102
RTVSPropertyOp21
 70
     1
102
RTVSPropertyOp22
 70
     1
102
RTVSPropertyOp23
 70
     1
102
RTVSPropertyOp24
 70
     1
102
RTVSPropertyOp25
 70
     1
102
RTVSPropertyOp26
 70
     1
102
RTVSPropertyOp27
 70
     1
102
RTVSPropertyOp28
 70
     1
102
RTVSPropertyOp29
 70
     1
102
RTVSPropertyOp30
 70
     1
102
RTVSPropertyOp31
 70
     1
102
RTVSPropertyOp32
 70
     1
102
RTVSPropertyOp33
 70
     1
102
RTVSPropertyOp34
 70
     1
102
RTVSPropertyOp35
 70
     1
102
RTVSPropertyOp36
 70
     1
102
RTVSPropertyOp37
 70
     1
102
RTVSPropertyOp38
 70
     1
102
RTVSPropertyOp39
 70
     1
102
RTVSPropertyOp40
 70
     1
102
RTVSPropertyOp41
 70
     1
102
RTVSPropertyOp42
 70
     1
102
RTVSPropertyOp43
 70
     1
102
RTVSPropertyOp44
 70
     1
102
RTVSPropertyOp45
 70
     1
102
RTVSPropertyOp46
 70
     1
102
RTVSPropertyOp47
 70
     1
102
RTVSPropertyOp48
 70
     1
102
RTVSPropertyOp49
 70
     1
102
RTVSPropertyOp50
 70
     1
102
RTVSPropertyOp51
 70
     0
102
RTVSPropertyOp52
 70
     0
102
RTVSPropertyOp53
 70
     1
102
RTVSPropertyOp54
 70
     1
102
RTVSPropertyOp55
 70
     1
102
RTVSPropertyOp56
 70
     1
102
RTVSPropertyOp57
 70
     1
102
RTVSPropertyOp58
 70
     1
102
RTVSPropertyOp59
 70
     1
102
RTVSPropertyOp60
 70
     1
102
RTVSPropertyOp61
 70
     1
102
RTVSPropertyOp62
 70
     1
  0
XRECORD
  5
98C
102
{ACAD_REACTORS
330
98B
102
}
330
98B
100
AcDbXrecord
280
     1
102
RTVSPost2010Prop28
280
     0
102
RTVSPost2010PropOp28
 70
     1
102
RTVSPost2010Prop29
280
     1
102
RTVSPost2010PropOp29
 70
     1
102
RTVSPost2010Prop30
280
     1
102
RTVSPost2010PropOp30
 70
     1
102
RTVSPost2010Prop31
280
     0
102
RTVSPost2010PropOp31
 70
     1
102
RTVSPost2010Prop32
280
     0
102
RTVSPost2010PropOp32
 70
     1
102
RTVSPost2010Prop33
280
     0
102
RTVSPost2010PropOp33
 70
     1
102
RTVSPost2010Prop34
280
     0
102
RTVSPost2010PropOp34
 70
     1
102
RTVSPost2010Prop35
280
     0
102
RTVSPost2010PropOp35
 70
     1
102
RTVSPost2010Prop36
280
     0
102
RTVSPost2010PropOp36
 70
     1
102
RTVSPost2010Prop37
 90
       50
102
RTVSPost2010PropOp37
 70
     1
102
RTVSPost2010Prop38
140
0.0
102
RTVSPost2010PropOp38
 70
     1
102
RTVSPost2010Prop39
140
1.0
102
RTVSPost2010PropOp39
 70
     1
102
RTVSPost2010Prop40
 90
        0
102
RTVSPost2010PropOp40
 70
     1
102
RTVSPost2010Prop41ColorIndex
 90
       18
102
RTVSPost2010Prop41ColorRGB
 90
        0
102
RTVSPost2010PropOp41
 70
     1
102
RTVSPost2010Prop42
 90
       50
102
RTVSPost2010PropOp42
 70
     1
102
RTVSPost2010Prop43
 90
        3
102
RTVSPost2010PropOp43
 70
     1
102
RTVSPost2010Prop44ColorIndex
 90
        5
102
RTVSPost2010Prop44ColorRGB
 90
      255
102
RTVSPost2010PropOp44
 70
     1
102
RTVSPost2010Prop45
280
     0
102
RTVSPost2010PropOp45
 70
     1
102
RTVSPost2010Prop46
 90
       50
102
RTVSPost2010PropOp46
 70
     1
102
RTVSPost2010Prop47
 90
       50
102
RTVSPost2010PropOp47
 70
     1
102
RTVSPost2010Prop48
 90
       50
102
RTVSPost2010PropOp48
 70
     1
102
RTVSPost2010Prop49
280
     0
102
RTVSPost2010PropOp49
 70
     1
102
RTVSPost2010Prop50
 90
       50
102
RTVSPost2010PropOp50
 70
     1
102
RTVSPost2010Prop51ColorIndex
 90
      256
102
RTVSPost2010Prop51ColorRGB
 90
-16777216
102
RTVSPost2010PropOp51
 70
     0
102
RTVSPost2010Prop52
140
1.0
102
RTVSPost2010PropOp52
 70
     0
102
RTVSPost2010Prop53
 90
        2
102
RTVSPost2010PropOp53
 70
     1
102
RTVSPost2010Prop54
  1
strokes_ogs.tif
102
RTVSPost2010PropOp54
 70
     1
102
RTVSPost2010Prop55
280
     0
102
RTVSPost2010PropOp55
 70
     1
102
RTVSPost2010Prop56
140
1.0
102
RTVSPost2010PropOp56
 70
     1
102
RTVSPost2010Prop57
140
1.0
102
RTVSPost2010PropOp57
 70
     1
102
RTVSPropertyOp0
 70
     1
102
RTVSPropertyOp1
 70
     1
102
RTVSPropertyOp2
 70
     1
102
RTVSPropertyOp3
 70
     1
102
RTVSPropertyOp4
 70
     1
102
RTVSPropertyOp5
 70
     1
102
RTVSPropertyOp6
 70
     1
102
RTVSPropertyOp7
 70
     1
102
RTVSPropertyOp8
 70
     1
102
RTVSPropertyOp9
 70
     1
102
RTVSPropertyOp10
 70
     1
102
RTVSPropertyOp11
 70
     1
102
RTVSPropertyOp12
 70
     1
102
RTVSPropertyOp13
 70
     1
102
RTVSPropertyOp14
 70
     1
102
RTVSPropertyOp15
 70
     1
102
RTVSPropertyOp16
 70
     1
102
RTVSPropertyOp17
 70
     1
102
RTVSPropertyOp18
 70
     1
102
RTVSPropertyOp19
 70
     1
102
RTVSPropertyOp20
 70
     1
102
RTVSPropertyOp21
 70
     1
102
RTVSPropertyOp22
 70
     1
102
RTVSPropertyOp23
 70
     1
102
RTVSPropertyOp24
 70
     1
102
RTVSPropertyOp25
 70
     1
102
RTVSPropertyOp26
 70
     1
102
RTVSPropertyOp27
 70
     1
102
RTVSPropertyOp28
 70
     1
102
RTVSPropertyOp29
 70
     1
102
RTVSPropertyOp30
 70
     1
102
RTVSPropertyOp31
 70
     1
102
RTVSPropertyOp32
 70
     1
102
RTVSPropertyOp33
 70
     1
102
RTVSPropertyOp34
 70
     1
102
RTVSPropertyOp35
 70
     1
102
RTVSPropertyOp36
 70
     1
102
RTVSPropertyOp37
 70
     1
102
RTVSPropertyOp38
 70
     1
102
RTVSPropertyOp39
 70
     1
102
RTVSPropertyOp40
 70
     1
102
RTVSPropertyOp41
 70
     1
102
RTVSPropertyOp42
 70
     1
102
RTVSPropertyOp43
 70
     1
102
RTVSPropertyOp44
 70
     1
102
RTVSPropertyOp45
 70
     1
102
RTVSPropertyOp46
 70
     1
102
RTVSPropertyOp47
 70
     1
102
RTVSPropertyOp48
 70
     1
102
RTVSPropertyOp49
 70
     1
102
RTVSPropertyOp50
 70
     1
102
RTVSPropertyOp51
 70
     0
102
RTVSPropertyOp52
 70
     0
102
RTVSPropertyOp53
 70
     1
102
RTVSPropertyOp54
 70
     1
102
RTVSPropertyOp55
 70
     1
102
RTVSPropertyOp56
 70
     1
102
RTVSPropertyOp57
 70
     1
102
RTVSPropertyOp58
 70
     1
102
RTVSPropertyOp59
 70
     1
102
RTVSPropertyOp60
 70
     1
102
RTVSPropertyOp61
 70
     1
102
RTVSPropertyOp62
 70
     1
  0
XRECORD
  5
986
102
{ACAD_REACTORS
330
985
102
}
330
985
100
AcDbXrecord
280
     1
102
RTVSPost2010Prop28
280
     0
102
RTVSPost2010PropOp28
 70
     1
102
RTVSPost2010Prop29
280
     1
102
RTVSPost2010PropOp29
 70
     1
102
RTVSPost2010Prop30
280
     1
102
RTVSPost2010PropOp30
 70
     1
102
RTVSPost2010Prop31
280
     0
102
RTVSPost2010PropOp31
 70
     1
102
RTVSPost2010Prop32
280
     0
102
RTVSPost2010PropOp32
 70
     1
102
RTVSPost2010Prop33
280
     0
102
RTVSPost2010PropOp33
 70
     1
102
RTVSPost2010Prop34
280
     0
102
RTVSPost2010PropOp34
 70
     1
102
RTVSPost2010Prop35
280
     0
102
RTVSPost2010PropOp35
 70
     1
102
RTVSPost2010Prop36
280
     0
102
RTVSPost2010PropOp36
 70
     1
102
RTVSPost2010Prop37
 90
       50
102
RTVSPost2010PropOp37
 70
     1
102
RTVSPost2010Prop38
140
0.0
102
RTVSPost2010PropOp38
 70
     1
102
RTVSPost2010Prop39
140
1.0
102
RTVSPost2010PropOp39
 70
     1
102
RTVSPost2010Prop40
 90
        0
102
RTVSPost2010PropOp40
 70
     1
102
RTVSPost2010Prop41ColorIndex
 90
       18
102
RTVSPost2010Prop41ColorRGB
 90
        0
102
RTVSPost2010PropOp41
 70
     1
102
RTVSPost2010Prop42
 90
       50
102
RTVSPost2010PropOp42
 70
     1
102
RTVSPost2010Prop43
 90
        3
102
RTVSPost2010PropOp43
 70
     1
102
RTVSPost2010Prop44ColorIndex
 90
        5
102
RTVSPost2010Prop44ColorRGB
 90
      255
102
RTVSPost2010PropOp44
 70
     1
102
RTVSPost2010Prop45
280
     0
102
RTVSPost2010PropOp45
 70
     1
102
RTVSPost2010Prop46
 90
       50
102
RTVSPost2010PropOp46
 70
     1
102
RTVSPost2010Prop47
 90
       50
102
RTVSPost2010PropOp47
 70
     1
102
RTVSPost2010Prop48
 90
       50
102
RTVSPost2010PropOp48
 70
     1
102
RTVSPost2010Prop49
280
     0
102
RTVSPost2010PropOp49
 70
     1
102
RTVSPost2010Prop50
 90
       50
102
RTVSPost2010PropOp50
 70
     1
102
RTVSPost2010Prop51ColorIndex
 90
      256
102
RTVSPost2010Prop51ColorRGB
 90
-16777216
102
RTVSPost2010PropOp51
 70
     0
102
RTVSPost2010Prop52
140
1.0
102
RTVSPost2010PropOp52
 70
     0
102
RTVSPost2010Prop53
 90
        2
102
RTVSPost2010PropOp53
 70
     1
102
RTVSPost2010Prop54
  1
strokes_ogs.tif
102
RTVSPost2010PropOp54
 70
     1
102
RTVSPost2010Prop55
280
     0
102
RTVSPost2010PropOp55
 70
     1
102
RTVSPost2010Prop56
140
1.0
102
RTVSPost2010PropOp56
 70
     1
102
RTVSPost2010Prop57
140
1.0
102
RTVSPost2010PropOp57
 70
     1
102
RTVSPropertyOp0
 70
     1
102
RTVSPropertyOp1
 70
     1
102
RTVSPropertyOp2
 70
     1
102
RTVSPropertyOp3
 70
     1
102
RTVSPropertyOp4
 70
     1
102
RTVSPropertyOp5
 70
     1
102
RTVSPropertyOp6
 70
     1
102
RTVSPropertyOp7
 70
     1
102
RTVSPropertyOp8
 70
     1
102
RTVSPropertyOp9
 70
     1
102
RTVSPropertyOp10
 70
     1
102
RTVSPropertyOp11
 70
     1
102
RTVSPropertyOp12
 70
     1
102
RTVSPropertyOp13
 70
     1
102
RTVSPropertyOp14
 70
     1
102
RTVSPropertyOp15
 70
     1
102
RTVSPropertyOp16
 70
     1
102
RTVSPropertyOp17
 70
     1
102
RTVSPropertyOp18
 70
     1
102
RTVSPropertyOp19
 70
     1
102
RTVSPropertyOp20
 70
     1
102
RTVSPropertyOp21
 70
     1
102
RTVSPropertyOp22
 70
     1
102
RTVSPropertyOp23
 70
     1
102
RTVSPropertyOp24
 70
     1
102
RTVSPropertyOp25
 70
     1
102
RTVSPropertyOp26
 70
     1
102
RTVSPropertyOp27
 70
     1
102
RTVSPropertyOp28
 70
     1
102
RTVSPropertyOp29
 70
     1
102
RTVSPropertyOp30
 70
     1
102
RTVSPropertyOp31
 70
     1
102
RTVSPropertyOp32
 70
     1
102
RTVSPropertyOp33
 70
     1
102
RTVSPropertyOp34
 70
     1
102
RTVSPropertyOp35
 70
     1
102
RTVSPropertyOp36
 70
     1
102
RTVSPropertyOp37
 70
     1
102
RTVSPropertyOp38
 70
     1
102
RTVSPropertyOp39
 70
     1
102
RTVSPropertyOp40
 70
     1
102
RTVSPropertyOp41
 70
     1
102
RTVSPropertyOp42
 70
     1
102
RTVSPropertyOp43
 70
     1
102
RTVSPropertyOp44
 70
     1
102
RTVSPropertyOp45
 70
     1
102
RTVSPropertyOp46
 70
     1
102
RTVSPropertyOp47
 70
     1
102
RTVSPropertyOp48
 70
     1
102
RTVSPropertyOp49
 70
     1
102
RTVSPropertyOp50
 70
     1
102
RTVSPropertyOp51
 70
     0
102
RTVSPropertyOp52
 70
     0
102
RTVSPropertyOp53
 70
     1
102
RTVSPropertyOp54
 70
     1
102
RTVSPropertyOp55
 70
     1
102
RTVSPropertyOp56
 70
     1
102
RTVSPropertyOp57
 70
     1
102
RTVSPropertyOp58
 70
     1
102
RTVSPropertyOp59
 70
     1
102
RTVSPropertyOp60
 70
     1
102
RTVSPropertyOp61
 70
     1
102
RTVSPropertyOp62
 70
     1
  0
XRECORD
  5
988
102
{ACAD_REACTORS
330
987
102
}
330
987
100
AcDbXrecord
280
     1
102
RTVSPost2010Prop28
280
     0
102
RTVSPost2010PropOp28
 70
     1
102
RTVSPost2010Prop29
280
     1
102
RTVSPost2010PropOp29
 70
     1
102
RTVSPost2010Prop30
280
     1
102
RTVSPost2010PropOp30
 70
     1
102
RTVSPost2010Prop31
280
     0
102
RTVSPost2010PropOp31
 70
     1
102
RTVSPost2010Prop32
280
     0
102
RTVSPost2010PropOp32
 70
     1
102
RTVSPost2010Prop33
280
     0
102
RTVSPost2010PropOp33
 70
     1
102
RTVSPost2010Prop34
280
     0
102
RTVSPost2010PropOp34
 70
     1
102
RTVSPost2010Prop35
280
     0
102
RTVSPost2010PropOp35
 70
     1
102
RTVSPost2010Prop36
280
     0
102
RTVSPost2010PropOp36
 70
     1
102
RTVSPost2010Prop37
 90
       50
102
RTVSPost2010PropOp37
 70
     1
102
RTVSPost2010Prop38
140
0.0
102
RTVSPost2010PropOp38
 70
     1
102
RTVSPost2010Prop39
140
1.0
102
RTVSPost2010PropOp39
 70
     1
102
RTVSPost2010Prop40
 90
        0
102
RTVSPost2010PropOp40
 70
     1
102
RTVSPost2010Prop41ColorIndex
 90
       18
102
RTVSPost2010Prop41ColorRGB
 90
        0
102
RTVSPost2010PropOp41
 70
     1
102
RTVSPost2010Prop42
 90
       50
102
RTVSPost2010PropOp42
 70
     1
102
RTVSPost2010Prop43
 90
        3
102
RTVSPost2010PropOp43
 70
     1
102
RTVSPost2010Prop44ColorIndex
 90
        5
102
RTVSPost2010Prop44ColorRGB
 90
      255
102
RTVSPost2010PropOp44
 70
     1
102
RTVSPost2010Prop45
280
     0
102
RTVSPost2010PropOp45
 70
     1
102
RTVSPost2010Prop46
 90
       50
102
RTVSPost2010PropOp46
 70
     1
102
RTVSPost2010Prop47
 90
       50
102
RTVSPost2010PropOp47
 70
     1
102
RTVSPost2010Prop48
 90
       50
102
RTVSPost2010PropOp48
 70
     1
102
RTVSPost2010Prop49
280
     0
102
RTVSPost2010PropOp49
 70
     1
102
RTVSPost2010Prop50
 90
       50
102
RTVSPost2010PropOp50
 70
     1
102
RTVSPost2010Prop51ColorIndex
 90
      256
102
RTVSPost2010Prop51ColorRGB
 90
-16777216
102
RTVSPost2010PropOp51
 70
     0
102
RTVSPost2010Prop52
140
1.0
102
RTVSPost2010PropOp52
 70
     0
102
RTVSPost2010Prop53
 90
        2
102
RTVSPost2010PropOp53
 70
     1
102
RTVSPost2010Prop54
  1
strokes_ogs.tif
102
RTVSPost2010PropOp54
 70
     1
102
RTVSPost2010Prop55
280
     0
102
RTVSPost2010PropOp55
 70
     1
102
RTVSPost2010Prop56
140
1.0
102
RTVSPost2010PropOp56
 70
     1
102
RTVSPost2010Prop57
140
1.0
102
RTVSPost2010PropOp57
 70
     1
102
RTVSPropertyOp0
 70
     1
102
RTVSPropertyOp1
 70
     1
102
RTVSPropertyOp2
 70
     1
102
RTVSPropertyOp3
 70
     1
102
RTVSPropertyOp4
 70
     1
102
RTVSPropertyOp5
 70
     1
102
RTVSPropertyOp6
 70
     1
102
RTVSPropertyOp7
 70
     1
102
RTVSPropertyOp8
 70
     1
102
RTVSPropertyOp9
 70
     1
102
RTVSPropertyOp10
 70
     1
102
RTVSPropertyOp11
 70
     1
102
RTVSPropertyOp12
 70
     1
102
RTVSPropertyOp13
 70
     1
102
RTVSPropertyOp14
 70
     1
102
RTVSPropertyOp15
 70
     1
102
RTVSPropertyOp16
 70
     1
102
RTVSPropertyOp17
 70
     1
102
RTVSPropertyOp18
 70
     1
102
RTVSPropertyOp19
 70
     1
102
RTVSPropertyOp20
 70
     1
102
RTVSPropertyOp21
 70
     1
102
RTVSPropertyOp22
 70
     1
102
RTVSPropertyOp23
 70
     1
102
RTVSPropertyOp24
 70
     1
102
RTVSPropertyOp25
 70
     1
102
RTVSPropertyOp26
 70
     1
102
RTVSPropertyOp27
 70
     1
102
RTVSPropertyOp28
 70
     1
102
RTVSPropertyOp29
 70
     1
102
RTVSPropertyOp30
 70
     1
102
RTVSPropertyOp31
 70
     1
102
RTVSPropertyOp32
 70
     1
102
RTVSPropertyOp33
 70
     1
102
RTVSPropertyOp34
 70
     1
102
RTVSPropertyOp35
 70
     1
102
RTVSPropertyOp36
 70
     1
102
RTVSPropertyOp37
 70
     1
102
RTVSPropertyOp38
 70
     1
102
RTVSPropertyOp39
 70
     1
102
RTVSPropertyOp40
 70
     1
102
RTVSPropertyOp41
 70
     1
102
RTVSPropertyOp42
 70
     1
102
RTVSPropertyOp43
 70
     1
102
RTVSPropertyOp44
 70
     1
102
RTVSPropertyOp45
 70
     1
102
RTVSPropertyOp46
 70
     1
102
RTVSPropertyOp47
 70
     1
102
RTVSPropertyOp48
 70
     1
102
RTVSPropertyOp49
 70
     1
102
RTVSPropertyOp50
 70
     1
102
RTVSPropertyOp51
 70
     0
102
RTVSPropertyOp52
 70
     0
102
RTVSPropertyOp53
 70
     1
102
RTVSPropertyOp54
 70
     1
102
RTVSPropertyOp55
 70
     1
102
RTVSPropertyOp56
 70
     1
102
RTVSPropertyOp57
 70
     1
102
RTVSPropertyOp58
 70
     1
102
RTVSPropertyOp59
 70
     1
102
RTVSPropertyOp60
 70
     1
102
RTVSPropertyOp61
 70
     1
102
RTVSPropertyOp62
 70
     1
  0
XRECORD
  5
97E
102
{ACAD_REACTORS
330
97D
102
}
330
97D
100
AcDbXrecord
280
     1
102
RTVSPost2010Prop28
280
     0
102
RTVSPost2010PropOp28
 70
     1
102
RTVSPost2010Prop29
280
     1
102
RTVSPost2010PropOp29
 70
     1
102
RTVSPost2010Prop30
280
     1
102
RTVSPost2010PropOp30
 70
     1
102
RTVSPost2010Prop31
280
     0
102
RTVSPost2010PropOp31
 70
     1
102
RTVSPost2010Prop32
280
     0
102
RTVSPost2010PropOp32
 70
     1
102
RTVSPost2010Prop33
280
     0
102
RTVSPost2010PropOp33
 70
     1
102
RTVSPost2010Prop34
280
     0
102
RTVSPost2010PropOp34
 70
     1
102
RTVSPost2010Prop35
280
     0
102
RTVSPost2010PropOp35
 70
     1
102
RTVSPost2010Prop36
280
     0
102
RTVSPost2010PropOp36
 70
     1
102
RTVSPost2010Prop37
 90
       50
102
RTVSPost2010PropOp37
 70
     1
102
RTVSPost2010Prop38
140
0.0
102
RTVSPost2010PropOp38
 70
     1
102
RTVSPost2010Prop39
140
1.0
102
RTVSPost2010PropOp39
 70
     1
102
RTVSPost2010Prop40
 90
        0
102
RTVSPost2010PropOp40
 70
     1
102
RTVSPost2010Prop41ColorIndex
 90
       18
102
RTVSPost2010Prop41ColorRGB
 90
        0
102
RTVSPost2010PropOp41
 70
     1
102
RTVSPost2010Prop42
 90
       50
102
RTVSPost2010PropOp42
 70
     1
102
RTVSPost2010Prop43
 90
        3
102
RTVSPost2010PropOp43
 70
     1
102
RTVSPost2010Prop44ColorIndex
 90
        5
102
RTVSPost2010Prop44ColorRGB
 90
      255
102
RTVSPost2010PropOp44
 70
     1
102
RTVSPost2010Prop45
280
     0
102
RTVSPost2010PropOp45
 70
     1
102
RTVSPost2010Prop46
 90
       50
102
RTVSPost2010PropOp46
 70
     1
102
RTVSPost2010Prop47
 90
       50
102
RTVSPost2010PropOp47
 70
     1
102
RTVSPost2010Prop48
 90
       50
102
RTVSPost2010PropOp48
 70
     1
102
RTVSPost2010Prop49
280
     0
102
RTVSPost2010PropOp49
 70
     1
102
RTVSPost2010Prop50
 90
       50
102
RTVSPost2010PropOp50
 70
     1
102
RTVSPost2010Prop51ColorIndex
 90
      256
102
RTVSPost2010Prop51ColorRGB
 90
-16777216
102
RTVSPost2010PropOp51
 70
     0
102
RTVSPost2010Prop52
140
1.0
102
RTVSPost2010PropOp52
 70
     0
102
RTVSPost2010Prop53
 90
        2
102
RTVSPost2010PropOp53
 70
     1
102
RTVSPost2010Prop54
  1
strokes_ogs.tif
102
RTVSPost2010PropOp54
 70
     1
102
RTVSPost2010Prop55
280
     0
102
RTVSPost2010PropOp55
 70
     1
102
RTVSPost2010Prop56
140
1.0
102
RTVSPost2010PropOp56
 70
     1
102
RTVSPost2010Prop57
140
1.0
102
RTVSPost2010PropOp57
 70
     1
102
RTVSPropertyOp0
 70
     1
102
RTVSPropertyOp1
 70
     1
102
RTVSPropertyOp2
 70
     1
102
RTVSPropertyOp3
 70
     1
102
RTVSPropertyOp4
 70
     1
102
RTVSPropertyOp5
 70
     1
102
RTVSPropertyOp6
 70
     1
102
RTVSPropertyOp7
 70
     1
102
RTVSPropertyOp8
 70
     1
102
RTVSPropertyOp9
 70
     1
102
RTVSPropertyOp10
 70
     1
102
RTVSPropertyOp11
 70
     1
102
RTVSPropertyOp12
 70
     1
102
RTVSPropertyOp13
 70
     1
102
RTVSPropertyOp14
 70
     1
102
RTVSPropertyOp15
 70
     1
102
RTVSPropertyOp16
 70
     1
102
RTVSPropertyOp17
 70
     1
102
RTVSPropertyOp18
 70
     1
102
RTVSPropertyOp19
 70
     1
102
RTVSPropertyOp20
 70
     1
102
RTVSPropertyOp21
 70
     1
102
RTVSPropertyOp22
 70
     1
102
RTVSPropertyOp23
 70
     1
102
RTVSPropertyOp24
 70
     1
102
RTVSPropertyOp25
 70
     1
102
RTVSPropertyOp26
 70
     1
102
RTVSPropertyOp27
 70
     1
102
RTVSPropertyOp28
 70
     1
102
RTVSPropertyOp29
 70
     1
102
RTVSPropertyOp30
 70
     1
102
RTVSPropertyOp31
 70
     1
102
RTVSPropertyOp32
 70
     1
102
RTVSPropertyOp33
 70
     1
102
RTVSPropertyOp34
 70
     1
102
RTVSPropertyOp35
 70
     1
102
RTVSPropertyOp36
 70
     1
102
RTVSPropertyOp37
 70
     1
102
RTVSPropertyOp38
 70
     1
102
RTVSPropertyOp39
 70
     1
102
RTVSPropertyOp40
 70
     1
102
RTVSPropertyOp41
 70
     1
102
RTVSPropertyOp42
 70
     1
102
RTVSPropertyOp43
 70
     1
102
RTVSPropertyOp44
 70
     1
102
RTVSPropertyOp45
 70
     1
102
RTVSPropertyOp46
 70
     1
102
RTVSPropertyOp47
 70
     1
102
RTVSPropertyOp48
 70
     1
102
RTVSPropertyOp49
 70
     1
102
RTVSPropertyOp50
 70
     1
102
RTVSPropertyOp51
 70
     0
102
RTVSPropertyOp52
 70
     0
102
RTVSPropertyOp53
 70
     1
102
RTVSPropertyOp54
 70
     1
102
RTVSPropertyOp55
 70
     1
102
RTVSPropertyOp56
 70
     1
102
RTVSPropertyOp57
 70
     1
102
RTVSPropertyOp58
 70
     1
102
RTVSPropertyOp59
 70
     1
102
RTVSPropertyOp60
 70
     1
102
RTVSPropertyOp61
 70
     1
102
RTVSPropertyOp62
 70
     1
  0
XRECORD
  5
972
102
{ACAD_REACTORS
330
971
102
}
330
971
100
AcDbXrecord
280
     1
102
RTVSPost2010Prop28
280
     0
102
RTVSPost2010PropOp28
 70
     1
102
RTVSPost2010Prop29
280
     1
102
RTVSPost2010PropOp29
 70
     1
102
RTVSPost2010Prop30
280
     1
102
RTVSPost2010PropOp30
 70
     1
102
RTVSPost2010Prop31
280
     0
102
RTVSPost2010PropOp31
 70
     1
102
RTVSPost2010Prop32
280
     0
102
RTVSPost2010PropOp32
 70
     1
102
RTVSPost2010Prop33
280
     0
102
RTVSPost2010PropOp33
 70
     1
102
RTVSPost2010Prop34
280
     0
102
RTVSPost2010PropOp34
 70
     1
102
RTVSPost2010Prop35
280
     0
102
RTVSPost2010PropOp35
 70
     1
102
RTVSPost2010Prop36
280
     0
102
RTVSPost2010PropOp36
 70
     1
102
RTVSPost2010Prop37
 90
       50
102
RTVSPost2010PropOp37
 70
     1
102
RTVSPost2010Prop38
140
0.0
102
RTVSPost2010PropOp38
 70
     1
102
RTVSPost2010Prop39
140
1.0
102
RTVSPost2010PropOp39
 70
     1
102
RTVSPost2010Prop40
 90
        0
102
RTVSPost2010PropOp40
 70
     1
102
RTVSPost2010Prop41ColorIndex
 90
       18
102
RTVSPost2010Prop41ColorRGB
 90
        0
102
RTVSPost2010PropOp41
 70
     1
102
RTVSPost2010Prop42
 90
       50
102
RTVSPost2010PropOp42
 70
     1
102
RTVSPost2010Prop43
 90
        3
102
RTVSPost2010PropOp43
 70
     1
102
RTVSPost2010Prop44ColorIndex
 90
        5
102
RTVSPost2010Prop44ColorRGB
 90
      255
102
RTVSPost2010PropOp44
 70
     1
102
RTVSPost2010Prop45
280
     0
102
RTVSPost2010PropOp45
 70
     1
102
RTVSPost2010Prop46
 90
       50
102
RTVSPost2010PropOp46
 70
     1
102
RTVSPost2010Prop47
 90
       50
102
RTVSPost2010PropOp47
 70
     1
102
RTVSPost2010Prop48
 90
       50
102
RTVSPost2010PropOp48
 70
     1
102
RTVSPost2010Prop49
280
     0
102
RTVSPost2010PropOp49
 70
     1
102
RTVSPost2010Prop50
 90
       50
102
RTVSPost2010PropOp50
 70
     1
102
RTVSPost2010Prop51ColorIndex
 90
      256
102
RTVSPost2010Prop51ColorRGB
 90
-16777216
102
RTVSPost2010PropOp51
 70
     0
102
RTVSPost2010Prop52
140
1.0
102
RTVSPost2010PropOp52
 70
     0
102
RTVSPost2010Prop53
 90
        2
102
RTVSPost2010PropOp53
 70
     1
102
RTVSPost2010Prop54
  1
strokes_ogs.tif
102
RTVSPost2010PropOp54
 70
     1
102
RTVSPost2010Prop55
280
     0
102
RTVSPost2010PropOp55
 70
     1
102
RTVSPost2010Prop56
140
1.0
102
RTVSPost2010PropOp56
 70
     1
102
RTVSPost2010Prop57
140
1.0
102
RTVSPost2010PropOp57
 70
     1
102
RTVSPropertyOp0
 70
     1
102
RTVSPropertyOp1
 70
     1
102
RTVSPropertyOp2
 70
     1
102
RTVSPropertyOp3
 70
     1
102
RTVSPropertyOp4
 70
     1
102
RTVSPropertyOp5
 70
     1
102
RTVSPropertyOp6
 70
     1
102
RTVSPropertyOp7
 70
     1
102
RTVSPropertyOp8
 70
     1
102
RTVSPropertyOp9
 70
     1
102
RTVSPropertyOp10
 70
     1
102
RTVSPropertyOp11
 70
     1
102
RTVSPropertyOp12
 70
     1
102
RTVSPropertyOp13
 70
     1
102
RTVSPropertyOp14
 70
     1
102
RTVSPropertyOp15
 70
     1
102
RTVSPropertyOp16
 70
     1
102
RTVSPropertyOp17
 70
     1
102
RTVSPropertyOp18
 70
     1
102
RTVSPropertyOp19
 70
     1
102
RTVSPropertyOp20
 70
     1
102
RTVSPropertyOp21
 70
     1
102
RTVSPropertyOp22
 70
     1
102
RTVSPropertyOp23
 70
     1
102
RTVSPropertyOp24
 70
     1
102
RTVSPropertyOp25
 70
     1
102
RTVSPropertyOp26
 70
     1
102
RTVSPropertyOp27
 70
     1
102
RTVSPropertyOp28
 70
     1
102
RTVSPropertyOp29
 70
     1
102
RTVSPropertyOp30
 70
     1
102
RTVSPropertyOp31
 70
     1
102
RTVSPropertyOp32
 70
     1
102
RTVSPropertyOp33
 70
     1
102
RTVSPropertyOp34
 70
     1
102
RTVSPropertyOp35
 70
     1
102
RTVSPropertyOp36
 70
     1
102
RTVSPropertyOp37
 70
     1
102
RTVSPropertyOp38
 70
     1
102
RTVSPropertyOp39
 70
     1
102
RTVSPropertyOp40
 70
     1
102
RTVSPropertyOp41
 70
     1
102
RTVSPropertyOp42
 70
     1
102
RTVSPropertyOp43
 70
     1
102
RTVSPropertyOp44
 70
     1
102
RTVSPropertyOp45
 70
     1
102
RTVSPropertyOp46
 70
     1
102
RTVSPropertyOp47
 70
     1
102
RTVSPropertyOp48
 70
     1
102
RTVSPropertyOp49
 70
     1
102
RTVSPropertyOp50
 70
     1
102
RTVSPropertyOp51
 70
     0
102
RTVSPropertyOp52
 70
     0
102
RTVSPropertyOp53
 70
     1
102
RTVSPropertyOp54
 70
     1
102
RTVSPropertyOp55
 70
     1
102
RTVSPropertyOp56
 70
     1
102
RTVSPropertyOp57
 70
     1
102
RTVSPropertyOp58
 70
     1
102
RTVSPropertyOp59
 70
     1
102
RTVSPropertyOp60
 70
     1
102
RTVSPropertyOp61
 70
     1
102
RTVSPropertyOp62
 70
     1
  0
XRECORD
  5
98A
102
{ACAD_REACTORS
330
989
102
}
330
989
100
AcDbXrecord
280
     1
102
RTVSPost2010Prop28
280
     0
102
RTVSPost2010PropOp28
 70
     1
102
RTVSPost2010Prop29
280
     1
102
RTVSPost2010PropOp29
 70
     1
102
RTVSPost2010Prop30
280
     1
102
RTVSPost2010PropOp30
 70
     1
102
RTVSPost2010Prop31
280
     0
102
RTVSPost2010PropOp31
 70
     1
102
RTVSPost2010Prop32
280
     0
102
RTVSPost2010PropOp32
 70
     1
102
RTVSPost2010Prop33
280
     0
102
RTVSPost2010PropOp33
 70
     1
102
RTVSPost2010Prop34
280
     0
102
RTVSPost2010PropOp34
 70
     1
102
RTVSPost2010Prop35
280
     0
102
RTVSPost2010PropOp35
 70
     1
102
RTVSPost2010Prop36
280
     0
102
RTVSPost2010PropOp36
 70
     1
102
RTVSPost2010Prop37
 90
       50
102
RTVSPost2010PropOp37
 70
     1
102
RTVSPost2010Prop38
140
0.0
102
RTVSPost2010PropOp38
 70
     1
102
RTVSPost2010Prop39
140
1.0
102
RTVSPost2010PropOp39
 70
     1
102
RTVSPost2010Prop40
 90
        0
102
RTVSPost2010PropOp40
 70
     1
102
RTVSPost2010Prop41ColorIndex
 90
       18
102
RTVSPost2010Prop41ColorRGB
 90
        0
102
RTVSPost2010PropOp41
 70
     1
102
RTVSPost2010Prop42
 90
       50
102
RTVSPost2010PropOp42
 70
     1
102
RTVSPost2010Prop43
 90
        3
102
RTVSPost2010PropOp43
 70
     1
102
RTVSPost2010Prop44ColorIndex
 90
        5
102
RTVSPost2010Prop44ColorRGB
 90
      255
102
RTVSPost2010PropOp44
 70
     1
102
RTVSPost2010Prop45
280
     0
102
RTVSPost2010PropOp45
 70
     1
102
RTVSPost2010Prop46
 90
       50
102
RTVSPost2010PropOp46
 70
     1
102
RTVSPost2010Prop47
 90
       50
102
RTVSPost2010PropOp47
 70
     1
102
RTVSPost2010Prop48
 90
       50
102
RTVSPost2010PropOp48
 70
     1
102
RTVSPost2010Prop49
280
     0
102
RTVSPost2010PropOp49
 70
     1
102
RTVSPost2010Prop50
 90
       50
102
RTVSPost2010PropOp50
 70
     1
102
RTVSPost2010Prop51ColorIndex
 90
      256
102
RTVSPost2010Prop51ColorRGB
 90
-16777216
102
RTVSPost2010PropOp51
 70
     0
102
RTVSPost2010Prop52
140
1.0
102
RTVSPost2010PropOp52
 70
     0
102
RTVSPost2010Prop53
 90
        2
102
RTVSPost2010PropOp53
 70
     1
102
RTVSPost2010Prop54
  1
strokes_ogs.tif
102
RTVSPost2010PropOp54
 70
     1
102
RTVSPost2010Prop55
280
     0
102
RTVSPost2010PropOp55
 70
     1
102
RTVSPost2010Prop56
140
1.0
102
RTVSPost2010PropOp56
 70
     1
102
RTVSPost2010Prop57
140
1.0
102
RTVSPost2010PropOp57
 70
     1
102
RTVSPropertyOp0
 70
     1
102
RTVSPropertyOp1
 70
     1
102
RTVSPropertyOp2
 70
     1
102
RTVSPropertyOp3
 70
     1
102
RTVSPropertyOp4
 70
     1
102
RTVSPropertyOp5
 70
     1
102
RTVSPropertyOp6
 70
     1
102
RTVSPropertyOp7
 70
     1
102
RTVSPropertyOp8
 70
     1
102
RTVSPropertyOp9
 70
     1
102
RTVSPropertyOp10
 70
     1
102
RTVSPropertyOp11
 70
     1
102
RTVSPropertyOp12
 70
     1
102
RTVSPropertyOp13
 70
     1
102
RTVSPropertyOp14
 70
     1
102
RTVSPropertyOp15
 70
     1
102
RTVSPropertyOp16
 70
     1
102
RTVSPropertyOp17
 70
     1
102
RTVSPropertyOp18
 70
     1
102
RTVSPropertyOp19
 70
     1
102
RTVSPropertyOp20
 70
     1
102
RTVSPropertyOp21
 70
     1
102
RTVSPropertyOp22
 70
     1
102
RTVSPropertyOp23
 70
     1
102
RTVSPropertyOp24
 70
     1
102
RTVSPropertyOp25
 70
     1
102
RTVSPropertyOp26
 70
     1
102
RTVSPropertyOp27
 70
     1
102
RTVSPropertyOp28
 70
     1
102
RTVSPropertyOp29
 70
     1
102
RTVSPropertyOp30
 70
     1
102
RTVSPropertyOp31
 70
     1
102
RTVSPropertyOp32
 70
     1
102
RTVSPropertyOp33
 70
     1
102
RTVSPropertyOp34
 70
     1
102
RTVSPropertyOp35
 70
     1
102
RTVSPropertyOp36
 70
     1
102
RTVSPropertyOp37
 70
     1
102
RTVSPropertyOp38
 70
     1
102
RTVSPropertyOp39
 70
     1
102
RTVSPropertyOp40
 70
     1
102
RTVSPropertyOp41
 70
     1
102
RTVSPropertyOp42
 70
     1
102
RTVSPropertyOp43
 70
     1
102
RTVSPropertyOp44
 70
     1
102
RTVSPropertyOp45
 70
     1
102
RTVSPropertyOp46
 70
     1
102
RTVSPropertyOp47
 70
     1
102
RTVSPropertyOp48
 70
     1
102
RTVSPropertyOp49
 70
     1
102
RTVSPropertyOp50
 70
     1
102
RTVSPropertyOp51
 70
     0
102
RTVSPropertyOp52
 70
     0
102
RTVSPropertyOp53
 70
     1
102
RTVSPropertyOp54
 70
     1
102
RTVSPropertyOp55
 70
     1
102
RTVSPropertyOp56
 70
     1
102
RTVSPropertyOp57
 70
     1
102
RTVSPropertyOp58
 70
     1
102
RTVSPropertyOp59
 70
     1
102
RTVSPropertyOp60
 70
     1
102
RTVSPropertyOp61
 70
     1
102
RTVSPropertyOp62
 70
     1
  0
ENDSEC
  0
EOF
