0
SECTION
2
HEADER
9
$ACADVER
1
AC1015
9
$DWGCODEPAGE
3
ANSI_1252
9
$HANDSEED
5
296
9
$ANGBASE
50
0
9
$ANGDIR
70
0
9
$ATTMODE
70
1
9
$AUNITS
70
0
9
$AUPREC
70
0
9
$CECOLOR
62
256
9
$CELTSCALE
40
1
9
$CELTYPE
6
ByLayer
9
$CELWEIGHT
370
18
9
$CLAYER
8
0
9
$CMLJUST
70
0
9
$CMLSCALE
40
1
9
$CMLSTYLE
2
Standard
9
$DIMSTYLE
2
Standard
9
$TEXTSIZE
40
0.2
9
$TEXTSTYLE
7
Standard
9
$LUNITS
70
2
9
$LUPREC
70
4
9
$EXTNAMES
290
1
9
$INSUNITS
70
4
9
$LTSCALE
40
1
9
$LWDISPLAY
290
1
9
$PDMODE
70
0
9
$PDSIZE
40
0
9
$PLINEGEN
70
0
0
ENDSEC
0
SECTION
2
CLASSES
0
CLASS
1
RASTERVARIABLES
2
AcDbRasterVariables
3
ISM
90
0
280
0
281
0
0
ENDSEC
0
SECTION
2
TABLES
0
TABLE
2
VPORT
5
28c
100
AcDbSymbolTable
0
VPORT
5
1
100
AcDbSymbolTableRecord
100
AcDbViewportTableRecord
2
*Active
70
0
10
0
20
0
11
1
21
1
12
-1
22
1
13
0
23
0
14
0.5
24
0.5
15
10
25
10
16
0
26
0
36
1
17
0
27
0
37
0
0
ENDTAB
0
TABLE
2
LTYPE
5
28d
100
AcDbSymbolTable
0
LTYPE
5
14
100
AcDbSymbolTableRecord
100
AcDbLinetypeTableRecord
70
0
2
ByBlock
3

72
65
73
0
40
0
0
LTYPE
5
15
100
AcDbSymbolTableRecord
100
AcDbLinetypeTableRecord
70
0
2
ByLayer
3

72
65
73
0
40
0
0
LTYPE
5
16
100
AcDbSymbolTableRecord
100
AcDbLinetypeTableRecord
70
0
2
CONTINUOUS
3
Solid line
72
65
73
0
40
0
0
LTYPE
5
6A
100
AcDbSymbolTableRecord
100
AcDbLinetypeTableRecord
70
0
2
CENTER
3
____ _ ____ _ ____ _ ____
72
65
73
4
40
47.5
49
22
74
0
49
-8.5
74
0
49
8.5
74
0
49
-8.5
74
0
0
LTYPE
5
6B
100
AcDbSymbolTableRecord
100
AcDbLinetypeTableRecord
70
0
2
DASHED
3
__ __ __ __ __ __ __ __ __
72
65
73
2
40
25.72
49
12.86
74
0
49
-12.86
74
0
0
ENDTAB
0
TABLE
2
LAYER
5
28e
100
AcDbSymbolTable
0
LAYER
5
10
100
AcDbSymbolTableRecord
100
AcDbLayerTableRecord
2
0
70
0
62
7
6
CONTINUOUS
290
1
370
-3
390
0
0
LAYER
5
6D
100
AcDbSymbolTableRecord
100
AcDbLayerTableRecord
2
2
70
0
62
7
6
CONTINUOUS
290
1
370
-3
390
0
0
LAYER
5
6F
100
AcDbSymbolTableRecord
100
AcDbLayerTableRecord
2
80
70
0
62
-6
6
CONTINUOUS
290
1
370
-3
390
0
0
LAYER
5
71
100
AcDbSymbolTableRecord
100
AcDbLayerTableRecord
2
81
70
0
62
-3
6
CONTINUOUS
290
1
370
-3
390
0
0
LAYER
5
73
100
AcDbSymbolTableRecord
100
AcDbLayerTableRecord
2
1
70
0
62
4
6
CONTINUOUS
290
1
370
-3
390
0
0
LAYER
5
86
100
AcDbSymbolTableRecord
100
AcDbLayerTableRecord
2
4
70
0
62
-2
6
CENTER
290
1
370
-3
390
0
0
LAYER
5
278
100
AcDbSymbolTableRecord
100
AcDbLayerTableRecord
2
SK4
70
0
62
2
6
CENTER
290
1
370
-3
390
0
0
LAYER
5
279
100
AcDbSymbolTableRecord
100
AcDbLayerTableRecord
2
SK1
70
0
62
4
6
CONTINUOUS
290
1
370
-3
390
0
0
LAYER
5
27a
100
AcDbSymbolTableRecord
100
AcDbLayerTableRecord
2
SK6
70
0
62
5
6
CONTINUOUS
290
1
370
-3
390
0
0
LAYER
5
27b
100
AcDbSymbolTableRecord
100
AcDbLayerTableRecord
2
SK2
70
0
62
7
6
CONTINUOUS
290
1
370
-3
390
0
0
ENDTAB
0
TABLE
2
STYLE
5
28f
100
AcDbSymbolTable
0
STYLE
5
11
100
AcDbSymbolTableRecord
100
AcDbTextStyleTableRecord
2
Standard
3
txt
70
0
71
0
40
0
41
1
42
0
50
0
0
STYLE
5
1DC
100
AcDbSymbolTableRecord
100
AcDbTextStyleTableRecord
2
iso_b_vert
3
simplex.shx
70
0
71
0
40
0
41
1
42
0
50
0
0
STYLE
5
1DD
100
AcDbSymbolTableRecord
100
AcDbTextStyleTableRecord
2
DWGDirectTextStyle
3
simplex
70
0
71
0
40
0
41
1
42
0
50
0
0
ENDTAB
0
TABLE
2
DIMSTYLE
5
290
100
AcDbSymbolTable
100
AcDbDimStyleTable
0
DIMSTYLE
105
27
100
AcDbSymbolTableRecord
100
AcDbDimStyleTableRecord
2
Standard
70
0
3
<>
41
0.18
42
0.0625
44
0.18
140
0.18
147
0.09
73
0
74
0
77
1
271
2
275
0
278
52
280
0
340
11
0
ENDTAB
0
TABLE
2
VIEW
5
291
100
AcDbSymbolTable
0
ENDTAB
0
TABLE
2
UCS
5
292
100
AcDbSymbolTable
0
ENDTAB
0
TABLE
2
APPID
5
293
100
AcDbSymbolTable
0
APPID
5
12
100
AcDbSymbolTableRecord
100
AcDbRegAppTableRecord
2
ACAD
70
0
0
ENDTAB
0
TABLE
2
BLOCK_RECORD
5
294
100
AcDbSymbolTable
0
BLOCK_RECORD
5
1F
100
AcDbSymbolTableRecord
100
AcDbBlockTableRecord
2
*Model_Space
340
0
70
0
0
BLOCK_RECORD
5
1B
100
AcDbSymbolTableRecord
100
AcDbBlockTableRecord
2
*Paper_Space
340
0
70
0
0
BLOCK_RECORD
5
23
100
AcDbSymbolTableRecord
100
AcDbBlockTableRecord
2
*Paper_Space0
340
0
70
0
0
BLOCK_RECORD
5
1DF
100
AcDbSymbolTableRecord
100
AcDbBlockTableRecord
2
DimnDraft3D1
340
0
70
0
0
BLOCK_RECORD
5
1ED
100
AcDbSymbolTableRecord
100
AcDbBlockTableRecord
2
_CLOSED
340
0
70
0
0
BLOCK_RECORD
5
1F4
100
AcDbSymbolTableRecord
100
AcDbBlockTableRecord
2
DimnDraft3D2
340
0
70
0
0
BLOCK_RECORD
5
202
100
AcDbSymbolTableRecord
100
AcDbBlockTableRecord
2
DimnDraft3D3
340
0
70
0
0
BLOCK_RECORD
5
211
100
AcDbSymbolTableRecord
100
AcDbBlockTableRecord
2
DimnDraft3D4
340
0
70
0
0
ENDTAB
0
ENDSEC
0
SECTION
2
BLOCKS
0
BLOCK
5
20
100
AcDbEntity
8
0
100
AcDbBlockBegin
2
*Model_Space
70
0
10
0
20
0
30
0
3
*Model_Space
0
ENDBLK
5
21
100
AcDbEntity
8
0
100
AcDbBlockEnd
0
BLOCK
5
1C
100
AcDbEntity
8
0
100
AcDbBlockBegin
2
*Paper_Space
70
0
10
0
20
0
30
0
3
*Paper_Space
0
ENDBLK
5
1D
100
AcDbEntity
8
0
100
AcDbBlockEnd
0
BLOCK
5
24
100
AcDbEntity
8
0
100
AcDbBlockBegin
2
*Paper_Space0
70
0
10
0
20
0
30
0
3
*Paper_Space0
0
ENDBLK
5
25
100
AcDbEntity
8
0
100
AcDbBlockEnd
0
BLOCK
5
1EA
100
AcDbEntity
8
0
100
AcDbBlockBegin
2
DimnDraft3D1
70
0
10
0
20
0
30
0
3
DimnDraft3D1
0
MTEXT
5
1E0
100
AcDbEntity
8
2
62
256
6
ByLayer
370
18
48
1
60
0
100
AcDbMText
10
45.298545
20
-41.364197
30
0
210
0
220
0
230
1
1
\W0.7399;75%%d
40
4.5
41
0
44
1.084337
50
322.5
71
7
72
5
7
iso_b_vert
0
LINE
5
1E1
100
AcDbEntity
8
2
62
256
6
ByLayer
370
13
48
1
60
0
100
AcDbLine
10
53.62489
20
-28.708206
30
0
11
37.329177
21
-33.074629
31
0
39
0
210
0
220
0
230
1
0
LINE
5
1E2
100
AcDbEntity
8
2
62
256
6
ByLayer
370
13
48
1
60
0
100
AcDbLine
10
60
20
-29
30
0
11
60
21
-50.470563
31
0
39
0
210
0
220
0
230
1
0
ARC
5
1E3
100
AcDbEntity
8
2
62
256
6
ByLayer
370
13
48
1
60
0
100
AcDbCircle
39
0
10
60
20
-27
30
0
40
21.4705627484771
210
0
220
0
230
1
100
AcDbArc
50
195
51
270
0
LINE
5
1E4
100
AcDbEntity
8
2
62
256
6
ByLayer
370
13
48
1
60
0
100
AcDbLine
10
39.261029
20
-32.556991
30
0
11
40.594853
21
-35.46839
31
0
39
0
210
0
220
0
230
1
0
LINE
5
1E5
100
AcDbEntity
8
2
62
256
6
ByLayer
370
13
48
1
60
0
100
AcDbLine
10
39.261029
20
-32.556991
30
0
11
39.795879
21
-35.714409
31
0
39
0
210
0
220
0
230
1
0
LINE
5
1E6
100
AcDbEntity
8
2
62
256
6
ByLayer
370
13
48
1
60
0
100
AcDbLine
10
40.594853
20
-35.46839
30
0
11
39.795879
21
-35.714409
31
0
39
0
210
0
220
0
230
1
0
LINE
5
1E7
100
AcDbEntity
8
2
62
256
6
ByLayer
370
13
48
1
60
0
100
AcDbLine
10
60
20
-48.470563
30
0
11
56.811742
21
-48.771137
31
0
39
0
210
0
220
0
230
1
0
LINE
5
1E8
100
AcDbEntity
8
2
62
256
6
ByLayer
370
13
48
1
60
0
100
AcDbLine
10
60
20
-48.470563
30
0
11
56.842581
21
-47.935713
31
0
39
0
210
0
220
0
230
1
0
LINE
5
1E9
100
AcDbEntity
8
2
62
256
6
ByLayer
370
13
48
1
60
0
100
AcDbLine
10
56.811742
20
-48.771137
30
0
11
56.842581
21
-47.935713
31
0
39
0
210
0
220
0
230
1
0
ENDBLK
5
1EB
100
AcDbEntity
8
0
100
AcDbBlockEnd
0
BLOCK
5
1EE
100
AcDbEntity
8
0
100
AcDbBlockBegin
2
_CLOSED
70
0
10
0
20
0
30
0
3
_CLOSED
0
LINE
5
1F0
100
AcDbEntity
8
0
62
256
6
ByLayer
370
-2
48
1
60
0
100
AcDbLine
10
-1
20
0.166667
30
0
11
0
21
0
31
0
39
0
210
0
220
0
230
1
0
LINE
5
1F1
100
AcDbEntity
8
0
62
256
6
ByLayer
370
-2
48
1
60
0
100
AcDbLine
10
0
20
0
30
0
11
-1
21
-0.166667
31
0
39
0
210
0
220
0
230
1
0
LINE
5
1F2
100
AcDbEntity
8
0
62
256
6
ByLayer
370
-2
48
1
60
0
100
AcDbLine
10
-1
20
0.166667
30
0
11
-1
21
-0.166667
31
0
39
0
210
0
220
0
230
1
0
LINE
5
1F3
100
AcDbEntity
8
0
62
256
6
ByLayer
370
-2
48
1
60
0
100
AcDbLine
10
0
20
0
30
0
11
-1
21
0
31
0
39
0
210
0
220
0
230
1
0
ENDBLK
5
1EF
100
AcDbEntity
8
0
100
AcDbBlockEnd
0
BLOCK
5
1FF
100
AcDbEntity
8
0
100
AcDbBlockBegin
2
DimnDraft3D2
70
0
10
0
20
0
30
0
3
DimnDraft3D2
0
MTEXT
5
1F5
100
AcDbEntity
8
2
62
256
6
ByLayer
370
18
48
1
60
0
100
AcDbMText
10
25.843421
20
-53.125
30
0
210
0
220
0
230
1
1
\W0.7346;60.0
40
4.5
41
0
44
1.084337
50
0
71
7
72
5
7
iso_b_vert
0
LINE
5
1F6
100
AcDbEntity
8
2
62
256
6
ByLayer
370
13
48
1
60
0
100
AcDbLine
10
0
20
-27
30
0
11
0
21
-56.25
31
0
39
0
210
0
220
0
230
1
0
LINE
5
1F7
100
AcDbEntity
8
2
62
256
6
ByLayer
370
13
48
1
60
0
100
AcDbLine
10
60
20
-29
30
0
11
60
21
-56.25
31
0
39
0
210
0
220
0
230
1
0
LINE
5
1F8
100
AcDbEntity
8
2
62
256
6
ByLayer
370
13
48
1
60
0
100
AcDbLine
10
0
20
-54.25
30
0
11
60
21
-54.25
31
0
39
0
210
0
220
0
230
1
0
LINE
5
1F9
100
AcDbEntity
8
2
62
256
6
ByLayer
370
13
48
1
60
0
100
AcDbLine
10
0
20
-54.25
30
0
11
3.174998
21
-53.832003
31
0
39
0
210
0
220
0
230
1
0
LINE
5
1FA
100
AcDbEntity
8
2
62
256
6
ByLayer
370
13
48
1
60
0
100
AcDbLine
10
0
20
-54.25
30
0
11
3.175002
21
-54.667997
31
0
39
0
210
0
220
0
230
1
0
LINE
5
1FB
100
AcDbEntity
8
2
62
256
6
ByLayer
370
13
48
1
60
0
100
AcDbLine
10
3.174998
20
-53.832003
30
0
11
3.175002
21
-54.667997
31
0
39
0
210
0
220
0
230
1
0
LINE
5
1FC
100
AcDbEntity
8
2
62
256
6
ByLayer
370
13
48
1
60
0
100
AcDbLine
10
60
20
-54.25
30
0
11
56.825002
21
-54.667997
31
0
39
0
210
0
220
0
230
1
0
LINE
5
1FD
100
AcDbEntity
8
2
62
256
6
ByLayer
370
13
48
1
60
0
100
AcDbLine
10
60
20
-54.25
30
0
11
56.824998
21
-53.832003
31
0
39
0
210
0
220
0
230
1
0
LINE
5
1FE
100
AcDbEntity
8
2
62
256
6
ByLayer
370
13
48
1
60
0
100
AcDbLine
10
56.825002
20
-54.667997
30
0
11
56.824998
21
-53.832003
31
0
39
0
210
0
220
0
230
1
0
ENDBLK
5
200
100
AcDbEntity
8
0
100
AcDbBlockEnd
0
BLOCK
5
20E
100
AcDbEntity
8
0
100
AcDbBlockBegin
2
DimnDraft3D3
70
0
10
0
20
0
30
0
3
DimnDraft3D3
0
MTEXT
5
203
100
AcDbEntity
8
SK2
62
256
6
ByLayer
370
18
48
1
60
0
100
AcDbMText
10
-38.875
20
-1.563158
30
0
210
0
220
0
230
1
1
\W0.6740;50
40
4.5
41
0
44
1.084337
50
90
71
7
72
5
7
iso_b_vert
0
LINE
5
205
100
AcDbEntity
8
SK2
62
256
6
ByLayer
370
13
48
1
60
0
100
AcDbLine
10
-2
20
-25
30
0
11
-39.75
21
-25
31
0
39
0
210
0
220
0
230
1
0
LINE
5
206
100
AcDbEntity
8
SK2
62
256
6
ByLayer
370
13
48
1
60
0
100
AcDbLine
10
-2
20
25
30
0
11
-39.75
21
25
31
0
39
0
210
0
220
0
230
1
0
LINE
5
207
100
AcDbEntity
8
SK2
62
256
6
ByLayer
370
13
48
1
60
0
100
AcDbLine
10
-37.75
20
-25
30
0
11
-37.75
21
25
31
0
39
0
210
0
220
0
230
1
0
LINE
5
208
100
AcDbEntity
8
SK2
62
256
6
ByLayer
370
13
48
1
60
0
100
AcDbLine
10
-37.75
20
-25
30
0
11
-38.167997
21
-21.825002
31
0
39
0
210
0
220
0
230
1
0
LINE
5
209
100
AcDbEntity
8
SK2
62
256
6
ByLayer
370
13
48
1
60
0
100
AcDbLine
10
-37.75
20
-25
30
0
11
-37.332003
21
-21.824998
31
0
39
0
210
0
220
0
230
1
0
LINE
5
20A
100
AcDbEntity
8
SK2
62
256
6
ByLayer
370
13
48
1
60
0
100
AcDbLine
10
-38.167997
20
-21.825002
30
0
11
-37.332003
21
-21.824998
31
0
39
0
210
0
220
0
230
1
0
LINE
5
20B
100
AcDbEntity
8
SK2
62
256
6
ByLayer
370
13
48
1
60
0
100
AcDbLine
10
-37.75
20
25
30
0
11
-37.332003
21
21.825002
31
0
39
0
210
0
220
0
230
1
0
LINE
5
20C
100
AcDbEntity
8
SK2
62
256
6
ByLayer
370
13
48
1
60
0
100
AcDbLine
10
-37.75
20
25
30
0
11
-38.167997
21
21.824998
31
0
39
0
210
0
220
0
230
1
0
LINE
5
20D
100
AcDbEntity
8
SK2
62
256
6
ByLayer
370
13
48
1
60
0
100
AcDbLine
10
-37.332003
20
21.825002
30
0
11
-38.167997
21
21.824998
31
0
39
0
210
0
220
0
230
1
0
ENDBLK
5
20F
100
AcDbEntity
8
0
100
AcDbBlockEnd
0
BLOCK
5
21C
100
AcDbEntity
8
0
100
AcDbBlockBegin
2
DimnDraft3D4
70
0
10
0
20
0
30
0
3
DimnDraft3D4
0
MTEXT
5
212
100
AcDbEntity
8
2
62
256
6
ByLayer
370
18
48
1
60
0
100
AcDbMText
10
81.125
20
-17.656579
30
0
210
0
220
0
230
1
1
\W0.7346;27.0
40
4.5
41
0
44
1.084337
50
90
71
7
72
5
7
iso_b_vert
0
LINE
5
213
100
AcDbEntity
8
2
62
256
6
ByLayer
370
13
48
1
60
0
100
AcDbLine
10
62
20
0
30
0
11
84.25
21
0
31
0
39
0
210
0
220
0
230
1
0
LINE
5
214
100
AcDbEntity
8
2
62
256
6
ByLayer
370
13
48
1
60
0
100
AcDbLine
10
62
20
-27
30
0
11
84.25
21
-27
31
0
39
0
210
0
220
0
230
1
0
LINE
5
215
100
AcDbEntity
8
2
62
256
6
ByLayer
370
13
48
1
60
0
100
AcDbLine
10
82.25
20
0
30
0
11
82.25
21
-27
31
0
39
0
210
0
220
0
230
1
0
LINE
5
216
100
AcDbEntity
8
2
62
256
6
ByLayer
370
13
48
1
60
0
100
AcDbLine
10
82.25
20
0
30
0
11
82.667997
21
-3.174998
31
0
39
0
210
0
220
0
230
1
0
LINE
5
217
100
AcDbEntity
8
2
62
256
6
ByLayer
370
13
48
1
60
0
100
AcDbLine
10
82.25
20
0
30
0
11
81.832003
21
-3.175002
31
0
39
0
210
0
220
0
230
1
0
LINE
5
218
100
AcDbEntity
8
2
62
256
6
ByLayer
370
13
48
1
60
0
100
AcDbLine
10
82.667997
20
-3.174998
30
0
11
81.832003
21
-3.175002
31
0
39
0
210
0
220
0
230
1
0
LINE
5
219
100
AcDbEntity
8
2
62
256
6
ByLayer
370
13
48
1
60
0
100
AcDbLine
10
82.25
20
-27
30
0
11
81.832003
21
-23.825002
31
0
39
0
210
0
220
0
230
1
0
LINE
5
21A
100
AcDbEntity
8
2
62
256
6
ByLayer
370
13
48
1
60
0
100
AcDbLine
10
82.25
20
-27
30
0
11
82.667997
21
-23.824998
31
0
39
0
210
0
220
0
230
1
0
LINE
5
21B
100
AcDbEntity
8
2
62
256
6
ByLayer
370
13
48
1
60
0
100
AcDbLine
10
81.832003
20
-23.825002
30
0
11
82.667997
21
-23.824998
31
0
39
0
210
0
220
0
230
1
0
ENDBLK
5
21D
100
AcDbEntity
8
0
100
AcDbBlockEnd
0
ENDSEC
0
SECTION
2
ENTITIES
0
ARC
5
F4
100
AcDbEntity
8
SK1
62
256
6
ByLayer
370
18
48
1
60
0
100
AcDbCircle
39
0
10
0.6
20
-18.75
30
0
40
1.00000000000001
210
0
220
0
230
-1
100
AcDbArc
50
113.578178
51
126.869898
0
ARC
5
F5
100
AcDbEntity
8
SK1
62
256
6
ByLayer
370
18
48
1
60
0
100
AcDbCircle
39
0
10
0.6
20
18.75
30
0
40
1.00000000000001
210
0
220
0
230
-1
100
AcDbArc
50
233.130102
51
246.421822
0
ELLIPSE
5
F6
100
AcDbEntity
8
1
62
256
6
ByLayer
370
18
48
1
60
0
100
AcDbEllipse
10
35.541097
20
-12.874439
30
0
11
-0.225000000000003
21
-0.389711431702996
31
0
210
0
220
0
230
1
40
0.989133
41
2.33041044405875
42
2.79620028821678
0
ELLIPSE
5
F7
100
AcDbEntity
8
1
62
256
6
ByLayer
370
18
48
1
60
0
100
AcDbEllipse
10
34.443095
20
-15.190609
30
0
11
-0.225000000000003
21
-0.389711431702996
31
0
210
0
220
0
230
1
40
0.989133
41
0.34538330047769
42
0.974788717687416
0
ELLIPSE
5
F8
100
AcDbEntity
8
1
62
256
6
ByLayer
370
18
48
1
60
0
100
AcDbEllipse
10
35.584074
20
-14.304482
30
0
11
0.700000000000002
21
1.21243556529821
31
0
210
0
220
0
230
1
40
0.989133
41
-3.11243067028359
42
-0.136065937423047
0
ELLIPSE
5
F9
100
AcDbEntity
8
1
62
256
6
ByLayer
370
18
48
1
60
0
100
AcDbEllipse
10
35.654104
20
-14.344914
30
0
11
0.700000000000002
21
1.21243556529821
31
0
210
0
220
0
230
1
40
0.989133
41
2.57463896385616
42
3.13179474849286
0
ELLIPSE
5
FA
100
AcDbEntity
8
1
62
256
6
ByLayer
370
18
48
1
60
0
100
AcDbEllipse
10
35.654104
20
-14.344914
30
0
11
0.700000000000002
21
1.21243556529821
31
0
210
0
220
0
230
1
40
0.989133
41
1.36823719243136
42
1.97929811046076
0
ELLIPSE
5
FB
100
AcDbEntity
8
1
62
256
6
ByLayer
370
18
48
1
60
0
100
AcDbEllipse
10
35.654104
20
-14.344914
30
0
11
0.700000000000002
21
1.21243556529821
31
0
210
0
220
0
230
1
40
0.989133
41
0.173404413253296
42
0.743155178182578
0
ELLIPSE
5
FC
100
AcDbEntity
8
1
62
256
6
ByLayer
370
18
48
1
60
0
100
AcDbEllipse
10
35.654104
20
-14.344914
30
0
11
0.700000000000002
21
1.21243556529821
31
0
210
0
220
0
230
1
40
0.989133
41
-0.873793137943302
42
-0.106740703067573
0
ELLIPSE
5
FD
100
AcDbEntity
8
1
62
256
6
ByLayer
370
18
48
1
60
0
100
AcDbEllipse
10
36.865113
20
-13.499218
30
0
11
-0.225000000000003
21
-0.389711431702996
31
0
210
0
220
0
230
1
40
0.989133
41
1.28321289286216
42
2.79616888446562
0
ELLIPSE
5
FE
100
AcDbEntity
8
1
62
256
6
ByLayer
370
18
48
1
60
0
100
AcDbEllipse
10
35.767111
20
-15.815388
30
0
11
-0.225000000000003
21
-0.389711431702996
31
0
210
0
220
0
230
1
40
0.989133
41
0.345414377018516
42
2.02198626888403
0
ELLIPSE
5
FF
100
AcDbEntity
8
1
62
256
6
ByLayer
370
18
48
1
60
0
100
AcDbEllipse
10
35.533143
20
-14.275077
30
0
11
2.5
21
4.33012701892219
31
0
210
0
220
0
230
1
40
0.989133
41
0
42
0.121442227583235
0
ELLIPSE
5
100
100
AcDbEntity
8
1
62
256
6
ByLayer
370
18
48
1
60
0
100
AcDbEllipse
10
23.796329
20
3.793984
30
0
11
1.09572051758234
21
1.90772024871287
31
0
210
0
220
0
230
1
40
0.168017
41
-3.14153564697857
42
-2.42732625798528E-05
0
ELLIPSE
5
101
100
AcDbEntity
8
1
62
256
6
ByLayer
370
18
48
1
60
0
100
AcDbEllipse
10
24.010034
20
3.671241
30
0
11
-0.971206822402526
21
-1.69093385681368
31
0
210
0
220
0
230
1
40
0.168017
41
0.171346550723744
42
2.97024578927158
0
ELLIPSE
5
102
100
AcDbEntity
8
1
62
256
6
ByLayer
370
18
48
1
60
0
100
AcDbEllipse
10
50.671848
20
-21.326495
30
0
11
1.5875
21
2.74963065701559
31
0
210
0
220
0
230
1
40
0.989133
41
-2.78374135523398
42
-0.193301935217306
0
ELLIPSE
5
103
100
AcDbEntity
8
1
62
256
6
ByLayer
370
18
48
1
60
0
100
AcDbEllipse
10
26.888508
20
-16.831364
30
0
11
1.47738106167381
21
2.611004633969
31
0
210
0
220
0
230
1
40
0.986425
41
0.0283671036320123
42
0.0732243651094603
0
ELLIPSE
5
104
100
AcDbEntity
8
1
62
256
6
ByLayer
370
18
48
1
60
0
100
AcDbEllipse
10
36.333855
20
-14.652661
30
0
11
-2.53617082254003
21
-4.48222462164678
31
0
210
0
220
0
230
1
40
0.986425
41
0.0732243651094592
42
-3.1131851347789
0
ELLIPSE
5
105
100
AcDbEntity
8
1
62
256
6
ByLayer
370
18
48
1
60
0
100
AcDbEllipse
10
17.282273
20
7.168745
30
0
11
-0.0139909674801544
21
-4.24865589905678
31
0
210
0
220
0
230
1
40
0.043324
41
2.29652794499673
42
-2.89691160506061
0
ELLIPSE
5
106
100
AcDbEntity
8
1
62
256
6
ByLayer
370
18
48
1
60
0
100
AcDbEllipse
10
10
20
14.427592
30
0
11
-1.99999999999999
21
2.44921270764474E-16
31
0
210
0
220
0
230
1
40
0.75471
41
-1.57079623541952
42
-0.166210030202421
0
ELLIPSE
5
107
100
AcDbEntity
8
1
62
256
6
ByLayer
370
18
48
1
60
0
100
AcDbEllipse
10
10
20
14.427592
30
0
11
-1.99999999999999
21
2.44921270764474E-16
31
0
210
0
220
0
230
1
40
0.75471
41
-2.97528467615068
42
-1.57079623541954
0
ELLIPSE
5
108
100
AcDbEntity
8
1
62
256
6
ByLayer
370
18
48
1
60
0
100
AcDbEllipse
10
10
20
14.427592
30
0
11
-1.65
21
2.02060048380692E-16
31
0
210
0
220
0
230
1
40
0.75471
41
-1.57079640208618
42
0
0
ELLIPSE
5
109
100
AcDbEntity
8
1
62
256
6
ByLayer
370
18
48
1
60
0
100
AcDbEllipse
10
10
20
14.427592
30
0
11
-1.65
21
2.02060048380692E-16
31
0
210
0
220
0
230
1
40
0.75471
41
0
42
0.949546583286938
0
ELLIPSE
5
10A
100
AcDbEntity
8
1
62
256
6
ByLayer
370
18
48
1
60
0
100
AcDbEllipse
10
10
20
14.427592
30
0
11
-1.65
21
2.02060048380692E-16
31
0
210
0
220
0
230
1
40
0.75471
41
2.19194820122988
42
-1.57079640208621
0
ELLIPSE
5
10B
100
AcDbEntity
8
1
62
256
6
ByLayer
370
18
48
1
60
0
100
AcDbEllipse
10
21.415098
20
23.751597
30
0
11
-0.588896300687428
21
-47.6324275156909
31
0
210
0
220
0
230
1
40
0.083061
41
-1.16158005054031
42
-1.1589040121161
0
ELLIPSE
5
10C
100
AcDbEntity
8
1
62
256
6
ByLayer
370
18
48
1
60
0
100
AcDbEllipse
10
48.556456
20
0
30
0
11
-27.1719252909916
21
25.1426457114608
31
0
210
0
220
0
230
1
40
0.022382
41
-0.224324563835741
42
-0.0241834456907872
0
ELLIPSE
5
10D
100
AcDbEntity
8
1
62
256
6
ByLayer
370
18
48
1
60
0
100
AcDbEllipse
10
20.880976
20
-18.316322
30
0
11
-6.04055322715014
21
2.92980312739037
31
0
210
0
220
0
230
1
40
0.595808
41
2.01689710872456
42
2.51742445727228
0
ELLIPSE
5
10E
100
AcDbEntity
8
1
62
256
6
ByLayer
370
18
48
1
60
0
100
AcDbEllipse
10
21.056258
20
0
30
0
11
-11.7092723497278
21
24.6771864409381
31
0
210
0
220
0
230
1
40
0.341999
41
0.167213071908976
42
1.08183270048926
0
ELLIPSE
5
10F
100
AcDbEntity
8
1
62
256
6
ByLayer
370
18
48
1
60
0
100
AcDbEllipse
10
21.415098
20
-12.728035
30
0
11
-2.34004903312013
21
-15.717501135014
31
0
210
0
220
0
230
1
40
0.2064
41
-1.49885406962817
42
-1.41621454394981
0
ELLIPSE
5
110
100
AcDbEntity
8
1
62
256
6
ByLayer
370
18
48
1
60
0
100
AcDbEllipse
10
10
20
14.658522
30
0
11
-1.99999999999996
21
2.02127811016469E-15
31
0
210
0
220
0
230
1
40
0.708833
41
0.7515046214923
42
2.3900880320975
0
ELLIPSE
5
111
100
AcDbEntity
8
1
62
256
6
ByLayer
370
18
48
1
60
0
100
AcDbEllipse
10
-1.056258
20
0
30
0
11
-11.709272349727
21
24.677186440937
31
0
210
0
220
0
230
1
40
0.341999
41
-2.97437958168081
42
-2.0597599531005
0
ELLIPSE
5
112
100
AcDbEntity
8
1
62
256
6
ByLayer
370
18
48
1
60
0
100
AcDbEllipse
10
10
20
14.658522
30
0
11
-2.00000000000007
21
2.0212781101648E-15
31
0
210
0
220
0
230
1
40
0.708833
41
-2.39008803209745
42
-0.751504621492353
0
ELLIPSE
5
113
100
AcDbEntity
8
1
62
256
6
ByLayer
370
18
48
1
60
0
100
AcDbEllipse
10
18.187217
20
0
30
0
11
1.53075794227798E-15
21
25.0000000000001
31
0
210
0
220
0
230
1
40
0.087489
41
0.353363115402329
42
2.78822953818746
0
ELLIPSE
5
114
100
AcDbEntity
8
1
62
256
6
ByLayer
370
18
48
1
60
0
100
AcDbEllipse
10
17.023538
20
5.70623
30
0
11
-0.0139909674800511
21
-4.24865589906207
31
0
210
0
220
0
230
1
40
0.043324
41
-2.89691160506054
42
-1.43638419395546
0
ELLIPSE
5
115
100
AcDbEntity
8
1
62
256
6
ByLayer
370
18
48
1
60
0
100
AcDbEllipse
10
21.415098
20
0.066446
30
0
11
-3.2486259416104
21
-10.665174395192
31
0
210
0
220
0
230
1
40
0.21882
41
0.420023180481339
42
0.947838821892316
0
ELLIPSE
5
116
100
AcDbEntity
8
1
62
256
6
ByLayer
370
18
48
1
60
0
100
AcDbEllipse
10
45.518117
20
-24.599872
30
0
11
-0.12493414454905
21
-3.8696659726618
31
0
210
0
220
0
230
1
40
0.523705
41
-1.06367112868785
42
-0.776249033153066
0
ELLIPSE
5
117
100
AcDbEntity
8
1
62
256
6
ByLayer
370
18
48
1
60
0
100
AcDbEllipse
10
21.056258
20
0
30
0
11
-11.7092723497275
21
-24.6771864409378
31
0
210
0
220
0
230
1
40
0.341999
41
-1.08183270048927
42
-0.167213071908978
0
ELLIPSE
5
118
100
AcDbEntity
8
1
62
256
6
ByLayer
370
18
48
1
60
0
100
AcDbEllipse
10
22.576751
20
-80.995412
30
0
11
-3.30458849831131E-15
21
53.9698081427826
31
0
210
0
220
0
230
-1
40
0.074116
41
-0.186790118568124
42
-0.127673564405644
0
ELLIPSE
5
119
100
AcDbEntity
8
1
62
256
6
ByLayer
370
18
48
1
60
0
100
AcDbEllipse
10
21.72264
20
-18.724548
30
0
11
-5.06509286144414
21
2.37862092372634
31
0
210
0
220
0
230
1
40
0.714768
41
2.4998643959267
42
3.13899178028886
0
ELLIPSE
5
11A
100
AcDbEntity
8
1
62
256
6
ByLayer
370
18
48
1
60
0
100
AcDbEllipse
10
-1.056258
20
0
30
0
11
-11.7092723497277
21
-24.677186440938
31
0
210
0
220
0
230
1
40
0.341999
41
2.05975995310053
42
2.97437958168082
0
ELLIPSE
5
11B
100
AcDbEntity
8
1
62
256
6
ByLayer
370
18
48
1
60
0
100
AcDbEllipse
10
29.15621
20
-0.104152
30
0
11
-6.04055322715014
21
2.92980312739037
31
0
210
0
220
0
230
1
40
0.595808
41
-3.1266334655446
42
-2.10162059561121
0
ELLIPSE
5
11C
100
AcDbEntity
8
1
62
256
6
ByLayer
370
18
48
1
60
0
100
AcDbEllipse
10
10
20
12.665093
30
0
11
-1.86732139085312
21
-2.63482006210127
31
0
210
0
220
0
230
1
40
0.271866
41
2.44879159421155
42
3.10180352726319
0
ELLIPSE
5
11D
100
AcDbEntity
8
1
62
256
6
ByLayer
370
18
48
1
60
0
100
AcDbEllipse
10
10
20
12.665093
30
0
11
-1.86732139085278
21
2.63482006210088
31
0
210
0
220
0
230
1
40
0.271866
41
0.0397891263266403
42
0.69280105937829
0
ELLIPSE
5
11E
100
AcDbEntity
8
1
62
256
6
ByLayer
370
18
48
1
60
0
100
AcDbEllipse
10
58.818613
20
-26.090219
30
0
11
-0.595500000000009
21
-1.03143625590726
31
0
210
0
220
0
230
1
40
0.989133
41
0.779934954875913
42
2.35073128167081
0
ELLIPSE
5
11F
100
AcDbEntity
8
1
62
256
6
ByLayer
370
18
48
1
60
0
100
AcDbEllipse
10
55.486923
20
-13.089655
30
0
11
-0.595500000000009
21
-1.03143625590726
31
0
210
0
220
0
230
1
40
0.989133
41
2.35073128167081
42
-2.36165769871388
0
ELLIPSE
5
120
100
AcDbEntity
8
1
62
256
6
ByLayer
370
18
48
1
60
0
100
AcDbEllipse
10
45.856773
20
-29.563334
30
0
11
-0.595500000000009
21
-1.03143625590726
31
0
210
0
220
0
230
1
40
0.989133
41
-0.790861371918988
42
0.779934954875922
0
ELLIPSE
5
121
100
AcDbEntity
8
1
62
256
6
ByLayer
370
18
48
1
60
0
100
AcDbEllipse
10
51.267298
20
-21.657068
30
0
11
-2.17302594874679
21
-1.86016831920038
31
0
210
0
220
0
230
1
40
0.788795
41
1.4743485951349
42
1.92405857115038
0
ELLIPSE
5
122
100
AcDbEntity
8
1
62
256
6
ByLayer
370
18
48
1
60
0
100
AcDbEllipse
10
32.814412
20
-9.631255
30
0
11
4.96983653858025
21
-2.3559976188003
31
0
210
0
220
0
230
1
40
0.012014
41
-2.32535076975197
42
-1.91993159773869
0
ELLIPSE
5
123
100
AcDbEntity
8
1
62
256
6
ByLayer
370
18
48
1
60
0
100
AcDbEllipse
10
33.731957
20
-7.516486
30
0
11
-2.14788716670046
21
4.26747308660916
31
0
210
0
220
0
230
1
40
0.549774
41
-0.612828368777574
42
0.505144305392894
0
ELLIPSE
5
124
100
AcDbEntity
8
1
62
256
6
ByLayer
370
18
48
1
60
0
100
AcDbEllipse
10
30.799979
20
-5.966927
30
0
11
-2.2259488131982
21
-2.70164223103676
31
0
210
0
220
0
230
1
40
0.996259
41
-2.49566367454495
42
-1.3234288438333
0
ELLIPSE
5
125
100
AcDbEntity
8
1
62
256
6
ByLayer
370
18
48
1
60
0
100
AcDbEllipse
10
29.131668
20
-17.220521
30
0
11
-4.62200857478579
21
-0.80599711091997
31
0
210
0
220
0
230
1
40
0.539114
41
-0.464589833095608
42
0.65338284107484
0
ELLIPSE
5
126
100
AcDbEntity
8
1
62
256
6
ByLayer
370
18
48
1
60
0
100
AcDbEllipse
10
26.19969
20
-15.670962
30
0
11
-2.22594881316292
21
-2.70164223106488
31
0
210
0
220
0
230
1
40
0.996259
41
-1.32342884384622
42
-0.151194013134398
0
ELLIPSE
5
127
100
AcDbEntity
8
1
62
256
6
ByLayer
370
18
48
1
60
0
100
AcDbEllipse
10
30.244418
20
-15.052503
30
0
11
4.96983653858025
21
-2.3559976188003
31
0
210
0
220
0
230
1
40
0.012014
41
-2.32535076975197
42
-1.9199315977387
0
ELLIPSE
5
128
100
AcDbEntity
8
1
62
256
6
ByLayer
370
18
48
1
60
0
100
AcDbEllipse
10
51.267298
20
-21.657068
30
0
11
-0.286888803939251
21
-2.87848496941498
31
0
210
0
220
0
230
1
40
0.792245
41
1.30894773719959
42
1.75865771322347
0
ELLIPSE
5
129
100
AcDbEntity
8
1
62
256
6
ByLayer
370
18
48
1
60
0
100
AcDbEllipse
10
28.380714
20
-1.034058
30
0
11
6.32524650364759
21
-2.99854242392765
31
0
210
0
220
0
230
1
40
0.012014
41
0.810298218555892
42
0.840977275713183
0
ELLIPSE
5
12A
100
AcDbEntity
8
1
62
256
6
ByLayer
370
18
48
1
60
0
100
AcDbEllipse
10
35.110951
20
-16.19197
30
0
11
0.250000000000001
21
0.433012701892219
31
0
210
0
220
0
230
1
40
0.989133
41
0.460827065660707
42
0.974788717687402
0
ELLIPSE
5
12B
100
AcDbEntity
8
1
62
256
6
ByLayer
370
18
48
1
60
0
100
AcDbEllipse
10
37.77177
20
-14.333815
30
0
11
0.250000000000001
21
0.433012701892219
31
0
210
0
220
0
230
1
40
0.989133
41
1.28321289286214
42
1.79717454488884
0
ELLIPSE
5
12C
100
AcDbEntity
8
1
62
256
6
ByLayer
370
18
48
1
60
0
100
AcDbEllipse
10
35.909611
20
-14.492431
30
0
11
0.700000000000002
21
1.21243556529821
31
0
210
0
220
0
230
1
40
0.989133
41
-0.00979790509693921
42
0.173404413253722
0
ELLIPSE
5
12D
100
AcDbEntity
8
1
62
256
6
ByLayer
370
18
48
1
60
0
100
AcDbEllipse
10
35.915124
20
-14.495614
30
0
11
0.712500000000002
21
1.23408620039282
31
0
210
0
220
0
230
1
40
0.989133
41
0.998803901016962
42
1.25919770953259
0
ELLIPSE
5
12E
100
AcDbEntity
8
1
62
256
6
ByLayer
370
18
48
1
60
0
100
AcDbEllipse
10
34.058479
20
-14.657413
30
0
11
0.250000000000001
21
0.433012701892219
31
0
210
0
220
0
230
1
40
0.989133
41
-0.586370485535889
42
-0.0724088335091932
0
ELLIPSE
5
12F
100
AcDbEntity
8
1
62
256
6
ByLayer
370
18
48
1
60
0
100
AcDbEllipse
10
35.915124
20
-14.495614
30
0
11
-1.25000000000002
21
-2.16506350946109
31
0
210
0
220
0
230
1
40
0.989133
41
0
42
6.28318530717959
0
ELLIPSE
5
130
100
AcDbEntity
8
1
62
256
6
ByLayer
370
18
48
1
60
0
100
AcDbEllipse
10
35.909611
20
-14.492431
30
0
11
0.700000000000002
21
1.21243556529821
31
0
210
0
220
0
230
1
40
0.989133
41
-1.05699545629354
42
-0.873793137943302
0
ELLIPSE
5
131
100
AcDbEntity
8
1
62
256
6
ByLayer
370
18
48
1
60
0
100
AcDbEllipse
10
36.967596
20
-16.030171
30
0
11
0.250000000000001
21
0.433012701892219
31
0
210
0
220
0
230
1
40
0.989133
41
1.50802461685729
42
2.021986268884
0
ELLIPSE
5
132
100
AcDbEntity
8
1
62
256
6
ByLayer
370
18
48
1
60
0
100
AcDbEllipse
10
36.458277
20
-12.648558
30
0
11
0.250000000000001
21
0.433012701892219
31
0
210
0
220
0
230
1
40
0.989133
41
2.33041044405877
42
2.96438485861022
0
ELLIPSE
5
133
100
AcDbEntity
8
1
62
256
6
ByLayer
370
18
48
1
60
0
100
AcDbEllipse
10
35.915124
20
-14.495614
30
0
11
0.712500000000002
21
1.23408620039282
31
0
210
0
220
0
230
1
40
0.989133
41
2.04600145221357
42
2.30639526072919
0
ELLIPSE
5
134
100
AcDbEntity
8
1
62
256
6
ByLayer
370
18
48
1
60
0
100
AcDbEllipse
10
36.97812
20
-14.969692
30
0
11
-0.225000000000003
21
-0.389711431702996
31
0
210
0
220
0
230
1
40
0.989133
41
0.236015341665561
42
3.06918382008059
0
ELLIPSE
5
135
100
AcDbEntity
8
1
62
256
6
ByLayer
370
18
48
1
60
0
100
AcDbEllipse
10
36.719298
20
-12.799258
30
0
11
0.250000000000001
21
0.433012701892219
31
0
210
0
220
0
230
1
40
0.989133
41
-2.68076558792908
42
-2.16680393590241
0
ELLIPSE
5
136
100
AcDbEntity
8
1
62
256
6
ByLayer
370
18
48
1
60
0
100
AcDbEllipse
10
34.058479
20
-14.657413
30
0
11
0.250000000000001
21
0.433012701892219
31
0
210
0
220
0
230
1
40
0.989133
41
-1.85837976072764
42
-1.34441810870092
0
ELLIPSE
5
137
100
AcDbEntity
8
1
62
256
6
ByLayer
370
18
48
1
60
0
100
AcDbEllipse
10
34.84993
20
-16.04127
30
0
11
0.250000000000001
21
0.433012701892219
31
0
210
0
220
0
230
1
40
0.989133
41
0.340814303135959
42
0.974788717687418
0
ELLIPSE
5
138
100
AcDbEntity
8
1
62
256
6
ByLayer
370
18
48
1
60
0
100
AcDbEllipse
10
37.126133
20
-13.649918
30
0
11
-0.225000000000003
21
-0.389711431702996
31
0
210
0
220
0
230
1
40
0.989133
41
1.28321289286216
42
-2.16680393590236
0
ELLIPSE
5
139
100
AcDbEntity
8
1
62
256
6
ByLayer
370
18
48
1
60
0
100
AcDbEllipse
10
35.110951
20
-16.19197
30
0
11
0.250000000000001
21
0.433012701892219
31
0
210
0
220
0
230
1
40
0.989133
41
-0.811182209531045
42
-0.297220557504339
0
ELLIPSE
5
13A
100
AcDbEntity
8
1
62
256
6
ByLayer
370
18
48
1
60
0
100
AcDbEllipse
10
35.915124
20
-14.495614
30
0
11
0.712500000000002
21
1.23408620039282
31
0
210
0
220
0
230
1
40
0.989133
41
-2.14278875257282
42
-1.8823949440572
0
ELLIPSE
5
13B
100
AcDbEntity
8
1
62
256
6
ByLayer
370
18
48
1
60
0
100
AcDbEllipse
10
37.77177
20
-14.333815
30
0
11
0.250000000000001
21
0.433012701892219
31
0
210
0
220
0
230
1
40
0.989133
41
2.5552221680539
42
3.0691838200806
0
ELLIPSE
5
13C
100
AcDbEntity
8
1
62
256
6
ByLayer
370
18
48
1
60
0
100
AcDbEllipse
10
36.719298
20
-12.799258
30
0
11
0.250000000000001
21
0.433012701892219
31
0
210
0
220
0
230
1
40
0.989133
41
2.33041044405876
42
2.84437209608546
0
ELLIPSE
5
13D
100
AcDbEntity
8
1
62
256
6
ByLayer
370
18
48
1
60
0
100
AcDbEllipse
10
35.909611
20
-14.492431
30
0
11
0.700000000000002
21
1.21243556529821
31
0
210
0
220
0
230
1
40
0.989133
41
1.03739964609965
42
1.22060196445055
0
ELLIPSE
5
13E
100
AcDbEntity
8
1
62
256
6
ByLayer
370
18
48
1
60
0
100
AcDbEllipse
10
35.802117
20
-13.025139
30
0
11
-0.225000000000003
21
-0.389711431702996
31
0
210
0
220
0
230
1
40
0.989133
41
2.33041044405875
42
-1.11960638470578
0
ELLIPSE
5
13F
100
AcDbEntity
8
1
62
256
6
ByLayer
370
18
48
1
60
0
100
AcDbEllipse
10
35.654104
20
-14.344914
30
0
11
0.700000000000002
21
1.21243556529821
31
0
210
0
220
0
230
1
40
0.989133
41
-1.92099068913991
42
-1.05699545629355
0
ELLIPSE
5
140
100
AcDbEntity
8
1
62
256
6
ByLayer
370
18
48
1
60
0
100
AcDbEllipse
10
36.028131
20
-15.966088
30
0
11
-0.225000000000003
21
-0.389711431702996
31
0
210
0
220
0
230
1
40
0.989133
41
-0.811182209531046
42
2.02198626888401
0
ELLIPSE
5
141
100
AcDbEntity
8
1
62
256
6
ByLayer
370
18
48
1
60
0
100
AcDbEllipse
10
35.915124
20
-14.495614
30
0
11
0.712500000000002
21
1.23408620039282
31
0
210
0
220
0
230
1
40
0.989133
41
3.09319900341017
42
-2.92959249525381
0
ELLIPSE
5
142
100
AcDbEntity
8
1
62
256
6
ByLayer
370
18
48
1
60
0
100
AcDbEllipse
10
37.510749
20
-14.183115
30
0
11
0.250000000000001
21
0.433012701892219
31
0
210
0
220
0
230
1
40
0.989133
41
1.28321289286215
42
1.91718730741359
0
ELLIPSE
5
143
100
AcDbEntity
8
1
62
256
6
ByLayer
370
18
48
1
60
0
100
AcDbEllipse
10
35.915124
20
-14.495614
30
0
11
0.712500000000002
21
1.23408620039282
31
0
210
0
220
0
230
1
40
0.989133
41
-1.09559120137623
42
-0.835197392860606
0
ELLIPSE
5
144
100
AcDbEntity
8
1
62
256
6
ByLayer
370
18
48
1
60
0
100
AcDbEllipse
10
34.704115
20
-15.341309
30
0
11
-0.225000000000003
21
-0.389711431702996
31
0
210
0
220
0
230
1
40
0.989133
41
-1.85837976072763
42
0.974788717687436
0
ELLIPSE
5
145
100
AcDbEntity
8
1
62
256
6
ByLayer
370
18
48
1
60
0
100
AcDbEllipse
10
36.706576
20
-15.879471
30
0
11
0.250000000000001
21
0.433012701892219
31
0
210
0
220
0
230
1
40
0.989133
41
0.236015341665566
42
0.869989756217038
0
ELLIPSE
5
146
100
AcDbEntity
8
1
62
256
6
ByLayer
370
18
48
1
60
0
100
AcDbEllipse
10
35.909611
20
-14.492431
30
0
11
0.700000000000002
21
1.21243556529821
31
0
210
0
220
0
230
1
40
0.989133
41
3.13179474849244
42
-2.96818824033609
0
ELLIPSE
5
147
100
AcDbEntity
8
1
62
256
6
ByLayer
370
18
48
1
60
0
100
AcDbEllipse
10
36.967596
20
-16.030171
30
0
11
0.250000000000001
21
0.433012701892219
31
0
210
0
220
0
230
1
40
0.989133
41
0.23601534166557
42
0.749976993692273
0
ELLIPSE
5
148
100
AcDbEntity
8
1
62
256
6
ByLayer
370
18
48
1
60
0
100
AcDbEllipse
10
34.862652
20
-12.961056
30
0
11
0.250000000000001
21
0.433012701892219
31
0
210
0
220
0
230
1
40
0.989133
41
-1.63356803673249
42
-1.11960638470579
0
ELLIPSE
5
149
100
AcDbEntity
8
1
62
256
6
ByLayer
370
18
48
1
60
0
100
AcDbEllipse
10
37.239141
20
-15.120393
30
0
11
-0.225000000000003
21
-0.389711431702996
31
0
210
0
220
0
230
1
40
0.989133
41
0.236015341665565
42
3.06918382008061
0
ELLIPSE
5
14A
100
AcDbEntity
8
1
62
256
6
ByLayer
370
18
48
1
60
0
100
AcDbEllipse
10
35.915124
20
-14.495614
30
0
11
0.712500000000002
21
1.23408620039282
31
0
210
0
220
0
230
1
40
0.989133
41
-0.048393650179623
42
0.212000158335992
0
ELLIPSE
5
14B
100
AcDbEntity
8
1
62
256
6
ByLayer
370
18
48
1
60
0
100
AcDbEllipse
10
36.706576
20
-15.879471
30
0
11
0.250000000000001
21
0.433012701892219
31
0
210
0
220
0
230
1
40
0.989133
41
1.38801185433252
42
2.02198626888398
0
ELLIPSE
5
14C
100
AcDbEntity
8
1
62
256
6
ByLayer
370
18
48
1
60
0
100
AcDbEllipse
10
35.909611
20
-14.492431
30
0
11
0.700000000000002
21
1.21243556529821
31
0
210
0
220
0
230
1
40
0.989133
41
2.08459719729627
42
2.26779951564648
0
ELLIPSE
5
14D
100
AcDbEntity
8
1
62
256
6
ByLayer
370
18
48
1
60
0
100
AcDbEllipse
10
34.862652
20
-12.961056
30
0
11
0.250000000000001
21
0.433012701892219
31
0
210
0
220
0
230
1
40
0.989133
41
-2.90557731192424
42
-2.39161565989754
0
ELLIPSE
5
14E
100
AcDbEntity
8
1
62
256
6
ByLayer
370
18
48
1
60
0
100
AcDbEllipse
10
37.510749
20
-14.183115
30
0
11
0.250000000000001
21
0.433012701892219
31
0
210
0
220
0
230
1
40
0.989133
41
2.43520940552916
42
3.0691838200806
0
ELLIPSE
5
14F
100
AcDbEntity
8
1
62
256
6
ByLayer
370
18
48
1
60
0
100
AcDbEllipse
10
35.909611
20
-14.492431
30
0
11
0.700000000000002
21
1.21243556529821
31
0
210
0
220
0
230
1
40
0.989133
41
-2.10419300749012
42
-1.92099068913991
0
ELLIPSE
5
150
100
AcDbEntity
8
1
62
256
6
ByLayer
370
18
48
1
60
0
100
AcDbEllipse
10
35.74268
20
-14.396053
30
0
11
-2.50000000000004
21
-4.33012701892217
31
0
210
0
220
0
230
1
40
0.989133
41
0
42
6.28318530717959
0
ELLIPSE
5
151
100
AcDbEntity
8
1
62
256
6
ByLayer
370
18
48
1
60
0
100
AcDbEllipse
10
34.591108
20
-13.870835
30
0
11
-0.225000000000003
21
-0.389711431702996
31
0
210
0
220
0
230
1
40
0.989133
41
-2.90557731192423
42
-0.0724088335091842
0
ELLIPSE
5
152
100
AcDbEntity
8
1
62
256
6
ByLayer
370
18
48
1
60
0
100
AcDbEllipse
10
35.654104
20
-14.344914
30
0
11
0.700000000000002
21
1.21243556529821
31
0
210
0
220
0
230
1
40
0.989133
41
-2.96818824033649
42
-2.10419300749012
0
POINT
5
6C
100
AcDbEntity
8
2
62
256
6
ByLayer
370
18
48
1
60
0
100
AcDbPoint
10
60
20
27
30
0
39
0
210
0
220
0
230
1
50
360
0
POINT
5
6E
100
AcDbEntity
8
80
62
256
6
ByLayer
370
18
48
1
60
0
100
AcDbPoint
10
0
20
0
30
0
39
0
210
0
220
0
230
1
50
360
0
POINT
5
70
100
AcDbEntity
8
81
62
256
6
ByLayer
370
18
48
1
60
0
100
AcDbPoint
10
60
20
-27
30
0
39
0
210
0
220
0
230
1
50
360
0
SPLINE
5
153
100
AcDbEntity
8
SK1
62
256
6
ByLayer
370
18
48
1
60
0
100
AcDbSpline
70
4
71
3
72
13
73
9
40
0
40
0
40
0
40
0
40
0.239456135686852
40
0.368359721835155
40
0.499998983918667
40
0.631638415195385
40
0.7605424677172
40
1
40
1
40
1
40
1
41
1
10
-2.19999999999999
20
-17.5200987347078
30
0
41
1
10
-2.19909198642125
20
-17.4940412586114
30
0
41
1
10
-2.19103284106788
20
-17.4566686743027
30
0
41
1
10
-2.16563592203161
20
-17.4104495005037
30
0
41
1
10
-2.13886378679047
20
-17.3791679466684
30
0
41
1
10
-2.10627712749664
20
-17.3540005764861
30
0
41
1
10
-2.05884064233982
20
-17.3309567740351
30
0
41
1
10
-2.02111030872965
20
-17.324784519015
30
0
41
1
10
-1.99503997793928
20
-17.3251861589552
30
0
0
SPLINE
5
154
100
AcDbEntity
8
SK1
62
256
6
ByLayer
370
18
48
1
60
0
100
AcDbSpline
70
4
71
3
72
13
73
9
40
0
40
0
40
0
40
0
40
0.239457532237385
40
0.368361584743632
40
0.500001016014352
40
0.631640278103004
40
0.760543864266449
40
1
40
1
40
1
40
1
41
1
10
-1.99503997793928
20
17.3251859759625
30
0
41
1
10
-2.02111030873061
20
17.3247843360228
30
0
41
1
10
-2.05884064234166
20
17.3309565910454
30
0
41
1
10
-2.106277127498
20
17.3540003935063
30
0
41
1
10
-2.13886378679174
20
17.3791677636994
30
0
41
1
10
-2.16563592203255
20
17.4104493175479
30
0
41
1
10
-2.19103284106862
20
17.4566684913667
30
0
41
1
10
-2.19909198642199
20
17.4940410756898
30
0
41
1
10
-2.19999999999999
20
17.520098551796
30
0
0
SPLINE
5
155
100
AcDbEntity
8
SK1
62
256
6
ByLayer
370
18
48
1
60
0
100
AcDbSpline
70
4
71
2
72
6
73
3
40
0
40
0
40
0
40
1
40
1
40
1
41
1
10
-28.5
20
-16.854272429841
30
0
41
1
10
-15.3499999999294
20
-17.1845422725478
30
0
41
1
10
-2.19999999999999
20
-17.5148117187522
30
0
0
SPLINE
5
156
100
AcDbEntity
8
SK1
62
256
6
ByLayer
370
18
48
1
60
0
100
AcDbSpline
70
4
71
2
72
6
73
3
40
0
40
0
40
0
40
1
40
1
40
1
41
1
10
-2.19999999999999
20
17.5148116792767
30
0
41
1
10
-15.3499999999286
20
17.1845422635703
30
0
41
1
10
-28.5
20
16.8542724489282
30
0
0
SPLINE
5
157
100
AcDbEntity
8
SK1
62
256
6
ByLayer
370
18
48
1
60
0
100
AcDbSpline
70
4
71
2
72
6
73
3
40
0
40
0
40
0
40
1
40
1
40
1
41
1
10
-1.99503997793928
20
-17.3199593319919
30
0
41
1
10
-1.19500843340703
20
-17.3400525762132
30
0
41
1
10
-0.394976888875277
20
-17.3601458189993
30
0
0
SPLINE
5
158
100
AcDbEntity
8
SK1
62
256
6
ByLayer
370
18
48
1
60
0
100
AcDbSpline
70
4
71
2
72
6
73
3
40
0
40
0
40
0
40
1
40
1
40
1
41
1
10
-0.394976888875277
20
17.3601457933935
30
0
41
1
10
-1.19500843340703
20
17.340052552406
30
0
41
1
10
-1.99503997793928
20
17.3199593099743
30
0
0
SPLINE
5
159
100
AcDbEntity
8
SK1
62
256
6
ByLayer
370
18
48
1
60
0
100
AcDbSpline
70
4
71
2
72
6
73
3
40
0
40
0
40
0
40
1
40
1
40
1
41
1
10
-28.5
20
16.8584504491481
30
0
41
1
10
-29.2499999991495
20
16.4254650261933
30
0
41
1
10
-30
20
15.9924794145163
30
0
0
SPLINE
5
15A
100
AcDbEntity
8
SK1
62
256
6
ByLayer
370
18
48
1
60
0
100
AcDbSpline
70
4
71
2
72
6
73
3
40
0
40
0
40
0
40
1
40
1
40
1
41
1
10
-30
20
-15.99247954079
30
0
41
1
10
-29.2499999991495
20
-16.4254651505507
30
0
41
1
10
-28.5
20
-16.8584505716142
30
0
0
SPLINE
5
15B
100
AcDbEntity
8
SK1
62
256
6
ByLayer
370
18
48
1
60
0
100
AcDbSpline
70
4
71
2
72
6
73
3
40
0
40
0
40
0
40
1
40
1
40
1
41
1
10
-0.258658740615658
20
17.4310145299902
30
0
41
1
10
-0.305277226309727
20
17.3671842624703
30
0
41
1
10
-0.394976888875277
20
17.359696795897
30
0
0
SPLINE
5
15C
100
AcDbEntity
8
SK1
62
256
6
ByLayer
370
18
48
1
60
0
100
AcDbSpline
70
4
71
2
72
6
73
3
40
0
40
0
40
0
40
1
40
1
40
1
41
1
10
-0.394976888875277
20
-17.3596982935394
30
0
41
1
10
-0.305123774552612
20
-17.3672404580573
30
0
41
1
10
-0.258442643302431
20
-17.4312381196178
30
0
0
SPLINE
5
15D
100
AcDbEntity
8
1
62
256
6
ByLayer
370
18
48
1
60
0
100
AcDbSpline
70
4
71
3
72
8
73
4
40
0
40
0
40
0
40
0
40
1
40
1
40
1
40
1
41
1
10
24.8397814871603
20
-18.9111475868571
30
0
41
1
10
24.4239394057731
20
-18.6925128206627
30
0
41
1
10
23.9909986548023
20
-18.40694802906
30
0
41
1
10
23.5937399337545
20
-18.0077683079156
30
0
0
SPLINE
5
15E
100
AcDbEntity
8
SK1
62
256
6
ByLayer
370
18
48
1
60
0
100
AcDbSpline
70
4
71
3
72
284
73
280
40
0
40
0
40
0
40
0
40
0.0001430891497582
40
0.0037134966560406
40
0.007283904162323
40
0.0108543116686054
40
0.0144247191748878
40
0.0179951266811701
40
0.0215655341874525
40
0.0251359416937349
40
0.0287063492000173
40
0.0322767567062997
40
0.035847164212582
40
0.0429879792251468
40
0.0465583867314292
40
0.0501287942377116
40
0.053699201743994
40
0.0572696092502763
40
0.0644104242628411
40
0.0679808317691235
40
0.0715512392754059
40
0.0786920542879706
40
0.082262461794253
40
0.0858328693005354
40
0.0929736843131002
40
0.0965440918193825
40
0.100114499325665
40
0.103684906831947
40
0.10725531433823
40
0.110825721844512
40
0.114396129350794
40
0.117966536857077
40
0.121536944363359
40
0.128677759375924
40
0.132248166882206
40
0.135818574388489
40
0.139388981894771
40
0.142959389401053
40
0.150100204413618
40
0.153670611919901
40
0.157241019426183
40
0.160811426932465
40
0.164381834438748
40
0.171522649451313
40
0.175093056957595
40
0.178663464463877
40
0.18223387197016
40
0.185804279476442
40
0.192945094489007
40
0.196515501995289
40
0.200085909501572
40
0.203656317007854
40
0.207226724514136
40
0.214367539526701
40
0.217937947032984
40
0.221508354539266
40
0.225078762045548
40
0.228649169551831
40
0.235789984564395
40
0.239360392070678
40
0.24293079957696
40
0.246501207083243
40
0.250071614589525
40
0.25721242960209
40
0.260782837108372
40
0.264353244614654
40
0.271494059627219
40
0.278634874639784
40
0.282205282146066
40
0.285775689652349
40
0.292916504664913
40
0.296486912171196
40
0.300057319677478
40
0.303627727183761
40
0.307198134690043
40
0.310768542196325
40
0.314338949702608
40
0.321479764715173
40
0.328620579727737
40
0.33219098723402
40
0.335761394740302
40
0.339331802246584
40
0.342902209752867
40
0.346472617259149
40
0.350043024765432
40
0.357183839777996
40
0.364324654790561
40
0.371465469803126
40
0.375035877309408
40
0.378606284815691
40
0.382176692321973
40
0.385747099828256
40
0.389317507334538
40
0.39288791484082
40
0.396458322347103
40
0.400028729853385
40
0.403599137359667
40
0.40716954486595
40
0.410739952372232
40
0.414310359878515
40
0.417880767384797
40
0.421451174891079
40
0.425021582397362
40
0.428591989903644
40
0.432162397409926
40
0.433947601163068
40
0.435732804916209
40
0.43751800866935
40
0.439303212422491
40
0.442873619928774
40
0.446444027435056
40
0.448229231188197
40
0.450014434941338
40
0.451799638694479
40
0.453584842447621
40
0.455370046200762
40
0.457155249953903
40
0.460725657460186
40
0.462510861213327
40
0.464296064966468
40
0.466081268719609
40
0.46786647247275
40
0.469651676225891
40
0.471436879979033
40
0.473222083732174
40
0.475007287485315
40
0.476792491238456
40
0.478577694991597
40
0.480362898744739
40
0.48214810249788
40
0.483933306251021
40
0.485718510004162
40
0.487503713757303
40
0.489288917510445
40
0.491074121263586
40
0.492859325016727
40
0.494644528769868
40
0.496429732523009
40
0.49821493627615
40
0.500000140029292
40
0.501785343782433
40
0.503570547535574
40
0.505355751288715
40
0.507140955041856
40
0.508926158794998
40
0.510711362548139
40
0.51249656630128
40
0.514281770054421
40
0.516066973807562
40
0.517852177560704
40
0.519637381313845
40
0.521422585066986
40
0.523207788820127
40
0.524992992573268
40
0.52677819632641
40
0.528563400079551
40
0.530348603832692
40
0.532133807585833
40
0.533919011338974
40
0.535704215092116
40
0.537489418845257
40
0.539274622598398
40
0.541059826351539
40
0.54284503010468
40
0.544630233857822
40
0.546415437610963
40
0.549985845117245
40
0.551771048870386
40
0.553556252623527
40
0.55712666012981
40
0.560697067636092
40
0.562482271389233
40
0.564267475142375
40
0.566052678895516
40
0.567837882648657
40
0.571408290154939
40
0.574978697661222
40
0.578549105167504
40
0.582119512673786
40
0.585689920180069
40
0.589260327686351
40
0.592830735192634
40
0.596401142698916
40
0.599971550205198
40
0.603541957711481
40
0.607112365217763
40
0.610682772724046
40
0.614253180230328
40
0.61782358773661
40
0.621393995242893
40
0.624964402749175
40
0.628534810255458
40
0.635675625268022
40
0.642816440280587
40
0.649957255293152
40
0.653527662799434
40
0.657098070305717
40
0.660668477811999
40
0.664238885318281
40
0.667809292824564
40
0.671379700330846
40
0.678520515343411
40
0.685661330355976
40
0.689231737862258
40
0.69280214536854
40
0.696372552874823
40
0.699942960381105
40
0.703513367887388
40
0.70708377539367
40
0.714224590406235
40
0.717794997912517
40
0.721365405418799
40
0.728506220431364
40
0.735647035443929
40
0.739217442950211
40
0.742787850456494
40
0.749928665469059
40
0.753499072975341
40
0.757069480481623
40
0.760639887987906
40
0.764210295494188
40
0.771351110506753
40
0.774921518013035
40
0.778491925519318
40
0.7820623330256
40
0.785632740531882
40
0.792773555544447
40
0.796343963050729
40
0.799914370557012
40
0.803484778063294
40
0.807055185569577
40
0.814196000582141
40
0.817766408088424
40
0.821336815594706
40
0.824907223100989
40
0.828477630607271
40
0.835618445619836
40
0.839188853126118
40
0.8427592606324
40
0.844544464385542
40
0.846329668138683
40
0.849900075644965
40
0.85704089065753
40
0.860611298163812
40
0.864181705670095
40
0.867752113176377
40
0.871322520682659
40
0.878463335695224
40
0.882033743201507
40
0.885604150707789
40
0.889174558214071
40
0.892744965720354
40
0.896315373226636
40
0.899885780732918
40
0.903456188239201
40
0.907026595745483
40
0.914167410758048
40
0.91773781826433
40
0.921308225770613
40
0.928449040783177
40
0.93201944828946
40
0.935589855795742
40
0.942730670808307
40
0.94630107831459
40
0.949871485820872
40
0.953441893327154
40
0.957012300833437
40
0.964153115846001
40
0.967723523352284
40
0.971293930858566
40
0.974864338364849
40
0.978434745871131
40
0.982005153377413
40
0.985575560883696
40
0.989145968389978
40
0.99271637589626
40
0.996286783402543
40
0.999857190908825
40
1
40
1
40
1
40
1
41
1
10
-1.99503997793928
20
-17.3206892019574
30
0
41
1
10
-1.99503997793928
20
-17.3206252128166
30
0
41
1
10
-1.99503997793928
20
-17.3189470181879
30
0
41
1
10
-1.99503997793928
20
-17.3147637003649
30
0
41
1
10
-1.99503997793928
20
-17.3061342577567
30
0
41
1
10
-1.99503997793928
20
-17.295067771448
30
0
41
1
10
-1.99503997793928
20
-17.2816041041457
30
0
41
1
10
-1.99503997793928
20
-17.2657805776118
30
0
41
1
10
-1.99503997793928
20
-17.2476335117891
30
0
41
1
10
-1.99503997793928
20
-17.2271975457697
30
0
41
1
10
-1.99503997793928
20
-17.2045053960087
30
0
41
1
10
-1.99503997793928
20
-17.1795895960111
30
0
41
1
10
-1.99503997793928
20
-17.143423992764
30
0
41
1
10
-1.99503997793928
20
-17.1029924242496
30
0
41
1
10
-1.99503997793928
20
-17.0582791326422
30
0
41
1
10
-1.99503997793928
20
-17.0226787925821
30
0
41
1
10
-1.99503997793928
20
-16.9850205529168
30
0
41
1
10
-1.99503997793928
20
-16.9320728615657
30
0
41
1
10
-1.99503997793928
20
-16.8751872660894
30
0
41
1
10
-1.99503997793928
20
-16.8142877036056
30
0
41
1
10
-1.99503997793928
20
-16.7507929832779
30
0
41
1
10
-1.99503997793928
20
-16.6835453056651
30
0
41
1
10
-1.99503997793928
20
-16.6124299551482
30
0
41
1
10
-1.99503997793928
20
-16.5388242186582
30
0
41
1
10
-1.99503997793928
20
-16.4616240004255
30
0
41
1
10
-1.99503997793928
20
-16.3806869939664
30
0
41
1
10
-1.99503997793928
20
-16.3182114219941
30
0
41
1
10
-1.99503997793928
20
-16.2539521138773
30
0
41
1
10
-1.99503997793928
20
-16.1879246249361
30
0
41
1
10
-1.99503997793928
20
-16.1201424382026
30
0
41
1
10
-1.99503997793928
20
-16.0506207732709
30
0
41
1
10
-1.99503997793928
20
-15.979373490825
30
0
41
1
10
-1.99503997793928
20
-15.8820499794418
30
0
41
1
10
-1.99503997793928
20
-15.7814584486047
30
0
41
1
10
-1.99503997793928
20
-15.677384958149
30
0
41
1
10
-1.99503997793928
20
-15.5977008436634
30
0
41
1
10
-1.99503997793928
20
-15.5163656256123
30
0
41
1
10
-1.99503997793928
20
-15.4056838451686
30
0
41
1
10
-1.99503997793928
20
-15.2918890118945
30
0
41
1
10
-1.99503997793928
20
-15.1747311694574
30
0
41
1
10
-1.99503997793928
20
-15.0853020659337
30
0
41
1
10
-1.99503997793928
20
-14.9942846604514
30
0
41
1
10
-1.99503997793928
20
-14.8707702235387
30
0
41
1
10
-1.99503997793928
20
-14.7442755428493
30
0
41
1
10
-1.99503997793928
20
-14.6145160455858
30
0
41
1
10
-1.99503997793928
20
-14.5156939096276
30
0
41
1
10
-1.99503997793928
20
-14.4153366771621
30
0
41
1
10
-1.99503997793928
20
-14.2794333721973
30
0
41
1
10
-1.99503997793928
20
-14.1406647198644
30
0
41
1
10
-1.99503997793928
20
-13.9987118830366
30
0
41
1
10
-1.99503997793928
20
-13.8907947247769
30
0
41
1
10
-1.99503997793928
20
-13.7813876415877
30
0
41
1
10
-1.99503997793928
20
-13.6334713769854
30
0
41
1
10
-1.99503997793928
20
-13.482790135872
30
0
41
1
10
-1.99503997793928
20
-13.328990109671
30
0
41
1
10
-1.99503997793928
20
-13.2122307400427
30
0
41
1
10
-1.99503997793928
20
-13.09401974916
30
0
41
1
10
-1.99503997793928
20
-12.9344093145834
30
0
41
1
10
-1.99503997793928
20
-12.7721223429484
30
0
41
1
10
-1.99503997793928
20
-12.606768466692
30
0
41
1
10
-1.99503997793928
20
-12.4813812679684
30
0
41
1
10
-1.99503997793928
20
-12.3545748152048
30
0
41
1
10
-1.99503997793928
20
-12.1835401119863
30
0
41
1
10
-1.99503997793928
20
-12.0099077332894
30
0
41
1
10
-1.99503997793928
20
-11.8332480165124
30
0
41
1
10
-1.99503997793928
20
-11.6547268261542
30
0
41
1
10
-1.99503997793928
20
-11.4282697000141
30
0
41
1
10
-1.99503997793928
20
-11.1972001365959
30
0
41
1
10
-1.99503997793928
20
-11.00944356136
30
0
41
1
10
-1.99503997793928
20
-10.8198574498995
30
0
41
1
10
-1.99503997793928
20
-10.627787937013
30
0
41
1
10
-1.99503997793928
20
-10.4327334855784
30
0
41
1
10
-1.99503997793928
20
-10.2851499168301
30
0
41
1
10
-1.99503997793928
20
-10.13621047024
30
0
41
1
10
-1.99503997793928
20
-9.98591879047714
30
0
41
1
10
-1.99503997793928
20
-9.83427692622885
30
0
41
1
10
-1.99503997793928
20
-9.63019833168175
30
0
41
1
10
-1.99503997793928
20
-9.37195865327328
30
0
41
1
10
-1.99503997793928
20
-9.1092571782612
30
0
41
1
10
-1.99503997793928
20
-8.89624559944801
30
0
41
1
10
-1.99503997793928
20
-8.73523611643316
30
0
41
1
10
-1.99503997793928
20
-8.57289871794615
30
0
41
1
10
-1.99503997793928
20
-8.40923673354897
30
0
41
1
10
-1.99503997793928
20
-8.24425232954013
30
0
41
1
10
-1.99503997793928
20
-8.0224014648056
30
0
41
1
10
-1.99503997793928
20
-7.7420578132905
30
0
41
1
10
-1.99503997793928
20
-7.40025290593451
30
0
41
1
10
-1.99503997793928
20
-7.11118461088941
30
0
41
1
10
-1.99503997793928
20
-6.87709665618266
30
0
41
1
10
-1.99503997793928
20
-6.70033531356589
30
0
41
1
10
-1.99503997793928
20
-6.52228078287743
30
0
41
1
10
-1.99503997793928
20
-6.3429370741791
30
0
41
1
10
-1.99503997793928
20
-6.16230788845579
30
0
41
1
10
-1.99503997793928
20
-5.98039789106801
30
0
41
1
10
-1.99503997793928
20
-5.79721186805691
30
0
41
1
10
-1.99503997793928
20
-5.61275496243289
30
0
41
1
10
-1.99503997793928
20
-5.42703270327695
30
0
41
1
10
-1.99503997793928
20
-5.24005175731475
30
0
41
1
10
-1.99503997793928
20
-5.05181945337139
30
0
41
1
10
-1.99503997793928
20
-4.86234332329403
30
0
41
1
10
-1.99503997793928
20
-4.67163207713236
30
0
41
1
10
-1.99503997793928
20
-4.47969614999016
30
0
41
1
10
-1.99503997793928
20
-4.28654656517494
30
0
41
1
10
-1.99503997793928
20
-4.09219634432211
30
0
41
1
10
-1.99503997793928
20
-3.92934661081907
30
0
41
1
10
-1.99503997793928
20
-3.7982972967292
30
0
41
1
10
-1.99503997793928
20
-3.69979994526253
30
0
41
1
10
-1.99503997793928
20
-3.6010147061962
30
0
41
1
10
-1.99503997793928
20
-3.46881385164499
30
0
41
1
10
-1.99503997793928
20
-3.30310841087518
30
0
41
1
10
-1.99503997793928
20
-3.13647579824178
30
0
41
1
10
-1.99503997793928
20
-3.00241852965871
30
0
41
1
10
-1.99503997793928
20
-2.90170218623106
30
0
41
1
10
-1.99503997793928
20
-2.80072442890969
30
0
41
1
10
-1.99503997793928
20
-2.69948931487846
30
0
41
1
10
-1.99503997793928
20
-2.5980019734576
30
0
41
1
10
-1.99503997793928
20
-2.46222694501739
30
0
41
1
10
-1.99503997793928
20
-2.3263670801044
30
0
41
1
10
-1.99503997793928
20
-2.18963187963746
30
0
41
1
10
-1.99503997793928
20
-2.08696367451518
30
0
41
1
10
-1.99503997793928
20
-1.98407765086858
30
0
41
1
10
-1.99503997793928
20
-1.88098143773604
30
0
41
1
10
-1.99503997793928
20
-1.77768276547397
30
0
41
1
10
-1.99503997793928
20
-1.67418894734925
30
0
41
1
10
-1.99503997793928
20
-1.57050946303122
30
0
41
1
10
-1.99503997793928
20
-1.46665209995737
30
0
41
1
10
-1.99503997793928
20
-1.36262724011792
30
0
41
1
10
-1.99503997793928
20
-1.25844372920938
30
0
41
1
10
-1.99503997793928
20
-1.15411255471386
30
0
41
1
10
-1.99503997793928
20
-1.04964378000579
30
0
41
1
10
-1.99503997793928
20
-0.945048899580655
30
0
41
1
10
-1.99503997793928
20
-0.840338961204225
30
0
41
1
10
-1.99503997793928
20
-0.735526073032332
30
0
41
1
10
-1.99503997793928
20
-0.630622105582688
30
0
41
1
10
-1.99503997793928
20
-0.525639721157262
30
0
41
1
10
-1.99503997793928
20
-0.420591350928703
30
0
41
1
10
-1.99503997793928
20
-0.315490126623814
30
0
41
1
10
-1.99503997793928
20
-0.210348939519435
30
0
41
1
10
-1.99503997793928
20
-0.105181165306249
30
0
41
1
10
-1.99503997793928
20
2.6093687E-09
30
0
41
1
10
-1.99503997793928
20
0.10518117389941
30
0
41
1
10
-1.99503997793928
20
0.21034895445402
30
0
41
1
10
-1.99503997793928
20
0.315490140896543
30
0
41
1
10
-1.99503997793928
20
0.420591355720489
30
0
41
1
10
-1.99503997793928
20
0.525639723935797
30
0
41
1
10
-1.99503997793928
20
0.630622120770227
30
0
41
1
10
-1.99503997793928
20
0.735526093018507
30
0
41
1
10
-1.99503997793928
20
0.840338966235578
30
0
41
1
10
-1.99503997793928
20
0.945048896197648
30
0
41
1
10
-1.99503997793928
20
1.04964379294299
30
0
41
1
10
-1.99503997793928
20
1.15411258033262
30
0
41
1
10
-1.99503997793928
20
1.25844373877697
30
0
41
1
10
-1.99503997793928
20
1.36262723194542
30
0
41
1
10
-1.99503997793928
20
1.46665210416356
30
0
41
1
10
-1.99503997793928
20
1.57050948928742
30
0
41
1
10
-1.99503997793928
20
1.67418896894682
30
0
41
1
10
-1.99503997793928
20
1.77768276258209
30
0
41
1
10
-1.99503997793928
20
1.88098142742643
30
0
41
1
10
-1.99503997793928
20
1.98407766278629
30
0
41
1
10
-1.99503997793928
20
2.08696370566375
30
0
41
1
10
-1.99503997793928
20
2.18963189754737
30
0
41
1
10
-1.99503997793928
20
2.29207637206397
30
0
41
1
10
-1.99503997793928
20
2.39428973936722
30
0
41
1
10
-1.99503997793928
20
2.49626703199883
30
0
41
1
10
-1.99503997793928
20
2.59800197223717
30
0
41
1
10
-1.99503997793928
20
2.73345090264118
30
0
41
1
10
-1.99503997793928
20
2.86801083241156
30
0
41
1
10
-1.99503997793928
20
3.00241855173454
30
0
41
1
10
-1.99503997793928
20
3.13647582573117
30
0
41
1
10
-1.99503997793928
20
3.30310842941955
30
0
41
1
10
-1.99503997793928
20
3.46881383607317
30
0
41
1
10
-1.99503997793928
20
3.60101470543907
30
0
41
1
10
-1.99503997793928
20
3.69979996514493
30
0
41
1
10
-1.99503997793928
20
3.79829732832764
30
0
41
1
10
-1.99503997793928
20
3.92934662557204
30
0
41
1
10
-1.99503997793928
20
4.09219631216948
30
0
41
1
10
-1.99503997793928
20
4.28654650347451
30
0
41
1
10
-1.99503997793928
20
4.47969611179559
30
0
41
1
10
-1.99503997793928
20
4.67163198724225
30
0
41
1
10
-1.99503997793928
20
4.86234315765492
30
0
41
1
10
-1.99503997793928
20
5.05181944357969
30
0
41
1
10
-1.99503997793928
20
5.24005183821342
30
0
41
1
10
-1.99503997793928
20
5.42703263168386
30
0
41
1
10
-1.99503997793928
20
5.61275497462711
30
0
41
1
10
-1.99503997793928
20
5.79721217482029
30
0
41
1
10
-1.99503997793928
20
5.98039819956611
30
0
41
1
10
-1.99503997793928
20
6.16230794338162
30
0
41
1
10
-1.99503997793928
20
6.34293700639154
30
0
41
1
10
-1.99503997793928
20
6.52228076981257
30
0
41
1
10
-1.99503997793928
20
6.70033533418757
30
0
41
1
10
-1.99503997793928
20
6.87709665926303
30
0
41
1
10
-1.99503997793928
20
7.11118459991687
30
0
41
1
10
-1.99503997793928
20
7.40025292645402
30
0
41
1
10
-1.99503997793928
20
7.74205781809903
30
0
41
1
10
-1.99503997793928
20
8.02240145976876
30
0
41
1
10
-1.99503997793928
20
8.24425235284596
30
0
41
1
10
-1.99503997793928
20
8.40923674956807
30
0
41
1
10
-1.99503997793928
20
8.57289871422529
30
0
41
1
10
-1.99503997793928
20
8.73523610803539
30
0
41
1
10
-1.99503997793928
20
8.89624560664996
30
0
41
1
10
-1.99503997793928
20
9.10925720032841
30
0
41
1
10
-1.99503997793928
20
9.37195865915049
30
0
41
1
10
-1.99503997793928
20
9.6301983246166
30
0
41
1
10
-1.99503997793928
20
9.83427694277646
30
0
41
1
10
-1.99503997793928
20
9.98591881051331
30
0
41
1
10
-1.99503997793928
20
10.1362104789651
30
0
41
1
10
-1.99503997793928
20
10.2851499142426
30
0
41
1
10
-1.99503997793928
20
10.432733482583
30
0
41
1
10
-1.99503997793928
20
10.6277879483349
30
0
41
1
10
-1.99503997793928
20
10.8198574709635
30
0
41
1
10
-1.99503997793928
20
11.0094435667743
30
0
41
1
10
-1.99503997793928
20
11.1972001338813
30
0
41
1
10
-1.99503997793928
20
11.4282697094187
30
0
41
1
10
-1.99503997793928
20
11.6547268446385
30
0
41
1
10
-1.99503997793928
20
11.8332480225582
30
0
41
1
10
-1.99503997793928
20
12.0099077334538
30
0
41
1
10
-1.99503997793928
20
12.1835401209566
30
0
41
1
10
-1.99503997793928
20
12.3545748313203
30
0
41
1
10
-1.99503997793928
20
12.4813812819682
30
0
41
1
10
-1.99503997793928
20
12.6067684751262
30
0
41
1
10
-1.99503997793928
20
12.7721223466594
30
0
41
1
10
-1.99503997793928
20
12.9344093235711
30
0
41
1
10
-1.99503997793928
20
13.0940197637218
30
0
41
1
10
-1.99503997793928
20
13.2122307543484
30
0
41
1
10
-1.99503997793928
20
13.3289901210133
30
0
41
1
10
-1.99503997793928
20
13.4827901435456
30
0
41
1
10
-1.99503997793928
20
13.6334713858817
30
0
41
1
10
-1.99503997793928
20
13.7813876543746
30
0
41
1
10
-1.99503997793928
20
13.8907947392413
30
0
41
1
10
-1.99503997793928
20
13.99871189727
30
0
41
1
10
-1.99503997793928
20
14.1406647319193
30
0
41
1
10
-1.99503997793928
20
14.2794333813788
30
0
41
1
10
-1.99503997793928
20
14.4153366880849
30
0
41
1
10
-1.99503997793928
20
14.5156939237825
30
0
41
1
10
-1.99503997793928
20
14.614516060936
30
0
41
1
10
-1.99503997793928
20
14.7442755571137
30
0
41
1
10
-1.99503997793928
20
14.8707702595594
30
0
41
1
10
-1.99503997793928
20
14.9942845913974
30
0
41
1
10
-1.99503997793928
20
15.070107125687
30
0
41
1
10
-1.99503997793928
20
15.130016414734
30
0
41
1
10
-1.99503997793928
20
15.1893946011099
30
0
41
1
10
-1.99503997793928
20
15.2918890331241
30
0
41
1
10
-1.99503997793928
20
15.4056838559475
30
0
41
1
10
-1.99503997793928
20
15.5163656330196
30
0
41
1
10
-1.99503997793928
20
15.5977008570348
30
0
41
1
10
-1.99503997793928
20
15.677384979663
30
0
41
1
10
-1.99503997793928
20
15.781458474053
30
0
41
1
10
-1.99503997793928
20
15.8820499896637
30
0
41
1
10
-1.99503997793928
20
15.9793734967038
30
0
41
1
10
-1.99503997793928
20
16.0506207879892
30
0
41
1
10
-1.99503997793928
20
16.1201424632647
30
0
41
1
10
-1.99503997793928
20
16.1879246525291
30
0
41
1
10
-1.99503997793928
20
16.2539521307207
30
0
41
1
10
-1.99503997793928
20
16.3182114280861
30
0
41
1
10
-1.99503997793928
20
16.3806869997558
30
0
41
1
10
-1.99503997793928
20
16.4616240235723
30
0
41
1
10
-1.99503997793928
20
16.538824252381
30
0
41
1
10
-1.99503997793928
20
16.6124299668847
30
0
41
1
10
-1.99503997793928
20
16.6835453043615
30
0
41
1
10
-1.99503997793928
20
16.7507930080793
30
0
41
1
10
-1.99503997793928
20
16.8142877377232
30
0
41
1
10
-1.99503997793928
20
16.8751872797734
30
0
41
1
10
-1.99503997793928
20
16.9320728583858
30
0
41
1
10
-1.99503997793928
20
16.9850205784631
30
0
41
1
10
-1.99503997793928
20
17.0226788299273
30
0
41
1
10
-1.99503997793928
20
17.0582791544304
30
0
41
1
10
-1.99503997793928
20
17.1029924178939
30
0
41
1
10
-1.99503997793928
20
17.1434240170936
30
0
41
1
10
-1.99503997793928
20
17.1795896288677
30
0
41
1
10
-1.99503997793928
20
17.204505416066
30
0
41
1
10
-1.99503997793928
20
17.2271975480507
30
0
41
1
10
-1.99503997793928
20
17.2476335178127
30
0
41
1
10
-1.99503997793928
20
17.2657806121613
30
0
41
1
10
-1.99503997793928
20
17.2816041393821
30
0
41
1
10
-1.99503997793928
20
17.2950677779805
30
0
41
1
10
-1.99503997793928
20
17.3061342543252
30
0
41
1
10
-1.99503997793928
20
17.3147637210185
30
0
41
1
10
-1.99503997793928
20
17.3189468592423
30
0
41
1
10
-1.99503997793928
20
17.3206249324443
30
0
41
1
10
-1.99503997793928
20
17.3206887978341
30
0
0
SPLINE
5
15F
100
AcDbEntity
8
SK1
62
256
6
ByLayer
370
18
48
1
60
0
100
AcDbSpline
70
4
71
3
72
282
73
278
40
0
40
0
40
0
40
0
40
0.0031455686372577
40
0.006720060299686
40
0.0102945519621143
40
0.0138690436245426
40
0.0174435352869708
40
0.0210180269493991
40
0.0245925186118274
40
0.0281670102742557
40
0.031741501936684
40
0.0353159935991122
40
0.0424649769239688
40
0.0460394685863971
40
0.0496139602488253
40
0.0531884519112536
40
0.0567629435736819
40
0.0639119268985384
40
0.0674864185609667
40
0.071060910223395
40
0.0782098935482516
40
0.0817843852106798
40
0.0853588768731081
40
0.0925078601979647
40
0.096082351860393
40
0.0996568435228212
40
0.10323133518525
40
0.106805826847678
40
0.110380318510106
40
0.113954810172534
40
0.117529301834963
40
0.121103793497391
40
0.128252776822247
40
0.131827268484676
40
0.135401760147104
40
0.138976251809532
40
0.142550743471961
40
0.149699726796817
40
0.153274218459245
40
0.156848710121674
40
0.160423201784102
40
0.16399769344653
40
0.171146676771387
40
0.174721168433815
40
0.178295660096243
40
0.181870151758672
40
0.1854446434211
40
0.192593626745957
40
0.196168118408385
40
0.199742610070813
40
0.203317101733241
40
0.20689159339567
40
0.214040576720526
40
0.217615068382954
40
0.221189560045383
40
0.224764051707811
40
0.228338543370239
40
0.235487526695096
40
0.239062018357524
40
0.242636510019952
40
0.246211001682381
40
0.249785493344809
40
0.256934476669666
40
0.260508968332094
40
0.264083459994522
40
0.271232443319379
40
0.278381426644235
40
0.281955918306663
40
0.285530409969092
40
0.292679393293948
40
0.296253884956377
40
0.299828376618805
40
0.303402868281233
40
0.306977359943661
40
0.31055185160609
40
0.314126343268518
40
0.321275326593374
40
0.328424309918231
40
0.331998801580659
40
0.335573293243087
40
0.339147784905516
40
0.342722276567944
40
0.346296768230372
40
0.349871259892801
40
0.357020243217657
40
0.364169226542514
40
0.37131820986737
40
0.374892701529799
40
0.378467193192227
40
0.382041684854655
40
0.385616176517084
40
0.389190668179512
40
0.39276515984194
40
0.396339651504368
40
0.399914143166797
40
0.403488634829225
40
0.407063126491653
40
0.410637618154081
40
0.41421210981651
40
0.417786601478938
40
0.421361093141366
40
0.424935584803795
40
0.428510076466223
40
0.432084568128651
40
0.433871813959865
40
0.435659059791079
40
0.437446305622293
40
0.439233551453508
40
0.442808043115936
40
0.446382534778364
40
0.448169780609578
40
0.449957026440792
40
0.451744272272007
40
0.453531518103221
40
0.455318763934435
40
0.457106009765649
40
0.460680501428077
40
0.462467747259291
40
0.464254993090506
40
0.46604223892172
40
0.467829484752934
40
0.469616730584148
40
0.471403976415362
40
0.473191222246576
40
0.47497846807779
40
0.476765713909005
40
0.478552959740219
40
0.480340205571433
40
0.482127451402647
40
0.483914697233861
40
0.485701943065075
40
0.487489188896289
40
0.489276434727503
40
0.491063680558718
40
0.492850926389932
40
0.494638172221146
40
0.49642541805236
40
0.498212663883574
40
0.499999909714788
40
0.501787155546002
40
0.503574401377217
40
0.505361647208431
40
0.507148893039645
40
0.508936138870859
40
0.510723384702073
40
0.512510630533287
40
0.514297876364501
40
0.516085122195716
40
0.51787236802693
40
0.519659613858144
40
0.521446859689358
40
0.523234105520572
40
0.525021351351786
40
0.526808597183
40
0.528595843014215
40
0.530383088845429
40
0.532170334676643
40
0.533957580507857
40
0.535744826339071
40
0.537532072170285
40
0.539319318001499
40
0.541106563832714
40
0.542893809663928
40
0.544681055495142
40
0.546468301326356
40
0.550042792988784
40
0.551830038819998
40
0.553617284651213
40
0.557191776313641
40
0.560766267976069
40
0.562553513807283
40
0.564340759638497
40
0.566128005469712
40
0.567915251300926
40
0.571489742963354
40
0.575064234625782
40
0.57863872628821
40
0.582213217950639
40
0.585787709613067
40
0.589362201275495
40
0.592936692937924
40
0.596511184600352
40
0.60008567626278
40
0.603660167925208
40
0.607234659587637
40
0.610809151250065
40
0.614383642912493
40
0.617958134574922
40
0.62153262623735
40
0.625107117899778
40
0.628681609562206
40
0.635830592887063
40
0.642979576211919
40
0.650128559536776
40
0.653703051199204
40
0.657277542861633
40
0.660852034524061
40
0.664426526186489
40
0.668001017848917
40
0.671575509511346
40
0.678724492836202
40
0.685873476161059
40
0.689447967823487
40
0.693022459485915
40
0.696596951148344
40
0.700171442810772
40
0.7037459344732
40
0.707320426135629
40
0.714469409460485
40
0.718043901122913
40
0.721618392785342
40
0.728767376110198
40
0.735916359435055
40
0.739490851097483
40
0.743065342759911
40
0.750214326084768
40
0.753788817747196
40
0.757363309409624
40
0.760937801072053
40
0.764512292734481
40
0.771661276059337
40
0.775235767721766
40
0.778810259384194
40
0.782384751046622
40
0.78595924270905
40
0.793108226033907
40
0.796682717696335
40
0.800257209358764
40
0.803831701021192
40
0.80740619268362
40
0.814555176008477
40
0.818129667670905
40
0.821704159333333
40
0.825278650995762
40
0.82885314265819
40
0.836002125983046
40
0.839576617645475
40
0.843151109307903
40
0.844938355139117
40
0.846725600970331
40
0.85030009263276
40
0.857449075957616
40
0.861023567620044
40
0.864598059282473
40
0.868172550944901
40
0.871747042607329
40
0.878896025932186
40
0.882470517594614
40
0.886045009257042
40
0.889619500919471
40
0.893193992581899
40
0.896768484244327
40
0.900342975906755
40
0.903917467569184
40
0.907491959231612
40
0.914640942556469
40
0.918215434218897
40
0.921789925881325
40
0.928938909206182
40
0.93251340086861
40
0.936087892531038
40
0.943236875855895
40
0.946811367518323
40
0.950385859180751
40
0.95396035084318
40
0.957534842505608
40
0.964683825830464
40
0.968258317492893
40
0.971832809155321
40
0.975407300817749
40
0.978981792480177
40
0.982556284142606
40
0.986130775805034
40
0.989705267467462
40
0.993279759129891
40
0.996854250792319
40
1
40
1
40
1
40
1
41
1
10
-2.19999999999996
20
-17.5147448747116
30
0
41
1
10
-2.19999999999996
20
-17.5132050099354
30
0
41
1
10
-2.20000000000002
20
-17.5092143142473
30
0
41
1
10
-2.19999999999999
20
-17.5008423359265
30
0
41
1
10
-2.19999999999999
20
-17.4896606050755
30
0
41
1
10
-2.19999999999999
20
-17.4760589345483
30
0
41
1
10
-2.19999999999999
20
-17.4600756660116
30
0
41
1
10
-2.19999999999999
20
-17.4417480829298
30
0
41
1
10
-2.19999999999999
20
-17.4211116708093
30
0
41
1
10
-2.19999999999999
20
-17.3981999720817
30
0
41
1
10
-2.19999999999999
20
-17.373046254225
30
0
41
1
10
-2.19999999999999
20
-17.3365615480365
30
0
41
1
10
-2.19999999999999
20
-17.2957083393221
30
0
41
1
10
-2.19999999999999
20
-17.2506132986913
30
0
41
1
10
-2.19999999999999
20
-17.2146924230801
30
0
41
1
10
-2.19999999999999
20
-17.1766986759847
30
0
41
1
10
-2.19999999999999
20
-17.1233138560685
30
0
41
1
10
-2.19999999999999
20
-17.0658713749173
30
0
41
1
10
-2.19999999999999
20
-17.0044820563696
30
0
41
1
10
-2.19999999999999
20
-16.9404819965209
30
0
41
1
10
-2.19999999999999
20
-16.8725984751516
30
0
41
1
10
-2.19999999999999
20
-16.8009296734765
30
0
41
1
10
-2.19999999999999
20
-16.72675615712
30
0
41
1
10
-2.19999999999999
20
-16.6488472996884
30
0
41
1
10
-2.19999999999999
20
-16.5672977573629
30
0
41
1
10
-2.19999999999999
20
-16.5043209819811
30
0
41
1
10
-2.19999999999999
20
-16.4395493732765
30
0
41
1
10
-2.19999999999999
20
-16.3729983406747
30
0
41
1
10
-2.19999999999999
20
-16.3046816133433
30
0
41
1
10
-2.19999999999999
20
-16.2346146587631
30
0
41
1
10
-2.19999999999999
20
-16.1628111167189
30
0
41
1
10
-2.19999999999999
20
-16.0647793469533
30
0
41
1
10
-2.19999999999999
20
-15.9633134995801
30
0
41
1
10
-2.19999999999999
20
-15.8584913887799
30
0
41
1
10
-2.19999999999999
20
-15.7781982427732
30
0
41
1
10
-2.19999999999999
20
-15.6962433497342
30
0
41
1
10
-2.19999999999999
20
-15.5847743861311
30
0
41
1
10
-2.19999999999999
20
-15.4700110710185
30
0
41
1
10
-2.19999999999999
20
-15.3520264687641
30
0
41
1
10
-2.19999999999999
20
-15.2619258251736
30
0
41
1
10
-2.19999999999999
20
-15.1702262286607
30
0
41
1
10
-2.19999999999999
20
-15.0458463802595
30
0
41
1
10
-2.19999999999999
20
-14.9182892137509
30
0
41
1
10
-2.19999999999999
20
-14.7876243835494
30
0
41
1
10
-2.19999999999999
20
-14.6880675684927
30
0
41
1
10
-2.19999999999999
20
-14.5869647024964
30
0
41
1
10
-2.19999999999999
20
-14.4501162009323
30
0
41
1
10
-2.19999999999999
20
-14.310188578504
30
0
41
1
10
-2.19999999999999
20
-14.1672492498436
30
0
41
1
10
-2.19999999999999
20
-14.0585319196999
30
0
41
1
10
-2.19999999999999
20
-13.9483131149779
30
0
41
1
10
-2.19999999999999
20
-13.7993681823229
30
0
41
1
10
-2.19999999999999
20
-13.6474264445925
30
0
41
1
10
-2.19999999999999
20
-13.4925540283558
30
0
41
1
10
-2.19999999999999
20
-13.3749248852381
30
0
41
1
10
-2.19999999999999
20
-13.2558316845062
30
0
41
1
10
-2.19999999999999
20
-13.0951031858018
30
0
41
1
10
-2.19999999999999
20
-12.9314463879873
30
0
41
1
10
-2.19999999999999
20
-12.7649271524075
30
0
41
1
10
-2.19999999999999
20
-12.6385945304865
30
0
41
1
10
-2.19999999999999
20
-12.510828990928
30
0
41
1
10
-2.19999999999999
20
-12.3385783725546
30
0
41
1
10
-2.19999999999999
20
-12.1634558634281
30
0
41
1
10
-2.19999999999999
20
-11.9855279960913
30
0
41
1
10
-2.19999999999999
20
-11.8057193844339
30
0
41
1
10
-2.19999999999999
20
-11.5774197426994
30
0
41
1
10
-2.19999999999999
20
-11.3444552561941
30
0
41
1
10
-2.19999999999999
20
-11.1553144466797
30
0
41
1
10
-2.19999999999999
20
-10.96432157968
30
0
41
1
10
-2.19999999999999
20
-10.7705258372791
30
0
41
1
10
-2.19999999999999
20
-10.5740001677826
30
0
41
1
10
-2.19999999999999
20
-10.4252200954492
30
0
41
1
10
-2.19999999999999
20
-10.2750653600417
30
0
41
1
10
-2.19999999999999
20
-10.1235384488298
30
0
41
1
10
-2.19999999999999
20
-9.97064122920807
30
0
41
1
10
-2.19999999999999
20
-9.76496631801302
30
0
41
1
10
-2.19999999999999
20
-9.50443392738597
30
0
41
1
10
-2.19999999999999
20
-9.23936570098886
30
0
41
1
10
-2.19999999999999
20
-9.02461799380217
30
0
41
1
10
-2.19999999999999
20
-8.86219304475887
30
0
41
1
10
-2.19999999999999
20
-8.69841428000512
30
0
41
1
10
-2.19999999999999
20
-8.53328405958746
30
0
41
1
10
-2.19999999999999
20
-8.36680339868337
30
0
41
1
10
-2.19999999999999
20
-8.14304412571011
30
0
41
1
10
-2.19999999999999
20
-7.85994707617317
30
0
41
1
10
-2.19999999999999
20
-7.51487111531026
30
0
41
1
10
-2.19999999999999
20
-7.22282329277962
30
0
41
1
10
-2.19999999999999
20
-6.98653548716825
30
0
41
1
10
-2.19999999999999
20
-6.80797157864473
30
0
41
1
10
-2.19999999999999
20
-6.62807270531451
30
0
41
1
10
-2.19999999999999
20
-6.44684086969582
30
0
41
1
10
-2.19999999999999
20
-6.26427776637016
30
0
41
1
10
-2.19999999999999
20
-6.0803858592752
30
0
41
1
10
-2.19999999999999
20
-5.89516728223867
30
0
41
1
10
-2.19999999999999
20
-5.70862469092603
30
0
41
1
10
-2.19999999999999
20
-5.52076103085633
30
0
41
1
10
-2.19999999999999
20
-5.33157993388585
30
0
41
1
10
-2.19999999999999
20
-5.14108511996025
30
0
41
1
10
-2.19999999999999
20
-4.94928086714648
30
0
41
1
10
-2.19999999999999
20
-4.75617251627347
30
0
41
1
10
-2.19999999999999
20
-4.56176620564526
30
0
41
1
10
-2.19999999999999
20
-4.36606873641344
30
0
41
1
10
-2.19999999999999
20
-4.16908849962459
30
0
41
1
10
-2.19999999999999
20
-4.00386590607064
30
0
41
1
10
-2.19999999999999
20
-3.87107810854147
30
0
41
1
10
-2.19999999999999
20
-3.77116418570387
30
0
41
1
10
-2.19999999999999
20
-3.67093805129474
30
0
41
1
10
-2.19999999999999
20
-3.5369018254882
30
0
41
1
10
-2.19999999999999
20
-3.36855658184018
30
0
41
1
10
-2.19999999999999
20
-3.19919951970698
30
0
41
1
10
-2.19999999999999
20
-3.06314133422208
30
0
41
1
10
-2.19999999999999
20
-2.96079189341756
30
0
41
1
10
-2.19999999999999
20
-2.85815023786418
30
0
41
1
10
-2.19999999999999
20
-2.75522026664268
30
0
41
1
10
-2.19999999999999
20
-2.65200561172494
30
0
41
1
10
-2.19999999999999
20
-2.51402705629772
30
0
41
1
10
-2.19999999999999
20
-2.375450816946
30
0
41
1
10
-2.19999999999999
20
-2.23639085040648
30
0
41
1
10
-2.19999999999999
20
-2.13182395998015
30
0
41
1
10
-2.19999999999999
20
-2.02700348752293
30
0
41
1
10
-2.19999999999999
20
-1.92193653735015
30
0
41
1
10
-2.19999999999999
20
-1.81663008016324
30
0
41
1
10
-2.19999999999999
20
-1.71109231328518
30
0
41
1
10
-2.19999999999999
20
-1.60533155404698
30
0
41
1
10
-2.19999999999999
20
-1.49935698477981
30
0
41
1
10
-2.19999999999999
20
-1.39317847233161
30
0
41
1
10
-2.19999999999999
20
-1.28680633401083
30
0
41
1
10
-2.19999999999999
20
-1.18025197439016
30
0
41
1
10
-2.19999999999999
20
-1.073527020087
30
0
41
1
10
-2.19999999999999
20
-0.96664434311532
30
0
41
1
10
-2.19999999999999
20
-0.859616995486334
30
0
41
1
10
-2.19999999999999
20
-0.752459219961509
30
0
41
1
10
-2.19999999999999
20
-0.645185453734172
30
0
41
1
10
-2.19999999999999
20
-0.537811163545626
30
0
41
1
10
-2.19999999999999
20
-0.430352024765995
30
0
41
1
10
-2.19999999999999
20
-0.322824496958617
30
0
41
1
10
-2.19999999999999
20
-0.215245213108545
30
0
41
1
10
-2.19999999999999
20
-0.107631302158183
30
0
41
1
10
-2.19999999999999
20
5.9909553E-09
30
0
41
1
10
-2.19999999999999
20
0.107631313716837
30
0
41
1
10
-2.19999999999999
20
0.21524522393176
30
0
41
1
10
-2.19999999999999
20
0.322824507999513
30
0
41
1
10
-2.19999999999999
20
0.430352036900842
30
0
41
1
10
-2.19999999999999
20
0.537811175438549
30
0
41
1
10
-2.19999999999999
20
0.645185463980482
30
0
41
1
10
-2.19999999999999
20
0.752459230354134
30
0
41
1
10
-2.19999999999999
20
0.859617007920519
30
0
41
1
10
-2.19999999999999
20
0.966644355262389
30
0
41
1
10
-2.19999999999999
20
1.07352702949097
30
0
41
1
10
-2.19999999999999
20
1.18025198377217
30
0
41
1
10
-2.19999999999999
20
1.2868063464968
30
0
41
1
10
-2.19999999999999
20
1.39317848503856
30
0
41
1
10
-2.19999999999999
20
1.49935699380708
30
0
41
1
10
-2.19999999999999
20
1.60533156181745
30
0
41
1
10
-2.19999999999999
20
1.71109232444707
30
0
41
1
10
-2.19999999999999
20
1.81663009373557
30
0
41
1
10
-2.19999999999999
20
1.92193654804359
30
0
41
1
10
-2.19999999999999
20
2.02700349385552
30
0
41
1
10
-2.19999999999999
20
2.13182396747069
30
0
41
1
10
-2.19999999999999
20
2.23639086291988
30
0
41
1
10
-2.19999999999999
20
2.34069812940876
30
0
41
1
10
-2.19999999999999
20
2.44473977839391
30
0
41
1
10
-2.19999999999999
20
2.54851063247165
30
0
41
1
10
-2.19999999999999
20
2.65200559968281
30
0
41
1
10
-2.19999999999999
20
2.78960994504098
30
0
41
1
10
-2.19999999999999
20
2.92668912429065
30
0
41
1
10
-2.19999999999999
20
3.06314133551615
30
0
41
1
10
-2.19999999999999
20
3.19919952332836
30
0
41
1
10
-2.19999999999999
20
3.36855659963138
30
0
41
1
10
-2.19999999999999
20
3.53690183437428
30
0
41
1
10
-2.19999999999999
20
3.67093805397229
30
0
41
1
10
-2.19999999999999
20
3.77116418775421
30
0
41
1
10
-2.19999999999999
20
3.87107811616198
30
0
41
1
10
-2.19999999999999
20
4.00386592221614
30
0
41
1
10
-2.19999999999999
20
4.169088511784
30
0
41
1
10
-2.19999999999999
20
4.36606871643775
30
0
41
1
10
-2.19999999999999
20
4.56176617271484
30
0
41
1
10
-2.19999999999999
20
4.75617249379653
30
0
41
1
10
-2.19999999999999
20
4.94928076863457
30
0
41
1
10
-2.19999999999999
20
5.14108500618136
30
0
41
1
10
-2.19999999999999
20
5.33157993903225
30
0
41
1
10
-2.19999999999999
20
5.52076102284181
30
0
41
1
10
-2.19999999999999
20
5.70862461825791
30
0
41
1
10
-2.19999999999999
20
5.89516734859464
30
0
41
1
10
-2.19999999999999
20
6.0803860968085
30
0
41
1
10
-2.19999999999999
20
6.26427796235188
30
0
41
1
10
-2.19999999999999
20
6.44684092947378
30
0
41
1
10
-2.19999999999999
20
6.62807271786153
30
0
41
1
10
-2.19999999999999
20
6.80797159432129
30
0
41
1
10
-2.19999999999999
20
6.98653550324826
30
0
41
1
10
-2.19999999999999
20
7.22282328452872
30
0
41
1
10
-2.19999999999999
20
7.51487112820209
30
0
41
1
10
-2.19999999999999
20
7.85994708827315
30
0
41
1
10
-2.19999999999999
20
8.14304411844034
30
0
41
1
10
-2.19999999999999
20
8.36680341033821
30
0
41
1
10
-2.19999999999999
20
8.53328407858575
30
0
41
1
10
-2.19999999999999
20
8.69841428877766
30
0
41
1
10
-2.19999999999999
20
8.86219304073114
30
0
41
1
10
-2.19999999999999
20
9.02461799205523
30
0
41
1
10
-2.19999999999999
20
9.23936571773672
30
0
41
1
10
-2.19999999999999
20
9.50443394039922
30
0
41
1
10
-2.19999999999999
20
9.76496631110049
30
0
41
1
10
-2.19999999999999
20
9.97064123613964
30
0
41
1
10
-2.19999999999999
20
10.123538466054
30
0
41
1
10
-2.19999999999999
20
10.2750653748105
30
0
41
1
10
-2.19999999999999
20
10.4252201002359
30
0
41
1
10
-2.19999999999999
20
10.5740001651574
30
0
41
1
10
-2.19999999999999
20
10.7705258416001
30
0
41
1
10
-2.19999999999999
20
10.9643215989582
30
0
41
1
10
-2.19999999999999
20
11.1553144582602
30
0
41
1
10
-2.19999999999999
20
11.3444552554371
30
0
41
1
10
-2.19999999999999
20
11.5774197477568
30
0
41
1
10
-2.19999999999999
20
11.8057194023465
30
0
41
1
10
-2.19999999999999
20
11.9855280067157
30
0
41
1
10
-2.19999999999999
20
12.1634558646821
30
0
41
1
10
-2.19999999999999
20
12.3385783781737
30
0
41
1
10
-2.19999999999999
20
12.510829004708
30
0
41
1
10
-2.19999999999999
20
12.6385945454976
30
0
41
1
10
-2.19999999999999
20
12.7649271637091
30
0
41
1
10
-2.19999999999999
20
12.9314463925932
30
0
41
1
10
-2.19999999999999
20
13.0951031927999
30
0
41
1
10
-2.19999999999999
20
13.2558316973182
30
0
41
1
10
-2.19999999999999
20
13.3749248996582
30
0
41
1
10
-2.19999999999999
20
13.4925540411334
30
0
41
1
10
-2.19999999999999
20
13.6474264531923
30
0
41
1
10
-2.19999999999999
20
13.7993681905533
30
0
41
1
10
-2.19999999999999
20
13.9483131264862
30
0
41
1
10
-2.19999999999999
20
14.0585319334344
30
0
41
1
10
-2.19999999999999
20
14.1672492642274
30
0
41
1
10
-2.19999999999999
20
14.3101885914782
30
0
41
1
10
-2.19999999999999
20
14.4501162106047
30
0
41
1
10
-2.19999999999999
20
14.5869647126432
30
0
41
1
10
-2.19999999999999
20
14.6880675812844
30
0
41
1
10
-2.19999999999999
20
14.7876243995297
30
0
41
1
10
-2.19999999999999
20
14.9182892218295
30
0
41
1
10
-2.19999999999999
20
15.0458464314392
30
0
41
1
10
-2.19999999999999
20
15.1702261509224
30
0
41
1
10
-2.19999999999999
20
15.2466455133785
30
0
41
1
10
-2.19999999999999
20
15.3069761679616
30
0
41
1
10
-2.19999999999999
20
15.3667724139347
30
0
41
1
10
-2.19999999999999
20
15.4700110929875
30
0
41
1
10
-2.19999999999999
20
15.5847743990242
30
0
41
1
10
-2.19999999999999
20
15.6962433571227
30
0
41
1
10
-2.19999999999999
20
15.7781982539187
30
0
41
1
10
-2.19999999999999
20
15.8584914079188
30
0
41
1
10
-2.19999999999999
20
15.9633135259672
30
0
41
1
10
-2.19999999999999
20
16.0647793597711
30
0
41
1
10
-2.19999999999999
20
16.1628111223414
30
0
41
1
10
-2.19999999999999
20
16.2346146707391
30
0
41
1
10
-2.19999999999999
20
16.3046816359758
30
0
41
1
10
-2.19999999999999
20
16.3729983688048
30
0
41
1
10
-2.19999999999999
20
16.439549393056
30
0
41
1
10
-2.19999999999999
20
16.5043209901434
30
0
41
1
10
-2.19999999999999
20
16.5672977619412
30
0
41
1
10
-2.19999999999999
20
16.6488473199257
30
0
41
1
10
-2.19999999999999
20
16.7267561914694
30
0
41
1
10
-2.19999999999999
20
16.8009296884544
30
0
41
1
10
-2.19999999999999
20
16.8725984731112
30
0
41
1
10
-2.19999999999999
20
16.9404820184079
30
0
41
1
10
-2.19999999999999
20
17.0044820909957
30
0
41
1
10
-2.19999999999999
20
17.0658713913631
30
0
41
1
10
-2.19999999999999
20
17.123313852319
30
0
41
1
10
-2.19999999999999
20
17.1766986986672
30
0
41
1
10
-2.19999999999999
20
17.2146924603873
30
0
41
1
10
-2.19999999999999
20
17.250613323192
30
0
41
1
10
-2.19999999999999
20
17.2957083328928
30
0
41
1
10
-2.19999999999999
20
17.3365615705832
30
0
41
1
10
-2.19999999999999
20
17.3730462873428
30
0
41
1
10
-2.19999999999999
20
17.398199993695
30
0
41
1
10
-2.19999999999999
20
17.4211116738093
30
0
41
1
10
-2.19999999999999
20
17.4417480876219
30
0
41
1
10
-2.19999999999999
20
17.4600756994924
30
0
41
1
10
-2.19999999999999
20
17.4760589706817
30
0
41
1
10
-2.19999999999999
20
17.4896606126055
30
0
41
1
10
-2.19999999999999
20
17.5008423321234
30
0
41
1
10
-2.19999999999999
20
17.5092144809157
30
0
41
1
10
-2.20000000000002
20
17.513205229985
30
0
41
1
10
-2.20000000000005
20
17.5147451253667
30
0
0
SPLINE
5
160
100
AcDbEntity
8
SK1
62
256
6
ByLayer
370
18
48
1
60
0
100
AcDbSpline
70
4
71
3
72
287
73
283
40
0
40
0
40
0
40
0
40
0.0019139440512678
40
0.005437683080438
40
0.0089614221096081
40
0.0124851611387783
40
0.0160089001679485
40
0.0195326391971187
40
0.0230563782262888
40
0.0265801172554591
40
0.0301038562846292
40
0.0336275953137994
40
0.0371513343429696
40
0.0441988124013099
40
0.0477225514304801
40
0.0512462904596503
40
0.0547700294888205
40
0.0582937685179907
40
0.065341246576331
40
0.0688649856055012
40
0.0723887246346713
40
0.0794362026930117
40
0.0829599417221819
40
0.0864836807513521
40
0.0935311588096925
40
0.0970548978388627
40
0.100578636868033
40
0.104102375897203
40
0.107626114926373
40
0.111149853955543
40
0.114673592984714
40
0.118197332013884
40
0.121721071043054
40
0.128768549101394
40
0.132292288130564
40
0.135816027159735
40
0.139339766188905
40
0.142863505218075
40
0.149910983276415
40
0.153434722305586
40
0.156958461334756
40
0.160482200363926
40
0.164005939393096
40
0.171053417451436
40
0.174577156480607
40
0.178100895509777
40
0.181624634538947
40
0.185148373568117
40
0.192195851626457
40
0.195719590655628
40
0.199243329684798
40
0.202767068713968
40
0.206290807743138
40
0.213338285801479
40
0.216862024830649
40
0.220385763859819
40
0.223909502888989
40
0.227433241918159
40
0.2344807199765
40
0.23800445900567
40
0.24152819803484
40
0.24505193706401
40
0.24857567609318
40
0.255623154151521
40
0.259146893180691
40
0.262670632209861
40
0.269718110268201
40
0.276765588326542
40
0.280289327355712
40
0.283813066384882
40
0.290860544443223
40
0.294384283472393
40
0.297908022501563
40
0.301431761530733
40
0.304955500559903
40
0.308479239589073
40
0.312002978618244
40
0.319050456676584
40
0.326097934734924
40
0.329621673764095
40
0.333145412793265
40
0.336669151822435
40
0.340192890851605
40
0.343716629880775
40
0.347240368909945
40
0.354287846968286
40
0.361335325026626
40
0.368382803084967
40
0.371906542114136
40
0.375430281143307
40
0.378954020172477
40
0.382477759201647
40
0.386001498230817
40
0.389525237259987
40
0.393048976289158
40
0.396572715318328
40
0.400096454347498
40
0.403620193376668
40
0.407143932405838
40
0.410667671435008
40
0.414191410464179
40
0.417715149493349
40
0.421238888522519
40
0.424762627551689
40
0.428286366580859
40
0.430048236095445
40
0.43181010561003
40
0.433571975124615
40
0.4353338446392
40
0.43885758366837
40
0.44238132269754
40
0.444143192212125
40
0.44590506172671
40
0.447666931241295
40
0.44942880075588
40
0.451190670270466
40
0.452952539785051
40
0.456476278814221
40
0.458238148328806
40
0.460000017843391
40
0.461761887357976
40
0.463523756872561
40
0.465285626387146
40
0.467047495901731
40
0.468809365416317
40
0.470571234930902
40
0.472333104445487
40
0.474094973960072
40
0.475856843474657
40
0.477618712989242
40
0.479380582503827
40
0.481142452018412
40
0.482904321532997
40
0.484666191047582
40
0.486428060562167
40
0.488189930076752
40
0.489951799591338
40
0.491713669105923
40
0.493475538620508
40
0.495237408135093
40
0.496999277649678
40
0.498761147164263
40
0.500523016678848
40
0.502284886193433
40
0.504046755708018
40
0.505808625222603
40
0.507570494737189
40
0.509332364251774
40
0.511094233766359
40
0.512856103280944
40
0.514617972795529
40
0.516379842310114
40
0.518141711824699
40
0.519903581339284
40
0.521665450853869
40
0.523427320368454
40
0.525189189883039
40
0.526951059397624
40
0.52871292891221
40
0.530474798426795
40
0.53223666794138
40
0.533998537455965
40
0.53576040697055
40
0.537522276485135
40
0.53928414599972
40
0.541046015514305
40
0.544569754543475
40
0.54633162405806
40
0.548093493572646
40
0.551617232601816
40
0.555140971630986
40
0.556902841145571
40
0.558664710660156
40
0.560426580174741
40
0.562188449689326
40
0.565712188718496
40
0.569235927747666
40
0.572759666776837
40
0.576283405806007
40
0.579807144835177
40
0.583330883864347
40
0.586854622893517
40
0.590378361922688
40
0.593902100951858
40
0.597425839981028
40
0.600949579010198
40
0.604473318039368
40
0.607997057068538
40
0.611520796097709
40
0.615044535126879
40
0.618568274156049
40
0.622092013185219
40
0.62913949124356
40
0.6361869693019
40
0.64323444736024
40
0.64675818638941
40
0.650281925418581
40
0.653805664447751
40
0.657329403476921
40
0.660853142506091
40
0.664376881535261
40
0.671424359593602
40
0.678471837651942
40
0.681995576681112
40
0.685519315710282
40
0.689043054739452
40
0.692566793768623
40
0.696090532797793
40
0.699614271826963
40
0.706661749885304
40
0.710185488914474
40
0.713709227943644
40
0.720756706001984
40
0.727804184060324
40
0.731327923089495
40
0.734851662118665
40
0.741899140177005
40
0.745422879206175
40
0.748946618235346
40
0.752470357264516
40
0.755994096293686
40
0.763041574352026
40
0.766565313381196
40
0.770089052410367
40
0.773612791439537
40
0.777136530468707
40
0.784184008527047
40
0.787707747556218
40
0.791231486585388
40
0.794755225614558
40
0.798278964643728
40
0.805326442702068
40
0.808850181731239
40
0.812373920760409
40
0.815897659789579
40
0.819421398818749
40
0.82646887687709
40
0.82999261590626
40
0.83351635493543
40
0.835278224450015
40
0.8370400939646
40
0.84056383299377
40
0.847611311052111
40
0.851135050081281
40
0.854658789110451
40
0.858182528139621
40
0.861706267168791
40
0.868753745227132
40
0.872277484256302
40
0.875801223285472
40
0.879324962314642
40
0.882848701343812
40
0.886372440372983
40
0.889896179402153
40
0.893419918431323
40
0.896943657460493
40
0.903991135518833
40
0.907514874548004
40
0.911038613577174
40
0.918086091635514
40
0.921609830664684
40
0.925133569693855
40
0.932181047752195
40
0.935704786781365
40
0.939228525810535
40
0.942752264839705
40
0.946276003868876
40
0.953323481927216
40
0.956847220956386
40
0.960370959985556
40
0.963894699014727
40
0.967418438043897
40
0.970942177073067
40
0.974465916102237
40
0.977989655131407
40
0.981513394160577
40
0.985037133189748
40
0.988560872218918
40
0.992084611248088
40
0.995608350277258
40
0.999132089306428
40
1
40
1
40
1
40
1
41
1
10
-28.5
20
-16.8570111549637
30
0
41
1
10
-28.5
20
-16.8563913675353
30
0
41
1
10
-28.5
20
-16.854283998665
30
0
41
1
10
-28.5
20
-16.8492032887544
30
0
41
1
10
-28.5
20
-16.8407921788659
30
0
41
1
10
-28.5
20
-16.8300011209595
30
0
41
1
10
-28.5
20
-16.8168672741156
30
0
41
1
10
-28.5
20
-16.8014255225769
30
0
41
1
10
-28.5
20
-16.783709883521
30
0
41
1
10
-28.5
20
-16.7637529731542
30
0
41
1
10
-28.5
20
-16.7415855338906
30
0
41
1
10
-28.5
20
-16.7172383450784
30
0
41
1
10
-28.5
20
-16.6818353810987
30
0
41
1
10
-28.5
20
-16.642411510514
30
0
41
1
10
-28.5
20
-16.5986105790194
30
0
41
1
10
-28.5
20
-16.5637763020887
30
0
41
1
10
-28.5
20
-16.5269199075572
30
0
41
1
10
-28.5
20
-16.4750169305147
30
0
41
1
10
-28.5
20
-16.4194622625482
30
0
41
1
10
-28.5
20
-16.3597331913305
30
0
41
1
10
-28.5
20
-16.2974462059125
30
0
41
1
10
-28.5
20
-16.2317181614777
30
0
41
1
10
-28.5
20
-16.1619255301562
30
0
41
1
10
-28.5
20
-16.0896767577218
30
0
41
1
10
-28.5
20
-16.0141701499498
30
0
41
1
10
-28.5
20
-15.9346970720351
30
0
41
1
10
-28.5
20
-15.8734193498834
30
0
41
1
10
-28.5
20
-15.8103844132608
30
0
41
1
10
-28.5
20
-15.745608166167
30
0
41
1
10
-28.5
20
-15.6791035033831
30
0
41
1
10
-28.5
20
-15.6108850520675
30
0
41
1
10
-28.5
20
-15.5409672008416
30
0
41
1
10
-28.5
20
-15.4453363897878
30
0
41
1
10
-28.5
20
-15.3468344295442
30
0
41
1
10
-28.5
20
-15.2445501023872
30
0
41
1
10
-28.5
20
-15.1663215412447
30
0
41
1
10
-28.5
20
-15.0864673138636
30
0
41
1
10
-28.5
20
-14.9776668598204
30
0
41
1
10
-28.5
20
-14.8661866472663
30
0
41
1
10
-28.5
20
-14.7510047173632
30
0
41
1
10
-28.5
20
-14.6631805593238
30
0
41
1
10
-28.5
20
-14.5737935545692
30
0
41
1
10
-28.5
20
-14.4523474056541
30
0
41
1
10
-28.5
20
-14.3283920102608
30
0
41
1
10
-28.5
20
-14.2007962111626
30
0
41
1
10
-28.5
20
-14.1037299196573
30
0
41
1
10
-28.5
20
-14.0051547121626
30
0
41
1
10
-28.5
20
-13.8715103774192
30
0
41
1
10
-28.5
20
-13.7355116027341
30
0
41
1
10
-28.5
20
-13.5959164295663
30
0
41
1
10
-28.5
20
-13.4899116400767
30
0
41
1
10
-28.5
20
-13.3824445287113
30
0
41
1
10
-28.5
20
-13.2369867267196
30
0
41
1
10
-28.5
20
-13.0893180063072
30
0
41
1
10
-28.5
20
-12.9380809359595
30
0
41
1
10
-28.5
20
-12.8234002792818
30
0
41
1
10
-28.5
20
-12.7072977235968
30
0
41
1
10
-28.5
20
-12.550359403554
30
0
41
1
10
-28.5
20
-12.3913462445321
30
0
41
1
10
-28.5
20
-12.2287775158425
30
0
41
1
10
-28.5
20
-12.1056498288981
30
0
41
1
10
-28.5
20
-11.9811355431936
30
0
41
1
10
-28.5
20
-11.8130068133241
30
0
41
1
10
-28.5
20
-11.642935768078
30
0
41
1
10
-28.5
20
-11.4693068645233
30
0
41
1
10
-28.5
20
-11.2938625434425
30
0
41
1
10
-28.5
20
-11.0718089327865
30
0
41
1
10
-28.5
20
-10.8452681360072
30
0
41
1
10
-28.5
20
-10.6608198079832
30
0
41
1
10
-28.5
20
-10.4745957683654
30
0
41
1
10
-28.5
20
-10.2866518533399
30
0
41
1
10
-28.5
20
-10.0951135357909
30
0
41
1
10
-28.5
20
-9.9503895477591
30
0
41
1
10
-28.5
20
-9.8043545776041
30
0
41
1
10
-28.5
20
-9.65701503611822
30
0
41
1
10
-28.5
20
-9.50837340526911
30
0
41
1
10
-28.5
20
-9.30810992365676
30
0
41
1
10
-28.5
20
-9.05534970701541
30
0
41
1
10
-28.5
20
-8.79830464348922
30
0
41
1
10
-28.5
20
-8.58944232029054
30
0
41
1
10
-28.5
20
-8.43181572672981
30
0
41
1
10
-28.5
20
-8.27292311790592
30
0
41
1
10
-28.5
20
-8.11277014047184
30
0
41
1
10
-28.5
20
-7.9513617118449
30
0
41
1
10
-28.5
20
-7.73407184255308
30
0
41
1
10
-28.5
20
-7.46030866767529
30
0
41
1
10
-28.5
20
-7.12632140637373
30
0
41
1
10
-28.5
20
-6.84437402550569
30
0
41
1
10
-28.5
20
-6.61554359890371
30
0
41
1
10
-28.5
20
-6.44309029411605
30
0
41
1
10
-28.5
20
-6.26944364545889
30
0
41
1
10
-28.5
20
-6.09461246091772
30
0
41
1
10
-28.5
20
-5.91860523667609
30
0
41
1
10
-28.5
20
-5.74143189937953
30
0
41
1
10
-28.5
20
-5.56310357372001
30
0
41
1
10
-28.5
20
-5.38363134733163
30
0
41
1
10
-28.5
20
-5.20302692387261
30
0
41
1
10
-28.5
20
-5.0213042232472
30
0
41
1
10
-28.5
20
-4.83847919931264
30
0
41
1
10
-28.5
20
-4.65456716028004
30
0
41
1
10
-28.5
20
-4.46958486845949
30
0
41
1
10
-28.5
20
-4.28355302808069
30
0
41
1
10
-28.5
20
-4.09649275318182
30
0
41
1
10
-28.5
20
-3.90842813226232
30
0
41
1
10
-28.5
20
-3.75124940963562
30
0
41
1
10
-28.5
20
-3.6243549796439
30
0
41
1
10
-28.5
20
-3.5292431593418
30
0
41
1
10
-28.5
20
-3.43390158445521
30
0
41
1
10
-28.5
20
-3.30608717079298
30
0
41
1
10
-28.5
20
-3.14669072023423
30
0
41
1
10
-28.5
20
-2.9865693987912
30
0
41
1
10
-28.5
20
-2.85729421649611
30
0
41
1
10
-28.5
20
-2.76048089001324
30
0
41
1
10
-28.5
20
-2.66347976206254
30
0
41
1
10
-28.5
20
-2.56629526768592
30
0
41
1
10
-28.5
20
-2.46893611478751
30
0
41
1
10
-28.5
20
-2.33842740009587
30
0
41
1
10
-28.5
20
-2.20905952740142
30
0
41
1
10
-28.5
20
-2.07788039572898
30
0
41
1
10
-28.5
20
-1.97974994874616
30
0
41
1
10
-28.5
20
-1.88148715614122
30
0
41
1
10
-28.5
20
-1.78310090101277
30
0
41
1
10
-28.5
20
-1.68460072925305
30
0
41
1
10
-28.5
20
-1.58599184128096
30
0
41
1
10
-28.5
20
-1.48728649469356
30
0
41
1
10
-28.5
20
-1.38848914320587
30
0
41
1
10
-28.5
20
-1.28961139997082
30
0
41
1
10
-28.5
20
-1.19065859360987
30
0
41
1
10
-28.5
20
-1.09164071478048
30
0
41
1
10
-28.5
20
-0.992564090788449
30
0
41
1
10
-28.5
20
-0.893436923932512
30
0
41
1
10
-28.5
20
-0.794265471937138
30
0
41
1
10
-28.5
20
-0.695056741362833
30
0
41
1
10
-28.5
20
-0.595816468507252
30
0
41
1
10
-28.5
20
-0.49655061320999
30
0
41
1
10
-28.5
20
-0.397263853181812
30
0
41
1
10
-28.5
20
-0.297961366795107
30
0
41
1
10
-28.5
20
-0.198647102840709
30
0
41
1
10
-28.5
20
-0.0993254669347436
30
0
41
1
10
-28.5
20
-5.4725149E-09
30
0
41
1
10
-28.5
20
0.0993254684405827
30
0
41
1
10
-28.5
20
0.198647127601248
30
0
41
1
10
-28.5
20
0.297961388791691
30
0
41
1
10
-28.5
20
0.397263840424017
30
0
41
1
10
-28.5
20
0.496550594205559
30
0
41
1
10
-28.5
20
0.595816495504096
30
0
41
1
10
-28.5
20
0.695056784277028
30
0
41
1
10
-28.5
20
0.794265459276176
30
0
41
1
10
-28.5
20
0.89343688343348
30
0
41
1
10
-28.5
20
0.992564112169902
30
0
41
1
10
-28.5
20
1.09164077920423
30
0
41
1
10
-28.5
20
1.19065859620264
30
0
41
1
10
-28.5
20
1.28961134189754
30
0
41
1
10
-28.5
20
1.38848913588993
30
0
41
1
10
-28.5
20
1.48728656512978
30
0
41
1
10
-28.5
20
1.58599188781932
30
0
41
1
10
-28.5
20
1.6846006870125
30
0
41
1
10
-28.5
20
1.78310084050699
30
0
41
1
10
-28.5
20
1.88148718140701
30
0
41
1
10
-28.5
20
1.9797500364362
30
0
41
1
10
-28.5
20
2.0778804265363
30
0
41
1
10
-28.5
20
2.17587292609085
30
0
41
1
10
-28.5
20
2.27371679621319
30
0
41
1
10
-28.5
20
2.37140757120355
30
0
41
1
10
-28.5
20
2.46893613943033
30
0
41
1
10
-28.5
20
2.59923374131699
30
0
41
1
10
-28.5
20
2.72777279716706
30
0
41
1
10
-28.5
20
2.8572942882393
30
0
41
1
10
-28.5
20
2.98656948332388
30
0
41
1
10
-28.5
20
3.14669074057869
30
0
41
1
10
-28.5
20
3.30608709676801
30
0
41
1
10
-28.5
20
3.43390157548936
30
0
41
1
10
-28.5
20
3.52924322184191
30
0
41
1
10
-28.5
20
3.62435506854831
30
0
41
1
10
-28.5
20
3.75124942106058
30
0
41
1
10
-28.5
20
3.90842799420628
30
0
41
1
10
-28.5
20
4.09649259176146
30
0
41
1
10
-28.5
20
4.28355297730505
30
0
41
1
10
-28.5
20
4.4695846174555
30
0
41
1
10
-28.5
20
4.65456683421039
30
0
41
1
10
-28.5
20
4.83847943804494
30
0
41
1
10
-28.5
20
5.0213044851898
30
0
41
1
10
-28.5
20
5.2030267003301
30
0
41
1
10
-28.5
20
5.38363156234237
30
0
41
1
10
-28.5
20
5.56310445504442
30
0
41
1
10
-28.5
20
5.74143237747984
30
0
41
1
10
-28.5
20
5.91860495448572
30
0
41
1
10
-28.5
20
6.09461208825527
30
0
41
1
10
-28.5
20
6.26944357118299
30
0
41
1
10
-28.5
20
6.4430903265563
30
0
41
1
10
-28.5
20
6.61554357091572
30
0
41
1
10
-28.5
20
6.84437400802861
30
0
41
1
10
-28.5
20
7.12632144512301
30
0
41
1
10
-28.5
20
7.46030865505762
30
0
41
1
10
-28.5
20
7.73407184285281
30
0
41
1
10
-28.5
20
7.95136176299604
30
0
41
1
10
-28.5
20
8.11277014937085
30
0
41
1
10
-28.5
20
8.27292308432649
30
0
41
1
10
-28.5
20
8.43181570788789
30
0
41
1
10
-28.5
20
8.5894423488798
30
0
41
1
10
-28.5
20
8.79830467826932
30
0
41
1
10
-28.5
20
9.05534969583792
30
0
41
1
10
-28.5
20
9.30810991622687
30
0
41
1
10
-28.5
20
9.50837344479851
30
0
41
1
10
-28.5
20
9.65701506287493
30
0
41
1
10
-28.5
20
9.80435457188474
30
0
41
1
10
-28.5
20
9.95038952754788
30
0
41
1
10
-28.5
20
10.095113531911
30
0
41
1
10
-28.5
20
10.2866518813937
30
0
41
1
10
-28.5
20
10.4745957936973
30
0
41
1
10
-28.5
20
10.6608197986608
30
0
41
1
10
-28.5
20
10.8452681286137
30
0
41
1
10
-28.5
20
11.0718089525805
30
0
41
1
10
-28.5
20
11.2938625632929
30
0
41
1
10
-28.5
20
11.4693068596265
30
0
41
1
10
-28.5
20
11.6429357656381
30
0
41
1
10
-28.5
20
11.8130068303033
30
0
41
1
10
-28.5
20
11.9811355648908
30
0
41
1
10
-28.5
20
12.1056498404809
30
0
41
1
10
-28.5
20
12.2287775174238
30
0
41
1
10
-28.5
20
12.3913462461042
30
0
41
1
10
-28.5
20
12.5503594172971
30
0
41
1
10
-28.5
20
12.7072977423403
30
0
41
1
10
-28.5
20
12.8234002933141
30
0
41
1
10
-28.5
20
12.9380809438717
30
0
41
1
10
-28.5
20
13.0893180117675
30
0
41
1
10
-28.5
20
13.2369867372074
30
0
41
1
10
-28.5
20
13.3824445445542
30
0
41
1
10
-28.5
20
13.4899116562855
30
0
41
1
10
-28.5
20
13.5959164434403
30
0
41
1
10
-28.5
20
13.7355116125921
30
0
41
1
10
-28.5
20
13.8715103854275
30
0
41
1
10
-28.5
20
14.0051547249398
30
0
41
1
10
-28.5
20
14.1037299370701
30
0
41
1
10
-28.5
20
14.2007962250068
30
0
41
1
10
-28.5
20
14.328392039309
30
0
41
1
10
-28.5
20
14.452347405446
30
0
41
1
10
-28.5
20
14.5737935062701
30
0
41
1
10
-28.5
20
14.6481896525931
30
0
41
1
10
-28.5
20
14.7070919001429
30
0
41
1
10
-28.5
20
14.7654709460418
30
0
41
1
10
-28.5
20
14.8661866667289
30
0
41
1
10
-28.5
20
14.9776668655465
30
0
41
1
10
-28.5
20
15.086467321316
30
0
41
1
10
-28.5
20
15.1663215599361
30
0
41
1
10
-28.5
20
15.2445501295776
30
0
41
1
10
-28.5
20
15.3468344527491
30
0
41
1
10
-28.5
20
15.4453363938053
30
0
41
1
10
-28.5
20
15.5409672073329
30
0
41
1
10
-28.5
20
15.6108850733398
30
0
41
1
10
-28.5
20
15.679103534252
30
0
41
1
10
-28.5
20
15.7456081924762
30
0
41
1
10
-28.5
20
15.810384423087
30
0
41
1
10
-28.5
20
15.8734193510279
30
0
41
1
10
-28.5
20
15.9346970807191
30
0
41
1
10
-28.5
20
16.0141701800502
30
0
41
1
10
-28.5
20
16.0896767899468
30
0
41
1
10
-28.5
20
16.1619255341458
30
0
41
1
10
-28.5
20
16.2317181619347
30
0
41
1
10
-28.5
20
16.2974462376793
30
0
41
1
10
-28.5
20
16.3597332242326
30
0
41
1
10
-28.5
20
16.4194622696319
30
0
41
1
10
-28.5
20
16.4750169286961
30
0
41
1
10
-28.5
20
16.5269199399481
30
0
41
1
10
-28.5
20
16.5637763395248
30
0
41
1
10
-28.5
20
16.5986105943247
30
0
41
1
10
-28.5
20
16.642411504334
30
0
41
1
10
-28.5
20
16.6818354096897
30
0
41
1
10
-28.5
20
16.7172383773105
30
0
41
1
10
-28.5
20
16.741585550229
30
0
41
1
10
-28.5
20
16.7637529737167
30
0
41
1
10
-28.5
20
16.7837098927271
30
0
41
1
10
-28.5
20
16.8014255596809
30
0
41
1
10
-28.5
20
16.816867307208
30
0
41
1
10
-28.5
20
16.8300011251081
30
0
41
1
10
-28.5
20
16.8407921763224
30
0
41
1
10
-28.5
20
16.8492033090471
30
0
41
1
10
-28.5
20
16.8551966659016
30
0
41
1
10
-28.5
20
16.8587319423621
30
0
41
1
10
-28.5
20
16.8597680746869
30
0
41
1
10
-28.5
20
16.8586398948787
30
0
41
1
10
-28.5
20
16.8573438872957
30
0
41
1
10
-28.5
20
16.8570614721996
30
0
0
SPLINE
5
161
100
AcDbEntity
8
SK1
62
256
6
ByLayer
370
18
48
1
60
0
100
AcDbSpline
70
4
71
3
72
106
73
102
40
0
40
0
40
0
40
0
40
0.0075864941389207
40
0.01611843186883
40
0.0246503695987393
40
0.0331823073286486
40
0.0417142450585579
40
0.0502461827884671
40
0.0587781205183764
40
0.0673100582482857
40
0.075841995978195
40
0.0843739337081043
40
0.0929058714380136
40
0.101437809167923
40
0.109969746897832
40
0.118501684627741
40
0.13556556008756
40
0.144097497817469
40
0.152629435547379
40
0.161161373277288
40
0.169693311007197
40
0.186757186467016
40
0.195289124196925
40
0.203821061926834
40
0.220884937386653
40
0.229416875116562
40
0.237948812846471
40
0.25501268830629
40
0.263544626036199
40
0.272076563766108
40
0.280608501496018
40
0.289140439225927
40
0.297672376955836
40
0.306204314685746
40
0.314736252415655
40
0.323268190145564
40
0.340332065605383
40
0.348864003335292
40
0.357395941065201
40
0.365927878795111
40
0.37445981652502
40
0.391523691984838
40
0.400055629714748
40
0.408587567444657
40
0.417119505174566
40
0.425651442904475
40
0.442715318364294
40
0.451247256094204
40
0.459779193824113
40
0.468311131554022
40
0.476843069283931
40
0.49390694474375
40
0.502438882473659
40
0.510970820203568
40
0.519502757933478
40
0.528034695663387
40
0.545098571123205
40
0.553630508853115
40
0.562162446583024
40
0.570694384312933
40
0.579226322042843
40
0.596290197502661
40
0.60482213523257
40
0.61335407296248
40
0.621886010692389
40
0.630417948422298
40
0.647481823882117
40
0.656013761612026
40
0.664545699341935
40
0.681609574801754
40
0.698673450261573
40
0.707205387991482
40
0.715737325721391
40
0.73280120118121
40
0.741333138911119
40
0.749865076641028
40
0.758397014370938
40
0.766928952100847
40
0.775460889830756
40
0.783992827560665
40
0.801056703020484
40
0.818120578480303
40
0.826652516210212
40
0.835184453940121
40
0.84371639167003
40
0.85224832939994
40
0.860780267129849
40
0.869312204859758
40
0.886376080319577
40
0.903439955779395
40
0.920503831239214
40
0.929035768969123
40
0.937567706699033
40
0.946099644428942
40
0.954631582158851
40
0.96316351988876
40
0.97169545761867
40
0.980227395348579
40
0.988759333078488
40
0.997291270808398
40
1
40
1
40
1
40
1
41
1
10
-0.394976888875277
20
-17.3601838879239
30
0
41
1
10
-0.394976888875306
20
-17.3617494125068
30
0
41
1
10
-0.394976888875277
20
-17.3643151423825
30
0
41
1
10
-0.394976888875277
20
-17.3658104187982
30
0
41
1
10
-0.394976888875277
20
-17.364743357607
30
0
41
1
10
-0.394976888875277
20
-17.3611046370287
30
0
41
1
10
-0.394976888875277
20
-17.3549392673806
30
0
41
1
10
-0.394976888875277
20
-17.3462909837355
30
0
41
1
10
-0.394976888875277
20
-17.3352007293143
30
0
41
1
10
-0.394976888875277
20
-17.3217086001335
30
0
41
1
10
-0.394976888875277
20
-17.3058521283006
30
0
41
1
10
-0.394976888875277
20
-17.2876678324761
30
0
41
1
10
-0.394976888875277
20
-17.267190526317
30
0
41
1
10
-0.394976888875277
20
-17.2444530966284
30
0
41
1
10
-0.394976888875277
20
-17.2194882282903
30
0
41
1
10
-0.394976888875277
20
-17.1832568130363
30
0
41
1
10
-0.394976888875277
20
-17.1427382851614
30
0
41
1
10
-0.394976888875277
20
-17.0979462613767
30
0
41
1
10
-0.394976888875277
20
-17.0622798138473
30
0
41
1
10
-0.394976888875277
20
-17.0245523789023
30
0
41
1
10
-0.394976888875277
20
-16.9715145338597
30
0
41
1
10
-0.394976888875277
20
-16.9145140859045
30
0
41
1
10
-0.394976888875277
20
-16.8535135157982
30
0
41
1
10
-0.394976888875277
20
-16.7899145739052
30
0
41
1
10
-0.394976888875277
20
-16.7225357594453
30
0
41
1
10
-0.394976888875277
20
-16.6513062647865
30
0
41
1
10
-0.394976888875277
20
-16.577583428992
30
0
41
1
10
-0.394976888875277
20
-16.5002370605308
30
0
41
1
10
-0.394976888875277
20
-16.4191737242595
30
0
41
1
10
-0.394976888875277
20
-16.3565947837564
30
0
41
1
10
-0.394976888875277
20
-16.2922298184193
30
0
41
1
10
-0.394976888875277
20
-16.2260943534788
30
0
41
1
10
-0.394976888875277
20
-16.1582019227301
30
0
41
1
10
-0.394976888875277
20
-16.0885677968918
30
0
41
1
10
-0.394976888875277
20
-16.0172057910894
30
0
41
1
10
-0.394976888875277
20
-15.9197362080175
30
0
41
1
10
-0.394976888875277
20
-15.8189643575456
30
0
41
1
10
-0.394976888875277
20
-15.7147364711228
30
0
41
1
10
-0.394976888875277
20
-15.6349267495635
30
0
41
1
10
-0.394976888875277
20
-15.553463729323
30
0
41
1
10
-0.394976888875277
20
-15.4426195996911
30
0
41
1
10
-0.394976888875277
20
-15.3286250260664
30
0
41
1
10
-0.394976888875277
20
-15.2112966721243
30
0
41
1
10
-0.394976888875277
20
-15.1217290697223
30
0
41
1
10
-0.394976888875277
20
-15.0305709686995
30
0
41
1
10
-0.394976888875277
20
-14.906878048735
30
0
41
1
10
-0.394976888875277
20
-14.7801642402503
30
0
41
1
10
-0.394976888875277
20
-14.6502180265082
30
0
41
1
10
-0.394976888875277
20
-14.5512443698349
30
0
41
1
10
-0.394976888875277
20
-14.4507333574048
30
0
41
1
10
-0.394976888875277
20
-14.3146351144528
30
0
41
1
10
-0.394976888875277
20
-14.1756274353422
30
0
41
1
10
-0.394976888875277
20
-14.0334711437704
30
0
41
1
10
-0.394976888875277
20
-13.9253889575191
30
0
41
1
10
-0.394976888875277
20
-13.8158144643309
30
0
41
1
10
-0.394976888875277
20
-13.6676860465324
30
0
41
1
10
-0.394976888875277
20
-13.5167448397425
30
0
41
1
10
-0.394976888875277
20
-13.3627236430939
30
0
41
1
10
-0.394976888875277
20
-13.2457848907918
30
0
41
1
10
-0.394976888875277
20
-13.127391952352
30
0
41
1
10
-0.394976888875277
20
-12.9675509274721
30
0
41
1
10
-0.394976888875277
20
-12.8049814419576
30
0
41
1
10
-0.394976888875277
20
-12.6393872212047
30
0
41
1
10
-0.394976888875277
20
-12.5138050377602
30
0
41
1
10
-0.394976888875277
20
-12.3868007822861
30
0
41
1
10
-0.394976888875277
20
-12.2155153079022
30
0
41
1
10
-0.394976888875277
20
-12.0415756036957
30
0
41
1
10
-0.394976888875277
20
-11.8646543426879
30
0
41
1
10
-0.394976888875277
20
-11.6858676336886
30
0
41
1
10
-0.394976888875277
20
-11.4590305058839
30
0
41
1
10
-0.394976888875277
20
-11.2275701322441
30
0
41
1
10
-0.394976888875277
20
-11.0395280715927
30
0
41
1
10
-0.394976888875277
20
-10.8496518299165
30
0
41
1
10
-0.394976888875277
20
-10.6572262982852
30
0
41
1
10
-0.394976888875277
20
-10.4618684218406
30
0
41
1
10
-0.394976888875277
20
-10.3140380853821
30
0
41
1
10
-0.394976888875277
20
-10.1648479968029
30
0
41
1
10
-0.394976888875277
20
-10.0143015620689
30
0
41
1
10
-0.394976888875277
20
-9.86240079247779
30
0
41
1
10
-0.394976888875277
20
-9.65799297250354
30
0
41
1
10
-0.394976888875277
20
-9.3992804435735
30
0
41
1
10
-0.394976888875277
20
-9.13609084815204
30
0
41
1
10
-0.394976888875277
20
-8.92272120904667
30
0
41
1
10
-0.394976888875277
20
-8.76141979935898
30
0
41
1
10
-0.394976888875277
20
-8.59878513251641
30
0
41
1
10
-0.394976888875277
20
-8.43482033812748
30
0
41
1
10
-0.394976888875277
20
-8.26952734508268
30
0
41
1
10
-0.394976888875277
20
-8.04728288893983
30
0
41
1
10
-0.394976888875277
20
-7.76637137475095
30
0
41
1
10
-0.394976888875277
20
-7.42389184310318
30
0
41
1
10
-0.394976888875277
20
-7.13420904829047
30
0
41
1
10
-0.394976888875277
20
-6.89966739484251
30
0
41
1
10
-0.394976888875277
20
-6.7225342898117
30
0
41
1
10
-0.394976888875277
20
-6.54409938064705
30
0
41
1
10
-0.394976888875277
20
-6.36436626337326
30
0
41
1
10
-0.394976888875277
20
-6.18333822517317
30
0
41
1
10
-0.394976888875277
20
-6.0010194773844
30
0
41
1
10
-0.394976888875277
20
-5.81741425905383
30
0
41
1
10
-0.394976888875277
20
-5.63252720020009
30
0
41
1
10
-0.394976888875277
20
-5.48871675629277
30
0
41
1
10
-0.394976888875277
20
-5.40659331253005
30
0
41
1
10
-0.394976888875277
20
-5.38678223324203
30
0
0
SPLINE
5
162
100
AcDbEntity
8
SK1
62
256
6
ByLayer
370
18
48
1
60
0
100
AcDbSpline
70
4
71
3
72
107
73
103
40
0
40
0
40
0
40
0
40
0.0027087431771709
40
0.0112406780924173
40
0.0197726130076636
40
0.0283045479229099
40
0.0368364828381563
40
0.0453684177534026
40
0.053900352668649
40
0.0624322875838953
40
0.0709642224991417
40
0.079496157414388
40
0.0965600272448807
40
0.113623897075373
40
0.130687766905866
40
0.139219701821112
40
0.147751636736359
40
0.156283571651605
40
0.164815506566852
40
0.173347441482098
40
0.181879376397344
40
0.198943246227837
40
0.21600711605833
40
0.224539050973576
40
0.233070985888822
40
0.241602920804069
40
0.250134855719315
40
0.258666790634561
40
0.267198725549808
40
0.2842625953803
40
0.292794530295547
40
0.301326465210793
40
0.318390335041286
40
0.335454204871778
40
0.343986139787025
40
0.352518074702271
40
0.369581944532764
40
0.37811387944801
40
0.386645814363257
40
0.395177749278503
40
0.403709684193749
40
0.420773554024242
40
0.429305488939488
40
0.437837423854735
40
0.446369358769981
40
0.454901293685227
40
0.47196516351572
40
0.480497098430966
40
0.489029033346213
40
0.497560968261459
40
0.506092903176705
40
0.523156773007198
40
0.531688707922444
40
0.540220642837691
40
0.548752577752937
40
0.557284512668183
40
0.574348382498676
40
0.582880317413922
40
0.591412252329169
40
0.595678219786792
40
0.599944187244415
40
0.608476122159661
40
0.625539991990154
40
0.6340719269054
40
0.642603861820647
40
0.651135796735893
40
0.659667731651139
40
0.676731601481632
40
0.685263536396879
40
0.693795471312125
40
0.702327406227371
40
0.710859341142618
40
0.719391276057864
40
0.72792321097311
40
0.736455145888357
40
0.744987080803603
40
0.762050950634096
40
0.770582885549342
40
0.779114820464588
40
0.796178690295081
40
0.804710625210327
40
0.813242560125574
40
0.830306429956066
40
0.838838364871313
40
0.847370299786559
40
0.855902234701805
40
0.864434169617052
40
0.881498039447544
40
0.890029974362791
40
0.898561909278037
40
0.907093844193283
40
0.91562577910853
40
0.924157714023776
40
0.932689648939023
40
0.941221583854269
40
0.949753518769515
40
0.958285453684762
40
0.966817388600008
40
0.975349323515254
40
0.983881258430501
40
0.992413193345747
40
1
40
1
40
1
40
1
41
1
10
-0.394976888875277
20
5.38678189578289
30
0
41
1
10
-0.394976888875277
20
5.4065930765673
30
0
41
1
10
-0.394976888875277
20
5.48871660168982
30
0
41
1
10
-0.394976888875277
20
5.63252719489225
30
0
41
1
10
-0.394976888875277
20
5.8174145162354
30
0
41
1
10
-0.394976888875277
20
6.00101977124669
30
0
41
1
10
-0.394976888875277
20
6.18333830919048
30
0
41
1
10
-0.394976888875277
20
6.3643662218949
30
0
41
1
10
-0.394976888875277
20
6.54409937286439
30
0
41
1
10
-0.394976888875277
20
6.72253430941348
30
0
41
1
10
-0.394976888875277
20
6.89966740060396
30
0
41
1
10
-0.394976888875277
20
7.13420903787926
30
0
41
1
10
-0.394976888875277
20
7.42389186204957
30
0
41
1
10
-0.394976888875277
20
7.76637138106329
30
0
41
1
10
-0.394976888875277
20
8.04728288344245
30
0
41
1
10
-0.394976888875277
20
8.26952736598562
30
0
41
1
10
-0.394976888875277
20
8.434820354761
30
0
41
1
10
-0.394976888875277
20
8.59878513137221
30
0
41
1
10
-0.394976888875277
20
8.76141979186249
30
0
41
1
10
-0.394976888875277
20
8.922721214403
30
0
41
1
10
-0.394976888875277
20
9.1360908691222
30
0
41
1
10
-0.394976888875277
20
9.39928045092248
30
0
41
1
10
-0.394976888875277
20
9.65799296546987
30
0
41
1
10
-0.394976888875277
20
9.86240080704218
30
0
41
1
10
-0.394976888875277
20
10.0143015815252
30
0
41
1
10
-0.394976888875277
20
10.1648480067744
30
0
41
1
10
-0.394976888875277
20
10.3140380843155
30
0
41
1
10
-0.394976888875277
20
10.4618684189216
30
0
41
1
10
-0.394976888875277
20
10.6572263081632
30
0
41
1
10
-0.394976888875277
20
10.8496518506122
30
0
41
1
10
-0.394976888875277
20
11.0395280782787
30
0
41
1
10
-0.394976888875277
20
11.2275701299333
30
0
41
1
10
-0.394976888875277
20
11.4590305143918
30
0
41
1
10
-0.394976888875277
20
11.685867652055
30
0
41
1
10
-0.394976888875277
20
11.864654349678
30
0
41
1
10
-0.394976888875277
20
12.0415756040849
30
0
41
1
10
-0.394976888875277
20
12.2155153161813
30
0
41
1
10
-0.394976888875277
20
12.3868007979199
30
0
41
1
10
-0.394976888875277
20
12.5138050519686
30
0
41
1
10
-0.394976888875277
20
12.6393872302303
30
0
41
1
10
-0.394976888875277
20
12.8049814458532
30
0
41
1
10
-0.394976888875277
20
12.9675509360494
30
0
41
1
10
-0.394976888875277
20
13.1273919665529
30
0
41
1
10
-0.394976888875277
20
13.2457849051211
30
0
41
1
10
-0.394976888875277
20
13.3627236547323
30
0
41
1
10
-0.394976888875277
20
13.5167448476072
30
0
41
1
10
-0.394976888875277
20
13.6676860552913
30
0
41
1
10
-0.394976888875277
20
13.8158144768541
30
0
41
1
10
-0.394976888875277
20
13.9253889718329
30
0
41
1
10
-0.394976888875277
20
14.0334711580348
30
0
41
1
10
-0.394976888875277
20
14.1756274475866
30
0
41
1
10
-0.394976888875277
20
14.3146351237356
30
0
41
1
10
-0.394976888875277
20
14.4507333681675
30
0
41
1
10
-0.394976888875277
20
14.5512443837086
30
0
41
1
10
-0.394976888875277
20
14.6502180419884
30
0
41
1
10
-0.394976888875277
20
14.780164253239
30
0
41
1
10
-0.394976888875277
20
14.9068780878822
30
0
41
1
10
-0.394976888875277
20
15.0305708978545
30
0
41
1
10
-0.394976888875277
20
15.1065165223896
30
0
41
1
10
-0.394976888875277
20
15.1665127141503
30
0
41
1
10
-0.394976888875277
20
15.2259771214207
30
0
41
1
10
-0.394976888875277
20
15.3286250474485
30
0
41
1
10
-0.394976888875277
20
15.4426196109061
30
0
41
1
10
-0.394976888875277
20
15.5534637367265
30
0
41
1
10
-0.394976888875277
20
15.6349267624759
30
0
41
1
10
-0.394976888875277
20
15.7147364921469
30
0
41
1
10
-0.394976888875277
20
15.8189643831875
30
0
41
1
10
-0.394976888875277
20
15.9197362187748
30
0
41
1
10
-0.394976888875277
20
16.0172057969154
30
0
41
1
10
-0.394976888875277
20
16.0885678110446
30
0
41
1
10
-0.394976888875277
20
16.1582019472912
30
0
41
1
10
-0.394976888875277
20
16.2260943811825
30
0
41
1
10
-0.394976888875277
20
16.2922298358683
30
0
41
1
10
-0.394976888875277
20
16.3565947902754
30
0
41
1
10
-0.394976888875277
20
16.4191737297992
30
0
41
1
10
-0.394976888875277
20
16.5002370830775
30
0
41
1
10
-0.394976888875277
20
16.5775834628441
30
0
41
1
10
-0.394976888875277
20
16.6513062771915
30
0
41
1
10
-0.394976888875277
20
16.7225357579897
30
0
41
1
10
-0.394976888875277
20
16.7899145981056
30
0
41
1
10
-0.394976888875277
20
16.8535135500206
30
0
41
1
10
-0.394976888875277
20
16.9145141001581
30
0
41
1
10
-0.394976888875277
20
16.9715145305624
30
0
41
1
10
-0.394976888875277
20
17.024552403858
30
0
41
1
10
-0.394976888875277
20
17.0622798511847
30
0
41
1
10
-0.394976888875277
20
17.0979462837243
30
0
41
1
10
-0.394976888875277
20
17.1427382787905
30
0
41
1
10
-0.394976888875277
20
17.1832568369982
30
0
41
1
10
-0.394976888875277
20
17.2194882612007
30
0
41
1
10
-0.394976888875277
20
17.2444531170066
30
0
41
1
10
-0.394976888875277
20
17.2671905287463
30
0
41
1
10
-0.394976888875277
20
17.2876678382251
30
0
41
1
10
-0.394976888875277
20
17.3058521626298
30
0
41
1
10
-0.394976888875277
20
17.3217086355548
30
0
41
1
10
-0.394976888875277
20
17.3352007360526
30
0
41
1
10
-0.394976888875277
20
17.3462909802274
30
0
41
1
10
-0.394976888875277
20
17.3549392880652
30
0
41
1
10
-0.394976888875277
20
17.3611046305144
30
0
41
1
10
-0.394976888875277
20
17.3647432146661
30
0
41
1
10
-0.394976888875277
20
17.3658102005923
30
0
41
1
10
-0.394976888875306
20
17.3643150511094
30
0
41
1
10
-0.394976888875277
20
17.3617494021741
30
0
41
1
10
-0.394976888875277
20
17.3601838595737
30
0
0
SPLINE
5
163
100
AcDbEntity
8
SK1
62
256
6
ByLayer
370
18
48
1
60
0
100
AcDbSpline
70
4
71
3
72
288
73
284
40
0
40
0
40
0
40
0
40
0.0022851298783259
40
0.0057901704621288
40
0.0092952110459316
40
0.0128002516297345
40
0.0163052922135374
40
0.0198103327973402
40
0.0233153733811431
40
0.0268204139649459
40
0.0303254545487487
40
0.0338304951325516
40
0.0373355357163545
40
0.0408405763001573
40
0.0443456168839602
40
0.0513556980515659
40
0.0548607386353688
40
0.0583657792191716
40
0.0618708198029745
40
0.0653758603867773
40
0.072385941554383
40
0.0758909821381858
40
0.0793960227219888
40
0.0864061038895945
40
0.0899111444733973
40
0.0934161850572001
40
0.100426266224806
40
0.103931306808609
40
0.107436347392412
40
0.110941387976215
40
0.114446428560017
40
0.11795146914382
40
0.121456509727623
40
0.124961550311426
40
0.128466590895229
40
0.135476672062835
40
0.138981712646637
40
0.14248675323044
40
0.145991793814243
40
0.149496834398046
40
0.156506915565651
40
0.160011956149454
40
0.163516996733257
40
0.16702203731706
40
0.170527077900863
40
0.177537159068469
40
0.181042199652272
40
0.184547240236074
40
0.188052280819877
40
0.19155732140368
40
0.198567402571286
40
0.202072443155089
40
0.205577483738892
40
0.209082524322694
40
0.212587564906497
40
0.219597646074103
40
0.223102686657906
40
0.226607727241709
40
0.230112767825511
40
0.233617808409314
40
0.24062788957692
40
0.244132930160723
40
0.247637970744526
40
0.251143011328329
40
0.254648051912132
40
0.261658133079737
40
0.26516317366354
40
0.268668214247343
40
0.275678295414948
40
0.282688376582554
40
0.286193417166357
40
0.28969845775016
40
0.296708538917766
40
0.300213579501569
40
0.303718620085371
40
0.307223660669174
40
0.310728701252977
40
0.31423374183678
40
0.317738782420583
40
0.324748863588189
40
0.331758944755794
40
0.335263985339597
40
0.3387690259234
40
0.342274066507203
40
0.345779107091006
40
0.349284147674808
40
0.352789188258611
40
0.359799269426217
40
0.366809350593823
40
0.373819431761429
40
0.377324472345231
40
0.380829512929034
40
0.384334553512837
40
0.38783959409664
40
0.391344634680443
40
0.394849675264246
40
0.398354715848048
40
0.401859756431851
40
0.405364797015654
40
0.408869837599457
40
0.41237487818326
40
0.415879918767063
40
0.419384959350866
40
0.422889999934668
40
0.426395040518471
40
0.429900081102274
40
0.433405121686077
40
0.435157641977979
40
0.43691016226988
40
0.438662682561781
40
0.440415202853683
40
0.443920243437486
40
0.447425284021288
40
0.44917780431319
40
0.450930324605091
40
0.452682844896993
40
0.454435365188894
40
0.456187885480795
40
0.457940405772697
40
0.4614454463565
40
0.463197966648401
40
0.464950486940303
40
0.466703007232204
40
0.468455527524106
40
0.470208047816007
40
0.471960568107908
40
0.47371308839981
40
0.475465608691711
40
0.477218128983613
40
0.478970649275514
40
0.480723169567416
40
0.482475689859317
40
0.484228210151218
40
0.48598073044312
40
0.487733250735021
40
0.489485771026923
40
0.491238291318824
40
0.492990811610726
40
0.494743331902627
40
0.496495852194529
40
0.49824837248643
40
0.500000892778331
40
0.501753413070233
40
0.503505933362134
40
0.505258453654036
40
0.507010973945937
40
0.508763494237838
40
0.51051601452974
40
0.512268534821641
40
0.514021055113543
40
0.515773575405444
40
0.517526095697345
40
0.519278615989247
40
0.521031136281148
40
0.52278365657305
40
0.524536176864951
40
0.526288697156853
40
0.528041217448754
40
0.529793737740656
40
0.531546258032557
40
0.533298778324458
40
0.53505129861636
40
0.536803818908261
40
0.538556339200163
40
0.540308859492064
40
0.542061379783966
40
0.543813900075867
40
0.545566420367768
40
0.549071460951571
40
0.550823981243473
40
0.552576501535374
40
0.556081542119177
40
0.55958658270298
40
0.561339102994881
40
0.563091623286783
40
0.564844143578684
40
0.566596663870585
40
0.570101704454388
40
0.573606745038191
40
0.577111785621994
40
0.580616826205797
40
0.5841218667896
40
0.587626907373403
40
0.591131947957205
40
0.594636988541008
40
0.598142029124811
40
0.601647069708614
40
0.605152110292417
40
0.60865715087622
40
0.612162191460023
40
0.615667232043825
40
0.619172272627628
40
0.622677313211431
40
0.626182353795234
40
0.63319243496284
40
0.640202516130445
40
0.647212597298051
40
0.650717637881854
40
0.654222678465657
40
0.65772771904946
40
0.661232759633262
40
0.664737800217065
40
0.668242840800868
40
0.675252921968474
40
0.68226300313608
40
0.685768043719882
40
0.689273084303686
40
0.692778124887488
40
0.696283165471291
40
0.699788206055094
40
0.703293246638897
40
0.710303327806503
40
0.713808368390305
40
0.717313408974108
40
0.724323490141714
40
0.73133357130932
40
0.734838611893122
40
0.738343652476925
40
0.745353733644531
40
0.748858774228334
40
0.752363814812137
40
0.755868855395939
40
0.759373895979742
40
0.766383977147348
40
0.769889017731151
40
0.773394058314954
40
0.776899098898757
40
0.780404139482559
40
0.787414220650165
40
0.790919261233968
40
0.794424301817771
40
0.797929342401574
40
0.801434382985377
40
0.808444464152982
40
0.811949504736785
40
0.815454545320588
40
0.818959585904391
40
0.822464626488194
40
0.8294747076558
40
0.832979748239602
40
0.836484788823405
40
0.838237309115307
40
0.839989829407208
40
0.843494869991011
40
0.850504951158617
40
0.854009991742419
40
0.857515032326222
40
0.861020072910025
40
0.864525113493828
40
0.871535194661434
40
0.875040235245236
40
0.878545275829039
40
0.882050316412842
40
0.885555356996645
40
0.889060397580448
40
0.892565438164251
40
0.896070478748054
40
0.899575519331857
40
0.906585600499462
40
0.910090641083265
40
0.913595681667068
40
0.920605762834674
40
0.924110803418477
40
0.927615844002279
40
0.934625925169885
40
0.938130965753688
40
0.941636006337491
40
0.945141046921294
40
0.948646087505097
40
0.955656168672702
40
0.959161209256505
40
0.962666249840308
40
0.966171290424111
40
0.969676331007914
40
0.973181371591716
40
0.976686412175519
40
0.980191452759322
40
0.983696493343125
40
0.987201533926928
40
0.990706574510731
40
0.994211615094533
40
0.997716655678337
40
1
40
1
40
1
40
1
41
1
10
-30
20
-15.9926656716698
30
0
41
1
10
-30
20
-15.993057502638
30
0
41
1
10
-30
20
-15.99361300208
30
0
41
1
10
-30
20
-15.992743696334
30
0
41
1
10
-30
20
-15.9893850921089
30
0
41
1
10
-30
20
-15.9836860314146
30
0
41
1
10
-30
20
-15.9756808210229
30
0
41
1
10
-30
20
-15.9654018084481
30
0
41
1
10
-30
20
-15.9528811264941
30
0
41
1
10
-30
20
-15.9381491278438
30
0
41
1
10
-30
20
-15.9212355486336
30
0
41
1
10
-30
20
-15.9021692443494
30
0
41
1
10
-30
20
-15.8809772874923
30
0
41
1
10
-30
20
-15.85768719628
30
0
41
1
10
-30
20
-15.8237020449635
30
0
41
1
10
-30
20
-15.786151572388
30
0
41
1
10
-30
20
-15.7440467976174
30
0
41
1
10
-30
20
-15.7106366986067
30
0
41
1
10
-30
20
-15.6752710038507
30
0
41
1
10
-30
20
-15.6253102414823
30
0
41
1
10
-30
20
-15.5722298833996
30
0
41
1
10
-30
20
-15.5146768571488
30
0
41
1
10
-30
20
-15.454635155867
30
0
41
1
10
-30
20
-15.3917322415494
30
0
41
1
10
-30
20
-15.3243986601424
30
0
41
1
10
-30
20
-15.2546726017927
30
0
41
1
10
-30
20
-15.1823145630236
30
0
41
1
10
-30
20
-15.1055630554725
30
0
41
1
10
-30
20
-15.0465122402176
30
0
41
1
10
-30
20
-14.985753516587
30
0
41
1
10
-30
20
-14.9233034368069
30
0
41
1
10
-30
20
-14.8591738020485
30
0
41
1
10
-30
20
-14.7933781380804
30
0
41
1
10
-30
20
-14.7259318150055
30
0
41
1
10
-30
20
-14.6334478809413
30
0
41
1
10
-30
20
-14.5388306139923
30
0
41
1
10
-30
20
-14.4398724968665
30
0
41
1
10
-30
20
-14.3643499358607
30
0
41
1
10
-30
20
-14.2872489988171
30
0
41
1
10
-30
20
-14.1819460940194
30
0
41
1
10
-30
20
-14.0747689624993
30
0
41
1
10
-30
20
-13.9632604256822
30
0
41
1
10
-30
20
-13.8784200007502
30
0
41
1
10
-30
20
-13.7920640526129
30
0
41
1
10
-30
20
-13.674463030797
30
0
41
1
10
-30
20
-13.5552283874056
30
0
41
1
10
-30
20
-13.4316550911985
30
0
41
1
10
-30
20
-13.337853067095
30
0
41
1
10
-30
20
-13.2425907988595
30
0
41
1
10
-30
20
-13.1131460860381
30
0
41
1
10
-30
20
-12.9822967545723
30
0
41
1
10
-30
20
-12.847084683004
30
0
41
1
10
-30
20
-12.7446351532221
30
0
41
1
10
-30
20
-12.6407746180398
30
0
41
1
10
-30
20
-12.499887311655
30
0
41
1
10
-30
20
-12.3578191289812
30
0
41
1
10
-30
20
-12.2113468162578
30
0
41
1
10
-30
20
-12.100530667573
30
0
41
1
10
-30
20
-11.9883478761207
30
0
41
1
10
-30
20
-11.836377249174
30
0
41
1
10
-30
20
-11.6834503922585
30
0
41
1
10
-30
20
-11.5260594948948
30
0
41
1
10
-30
20
-11.4071324366749
30
0
41
1
10
-30
20
-11.2868794886981
30
0
41
1
10
-30
20
-11.1241532157817
30
0
41
1
10
-30
20
-10.9607029988619
30
0
41
1
10
-30
20
-10.7927086404325
30
0
41
1
10
-30
20
-10.6229844866849
30
0
41
1
10
-30
20
-10.4091173939315
30
0
41
1
10
-30
20
-10.1909959678347
30
0
41
1
10
-30
20
-10.0126979588287
30
0
41
1
10
-30
20
-9.83272430289384
30
0
41
1
10
-30
20
-9.65245023276196
30
0
41
1
10
-30
20
-9.46744871362009
30
0
41
1
10
-30
20
-9.32804093460692
30
0
41
1
10
-30
20
-9.18740563851225
30
0
41
1
10
-30
20
-9.0455543785921
30
0
41
1
10
-30
20
-8.90249044231979
30
0
41
1
10
-30
20
-8.70931958714519
30
0
41
1
10
-30
20
-8.46674616603482
30
0
41
1
10
-30
20
-8.22021686294167
30
0
41
1
10
-30
20
-8.01906836645577
30
0
41
1
10
-30
20
-7.86773085832667
30
0
41
1
10
-30
20
-7.71524241280142
30
0
41
1
10
-30
20
-7.56161298420645
30
0
41
1
10
-30
20
-7.40685260452798
30
0
41
1
10
-30
20
-7.19804202206524
30
0
41
1
10
-30
20
-6.93651252502835
30
0
41
1
10
-30
20
-6.61705894701072
30
0
41
1
10
-30
20
-6.34834996432815
30
0
41
1
10
-30
20
-6.12929373929515
30
0
41
1
10
-30
20
-5.96484945115367
30
0
41
1
10
-30
20
-5.7993974381898
30
0
41
1
10
-30
20
-5.63295542814623
30
0
41
1
10
-30
20
-5.46554083189747
30
0
41
1
10
-30
20
-5.29717335727497
30
0
41
1
10
-30
20
-5.12787591307327
30
0
41
1
10
-30
20
-4.9576706384986
30
0
41
1
10
-30
20
-4.78658071628459
30
0
41
1
10
-30
20
-4.6146335506248
30
0
41
1
10
-30
20
-4.44186113006066
30
0
41
1
10
-30
20
-4.26829321973949
30
0
41
1
10
-30
20
-4.09396155182321
30
0
41
1
10
-30
20
-3.91890592173866
30
0
41
1
10
-30
20
-3.74316620306936
30
0
41
1
10
-30
20
-3.56678705857649
30
0
41
1
10
-30
20
-3.42015123791836
30
0
41
1
10
-30
20
-3.3009810984795
30
0
41
1
10
-30
20
-3.21216327477833
30
0
41
1
10
-30
20
-3.12322377081893
30
0
41
1
10
-30
20
-3.00356413190352
30
0
41
1
10
-30
20
-2.85589664233001
30
0
41
1
10
-30
20
-2.70788037697056
30
0
41
1
10
-30
20
-2.58749550859633
30
0
41
1
10
-30
20
-2.49793822974365
30
0
41
1
10
-30
20
-2.40833000131903
30
0
41
1
10
-30
20
-2.31867596083524
30
0
41
1
10
-30
20
-2.22899146909501
30
0
41
1
10
-30
20
-2.10827328924756
30
0
41
1
10
-30
20
-1.99097459417121
30
0
41
1
10
-30
20
-1.87012467714985
30
0
41
1
10
-30
20
-1.78043031683035
30
0
41
1
10
-30
20
-1.69076251244053
30
0
41
1
10
-30
20
-1.60113247848605
30
0
41
1
10
-30
20
-1.51155313609783
30
0
41
1
10
-30
20
-1.422025757727
30
0
41
1
10
-30
20
-1.33256776537959
30
0
41
1
10
-30
20
-1.24317741509074
30
0
41
1
10
-30
20
-1.15386860885192
30
0
41
1
10
-30
20
-1.06464013673647
30
0
41
1
10
-30
20
-0.975500136218244
30
0
41
1
10
-30
20
-0.886447988926847
30
0
41
1
10
-30
20
-0.797485776681128
30
0
41
1
10
-30
20
-0.708610852102623
30
0
41
1
10
-30
20
-0.61982073744278
30
0
41
1
10
-30
20
-0.531109764951225
30
0
41
1
10
-30
20
-0.442471434007643
30
0
41
1
10
-30
20
-0.35389600796347
30
0
41
1
10
-30
20
-0.265373879214224
30
0
41
1
10
-30
20
-0.176892371692162
30
0
41
1
10
-30
20
-0.0884392148653887
30
0
41
1
10
-30
20
-2.04973958E-08
30
0
41
1
10
-30
20
0.0884392031952927
30
0
41
1
10
-30
20
0.17689241471993
30
0
41
1
10
-30
20
0.265373915570137
30
0
41
1
10
-30
20
0.353895962579486
30
0
41
1
10
-30
20
0.442471374506823
30
0
41
1
10
-30
20
0.531109813902646
30
0
41
1
10
-30
20
0.61982082298212
30
0
41
1
10
-30
20
0.70861080655007
30
0
41
1
10
-30
20
0.797485667180155
30
0
41
1
10
-30
20
0.886448026006832
30
0
41
1
10
-30
20
0.97550027278379
30
0
41
1
10
-30
20
1.06464012636249
30
0
41
1
10
-30
20
1.1538684580087
30
0
41
1
10
-30
20
1.24317738635406
30
0
41
1
10
-30
20
1.33256791795026
30
0
41
1
10
-30
20
1.42202585063245
30
0
41
1
10
-30
20
1.5115530207047
30
0
41
1
10
-30
20
1.60113232466117
30
0
41
1
10
-30
20
1.69076256252157
30
0
41
1
10
-30
20
1.78043050963589
30
0
41
1
10
-30
20
1.87012473193457
30
0
41
1
10
-30
20
1.95984062320625
30
0
41
1
10
-30
20
2.04956121840738
30
0
41
1
10
-30
20
2.13928298465069
30
0
41
1
10
-30
20
2.22899154181988
30
0
41
1
10
-30
20
2.34971237639814
30
0
41
1
10
-30
20
2.4670581044816
30
0
41
1
10
-30
20
2.58749567267543
30
0
41
1
10
-30
20
2.70788056755165
30
0
41
1
10
-30
20
2.85589666602098
30
0
41
1
10
-30
20
3.00356394920902
30
0
41
1
10
-30
20
3.12322374659235
30
0
41
1
10
-30
20
3.21216341650842
30
0
41
1
10
-30
20
3.3009812939207
30
0
41
1
10
-30
20
3.4201512431562
30
0
41
1
10
-30
20
3.56678672363679
30
0
41
1
10
-30
20
3.74316585626101
30
0
41
1
10
-30
20
3.91890584757377
30
0
41
1
10
-30
20
4.09396100129445
30
0
41
1
10
-30
20
4.26829259541552
30
0
41
1
10
-30
20
4.44186183082067
30
0
41
1
10
-30
20
4.61463414914383
30
0
41
1
10
-30
20
4.78658021025493
30
0
41
1
10
-30
20
4.95767123056282
30
0
41
1
10
-30
20
5.1278778625566
30
0
41
1
10
-30
20
5.29717415068043
30
0
41
1
10
-30
20
5.46553992297879
30
0
41
1
10
-30
20
5.63295448869491
30
0
41
1
10
-30
20
5.79939725011727
30
0
41
1
10
-30
20
5.96484950556561
30
0
41
1
10
-30
20
6.1292936535483
30
0
41
1
10
-30
20
6.34834993475852
30
0
41
1
10
-30
20
6.6170590196507
30
0
41
1
10
-30
20
6.93651248001379
30
0
41
1
10
-30
20
7.19804203228608
30
0
41
1
10
-30
20
7.40685270744595
30
0
41
1
10
-30
20
7.56161297986856
30
0
41
1
10
-30
20
7.71524232371232
30
0
41
1
10
-30
20
7.86773082006812
30
0
41
1
10
-30
20
8.01906843480592
30
0
41
1
10
-30
20
8.22021692135615
30
0
41
1
10
-30
20
8.46674612315107
30
0
41
1
10
-30
20
8.7093195790371
30
0
41
1
10
-30
20
8.90249052457438
30
0
41
1
10
-30
20
9.04555441784282
30
0
41
1
10
-30
20
9.18740560593943
30
0
41
1
10
-30
20
9.32804088163152
30
0
41
1
10
-30
20
9.46744870809565
30
0
41
1
10
-30
20
9.65245029192155
30
0
41
1
10
-30
20
9.83272433616031
30
0
41
1
10
-30
20
10.0126979221092
30
0
41
1
10
-30
20
10.1909959517429
30
0
41
1
10
-30
20
10.4091174330404
30
0
41
1
10
-30
20
10.6229845090751
30
0
41
1
10
-30
20
10.7927086151923
30
0
41
1
10
-30
20
10.9607029915804
30
0
41
1
10
-30
20
11.1241532476502
30
0
41
1
10
-30
20
11.286879520772
30
0
41
1
10
-30
20
11.4071324437642
30
0
41
1
10
-30
20
11.526059483736
30
0
41
1
10
-30
20
11.6834503898541
30
0
41
1
10
-30
20
11.8363772717575
30
0
41
1
10
-30
20
11.9883479026383
30
0
41
1
10
-30
20
12.100530681097
30
0
41
1
10
-30
20
12.211346817793
30
0
41
1
10
-30
20
12.3578191303265
30
0
41
1
10
-30
20
12.4998873251013
30
0
41
1
10
-30
20
12.640774639564
30
0
41
1
10
-30
20
12.7446351726738
30
0
41
1
10
-30
20
12.8470846962099
30
0
41
1
10
-30
20
12.9822967603461
30
0
41
1
10
-30
20
13.1131460918651
30
0
41
1
10
-30
20
13.2425908150843
30
0
41
1
10
-30
20
13.3378530905647
30
0
41
1
10
-30
20
13.431655102243
30
0
41
1
10
-30
20
13.5552284439381
30
0
41
1
10
-30
20
13.6744629632361
30
0
41
1
10
-30
20
13.7920640428987
30
0
41
1
10
-30
20
13.8638084100541
30
0
41
1
10
-30
20
13.9208384799595
30
0
41
1
10
-30
20
13.9773600368974
30
0
41
1
10
-30
20
14.0747689786766
30
0
41
1
10
-30
20
14.1819460903518
30
0
41
1
10
-30
20
14.2872490063531
30
0
41
1
10
-30
20
14.3643499644422
30
0
41
1
10
-30
20
14.4398725346097
30
0
41
1
10
-30
20
14.5388306330265
30
0
41
1
10
-30
20
14.6334478734244
30
0
41
1
10
-30
20
14.7259318226356
30
0
41
1
10
-30
20
14.793378171537
30
0
41
1
10
-30
20
14.8591738437125
30
0
41
1
10
-30
20
14.9233034607296
30
0
41
1
10
-30
20
14.9857535133679
30
0
41
1
10
-30
20
15.0465122321639
30
0
41
1
10
-30
20
15.1055630695376
30
0
41
1
10
-30
20
15.1823146060513
30
0
41
1
10
-30
20
15.2546726312332
30
0
41
1
10
-30
20
15.3243986497297
30
0
41
1
10
-30
20
15.3917322452796
30
0
41
1
10
-30
20
15.4546352005829
30
0
41
1
10
-30
20
15.5146768877911
30
0
41
1
10
-30
20
15.5722298782127
30
0
41
1
10
-30
20
15.6253102421943
30
0
41
1
10
-30
20
15.6752710489662
30
0
41
1
10
-30
20
15.7106367362118
30
0
41
1
10
-30
20
15.7440468008705
30
0
41
1
10
-30
20
15.7861515665346
30
0
41
1
10
-30
20
15.8237020814765
30
0
41
1
10
-30
20
15.8576872273509
30
0
41
1
10
-30
20
15.8809772969169
30
0
41
1
10
-30
20
15.9021692417172
30
0
41
1
10
-30
20
15.921235563756
30
0
41
1
10
-30
20
15.9381491696965
30
0
41
1
10
-30
20
15.9528811556007
30
0
41
1
10
-30
20
15.9654018081648
30
0
41
1
10
-30
20
15.9756808201301
30
0
41
1
10
-30
20
15.9836860510364
30
0
41
1
10
-30
20
15.989385071505
30
0
41
1
10
-30
20
15.992743547039
30
0
41
1
10
-30
20
15.9936126286332
30
0
41
1
10
-30
20
15.9930576922393
30
0
41
1
10
-30
20
15.9926664677299
30
0
0
SPLINE
5
164
100
AcDbEntity
8
1
62
256
6
ByLayer
370
18
48
1
60
0
100
AcDbSpline
70
4
71
2
72
6
73
3
40
0
40
0
40
0
40
1
40
1
40
1
41
1.02613459695995
10
18.9202176847788
20
-15.1477139184886
30
0
41
0.902052975407895
10
18.199526480447
20
-14.8202467028841
30
0
41
0.880425908340643
10
17.9623651930698
20
-13.8398609314608
30
0
0
SPLINE
5
165
100
AcDbEntity
8
1
62
256
6
ByLayer
370
18
48
1
60
0
100
AcDbSpline
70
4
71
3
72
16
73
12
40
0
40
0
40
0
40
0
40
0.111430279628052
40
0.111430279628052
40
0.248747543515474
40
0.248747543515474
40
0.465535329195271
40
0.465535329195271
40
0.883855351867598
40
0.883855351867598
40
1
40
1
40
1
40
1
41
1
10
11.4613248654052
20
23.8391299750503
30
0
41
1
10
11.4891847159942
20
23.8391299750503
30
0
41
1
10
11.5173911427755
20
23.8375361275706
30
0
41
1
10
11.5758492032393
20
23.831150658589
30
0
41
1
10
11.6060413892306
20
23.825666877018
30
0
41
1
10
11.6751537543576
20
23.8089605749788
30
0
41
1
10
11.7107854085705
20
23.796037970776
30
0
41
1
10
11.798993890746
20
23.7556824246832
30
0
41
1
10
11.8397320068509
20
23.7250165399981
30
0
41
1
10
11.8792917015268
20
23.6845451449633
30
0
41
1
10
11.8871615985731
20
23.6755726082078
30
0
41
1
10
11.8943375672975
20
23.6665017920809
30
0
0
SPLINE
5
166
100
AcDbEntity
8
1
62
256
6
ByLayer
370
18
48
1
60
0
100
AcDbSpline
70
4
71
3
72
12
73
8
40
0
40
0
40
0
40
0
40
0.270474637987741
40
0.270474637987741
40
0.540949224987218
40
0.540949224987218
40
1
40
1
40
1
40
1
41
1
10
29.9748016826531
20
2.91433394946753
30
0
41
1
10
29.9997950326648
20
2.91492223897723
30
0
41
1
10
30.0247914054196
20
2.91539360724687
30
0
41
1
10
30.0747869049074
20
2.91610371525533
30
0
41
1
10
30.0997865728382
20
2.91634246573557
30
0
41
1
10
30.1672157595485
20
2.91667434443369
30
0
41
1
10
30.2096479056971
20
2.91654990258038
30
0
41
1
10
30.2520752021965
20
2.9160951252378
30
0
0
SPLINE
5
167
100
AcDbEntity
8
1
62
256
6
ByLayer
370
18
48
1
60
0
100
AcDbSpline
70
4
71
3
72
11
73
7
40
0
40
0
40
0
40
0
40
0.205396958560554
40
0.364317566848443
40
0.682158783424221
40
1
40
1
40
1
40
1
41
1.02613459695995
10
19.4885075289107
20
-21.7748890607512
30
0
41
1.02613459695995
10
19.2254641348182
20
-21.4878625644323
30
0
41
1.02613459695995
10
18.8171507387434
20
-20.9006898004953
30
0
41
1.02613459695995
10
18.2898798344765
20
-19.5679805136248
30
0
41
1.02613459695995
10
18.0932553138226
20
-17.6963843275156
30
0
41
1.02613459695995
10
18.5220897326384
20
-15.9873822486654
30
0
41
1.02613459695995
10
18.9202176847788
20
-15.1477139184886
30
0
0
SPLINE
5
168
100
AcDbEntity
8
1
62
256
6
ByLayer
370
18
48
1
60
0
100
AcDbSpline
70
4
71
3
72
16
73
12
40
0
40
0
40
0
40
0
40
0.11143027962805
40
0.11143027962805
40
0.248747543515472
40
0.248747543515472
40
0.465535329195252
40
0.465535329195252
40
0.88385535186756
40
0.88385535186756
40
1
40
1
40
1
40
1
41
1
10
8.5386751345948
20
-23.8391299750503
30
0
41
1
10
8.51081528400579
20
-23.8391299750503
30
0
41
1
10
8.48260885722448
20
-23.8375361275706
30
0
41
1
10
8.4241507967607
20
-23.831150658589
30
0
41
1
10
8.39395861076943
20
-23.825666877018
30
0
41
1
10
8.32484624564245
20
-23.8089605749788
30
0
41
1
10
8.28921459142956
20
-23.796037970776
30
0
41
1
10
8.201006109254
20
-23.7556824246832
30
0
41
1
10
8.16026799314912
20
-23.7250165399981
30
0
41
1
10
8.1207082984732
20
-23.6845451449633
30
0
41
1
10
8.11283840142687
20
-23.6755726082077
30
0
41
1
10
8.10566243270245
20
-23.6665017920809
30
0
0
SPLINE
5
169
100
AcDbEntity
8
1
62
256
6
ByLayer
370
18
48
1
60
0
100
AcDbSpline
70
4
71
3
72
12
73
8
40
0
40
0
40
0
40
0
40
0.274530524246104
40
0.274530524246104
40
0.549061000204193
40
0.549061000204193
40
1
40
1
40
1
40
1
41
1
10
30.2520752021827
20
2.9160951280484
30
0
41
1
10
30.2770740282752
20
2.91582716612112
30
0
41
1
10
30.3020718853966
20
2.91544451255012
30
0
41
1
10
30.3520625364908
20
2.91445104545377
30
0
41
1
10
30.3770558511915
20
2.91384021886196
30
0
41
1
10
30.4430926595031
20
2.91192618852099
30
0
41
1
10
30.4841319513729
20
2.91043023154415
30
0
41
1
10
30.5251567860786
20
2.90863074812987
30
0
0
SPLINE
5
16A
100
AcDbEntity
8
1
62
256
6
ByLayer
370
18
48
1
60
0
100
AcDbSpline
70
4
71
3
72
8
73
4
40
0
40
0
40
0
40
0
40
1
40
1
40
1
40
1
41
1
10
20.92079238
20
-24.4886190390076
30
0
41
1
10
21.0847242867994
20
-25.1173908764621
30
0
41
1
10
21.2495887675166
20
-25.7463335276432
30
0
41
1
10
21.4150979665882
20
-26.3750235579347
30
0
0
SPLINE
5
16B
100
AcDbEntity
8
1
62
256
6
ByLayer
370
18
48
1
60
0
100
AcDbSpline
70
4
71
2
72
6
73
3
40
0
40
0
40
0
40
1
40
1
40
1
41
0.907607206789761
10
26.6582235018224
20
-1.45557933863214
30
0
41
0.892447858246522
10
26.7750575969585
20
-1.66457679769946
30
0
41
0.884527277494913
10
26.8515813808945
20
-1.91645139729951
30
0
0
SPLINE
5
16C
100
AcDbEntity
8
1
62
256
6
ByLayer
370
18
48
1
60
0
100
AcDbSpline
70
4
71
3
72
24
73
20
40
0
40
0
40
0
40
0
40
0.0075875801221373
40
0.0075875801221373
40
0.361087076888143
40
0.361087076888143
40
0.420617177075974
40
0.420617177075974
40
0.59634457189848
40
0.59634457189848
40
0.714602008946836
40
0.714602008946836
40
0.833270899065744
40
0.833270899065744
40
0.947368847972109
40
0.947368847972109
40
0.99472989267418
40
0.99472989267418
40
1
40
1
40
1
40
1
41
1
10
26.9841098529618
20
-2.72769807214789
30
0
41
1
10
26.9872531158743
20
-2.72501379929682
30
0
41
1
10
26.9904034179271
20
-2.72232661973871
30
0
41
1
10
27.140898356759
20
-2.5953280583015
30
0
41
1
10
27.3132493640664
20
-2.48732389054388
30
0
41
1
10
27.54199453387
20
-2.41199723848265
30
0
41
1
10
27.5763226750959
20
-2.40224349118842
30
0
41
1
10
27.7130670482017
20
-2.37014488495058
30
0
41
1
10
27.8230916277639
20
-2.35919443683824
30
0
41
1
10
28.0055052895919
20
-2.37407880785841
30
0
41
1
10
28.080194103622
20
-2.38947537416041
30
0
41
1
10
28.2192932275704
20
-2.43886546325888
30
0
41
1
10
28.2853986347633
20
-2.47358679414955
30
0
41
1
10
28.3976398302623
20
-2.55417058768475
30
0
41
1
10
28.4458579736082
20
-2.6003492136262
30
0
41
1
10
28.5024499220262
20
-2.66957737176369
30
0
41
1
10
28.5178331653117
20
-2.69058539420442
30
0
41
1
10
28.5334410293907
20
-2.7142647115661
30
0
41
1
10
28.5349465654004
20
-2.71659600470505
30
0
41
1
10
28.5364531859684
20
-2.71891651151466
30
0
0
SPLINE
5
16D
100
AcDbEntity
8
1
62
256
6
ByLayer
370
18
48
1
60
0
100
AcDbSpline
70
4
71
3
72
16
73
12
40
0
40
0
40
0
40
0
40
0.111430279628047
40
0.111430279628047
40
0.248747543515467
40
0.248747543515467
40
0.465535329195252
40
0.465535329195252
40
0.883855351867553
40
0.883855351867553
40
1
40
1
40
1
40
1
41
1
10
8.53867513459483
20
7.52966679426501
30
0
41
1
10
8.51081528400579
20
7.52966679426501
30
0
41
1
10
8.48260885722448
20
7.53471706780857
30
0
41
1
10
8.42415079676073
20
7.55489210221029
30
0
41
1
10
8.39395861076943
20
7.57218953888446
30
0
41
1
10
8.32484624564245
20
7.62460019394089
30
0
41
1
10
8.28921459142956
20
7.66489294253907
30
0
41
1
10
8.201006109254
20
7.78941367630352
30
0
41
1
10
8.16026799314912
20
7.88247511004147
30
0
41
1
10
8.12070829847318
20
8.00269269538009
30
0
41
1
10
8.11283840142687
20
8.02920008991578
30
0
41
1
10
8.10566243270245
20
8.05584836782771
30
0
0
SPLINE
5
16E
100
AcDbEntity
8
1
62
256
6
ByLayer
370
18
48
1
60
0
100
AcDbSpline
70
4
71
3
72
8
73
4
40
0
40
0
40
0
40
0
40
1
40
1
40
1
40
1
41
1
10
18.0111885376278
20
-13.3760750636291
30
0
41
1
10
18.1846560822297
20
-12.0787437418491
30
0
41
1
10
18.5463001356475
20
-10.8761933533923
30
0
41
1
10
19.4005081401407
20
-9.96158435362537
30
0
0
SPLINE
5
16F
100
AcDbEntity
8
1
62
256
6
ByLayer
370
18
48
1
60
0
100
AcDbSpline
70
4
71
3
72
16
73
12
40
0
40
0
40
0
40
0
40
0.461208588217066
40
0.461208588217066
40
0.643534962278522
40
0.643534962278522
40
0.828408472975271
40
0.828408472975271
40
0.943003644159981
40
0.943003644159981
40
1
40
1
40
1
40
1
41
1
10
11.8943375672974
20
8.05584836782774
30
0
41
1
10
11.8660503915152
20
7.95080268681445
30
0
41
1
10
11.8273339192908
20
7.84628670970801
30
0
41
1
10
11.7473160248315
20
7.71442469145123
30
0
41
1
10
11.7212784637477
20
7.67825379650728
30
0
41
1
10
11.6606543989164
20
7.61290523367228
30
0
41
1
10
11.6251722226874
20
7.58305923051407
30
0
41
1
10
11.5599225851958
20
7.54855881865589
30
0
41
1
10
11.5324782774944
20
7.5385201810229
30
0
41
1
10
11.4901684747699
20
7.53097042135255
30
0
41
1
10
11.4757173930754
20
7.5296667942647
30
0
41
1
10
11.4613248654053
20
7.5296667942647
30
0
0
SPLINE
5
170
100
AcDbEntity
8
1
62
256
6
ByLayer
370
18
48
1
60
0
100
AcDbSpline
70
4
71
1
72
4
73
2
40
0
40
0
40
1
40
1
41
1
10
25.8549165144424
20
-0.728029380589902
30
0
41
1
10
25.7735343217173
20
-0.691050991105897
30
0
0
SPLINE
5
171
100
AcDbEntity
8
1
62
256
6
ByLayer
370
18
48
1
60
0
100
AcDbSpline
70
4
71
3
72
16
73
12
40
0
40
0
40
0
40
0
40
0.111430279628047
40
0.111430279628047
40
0.248747543515475
40
0.248747543515475
40
0.465535329195272
40
0.465535329195272
40
0.883855351867603
40
0.883855351867603
40
1
40
1
40
1
40
1
41
1
10
11.4613248654052
20
-7.52966679426504
30
0
41
1
10
11.4891847159942
20
-7.52966679426504
30
0
41
1
10
11.5173911427755
20
-7.53471706780854
30
0
41
1
10
11.5758492032393
20
-7.55489210221029
30
0
41
1
10
11.6060413892306
20
-7.57218953888446
30
0
41
1
10
11.6751537543576
20
-7.62460019394089
30
0
41
1
10
11.7107854085705
20
-7.66489294253907
30
0
41
1
10
11.798993890746
20
-7.78941367630352
30
0
41
1
10
11.8397320068509
20
-7.8824751100415
30
0
41
1
10
11.8792917015268
20
-8.00269269538009
30
0
41
1
10
11.8871615985731
20
-8.02920008991578
30
0
41
1
10
11.8943375672975
20
-8.05584836782771
30
0
0
SPLINE
5
172
100
AcDbEntity
8
1
62
256
6
ByLayer
370
18
48
1
60
0
100
AcDbSpline
70
4
71
3
72
10
73
6
40
0
40
0
40
0
40
0
40
0.420519290906198
40
0.420519290906198
40
1
40
1
40
1
40
1
41
1
10
11.4613248654052
20
13.6906253919194
30
0
41
1
10
11.5453800896752
20
13.7543887310852
30
0
41
1
10
11.6221668639081
20
13.8387345203577
30
0
41
1
10
11.7759013620284
20
14.060958439368
30
0
41
1
10
11.8455749346608
20
14.2106220260311
30
0
41
1
10
11.8943375672975
20
14.3682408325643
30
0
0
SPLINE
5
173
100
AcDbEntity
8
1
62
256
6
ByLayer
370
18
48
1
60
0
100
AcDbSpline
70
4
71
3
72
10
73
6
40
0
40
0
40
0
40
0
40
0.402044102652639
40
0.402044102652639
40
1
40
1
40
1
40
1
41
1
10
8.53867513459483
20
15.6264181175896
30
0
41
1
10
8.45565130451817
20
15.5634371823532
30
0
41
1
10
8.38116512940178
20
15.5084417956534
30
0
41
1
10
8.22555738648487
20
15.3873530726881
30
0
41
1
10
8.1547844176815
20
15.3245036331396
30
0
41
1
10
8.10566243270253
20
15.2776332060812
30
0
0
SPLINE
5
174
100
AcDbEntity
8
1
62
256
6
ByLayer
370
18
48
1
60
0
100
AcDbSpline
70
4
71
3
72
8
73
4
40
0
40
0
40
0
40
0
40
1
40
1
40
1
40
1
41
1
10
21.912410323838
20
-22.8271874644578
30
0
41
1
10
21.7448620501722
20
-22.7978241060096
30
0
41
1
10
21.5786169500412
20
-22.7596301062218
30
0
41
1
10
21.4150979665882
20
-22.7127667636366
30
0
0
SPLINE
5
175
100
AcDbEntity
8
1
62
256
6
ByLayer
370
18
48
1
60
0
100
AcDbSpline
70
4
71
3
72
8
73
4
40
0
40
0
40
0
40
0
40
1
40
1
40
1
40
1
41
1
10
22.0674431789286
20
-28.8671469313014
30
0
41
1
10
21.9893294937792
20
-28.5659581752293
30
0
41
1
10
21.9114828587195
20
-28.2650398887072
30
0
41
1
10
21.8339278937937
20
-27.9643875632302
30
0
0
SPLINE
5
176
100
AcDbEntity
8
1
62
256
6
ByLayer
370
18
48
1
60
0
100
AcDbSpline
70
4
71
3
72
16
73
12
40
0
40
0
40
0
40
0
40
0.238664520516886
40
0.238664520516886
40
0.477243676809563
40
0.477243676809563
40
0.717175962218134
40
0.717175962218134
40
0.962955965218023
40
0.962955965218023
40
1
40
1
40
1
40
1
41
1
10
20.92079238
20
-24.4886190390076
30
0
41
1
10
20.4840916723798
20
-24.4774472754172
30
0
41
1
10
20.0509926695775
20
-24.4509610891805
30
0
41
1
10
19.26391515033
20
-24.3656718780195
30
0
41
1
10
18.8991880574146
20
-24.3054862317241
30
0
41
1
10
18.2835116525487
20
-24.1494135952404
30
0
41
1
10
18.0249815792796
20
-24.0510028626091
30
0
41
1
10
17.6392199403027
20
-23.8174123097642
30
0
41
1
10
17.5100639463551
20
-23.6782359586606
30
0
41
1
10
17.4432353915025
20
-23.5027996833027
30
0
41
1
10
17.4359824174511
20
-23.4792306731536
30
0
41
1
10
17.4303191742212
20
-23.4553549429959
30
0
0
SPLINE
5
177
100
AcDbEntity
8
1
62
256
6
ByLayer
370
18
48
1
60
0
100
AcDbSpline
70
4
71
2
72
6
73
3
40
0
40
0
40
0
40
1
40
1
40
1
41
0.884527277494913
10
26.8515813808945
20
-1.91645139729951
30
0
41
0.873143673819232
10
26.9639943238858
20
-2.28645355283162
30
0
41
0.876712443328707
10
26.9838267276948
20
-2.7271391778982
30
0
0
SPLINE
5
178
100
AcDbEntity
8
1
62
256
6
ByLayer
370
18
48
1
60
0
100
AcDbSpline
70
4
71
3
72
8
73
4
40
0
40
0
40
0
40
0
40
1
40
1
40
1
40
1
41
1
10
30.5251567860766
20
2.90863074806126
30
0
41
1
10
31.723140942741
20
2.85608324517818
30
0
41
1
10
32.8735060044487
20
2.36781502889016
30
0
41
1
10
33.7195947786924
20
1.51640255206851
30
0
0
SPLINE
5
179
100
AcDbEntity
8
1
62
256
6
ByLayer
370
18
48
1
60
0
100
AcDbSpline
70
4
71
3
72
10
73
6
40
0
40
0
40
0
40
0
40
0.568935487604417
40
0.758580650139222
40
1
40
1
40
1
40
1
41
1.02613459695995
10
24.7322023339341
20
-20.1177518361099
30
0
41
1.02613459695995
10
23.9503243264267
20
-19.7393452159378
30
0
41
1.02613459695995
10
23.0731860800977
20
-18.8767270952888
30
0
41
1.02613459695995
10
22.4254668650286
20
-17.2395773754358
30
0
41
1.02613459695995
10
22.2900810412392
20
-16.4239130036882
30
0
41
1.02613459695995
10
22.2684422159088
20
-15.9409120240086
30
0
0
SPLINE
5
17A
100
AcDbEntity
8
1
62
256
6
ByLayer
370
18
48
1
60
0
100
AcDbSpline
70
4
71
3
72
16
73
12
40
0
40
0
40
0
40
0
40
0.461208588217085
40
0.461208588217085
40
0.643534962278541
40
0.643534962278541
40
0.828408472975291
40
0.828408472975291
40
0.943003644159993
40
0.943003644159993
40
1
40
1
40
1
40
1
41
1
10
11.8943375672974
20
-23.6665017920809
30
0
41
1
10
11.8660503915152
20
-23.7022583261632
30
0
41
1
10
11.8273339192908
20
-23.7370095736338
30
0
41
1
10
11.7473160248315
20
-23.7800170858174
30
0
41
1
10
11.7212784637477
20
-23.7917125768793
30
0
41
1
10
11.6606543989164
20
-23.8127037684951
30
0
41
1
10
11.6251722226874
20
-23.8222104320954
30
0
41
1
10
11.5599225851958
20
-23.8331586856493
30
0
41
1
10
11.5324782774944
20
-23.836332378473
30
0
41
1
10
11.4901684747699
20
-23.8387183279986
30
0
41
1
10
11.4757173930754
20
-23.8391299750505
30
0
41
1
10
11.4613248654053
20
-23.8391299750505
30
0
0
SPLINE
5
17B
100
AcDbEntity
8
1
62
256
6
ByLayer
370
18
48
1
60
0
100
AcDbSpline
70
4
71
2
72
6
73
3
40
0
40
0
40
0
40
1
40
1
40
1
41
1.02613459695995
10
25.9362987071682
20
-0.765007770074221
30
0
41
0.944930757554167
10
26.3865452458652
20
-0.969590508806748
30
0
41
0.907607206789761
10
26.6582235018224
20
-1.45557933863214
30
0
0
SPLINE
5
17C
100
AcDbEntity
8
1
62
256
6
ByLayer
370
18
48
1
60
0
100
AcDbSpline
70
4
71
3
72
10
73
6
40
0
40
0
40
0
40
0
40
0.557501663665875
40
0.557501663665875
40
1
40
1
40
1
40
1
41
1
10
11.8943375672974
20
15.2776332060815
30
0
41
1
10
11.8484634024225
20
15.3214046802911
30
0
41
1
10
11.7837991840743
20
15.3793044422495
30
0
41
1
10
11.633322851829
20
15.4976441747706
30
0
41
1
10
11.5524968190072
20
15.5572561083222
30
0
41
1
10
11.4613248654052
20
15.6264181175895
30
0
0
SPLINE
5
17D
100
AcDbEntity
8
1
62
256
6
ByLayer
370
18
48
1
60
0
100
AcDbSpline
70
4
71
3
72
10
73
6
40
0
40
0
40
0
40
0
40
0.578104426482813
40
0.578104426482813
40
1
40
1
40
1
40
1
41
1
10
8.10566243270256
20
14.3682408325648
30
0
41
1
10
8.15431207153046
20
14.2109872636803
30
0
41
1
10
8.22377139565089
20
14.0616626119233
30
0
41
1
10
8.37734423169181
20
13.839273457025
30
0
41
1
10
8.45435152708336
20
13.7545923235662
30
0
41
1
10
8.53867513459483
20
13.6906253919194
30
0
0
SPLINE
5
17E
100
AcDbEntity
8
1
62
256
6
ByLayer
370
18
48
1
60
0
100
AcDbSpline
70
4
71
3
72
8
73
4
40
0
40
0
40
0
40
0
40
1
40
1
40
1
40
1
41
1
10
22.8998667400581
20
-32.0646514682344
30
0
41
1
10
22.621506135171
20
-30.9990580663144
30
0
41
1
10
22.3439378039788
20
-29.9332478586898
30
0
41
1
10
22.0674431789286
20
-28.8671469313014
30
0
0
SPLINE
5
17F
100
AcDbEntity
8
1
62
256
6
ByLayer
370
18
48
1
60
0
100
AcDbSpline
70
4
71
3
72
16
73
12
40
0
40
0
40
0
40
0
40
0.461208588217088
40
0.461208588217088
40
0.643534962278544
40
0.643534962278544
40
0.82840847297529
40
0.82840847297529
40
0.943003644159989
40
0.943003644159989
40
1
40
1
40
1
40
1
41
1
10
8.10566243270262
20
-8.05584836782774
30
0
41
1
10
8.13394960848487
20
-7.95080268681445
30
0
41
1
10
8.17266608070923
20
-7.84628670970801
30
0
41
1
10
8.25268397516848
20
-7.71442469145123
30
0
41
1
10
8.27872153625231
20
-7.67825379650728
30
0
41
1
10
8.33934560108361
20
-7.61290523367228
30
0
41
1
10
8.37482777731262
20
-7.5830592305141
30
0
41
1
10
8.44007741480422
20
-7.54855881865589
30
0
41
1
10
8.46752172250564
20
-7.5385201810229
30
0
41
1
10
8.50983152523006
20
-7.53097042135255
30
0
41
1
10
8.5242826069246
20
-7.52966679426473
30
0
41
1
10
8.53867513459474
20
-7.52966679426473
30
0
0
SPLINE
5
180
100
AcDbEntity
8
1
62
256
6
ByLayer
370
18
48
1
60
0
100
AcDbSpline
70
4
71
3
72
11
73
7
40
0
40
0
40
0
40
0
40
0.0254658405549054
40
0.220372672443924
40
0.610186336221962
40
1
40
1
40
1
40
1
41
1
10
30.2520752001155
20
2.91609512768534
30
0
41
1
10
30.2112873176489
20
2.90893139447448
30
0
41
1
10
29.8577815067466
20
2.84196463653004
30
0
41
1
10
28.867717957597
20
2.53668920052351
30
0
41
1
10
27.3018473890609
20
1.51994246779054
30
0
41
1
10
26.2529220112332
20
0.111698343164477
30
0
41
1
10
25.8549165144424
20
-0.728029380589902
30
0
0
SPLINE
5
181
100
AcDbEntity
8
1
62
256
6
ByLayer
370
18
48
1
60
0
100
AcDbSpline
70
4
71
3
72
10
73
6
40
0
40
0
40
0
40
0
40
0.5
40
0.5
40
1
40
1
40
1
40
1
41
1
10
24.3255168956002
20
-0.732786820402566
30
0
41
1
10
24.8425640009678
20
0.333545917881821
30
0
41
1
10
25.6926842203872
20
1.19225433949063
30
0
41
1
10
27.6462808876046
20
2.46854600975664
30
0
41
1
10
28.7911362043242
20
2.88647301977789
30
0
41
1
10
29.974801682527
20
2.91433395034173
30
0
0
SPLINE
5
182
100
AcDbEntity
8
1
62
256
6
ByLayer
370
18
48
1
60
0
100
AcDbSpline
70
4
71
3
72
11
73
7
40
0
40
0
40
0
40
0
40
0.215679231406764
40
0.372543385125411
40
0.686271692562706
40
1
40
1
40
1
40
1
41
1
10
19.620656629756
20
-21.8662881351293
30
0
41
1
10
19.3363963049753
20
-21.5669378549262
30
0
41
1
10
18.9086660644059
20
-20.9632802999225
30
0
41
1
10
18.3712620272024
20
-19.6049589031091
30
0
41
1
10
18.1746375065484
20
-17.7333627169999
30
0
41
1
10
18.6034719253643
20
-16.0243606381498
30
0
41
1
10
19.0015998775047
20
-15.1846923079729
30
0
0
SPLINE
5
183
100
AcDbEntity
8
1
62
256
6
ByLayer
370
18
48
1
60
0
100
AcDbSpline
70
4
71
3
72
24
73
20
40
0
40
0
40
0
40
0
40
0.0052701073258015
40
0.0052701073258015
40
0.0526311510710943
40
0.0526311510710943
40
0.166729100021873
40
0.166729100021873
40
0.2853979900202
40
0.2853979900202
40
0.403655426959688
40
0.403655426959688
40
0.579382821811404
40
0.579382821811404
40
0.638912923126011
40
0.638912923126011
40
0.992412419892882
40
0.992412419892882
40
1
40
1
40
1
40
1
41
1
10
22.2684422159087
20
-15.9409120240087
30
0
41
1
10
22.2657100913436
20
-15.941176644835
30
0
41
1
10
22.2629701661468
20
-15.9414492221227
30
0
41
1
10
22.2349408151877
20
-15.9439722918832
30
0
41
1
10
22.2090975000125
20
-15.9450291687394
30
0
41
1
10
22.1201881191183
20
-15.9439727093813
30
0
41
1
10
22.054231126789
20
-15.9352131281266
30
0
41
1
10
21.9212921773026
20
-15.898290013247
30
0
41
1
10
21.8527462728303
20
-15.8687167661674
30
0
41
1
10
21.7266363088182
20
-15.7919268187698
30
0
41
1
10
21.6674393208577
20
-15.7438511688766
30
0
41
1
10
21.5402685265666
20
-15.6124352614616
30
0
41
1
10
21.4788336347258
20
-15.5208886593059
30
0
41
1
10
21.4166586927326
20
-15.3956874939215
30
0
41
1
10
21.4023508298393
20
-15.3632096562191
30
0
41
1
10
21.3149369215277
20
-15.1404064356322
30
0
41
1
10
21.2883925400137
20
-14.9408402176526
30
0
41
1
10
21.2903309920638
20
-14.7462896274107
30
0
41
1
10
21.2903937737345
20
-14.7421990100797
30
0
41
1
10
21.2904586198596
20
-14.7381159681554
30
0
0
SPLINE
5
184
100
AcDbEntity
8
1
62
256
6
ByLayer
370
18
48
1
60
0
100
AcDbSpline
70
4
71
3
72
8
73
4
40
0
40
0
40
0
40
0
40
1
40
1
40
1
40
1
41
1
10
21.4150979665882
20
-26.3750235579347
30
0
41
1
10
21.5545788836027
20
-26.9048446339522
30
0
41
1
10
21.6941959753808
20
-27.4346308120684
30
0
41
1
10
21.8339278937937
20
-27.9643875632302
30
0
0
SPLINE
5
185
100
AcDbEntity
8
1
62
256
6
ByLayer
370
18
48
1
60
0
100
AcDbSpline
70
4
71
2
72
6
73
3
40
0
40
0
40
0
40
1
40
1
40
1
41
1
10
19.0015998775047
20
-15.1846923079729
30
0
41
1
10
18.9609087811418
20
-15.1662031132307
30
0
41
1
10
18.9202176847788
20
-15.1477139184886
30
0
0
SPLINE
5
186
100
AcDbEntity
8
1
62
256
6
ByLayer
370
18
48
1
60
0
100
AcDbSpline
70
4
71
3
72
16
73
12
40
0
40
0
40
0
40
0
40
0.461208588217094
40
0.461208588217094
40
0.643534962278546
40
0.643534962278546
40
0.828408472975285
40
0.828408472975285
40
0.943003644159988
40
0.943003644159988
40
1
40
1
40
1
40
1
41
1
10
8.10566243270262
20
23.6665017920809
30
0
41
1
10
8.13394960848487
20
23.7022583261632
30
0
41
1
10
8.17266608070923
20
23.7370095736338
30
0
41
1
10
8.25268397516848
20
23.7800170858174
30
0
41
1
10
8.27872153625233
20
23.7917125768793
30
0
41
1
10
8.33934560108361
20
23.8127037684951
30
0
41
1
10
8.37482777731262
20
23.8222104320954
30
0
41
1
10
8.44007741480422
20
23.8331586856493
30
0
41
1
10
8.46752172250564
20
23.836332378473
30
0
41
1
10
8.50983152523006
20
23.8387183279986
30
0
41
1
10
8.5242826069246
20
23.8391299750505
30
0
41
1
10
8.53867513459474
20
23.8391299750505
30
0
0
SPLINE
5
187
100
AcDbEntity
8
1
62
256
6
ByLayer
370
18
48
1
60
0
100
AcDbSpline
70
4
71
3
72
10
73
6
40
0
40
0
40
0
40
0
40
0.5
40
0.5
40
1
40
1
40
1
40
1
41
1
10
19.4885075289107
20
-21.7748890607512
30
0
41
1
10
18.4592354513115
20
-21.0623401727902
30
0
41
1
10
17.9539010355899
20
-19.9857056129786
30
0
41
1
10
17.6199839228321
20
-17.4002795192355
30
0
41
1
10
17.6959880981521
20
-15.9913777979794
30
0
41
1
10
17.8493927048616
20
-14.6707821318883
30
0
0
SPLINE
5
188
100
AcDbEntity
8
1
62
256
6
ByLayer
370
18
48
1
60
0
100
AcDbSpline
70
4
71
2
72
6
73
3
40
0
40
0
40
0
40
1
40
1
40
1
41
0.885894635817232
10
24.3256549586976
20
-0.732730241515082
30
0
41
0.914691635811191
10
25.1351947908091
20
-0.401002677014759
30
0
41
1.02613459695995
10
25.7735343217165
20
-0.691050991105561
30
0
0
SPLINE
5
189
100
AcDbEntity
8
1
62
256
6
ByLayer
370
18
48
1
60
0
100
AcDbSpline
70
4
71
3
72
11
73
7
40
0
40
0
40
0
40
0
40
0.0629468492975446
40
0.250357479438036
40
0.625178739719018
40
1
40
1
40
1
40
1
41
1
10
30.5251567861313
20
2.9086307480685
30
0
41
1
10
30.4208620487788
20
2.89483664584986
30
0
41
1
10
30.0040641390977
20
2.82499759886312
30
0
41
1
10
28.9491001503228
20
2.49971081103917
30
0
41
1
10
27.3832295817867
20
1.48296407830623
30
0
41
1
10
26.3343042039591
20
0.0747199536801304
30
0
41
1
10
25.9362987071682
20
-0.765007770074249
30
0
0
SPLINE
5
18A
100
AcDbEntity
8
1
62
256
6
ByLayer
370
18
48
1
60
0
100
AcDbSpline
70
4
71
1
72
4
73
2
40
0
40
0
40
1
40
1
41
1
10
25.9362987071682
20
-0.76500777007422
30
0
41
1
10
25.8549165144427
20
-0.728029380590016
30
0
0
SPLINE
5
18B
100
AcDbEntity
8
1
62
256
6
ByLayer
370
18
48
1
60
0
100
AcDbSpline
70
4
71
3
72
12
73
8
40
0
40
0
40
0
40
0
40
0.428460135790328
40
0.428460135790328
40
0.714217439255481
40
0.714217439255481
40
1
40
1
40
1
40
1
41
1
10
19.620656629756
20
-21.8662881351293
30
0
41
1
10
19.6016430157726
20
-21.8531570483144
30
0
41
1
10
19.5826886041222
20
-21.8400554987926
30
0
41
1
10
19.551193746223
20
-21.8182734493529
30
0
41
1
10
19.5386192596323
20
-21.8095735417232
30
0
41
1
10
19.513523428139
20
-21.7922062394079
30
0
41
1
10
19.5010018103104
20
-21.7835386554609
30
0
41
1
10
19.4885075289107
20
-21.7748890607512
30
0
0
SPLINE
5
18C
100
AcDbEntity
8
1
62
256
6
ByLayer
370
18
48
1
60
0
100
AcDbSpline
70
4
71
2
72
6
73
3
40
0
40
0
40
0
40
1
40
1
40
1
41
0.907607206789761
10
20.0877222487188
20
-15.3156600721135
30
0
41
0.944930757554167
10
19.5332286089275
20
-15.4262534361897
30
0
41
1.02613459695995
10
19.0829820702305
20
-15.2216706974572
30
0
0
SPLINE
5
18D
100
AcDbEntity
8
1
62
256
6
ByLayer
370
18
48
1
60
0
100
AcDbSpline
70
4
71
2
72
6
73
3
40
0
40
0
40
0
40
1
40
1
40
1
41
0.903925475011232
10
21.9124099757786
20
-22.8271875440435
30
0
41
0.810919079535596
10
23.6344293102777
20
-22.4334385925394
30
0
41
1.02613459695995
10
24.7322023339341
20
-20.1177518361099
30
0
0
SPLINE
5
18E
100
AcDbEntity
8
1
62
256
6
ByLayer
370
18
48
1
60
0
100
AcDbSpline
70
4
71
2
72
6
73
3
40
0
40
0
40
0
40
1
40
1
40
1
41
1
10
19.0829820702305
20
-15.2216706974572
30
0
41
1
10
19.0422909738676
20
-15.2031815027151
30
0
41
1
10
19.0015998775047
20
-15.1846923079729
30
0
0
SPLINE
5
18F
100
AcDbEntity
8
1
62
256
6
ByLayer
370
18
48
1
60
0
100
AcDbSpline
70
4
71
3
72
12
73
8
40
0
40
0
40
0
40
0
40
0.420092209678178
40
0.420092209678178
40
0.710032996834646
40
0.710032996834646
40
1
40
1
40
1
40
1
41
1
10
19.7574474195414
20
-21.9605124770843
30
0
41
1
10
19.7381525546577
20
-21.9472631897704
30
0
41
1
10
19.7189157803287
20
-21.9340334714807
30
0
41
1
10
19.6865023709067
20
-21.9117138010101
30
0
41
1
10
19.6732942592076
20
-21.9026108698279
30
0
41
1
10
19.6469336446727
20
-21.8844300297507
30
0
41
1
10
19.633780848641
20
-21.8753519174124
30
0
41
1
10
19.620656629756
20
-21.8662881351293
30
0
0
SPLINE
5
190
100
AcDbEntity
8
1
62
256
6
ByLayer
370
18
48
1
60
0
100
AcDbSpline
70
4
71
3
72
8
73
4
40
0
40
0
40
0
40
0
40
1
40
1
40
1
40
1
41
1
10
20.9609847588647
20
24.6427113305059
30
0
41
1
10
20.9475812745097
20
24.5913467317342
30
0
41
1
10
20.934183755441
20
24.5399825588158
30
0
41
1
10
20.92079238
20
24.4886190390076
30
0
0
SPLINE
5
191
100
AcDbEntity
8
1
62
256
6
ByLayer
370
18
48
1
60
0
100
AcDbSpline
70
4
71
2
72
6
73
3
40
0
40
0
40
0
40
1
40
1
40
1
41
1.02613459695995
10
33.2988481301062
20
-2.04692317688116
30
0
41
0.832186087684348
10
34.2628602329875
20
-0.0133971094938641
30
0
41
0.888553941463209
10
33.7195942747614
20
1.51640397110637
30
0
0
SPLINE
5
192
100
AcDbEntity
8
1
62
256
6
ByLayer
370
18
48
1
60
0
100
AcDbSpline
70
4
71
3
72
14
73
10
40
0
40
0
40
0
40
0
40
0.25714677776588
40
0.25714677776588
40
0.515043459777445
40
0.515043459777445
40
0.762218147059629
40
0.762218147059629
40
1
40
1
40
1
40
1
41
1
10
17.4303191742212
20
23.4553549429959
30
0
41
1
10
17.4691434490962
20
23.6190346355062
30
0
41
1
10
17.5852680371713
20
23.7696203769467
30
0
41
1
10
17.9643662295079
20
24.0254564367266
30
0
41
1
10
18.233500730627
20
24.1343161849438
30
0
41
1
10
18.8755030997166
20
24.301589819967
30
0
41
1
10
19.2526493539829
20
24.3645598084091
30
0
41
1
10
20.053239606227
20
24.4510990768829
30
0
41
1
10
20.4852178413433
20
24.4774760852936
30
0
41
1
10
20.92079238
20
24.4886190390076
30
0
0
SPLINE
5
193
100
AcDbEntity
8
1
62
256
6
ByLayer
370
18
48
1
60
0
100
AcDbSpline
70
4
71
2
72
6
73
3
40
0
40
0
40
0
40
1
40
1
40
1
41
0.876651215935319
10
21.2836320896423
20
-14.742950459806
30
0
41
0.873243145785522
10
20.9300674217375
20
-15.0092889075663
30
0
41
0.884527277494913
10
20.5720633185277
20
-15.1627204350911
30
0
0
SPLINE
5
194
100
AcDbEntity
8
1
62
256
6
ByLayer
370
18
48
1
60
0
100
AcDbSpline
70
4
71
2
72
6
73
3
40
0
40
0
40
0
40
1
40
1
40
1
41
0.884527277494913
10
20.5720633185278
20
-15.1627204350911
30
0
41
0.892447858246522
10
20.3261799141491
20
-15.2680998594848
30
0
41
0.907607206789761
10
20.0877222487188
20
-15.3156600721135
30
0
0
SPLINE
5
195
100
AcDbEntity
8
1
62
256
6
ByLayer
370
18
48
1
60
0
100
AcDbSpline
70
4
71
3
72
11
73
7
40
0
40
0
40
0
40
0
40
0.226430860288851
40
0.381144688231081
40
0.69057234411554
40
1
40
1
40
1
40
1
41
1
10
19.7574474195414
20
-21.9605124770843
30
0
41
1
10
19.4498830389383
20
-21.6487722689422
30
0
41
1
10
19.0009320424963
20
-21.0277681190269
30
0
41
1
10
18.4526442199282
20
-19.6419372925934
30
0
41
1
10
18.2560196992742
20
-17.7703411064842
30
0
41
1
10
18.6848541180901
20
-16.0613390276341
30
0
41
1
10
19.0829820702305
20
-15.2216706974572
30
0
0
SPLINE
5
196
100
AcDbEntity
8
1
62
256
6
ByLayer
370
18
48
1
60
0
100
AcDbSpline
70
4
71
3
72
10
73
6
40
0
40
0
40
0
40
0
40
0.187316293087344
40
0.593658146543672
40
1
40
1
40
1
40
1
41
1.02613459695995
10
29.9748016832355
20
2.91433394959562
30
0
41
1.02613459695995
10
29.6857283125485
20
2.85076883835368
30
0
41
1.02613459695995
10
28.7618969294601
20
2.55779903320935
30
0
41
1.02613459695995
10
27.2204651963351
20
1.55692085727486
30
0
41
1.02613459695995
10
26.1715398185074
20
0.148676732648809
30
0
41
1.02613459695995
10
25.7735343217165
20
-0.691050991105561
30
0
0
SPLINE
5
197
100
AcDbEntity
8
1
62
256
6
ByLayer
370
18
48
1
60
0
100
AcDbSpline
70
4
71
3
72
10
73
6
40
0
40
0
40
0
40
0
40
0.568935487604417
40
0.758580650139222
40
1
40
1
40
1
40
1
41
1.02613459695995
10
33.2988481301062
20
-2.04692317688116
30
0
41
1.02613459695995
10
32.5176035202655
20
-1.6671804420873
30
0
41
1.02613459695995
10
31.3034502196748
20
-1.5154754893278
30
0
41
1.02613459695995
10
29.6358732589255
20
-2.02965489145248
30
0
41
1.02613459695995
10
28.9223336439257
20
-2.43357147918802
30
0
41
1.02613459695995
10
28.5364531859684
20
-2.71891651151461
30
0
0
SPLINE
5
198
100
AcDbEntity
8
1
62
256
6
ByLayer
370
18
48
1
60
0
100
AcDbSpline
70
4
71
3
72
8
73
4
40
0
40
0
40
0
40
0
40
1
40
1
40
1
40
1
41
1
10
21.4150979665882
20
24.6479715189708
30
0
41
1
10
21.2634715016933
20
24.6479715189708
30
0
41
1
10
21.1115905576073
20
24.6462211497246
30
0
41
1
10
20.9609847588647
20
24.6427113305059
30
0
0
SPLINE
5
199
100
AcDbEntity
8
1
62
256
6
ByLayer
370
18
48
1
60
0
100
AcDbSpline
70
4
71
3
72
11
73
7
40
0
40
0
40
0
40
0
40
0.687129713937143
40
0.687129713937143
40
0.687129713937143
40
1
40
1
40
1
40
1
41
1
10
21.4150979665882
20
-22.7127667636366
30
0
41
1
10
21.0054576158829
20
-22.5953668404812
30
0
41
1
10
20.6007871667788
20
-22.4407060772036
30
0
41
1
10
20.2370031524139
20
-22.2491880642594
30
0
41
1
10
20.0694943316924
20
-22.1610012412315
30
0
41
1
10
19.9088834514276
20
-22.0644997041647
30
0
41
1
10
19.7574474195414
20
-21.9605124770843
30
0
0
SPLINE
5
19A
100
AcDbEntity
8
SK1
62
256
6
ByLayer
370
18
48
1
60
0
100
AcDbSpline
70
4
71
3
72
22
73
18
40
0
40
0
40
0
40
0
40
0.0260455644157247
40
0.0260455644157247
40
0.0526262165848557
40
0.0526262165848557
40
0.0706056579866929
40
0.0706056579866929
40
0.0884949509195805
40
0.0884949509195805
40
0.11748921873202
40
0.11748921873202
40
0.17459086731972
40
0.17459086731972
40
0.37652425293745
40
0.37652425293745
40
1
40
1
40
1
40
1
41
1
10
-0.394976888872947
20
-5.38678223324206
30
0
41
1
10
-0.389612432086437
20
-5.38222504185003
30
0
41
1
10
-0.383763200778958
20
-5.37811700449893
30
0
41
1
10
-0.3709728888754
20
-5.37184824531644
30
0
41
1
10
-0.363785592650885
20
-5.36968256852501
30
0
41
1
10
-0.351475656346565
20
-5.3691458249703
30
0
41
1
10
-0.346317238365032
20
-5.36979468027801
30
0
41
1
10
-0.336550133197363
20
-5.3727304206256
30
0
41
1
10
-0.331829865964124
20
-5.3750241182685
30
0
41
1
10
-0.32051111143835
20
-5.38234306083376
30
0
41
1
10
-0.314321448136184
20
-5.3882440687963
30
0
41
1
10
-0.298260159254511
20
-5.40702817233921
30
0
41
1
10
-0.290032841564653
20
-5.42147709180324
30
0
41
1
10
-0.258449669573651
20
-5.48745345024415
30
0
41
1
10
-0.24608390551893
20
-5.5434138926733
30
0
41
1
10
-0.204764795451922
20
-5.7670899064446
30
0
41
1
10
-0.200000000000358
20
-5.93709576978202
30
0
41
1
10
-0.200000000000358
20
-6.10344667966001
30
0
0
SPLINE
5
19B
100
AcDbEntity
8
SK1
62
256
6
ByLayer
370
18
48
1
60
0
100
AcDbSpline
70
4
71
3
72
10
73
6
40
0
40
0
40
0
40
0
40
0.5
40
0.5
40
1
40
1
40
1
40
1
41
1
10
-1.30710678118655
20
-3.91806548153784
30
0
41
1
10
-1.53227959010832
20
-2.67440369212437
30
0
41
1
10
-1.71681589069689
20
-1.34075776539186
30
0
41
1
10
-1.71598271729604
20
1.35050010337164
30
0
41
1
10
-1.53230696904976
20
2.67425240209695
30
0
41
1
10
-1.30710678118655
20
3.91806548057698
30
0
0
SPLINE
5
19C
100
AcDbEntity
8
SK1
62
256
6
ByLayer
370
18
48
1
60
0
100
AcDbSpline
70
4
71
3
72
22
73
18
40
0
40
0
40
0
40
0
40
0.359503326352592
40
0.359503326352592
40
0.722215553677066
40
0.722215553677066
40
0.826527133697721
40
0.826527133697721
40
0.863141914878009
40
0.863141914878009
40
0.900378805007221
40
0.900378805007221
40
0.933500873078508
40
0.933500873078508
40
0.972947835056124
40
0.972947835056124
40
1
40
1
40
1
40
1
41
1
10
-1.30710678118655
20
-3.91806548153781
30
0
41
1
10
-1.26486058419175
20
-4.15139729989579
30
0
41
1
10
-1.21446435132796
20
-4.3814323255595
30
0
41
1
10
-1.08204001032738
20
-4.82987250608483
30
0
41
1
10
-1.00537527699572
20
-5.05527264511531
30
0
41
1
10
-0.832356114396674
20
-5.30654108347395
30
0
41
1
10
-0.78723829488635
20
-5.36152992388779
30
0
41
1
10
-0.709490490588593
20
-5.41877880440927
30
0
41
1
10
-0.687203973712826
20
-5.43218986569767
30
0
41
1
10
-0.639076749164047
20
-5.45244590583036
30
0
41
1
10
-0.612446414061708
20
-5.45928056674788
30
0
41
1
10
-0.562058433231044
20
-5.46233960302246
30
0
41
1
10
-0.537713914852588
20
-5.45964677314575
30
0
41
1
10
-0.488053852696936
20
-5.44628701250068
30
0
41
1
10
-0.462609559288751
20
-5.43420976008088
30
0
41
1
10
-0.423860760477311
20
-5.40985221311715
30
0
41
1
10
-0.408979654247759
20
-5.39867780521598
30
0
41
1
10
-0.394976888875391
20
-5.38678223323953
30
0
0
SPLINE
5
19D
100
AcDbEntity
8
SK1
62
256
6
ByLayer
370
18
48
1
60
0
100
AcDbSpline
70
4
71
3
72
24
73
20
40
0
40
0
40
0
40
0
40
0.469770575826712
40
0.469770575826712
40
0.663612078687295
40
0.663612078687295
40
0.860454184613411
40
0.860454184613411
40
0.903064590395674
40
0.903064590395674
40
0.923089343972159
40
0.923089343972159
40
0.943389594779288
40
0.943389594779288
40
0.961332284531898
40
0.961332284531898
40
0.988068136377815
40
0.988068136377815
40
1
40
1
40
1
40
1
41
1
10
-0.199999999999989
20
6.10344849123027
30
0
41
1
10
-0.199999999999989
20
5.97798788494984
30
0
41
1
10
-0.204016575726513
20
5.8509635670122
30
0
41
1
10
-0.223752631922082
20
5.67079358995508
30
0
41
1
10
-0.231244965282229
20
5.61789623093799
30
0
41
1
10
-0.253819137983157
20
5.51250015101135
30
0
41
1
10
-0.267096215270385
20
5.45724004647028
30
0
41
1
10
-0.303692478692511
20
5.40035311573845
30
0
41
1
10
-0.311479622041333
20
5.39039941672755
30
0
41
1
10
-0.32547775761438
20
5.37891036834915
30
0
41
1
10
-0.330455622185014
20
5.3756771312581
30
0
41
1
10
-0.341078704143143
20
5.37102422840917
30
0
41
1
10
-0.346883276538165
20
5.36960762575521
30
0
41
1
10
-0.357630415747764
20
5.36914354197148
30
0
41
1
10
-0.362713068049572
20
5.36981917830482
30
0
41
1
10
-0.37458340180882
20
5.37316903610403
30
0
41
1
10
-0.3812109954861
20
5.37664910167555
30
0
41
1
10
-0.38989246528871
20
5.38265091141974
30
0
41
1
10
-0.392483363308571
20
5.38466360919151
30
0
41
1
10
-0.394976888875334
20
5.38678189578178
30
0
0
SPLINE
5
19E
100
AcDbEntity
8
SK1
62
256
6
ByLayer
370
18
48
1
60
0
100
AcDbSpline
70
4
71
3
72
22
73
18
40
0
40
0
40
0
40
0
40
0.0394331151890913
40
0.0394331151890913
40
0.0795339708694829
40
0.0795339708694829
40
0.109637917244288
40
0.109637917244288
40
0.13957706301322
40
0.13957706301322
40
0.189266399657458
40
0.189266399657458
40
0.289571152403382
40
0.289571152403382
40
0.658284396834382
40
0.658284396834382
40
1
40
1
40
1
40
1
41
1
10
-0.394976888875306
20
5.38678189578292
30
0
41
1
10
-0.415237014773396
20
5.40399317028476
30
0
41
1
10
-0.437419275645453
20
5.41977813092004
30
0
41
1
10
-0.486103141154984
20
5.44521655864725
30
0
41
1
10
-0.51341298093098
20
5.45496005292577
30
0
41
1
10
-0.562874322366525
20
5.46212264681108
30
0
41
1
10
-0.585106616517606
20
5.46199323188387
30
0
41
1
10
-0.627692822126733
20
5.45533455005088
30
0
41
1
10
-0.648523068172722
20
5.44883772858989
30
0
41
1
10
-0.699826196362153
20
5.42613682765011
30
0
41
1
10
-0.728695564403438
20
5.40623396070797
30
0
41
1
10
-0.806075449923839
20
5.34007786619352
30
0
41
1
10
-0.847522380016557
20
5.28655870152033
30
0
41
1
10
-1.01570466784384
20
5.03084699030373
30
0
41
1
10
-1.09210771407481
20
4.80149729085085
30
0
41
1
10
-1.21929875138233
20
4.35887826398974
30
0
41
1
10
-1.26692602208391
20
4.13998960128646
30
0
41
1
10
-1.30710678118655
20
3.91806548057696
30
0
0
SPLINE
5
19F
100
AcDbEntity
8
1
62
256
6
ByLayer
370
18
48
1
60
0
100
AcDbSpline
70
4
71
3
72
10
73
6
40
0
40
0
40
0
40
0
40
0.731096563947339
40
0.731096563947339
40
1
40
1
40
1
40
1
41
1
10
29.4787749791874
20
-14.9762343586197
30
0
41
1
10
29.421600922365
20
-14.9154913093985
30
0
41
1
10
29.3570800124687
20
-14.8547651005521
30
0
41
1
10
29.2673802018993
20
-14.7782729083765
30
0
41
1
10
29.24273490843
20
-14.7580111674982
30
0
41
1
10
29.2180508667399
20
-14.7383758681083
30
0
0
SPLINE
5
1A0
100
AcDbEntity
8
1
62
256
6
ByLayer
370
18
48
1
60
0
100
AcDbSpline
70
4
71
3
72
12
73
8
40
0
40
0
40
0
40
0
40
0.499999999999998
40
0.499999999999998
40
0.749999999999999
40
0.749999999999999
40
1
40
1
40
1
40
1
41
1
10
49.6849275738097
20
-20.1449410708024
30
0
41
1
10
49.4726878895825
20
-19.8244010779484
30
0
41
1
10
49.2666419547333
20
-19.4777380361886
30
0
41
1
10
49.0478344896439
20
-18.8363410409163
30
0
41
1
10
48.9906621729074
20
-18.5933752806409
30
0
41
1
10
49.0133235493303
20
-18.1764687869746
30
0
41
1
10
49.1057660265825
20
-18.0527559065334
30
0
41
1
10
49.2130129489198
20
-18.0111505545418
30
0
0
SPLINE
5
1A1
100
AcDbEntity
8
1
62
256
6
ByLayer
370
18
48
1
60
0
100
AcDbSpline
70
4
71
3
72
8
73
4
40
0
40
0
40
0
40
0
40
1
40
1
40
1
40
1
41
1
10
30.1647170718539
20
-5.35708846160355
30
0
41
1
10
30.6571415576963
20
-6.3886841884877
30
0
41
1
10
31.264602071559
20
-7.74057773586833
30
0
41
1
10
31.8659885691659
20
-9.15270912532864
30
0
0
SPLINE
5
1A2
100
AcDbEntity
8
1
62
256
6
ByLayer
370
18
48
1
60
0
100
AcDbSpline
70
4
71
1
72
4
73
2
40
0
40
0
40
1
40
1
41
1
10
39.423416856274
20
-8.4618752449588
30
0
41
1
10
39.6892903580243
20
-6.36328860135834
30
0
0
SPLINE
5
1A3
100
AcDbEntity
8
1
62
256
6
ByLayer
370
18
48
1
60
0
100
AcDbSpline
70
4
71
3
72
14
73
10
40
0
40
0
40
0
40
0
40
0.264998964150956
40
0.264998964150956
40
0.633007150607454
40
0.633007150607454
40
0.984533813617861
40
0.984533813617861
40
1
40
1
40
1
40
1
41
1
10
52.9217411183745
20
-19.5294991164146
30
0
41
1
10
53.0069528874043
20
-19.6501646787267
30
0
41
1
10
53.0881752561319
20
-19.7867846223884
30
0
41
1
10
53.262671061272
20
-20.1397729457948
30
0
41
1
10
53.3505267466021
20
-20.3720440749916
30
0
41
1
10
53.4815152718676
20
-20.8387965525559
30
0
41
1
10
53.5282434374213
20
-21.0780442519144
30
0
41
1
10
53.5587253413354
20
-21.3220289438002
30
0
41
1
10
53.5599893931224
20
-21.3324047974885
30
0
41
1
10
53.5612207894112
20
-21.342774825101
30
0
0
SPLINE
5
1A4
100
AcDbEntity
8
1
62
256
6
ByLayer
370
18
48
1
60
0
100
AcDbSpline
70
4
71
3
72
8
73
4
40
0
40
0
40
0
40
0
40
1
40
1
40
1
40
1
41
1
10
24.8262522149929
20
-16.7913025868008
30
0
41
1
10
25.9003111540109
20
-16.4505044896758
30
0
41
1
10
27.6857536289313
20
-15.7523550088708
30
0
41
1
10
29.4787749791874
20
-14.9762343586197
30
0
0
SPLINE
5
1A5
100
AcDbEntity
8
1
62
256
6
ByLayer
370
18
48
1
60
0
100
AcDbSpline
70
4
71
3
72
8
73
4
40
0
40
0
40
0
40
0
40
1
40
1
40
1
40
1
41
1
10
30.7169513969343
20
-4.35345516704155
30
0
41
1
10
30.7127011511744
20
-4.36644690528533
30
0
41
1
10
30.7082923977722
20
-4.37966696965654
30
0
41
1
10
30.7037501522867
20
-4.39307103889601
30
0
0
SPLINE
5
1A6
100
AcDbEntity
8
1
62
256
6
ByLayer
370
18
48
1
60
0
100
AcDbSpline
70
4
71
3
72
11
73
7
40
0
40
0
40
0
40
0
40
0.425230898251466
40
0.744154071940065
40
0.956769521065798
40
1
40
1
40
1
40
1
41
1.0258173342201
10
33.5113413971217
20
-20.9330460140959
30
0
41
1.02559001729416
10
34.5836425385852
20
-21.3239566191953
30
0
41
1.0228008665691
10
38.6190095636278
20
-21.9492050212294
30
0
41
1.01953314781965
10
44.3781235822508
20
-22.1909448132291
30
0
41
1.01775466813745
10
46.3714277545478
20
-22.2616639204394
30
0
41
1.01823166218985
10
47.0166725959102
20
-22.396472269966
30
0
41
1.01834276704992
10
47.1222628312571
20
-22.4214633005153
30
0
0
SPLINE
5
1A7
100
AcDbEntity
8
1
62
256
6
ByLayer
370
18
48
1
60
0
100
AcDbSpline
70
4
71
3
72
16
73
12
40
0
40
0
40
0
40
0
40
0.474320436274421
40
0.474320436274421
40
0.658954025821058
40
0.658954025821058
40
0.845504004041773
40
0.845504004041773
40
0.95785819196072
40
0.95785819196072
40
1
40
1
40
1
40
1
41
1
10
30.7037501522869
20
-4.39307103889612
30
0
41
1
10
30.6713780524044
20
-4.48860041299963
30
0
41
1
10
30.616181030765
20
-4.60599961507413
30
0
41
1
10
30.5033903718074
20
-4.81070482471358
30
0
41
1
10
30.4672014939892
20
-4.87389582708971
30
0
41
1
10
30.3868951719567
20
-5.0101266414338
30
0
41
1
10
30.3419020125712
20
-5.08481739047886
30
0
41
1
10
30.2641828226135
20
-5.20883695957332
30
0
41
1
10
30.2329974520011
20
-5.2575098482065
30
0
41
1
10
30.1891518232873
20
-5.3222937403516
30
0
41
1
10
30.1769319765964
20
-5.33996186003276
30
0
41
1
10
30.1647170718539
20
-5.35708846160355
30
0
0
SPLINE
5
1A8
100
AcDbEntity
8
1
62
256
6
ByLayer
370
18
48
1
60
0
100
AcDbSpline
70
4
71
3
72
12
73
8
40
0
40
0
40
0
40
0
40
0.274077856982874
40
0.274077856982874
40
0.54815536396517
40
0.54815536396517
40
1
40
1
40
1
40
1
41
1
10
40.7084900435336
20
-18.1422591658699
30
0
41
1
10
40.8550560886175
20
-17.9605837250175
30
0
41
1
10
40.9902433574571
20
-17.7686821231334
30
0
41
1
10
41.2342593480943
20
-17.3697649402392
30
0
41
1
10
41.3436475243355
20
-17.1618355373834
30
0
41
1
10
41.5953884060569
20
-16.5976485671772
30
0
41
1
10
41.7150781720199
20
-16.2282877390659
30
0
41
1
10
41.7933887836265
20
-15.8537299431981
30
0
0
SPLINE
5
1A9
100
AcDbEntity
8
1
62
256
6
ByLayer
370
18
48
1
60
0
100
AcDbSpline
70
4
71
3
72
11
73
7
40
0
40
0
40
0
40
0
40
0.0598016998824438
40
0.468392215028713
40
0.740785891792892
40
1
40
1
40
1
40
1
41
1.0229825050537
10
40.7084900434572
20
-18.1422591658379
30
0
41
1.02281639303114
10
40.931531570455
20
-18.235502728687
30
0
41
1.02150796927553
10
42.6969489468082
20
-18.9688543302226
30
0
41
1.01953314781965
10
45.5805389843001
20
-20.1023726940898
30
0
41
1.01726237988674
10
47.727559752562
20
-20.8809912997981
30
0
41
1.01931548101018
10
48.5126979640416
20
-21.2168910248353
30
0
41
1.02052415826821
10
49.0727241229686
20
-21.4363477575924
30
0
0
SPLINE
5
1AA
100
AcDbEntity
8
1
62
256
6
ByLayer
370
18
48
1
60
0
100
AcDbSpline
70
4
71
3
72
11
73
7
40
0
40
0
40
0
40
0
40
0.425230898249524
40
0.744154071936667
40
0.956769521061429
40
1
40
1
40
1
40
1
41
1.0258173342201
10
39.423416856274
20
-8.46187524495881
30
0
41
1.02559001729416
10
40.4056396094511
20
-9.04280084090689
30
0
41
1.0228008665691
10
43.4431526298706
20
-11.7729627851075
30
0
41
1.01953314781965
10
47.2861853972887
20
-16.056561760744
30
0
41
1.01775466813744
10
48.609914980118
20
-17.5397085517803
30
0
41
1.01823166218986
10
49.1262176698133
20
-17.9465126841309
30
0
41
1.01834276704995
10
49.2130129489198
20
-18.0111505545418
30
0
0
SPLINE
5
1AB
100
AcDbEntity
8
1
62
256
6
ByLayer
370
18
48
1
60
0
100
AcDbSpline
70
4
71
3
72
8
73
4
40
0
40
0
40
0
40
0
40
1
40
1
40
1
40
1
41
1
10
38.9630798326396
20
-10.2172797326949
30
0
41
1
10
38.8965488507195
20
-10.1821898190172
30
0
41
1
10
38.8292042642719
20
-10.1485308173369
30
0
41
1
10
38.7610171550884
20
-10.116354581213
30
0
0
SPLINE
5
1AC
100
AcDbEntity
8
1
62
256
6
ByLayer
370
18
48
1
60
0
100
AcDbSpline
70
4
71
3
72
10
73
6
40
0
40
0
40
0
40
0
40
0.914968234315958
40
0.914968234315958
40
1
40
1
40
1
40
1
41
1
10
49.0727241229686
20
-21.4363477575924
30
0
41
1
10
49.5082941581525
20
-21.3865944392753
30
0
41
1
10
49.9390375578204
20
-21.3449326932686
30
0
41
1
10
50.4040601051053
20
-21.3077242628498
30
0
41
1
10
50.4435639439358
20
-21.3046304292348
30
0
41
1
10
50.4830177844523
20
-21.3016098748713
30
0
0
SPLINE
5
1AD
100
AcDbEntity
8
1
62
256
6
ByLayer
370
18
48
1
60
0
100
AcDbSpline
70
4
71
2
72
6
73
3
40
0
40
0
40
0
40
1
40
1
40
1
41
0.943993461863076
10
34.5555355765133
20
-19.5147316124044
30
0
41
0.955129617927099
10
33.9394057697033
20
-20.496736238748
30
0
41
1.0258173342201
10
33.5113413971217
20
-20.9330460140959
30
0
0
SPLINE
5
1AE
100
AcDbEntity
8
1
62
256
6
ByLayer
370
18
48
1
60
0
100
AcDbSpline
70
4
71
3
72
8
73
4
40
0
40
0
40
0
40
0
40
1
40
1
40
1
40
1
41
1
10
29.9615181386964
20
-5.70241812767833
30
0
41
1
10
30.0201465220711
20
-5.57874504771917
30
0
41
1
10
30.0883602658069
20
-5.46414886215106
30
0
41
1
10
30.1647170718539
20
-5.35708846160355
30
0
0
SPLINE
5
1AF
100
AcDbEntity
8
1
62
256
6
ByLayer
370
18
48
1
60
0
100
AcDbSpline
70
4
71
3
72
11
73
7
40
0
40
0
40
0
40
0
40
0.0598016998855047
40
0.468392215040457
40
0.740785891810425
40
1
40
1
40
1
40
1
41
1.02298250505371
10
41.7933887835528
20
-15.8537299431596
30
0
41
1.02281639303115
10
42.0075412188074
20
-15.9657245151888
30
0
41
1.02150796927554
10
43.6992508058966
20
-16.8545583045534
30
0
41
1.01953314781965
10
46.4166830886032
20
-18.3385765476444
30
0
41
1.0172623798868
10
48.392999195499
20
-19.4772864608696
30
0
41
1.01931548101
10
49.155943696775
20
-19.8600024945744
30
0
41
1.02052415826788
10
49.6849275736537
20
-20.1449410707184
30
0
0
SPLINE
5
1B0
100
AcDbEntity
8
1
62
256
6
ByLayer
370
18
48
1
60
0
100
AcDbSpline
70
4
71
3
72
10
73
6
40
0
40
0
40
0
40
0
40
0.5
40
0.5
40
1
40
1
40
1
40
1
41
1
10
41.7933887836265
20
-15.8537299431981
30
0
41
1
10
42.0256955461353
20
-14.7423243523676
30
0
41
1
10
41.7994331873082
20
-13.577901021921
30
0
41
1
10
40.7669486780278
20
-11.5916924325499
30
0
41
1
10
39.9599999636381
20
-10.7430717963406
30
0
41
1
10
38.9630798326396
20
-10.2172797326949
30
0
0
SPLINE
5
1B1
100
AcDbEntity
8
1
62
256
6
ByLayer
370
18
48
1
60
0
100
AcDbSpline
70
4
71
3
72
10
73
6
40
0
40
0
40
0
40
0
40
0.731297369966762
40
0.731297369966762
40
1
40
1
40
1
40
1
41
1
10
31.8659885691659
20
-9.15270912532864
30
0
41
1
10
31.9486531083266
20
-9.17101061648623
30
0
41
1
10
32.0357466636162
20
-9.18605132460135
30
0
41
1
10
32.1525851895302
20
-9.19904983938386
30
0
41
1
10
32.1841837103279
20
-9.20184355807501
30
0
41
1
10
32.2152353159034
20
-9.20383439553754
30
0
0
SPLINE
5
1B2
100
AcDbEntity
8
1
62
256
6
ByLayer
370
18
48
1
60
0
100
AcDbSpline
70
4
71
3
72
14
73
10
40
0
40
0
40
0
40
0
40
0.0560617400824658
40
0.0560617400824658
40
0.432699965147829
40
0.432699965147829
40
0.811345304670928
40
0.811345304670928
40
1
40
1
40
1
40
1
41
1
10
52.5185124605511
20
-23.5423058902011
30
0
41
1
10
52.4867510537852
20
-23.5624359090485
30
0
41
1
10
52.4546472429437
20
-23.5823030089857
30
0
41
1
10
52.2065583946778
20
-23.7320682109505
30
0
41
1
10
51.9730657651512
20
-23.8506291611699
30
0
41
1
10
51.5040777120702
20
-24.0400014279088
30
0
41
1
10
51.2622869109179
20
-24.112824018341
30
0
41
1
10
50.9228991122824
20
-24.1793075914003
30
0
41
1
10
50.8119890258637
20
-24.1948542203155
30
0
41
1
10
50.705805777907
20
-24.2038826278016
30
0
0
SPLINE
5
1B3
100
AcDbEntity
8
1
62
256
6
ByLayer
370
18
48
1
60
0
100
AcDbSpline
70
4
71
3
72
10
73
6
40
0
40
0
40
0
40
0
40
0.5
40
0.5
40
1
40
1
40
1
40
1
41
1
10
49.9042653686218
20
-24.5538184126178
30
0
41
1
10
48.9958244551823
20
-24.5487053928658
30
0
41
1
10
48.4153078735728
20
-24.228587447016
30
0
41
1
10
47.5362768533491
20
-23.4612138558999
30
0
41
1
10
47.3185749774331
20
-22.9422639671488
30
0
41
1
10
47.122262831257
20
-22.4214633005153
30
0
0
SPLINE
5
1B4
100
AcDbEntity
8
1
62
256
6
ByLayer
370
18
48
1
60
0
100
AcDbSpline
70
4
71
2
72
6
73
3
40
0
40
0
40
0
40
1
40
1
40
1
41
1.0258173342201
10
33.5113413971217
20
-20.9330460140959
30
0
41
1.0258173342201
10
32.8060703878466
20
-21.6519019977424
30
0
41
1.0258173342201
10
32.1007993785715
20
-22.370757981389
30
0
0
SPLINE
5
1B5
100
AcDbEntity
8
1
62
256
6
ByLayer
370
18
48
1
60
0
100
AcDbSpline
70
4
71
3
72
8
73
4
40
0
40
0
40
0
40
0
40
1
40
1
40
1
40
1
41
1
10
25.361229346152
20
-15.4064531176842
30
0
41
1
10
25.3026009627773
20
-15.5301261976434
30
0
41
1
10
25.256907435018
20
-15.655810611414
30
0
41
1
10
25.2220761782305
20
-15.7832948016246
30
0
0
SPLINE
5
1B6
100
AcDbEntity
8
1
62
256
6
ByLayer
370
18
48
1
60
0
100
AcDbSpline
70
4
71
3
72
16
73
12
40
0
40
0
40
0
40
0
40
0.107738294188995
40
0.107738294188995
40
0.260376815889414
40
0.260376815889414
40
0.501548994683953
40
0.501548994683953
40
0.879664328740045
40
0.879664328740045
40
1
40
1
40
1
40
1
41
1
10
25.2220761782305
20
-15.7832948016246
30
0
41
1
10
25.2080206522918
20
-15.8347387490314
30
0
41
1
10
25.1914301694828
20
-15.8882787807692
30
0
41
1
10
25.1513581655616
20
-16.0117335497554
30
0
41
1
10
25.1270639671117
20
-16.0818989148309
30
0
41
1
10
25.0678990867965
20
-16.2485647369244
30
0
41
1
10
25.0336096533477
20
-16.3406152412724
30
0
41
1
10
24.9528145809692
20
-16.5456972273058
30
0
41
1
10
24.9082865608963
20
-16.6454918819467
30
0
41
1
10
24.8527403087248
20
-16.7477750365362
30
0
41
1
10
24.8394279947586
20
-16.7705130188335
30
0
41
1
10
24.8262522149944
20
-16.7913025868136
30
0
0
SPLINE
5
1B7
100
AcDbEntity
8
1
62
256
6
ByLayer
370
18
48
1
60
0
100
AcDbSpline
70
4
71
3
72
8
73
4
40
0
40
0
40
0
40
0
40
1
40
1
40
1
40
1
41
1
10
32.6248239938486
20
-2.97665553451765
30
0
41
1
10
32.1533713692617
20
-2.74692167149465
30
0
41
1
10
31.5938231735269
20
-2.54333581564811
30
0
41
1
10
30.9573466224067
20
-2.47467893423757
30
0
0
SPLINE
5
1B8
100
AcDbEntity
8
1
62
256
6
ByLayer
370
18
48
1
60
0
100
AcDbSpline
70
4
71
3
72
8
73
4
40
0
40
0
40
0
40
0
40
1
40
1
40
1
40
1
41
1
10
29.2180508667399
20
-14.7383758681083
30
0
41
1
10
28.9977690444493
20
-14.5631493154586
30
0
41
1
10
28.7599369229877
20
-14.4187831674371
30
0
41
1
10
28.5177134805887
20
-14.3026547203901
30
0
0
SPLINE
5
1B9
100
AcDbEntity
8
1
62
256
6
ByLayer
370
18
48
1
60
0
100
AcDbSpline
70
4
71
3
72
10
73
6
40
0
40
0
40
0
40
0
40
0.5
40
0.5
40
1
40
1
40
1
40
1
41
1
10
34.5555355765133
20
-19.5147316124045
30
0
41
1
10
35.5934173492961
20
-19.949690394354
30
0
41
1
10
36.7660138875659
20
-20.038574582013
30
0
41
1
10
38.9576068974033
20
-19.5833498570265
30
0
41
1
10
39.9951918349521
20
-19.0263298239542
30
0
41
1
10
40.7084900435337
20
-18.1422591658699
30
0
0
SPLINE
5
1BA
100
AcDbEntity
8
1
62
256
6
ByLayer
370
18
48
1
60
0
100
AcDbSpline
70
4
71
2
72
8
73
5
40
0
40
0
40
0
40
0.210534309729082
40
0.210534309729082
40
1
40
1
40
1
41
1
10
49.9074852247861
20
-24.551699618988
30
0
41
1
10
49.4173233091352
20
-24.6660107124479
30
0
41
1
10
48.9226037608217
20
-24.7583109136882
30
0
41
1
10
47.1313555611825
20
-25.0925054484739
30
0
41
1
10
45.5509105390597
20
-25.2111844730615
30
0
0
SPLINE
5
1BB
100
AcDbEntity
8
1
62
256
6
ByLayer
370
18
48
1
60
0
100
AcDbSpline
70
4
71
3
72
8
73
4
40
0
40
0
40
0
40
0
40
1
40
1
40
1
40
1
41
1
10
34.5555355766571
20
-19.5147316124651
30
0
41
1
10
34.4858632760283
20
-19.4854946734453
30
0
41
1
10
34.4170799103249
20
-19.4548651776665
30
0
41
1
10
34.3491945700598
20
-19.4228313407158
30
0
0
SPLINE
5
1BC
100
AcDbEntity
8
1
62
256
6
ByLayer
370
18
48
1
60
0
100
AcDbSpline
70
4
71
3
72
8
73
4
40
0
40
0
40
0
40
0
40
1
40
1
40
1
40
1
41
1
10
45.0947596204699
20
-25.0876080687516
30
0
41
1
10
45.2454792969642
20
-25.1327097392096
30
0
41
1
10
45.3973041194789
20
-25.1749405318704
30
0
41
1
10
45.5505539303013
20
-25.2128813827886
30
0
0
SPLINE
5
1BD
100
AcDbEntity
8
1
62
256
6
ByLayer
370
18
48
1
60
0
100
AcDbSpline
70
4
71
3
72
8
73
4
40
0
40
0
40
0
40
0
40
1
40
1
40
1
40
1
41
1
10
29.2180508667399
20
-14.7383758681083
30
0
41
1
10
27.7468894453456
20
-15.1616912591931
30
0
41
1
10
26.3208022044972
20
-15.5347402982723
30
0
41
1
10
25.2220761782305
20
-15.7832948016247
30
0
0
SPLINE
5
1BE
100
AcDbEntity
8
1
62
256
6
ByLayer
370
18
48
1
60
0
100
AcDbSpline
70
4
71
3
72
8
73
4
40
0
40
0
40
0
40
0
40
1
40
1
40
1
40
1
41
1
10
36.7979308394675
20
-9.19001044403728
30
0
41
1
10
35.6534785533092
20
-8.64996456978102
30
0
41
1
10
34.3900351433529
20
-8.62325911431989
30
0
41
1
10
33.2860404808968
20
-9.04595604456128
30
0
0
SPLINE
5
1BF
100
AcDbEntity
8
1
62
256
6
ByLayer
370
18
48
1
60
0
100
AcDbSpline
70
4
71
2
72
10
73
7
40
0
40
0
40
0
40
0.030364284240822
40
0.030364284240822
40
0.440077053271163
40
0.440077053271163
40
1
40
1
40
1
41
1
10
50.4330638075556
20
-14.9135022903434
30
0
41
1
10
50.456969303503
20
-14.9474317176059
30
0
41
1
10
50.4801510057745
20
-14.9806642874926
30
0
41
1
10
50.87231773467
20
-15.542862355287
30
0
41
1
10
51.3356581813747
20
-16.292626270594
30
0
41
1
10
52.1344218387182
20
-17.5851621832135
30
0
41
1
10
52.6847589636247
20
-18.6929935809075
30
0
0
SPLINE
5
1C0
100
AcDbEntity
8
1
62
256
6
ByLayer
370
18
48
1
60
0
100
AcDbSpline
70
4
71
3
72
10
73
6
40
0
40
0
40
0
40
0
40
0.311681797709781
40
0.311681797709781
40
1
40
1
40
1
40
1
41
1
10
50.4830177844716
20
-21.3016098748698
30
0
41
1
10
50.3990220665356
20
-21.1848564082856
30
0
41
1
10
50.3153701861104
20
-21.0669409514774
30
0
41
1
10
50.0480472173031
20
-20.6853251813791
30
0
41
1
10
49.8655263964521
20
-20.4177970544135
30
0
41
1
10
49.6849275738097
20
-20.1449410708024
30
0
0
SPLINE
5
1C1
100
AcDbEntity
8
1
62
256
6
ByLayer
370
18
48
1
60
0
100
AcDbSpline
70
4
71
3
72
20
73
16
40
0
40
0
40
0
40
0
40
0.118962056339779
40
0.118962056339779
40
0.191173230286446
40
0.191173230286446
40
0.263712164126318
40
0.263712164126318
40
0.333306822588755
40
0.333306822588755
40
0.451479822004393
40
0.451479822004393
40
0.654414534009038
40
0.654414534009038
40
1
40
1
40
1
40
1
41
1
10
47.122262831257
20
-22.4214633005153
30
0
41
1
10
47.1046496854935
20
-22.3725277243793
30
0
41
1
10
47.0994754562968
20
-22.3164257759369
30
0
41
1
10
47.1285501210375
20
-22.2168363998505
30
0
41
1
10
47.1488174512668
20
-22.1761135605944
30
0
41
1
10
47.2084493950352
20
-22.0944213138851
30
0
41
1
10
47.2486859515979
20
-22.0524795621181
30
0
41
1
10
47.3397122253839
20
-21.9752400511088
30
0
41
1
10
47.390834681619
20
-21.9388535770389
30
0
41
1
10
47.5347060752661
20
-21.8490083265478
30
0
41
1
10
47.6339958736238
20
-21.7993851902987
30
0
41
1
10
47.9023178230481
20
-21.683841744472
30
0
41
1
10
48.0763709213188
20
-21.6284083425174
30
0
41
1
10
48.5300463163285
20
-21.5102582246008
30
0
41
1
10
48.8070119279635
20
-21.4666543964491
30
0
41
1
10
49.0727241229686
20
-21.4363477575924
30
0
0
SPLINE
5
1C2
100
AcDbEntity
8
1
62
256
6
ByLayer
370
18
48
1
60
0
100
AcDbSpline
70
4
71
3
72
8
73
4
40
0
40
0
40
0
40
0
40
1
40
1
40
1
40
1
41
1
10
30.0380729336364
20
-15.8973499779376
30
0
41
1
10
29.9248452077026
20
-15.5632540165554
30
0
41
1
10
29.7316437012917
20
-15.244887976833
30
0
41
1
10
29.4787749791874
20
-14.9762343586197
30
0
0
SPLINE
5
1C3
100
AcDbEntity
8
1
62
256
6
ByLayer
370
18
48
1
60
0
100
AcDbSpline
70
4
71
3
72
8
73
4
40
0
40
0
40
0
40
0
40
1
40
1
40
1
40
1
41
1
10
45.0947596204699
20
-25.0876080687516
30
0
41
1
10
44.4706743844038
20
-24.9008555006096
30
0
41
1
10
43.6899349686757
20
-24.811910030811
30
0
41
1
10
42.8718443516916
20
-24.7871164309138
30
0
0
SPLINE
5
1C4
100
AcDbEntity
8
1
62
256
6
ByLayer
370
18
48
1
60
0
100
AcDbSpline
70
4
71
3
72
8
73
4
40
0
40
0
40
0
40
0
40
1
40
1
40
1
40
1
41
1
10
32.1007993785716
20
-22.370757981389
30
0
41
1
10
35.4880995046704
20
-23.9444102324155
30
0
41
1
10
39.1488137251174
20
-24.6742837815175
30
0
41
1
10
42.8718443516916
20
-24.7871164309138
30
0
0
SPLINE
5
1C5
100
AcDbEntity
8
1
62
256
6
ByLayer
370
18
48
1
60
0
100
AcDbSpline
70
4
71
3
72
8
73
4
40
0
40
0
40
0
40
0
40
1
40
1
40
1
40
1
41
1
10
38.9630798543018
20
-10.2172796688733
30
0
41
1
10
39.2111764756513
20
-9.48633228444666
30
0
41
1
10
39.3706896964036
20
-8.87806005740035
30
0
41
1
10
39.423416856274
20
-8.4618752449588
30
0
0
SPLINE
5
1C6
100
AcDbEntity
8
1
62
256
6
ByLayer
370
18
48
1
60
0
100
AcDbSpline
70
4
71
3
72
10
73
6
40
0
40
0
40
0
40
0
40
0.579529299651681
40
0.579529299651681
40
1
40
1
40
1
40
1
41
1
10
48.3944957109366
20
-13.1374125874132
30
0
41
1
10
48.7024619924147
20
-13.4894492481599
30
0
41
1
10
49.0258844037178
20
-13.8248364212968
30
0
41
1
10
49.5798764386904
20
-14.3178547183712
30
0
41
1
10
49.8170128921259
20
-14.5006953568911
30
0
41
1
10
50.0437786757776
20
-14.6479473768524
30
0
0
SPLINE
5
1C7
100
AcDbEntity
8
1
62
256
6
ByLayer
370
18
48
1
60
0
100
AcDbSpline
70
4
71
3
72
8
73
4
40
0
40
0
40
0
40
0
40
1
40
1
40
1
40
1
41
1
10
50.4330817512523
20
-14.9134799863199
30
0
41
1
10
50.3054379835806
20
-14.8215247137159
30
0
41
1
10
50.1753707251883
20
-14.7333976364752
30
0
41
1
10
50.0437786757776
20
-14.6479473768524
30
0
0
SPLINE
5
1C8
100
AcDbEntity
8
1
62
256
6
ByLayer
370
18
48
1
60
0
100
AcDbSpline
70
4
71
3
72
8
73
4
40
0
40
0
40
0
40
0
40
1
40
1
40
1
40
1
41
1
10
30.0380729336364
20
-15.8973499779376
30
0
41
1
10
30.4157856658531
20
-17.011849958888
30
0
41
1
10
31.228880733071
20
-17.9504129319876
30
0
41
1
10
32.3861082544388
20
-18.4964872035401
30
0
0
SPLINE
5
1C9
100
AcDbEntity
8
1
62
256
6
ByLayer
370
18
48
1
60
0
100
AcDbSpline
70
4
71
3
72
8
73
4
40
0
40
0
40
0
40
0
40
1
40
1
40
1
40
1
41
1
10
24.8262522149929
20
-16.7913025868008
30
0
41
1
10
24.8190566784418
20
-16.8026561536452
30
0
41
1
10
24.8119342712795
20
-16.8137652166297
30
0
41
1
10
24.8048759377819
20
-16.8246259361786
30
0
0
SPLINE
5
1CA
100
AcDbEntity
8
1
62
256
6
ByLayer
370
18
48
1
60
0
100
AcDbSpline
70
4
71
3
72
8
73
4
40
0
40
0
40
0
40
0
40
1
40
1
40
1
40
1
41
1
10
31.8659885691659
20
-9.15270912532864
30
0
41
1
10
31.5914526625173
20
-9.09192832960917
30
0
41
1
10
31.3299306618393
20
-8.99753456966849
30
0
41
1
10
31.0877072194403
20
-8.88140612262148
30
0
0
SPLINE
5
1CB
100
AcDbEntity
8
1
62
256
6
ByLayer
370
18
48
1
60
0
100
AcDbSpline
70
4
71
3
72
10
73
6
40
0
40
0
40
0
40
0
40
0.5
40
0.5
40
1
40
1
40
1
40
1
41
1
10
49.2130129489198
20
-18.0111505545418
30
0
41
1
10
49.7507636891102
20
-17.8114414837447
30
0
41
1
10
50.3014938876015
20
-17.6291444210124
30
0
41
1
10
51.4710613925838
20
-17.780547133224
30
0
41
1
10
52.0983743767069
20
-18.0066200003356
30
0
41
1
10
52.684382870347
20
-18.6893262643171
30
0
0
SPLINE
5
1CC
100
AcDbEntity
8
1
62
256
6
ByLayer
370
18
48
1
60
0
100
AcDbSpline
70
4
71
3
72
8
73
4
40
0
40
0
40
0
40
0
40
1
40
1
40
1
40
1
41
1
10
32.2152353159033
20
-9.20383439553754
30
0
41
1
10
31.6845604532828
20
-7.32083058473629
30
0
41
1
10
31.1020506150027
20
-5.47285047318621
30
0
41
1
10
30.7037501522869
20
-4.39307103889612
30
0
0
SPLINE
5
1CD
100
AcDbEntity
8
1
62
256
6
ByLayer
370
18
48
1
60
0
100
AcDbSpline
70
4
71
3
72
8
73
4
40
0
40
0
40
0
40
0
40
1
40
1
40
1
40
1
41
1
10
32.2152353159033
20
-9.20383439553754
30
0
41
1
10
32.5887134753147
20
-9.22777951197872
30
0
41
1
10
32.9555278045491
20
-9.17250257458454
30
0
41
1
10
33.2860404808968
20
-9.04595604456128
30
0
0
SPLINE
5
1CE
100
AcDbEntity
8
1
62
256
6
ByLayer
370
18
48
1
60
0
100
AcDbSpline
70
4
71
3
72
10
73
6
40
0
40
0
40
0
40
0
40
0.5
40
0.5
40
1
40
1
40
1
40
1
41
1
10
48.3944957109366
20
-13.1374125874132
30
0
41
1
10
47.1737830771918
20
-11.7420143728678
30
0
41
1
10
45.8436990205107
20
-10.470157886878
30
0
41
1
10
42.9467184112946
20
-8.19393914964351
30
0
41
1
10
41.3732059263242
20
-7.17027218002488
30
0
41
1
10
39.6892903580243
20
-6.36328860135834
30
0
0
SPLINE
5
1CF
100
AcDbEntity
8
1
62
256
6
ByLayer
370
18
48
1
60
0
100
AcDbSpline
70
4
71
3
72
10
73
6
40
0
40
0
40
0
40
0
40
0.230438518716774
40
0.230438518716774
40
1
40
1
40
1
40
1
41
1
10
36.392196649517
20
-13.1787146239631
30
0
41
1
10
36.3888715975161
20
-13.1757985651473
30
0
41
1
10
36.3856582724364
20
-13.1728789859938
30
0
41
1
10
36.3722034568965
20
-13.1602360198448
30
0
41
1
10
36.3630197306513
20
-13.1505010571086
30
0
41
1
10
36.3548235730199
20
-13.1408643247474
30
0
0
SPLINE
5
1D0
100
AcDbEntity
8
1
62
256
6
ByLayer
370
18
48
1
60
0
100
AcDbSpline
70
4
71
3
72
10
73
6
40
0
40
0
40
0
40
0
40
0.201157530231502
40
0.201157530231502
40
1
40
1
40
1
40
1
41
1
10
36.5558151610607
20
-15.756211824812
30
0
41
1
10
36.5575102442629
20
-15.7528030537868
30
0
41
1
10
36.5592711505852
20
-15.7493860206473
30
0
41
1
10
36.5683339938651
20
-15.7324343995872
30
0
41
1
10
36.5766794732482
20
-15.718745847303
30
0
41
1
10
36.5863526643276
20
-15.7051161162357
30
0
0
SPLINE
5
1D1
100
AcDbEntity
8
1
62
256
6
ByLayer
370
18
48
1
60
0
100
AcDbSpline
70
4
71
3
72
10
73
6
40
0
40
0
40
0
40
0
40
0.355593196477959
40
0.355593196477959
40
1
40
1
40
1
40
1
41
1
10
37.3265308792423
20
-14.5576628839705
30
0
41
1
10
37.3228718875763
20
-14.5512556226301
30
0
41
1
10
37.3192939172464
20
-14.5446785043627
30
0
41
1
10
37.3095387679763
20
-14.5257338561188
30
0
41
1
10
37.3035682709202
20
-14.5129289018887
30
0
41
1
10
37.2980691110574
20
-14.499522639013
30
0
0
SPLINE
5
1D2
100
AcDbEntity
8
1
62
256
6
ByLayer
370
18
48
1
60
0
100
AcDbSpline
70
4
71
3
72
10
73
6
40
0
40
0
40
0
40
0
40
0.27605405649226
40
0.27605405649226
40
1
40
1
40
1
40
1
41
1
10
36.7959265769743
20
-15.5587623825281
30
0
41
1
10
36.8018637639582
20
-15.557003613256
30
0
41
1
10
36.8077665645123
20
-15.5553872821883
30
0
41
1
10
36.8289061968209
20
-15.5500317122035
30
0
41
1
10
36.8439223586917
20
-15.5470478953218
30
0
41
1
10
36.8585787102813
20
-15.5447800903052
30
0
0
SPLINE
5
1D3
100
AcDbEntity
8
1
62
256
6
ByLayer
370
18
48
1
60
0
100
AcDbSpline
70
4
71
3
72
10
73
6
40
0
40
0
40
0
40
0
40
0.355593196477754
40
0.355593196477754
40
1
40
1
40
1
40
1
41
1
10
34.5037176048885
20
-14.4335646732783
30
0
41
1
10
34.5059312982948
20
-14.4391374912794
30
0
41
1
10
34.5081029961412
20
-14.4449026977498
30
0
41
1
10
34.5140502590164
20
-14.4616488617586
30
0
41
1
10
34.5177214324986
20
-14.4731263009045
30
0
41
1
10
34.5211525323695
20
-14.485338568787
30
0
0
SPLINE
5
1D4
100
AcDbEntity
8
1
62
256
6
ByLayer
370
18
48
1
60
0
100
AcDbSpline
70
4
71
3
72
10
73
6
40
0
40
0
40
0
40
0
40
0.769561481283262
40
0.769561481283262
40
1
40
1
40
1
40
1
41
1
10
36.6858399602513
20
-13.2970648377768
30
0
41
1
10
36.6699278962453
20
-13.29532534608
30
0
41
1
10
36.6534948584302
20
-13.2929722314801
30
0
41
1
10
36.6315710342571
20
-13.2889206716582
30
0
41
1
10
36.6264678305467
20
-13.2879158346385
30
0
41
1
10
36.6213272684435
20
-13.2868371266778
30
0
0
SPLINE
5
1D5
100
AcDbEntity
8
1
62
256
6
ByLayer
370
18
48
1
60
0
100
AcDbSpline
70
4
71
3
72
10
73
6
40
0
40
0
40
0
40
0
40
0.537616842494925
40
0.537616842494925
40
1
40
1
40
1
40
1
41
1
10
37.2785124047784
20
-14.2450464025922
30
0
41
1
10
37.2814225213182
20
-14.2343425059557
30
0
41
1
10
37.2847292580668
20
-14.2241035635873
30
0
41
1
10
37.2914368845782
20
-14.2059113238588
30
0
41
1
10
37.2947671534943
20
-14.1978190642799
30
0
41
1
10
37.2982780412418
20
-14.1900306364287
30
0
0
SPLINE
5
1D6
100
AcDbEntity
8
1
62
256
6
ByLayer
370
18
48
1
60
0
100
AcDbSpline
70
4
71
3
72
10
73
6
40
0
40
0
40
0
40
0
40
0.769561481283306
40
0.769561481283306
40
1
40
1
40
1
40
1
41
1
10
35.1444085238807
20
-15.6941627194727
30
0
41
1
10
35.1572019958728
20
-15.6941016912307
30
0
41
1
10
35.1706909477886
20
-15.6947550370441
30
0
41
1
10
35.1891632702524
20
-15.6968138714251
30
0
41
1
10
35.1934953516662
20
-15.6973735007793
30
0
41
1
10
35.1978943749832
20
-15.6980240811221
30
0
0
SPLINE
5
1D7
100
AcDbEntity
8
1
62
256
6
ByLayer
370
18
48
1
60
0
100
AcDbSpline
70
4
71
3
72
10
73
6
40
0
40
0
40
0
40
0
40
0.23043851871671
40
0.23043851871671
40
1
40
1
40
1
40
1
41
1
10
35.4270249939096
20
-15.8061465838368
30
0
41
1
10
35.4310915846969
20
-15.8094907702705
30
0
41
1
10
35.4350760320731
20
-15.8128555570894
30
0
41
1
10
35.4519823493222
20
-15.8274912486794
30
0
41
1
10
35.4641101614667
20
-15.8389259802021
30
0
41
1
10
35.4754249111121
20
-15.850363232502
30
0
0
SPLINE
5
1D8
100
AcDbEntity
8
1
62
256
6
ByLayer
370
18
48
1
60
0
100
AcDbSpline
70
4
71
3
72
10
73
6
40
0
40
0
40
0
40
0
40
0.53761684249531
40
0.53761684249531
40
1
40
1
40
1
40
1
41
1
10
34.5407092386485
20
-14.7398148052078
30
0
41
1
10
34.5395265107206
20
-14.7515160101244
30
0
41
1
10
34.5381084516137
20
-14.7628453810377
30
0
41
1
10
34.5351255082034
20
-14.7831880675572
30
0
41
1
10
34.533605697254
20
-14.7923255955305
30
0
41
1
10
34.5319704428919
20
-14.8011969208217
30
0
0
SPLINE
5
1D9
100
AcDbEntity
8
1
62
256
6
ByLayer
370
18
48
1
60
0
100
AcDbSpline
70
4
71
3
72
10
73
6
40
0
40
0
40
0
40
0
40
0.27605405649199
40
0.27605405649199
40
1
40
1
40
1
40
1
41
1
10
35.0232950664522
20
-13.4260988252717
30
0
41
1
10
35.0182481885614
20
-13.4283716147383
30
0
41
1
10
35.0132783874753
20
-13.4305266133001
30
0
41
1
10
34.9956347882028
20
-13.4379006188994
30
0
41
1
10
34.9833948555793
20
-13.4424872924843
30
0
41
1
10
34.9716697738524
20
-13.4464474669452
30
0
0
SPLINE
5
1DA
100
AcDbEntity
8
1
62
256
6
ByLayer
370
18
48
1
60
0
100
AcDbSpline
70
4
71
3
72
10
73
6
40
0
40
0
40
0
40
0
40
0.201157530231695
40
0.201157530231695
40
1
40
1
40
1
40
1
41
1
10
35.274433323072
20
-13.2350157324379
30
0
41
1
10
35.2719196246392
20
-13.2379518757393
30
0
41
1
10
35.2693527497907
20
-13.2409035827332
30
0
41
1
10
35.256370158641
20
-13.2555921363055
30
0
41
1
10
35.2451058278627
20
-13.267595488951
30
0
41
1
10
35.2328689790993
20
-13.2797450915643
30
0
0
LINE
5
72
100
AcDbEntity
8
1
62
256
6
ByLayer
370
18
48
1
60
0
100
AcDbLine
10
0.3
20
-25
30
0
11
20.920792
21
-25
31
0
39
0
210
0
220
0
230
1
0
LINE
5
74
100
AcDbEntity
8
1
62
256
6
ByLayer
370
18
48
1
60
0
100
AcDbLine
10
20.920792
20
25
30
0
11
0.3
21
25
31
0
39
0
210
0
220
0
230
1
0
LINE
5
75
100
AcDbEntity
8
1
62
256
6
ByLayer
370
18
48
1
60
0
100
AcDbLine
10
0.3
20
25
30
0
11
0
21
24.7
31
0
39
0
210
0
220
0
230
1
0
LINE
5
76
100
AcDbEntity
8
1
62
256
6
ByLayer
370
18
48
1
60
0
100
AcDbLine
10
0
20
-24.7
30
0
11
0.3
21
-25
31
0
39
0
210
0
220
0
230
1
0
LINE
5
77
100
AcDbEntity
8
1
62
256
6
ByLayer
370
18
48
1
60
0
100
AcDbLine
10
20.960985
20
25.15
30
0
11
20.920792
21
25
31
0
39
0
210
0
220
0
230
1
0
LINE
5
78
100
AcDbEntity
8
1
62
256
6
ByLayer
370
18
48
1
60
0
100
AcDbLine
10
20.920792
20
-25
30
0
11
22.814446
21
-32.067213
31
0
39
0
210
0
220
0
230
1
0
LINE
5
79
100
AcDbEntity
8
1
62
256
6
ByLayer
370
18
48
1
60
0
100
AcDbLine
10
21.406085
20
25.15
30
0
11
20.960985
21
25.15
31
0
39
0
210
0
220
0
230
1
0
LINE
5
7A
100
AcDbEntity
8
1
62
256
6
ByLayer
370
18
48
1
60
0
100
AcDbLine
10
24.837119
20
-18.909577
30
0
11
25.586912
21
-19.305845
31
0
39
0
210
0
220
0
230
1
0
LINE
5
7B
100
AcDbEntity
8
1
62
256
6
ByLayer
370
18
48
1
60
0
100
AcDbLine
10
44.773391
20
-30.313091
30
0
11
45.261273
21
-30.59477
31
0
39
0
210
0
220
0
230
1
0
LINE
5
7C
100
AcDbEntity
8
1
62
256
6
ByLayer
370
18
48
1
60
0
100
AcDbLine
10
56.082423
20
-12.058219
30
0
11
55.620919
21
-11.79177
31
0
39
0
210
0
220
0
230
1
0
LINE
5
7D
100
AcDbEntity
8
1
62
256
6
ByLayer
370
18
48
1
60
0
100
AcDbLine
10
28.652508
20
-14.370476
30
0
11
28.292308
21
-14.180109
31
0
39
0
210
0
220
0
230
1
0
LINE
5
7E
100
AcDbEntity
8
1
62
256
6
ByLayer
370
18
48
1
60
0
100
AcDbLine
10
33.033611
20
-18.605474
30
0
11
33.24268
21
-18.72618
31
0
39
0
210
0
220
0
230
1
0
LINE
5
7F
100
AcDbEntity
8
1
62
256
6
ByLayer
370
18
48
1
60
0
100
AcDbLine
10
38.24268
20
-10.065926
30
0
11
38.033143
21
-9.94495
31
0
39
0
210
0
220
0
230
1
0
LINE
5
80
100
AcDbEntity
8
1
62
256
6
ByLayer
370
18
48
1
60
0
100
AcDbLine
10
24.89205
20
5.701704
30
0
11
17.05842
21
10.201038
31
0
39
0
210
0
220
0
230
1
0
LINE
5
81
100
AcDbEntity
8
1
62
256
6
ByLayer
370
18
48
1
60
0
100
AcDbLine
10
16.839146
20
5.252861
30
0
11
22.700609
21
1.886264
31
0
39
0
210
0
220
0
230
1
0
LINE
5
82
100
AcDbEntity
8
1
62
256
6
ByLayer
370
18
48
1
60
0
100
AcDbLine
10
22.771273
20
1.8828
30
0
11
23.101461
21
1.977236
31
0
39
0
210
0
220
0
230
1
0
LINE
5
83
100
AcDbEntity
8
1
62
256
6
ByLayer
370
18
48
1
60
0
100
AcDbLine
10
25.015453
20
5.30962
30
0
11
24.930649
21
5.642413
31
0
39
0
210
0
220
0
230
1
0
LINE
5
84
100
AcDbEntity
8
80
62
256
6
ByLayer
370
18
48
1
60
0
100
AcDbLine
10
0
20
0
30
0
11
-5
21
0
31
0
39
0
210
0
220
0
230
1
0
LINE
5
85
100
AcDbEntity
8
4
62
256
6
ByLayer
370
18
48
0.05
60
0
100
AcDbLine
10
0
20
0
30
0
11
60
21
0
31
0
39
0
210
0
220
0
230
1
0
LINE
5
87
100
AcDbEntity
8
81
62
256
6
ByLayer
370
18
48
1
60
0
100
AcDbLine
10
60
20
-27
30
0
11
70
21
-27
31
0
39
0
210
0
220
0
230
1
0
LINE
5
88
100
AcDbEntity
8
SK4
62
256
6
ByLayer
370
18
48
0.05
60
0
100
AcDbLine
10
-35
20
0
30
0
11
60
21
0
31
0
39
0
210
0
220
0
230
1
0
LINE
5
8A
100
AcDbEntity
8
1
62
256
6
ByLayer
370
18
48
1
60
0
100
AcDbLine
10
36.621327
20
-13.286837
30
0
11
36.597825
21
-13.273268
31
0
39
0
210
0
220
0
230
1
0
LINE
5
8B
100
AcDbEntity
8
1
62
256
6
ByLayer
370
18
48
1
60
0
100
AcDbLine
10
55.400369
20
-11.869518
30
0
11
55.614995
21
-11.813012
31
0
39
0
210
0
220
0
230
1
0
LINE
5
8C
100
AcDbEntity
8
1
62
256
6
ByLayer
370
18
48
1
60
0
100
AcDbLine
10
48.857135
20
-13.639769
30
0
11
55.192842
21
-11.942122
31
0
39
0
210
0
220
0
230
1
0
LINE
5
8D
100
AcDbEntity
8
1
62
256
6
ByLayer
370
18
48
1
60
0
100
AcDbLine
10
44.712658
20
-29.869898
30
0
11
43.417047
21
-24.814304
31
0
39
0
210
0
220
0
230
1
0
LINE
5
8E
100
AcDbEntity
8
1
62
256
6
ByLayer
370
18
48
1
60
0
100
AcDbLine
10
44.712658
20
-29.869898
30
0
11
44.655353
21
-29.836814
31
0
39
0
210
0
220
0
230
1
0
LINE
5
8F
100
AcDbEntity
8
1
62
256
6
ByLayer
370
18
48
1
60
0
100
AcDbLine
10
55.148575
20
-11.916564
30
0
11
55.192842
21
-11.942122
31
0
39
0
210
0
220
0
230
1
0
LINE
5
90
100
AcDbEntity
8
1
62
256
6
ByLayer
370
18
48
1
60
0
100
AcDbLine
10
43.271848
20
-24.806255
30
0
11
43.685931
21
-26.422044
31
0
39
0
210
0
220
0
230
1
0
LINE
5
91
100
AcDbEntity
8
1
62
256
6
ByLayer
370
18
48
1
60
0
100
AcDbLine
10
20.920792
20
-24.488619
30
0
11
20.920792
21
-25
31
0
39
0
210
0
220
0
230
1
0
LINE
5
92
100
AcDbEntity
8
1
62
256
6
ByLayer
370
18
48
1
60
0
100
AcDbLine
10
20.920792
20
25
30
0
11
20.920792
21
24.488619
31
0
39
0
210
0
220
0
230
1
0
LINE
5
93
100
AcDbEntity
8
1
62
256
6
ByLayer
370
18
48
1
60
0
100
AcDbLine
10
0.3
20
0
30
0
11
0.3
21
-25
31
0
39
0
210
0
220
0
230
1
0
LINE
5
94
100
AcDbEntity
8
1
62
256
6
ByLayer
370
18
48
1
60
0
100
AcDbLine
10
0.3
20
25
30
0
11
0.3
21
0
31
0
39
0
210
0
220
0
230
1
0
LINE
5
95
100
AcDbEntity
8
1
62
256
6
ByLayer
370
18
48
1
60
0
100
AcDbLine
10
17.430319
20
9.987552
30
0
11
17.430319
21
23.455355
31
0
39
0
210
0
220
0
230
1
0
LINE
5
96
100
AcDbEntity
8
1
62
256
6
ByLayer
370
18
48
1
60
0
100
AcDbLine
10
0
20
0
30
0
11
0
21
-24.7
31
0
39
0
210
0
220
0
230
1
0
LINE
5
97
100
AcDbEntity
8
1
62
256
6
ByLayer
370
18
48
1
60
0
100
AcDbLine
10
0
20
24.7
30
0
11
0
21
0
31
0
39
0
210
0
220
0
230
1
0
LINE
5
98
100
AcDbEntity
8
SK1
62
256
6
ByLayer
370
18
48
1
60
0
100
AcDbLine
10
-0.2
20
17.833485
30
0
11
-0.2
21
6.103448
31
0
39
0
210
0
220
0
230
1
0
LINE
5
9A
100
AcDbEntity
8
SK1
62
256
6
ByLayer
370
18
48
1
60
0
100
AcDbLine
10
-0.2
20
-6.103447
30
0
11
-0.2
21
-17.833485
31
0
39
0
210
0
220
0
230
1
0
LINE
5
9B
100
AcDbEntity
8
1
62
256
6
ByLayer
370
18
48
1
60
0
100
AcDbLine
10
21.415098
20
-6.733374
30
0
11
21.415098
21
2.624641
31
0
39
0
210
0
220
0
230
1
0
LINE
5
9C
100
AcDbEntity
8
1
62
256
6
ByLayer
370
18
48
1
60
0
100
AcDbLine
10
21.415098
20
7.699103
30
0
11
21.415098
21
24.647972
31
0
39
0
210
0
220
0
230
1
0
LINE
5
9D
100
AcDbEntity
8
1
62
256
6
ByLayer
370
18
48
1
60
0
100
AcDbLine
10
19.400508
20
-9.961584
30
0
11
18.155427
21
-12.58801
31
0
39
0
210
0
220
0
230
1
0
LINE
5
9E
100
AcDbEntity
8
1
62
256
6
ByLayer
370
18
48
1
60
0
100
AcDbLine
10
35.41508
20
-4.34609
30
0
11
41.713613
21
6.563289
31
0
39
0
210
0
220
0
230
1
0
LINE
5
9F
100
AcDbEntity
8
1
62
256
6
ByLayer
370
18
48
1
60
0
100
AcDbLine
10
34.751869
20
-4.014897
30
0
11
35.222199
21
-2.979791
31
0
39
0
210
0
220
0
230
1
0
LINE
5
A0
100
AcDbEntity
8
1
62
256
6
ByLayer
370
18
48
1
60
0
100
AcDbLine
10
20.960985
20
25.15
30
0
11
20.960985
21
24.642711
31
0
39
0
210
0
220
0
230
1
0
LINE
5
A1
100
AcDbEntity
8
1
62
256
6
ByLayer
370
18
48
1
60
0
100
AcDbLine
10
22.815694
20
-32.064651
30
0
11
22.899867
21
-32.064651
31
0
39
0
210
0
220
0
230
1
0
LINE
5
A2
100
AcDbEntity
8
1
62
256
6
ByLayer
370
18
48
1
60
0
100
AcDbLine
10
28.536453
20
-2.718917
30
0
11
27.948729
21
-3.958685
31
0
39
0
210
0
220
0
230
1
0
LINE
5
A3
100
AcDbEntity
8
1
62
256
6
ByLayer
370
18
48
1
60
0
100
AcDbLine
10
22.834914
20
-14.745974
30
0
11
22.268442
21
-15.940912
31
0
39
0
210
0
220
0
230
1
0
LINE
5
A4
100
AcDbEntity
8
1
62
256
6
ByLayer
370
18
48
1
60
0
100
AcDbLine
10
26.783294
20
-21.112577
30
0
11
27.263039
21
-20.100582
31
0
39
0
210
0
220
0
230
1
0
LINE
5
A5
100
AcDbEntity
8
1
62
256
6
ByLayer
370
18
48
1
60
0
100
AcDbLine
10
48.73837
20
-13.510739
30
0
11
55.648909
21
-11.691349
31
0
39
0
210
0
220
0
230
1
0
LINE
5
A6
100
AcDbEntity
8
1
62
256
6
ByLayer
370
18
48
1
60
0
100
AcDbLine
10
43.254424
20
-24.805436
30
0
11
44.68772
21
-30.398291
31
0
39
0
210
0
220
0
230
1
0
LINE
5
A7
100
AcDbEntity
8
1
62
256
6
ByLayer
370
18
48
1
60
0
100
AcDbLine
10
44.776598
20
-30.309899
30
0
11
44.009143
21
-27.315219
31
0
39
0
210
0
220
0
230
1
0
LINE
5
A8
100
AcDbEntity
8
1
62
256
6
ByLayer
370
18
48
1
60
0
100
AcDbLine
10
8.538675
20
23.83913
30
0
11
11.461325
21
23.83913
31
0
39
0
210
0
220
0
230
1
0
LINE
5
A9
100
AcDbEntity
8
1
62
256
6
ByLayer
370
18
48
1
60
0
100
AcDbLine
10
44.68772
20
-30.398291
30
0
11
38.468778
21
-32.064651
31
0
39
0
210
0
220
0
230
1
0
LINE
5
AA
100
AcDbEntity
8
1
62
256
6
ByLayer
370
18
48
1
60
0
100
AcDbLine
10
17.553819
20
4.727059
30
0
11
17.430319
21
4.797993
31
0
39
0
210
0
220
0
230
1
0
LINE
5
AB
100
AcDbEntity
8
1
62
256
6
ByLayer
370
18
48
1
60
0
100
AcDbLine
10
11.894338
20
14.368241
30
0
11
11.894338
21
8.055848
31
0
39
0
210
0
220
0
230
1
0
LINE
5
AC
100
AcDbEntity
8
1
62
256
6
ByLayer
370
18
48
1
60
0
100
AcDbLine
10
11.461325
20
-23.83913
30
0
11
8.538675
21
-23.83913
31
0
39
0
210
0
220
0
230
1
0
LINE
5
AD
100
AcDbEntity
8
1
62
256
6
ByLayer
370
18
48
1
60
0
100
AcDbLine
10
26.783294
20
-21.112577
30
0
11
24.732202
21
-20.117752
31
0
39
0
210
0
220
0
230
1
0
LINE
5
AE
100
AcDbEntity
8
1
62
256
6
ByLayer
370
18
48
1
60
0
100
AcDbLine
10
11.894338
20
-8.055848
30
0
11
11.894338
21
-23.666502
31
0
39
0
210
0
220
0
230
1
0
LINE
5
AF
100
AcDbEntity
8
1
62
256
6
ByLayer
370
18
48
1
60
0
100
AcDbLine
10
22.190517
20
24.647972
30
0
11
41.713613
21
6.563289
31
0
39
0
210
0
220
0
230
1
0
LINE
5
B0
100
AcDbEntity
8
1
62
256
6
ByLayer
370
18
48
1
60
0
100
AcDbLine
10
11.461325
20
7.529667
30
0
11
8.538675
21
7.529667
31
0
39
0
210
0
220
0
230
1
0
LINE
5
B1
100
AcDbEntity
8
1
62
256
6
ByLayer
370
18
48
1
60
0
100
AcDbLine
10
35.222199
20
-2.979791
30
0
11
33.298848
21
-2.046923
31
0
39
0
210
0
220
0
230
1
0
LINE
5
B2
100
AcDbEntity
8
1
62
256
6
ByLayer
370
18
48
1
60
0
100
AcDbLine
10
11.461325
20
13.690625
30
0
11
11.461325
21
7.529667
31
0
39
0
210
0
220
0
230
1
0
LINE
5
B3
100
AcDbEntity
8
1
62
256
6
ByLayer
370
18
48
1
60
0
100
AcDbLine
10
38.468778
20
-32.064651
30
0
11
22.899867
21
-32.064651
31
0
39
0
210
0
220
0
230
1
0
LINE
5
B4
100
AcDbEntity
8
1
62
256
6
ByLayer
370
18
48
1
60
0
100
AcDbLine
10
44.68772
20
-30.398291
30
0
11
44.776598
21
-30.309899
31
0
39
0
210
0
220
0
230
1
0
LINE
5
B5
100
AcDbEntity
8
1
62
256
6
ByLayer
370
18
48
1
60
0
100
AcDbLine
10
17.430319
20
-23.455355
30
0
11
17.430319
21
4.797993
31
0
39
0
210
0
220
0
230
1
0
LINE
5
B6
100
AcDbEntity
8
1
62
256
6
ByLayer
370
18
48
1
60
0
100
AcDbLine
10
22.067443
20
-27.464875
30
0
11
22.067443
21
-28.867147
31
0
39
0
210
0
220
0
230
1
0
LINE
5
B7
100
AcDbEntity
8
1
62
256
6
ByLayer
370
18
48
1
60
0
100
AcDbLine
10
8.105662
20
23.666502
30
0
11
8.105662
21
15.277633
31
0
39
0
210
0
220
0
230
1
0
LINE
5
B8
100
AcDbEntity
8
1
62
256
6
ByLayer
370
18
48
1
60
0
100
AcDbLine
10
8.538675
20
13.690625
30
0
11
8.538675
21
7.529667
31
0
39
0
210
0
220
0
230
1
0
LINE
5
B9
100
AcDbEntity
8
1
62
256
6
ByLayer
370
18
48
1
60
0
100
AcDbLine
10
11.461325
20
23.83913
30
0
11
11.461325
21
15.626418
31
0
39
0
210
0
220
0
230
1
0
LINE
5
BA
100
AcDbEntity
8
1
62
256
6
ByLayer
370
18
48
1
60
0
100
AcDbLine
10
8.105662
20
-8.055848
30
0
11
8.105662
21
-23.666502
31
0
39
0
210
0
220
0
230
1
0
LINE
5
BB
100
AcDbEntity
8
1
62
256
6
ByLayer
370
18
48
1
60
0
100
AcDbLine
10
8.105662
20
14.368241
30
0
11
8.105662
21
8.055848
31
0
39
0
210
0
220
0
230
1
0
LINE
5
BC
100
AcDbEntity
8
1
62
256
6
ByLayer
370
18
48
1
60
0
100
AcDbLine
10
53.888813
20
-4.823293
30
0
11
41.713613
21
6.563289
31
0
39
0
210
0
220
0
230
1
0
LINE
5
BD
100
AcDbEntity
8
1
62
256
6
ByLayer
370
18
48
1
60
0
100
AcDbLine
10
21.415098
20
-6.733374
30
0
11
24.325809
21
-0.732185
31
0
39
0
210
0
220
0
230
1
0
LINE
5
BE
100
AcDbEntity
8
1
62
256
6
ByLayer
370
18
48
1
60
0
100
AcDbLine
10
22.190517
20
24.647972
30
0
11
21.415098
21
24.647972
31
0
39
0
210
0
220
0
230
1
0
LINE
5
BF
100
AcDbEntity
8
1
62
256
6
ByLayer
370
18
48
1
60
0
100
AcDbLine
10
8.538675
20
-7.529667
30
0
11
11.461325
21
-7.529667
31
0
39
0
210
0
220
0
230
1
0
LINE
5
C0
100
AcDbEntity
8
1
62
256
6
ByLayer
370
18
48
1
60
0
100
AcDbLine
10
55.648909
20
-11.691349
30
0
11
55.614995
21
-11.813012
31
0
39
0
210
0
220
0
230
1
0
LINE
5
C1
100
AcDbEntity
8
1
62
256
6
ByLayer
370
18
48
1
60
0
100
AcDbLine
10
17.430319
20
4.797993
30
0
11
16.839254
21
5.137478
31
0
39
0
210
0
220
0
230
1
0
LINE
5
C2
100
AcDbEntity
8
1
62
256
6
ByLayer
370
18
48
1
60
0
100
AcDbLine
10
11.894338
20
23.666502
30
0
11
11.894338
21
15.277633
31
0
39
0
210
0
220
0
230
1
0
LINE
5
C3
100
AcDbEntity
8
1
62
256
6
ByLayer
370
18
48
1
60
0
100
AcDbLine
10
21.415098
20
-26.375024
30
0
11
21.415098
21
-22.712767
31
0
39
0
210
0
220
0
230
1
0
LINE
5
C4
100
AcDbEntity
8
1
62
256
6
ByLayer
370
18
48
1
60
0
100
AcDbLine
10
8.538675
20
-7.529667
30
0
11
8.538675
21
-23.83913
31
0
39
0
210
0
220
0
230
1
0
LINE
5
C5
100
AcDbEntity
8
1
62
256
6
ByLayer
370
18
48
1
60
0
100
AcDbLine
10
8.538675
20
23.83913
30
0
11
8.538675
21
15.626418
31
0
39
0
210
0
220
0
230
1
0
LINE
5
C6
100
AcDbEntity
8
1
62
256
6
ByLayer
370
18
48
1
60
0
100
AcDbLine
10
22.067443
20
-27.464875
30
0
11
24.762412
21
-22.797052
31
0
39
0
210
0
220
0
230
1
0
LINE
5
C7
100
AcDbEntity
8
1
62
256
6
ByLayer
370
18
48
1
60
0
100
AcDbLine
10
16.992522
20
9.828485
30
0
11
17.251257
21
11.291
31
0
39
0
210
0
220
0
230
1
0
LINE
5
C8
100
AcDbEntity
8
1
62
256
6
ByLayer
370
18
48
1
60
0
100
AcDbLine
10
53.888813
20
-4.823293
30
0
11
55.648909
21
-11.691349
31
0
39
0
210
0
220
0
230
1
0
LINE
5
C9
100
AcDbEntity
8
1
62
256
6
ByLayer
370
18
48
1
60
0
100
AcDbLine
10
21.279011
20
-14.762264
30
0
11
26.985074
21
-2.725664
31
0
39
0
210
0
220
0
230
1
0
LINE
5
CA
100
AcDbEntity
8
1
62
256
6
ByLayer
370
18
48
1
60
0
100
AcDbLine
10
11.461325
20
-7.529667
30
0
11
11.461325
21
-23.83913
31
0
39
0
210
0
220
0
230
1
0
LINE
5
CB
100
AcDbEntity
8
SK1
62
256
6
ByLayer
370
18
48
1
60
0
100
AcDbLine
10
-1.307107
20
3.918065
30
0
11
-1.307107
21
-3.918065
31
0
39
0
210
0
220
0
230
1
0
LINE
5
CC
100
AcDbEntity
8
1
62
256
6
ByLayer
370
18
48
1
60
0
100
AcDbLine
10
56.631039
20
-12.783091
30
0
11
59.962728
21
-25.783654
31
0
39
0
210
0
220
0
230
1
0
LINE
5
CD
100
AcDbEntity
8
1
62
256
6
ByLayer
370
18
48
1
60
0
100
AcDbLine
10
59.112694
20
-27.237753
30
0
11
46.150855
21
-30.710867
31
0
39
0
210
0
220
0
230
1
0
LINE
5
CE
100
AcDbEntity
8
1
62
256
6
ByLayer
370
18
48
1
60
0
100
AcDbLine
10
35.065777
20
-4.168107
30
0
11
32.766694
21
-3.045846
31
0
39
0
210
0
220
0
230
1
0
LINE
5
CF
100
AcDbEntity
8
1
62
256
6
ByLayer
370
18
48
1
60
0
100
AcDbLine
10
34.349195
20
-19.422831
30
0
11
34.127944
21
-19.3059
31
0
39
0
210
0
220
0
230
1
0
LINE
5
D0
100
AcDbEntity
8
1
62
256
6
ByLayer
370
18
48
1
60
0
100
AcDbLine
10
39.68929
20
-6.363289
30
0
11
35.083144
21
-4.189733
31
0
39
0
210
0
220
0
230
1
0
LINE
5
D1
100
AcDbEntity
8
1
62
256
6
ByLayer
370
18
48
1
60
0
100
AcDbLine
10
33.324397
20
-3.346382
30
0
11
35.065777
21
-4.168107
31
0
39
0
210
0
220
0
230
1
0
LINE
5
D2
100
AcDbEntity
8
1
62
256
6
ByLayer
370
18
48
1
60
0
100
AcDbLine
10
25.361229
20
-15.406453
30
0
11
23.045056
21
-14.182348
31
0
39
0
210
0
220
0
230
1
0
LINE
5
D3
100
AcDbEntity
8
1
62
256
6
ByLayer
370
18
48
1
60
0
100
AcDbLine
10
28.173505
20
-14.120739
30
0
11
26.819637
21
-13.48223
31
0
39
0
210
0
220
0
230
1
0
LINE
5
D4
100
AcDbEntity
8
1
62
256
6
ByLayer
370
18
48
1
60
0
100
AcDbLine
10
25.361229
20
-15.406453
30
0
11
29.961518
21
-5.702418
31
0
39
0
210
0
220
0
230
1
0
LINE
5
D5
100
AcDbEntity
8
1
62
256
6
ByLayer
370
18
48
1
60
0
100
AcDbLine
10
38.761017
20
-10.116355
30
0
11
36.797931
21
-9.19001
31
0
39
0
210
0
220
0
230
1
0
LINE
5
D6
100
AcDbEntity
8
1
62
256
6
ByLayer
370
18
48
1
60
0
100
AcDbLine
10
33.324397
20
-3.346382
30
0
11
32.624824
21
-2.976656
31
0
39
0
210
0
220
0
230
1
0
LINE
5
D7
100
AcDbEntity
8
1
62
256
6
ByLayer
370
18
48
1
60
0
100
AcDbLine
10
32.386108
20
-18.496487
30
0
11
32.173923
21
-18.384346
31
0
39
0
210
0
220
0
230
1
0
LINE
5
D8
100
AcDbEntity
8
1
62
256
6
ByLayer
370
18
48
1
60
0
100
AcDbLine
10
30.716951
20
-4.353455
30
0
11
39.423417
21
-8.461875
31
0
39
0
210
0
220
0
230
1
0
LINE
5
D9
100
AcDbEntity
8
1
62
256
6
ByLayer
370
18
48
1
60
0
100
AcDbLine
10
32.100799
20
-22.370758
30
0
11
27.494653
21
-20.197203
31
0
39
0
210
0
220
0
230
1
0
LINE
5
DA
100
AcDbEntity
8
1
62
256
6
ByLayer
370
18
48
1
60
0
100
AcDbLine
10
50.705806
20
-24.203883
30
0
11
49.910993
21
-24.550881
31
0
39
0
210
0
220
0
230
1
0
LINE
5
DB
100
AcDbEntity
8
1
62
256
6
ByLayer
370
18
48
1
60
0
100
AcDbLine
10
52.68629
20
-18.696075
30
0
11
52.921741
21
-19.529499
31
0
39
0
210
0
220
0
230
1
0
LINE
5
DC
100
AcDbEntity
8
1
62
256
6
ByLayer
370
18
48
1
60
0
100
AcDbLine
10
29.961518
20
-5.702418
30
0
11
27.645345
21
-4.478313
31
0
39
0
210
0
220
0
230
1
0
LINE
5
DD
100
AcDbEntity
8
1
62
256
6
ByLayer
370
18
48
1
60
0
100
AcDbLine
10
50.483018
20
-21.30161
30
0
11
53.395765
21
-22.621751
31
0
39
0
210
0
220
0
230
1
0
LINE
5
DE
100
AcDbEntity
8
1
62
256
6
ByLayer
370
18
48
1
60
0
100
AcDbLine
10
27.467162
20
-20.196932
30
0
11
25.725782
21
-19.375207
31
0
39
0
210
0
220
0
230
1
0
LINE
5
DF
100
AcDbEntity
8
1
62
256
6
ByLayer
370
18
48
1
60
0
100
AcDbLine
10
32.386108
20
-18.496487
30
0
11
34.349195
21
-19.422831
31
0
39
0
210
0
220
0
230
1
0
LINE
5
E0
100
AcDbEntity
8
1
62
256
6
ByLayer
370
18
48
1
60
0
100
AcDbLine
10
27.467162
20
-20.196932
30
0
11
27.494653
21
-20.197203
31
0
39
0
210
0
220
0
230
1
0
LINE
5
E1
100
AcDbEntity
8
1
62
256
6
ByLayer
370
18
48
1
60
0
100
AcDbLine
10
26.819637
20
-13.48223
30
0
11
29.389631
21
-8.060981
31
0
39
0
210
0
220
0
230
1
0
LINE
5
E2
100
AcDbEntity
8
1
62
256
6
ByLayer
370
18
48
1
60
0
100
AcDbLine
10
24.804876
20
-16.824626
30
0
11
33.511341
21
-20.933046
31
0
39
0
210
0
220
0
230
1
0
LINE
5
E3
100
AcDbEntity
8
1
62
256
6
ByLayer
370
18
48
1
60
0
100
AcDbLine
10
32.173923
20
-18.384346
30
0
11
34.127944
21
-19.3059
31
0
39
0
210
0
220
0
230
1
0
LINE
5
E4
100
AcDbEntity
8
1
62
256
6
ByLayer
370
18
48
1
60
0
100
AcDbLine
10
28.517713
20
-14.302655
30
0
11
28.173505
21
-14.120739
31
0
39
0
210
0
220
0
230
1
0
LINE
5
E5
100
AcDbEntity
8
1
62
256
6
ByLayer
370
18
48
1
60
0
100
AcDbLine
10
27.645345
20
-4.478313
30
0
11
23.045056
21
-14.182348
31
0
39
0
210
0
220
0
230
1
0
LINE
5
E6
100
AcDbEntity
8
1
62
256
6
ByLayer
370
18
48
1
60
0
100
AcDbLine
10
35.065777
20
-4.168107
30
0
11
35.083144
21
-4.189733
31
0
39
0
210
0
220
0
230
1
0
LINE
5
E7
100
AcDbEntity
8
1
62
256
6
ByLayer
370
18
48
1
60
0
100
AcDbLine
10
37.298069
20
-14.499523
30
0
11
37.042562
21
-14.352006
31
0
39
0
210
0
220
0
230
1
0
LINE
5
E8
100
AcDbEntity
8
1
62
256
6
ByLayer
370
18
48
1
60
0
100
AcDbLine
10
36.586353
20
-15.705116
30
0
11
36.330846
21
-15.557599
31
0
39
0
210
0
220
0
230
1
0
LINE
5
E9
100
AcDbEntity
8
1
62
256
6
ByLayer
370
18
48
1
60
0
100
AcDbLine
10
37.170941
20
-13.823169
30
0
11
37.431961
21
-13.973869
31
0
39
0
210
0
220
0
230
1
0
LINE
5
EA
100
AcDbEntity
8
1
62
256
6
ByLayer
370
18
48
1
60
0
100
AcDbLine
10
36.212121
20
-15.845743
30
0
11
36.473141
21
-15.996443
31
0
39
0
210
0
220
0
230
1
0
LINE
5
EB
100
AcDbEntity
8
1
62
256
6
ByLayer
370
18
48
1
60
0
100
AcDbLine
10
37.023005
20
-14.097529
30
0
11
37.278512
21
-14.245046
31
0
39
0
210
0
220
0
230
1
0
LINE
5
EC
100
AcDbEntity
8
1
62
256
6
ByLayer
370
18
48
1
60
0
100
AcDbLine
10
36.13669
20
-13.031198
30
0
11
36.392197
21
-13.178715
31
0
39
0
210
0
220
0
230
1
0
LINE
5
ED
100
AcDbEntity
8
1
62
256
6
ByLayer
370
18
48
1
60
0
100
AcDbLine
10
35.975551
20
-12.767443
30
0
11
36.236571
21
-12.918143
31
0
39
0
210
0
220
0
230
1
0
LINE
5
EE
100
AcDbEntity
8
1
62
256
6
ByLayer
370
18
48
1
60
0
100
AcDbLine
10
35.171518
20
-15.65863
30
0
11
35.427025
21
-15.806147
31
0
39
0
210
0
220
0
230
1
0
LINE
5
EF
100
AcDbEntity
8
1
62
256
6
ByLayer
370
18
48
1
60
0
100
AcDbLine
10
36.849494
20
-15.40064
30
0
11
37.110514
21
-15.55134
31
0
39
0
210
0
220
0
230
1
0
LINE
5
F0
100
AcDbEntity
8
1
62
256
6
ByLayer
370
18
48
1
60
0
100
AcDbLine
10
37.230418
20
-14.597103
30
0
11
37.491439
21
-14.747803
31
0
39
0
210
0
220
0
230
1
0
LINE
5
F1
100
AcDbEntity
8
1
62
256
6
ByLayer
370
18
48
1
60
0
100
AcDbLine
10
35.197894
20
-15.698024
30
0
11
34.942387
21
-15.550507
31
0
39
0
210
0
220
0
230
1
0
LINE
5
F2
100
AcDbEntity
8
1
62
256
6
ByLayer
370
18
48
1
60
0
100
AcDbLine
10
34.635806
20
-15.593554
30
0
11
34.896827
21
-15.744254
31
0
39
0
210
0
220
0
230
1
0
LINE
5
F3
100
AcDbEntity
8
1
62
256
6
ByLayer
370
18
48
1
60
0
100
AcDbLine
10
36.54042
20
-15.411245
30
0
11
36.795927
21
-15.558762
31
0
39
0
210
0
220
0
230
1
0
MTEXT
5
1DB
100
AcDbEntity
8
SK6
62
256
6
ByLayer
370
18
48
1
60
0
100
AcDbMText
10
-1.625
20
31.228002
30
0
210
0
220
0
230
1
1
\W0.7390;C5-DSRNL-27060-15
40
3.5
41
0
44
1.084337
50
0
71
7
72
5
7
iso_b_vert
0
DIMENSION
5
1EC
100
AcDbEntity
8
2
62
256
6
ByLayer
370
13
48
1
60
0
100
AcDbDimension
2
DimnDraft3D1
10
60
20
-24.61875
30
0
11
49.668976
21
-40.463653
31
0
70
34
71
5
72
1
41
1
210
0
220
0
230
1
3
Standard
100
AcDb2LineAngularDimension
13
60
23
-27
33
0
14
55.556741
24
-28.190568
34
0
15
60
25
-27
35
0
16
46.92955
26
-44.033743
36
0
40
0
0
DIMENSION
5
201
100
AcDbEntity
8
2
62
256
6
ByLayer
370
13
48
1
60
0
100
AcDbDimension
2
DimnDraft3D2
10
60
20
-54.25
30
0
11
24.718421
21
-54.25
31
0
70
32
71
5
72
1
41
1
210
0
220
0
230
1
3
Standard
100
AcDbAlignedDimension
13
0
23
-27
33
0
14
60
24
-29
34
0
50
0
100
AcDbRotatedDimension
1001
ACAD
1000
DSTYLE
1002
{
1070
   279
1070
     0
1070
   172
1070
     1
1070
   173
1070
     1
1070
   340
1005
1DC
1070
    77
1070
     1
1070
    73
1070
     0
1070
   171
1070
     3
1070
   274
1070
     4
1070
   177
1070
     2
1070
   176
1070
     2
1070
   178
1070
     7
1070
    78
1070
     8
1070
    41
1041
3.175
1070
   147
1041
2.25
1070
    42
1041
2.0
1070
    44
1041
2.0
1070
   140
1041
4.5
1070
   343
1005
1ED
1070
   344
1005
1ED
1002
}
0
DIMENSION
5
210
100
AcDbEntity
8
SK2
62
256
6
ByLayer
370
13
48
1
60
0
100
AcDbDimension
2
DimnDraft3D3
10
-37.75
20
25
30
0
11
-37.75
21
-2.688158
31
0
70
32
71
5
72
1
41
1
210
0
220
0
230
1
3
Standard
100
AcDbAlignedDimension
13
-2
23
-25
33
0
14
-2
24
25
34
0
50
90
100
AcDbRotatedDimension
1001
ACAD
1000
DSTYLE
1002
{
1070
    74
1070
     0
1070
   279
1070
     0
1070
   172
1070
     1
1070
   173
1070
     1
1070
   340
1005
1DC
1070
    77
1070
     1
1070
    73
1070
     0
1070
   171
1070
     3
1070
   274
1070
     4
1070
   177
1070
     2
1070
   176
1070
     2
1070
   178
1070
     7
1070
    78
1070
     8
1070
    41
1041
3.175
1070
   147
1041
2.25
1070
    42
1041
2.0
1070
    44
1041
2.0
1070
   140
1041
4.5
1070
   343
1005
1ED
1070
   344
1005
1ED
1002
}
0
DIMENSION
5
21E
100
AcDbEntity
8
2
62
256
6
ByLayer
370
13
48
1
60
0
100
AcDbDimension
2
DimnDraft3D4
10
82.25
20
-27
30
0
11
82.25
21
-18.781579
31
0
70
32
71
5
72
1
41
1
210
0
220
0
230
1
3
Standard
100
AcDbAlignedDimension
13
62
23
0
33
0
14
62
24
-27
34
0
50
90
100
AcDbRotatedDimension
1001
ACAD
1000
DSTYLE
1002
{
1070
    74
1070
     0
1070
   279
1070
     0
1070
   172
1070
     1
1070
   173
1070
     1
1070
   340
1005
1DC
1070
    77
1070
     1
1070
    73
1070
     0
1070
   171
1070
     3
1070
   274
1070
     4
1070
   177
1070
     2
1070
   176
1070
     2
1070
   178
1070
     7
1070
    78
1070
     8
1070
    41
1041
3.175
1070
   147
1041
2.25
1070
    42
1041
2.0
1070
    44
1041
2.0
1070
   140
1041
4.5
1070
   343
1005
1ED
1070
   344
1005
1ED
1002
}
0
ENDSEC
0
SECTION
2
OBJECTS
0
DICTIONARY
5
289
330
0
100
AcDbDictionary
280
0
281
1
3
ACAD_GROUP
350
28a
3
ACAD_MLINESTYLE
350
28b
0
DICTIONARY
5
28a
330
0
100
AcDbDictionary
280
0
281
1
0
DICTIONARY
5
28b
330
0
100
AcDbDictionary
280
0
281
1
3
Standard
350
18
0
MLINESTYLE
5
18
330
28b
100
AcDbMlineStyle
2
Standard
70
0
3

62
256
51
90
52
90
71
2
49
-0.5
62
256
6
ByLayer
49
0.5
62
256
6
ByLayer
0
RASTERVARIABLES
5
277
330

100
AcDbRasterVariables
90
0
70
1
71
1
72
1
0
ENDSEC
0
EOF
