0
SECTION
2
HEADER
9
$ACADVER
1
AC1015
9
$DWGCODEPAGE
3
ANSI_1252
9
$HANDSEED
5
272
9
$ANGBASE
50
0
9
$ANGDIR
70
0
9
$ATTMODE
70
1
9
$AUNITS
70
0
9
$AUPREC
70
0
9
$CECOLOR
62
256
9
$CELTSCALE
40
1
9
$CELTYPE
6
ByLayer
9
$CELWEIGHT
370
18
9
$CLAYER
8
0
9
$CMLJUST
70
0
9
$CMLSCALE
40
1
9
$CMLSTYLE
2
Standard
9
$DIMSTYLE
2
Standard
9
$TEXTSIZE
40
0.2
9
$TEXTSTYLE
7
Standard
9
$LUNITS
70
2
9
$LUPREC
70
4
9
$EXTNAMES
290
1
9
$INSUNITS
70
4
9
$LTSCALE
40
1
9
$LWDISPLAY
290
1
9
$PDMODE
70
0
9
$PDSIZE
40
0
9
$PLINEGEN
70
0
0
ENDSEC
0
SECTION
2
CLASSES
0
CLASS
1
RASTERVARIABLES
2
AcDbRasterVariables
3
ISM
90
0
280
0
281
0
0
ENDSEC
0
SECTION
2
TABLES
0
TABLE
2
VPORT
5
268
100
AcDbSymbolTable
0
VPORT
5
1
100
AcDbSymbolTableRecord
100
AcDbViewportTableRecord
2
*Active
70
0
10
0
20
0
11
1
21
1
12
-1
22
1
13
0
23
0
14
0.5
24
0.5
15
10
25
10
16
0
26
0
36
1
17
0
27
0
37
0
0
ENDTAB
0
TABLE
2
LTYPE
5
269
100
AcDbSymbolTable
0
LTYPE
5
14
100
AcDbSymbolTableRecord
100
AcDbLinetypeTableRecord
70
0
2
ByBlock
3

72
65
73
0
40
0
0
LTYPE
5
15
100
AcDbSymbolTableRecord
100
AcDbLinetypeTableRecord
70
0
2
ByLayer
3

72
65
73
0
40
0
0
LTYPE
5
16
100
AcDbSymbolTableRecord
100
AcDbLinetypeTableRecord
70
0
2
CONTINUOUS
3
Solid line
72
65
73
0
40
0
0
LTYPE
5
6A
100
AcDbSymbolTableRecord
100
AcDbLinetypeTableRecord
70
0
2
CENTER
3
____ _ ____ _ ____ _ ____
72
65
73
4
40
47.5
49
22
74
0
49
-8.5
74
0
49
8.5
74
0
49
-8.5
74
0
0
LTYPE
5
6B
100
AcDbSymbolTableRecord
100
AcDbLinetypeTableRecord
70
0
2
DASHED
3
__ __ __ __ __ __ __ __ __
72
65
73
2
40
25.72
49
12.86
74
0
49
-12.86
74
0
0
ENDTAB
0
TABLE
2
LAYER
5
26a
100
AcDbSymbolTable
0
LAYER
5
10
100
AcDbSymbolTableRecord
100
AcDbLayerTableRecord
2
0
70
0
62
7
6
CONTINUOUS
290
1
370
-3
390
0
0
LAYER
5
6D
100
AcDbSymbolTableRecord
100
AcDbLayerTableRecord
2
2
70
0
62
7
6
CONTINUOUS
290
1
370
-3
390
0
0
LAYER
5
6F
100
AcDbSymbolTableRecord
100
AcDbLayerTableRecord
2
80
70
0
62
-6
6
CONTINUOUS
290
1
370
-3
390
0
0
LAYER
5
71
100
AcDbSymbolTableRecord
100
AcDbLayerTableRecord
2
81
70
0
62
-3
6
CONTINUOUS
290
1
370
-3
390
0
0
LAYER
5
73
100
AcDbSymbolTableRecord
100
AcDbLayerTableRecord
2
1
70
0
62
4
6
CONTINUOUS
290
1
370
-3
390
0
0
LAYER
5
88
100
AcDbSymbolTableRecord
100
AcDbLayerTableRecord
2
4
70
0
62
-2
6
CENTER
290
1
370
-3
390
0
0
LAYER
5
254
100
AcDbSymbolTableRecord
100
AcDbLayerTableRecord
2
SK4
70
0
62
2
6
CENTER
290
1
370
-3
390
0
0
LAYER
5
255
100
AcDbSymbolTableRecord
100
AcDbLayerTableRecord
2
SK1
70
0
62
4
6
CONTINUOUS
290
1
370
-3
390
0
0
LAYER
5
256
100
AcDbSymbolTableRecord
100
AcDbLayerTableRecord
2
SK6
70
0
62
5
6
CONTINUOUS
290
1
370
-3
390
0
0
LAYER
5
257
100
AcDbSymbolTableRecord
100
AcDbLayerTableRecord
2
SK2
70
0
62
7
6
CONTINUOUS
290
1
370
-3
390
0
0
ENDTAB
0
TABLE
2
STYLE
5
26b
100
AcDbSymbolTable
0
STYLE
5
11
100
AcDbSymbolTableRecord
100
AcDbTextStyleTableRecord
2
Standard
3
txt
70
0
71
0
40
0
41
1
42
0
50
0
0
STYLE
5
1B8
100
AcDbSymbolTableRecord
100
AcDbTextStyleTableRecord
2
iso_b_vert
3
simplex.shx
70
0
71
0
40
0
41
1
42
0
50
0
0
STYLE
5
1B9
100
AcDbSymbolTableRecord
100
AcDbTextStyleTableRecord
2
DWGDirectTextStyle
3
simplex
70
0
71
0
40
0
41
1
42
0
50
0
0
ENDTAB
0
TABLE
2
DIMSTYLE
5
26c
100
AcDbSymbolTable
100
AcDbDimStyleTable
0
DIMSTYLE
105
27
100
AcDbSymbolTableRecord
100
AcDbDimStyleTableRecord
2
Standard
70
0
3
<>
41
0.18
42
0.0625
44
0.18
140
0.18
147
0.09
73
0
74
0
77
1
271
2
275
0
278
52
280
0
340
11
0
ENDTAB
0
TABLE
2
VIEW
5
26d
100
AcDbSymbolTable
0
ENDTAB
0
TABLE
2
UCS
5
26e
100
AcDbSymbolTable
0
ENDTAB
0
TABLE
2
APPID
5
26f
100
AcDbSymbolTable
0
APPID
5
12
100
AcDbSymbolTableRecord
100
AcDbRegAppTableRecord
2
ACAD
70
0
0
ENDTAB
0
TABLE
2
BLOCK_RECORD
5
270
100
AcDbSymbolTable
0
BLOCK_RECORD
5
1F
100
AcDbSymbolTableRecord
100
AcDbBlockTableRecord
2
*Model_Space
340
0
70
0
0
BLOCK_RECORD
5
1B
100
AcDbSymbolTableRecord
100
AcDbBlockTableRecord
2
*Paper_Space
340
0
70
0
0
BLOCK_RECORD
5
23
100
AcDbSymbolTableRecord
100
AcDbBlockTableRecord
2
*Paper_Space0
340
0
70
0
0
BLOCK_RECORD
5
1BB
100
AcDbSymbolTableRecord
100
AcDbBlockTableRecord
2
DimnDraft3D1
340
0
70
0
0
BLOCK_RECORD
5
1C9
100
AcDbSymbolTableRecord
100
AcDbBlockTableRecord
2
_CLOSED
340
0
70
0
0
BLOCK_RECORD
5
1D0
100
AcDbSymbolTableRecord
100
AcDbBlockTableRecord
2
DimnDraft3D2
340
0
70
0
0
BLOCK_RECORD
5
1DE
100
AcDbSymbolTableRecord
100
AcDbBlockTableRecord
2
DimnDraft3D3
340
0
70
0
0
BLOCK_RECORD
5
1ED
100
AcDbSymbolTableRecord
100
AcDbBlockTableRecord
2
DimnDraft3D4
340
0
70
0
0
ENDTAB
0
ENDSEC
0
SECTION
2
BLOCKS
0
BLOCK
5
20
100
AcDbEntity
8
0
100
AcDbBlockBegin
2
*Model_Space
70
0
10
0
20
0
30
0
3
*Model_Space
0
ENDBLK
5
21
100
AcDbEntity
8
0
100
AcDbBlockEnd
0
BLOCK
5
1C
100
AcDbEntity
8
0
100
AcDbBlockBegin
2
*Paper_Space
70
0
10
0
20
0
30
0
3
*Paper_Space
0
ENDBLK
5
1D
100
AcDbEntity
8
0
100
AcDbBlockEnd
0
BLOCK
5
24
100
AcDbEntity
8
0
100
AcDbBlockBegin
2
*Paper_Space0
70
0
10
0
20
0
30
0
3
*Paper_Space0
0
ENDBLK
5
25
100
AcDbEntity
8
0
100
AcDbBlockEnd
0
BLOCK
5
1C6
100
AcDbEntity
8
0
100
AcDbBlockBegin
2
DimnDraft3D1
70
0
10
0
20
0
30
0
3
DimnDraft3D1
0
MTEXT
5
1BC
100
AcDbEntity
8
2
62
256
6
ByLayer
370
18
48
1
60
0
100
AcDbMText
10
45.298545
20
-41.364197
30
0
210
0
220
0
230
1
1
\W0.7399;75%%d
40
4.5
41
0
44
1.084337
50
322.5
71
7
72
5
7
iso_b_vert
0
LINE
5
1BD
100
AcDbEntity
8
2
62
256
6
ByLayer
370
13
48
1
60
0
100
AcDbLine
10
53.62489
20
-28.708206
30
0
11
37.329177
21
-33.074629
31
0
39
0
210
0
220
0
230
1
0
LINE
5
1BE
100
AcDbEntity
8
2
62
256
6
ByLayer
370
13
48
1
60
0
100
AcDbLine
10
60
20
-29
30
0
11
60
21
-50.470563
31
0
39
0
210
0
220
0
230
1
0
ARC
5
1BF
100
AcDbEntity
8
2
62
256
6
ByLayer
370
13
48
1
60
0
100
AcDbCircle
39
0
10
60
20
-27
30
0
40
21.4705627484771
210
0
220
0
230
1
100
AcDbArc
50
195
51
270
0
LINE
5
1C0
100
AcDbEntity
8
2
62
256
6
ByLayer
370
13
48
1
60
0
100
AcDbLine
10
39.261029
20
-32.556991
30
0
11
40.594853
21
-35.46839
31
0
39
0
210
0
220
0
230
1
0
LINE
5
1C1
100
AcDbEntity
8
2
62
256
6
ByLayer
370
13
48
1
60
0
100
AcDbLine
10
39.261029
20
-32.556991
30
0
11
39.795879
21
-35.714409
31
0
39
0
210
0
220
0
230
1
0
LINE
5
1C2
100
AcDbEntity
8
2
62
256
6
ByLayer
370
13
48
1
60
0
100
AcDbLine
10
40.594853
20
-35.46839
30
0
11
39.795879
21
-35.714409
31
0
39
0
210
0
220
0
230
1
0
LINE
5
1C3
100
AcDbEntity
8
2
62
256
6
ByLayer
370
13
48
1
60
0
100
AcDbLine
10
60
20
-48.470563
30
0
11
56.811742
21
-48.771137
31
0
39
0
210
0
220
0
230
1
0
LINE
5
1C4
100
AcDbEntity
8
2
62
256
6
ByLayer
370
13
48
1
60
0
100
AcDbLine
10
60
20
-48.470563
30
0
11
56.842581
21
-47.935713
31
0
39
0
210
0
220
0
230
1
0
LINE
5
1C5
100
AcDbEntity
8
2
62
256
6
ByLayer
370
13
48
1
60
0
100
AcDbLine
10
56.811742
20
-48.771137
30
0
11
56.842581
21
-47.935713
31
0
39
0
210
0
220
0
230
1
0
ENDBLK
5
1C7
100
AcDbEntity
8
0
100
AcDbBlockEnd
0
BLOCK
5
1CA
100
AcDbEntity
8
0
100
AcDbBlockBegin
2
_CLOSED
70
0
10
0
20
0
30
0
3
_CLOSED
0
LINE
5
1CC
100
AcDbEntity
8
0
62
256
6
ByLayer
370
-2
48
1
60
0
100
AcDbLine
10
-1
20
0.166667
30
0
11
0
21
0
31
0
39
0
210
0
220
0
230
1
0
LINE
5
1CD
100
AcDbEntity
8
0
62
256
6
ByLayer
370
-2
48
1
60
0
100
AcDbLine
10
0
20
0
30
0
11
-1
21
-0.166667
31
0
39
0
210
0
220
0
230
1
0
LINE
5
1CE
100
AcDbEntity
8
0
62
256
6
ByLayer
370
-2
48
1
60
0
100
AcDbLine
10
-1
20
0.166667
30
0
11
-1
21
-0.166667
31
0
39
0
210
0
220
0
230
1
0
LINE
5
1CF
100
AcDbEntity
8
0
62
256
6
ByLayer
370
-2
48
1
60
0
100
AcDbLine
10
0
20
0
30
0
11
-1
21
0
31
0
39
0
210
0
220
0
230
1
0
ENDBLK
5
1CB
100
AcDbEntity
8
0
100
AcDbBlockEnd
0
BLOCK
5
1DB
100
AcDbEntity
8
0
100
AcDbBlockBegin
2
DimnDraft3D2
70
0
10
0
20
0
30
0
3
DimnDraft3D2
0
MTEXT
5
1D1
100
AcDbEntity
8
2
62
256
6
ByLayer
370
18
48
1
60
0
100
AcDbMText
10
25.843421
20
-53.125
30
0
210
0
220
0
230
1
1
\W0.7346;60.0
40
4.5
41
0
44
1.084337
50
0
71
7
72
5
7
iso_b_vert
0
LINE
5
1D2
100
AcDbEntity
8
2
62
256
6
ByLayer
370
13
48
1
60
0
100
AcDbLine
10
0
20
-27
30
0
11
0
21
-56.25
31
0
39
0
210
0
220
0
230
1
0
LINE
5
1D3
100
AcDbEntity
8
2
62
256
6
ByLayer
370
13
48
1
60
0
100
AcDbLine
10
60
20
-29
30
0
11
60
21
-56.25
31
0
39
0
210
0
220
0
230
1
0
LINE
5
1D4
100
AcDbEntity
8
2
62
256
6
ByLayer
370
13
48
1
60
0
100
AcDbLine
10
0
20
-54.25
30
0
11
60
21
-54.25
31
0
39
0
210
0
220
0
230
1
0
LINE
5
1D5
100
AcDbEntity
8
2
62
256
6
ByLayer
370
13
48
1
60
0
100
AcDbLine
10
0
20
-54.25
30
0
11
3.174998
21
-53.832003
31
0
39
0
210
0
220
0
230
1
0
LINE
5
1D6
100
AcDbEntity
8
2
62
256
6
ByLayer
370
13
48
1
60
0
100
AcDbLine
10
0
20
-54.25
30
0
11
3.175002
21
-54.667997
31
0
39
0
210
0
220
0
230
1
0
LINE
5
1D7
100
AcDbEntity
8
2
62
256
6
ByLayer
370
13
48
1
60
0
100
AcDbLine
10
3.174998
20
-53.832003
30
0
11
3.175002
21
-54.667997
31
0
39
0
210
0
220
0
230
1
0
LINE
5
1D8
100
AcDbEntity
8
2
62
256
6
ByLayer
370
13
48
1
60
0
100
AcDbLine
10
60
20
-54.25
30
0
11
56.825002
21
-54.667997
31
0
39
0
210
0
220
0
230
1
0
LINE
5
1D9
100
AcDbEntity
8
2
62
256
6
ByLayer
370
13
48
1
60
0
100
AcDbLine
10
60
20
-54.25
30
0
11
56.824998
21
-53.832003
31
0
39
0
210
0
220
0
230
1
0
LINE
5
1DA
100
AcDbEntity
8
2
62
256
6
ByLayer
370
13
48
1
60
0
100
AcDbLine
10
56.825002
20
-54.667997
30
0
11
56.824998
21
-53.832003
31
0
39
0
210
0
220
0
230
1
0
ENDBLK
5
1DC
100
AcDbEntity
8
0
100
AcDbBlockEnd
0
BLOCK
5
1EA
100
AcDbEntity
8
0
100
AcDbBlockBegin
2
DimnDraft3D3
70
0
10
0
20
0
30
0
3
DimnDraft3D3
0
MTEXT
5
1DF
100
AcDbEntity
8
SK2
62
256
6
ByLayer
370
18
48
1
60
0
100
AcDbMText
10
-38.875
20
-1.563158
30
0
210
0
220
0
230
1
1
\W0.6740;50
40
4.5
41
0
44
1.084337
50
90
71
7
72
5
7
iso_b_vert
0
LINE
5
1E1
100
AcDbEntity
8
SK2
62
256
6
ByLayer
370
13
48
1
60
0
100
AcDbLine
10
-2
20
-25
30
0
11
-39.75
21
-25
31
0
39
0
210
0
220
0
230
1
0
LINE
5
1E2
100
AcDbEntity
8
SK2
62
256
6
ByLayer
370
13
48
1
60
0
100
AcDbLine
10
-2
20
25
30
0
11
-39.75
21
25
31
0
39
0
210
0
220
0
230
1
0
LINE
5
1E3
100
AcDbEntity
8
SK2
62
256
6
ByLayer
370
13
48
1
60
0
100
AcDbLine
10
-37.75
20
-25
30
0
11
-37.75
21
25
31
0
39
0
210
0
220
0
230
1
0
LINE
5
1E4
100
AcDbEntity
8
SK2
62
256
6
ByLayer
370
13
48
1
60
0
100
AcDbLine
10
-37.75
20
-25
30
0
11
-38.167997
21
-21.825002
31
0
39
0
210
0
220
0
230
1
0
LINE
5
1E5
100
AcDbEntity
8
SK2
62
256
6
ByLayer
370
13
48
1
60
0
100
AcDbLine
10
-37.75
20
-25
30
0
11
-37.332003
21
-21.824998
31
0
39
0
210
0
220
0
230
1
0
LINE
5
1E6
100
AcDbEntity
8
SK2
62
256
6
ByLayer
370
13
48
1
60
0
100
AcDbLine
10
-38.167997
20
-21.825002
30
0
11
-37.332003
21
-21.824998
31
0
39
0
210
0
220
0
230
1
0
LINE
5
1E7
100
AcDbEntity
8
SK2
62
256
6
ByLayer
370
13
48
1
60
0
100
AcDbLine
10
-37.75
20
25
30
0
11
-37.332003
21
21.825002
31
0
39
0
210
0
220
0
230
1
0
LINE
5
1E8
100
AcDbEntity
8
SK2
62
256
6
ByLayer
370
13
48
1
60
0
100
AcDbLine
10
-37.75
20
25
30
0
11
-38.167997
21
21.824998
31
0
39
0
210
0
220
0
230
1
0
LINE
5
1E9
100
AcDbEntity
8
SK2
62
256
6
ByLayer
370
13
48
1
60
0
100
AcDbLine
10
-37.332003
20
21.825002
30
0
11
-38.167997
21
21.824998
31
0
39
0
210
0
220
0
230
1
0
ENDBLK
5
1EB
100
AcDbEntity
8
0
100
AcDbBlockEnd
0
BLOCK
5
1F8
100
AcDbEntity
8
0
100
AcDbBlockBegin
2
DimnDraft3D4
70
0
10
0
20
0
30
0
3
DimnDraft3D4
0
MTEXT
5
1EE
100
AcDbEntity
8
2
62
256
6
ByLayer
370
18
48
1
60
0
100
AcDbMText
10
81.125
20
-17.656579
30
0
210
0
220
0
230
1
1
\W0.7346;27.0
40
4.5
41
0
44
1.084337
50
90
71
7
72
5
7
iso_b_vert
0
LINE
5
1EF
100
AcDbEntity
8
2
62
256
6
ByLayer
370
13
48
1
60
0
100
AcDbLine
10
62
20
0
30
0
11
84.25
21
0
31
0
39
0
210
0
220
0
230
1
0
LINE
5
1F0
100
AcDbEntity
8
2
62
256
6
ByLayer
370
13
48
1
60
0
100
AcDbLine
10
62
20
-27
30
0
11
84.25
21
-27
31
0
39
0
210
0
220
0
230
1
0
LINE
5
1F1
100
AcDbEntity
8
2
62
256
6
ByLayer
370
13
48
1
60
0
100
AcDbLine
10
82.25
20
0
30
0
11
82.25
21
-27
31
0
39
0
210
0
220
0
230
1
0
LINE
5
1F2
100
AcDbEntity
8
2
62
256
6
ByLayer
370
13
48
1
60
0
100
AcDbLine
10
82.25
20
0
30
0
11
82.667997
21
-3.174998
31
0
39
0
210
0
220
0
230
1
0
LINE
5
1F3
100
AcDbEntity
8
2
62
256
6
ByLayer
370
13
48
1
60
0
100
AcDbLine
10
82.25
20
0
30
0
11
81.832003
21
-3.175002
31
0
39
0
210
0
220
0
230
1
0
LINE
5
1F4
100
AcDbEntity
8
2
62
256
6
ByLayer
370
13
48
1
60
0
100
AcDbLine
10
82.667997
20
-3.174998
30
0
11
81.832003
21
-3.175002
31
0
39
0
210
0
220
0
230
1
0
LINE
5
1F5
100
AcDbEntity
8
2
62
256
6
ByLayer
370
13
48
1
60
0
100
AcDbLine
10
82.25
20
-27
30
0
11
81.832003
21
-23.825002
31
0
39
0
210
0
220
0
230
1
0
LINE
5
1F6
100
AcDbEntity
8
2
62
256
6
ByLayer
370
13
48
1
60
0
100
AcDbLine
10
82.25
20
-27
30
0
11
82.667997
21
-23.824998
31
0
39
0
210
0
220
0
230
1
0
LINE
5
1F7
100
AcDbEntity
8
2
62
256
6
ByLayer
370
13
48
1
60
0
100
AcDbLine
10
81.832003
20
-23.825002
30
0
11
82.667997
21
-23.824998
31
0
39
0
210
0
220
0
230
1
0
ENDBLK
5
1F9
100
AcDbEntity
8
0
100
AcDbBlockEnd
0
ENDSEC
0
SECTION
2
ENTITIES
0
ARC
5
EF
100
AcDbEntity
8
SK1
62
256
6
ByLayer
370
18
48
1
60
0
100
AcDbCircle
39
0
10
0.6
20
-18.75
30
0
40
1.00000000000001
210
0
220
0
230
-1
100
AcDbArc
50
113.578178
51
126.869898
0
ARC
5
F0
100
AcDbEntity
8
SK1
62
256
6
ByLayer
370
18
48
1
60
0
100
AcDbCircle
39
0
10
0.6
20
18.75
30
0
40
1.00000000000001
210
0
220
0
230
-1
100
AcDbArc
50
233.130102
51
246.421822
0
ELLIPSE
5
F1
100
AcDbEntity
8
1
62
256
6
ByLayer
370
18
48
1
60
0
100
AcDbEllipse
10
10
20
14.427592
30
0
11
-1.99999999999999
21
2.44921270764474E-16
31
0
210
0
220
0
230
1
40
0.75471
41
-1.57079623541952
42
-0.166210030202421
0
ELLIPSE
5
F2
100
AcDbEntity
8
1
62
256
6
ByLayer
370
18
48
1
60
0
100
AcDbEllipse
10
10
20
14.427592
30
0
11
-1.99999999999999
21
2.44921270764474E-16
31
0
210
0
220
0
230
1
40
0.75471
41
-2.97528467615068
42
-1.57079623541954
0
ELLIPSE
5
F3
100
AcDbEntity
8
1
62
256
6
ByLayer
370
18
48
1
60
0
100
AcDbEllipse
10
10
20
14.427592
30
0
11
-1.65
21
2.02060048380692E-16
31
0
210
0
220
0
230
1
40
0.75471
41
-1.57079640208618
42
0
0
ELLIPSE
5
F4
100
AcDbEntity
8
1
62
256
6
ByLayer
370
18
48
1
60
0
100
AcDbEllipse
10
10
20
14.427592
30
0
11
-1.65
21
2.02060048380692E-16
31
0
210
0
220
0
230
1
40
0.75471
41
0
42
0.949546583286938
0
ELLIPSE
5
F5
100
AcDbEntity
8
1
62
256
6
ByLayer
370
18
48
1
60
0
100
AcDbEllipse
10
10
20
14.427592
30
0
11
-1.65
21
2.02060048380692E-16
31
0
210
0
220
0
230
1
40
0.75471
41
2.19194820122988
42
-1.57079640208621
0
ELLIPSE
5
F6
100
AcDbEntity
8
1
62
256
6
ByLayer
370
18
48
1
60
0
100
AcDbEllipse
10
21.415098
20
22.685665
30
0
11
-0.569255818348451
21
-46.0898670964637
31
0
210
0
220
0
230
1
40
0.085904
41
-1.16402816191757
42
-1.16121085357166
0
ELLIPSE
5
F7
100
AcDbEntity
8
1
62
256
6
ByLayer
370
18
48
1
60
0
100
AcDbEllipse
10
44.246131
20
0
30
0
11
-22.9620564296416
21
25.1383925317059
31
0
210
0
220
0
230
1
40
0.033273
41
-0.230523687968195
42
-0.0303787724836879
0
ELLIPSE
5
F8
100
AcDbEntity
8
1
62
256
6
ByLayer
370
18
48
1
60
0
100
AcDbEllipse
10
40.0401
20
-15.460731
30
0
11
-0.189999999999999
21
-0.329089653438087
31
0
210
0
220
0
230
1
40
0.989133
41
2.32952373867376
42
2.82333618195267
0
ELLIPSE
5
F9
100
AcDbEntity
8
1
62
256
6
ByLayer
370
18
48
1
60
0
100
AcDbEllipse
10
39.109024
20
-17.42478
30
0
11
-0.189999999999999
21
-0.329089653438087
31
0
210
0
220
0
230
1
40
0.989133
41
0.31823501369292
42
0.975675423072379
0
ELLIPSE
5
FA
100
AcDbEntity
8
1
62
256
6
ByLayer
370
18
48
1
60
0
100
AcDbEllipse
10
40.817452
20
-15.270017
30
0
11
0.212500000000003
21
0.368060796608385
31
0
210
0
220
0
230
1
40
0.989133
41
2.3295237386738
42
-3.14157757193108
0
ELLIPSE
5
FB
100
AcDbEntity
8
1
62
256
6
ByLayer
370
18
48
1
60
0
100
AcDbEllipse
10
39.454402
20
-18.14529
30
0
11
0.212500000000003
21
0.368060796608385
31
0
210
0
220
0
230
1
40
0.989133
41
1.32040314811582E-05
42
0.975675423072356
0
ELLIPSE
5
FC
100
AcDbEntity
8
1
62
256
6
ByLayer
370
18
48
1
60
0
100
AcDbEllipse
10
41.16283
20
-15.990527
30
0
11
-0.189999999999999
21
-0.329089653438087
31
0
210
0
220
0
230
1
40
0.989133
41
1.28232618747718
42
2.82329333791918
0
ELLIPSE
5
FD
100
AcDbEntity
8
1
62
256
6
ByLayer
370
18
48
1
60
0
100
AcDbEllipse
10
40.231754
20
-17.954576
30
0
11
-0.189999999999999
21
-0.329089653438087
31
0
210
0
220
0
230
1
40
0.989133
41
0.318276219275723
42
2.02287297426897
0
ELLIPSE
5
FE
100
AcDbEntity
8
1
62
256
6
ByLayer
370
18
48
1
60
0
100
AcDbEllipse
10
40.034065
20
-16.648844
30
0
11
2.00000000000003
21
3.46410161513774
31
0
210
0
220
0
230
1
40
0.989133
41
0.528343053518855
42
3.1414987633641
0
ELLIPSE
5
FF
100
AcDbEntity
8
1
62
256
6
ByLayer
370
18
48
1
60
0
100
AcDbEllipse
10
40.034065
20
-16.648844
30
0
11
2.00000000000003
21
3.46410161513774
31
0
210
0
220
0
230
1
40
0.989133
41
-1.0329905585144
42
0
0
ELLIPSE
5
100
100
AcDbEntity
8
1
62
256
6
ByLayer
370
18
48
1
60
0
100
AcDbEllipse
10
40.034065
20
-16.648844
30
0
11
2.00000000000003
21
3.46410161513774
31
0
210
0
220
0
230
1
40
0.989133
41
0
42
0.528338758566072
0
ELLIPSE
5
101
100
AcDbEntity
8
1
62
256
6
ByLayer
370
18
48
1
60
0
100
AcDbEllipse
10
40.135927
20
-16.707654
30
0
11
0.575000000000009
21
0.9959292143521
31
0
210
0
220
0
230
1
40
0.989133
41
0.528343195976296
42
0.770578295902022
0
ELLIPSE
5
102
100
AcDbEntity
8
1
62
256
6
ByLayer
370
18
48
1
60
0
100
AcDbEllipse
10
40.135927
20
-16.707654
30
0
11
0.575000000000009
21
0.9959292143521
31
0
210
0
220
0
230
1
40
0.989133
41
1.33488662268253
42
2.0025729504581
0
ELLIPSE
5
103
100
AcDbEntity
8
1
62
256
6
ByLayer
370
18
48
1
60
0
100
AcDbEllipse
10
40.135927
20
-16.707654
30
0
11
0.575000000000009
21
0.9959292143521
31
0
210
0
220
0
230
1
40
0.989133
41
2.54312337602151
42
0
0
ELLIPSE
5
104
100
AcDbEntity
8
1
62
256
6
ByLayer
370
18
48
1
60
0
100
AcDbEllipse
10
40.135927
20
-16.707654
30
0
11
0.575000000000009
21
0.9959292143521
31
0
210
0
220
0
230
1
40
0.989133
41
0
42
0.528342736416293
0
ELLIPSE
5
105
100
AcDbEntity
8
1
62
256
6
ByLayer
370
18
48
1
60
0
100
AcDbEllipse
10
40.072263
20
-16.670897
30
0
11
0.575000000000009
21
0.9959292143521
31
0
210
0
220
0
230
1
40
0.989133
41
-3.10928888970021
42
-0.032295181936306
0
ELLIPSE
5
106
100
AcDbEntity
8
1
62
256
6
ByLayer
370
18
48
1
60
0
100
AcDbEllipse
10
23.562725
20
3.385648
30
0
11
1.151622582421
21
1.87450404845068
31
0
210
0
220
0
230
1
40
0.165172
41
-3.14152348705775
42
-1.31079088099329E-05
0
ELLIPSE
5
107
100
AcDbEntity
8
1
62
256
6
ByLayer
370
18
48
1
60
0
100
AcDbEllipse
10
23.772811
20
3.25658
30
0
11
-1.02075637987316
21
-1.66149222476309
31
0
210
0
220
0
230
1
40
0.165172
41
0.168267113007728
42
2.97331292455151
0
ELLIPSE
5
108
100
AcDbEntity
8
1
62
256
6
ByLayer
370
18
48
1
60
0
100
AcDbEllipse
10
52.503237
20
-22.470371
30
0
11
1.29000000000002
21
2.23434554176384
31
0
210
0
220
0
230
1
40
0.989133
41
-2.82036055604637
42
-0.154719094966756
0
ELLIPSE
5
109
100
AcDbEntity
8
1
62
256
6
ByLayer
370
18
48
1
60
0
100
AcDbEllipse
10
32.47752
20
-19.274069
30
0
11
1.4773810616738
21
2.611004633969
31
0
210
0
220
0
230
1
40
0.986425
41
0.0283319602747122
42
0.0732243651094579
0
ELLIPSE
5
10A
100
AcDbEntity
8
1
62
256
6
ByLayer
370
18
48
1
60
0
100
AcDbEllipse
10
40.671776
20
-16.947548
30
0
11
-2.04371046864876
21
-3.61188974365712
31
0
210
0
220
0
230
1
40
0.986425
41
0.0732243651094593
42
3.0742798725263
0
ELLIPSE
5
10B
100
AcDbEntity
8
1
62
256
6
ByLayer
370
18
48
1
60
0
100
AcDbEllipse
10
38.771289
20
-16.051243
30
0
11
-1.2803969201173
21
-2.26287068277313
31
0
210
0
220
0
230
1
40
0.986425
41
-1.60517136563238
42
-1.3913957809532
0
ELLIPSE
5
10C
100
AcDbEntity
8
1
62
256
6
ByLayer
370
18
48
1
60
0
100
AcDbEllipse
10
39.293356
20
-10.955995
30
0
11
-4.88114345900913
21
2.54252832440661
31
0
210
0
220
0
230
1
40
0.2494
41
0.565389383096559
42
0.618381685211649
0
ELLIPSE
5
10D
100
AcDbEntity
8
1
62
256
6
ByLayer
370
18
48
1
60
0
100
AcDbEllipse
10
33.267906
20
-5.474426
30
0
11
6.32524650364759
21
-2.99854242392766
31
0
210
0
220
0
230
1
40
0.012014
41
0.810298218555949
42
0.825079255295937
0
ELLIPSE
5
10E
100
AcDbEntity
8
1
62
256
6
ByLayer
370
18
48
1
60
0
100
AcDbEllipse
10
38.703287
20
-11.433329
30
0
11
-2.00696991899581
21
3.78708252053029
31
0
210
0
220
0
230
1
40
0.503949
41
-0.592532641213503
42
-0.232916907851555
0
ELLIPSE
5
10F
100
AcDbEntity
8
1
62
256
6
ByLayer
370
18
48
1
60
0
100
AcDbEllipse
10
36.436696
20
-10.280298
30
0
11
1.67104041809719
21
1.09891943339153
31
0
210
0
220
0
230
1
40
0.773105
41
0.604901765675627
42
2.01757725993523
0
ELLIPSE
5
110
100
AcDbEntity
8
1
62
256
6
ByLayer
370
18
48
1
60
0
100
AcDbEllipse
10
32.345088
20
-17.564298
30
0
11
-1.90795612560719
21
-2.31569334088137
31
0
210
0
220
0
230
1
40
0.996259
41
-1.32342884382947
42
-0.271739780765226
0
ELLIPSE
5
111
100
AcDbEntity
8
1
62
256
6
ByLayer
370
18
48
1
60
0
100
AcDbEllipse
10
32.833113
20
-17.881841
30
0
11
-0.156208784236167
21
1.99389037204342
31
0
210
0
220
0
230
1
40
0.7808
41
1.15687686160025
42
2.56955235585986
0
ELLIPSE
5
112
100
AcDbEntity
8
1
62
256
6
ByLayer
370
18
48
1
60
0
100
AcDbEllipse
10
34.473654
20
-21.364599
30
0
11
-3.25716164033343
21
1.29770227531963
31
0
210
0
220
0
230
1
40
0.360272
41
-0.631934757203831
42
0.0912833491952782
0
ELLIPSE
5
113
100
AcDbEntity
8
1
62
256
6
ByLayer
370
18
48
1
60
0
100
AcDbEllipse
10
35.105296
20
-19.023077
30
0
11
-4.15429074101385
21
-0.629982996588507
31
0
210
0
220
0
230
1
40
0.491679
41
0.272341365393601
42
0.631957098752592
0
ELLIPSE
5
114
100
AcDbEntity
8
1
62
256
6
ByLayer
370
18
48
1
60
0
100
AcDbEllipse
10
38.352892
20
-12.939846
30
0
11
4.96983653858025
21
-2.35599761880031
31
0
210
0
220
0
230
1
40
0.012014
41
-2.41221375773598
42
-1.97044601844996
0
ELLIPSE
5
115
100
AcDbEntity
8
1
62
256
6
ByLayer
370
18
48
1
60
0
100
AcDbEllipse
10
35.943079
20
-9.97455
30
0
11
-1.90795612553998
21
-2.31569334093809
31
0
210
0
220
0
230
1
40
0.996259
41
-2.37511790692288
42
-1.323428843859
0
ELLIPSE
5
116
100
AcDbEntity
8
1
62
256
6
ByLayer
370
18
48
1
60
0
100
AcDbEllipse
10
52.979419
20
-22.734915
30
0
11
-0.221809542936737
21
-2.26087573808667
31
0
210
0
220
0
230
1
40
0.797311
41
1.30560867626911
42
2.16082000974585
0
ELLIPSE
5
117
100
AcDbEntity
8
1
62
256
6
ByLayer
370
18
48
1
60
0
100
AcDbEllipse
10
35.185101
20
-19.622112
30
0
11
-5.05707573097085
21
2.17152287994723
31
0
210
0
220
0
230
1
40
0.225408
41
-0.617379024351866
42
-0.56438671998341
0
ELLIPSE
5
118
100
AcDbEntity
8
1
62
256
6
ByLayer
370
18
48
1
60
0
100
AcDbEllipse
10
52.979419
20
-22.734915
30
0
11
-1.70960390899944
21
-1.45808439434779
31
0
210
0
220
0
230
1
40
0.793963
41
1.07204547981499
42
1.92725681329214
0
ELLIPSE
5
119
100
AcDbEntity
8
1
62
256
6
ByLayer
370
18
48
1
60
0
100
AcDbEllipse
10
36.125565
20
-17.638261
30
0
11
4.96983653858025
21
-2.35599761880031
31
0
210
0
220
0
230
1
40
0.012014
41
-2.41221375773598
42
-1.97044601844997
0
ELLIPSE
5
11A
100
AcDbEntity
8
1
62
256
6
ByLayer
370
18
48
1
60
0
100
AcDbEllipse
10
40.184743
20
-9.317397
30
0
11
-3.06427310654099
21
1.70419149664693
31
0
210
0
220
0
230
1
40
0.384187
41
-0.0892499033994393
42
0.633968202998205
0
ELLIPSE
5
11B
100
AcDbEntity
8
1
62
256
6
ByLayer
370
18
48
1
60
0
100
AcDbEllipse
10
40.246186
20
-16.771312
30
0
11
-1.99999999999999
21
-3.46410161513776
31
0
210
0
220
0
230
1
40
0.989133
41
0
42
6.28318530717959
0
ELLIPSE
5
11C
100
AcDbEntity
8
1
62
256
6
ByLayer
370
18
48
1
60
0
100
AcDbEllipse
10
41.027881
20
-18.008168
30
0
11
0.212500000000003
21
0.368060796608385
31
0
210
0
220
0
230
1
40
0.989133
41
0.235128636280553
42
2.02287297426898
0
ELLIPSE
5
11D
100
AcDbEntity
8
1
62
256
6
ByLayer
370
18
48
1
60
0
100
AcDbEllipse
10
40.33965
20
-16.825273
30
0
11
-1.14999999999999
21
-1.99185842870421
31
0
210
0
220
0
230
1
40
0.989133
41
0
42
6.28318530717959
0
ELLIPSE
5
11E
100
AcDbEntity
8
1
62
256
6
ByLayer
370
18
48
1
60
0
100
AcDbEllipse
10
40.243823
20
-15.578351
30
0
11
-0.189999999999999
21
-0.329089653438087
31
0
210
0
220
0
230
1
40
0.989133
41
2.32952373867376
42
-1.11871967932084
0
ELLIPSE
5
11F
100
AcDbEntity
8
1
62
256
6
ByLayer
370
18
48
1
60
0
100
AcDbEllipse
10
41.709406
20
-16.570532
30
0
11
0.212500000000003
21
0.368060796608385
31
0
210
0
220
0
230
1
40
0.989133
41
1.28232618747717
42
3.07007052546557
0
ELLIPSE
5
120
100
AcDbEntity
8
1
62
256
6
ByLayer
370
18
48
1
60
0
100
AcDbEllipse
10
41.46238
20
-17.355069
30
0
11
-0.189999999999999
21
-0.329089653438087
31
0
210
0
220
0
230
1
40
0.989133
41
0.235128636280553
42
3.07007052546554
0
ELLIPSE
5
121
100
AcDbEntity
8
1
62
256
6
ByLayer
370
18
48
1
60
0
100
AcDbEllipse
10
39.447696
20
-15.524759
30
0
11
0.212500000000003
21
0.368060796608385
31
0
210
0
220
0
230
1
40
0.989133
41
-2.90646401730924
42
-1.11871967932082
0
ELLIPSE
5
122
100
AcDbEntity
8
1
62
256
6
ByLayer
370
18
48
1
60
0
100
AcDbEllipse
10
39.658125
20
-18.262909
30
0
11
0.212500000000003
21
0.368060796608385
31
0
210
0
220
0
230
1
40
0.989133
41
-0.812068914915993
42
0.975675423072393
0
ELLIPSE
5
123
100
AcDbEntity
8
1
62
256
6
ByLayer
370
18
48
1
60
0
100
AcDbEllipse
10
41.231604
20
-18.125787
30
0
11
0.212500000000003
21
0.368060796608385
31
0
210
0
220
0
230
1
40
0.989133
41
0.235128636280569
42
2.02287297426896
0
ELLIPSE
5
124
100
AcDbEntity
8
1
62
256
6
ByLayer
370
18
48
1
60
0
100
AcDbEllipse
10
41.913129
20
-16.688151
30
0
11
0.212500000000003
21
0.368060796608385
31
0
210
0
220
0
230
1
40
0.989133
41
1.28232618747716
42
3.07007052546559
0
ELLIPSE
5
125
100
AcDbEntity
8
1
62
256
6
ByLayer
370
18
48
1
60
0
100
AcDbEllipse
10
39.21692
20
-16.295478
30
0
11
-0.189999999999999
21
-0.329089653438087
31
0
210
0
220
0
230
1
40
0.989133
41
-2.9064640173092
42
-0.0715221281242349
0
ELLIPSE
5
126
100
AcDbEntity
8
1
62
256
6
ByLayer
370
18
48
1
60
0
100
AcDbEllipse
10
41.258657
20
-17.237449
30
0
11
-0.189999999999999
21
-0.329089653438087
31
0
210
0
220
0
230
1
40
0.989133
41
0.235128636280612
42
3.07007052546554
0
ELLIPSE
5
127
100
AcDbEntity
8
1
62
256
6
ByLayer
370
18
48
1
60
0
100
AcDbEllipse
10
41.366553
20
-16.108146
30
0
11
-0.189999999999999
21
-0.329089653438087
31
0
210
0
220
0
230
1
40
0.989133
41
1.28232618747718
42
-2.16591723051743
0
ELLIPSE
5
128
100
AcDbEntity
8
1
62
256
6
ByLayer
370
18
48
1
60
0
100
AcDbEllipse
10
38.766171
20
-16.962395
30
0
11
0.212500000000003
21
0.368060796608385
31
0
210
0
220
0
230
1
40
0.989133
41
-1.8592664661126
42
-0.0715221281242028
0
ELLIPSE
5
129
100
AcDbEntity
8
1
62
256
6
ByLayer
370
18
48
1
60
0
100
AcDbEllipse
10
41.021175
20
-15.387637
30
0
11
0.212500000000003
21
0.368060796608385
31
0
210
0
220
0
230
1
40
0.989133
41
2.32952373867378
42
-2.16591723051742
0
ELLIPSE
5
12A
100
AcDbEntity
8
1
62
256
6
ByLayer
370
18
48
1
60
0
100
AcDbEllipse
10
39.312747
20
-17.5424
30
0
11
-0.189999999999999
21
-0.329089653438087
31
0
210
0
220
0
230
1
40
0.989133
41
-1.85926646611263
42
0.975675423072353
0
ELLIPSE
5
12B
100
AcDbEntity
8
1
62
256
6
ByLayer
370
18
48
1
60
0
100
AcDbEllipse
10
40.435477
20
-18.072196
30
0
11
-0.189999999999999
21
-0.329089653438087
31
0
210
0
220
0
230
1
40
0.989133
41
-0.812068914916009
42
2.02287297426895
0
ELLIPSE
5
12C
100
AcDbEntity
8
1
62
256
6
ByLayer
370
18
48
1
60
0
100
AcDbEllipse
10
-1.056258
20
0
30
0
11
-11.7092723497277
21
-24.677186440938
31
0
210
0
220
0
230
1
40
0.341999
41
2.05975995310053
42
2.97437958168082
0
ELLIPSE
5
12D
100
AcDbEntity
8
1
62
256
6
ByLayer
370
18
48
1
60
0
100
AcDbEllipse
10
27.068751
20
-20.421293
30
0
11
-5.06509286143986
21
2.37862092371946
31
0
210
0
220
0
230
1
40
0.714768
41
2.44930697432406
42
3.13899178028834
0
ELLIPSE
5
12E
100
AcDbEntity
8
1
62
256
6
ByLayer
370
18
48
1
60
0
100
AcDbEllipse
10
21.056258
20
0
30
0
11
-11.7092723497275
21
-24.6771864409378
31
0
210
0
220
0
230
1
40
0.341999
41
-1.08183270048927
42
-0.167213071908978
0
ELLIPSE
5
12F
100
AcDbEntity
8
1
62
256
6
ByLayer
370
18
48
1
60
0
100
AcDbEllipse
10
-1.056258
20
0
30
0
11
-11.709272349727
21
24.677186440937
31
0
210
0
220
0
230
1
40
0.341999
41
-2.97437958168081
42
-2.0597599531005
0
ELLIPSE
5
130
100
AcDbEntity
8
1
62
256
6
ByLayer
370
18
48
1
60
0
100
AcDbEllipse
10
18.187217
20
0
30
0
11
1.53075794227798E-15
21
25.0000000000001
31
0
210
0
220
0
230
1
40
0.087489
41
0.353363115402329
42
2.78822953818746
0
ELLIPSE
5
131
100
AcDbEntity
8
1
62
256
6
ByLayer
370
18
48
1
60
0
100
AcDbEllipse
10
48.14359
20
-25.116489
30
0
11
-0.0882571531029646
21
-2.73364581730104
31
0
210
0
220
0
230
1
40
0.523705
41
-1.0636711286179
42
-0.721340643630447
0
ELLIPSE
5
132
100
AcDbEntity
8
1
62
256
6
ByLayer
370
18
48
1
60
0
100
AcDbEllipse
10
21.056258
20
0
30
0
11
-11.7092723497278
21
24.6771864409381
31
0
210
0
220
0
230
1
40
0.341999
41
0.167213071908976
42
1.08183270048926
0
ELLIPSE
5
133
100
AcDbEntity
8
1
62
256
6
ByLayer
370
18
48
1
60
0
100
AcDbEllipse
10
10
20
14.658522
30
0
11
-1.99999999999996
21
2.02127811016469E-15
31
0
210
0
220
0
230
1
40
0.708833
41
0.7515046214923
42
2.3900880320975
0
ELLIPSE
5
134
100
AcDbEntity
8
1
62
256
6
ByLayer
370
18
48
1
60
0
100
AcDbEllipse
10
34.778732
20
-4.157547
30
0
11
-5.06509286145608
21
2.37862092371781
31
0
210
0
220
0
230
1
40
0.714768
41
3.13899178028728
42
-2.45450872092896
0
ELLIPSE
5
135
100
AcDbEntity
8
1
62
256
6
ByLayer
370
18
48
1
60
0
100
AcDbEllipse
10
10
20
14.658522
30
0
11
-2.00000000000007
21
2.0212781101648E-15
31
0
210
0
220
0
230
1
40
0.708833
41
-2.39008803209745
42
-0.751504621492353
0
ELLIPSE
5
136
100
AcDbEntity
8
1
62
256
6
ByLayer
370
18
48
1
60
0
100
AcDbEllipse
10
10
20
12.665093
30
0
11
-1.86732139085278
21
2.63482006210088
31
0
210
0
220
0
230
1
40
0.271866
41
0.0397891263266403
42
0.69280105937829
0
ELLIPSE
5
137
100
AcDbEntity
8
1
62
256
6
ByLayer
370
18
48
1
60
0
100
AcDbEllipse
10
10
20
12.665093
30
0
11
-1.86732139085312
21
-2.63482006210127
31
0
210
0
220
0
230
1
40
0.271866
41
2.44879159421155
42
3.10180352726319
0
ELLIPSE
5
138
100
AcDbEntity
8
1
62
256
6
ByLayer
370
18
48
1
60
0
100
AcDbEllipse
10
22.576751
20
-80.995412
30
0
11
-3.30458849831128E-15
21
53.969808142782
31
0
210
0
220
0
230
-1
40
0.074116
41
-0.186790120172598
42
-0.127673564405642
0
ELLIPSE
5
139
100
AcDbEntity
8
1
62
256
6
ByLayer
370
18
48
1
60
0
100
AcDbEllipse
10
17.021245
20
5.791669
30
0
11
-0.0137514395797839
21
-4.04201833508767
31
0
210
0
220
0
230
1
40
0.045544
41
-2.90109807646461
42
-1.33030174966993
0
ELLIPSE
5
13A
100
AcDbEntity
8
1
62
256
6
ByLayer
370
18
48
1
60
0
100
AcDbEllipse
10
17.280106
20
7.159629
30
0
11
-0.0137514395798305
21
-4.0420183350887
31
0
210
0
220
0
230
1
40
0.045544
41
2.26563583204096
42
-2.90109807646467
0
ELLIPSE
5
13B
100
AcDbEntity
8
1
62
256
6
ByLayer
370
18
48
1
60
0
100
AcDbEllipse
10
56.468635
20
-15.687019
30
0
11
-0.396999999999998
21
-0.687624170604846
31
0
210
0
220
0
230
1
40
0.989133
41
2.35073128167083
42
-2.36165769871386
0
ELLIPSE
5
13C
100
AcDbEntity
8
1
62
256
6
ByLayer
370
18
48
1
60
0
100
AcDbEllipse
10
48.537839
20
-29.253722
30
0
11
-0.396999999999998
21
-0.687624170604846
31
0
210
0
220
0
230
1
40
0.989133
41
-0.790861371918986
42
0.779934954875892
0
ELLIPSE
5
13D
100
AcDbEntity
8
1
62
256
6
ByLayer
370
18
48
1
60
0
100
AcDbEllipse
10
59.212409
20
-26.393479
30
0
11
-0.396999999999998
21
-0.687624170604846
31
0
210
0
220
0
230
1
40
0.989133
41
0.779934954875895
42
2.35073128167081
0
POINT
5
6C
100
AcDbEntity
8
2
62
256
6
ByLayer
370
18
48
1
60
0
100
AcDbPoint
10
60
20
27
30
0
39
0
210
0
220
0
230
1
50
360
0
POINT
5
6E
100
AcDbEntity
8
80
62
256
6
ByLayer
370
18
48
1
60
0
100
AcDbPoint
10
0
20
0
30
0
39
0
210
0
220
0
230
1
50
360
0
POINT
5
70
100
AcDbEntity
8
81
62
256
6
ByLayer
370
18
48
1
60
0
100
AcDbPoint
10
60
20
-27
30
0
39
0
210
0
220
0
230
1
50
360
0
SPLINE
5
13E
100
AcDbEntity
8
SK1
62
256
6
ByLayer
370
18
48
1
60
0
100
AcDbSpline
70
4
71
3
72
13
73
9
40
0
40
0
40
0
40
0
40
0.239456135686852
40
0.368359721835155
40
0.499998983918667
40
0.631638415195385
40
0.7605424677172
40
1
40
1
40
1
40
1
41
1
10
-2.19999999999999
20
-17.5200987347078
30
0
41
1
10
-2.19909198642125
20
-17.4940412586114
30
0
41
1
10
-2.19103284106788
20
-17.4566686743027
30
0
41
1
10
-2.16563592203161
20
-17.4104495005037
30
0
41
1
10
-2.13886378679047
20
-17.3791679466684
30
0
41
1
10
-2.10627712749664
20
-17.3540005764861
30
0
41
1
10
-2.05884064233982
20
-17.3309567740351
30
0
41
1
10
-2.02111030872965
20
-17.324784519015
30
0
41
1
10
-1.99503997793928
20
-17.3251861589552
30
0
0
SPLINE
5
13F
100
AcDbEntity
8
SK1
62
256
6
ByLayer
370
18
48
1
60
0
100
AcDbSpline
70
4
71
3
72
13
73
9
40
0
40
0
40
0
40
0
40
0.239457532237385
40
0.368361584743632
40
0.500001016014352
40
0.631640278103004
40
0.760543864266449
40
1
40
1
40
1
40
1
41
1
10
-1.99503997793928
20
17.3251859759625
30
0
41
1
10
-2.02111030873061
20
17.3247843360228
30
0
41
1
10
-2.05884064234166
20
17.3309565910454
30
0
41
1
10
-2.106277127498
20
17.3540003935063
30
0
41
1
10
-2.13886378679174
20
17.3791677636994
30
0
41
1
10
-2.16563592203255
20
17.4104493175479
30
0
41
1
10
-2.19103284106862
20
17.4566684913667
30
0
41
1
10
-2.19909198642199
20
17.4940410756898
30
0
41
1
10
-2.19999999999999
20
17.520098551796
30
0
0
SPLINE
5
140
100
AcDbEntity
8
SK1
62
256
6
ByLayer
370
18
48
1
60
0
100
AcDbSpline
70
4
71
2
72
6
73
3
40
0
40
0
40
0
40
1
40
1
40
1
41
1
10
-28.5
20
-16.854272429841
30
0
41
1
10
-15.3499999999294
20
-17.1845422725478
30
0
41
1
10
-2.19999999999999
20
-17.5148117187522
30
0
0
SPLINE
5
141
100
AcDbEntity
8
SK1
62
256
6
ByLayer
370
18
48
1
60
0
100
AcDbSpline
70
4
71
2
72
6
73
3
40
0
40
0
40
0
40
1
40
1
40
1
41
1
10
-2.19999999999999
20
17.5148116792767
30
0
41
1
10
-15.3499999999286
20
17.1845422635703
30
0
41
1
10
-28.5
20
16.8542724489282
30
0
0
SPLINE
5
142
100
AcDbEntity
8
SK1
62
256
6
ByLayer
370
18
48
1
60
0
100
AcDbSpline
70
4
71
2
72
6
73
3
40
0
40
0
40
0
40
1
40
1
40
1
41
1
10
-1.99503997793928
20
-17.3199593319919
30
0
41
1
10
-1.19500843340703
20
-17.3400525762132
30
0
41
1
10
-0.394976888875277
20
-17.3601458189993
30
0
0
SPLINE
5
143
100
AcDbEntity
8
SK1
62
256
6
ByLayer
370
18
48
1
60
0
100
AcDbSpline
70
4
71
2
72
6
73
3
40
0
40
0
40
0
40
1
40
1
40
1
41
1
10
-0.394976888875277
20
17.3601457933935
30
0
41
1
10
-1.19500843340703
20
17.340052552406
30
0
41
1
10
-1.99503997793928
20
17.3199593099743
30
0
0
SPLINE
5
144
100
AcDbEntity
8
SK1
62
256
6
ByLayer
370
18
48
1
60
0
100
AcDbSpline
70
4
71
2
72
6
73
3
40
0
40
0
40
0
40
1
40
1
40
1
41
1
10
-28.5
20
16.8584504491481
30
0
41
1
10
-29.2499999991495
20
16.4254650261933
30
0
41
1
10
-30
20
15.9924794145163
30
0
0
SPLINE
5
145
100
AcDbEntity
8
SK1
62
256
6
ByLayer
370
18
48
1
60
0
100
AcDbSpline
70
4
71
2
72
6
73
3
40
0
40
0
40
0
40
1
40
1
40
1
41
1
10
-30
20
-15.99247954079
30
0
41
1
10
-29.2499999991495
20
-16.4254651505507
30
0
41
1
10
-28.5
20
-16.8584505716142
30
0
0
SPLINE
5
146
100
AcDbEntity
8
SK1
62
256
6
ByLayer
370
18
48
1
60
0
100
AcDbSpline
70
4
71
2
72
6
73
3
40
0
40
0
40
0
40
1
40
1
40
1
41
1
10
-0.258658740615658
20
17.4310145299902
30
0
41
1
10
-0.305277226309727
20
17.3671842624703
30
0
41
1
10
-0.394976888875277
20
17.359696795897
30
0
0
SPLINE
5
147
100
AcDbEntity
8
SK1
62
256
6
ByLayer
370
18
48
1
60
0
100
AcDbSpline
70
4
71
2
72
6
73
3
40
0
40
0
40
0
40
1
40
1
40
1
41
1
10
-0.394976888875277
20
-17.3596982935394
30
0
41
1
10
-0.305123774552612
20
-17.3672404580573
30
0
41
1
10
-0.258442643302431
20
-17.4312381196178
30
0
0
SPLINE
5
148
100
AcDbEntity
8
SK1
62
256
6
ByLayer
370
18
48
1
60
0
100
AcDbSpline
70
4
71
3
72
284
73
280
40
0
40
0
40
0
40
0
40
0.0001430961758163
40
0.0037135036817502
40
0.0072839111876842
40
0.0108543186936182
40
0.0144247261995521
40
0.0179951337054861
40
0.0215655412114201
40
0.025135948717354
40
0.028706356223288
40
0.032276763729222
40
0.0358471712351559
40
0.0429879862470239
40
0.0465583937529578
40
0.0501288012588918
40
0.0536992087648257
40
0.0572696162707597
40
0.0644104312826276
40
0.0679808387885616
40
0.0715512462944956
40
0.0786920613063635
40
0.0822624688122975
40
0.0858328763182314
40
0.0929736913300993
40
0.0965440988360333
40
0.100114506341967
40
0.103684913847901
40
0.107255321353835
40
0.110825728859769
40
0.114396136365703
40
0.117966543871637
40
0.121536951377571
40
0.128677766389439
40
0.132248173895373
40
0.135818581401307
40
0.139388988907241
40
0.142959396413175
40
0.150100211425043
40
0.153670618930977
40
0.157241026436911
40
0.160811433942845
40
0.164381841448779
40
0.171522656460646
40
0.175093063966581
40
0.178663471472514
40
0.182233878978448
40
0.185804286484382
40
0.19294510149625
40
0.196515509002184
40
0.200085916508118
40
0.203656324014052
40
0.207226731519986
40
0.214367546531854
40
0.217937954037788
40
0.221508361543722
40
0.225078769049656
40
0.22864917655559
40
0.235789991567458
40
0.239360399073392
40
0.242930806579326
40
0.24650121408526
40
0.250071621591194
40
0.257212436603062
40
0.260782844108996
40
0.26435325161493
40
0.271494066626797
40
0.278634881638666
40
0.2822052891446
40
0.285775696650533
40
0.292916511662401
40
0.296486919168335
40
0.300057326674269
40
0.303627734180203
40
0.307198141686137
40
0.310768549192071
40
0.314338956698005
40
0.321479771709873
40
0.328620586721741
40
0.332190994227675
40
0.335761401733609
40
0.339331809239543
40
0.342902216745477
40
0.346472624251411
40
0.350043031757345
40
0.357183846769213
40
0.364324661781081
40
0.371465476792949
40
0.375035884298883
40
0.378606291804816
40
0.38217669931075
40
0.385747106816684
40
0.389317514322618
40
0.392887921828552
40
0.396458329334486
40
0.40002873684042
40
0.403599144346354
40
0.407169551852288
40
0.410739959358222
40
0.414310366864156
40
0.41788077437009
40
0.421451181876024
40
0.425021589381958
40
0.428591996887892
40
0.432162404393826
40
0.433947608146793
40
0.43573281189976
40
0.437518015652727
40
0.439303219405694
40
0.442873626911628
40
0.446444034417562
40
0.448229238170529
40
0.450014441923496
40
0.451799645676463
40
0.45358484942943
40
0.455370053182397
40
0.457155256935364
40
0.460725664441298
40
0.462510868194265
40
0.464296071947232
40
0.466081275700199
40
0.467866479453166
40
0.469651683206132
40
0.4714368869591
40
0.473222090712067
40
0.475007294465033
40
0.476792498218001
40
0.478577701970967
40
0.480362905723934
40
0.482148109476901
40
0.483933313229868
40
0.485718516982835
40
0.487503720735802
40
0.489288924488769
40
0.491074128241736
40
0.492859331994703
40
0.49464453574767
40
0.496429739500637
40
0.498214943253604
40
0.500000147006571
40
0.501785350759538
40
0.503570554512505
40
0.505355758265472
40
0.507140962018439
40
0.508926165771406
40
0.510711369524373
40
0.51249657327734
40
0.514281777030307
40
0.516066980783274
40
0.517852184536241
40
0.519637388289208
40
0.521422592042175
40
0.523207795795142
40
0.524992999548109
40
0.526778203301076
40
0.528563407054043
40
0.53034861080701
40
0.532133814559977
40
0.533919018312944
40
0.535704222065911
40
0.537489425818878
40
0.539274629571845
40
0.541059833324812
40
0.542845037077779
40
0.544630240830746
40
0.546415444583713
40
0.549985852089647
40
0.551771055842614
40
0.553556259595581
40
0.557126667101515
40
0.560697074607449
40
0.562482278360416
40
0.564267482113383
40
0.56605268586635
40
0.567837889619317
40
0.571408297125251
40
0.574978704631185
40
0.578549112137118
40
0.582119519643052
40
0.585689927148986
40
0.58926033465492
40
0.592830742160854
40
0.596401149666788
40
0.599971557172722
40
0.603541964678656
40
0.60711237218459
40
0.610682779690524
40
0.614253187196458
40
0.617823594702392
40
0.621394002208326
40
0.62496440971426
40
0.628534817220194
40
0.635675632232062
40
0.64281644724393
40
0.649957262255798
40
0.653527669761732
40
0.657098077267666
40
0.6606684847736
40
0.664238892279534
40
0.667809299785468
40
0.671379707291402
40
0.678520522303269
40
0.685661337315137
40
0.689231744821071
40
0.692802152327005
40
0.696372559832939
40
0.699942967338873
40
0.703513374844807
40
0.707083782350741
40
0.714224597362609
40
0.717795004868543
40
0.721365412374477
40
0.728506227386345
40
0.735647042398213
40
0.739217449904147
40
0.742787857410081
40
0.749928672421949
40
0.753499079927883
40
0.757069487433817
40
0.760639894939751
40
0.764210302445685
40
0.771351117457553
40
0.774921524963486
40
0.77849193246942
40
0.782062339975354
40
0.785632747481288
40
0.792773562493156
40
0.79634396999909
40
0.799914377505024
40
0.803484785010958
40
0.807055192516892
40
0.81419600752876
40
0.817766415034694
40
0.821336822540628
40
0.824907230046562
40
0.828477637552496
40
0.835618452564364
40
0.839188860070298
40
0.842759267576232
40
0.844544471329199
40
0.846329675082166
40
0.8499000825881
40
0.857040897599968
40
0.860611305105902
40
0.864181712611836
40
0.86775212011777
40
0.871322527623703
40
0.878463342635571
40
0.882033750141505
40
0.885604157647439
40
0.889174565153373
40
0.892744972659307
40
0.896315380165241
40
0.899885787671175
40
0.903456195177109
40
0.907026602683043
40
0.914167417694911
40
0.917737825200845
40
0.921308232706779
40
0.928449047718647
40
0.932019455224581
40
0.935589862730515
40
0.942730677742383
40
0.946301085248317
40
0.949871492754251
40
0.953441900260185
40
0.957012307766119
40
0.964153122777987
40
0.967723530283921
40
0.971293937789855
40
0.974864345295788
40
0.978434752801722
40
0.982005160307656
40
0.98557556781359
40
0.989145975319524
40
0.992716382825458
40
0.996286790331392
40
0.999857197837326
40
1
40
1
40
1
40
1
41
1
10
-1.99503997793928
20
-17.3206892113836
30
0
41
1
10
-1.99503997793928
20
-17.320625219167
30
0
41
1
10
-1.99503997793928
20
-17.3189470222231
30
0
41
1
10
-1.99503997793928
20
-17.3147637003649
30
0
41
1
10
-1.99503997793928
20
-17.3061342577567
30
0
41
1
10
-1.99503997793928
20
-17.295067771448
30
0
41
1
10
-1.99503997793928
20
-17.2816041041457
30
0
41
1
10
-1.99503997793928
20
-17.2657805776118
30
0
41
1
10
-1.99503997793928
20
-17.2476335117891
30
0
41
1
10
-1.99503997793928
20
-17.2271975457697
30
0
41
1
10
-1.99503997793928
20
-17.2045053960087
30
0
41
1
10
-1.99503997793928
20
-17.1795895960111
30
0
41
1
10
-1.99503997793928
20
-17.143423992764
30
0
41
1
10
-1.99503997793928
20
-17.1029924242496
30
0
41
1
10
-1.99503997793928
20
-17.0582791326422
30
0
41
1
10
-1.99503997793928
20
-17.0226787925821
30
0
41
1
10
-1.99503997793928
20
-16.9850205529168
30
0
41
1
10
-1.99503997793928
20
-16.9320728615657
30
0
41
1
10
-1.99503997793928
20
-16.8751872660894
30
0
41
1
10
-1.99503997793928
20
-16.8142877036056
30
0
41
1
10
-1.99503997793928
20
-16.7507929832779
30
0
41
1
10
-1.99503997793928
20
-16.6835453056651
30
0
41
1
10
-1.99503997793928
20
-16.6124299551482
30
0
41
1
10
-1.99503997793928
20
-16.5388242186582
30
0
41
1
10
-1.99503997793928
20
-16.4616240004255
30
0
41
1
10
-1.99503997793928
20
-16.3806869939664
30
0
41
1
10
-1.99503997793928
20
-16.3182114219941
30
0
41
1
10
-1.99503997793928
20
-16.2539521138773
30
0
41
1
10
-1.99503997793928
20
-16.1879246249361
30
0
41
1
10
-1.99503997793928
20
-16.1201424382026
30
0
41
1
10
-1.99503997793928
20
-16.0506207732709
30
0
41
1
10
-1.99503997793928
20
-15.979373490825
30
0
41
1
10
-1.99503997793928
20
-15.8820499794418
30
0
41
1
10
-1.99503997793928
20
-15.7814584486047
30
0
41
1
10
-1.99503997793928
20
-15.677384958149
30
0
41
1
10
-1.99503997793928
20
-15.5977008436634
30
0
41
1
10
-1.99503997793928
20
-15.5163656256123
30
0
41
1
10
-1.99503997793928
20
-15.4056838451686
30
0
41
1
10
-1.99503997793928
20
-15.2918890118945
30
0
41
1
10
-1.99503997793928
20
-15.1747311694574
30
0
41
1
10
-1.99503997793928
20
-15.0853020659337
30
0
41
1
10
-1.99503997793928
20
-14.9942846604514
30
0
41
1
10
-1.99503997793928
20
-14.8707702235387
30
0
41
1
10
-1.99503997793928
20
-14.7442755428493
30
0
41
1
10
-1.99503997793928
20
-14.6145160455858
30
0
41
1
10
-1.99503997793928
20
-14.5156939096276
30
0
41
1
10
-1.99503997793928
20
-14.4153366771621
30
0
41
1
10
-1.99503997793928
20
-14.2794333721973
30
0
41
1
10
-1.99503997793928
20
-14.1406647198644
30
0
41
1
10
-1.99503997793928
20
-13.9987118830366
30
0
41
1
10
-1.99503997793928
20
-13.8907947247769
30
0
41
1
10
-1.99503997793928
20
-13.7813876415877
30
0
41
1
10
-1.99503997793928
20
-13.6334713769854
30
0
41
1
10
-1.99503997793928
20
-13.482790135872
30
0
41
1
10
-1.99503997793928
20
-13.328990109671
30
0
41
1
10
-1.99503997793928
20
-13.2122307400427
30
0
41
1
10
-1.99503997793928
20
-13.09401974916
30
0
41
1
10
-1.99503997793928
20
-12.9344093145834
30
0
41
1
10
-1.99503997793928
20
-12.7721223429484
30
0
41
1
10
-1.99503997793928
20
-12.606768466692
30
0
41
1
10
-1.99503997793928
20
-12.4813812679684
30
0
41
1
10
-1.99503997793928
20
-12.3545748152048
30
0
41
1
10
-1.99503997793928
20
-12.1835401119863
30
0
41
1
10
-1.99503997793928
20
-12.0099077332894
30
0
41
1
10
-1.99503997793928
20
-11.8332480165124
30
0
41
1
10
-1.99503997793928
20
-11.6547268261542
30
0
41
1
10
-1.99503997793928
20
-11.4282697000141
30
0
41
1
10
-1.99503997793928
20
-11.1972001365959
30
0
41
1
10
-1.99503997793928
20
-11.00944356136
30
0
41
1
10
-1.99503997793928
20
-10.8198574498995
30
0
41
1
10
-1.99503997793928
20
-10.627787937013
30
0
41
1
10
-1.99503997793928
20
-10.4327334855784
30
0
41
1
10
-1.99503997793928
20
-10.2851499168301
30
0
41
1
10
-1.99503997793928
20
-10.13621047024
30
0
41
1
10
-1.99503997793928
20
-9.98591879047714
30
0
41
1
10
-1.99503997793928
20
-9.83427692622885
30
0
41
1
10
-1.99503997793928
20
-9.63019833168175
30
0
41
1
10
-1.99503997793928
20
-9.37195865327328
30
0
41
1
10
-1.99503997793928
20
-9.1092571782612
30
0
41
1
10
-1.99503997793928
20
-8.89624559944801
30
0
41
1
10
-1.99503997793928
20
-8.73523611643316
30
0
41
1
10
-1.99503997793928
20
-8.57289871794615
30
0
41
1
10
-1.99503997793928
20
-8.40923673354897
30
0
41
1
10
-1.99503997793928
20
-8.24425232954013
30
0
41
1
10
-1.99503997793928
20
-8.0224014648056
30
0
41
1
10
-1.99503997793928
20
-7.7420578132905
30
0
41
1
10
-1.99503997793928
20
-7.40025290593451
30
0
41
1
10
-1.99503997793928
20
-7.11118461088941
30
0
41
1
10
-1.99503997793928
20
-6.87709665618266
30
0
41
1
10
-1.99503997793928
20
-6.70033531356589
30
0
41
1
10
-1.99503997793928
20
-6.52228078287743
30
0
41
1
10
-1.99503997793928
20
-6.3429370741791
30
0
41
1
10
-1.99503997793928
20
-6.16230788845579
30
0
41
1
10
-1.99503997793928
20
-5.98039789106801
30
0
41
1
10
-1.99503997793928
20
-5.79721186805691
30
0
41
1
10
-1.99503997793928
20
-5.61275496243289
30
0
41
1
10
-1.99503997793928
20
-5.42703270327695
30
0
41
1
10
-1.99503997793928
20
-5.24005175731475
30
0
41
1
10
-1.99503997793928
20
-5.05181945337139
30
0
41
1
10
-1.99503997793928
20
-4.86234332329403
30
0
41
1
10
-1.99503997793928
20
-4.67163207713236
30
0
41
1
10
-1.99503997793928
20
-4.47969614999016
30
0
41
1
10
-1.99503997793928
20
-4.28654656517494
30
0
41
1
10
-1.99503997793928
20
-4.09219634432211
30
0
41
1
10
-1.99503997793928
20
-3.92934661081907
30
0
41
1
10
-1.99503997793928
20
-3.7982972967292
30
0
41
1
10
-1.99503997793928
20
-3.69979994526253
30
0
41
1
10
-1.99503997793928
20
-3.6010147061962
30
0
41
1
10
-1.99503997793928
20
-3.46881385164499
30
0
41
1
10
-1.99503997793928
20
-3.30310841087518
30
0
41
1
10
-1.99503997793928
20
-3.13647579824178
30
0
41
1
10
-1.99503997793928
20
-3.00241852965871
30
0
41
1
10
-1.99503997793928
20
-2.90170218623106
30
0
41
1
10
-1.99503997793928
20
-2.80072442890969
30
0
41
1
10
-1.99503997793928
20
-2.69948931487846
30
0
41
1
10
-1.99503997793928
20
-2.5980019734576
30
0
41
1
10
-1.99503997793928
20
-2.46222694501739
30
0
41
1
10
-1.99503997793928
20
-2.3263670801044
30
0
41
1
10
-1.99503997793928
20
-2.18963187963746
30
0
41
1
10
-1.99503997793928
20
-2.08696367451518
30
0
41
1
10
-1.99503997793928
20
-1.98407765086858
30
0
41
1
10
-1.99503997793928
20
-1.88098143773604
30
0
41
1
10
-1.99503997793928
20
-1.77768276547397
30
0
41
1
10
-1.99503997793928
20
-1.67418894734925
30
0
41
1
10
-1.99503997793928
20
-1.57050946303122
30
0
41
1
10
-1.99503997793928
20
-1.46665209995737
30
0
41
1
10
-1.99503997793928
20
-1.36262724011792
30
0
41
1
10
-1.99503997793928
20
-1.25844372920938
30
0
41
1
10
-1.99503997793928
20
-1.15411255471386
30
0
41
1
10
-1.99503997793928
20
-1.04964378000579
30
0
41
1
10
-1.99503997793928
20
-0.945048899580655
30
0
41
1
10
-1.99503997793928
20
-0.840338961204225
30
0
41
1
10
-1.99503997793928
20
-0.735526073032332
30
0
41
1
10
-1.99503997793928
20
-0.630622105582688
30
0
41
1
10
-1.99503997793928
20
-0.525639721157262
30
0
41
1
10
-1.99503997793928
20
-0.420591350928703
30
0
41
1
10
-1.99503997793928
20
-0.315490126623814
30
0
41
1
10
-1.99503997793928
20
-0.210348939519435
30
0
41
1
10
-1.99503997793928
20
-0.105181165306249
30
0
41
1
10
-1.99503997793928
20
2.6093687E-09
30
0
41
1
10
-1.99503997793928
20
0.10518117389941
30
0
41
1
10
-1.99503997793928
20
0.21034895445402
30
0
41
1
10
-1.99503997793928
20
0.315490140896543
30
0
41
1
10
-1.99503997793928
20
0.420591355720489
30
0
41
1
10
-1.99503997793928
20
0.525639723935797
30
0
41
1
10
-1.99503997793928
20
0.630622120770227
30
0
41
1
10
-1.99503997793928
20
0.735526093018507
30
0
41
1
10
-1.99503997793928
20
0.840338966235578
30
0
41
1
10
-1.99503997793928
20
0.945048896197648
30
0
41
1
10
-1.99503997793928
20
1.04964379294299
30
0
41
1
10
-1.99503997793928
20
1.15411258033262
30
0
41
1
10
-1.99503997793928
20
1.25844373877697
30
0
41
1
10
-1.99503997793928
20
1.36262723194542
30
0
41
1
10
-1.99503997793928
20
1.46665210416356
30
0
41
1
10
-1.99503997793928
20
1.57050948928742
30
0
41
1
10
-1.99503997793928
20
1.67418896894682
30
0
41
1
10
-1.99503997793928
20
1.77768276258209
30
0
41
1
10
-1.99503997793928
20
1.88098142742643
30
0
41
1
10
-1.99503997793928
20
1.98407766278629
30
0
41
1
10
-1.99503997793928
20
2.08696370566375
30
0
41
1
10
-1.99503997793928
20
2.18963189754737
30
0
41
1
10
-1.99503997793928
20
2.29207637206397
30
0
41
1
10
-1.99503997793928
20
2.39428973936722
30
0
41
1
10
-1.99503997793928
20
2.49626703199883
30
0
41
1
10
-1.99503997793928
20
2.59800197223717
30
0
41
1
10
-1.99503997793928
20
2.73345090264118
30
0
41
1
10
-1.99503997793928
20
2.86801083241156
30
0
41
1
10
-1.99503997793928
20
3.00241855173454
30
0
41
1
10
-1.99503997793928
20
3.13647582573117
30
0
41
1
10
-1.99503997793928
20
3.30310842941955
30
0
41
1
10
-1.99503997793928
20
3.46881383607317
30
0
41
1
10
-1.99503997793928
20
3.60101470543907
30
0
41
1
10
-1.99503997793928
20
3.69979996514493
30
0
41
1
10
-1.99503997793928
20
3.79829732832764
30
0
41
1
10
-1.99503997793928
20
3.92934662557204
30
0
41
1
10
-1.99503997793928
20
4.09219631216948
30
0
41
1
10
-1.99503997793928
20
4.28654650347451
30
0
41
1
10
-1.99503997793928
20
4.47969611179559
30
0
41
1
10
-1.99503997793928
20
4.67163198724225
30
0
41
1
10
-1.99503997793928
20
4.86234315765492
30
0
41
1
10
-1.99503997793928
20
5.05181944357969
30
0
41
1
10
-1.99503997793928
20
5.24005183821342
30
0
41
1
10
-1.99503997793928
20
5.42703263168386
30
0
41
1
10
-1.99503997793928
20
5.61275497462711
30
0
41
1
10
-1.99503997793928
20
5.79721217482029
30
0
41
1
10
-1.99503997793928
20
5.98039819956611
30
0
41
1
10
-1.99503997793928
20
6.16230794338162
30
0
41
1
10
-1.99503997793928
20
6.34293700639154
30
0
41
1
10
-1.99503997793928
20
6.52228076981257
30
0
41
1
10
-1.99503997793928
20
6.70033533418757
30
0
41
1
10
-1.99503997793928
20
6.87709665926303
30
0
41
1
10
-1.99503997793928
20
7.11118459991687
30
0
41
1
10
-1.99503997793928
20
7.40025292645402
30
0
41
1
10
-1.99503997793928
20
7.74205781809903
30
0
41
1
10
-1.99503997793928
20
8.02240145976876
30
0
41
1
10
-1.99503997793928
20
8.24425235284596
30
0
41
1
10
-1.99503997793928
20
8.40923674956807
30
0
41
1
10
-1.99503997793928
20
8.57289871422529
30
0
41
1
10
-1.99503997793928
20
8.73523610803539
30
0
41
1
10
-1.99503997793928
20
8.89624560664996
30
0
41
1
10
-1.99503997793928
20
9.10925720032841
30
0
41
1
10
-1.99503997793928
20
9.37195865915049
30
0
41
1
10
-1.99503997793928
20
9.6301983246166
30
0
41
1
10
-1.99503997793928
20
9.83427694277646
30
0
41
1
10
-1.99503997793928
20
9.98591881051331
30
0
41
1
10
-1.99503997793928
20
10.1362104789651
30
0
41
1
10
-1.99503997793928
20
10.2851499142426
30
0
41
1
10
-1.99503997793928
20
10.432733482583
30
0
41
1
10
-1.99503997793928
20
10.6277879483349
30
0
41
1
10
-1.99503997793928
20
10.8198574709635
30
0
41
1
10
-1.99503997793928
20
11.0094435667743
30
0
41
1
10
-1.99503997793928
20
11.1972001338813
30
0
41
1
10
-1.99503997793928
20
11.4282697094187
30
0
41
1
10
-1.99503997793928
20
11.6547268446385
30
0
41
1
10
-1.99503997793928
20
11.8332480225582
30
0
41
1
10
-1.99503997793928
20
12.0099077334538
30
0
41
1
10
-1.99503997793928
20
12.1835401209566
30
0
41
1
10
-1.99503997793928
20
12.3545748313203
30
0
41
1
10
-1.99503997793928
20
12.4813812819682
30
0
41
1
10
-1.99503997793928
20
12.6067684751262
30
0
41
1
10
-1.99503997793928
20
12.7721223466594
30
0
41
1
10
-1.99503997793928
20
12.9344093235711
30
0
41
1
10
-1.99503997793928
20
13.0940197637218
30
0
41
1
10
-1.99503997793928
20
13.2122307543484
30
0
41
1
10
-1.99503997793928
20
13.3289901210133
30
0
41
1
10
-1.99503997793928
20
13.4827901435456
30
0
41
1
10
-1.99503997793928
20
13.6334713858817
30
0
41
1
10
-1.99503997793928
20
13.7813876543746
30
0
41
1
10
-1.99503997793928
20
13.8907947392413
30
0
41
1
10
-1.99503997793928
20
13.99871189727
30
0
41
1
10
-1.99503997793928
20
14.1406647319193
30
0
41
1
10
-1.99503997793928
20
14.2794333813788
30
0
41
1
10
-1.99503997793928
20
14.4153366880849
30
0
41
1
10
-1.99503997793928
20
14.5156939237825
30
0
41
1
10
-1.99503997793928
20
14.614516060936
30
0
41
1
10
-1.99503997793928
20
14.7442755571137
30
0
41
1
10
-1.99503997793928
20
14.8707702595594
30
0
41
1
10
-1.99503997793928
20
14.9942845913974
30
0
41
1
10
-1.99503997793928
20
15.070107125687
30
0
41
1
10
-1.99503997793928
20
15.130016414734
30
0
41
1
10
-1.99503997793928
20
15.1893946011099
30
0
41
1
10
-1.99503997793928
20
15.2918890331241
30
0
41
1
10
-1.99503997793928
20
15.4056838559475
30
0
41
1
10
-1.99503997793928
20
15.5163656330196
30
0
41
1
10
-1.99503997793928
20
15.5977008570348
30
0
41
1
10
-1.99503997793928
20
15.677384979663
30
0
41
1
10
-1.99503997793928
20
15.781458474053
30
0
41
1
10
-1.99503997793928
20
15.8820499896637
30
0
41
1
10
-1.99503997793928
20
15.9793734967038
30
0
41
1
10
-1.99503997793928
20
16.0506207879892
30
0
41
1
10
-1.99503997793928
20
16.1201424632647
30
0
41
1
10
-1.99503997793928
20
16.1879246525291
30
0
41
1
10
-1.99503997793928
20
16.2539521307207
30
0
41
1
10
-1.99503997793928
20
16.3182114280861
30
0
41
1
10
-1.99503997793928
20
16.3806869997558
30
0
41
1
10
-1.99503997793928
20
16.4616240235723
30
0
41
1
10
-1.99503997793928
20
16.538824252381
30
0
41
1
10
-1.99503997793928
20
16.6124299668847
30
0
41
1
10
-1.99503997793928
20
16.6835453043615
30
0
41
1
10
-1.99503997793928
20
16.7507930080793
30
0
41
1
10
-1.99503997793928
20
16.8142877377232
30
0
41
1
10
-1.99503997793928
20
16.8751872797734
30
0
41
1
10
-1.99503997793928
20
16.9320728583858
30
0
41
1
10
-1.99503997793928
20
16.9850205784631
30
0
41
1
10
-1.99503997793928
20
17.0226788299273
30
0
41
1
10
-1.99503997793928
20
17.0582791544304
30
0
41
1
10
-1.99503997793928
20
17.1029924178939
30
0
41
1
10
-1.99503997793928
20
17.1434240170936
30
0
41
1
10
-1.99503997793928
20
17.1795896288677
30
0
41
1
10
-1.99503997793928
20
17.204505416066
30
0
41
1
10
-1.99503997793928
20
17.2271975480507
30
0
41
1
10
-1.99503997793928
20
17.2476335178127
30
0
41
1
10
-1.99503997793928
20
17.2657806121613
30
0
41
1
10
-1.99503997793928
20
17.2816041393821
30
0
41
1
10
-1.99503997793928
20
17.2950677779805
30
0
41
1
10
-1.99503997793928
20
17.3061342543252
30
0
41
1
10
-1.99503997793928
20
17.3147637210185
30
0
41
1
10
-1.99503997793928
20
17.3189468552631
30
0
41
1
10
-1.99503997793928
20
17.320624926182
30
0
41
1
10
-1.99503997793926
20
17.3206887885387
30
0
0
SPLINE
5
149
100
AcDbEntity
8
SK1
62
256
6
ByLayer
370
18
48
1
60
0
100
AcDbSpline
70
4
71
3
72
282
73
278
40
0
40
0
40
0
40
0
40
0.0031455711271939
40
0.0067200627883475
40
0.0102945544495012
40
0.0138690461106548
40
0.0174435377718084
40
0.0210180294329621
40
0.0245925210941157
40
0.0281670127552693
40
0.031741504416423
40
0.0353159960775766
40
0.0424649793998839
40
0.0460394710610375
40
0.0496139627221911
40
0.0531884543833448
40
0.0567629460444984
40
0.0639119293668057
40
0.0674864210279593
40
0.0710609126891129
40
0.0782098960114202
40
0.0817843876725738
40
0.0853588793337275
40
0.0925078626560347
40
0.0960823543171884
40
0.099656845978342
40
0.103231337639496
40
0.106805829300649
40
0.110380320961803
40
0.113954812622956
40
0.11752930428411
40
0.121103795945264
40
0.128252779267571
40
0.131827270928725
40
0.135401762589878
40
0.138976254251032
40
0.142550745912186
40
0.149699729234493
40
0.153274220895646
40
0.1568487125568
40
0.160423204217954
40
0.163997695879107
40
0.171146679201415
40
0.174721170862568
40
0.178295662523722
40
0.181870154184876
40
0.185444645846029
40
0.192593629168336
40
0.19616812082949
40
0.199742612490644
40
0.203317104151797
40
0.206891595812951
40
0.214040579135258
40
0.217615070796412
40
0.221189562457565
40
0.224764054118719
40
0.228338545779873
40
0.23548752910218
40
0.239062020763334
40
0.242636512424487
40
0.246211004085641
40
0.249785495746795
40
0.256934479069102
40
0.260508970730255
40
0.264083462391409
40
0.271232445713716
40
0.278381429036024
40
0.281955920697177
40
0.285530412358331
40
0.292679395680638
40
0.296253887341792
40
0.299828379002946
40
0.303402870664099
40
0.306977362325253
40
0.310551853986406
40
0.31412634564756
40
0.321275328969867
40
0.328424312292175
40
0.331998803953328
40
0.335573295614482
40
0.339147787275635
40
0.342722278936789
40
0.346296770597943
40
0.349871262259096
40
0.357020245581404
40
0.364169228903711
40
0.371318212226018
40
0.374892703887172
40
0.378467195548325
40
0.382041687209479
40
0.385616178870633
40
0.389190670531786
40
0.39276516219294
40
0.396339653854093
40
0.399914145515247
40
0.403488637176401
40
0.407063128837555
40
0.410637620498708
40
0.414212112159862
40
0.417786603821015
40
0.421361095482169
40
0.424935587143323
40
0.428510078804476
40
0.43208457046563
40
0.433871816296207
40
0.435659062126784
40
0.43744630795736
40
0.439233553787937
40
0.442808045449091
40
0.446382537110244
40
0.448169782940821
40
0.449957028771398
40
0.451744274601975
40
0.453531520432552
40
0.455318766263129
40
0.457106012093705
40
0.460680503754859
40
0.462467749585436
40
0.464254995416013
40
0.466042241246589
40
0.467829487077166
40
0.469616732907743
40
0.47140397873832
40
0.473191224568897
40
0.474978470399474
40
0.47676571623005
40
0.478552962060627
40
0.480340207891204
40
0.482127453721781
40
0.483914699552358
40
0.485701945382934
40
0.487489191213511
40
0.489276437044088
40
0.491063682874665
40
0.492850928705242
40
0.494638174535818
40
0.496425420366395
40
0.498212666196972
40
0.499999912027549
40
0.501787157858126
40
0.503574403688703
40
0.505361649519279
40
0.507148895349856
40
0.508936141180433
40
0.51072338701101
40
0.512510632841587
40
0.514297878672163
40
0.51608512450274
40
0.517872370333317
40
0.519659616163894
40
0.521446861994471
40
0.523234107825048
40
0.525021353655624
40
0.526808599486201
40
0.528595845316778
40
0.530383091147355
40
0.532170336977932
40
0.533957582808508
40
0.535744828639085
40
0.537532074469662
40
0.539319320300239
40
0.541106566130816
40
0.542893811961393
40
0.544681057791969
40
0.546468303622546
40
0.5500427952837
40
0.551830041114277
40
0.553617286944853
40
0.557191778606007
40
0.560766270267161
40
0.562553516097738
40
0.564340761928314
40
0.566128007758891
40
0.567915253589468
40
0.571489745250622
40
0.575064236911775
40
0.578638728572929
40
0.582213220234083
40
0.585787711895236
40
0.58936220355639
40
0.592936695217543
40
0.596511186878697
40
0.600085678539851
40
0.603660170201004
40
0.607234661862158
40
0.610809153523312
40
0.614383645184465
40
0.617958136845619
40
0.621532628506772
40
0.625107120167926
40
0.62868161182908
40
0.635830595151387
40
0.642979578473694
40
0.650128561796002
40
0.653703053457155
40
0.657277545118309
40
0.660852036779462
40
0.664426528440616
40
0.66800102010177
40
0.671575511762923
40
0.678724495085231
40
0.685873478407538
40
0.689447970068692
40
0.693022461729845
40
0.696596953390999
40
0.700171445052152
40
0.703745936713306
40
0.70732042837446
40
0.714469411696767
40
0.718043903357921
40
0.721618395019074
40
0.728767378341382
40
0.735916361663689
40
0.739490853324842
40
0.743065344985996
40
0.750214328308303
40
0.753788819969457
40
0.75736331163061
40
0.760937803291764
40
0.764512294952918
40
0.771661278275225
40
0.775235769936379
40
0.778810261597532
40
0.782384753258686
40
0.78595924491984
40
0.793108228242147
40
0.796682719903301
40
0.800257211564454
40
0.803831703225608
40
0.807406194886761
40
0.814555178209069
40
0.818129669870222
40
0.821704161531376
40
0.82527865319253
40
0.828853144853683
40
0.836002128175991
40
0.839576619837144
40
0.843151111498298
40
0.844938357328874
40
0.846725603159451
40
0.850300094820605
40
0.857449078142912
40
0.861023569804066
40
0.864598061465219
40
0.868172553126373
40
0.871747044787527
40
0.878896028109834
40
0.882470519770988
40
0.886045011432141
40
0.889619503093295
40
0.893193994754449
40
0.896768486415602
40
0.900342978076756
40
0.90391746973791
40
0.907491961399063
40
0.91464094472137
40
0.918215436382524
40
0.921789928043678
40
0.928938911365985
40
0.932513403027138
40
0.936087894688292
40
0.9432368780106
40
0.946811369671753
40
0.950385861332907
40
0.95396035299406
40
0.957534844655214
40
0.964683827977521
40
0.968258319638675
40
0.971832811299828
40
0.975407302960982
40
0.978981794622136
40
0.98255628628329
40
0.986130777944443
40
0.989705269605597
40
0.99327976126675
40
0.996854252927904
40
1
40
1
40
1
40
1
41
1
10
-2.19999999999999
20
-17.51474487837
30
0
41
1
10
-2.19999999999996
20
-17.513205012894
30
0
41
1
10
-2.20000000000002
20
-17.5092143162732
30
0
41
1
10
-2.19999999999999
20
-17.5008423359265
30
0
41
1
10
-2.19999999999999
20
-17.4896606050755
30
0
41
1
10
-2.19999999999999
20
-17.4760589345483
30
0
41
1
10
-2.19999999999999
20
-17.4600756660116
30
0
41
1
10
-2.19999999999999
20
-17.4417480829298
30
0
41
1
10
-2.19999999999999
20
-17.4211116708093
30
0
41
1
10
-2.19999999999999
20
-17.3981999720817
30
0
41
1
10
-2.19999999999999
20
-17.373046254225
30
0
41
1
10
-2.19999999999999
20
-17.3365615480365
30
0
41
1
10
-2.19999999999999
20
-17.2957083393221
30
0
41
1
10
-2.19999999999999
20
-17.2506132986913
30
0
41
1
10
-2.19999999999999
20
-17.2146924230801
30
0
41
1
10
-2.19999999999999
20
-17.1766986759847
30
0
41
1
10
-2.19999999999999
20
-17.1233138560685
30
0
41
1
10
-2.19999999999999
20
-17.0658713749173
30
0
41
1
10
-2.19999999999999
20
-17.0044820563696
30
0
41
1
10
-2.19999999999999
20
-16.9404819965209
30
0
41
1
10
-2.19999999999999
20
-16.8725984751516
30
0
41
1
10
-2.19999999999999
20
-16.8009296734765
30
0
41
1
10
-2.19999999999999
20
-16.72675615712
30
0
41
1
10
-2.19999999999999
20
-16.6488472996884
30
0
41
1
10
-2.19999999999999
20
-16.5672977573629
30
0
41
1
10
-2.19999999999999
20
-16.5043209819811
30
0
41
1
10
-2.19999999999999
20
-16.4395493732765
30
0
41
1
10
-2.19999999999999
20
-16.3729983406747
30
0
41
1
10
-2.19999999999999
20
-16.3046816133433
30
0
41
1
10
-2.19999999999999
20
-16.2346146587631
30
0
41
1
10
-2.19999999999999
20
-16.1628111167189
30
0
41
1
10
-2.19999999999999
20
-16.0647793469533
30
0
41
1
10
-2.19999999999999
20
-15.9633134995801
30
0
41
1
10
-2.19999999999999
20
-15.8584913887799
30
0
41
1
10
-2.19999999999999
20
-15.7781982427732
30
0
41
1
10
-2.19999999999999
20
-15.6962433497342
30
0
41
1
10
-2.19999999999999
20
-15.5847743861311
30
0
41
1
10
-2.19999999999999
20
-15.4700110710185
30
0
41
1
10
-2.19999999999999
20
-15.3520264687641
30
0
41
1
10
-2.19999999999999
20
-15.2619258251736
30
0
41
1
10
-2.19999999999999
20
-15.1702262286607
30
0
41
1
10
-2.19999999999999
20
-15.0458463802595
30
0
41
1
10
-2.19999999999999
20
-14.9182892137509
30
0
41
1
10
-2.19999999999999
20
-14.7876243835494
30
0
41
1
10
-2.19999999999999
20
-14.6880675684927
30
0
41
1
10
-2.19999999999999
20
-14.5869647024964
30
0
41
1
10
-2.19999999999999
20
-14.4501162009323
30
0
41
1
10
-2.19999999999999
20
-14.310188578504
30
0
41
1
10
-2.19999999999999
20
-14.1672492498436
30
0
41
1
10
-2.19999999999999
20
-14.0585319196999
30
0
41
1
10
-2.19999999999999
20
-13.9483131149779
30
0
41
1
10
-2.19999999999999
20
-13.7993681823229
30
0
41
1
10
-2.19999999999999
20
-13.6474264445925
30
0
41
1
10
-2.19999999999999
20
-13.4925540283558
30
0
41
1
10
-2.19999999999999
20
-13.3749248852381
30
0
41
1
10
-2.19999999999999
20
-13.2558316845062
30
0
41
1
10
-2.19999999999999
20
-13.0951031858018
30
0
41
1
10
-2.19999999999999
20
-12.9314463879873
30
0
41
1
10
-2.19999999999999
20
-12.7649271524075
30
0
41
1
10
-2.19999999999999
20
-12.6385945304865
30
0
41
1
10
-2.19999999999999
20
-12.510828990928
30
0
41
1
10
-2.19999999999999
20
-12.3385783725546
30
0
41
1
10
-2.19999999999999
20
-12.1634558634281
30
0
41
1
10
-2.19999999999999
20
-11.9855279960913
30
0
41
1
10
-2.19999999999999
20
-11.8057193844339
30
0
41
1
10
-2.19999999999999
20
-11.5774197426994
30
0
41
1
10
-2.19999999999999
20
-11.3444552561941
30
0
41
1
10
-2.19999999999999
20
-11.1553144466797
30
0
41
1
10
-2.19999999999999
20
-10.96432157968
30
0
41
1
10
-2.19999999999999
20
-10.7705258372791
30
0
41
1
10
-2.19999999999999
20
-10.5740001677826
30
0
41
1
10
-2.19999999999999
20
-10.4252200954492
30
0
41
1
10
-2.19999999999999
20
-10.2750653600417
30
0
41
1
10
-2.19999999999999
20
-10.1235384488298
30
0
41
1
10
-2.19999999999999
20
-9.97064122920807
30
0
41
1
10
-2.19999999999999
20
-9.76496631801302
30
0
41
1
10
-2.19999999999999
20
-9.50443392738597
30
0
41
1
10
-2.19999999999999
20
-9.23936570098886
30
0
41
1
10
-2.19999999999999
20
-9.02461799380217
30
0
41
1
10
-2.19999999999999
20
-8.86219304475887
30
0
41
1
10
-2.19999999999999
20
-8.69841428000512
30
0
41
1
10
-2.19999999999999
20
-8.53328405958746
30
0
41
1
10
-2.19999999999999
20
-8.36680339868337
30
0
41
1
10
-2.19999999999999
20
-8.14304412571011
30
0
41
1
10
-2.19999999999999
20
-7.85994707617317
30
0
41
1
10
-2.19999999999999
20
-7.51487111531026
30
0
41
1
10
-2.19999999999999
20
-7.22282329277962
30
0
41
1
10
-2.19999999999999
20
-6.98653548716825
30
0
41
1
10
-2.19999999999999
20
-6.80797157864473
30
0
41
1
10
-2.19999999999999
20
-6.62807270531451
30
0
41
1
10
-2.19999999999999
20
-6.44684086969582
30
0
41
1
10
-2.19999999999999
20
-6.26427776637016
30
0
41
1
10
-2.19999999999999
20
-6.0803858592752
30
0
41
1
10
-2.19999999999999
20
-5.89516728223867
30
0
41
1
10
-2.19999999999999
20
-5.70862469092603
30
0
41
1
10
-2.19999999999999
20
-5.52076103085633
30
0
41
1
10
-2.19999999999999
20
-5.33157993388585
30
0
41
1
10
-2.19999999999999
20
-5.14108511996025
30
0
41
1
10
-2.19999999999999
20
-4.94928086714648
30
0
41
1
10
-2.19999999999999
20
-4.75617251627347
30
0
41
1
10
-2.19999999999999
20
-4.56176620564526
30
0
41
1
10
-2.19999999999999
20
-4.36606873641344
30
0
41
1
10
-2.19999999999999
20
-4.16908849962459
30
0
41
1
10
-2.19999999999999
20
-4.00386590607064
30
0
41
1
10
-2.19999999999999
20
-3.87107810854147
30
0
41
1
10
-2.19999999999999
20
-3.77116418570387
30
0
41
1
10
-2.19999999999999
20
-3.67093805129474
30
0
41
1
10
-2.19999999999999
20
-3.5369018254882
30
0
41
1
10
-2.19999999999999
20
-3.36855658184018
30
0
41
1
10
-2.19999999999999
20
-3.19919951970698
30
0
41
1
10
-2.19999999999999
20
-3.06314133422208
30
0
41
1
10
-2.19999999999999
20
-2.96079189341756
30
0
41
1
10
-2.19999999999999
20
-2.85815023786418
30
0
41
1
10
-2.19999999999999
20
-2.75522026664268
30
0
41
1
10
-2.19999999999999
20
-2.65200561172494
30
0
41
1
10
-2.19999999999999
20
-2.51402705629772
30
0
41
1
10
-2.19999999999999
20
-2.375450816946
30
0
41
1
10
-2.19999999999999
20
-2.23639085040648
30
0
41
1
10
-2.19999999999999
20
-2.13182395998015
30
0
41
1
10
-2.19999999999999
20
-2.02700348752293
30
0
41
1
10
-2.19999999999999
20
-1.92193653735015
30
0
41
1
10
-2.19999999999999
20
-1.81663008016324
30
0
41
1
10
-2.19999999999999
20
-1.71109231328518
30
0
41
1
10
-2.19999999999999
20
-1.60533155404698
30
0
41
1
10
-2.19999999999999
20
-1.49935698477981
30
0
41
1
10
-2.19999999999999
20
-1.39317847233161
30
0
41
1
10
-2.19999999999999
20
-1.28680633401083
30
0
41
1
10
-2.19999999999999
20
-1.18025197439016
30
0
41
1
10
-2.19999999999999
20
-1.073527020087
30
0
41
1
10
-2.19999999999999
20
-0.96664434311532
30
0
41
1
10
-2.19999999999999
20
-0.859616995486334
30
0
41
1
10
-2.19999999999999
20
-0.752459219961509
30
0
41
1
10
-2.19999999999999
20
-0.645185453734172
30
0
41
1
10
-2.19999999999999
20
-0.537811163545626
30
0
41
1
10
-2.19999999999999
20
-0.430352024765995
30
0
41
1
10
-2.19999999999999
20
-0.322824496958617
30
0
41
1
10
-2.19999999999999
20
-0.215245213108545
30
0
41
1
10
-2.19999999999999
20
-0.107631302158183
30
0
41
1
10
-2.19999999999999
20
5.9909553E-09
30
0
41
1
10
-2.19999999999999
20
0.107631313716837
30
0
41
1
10
-2.19999999999999
20
0.21524522393176
30
0
41
1
10
-2.19999999999999
20
0.322824507999513
30
0
41
1
10
-2.19999999999999
20
0.430352036900842
30
0
41
1
10
-2.19999999999999
20
0.537811175438549
30
0
41
1
10
-2.19999999999999
20
0.645185463980482
30
0
41
1
10
-2.19999999999999
20
0.752459230354134
30
0
41
1
10
-2.19999999999999
20
0.859617007920519
30
0
41
1
10
-2.19999999999999
20
0.966644355262389
30
0
41
1
10
-2.19999999999999
20
1.07352702949097
30
0
41
1
10
-2.19999999999999
20
1.18025198377217
30
0
41
1
10
-2.19999999999999
20
1.2868063464968
30
0
41
1
10
-2.19999999999999
20
1.39317848503856
30
0
41
1
10
-2.19999999999999
20
1.49935699380708
30
0
41
1
10
-2.19999999999999
20
1.60533156181745
30
0
41
1
10
-2.19999999999999
20
1.71109232444707
30
0
41
1
10
-2.19999999999999
20
1.81663009373557
30
0
41
1
10
-2.19999999999999
20
1.92193654804359
30
0
41
1
10
-2.19999999999999
20
2.02700349385552
30
0
41
1
10
-2.19999999999999
20
2.13182396747069
30
0
41
1
10
-2.19999999999999
20
2.23639086291988
30
0
41
1
10
-2.19999999999999
20
2.34069812940876
30
0
41
1
10
-2.19999999999999
20
2.44473977839391
30
0
41
1
10
-2.19999999999999
20
2.54851063247165
30
0
41
1
10
-2.19999999999999
20
2.65200559968281
30
0
41
1
10
-2.19999999999999
20
2.78960994504098
30
0
41
1
10
-2.19999999999999
20
2.92668912429065
30
0
41
1
10
-2.19999999999999
20
3.06314133551615
30
0
41
1
10
-2.19999999999999
20
3.19919952332836
30
0
41
1
10
-2.19999999999999
20
3.36855659963138
30
0
41
1
10
-2.19999999999999
20
3.53690183437428
30
0
41
1
10
-2.19999999999999
20
3.67093805397229
30
0
41
1
10
-2.19999999999999
20
3.77116418775421
30
0
41
1
10
-2.19999999999999
20
3.87107811616198
30
0
41
1
10
-2.19999999999999
20
4.00386592221614
30
0
41
1
10
-2.19999999999999
20
4.169088511784
30
0
41
1
10
-2.19999999999999
20
4.36606871643775
30
0
41
1
10
-2.19999999999999
20
4.56176617271484
30
0
41
1
10
-2.19999999999999
20
4.75617249379653
30
0
41
1
10
-2.19999999999999
20
4.94928076863457
30
0
41
1
10
-2.19999999999999
20
5.14108500618136
30
0
41
1
10
-2.19999999999999
20
5.33157993903225
30
0
41
1
10
-2.19999999999999
20
5.52076102284181
30
0
41
1
10
-2.19999999999999
20
5.70862461825791
30
0
41
1
10
-2.19999999999999
20
5.89516734859464
30
0
41
1
10
-2.19999999999999
20
6.0803860968085
30
0
41
1
10
-2.19999999999999
20
6.26427796235188
30
0
41
1
10
-2.19999999999999
20
6.44684092947378
30
0
41
1
10
-2.19999999999999
20
6.62807271786153
30
0
41
1
10
-2.19999999999999
20
6.80797159432129
30
0
41
1
10
-2.19999999999999
20
6.98653550324826
30
0
41
1
10
-2.19999999999999
20
7.22282328452872
30
0
41
1
10
-2.19999999999999
20
7.51487112820209
30
0
41
1
10
-2.19999999999999
20
7.85994708827315
30
0
41
1
10
-2.19999999999999
20
8.14304411844034
30
0
41
1
10
-2.19999999999999
20
8.36680341033821
30
0
41
1
10
-2.19999999999999
20
8.53328407858575
30
0
41
1
10
-2.19999999999999
20
8.69841428877766
30
0
41
1
10
-2.19999999999999
20
8.86219304073114
30
0
41
1
10
-2.19999999999999
20
9.02461799205523
30
0
41
1
10
-2.19999999999999
20
9.23936571773672
30
0
41
1
10
-2.19999999999999
20
9.50443394039922
30
0
41
1
10
-2.19999999999999
20
9.76496631110049
30
0
41
1
10
-2.19999999999999
20
9.97064123613964
30
0
41
1
10
-2.19999999999999
20
10.123538466054
30
0
41
1
10
-2.19999999999999
20
10.2750653748105
30
0
41
1
10
-2.19999999999999
20
10.4252201002359
30
0
41
1
10
-2.19999999999999
20
10.5740001651574
30
0
41
1
10
-2.19999999999999
20
10.7705258416001
30
0
41
1
10
-2.19999999999999
20
10.9643215989582
30
0
41
1
10
-2.19999999999999
20
11.1553144582602
30
0
41
1
10
-2.19999999999999
20
11.3444552554371
30
0
41
1
10
-2.19999999999999
20
11.5774197477568
30
0
41
1
10
-2.19999999999999
20
11.8057194023465
30
0
41
1
10
-2.19999999999999
20
11.9855280067157
30
0
41
1
10
-2.19999999999999
20
12.1634558646821
30
0
41
1
10
-2.19999999999999
20
12.3385783781737
30
0
41
1
10
-2.19999999999999
20
12.510829004708
30
0
41
1
10
-2.19999999999999
20
12.6385945454976
30
0
41
1
10
-2.19999999999999
20
12.7649271637091
30
0
41
1
10
-2.19999999999999
20
12.9314463925932
30
0
41
1
10
-2.19999999999999
20
13.0951031927999
30
0
41
1
10
-2.19999999999999
20
13.2558316973182
30
0
41
1
10
-2.19999999999999
20
13.3749248996582
30
0
41
1
10
-2.19999999999999
20
13.4925540411334
30
0
41
1
10
-2.19999999999999
20
13.6474264531923
30
0
41
1
10
-2.19999999999999
20
13.7993681905533
30
0
41
1
10
-2.19999999999999
20
13.9483131264862
30
0
41
1
10
-2.19999999999999
20
14.0585319334344
30
0
41
1
10
-2.19999999999999
20
14.1672492642274
30
0
41
1
10
-2.19999999999999
20
14.3101885914782
30
0
41
1
10
-2.19999999999999
20
14.4501162106047
30
0
41
1
10
-2.19999999999999
20
14.5869647126432
30
0
41
1
10
-2.19999999999999
20
14.6880675812844
30
0
41
1
10
-2.19999999999999
20
14.7876243995297
30
0
41
1
10
-2.19999999999999
20
14.9182892218295
30
0
41
1
10
-2.19999999999999
20
15.0458464314392
30
0
41
1
10
-2.19999999999999
20
15.1702261509224
30
0
41
1
10
-2.19999999999999
20
15.2466455133785
30
0
41
1
10
-2.19999999999999
20
15.3069761679616
30
0
41
1
10
-2.19999999999999
20
15.3667724139347
30
0
41
1
10
-2.19999999999999
20
15.4700110929875
30
0
41
1
10
-2.19999999999999
20
15.5847743990242
30
0
41
1
10
-2.19999999999999
20
15.6962433571227
30
0
41
1
10
-2.19999999999999
20
15.7781982539187
30
0
41
1
10
-2.19999999999999
20
15.8584914079188
30
0
41
1
10
-2.19999999999999
20
15.9633135259672
30
0
41
1
10
-2.19999999999999
20
16.0647793597711
30
0
41
1
10
-2.19999999999999
20
16.1628111223414
30
0
41
1
10
-2.19999999999999
20
16.2346146707391
30
0
41
1
10
-2.19999999999999
20
16.3046816359758
30
0
41
1
10
-2.19999999999999
20
16.3729983688048
30
0
41
1
10
-2.19999999999999
20
16.439549393056
30
0
41
1
10
-2.19999999999999
20
16.5043209901434
30
0
41
1
10
-2.19999999999999
20
16.5672977619412
30
0
41
1
10
-2.19999999999999
20
16.6488473199257
30
0
41
1
10
-2.19999999999999
20
16.7267561914694
30
0
41
1
10
-2.19999999999999
20
16.8009296884544
30
0
41
1
10
-2.19999999999999
20
16.8725984731112
30
0
41
1
10
-2.19999999999999
20
16.9404820184079
30
0
41
1
10
-2.19999999999999
20
17.0044820909957
30
0
41
1
10
-2.19999999999999
20
17.0658713913631
30
0
41
1
10
-2.19999999999999
20
17.123313852319
30
0
41
1
10
-2.19999999999999
20
17.1766986986672
30
0
41
1
10
-2.19999999999999
20
17.2146924603873
30
0
41
1
10
-2.19999999999999
20
17.250613323192
30
0
41
1
10
-2.19999999999999
20
17.2957083328928
30
0
41
1
10
-2.19999999999999
20
17.3365615705832
30
0
41
1
10
-2.19999999999999
20
17.3730462873428
30
0
41
1
10
-2.19999999999999
20
17.398199993695
30
0
41
1
10
-2.19999999999999
20
17.4211116738093
30
0
41
1
10
-2.19999999999999
20
17.4417480876219
30
0
41
1
10
-2.19999999999999
20
17.4600756994924
30
0
41
1
10
-2.19999999999999
20
17.4760589706817
30
0
41
1
10
-2.19999999999999
20
17.4896606126055
30
0
41
1
10
-2.19999999999999
20
17.5008423321234
30
0
41
1
10
-2.19999999999999
20
17.5092144791798
30
0
41
1
10
-2.20000000000002
20
17.51320522745
30
0
41
1
10
-2.20000000000002
20
17.5147451222322
30
0
0
SPLINE
5
14A
100
AcDbEntity
8
SK1
62
256
6
ByLayer
370
18
48
1
60
0
100
AcDbSpline
70
4
71
3
72
287
73
283
40
0
40
0
40
0
40
0
40
0.0019139564388649
40
0.0054376954627042
40
0.0089614344865435
40
0.0124851735103828
40
0.0160089125342221
40
0.0195326515580614
40
0.0230563905819007
40
0.0265801296057401
40
0.0301038686295794
40
0.0336276076534187
40
0.037151346677258
40
0.0441988247249366
40
0.0477225637487759
40
0.0512463027726152
40
0.0547700417964545
40
0.0582937808202939
40
0.0653412588679725
40
0.0688649978918118
40
0.0723887369156511
40
0.0794362149633297
40
0.0829599539871691
40
0.0864836930110084
40
0.093531171058687
40
0.0970549100825264
40
0.100578649106366
40
0.104102388130205
40
0.107626127154044
40
0.111149866177884
40
0.114673605201723
40
0.118197344225562
40
0.121721083249401
40
0.12876856129708
40
0.132292300320919
40
0.135816039344759
40
0.139339778368598
40
0.142863517392437
40
0.149910995440116
40
0.153434734463955
40
0.156958473487795
40
0.160482212511634
40
0.164005951535473
40
0.171053429583152
40
0.174577168606991
40
0.178100907630831
40
0.18162464665467
40
0.185148385678509
40
0.192195863726188
40
0.195719602750027
40
0.199243341773866
40
0.202767080797706
40
0.206290819821545
40
0.213338297869224
40
0.216862036893063
40
0.220385775916902
40
0.223909514940742
40
0.227433253964581
40
0.23448073201226
40
0.238004471036099
40
0.241528210059938
40
0.245051949083778
40
0.248575688107617
40
0.255623166155296
40
0.259146905179135
40
0.262670644202974
40
0.269718122250653
40
0.276765600298331
40
0.280289339322171
40
0.28381307834601
40
0.290860556393689
40
0.294384295417528
40
0.297908034441367
40
0.301431773465207
40
0.304955512489046
40
0.308479251512885
40
0.312002990536724
40
0.319050468584403
40
0.326097946632082
40
0.329621685655921
40
0.33314542467976
40
0.3366691637036
40
0.340192902727439
40
0.343716641751278
40
0.347240380775118
40
0.354287858822796
40
0.361335336870475
40
0.368382814918154
40
0.371906553941993
40
0.375430292965832
40
0.378954031989671
40
0.382477771013511
40
0.38600151003735
40
0.389525249061189
40
0.393048988085029
40
0.396572727108868
40
0.400096466132707
40
0.403620205156547
40
0.407143944180386
40
0.410667683204225
40
0.414191422228065
40
0.417715161251904
40
0.421238900275743
40
0.424762639299583
40
0.428286378323422
40
0.430048247835342
40
0.431810117347261
40
0.433571986859181
40
0.4353338563711
40
0.43885759539494
40
0.442381334418779
40
0.444143203930699
40
0.445905073442618
40
0.447666942954538
40
0.449428812466458
40
0.451190681978377
40
0.452952551490297
40
0.456476290514136
40
0.458238160026056
40
0.460000029537976
40
0.461761899049895
40
0.463523768561815
40
0.465285638073735
40
0.467047507585654
40
0.468809377097574
40
0.470571246609494
40
0.472333116121413
40
0.474094985633333
40
0.475856855145253
40
0.477618724657172
40
0.479380594169092
40
0.481142463681012
40
0.482904333192931
40
0.484666202704851
40
0.486428072216771
40
0.48818994172869
40
0.48995181124061
40
0.49171368075253
40
0.493475550264449
40
0.495237419776369
40
0.496999289288289
40
0.498761158800208
40
0.500523028312128
40
0.502284897824048
40
0.504046767335967
40
0.505808636847887
40
0.507570506359806
40
0.509332375871726
40
0.511094245383646
40
0.512856114895565
40
0.514617984407485
40
0.516379853919405
40
0.518141723431324
40
0.519903592943244
40
0.521665462455164
40
0.523427331967083
40
0.525189201479003
40
0.526951070990923
40
0.528712940502842
40
0.530474810014762
40
0.532236679526682
40
0.533998549038601
40
0.535760418550521
40
0.537522288062441
40
0.53928415757436
40
0.54104602708628
40
0.544569766110119
40
0.546331635622039
40
0.548093505133959
40
0.551617244157798
40
0.555140983181637
40
0.556902852693557
40
0.558664722205476
40
0.560426591717396
40
0.562188461229316
40
0.565712200253155
40
0.569235939276994
40
0.572759678300834
40
0.576283417324673
40
0.579807156348512
40
0.583330895372352
40
0.586854634396191
40
0.59037837342003
40
0.59390211244387
40
0.597425851467709
40
0.600949590491548
40
0.604473329515387
40
0.607997068539227
40
0.611520807563066
40
0.615044546586905
40
0.618568285610745
40
0.622092024634584
40
0.629139502682263
40
0.636186980729941
40
0.64323445877762
40
0.646758197801459
40
0.650281936825299
40
0.653805675849138
40
0.657329414872977
40
0.660853153896817
40
0.664376892920656
40
0.671424370968335
40
0.678471849016013
40
0.681995588039852
40
0.685519327063692
40
0.689043066087531
40
0.69256680511137
40
0.69609054413521
40
0.699614283159049
40
0.706661761206728
40
0.710185500230567
40
0.713709239254406
40
0.720756717302085
40
0.727804195349763
40
0.731327934373603
40
0.734851673397442
40
0.741899151445121
40
0.74542289046896
40
0.748946629492799
40
0.752470368516639
40
0.755994107540478
40
0.763041585588156
40
0.766565324611996
40
0.770089063635835
40
0.773612802659674
40
0.777136541683514
40
0.784184019731192
40
0.787707758755032
40
0.791231497778871
40
0.79475523680271
40
0.79827897582655
40
0.805326453874228
40
0.808850192898068
40
0.812373931921907
40
0.815897670945746
40
0.819421409969586
40
0.826468888017264
40
0.829992627041104
40
0.833516366064943
40
0.835278235576863
40
0.837040105088782
40
0.840563844112622
40
0.8476113221603
40
0.851135061184139
40
0.854658800207979
40
0.858182539231818
40
0.861706278255657
40
0.868753756303336
40
0.872277495327175
40
0.875801234351015
40
0.879324973374854
40
0.882848712398693
40
0.886372451422533
40
0.889896190446372
40
0.893419929470211
40
0.89694366849405
40
0.903991146541729
40
0.907514885565568
40
0.911038624589408
40
0.918086102637087
40
0.921609841660926
40
0.925133580684765
40
0.932181058732443
40
0.935704797756283
40
0.939228536780122
40
0.942752275803961
40
0.946276014827801
40
0.953323492875479
40
0.956847231899319
40
0.960370970923158
40
0.963894709946998
40
0.967418448970837
40
0.970942187994676
40
0.974465927018515
40
0.977989666042355
40
0.981513405066194
40
0.985037144090033
40
0.988560883113873
40
0.992084622137712
40
0.995608361161551
40
0.999132100185391
40
1
40
1
40
1
40
1
41
1
10
-28.5
20
-16.8570111670008
30
0
41
1
10
-28.5
20
-16.8563913771392
30
0
41
1
10
-28.5
20
-16.8542840056898
30
0
41
1
10
-28.5
20
-16.8492032887544
30
0
41
1
10
-28.5
20
-16.8407921788659
30
0
41
1
10
-28.5
20
-16.8300011209595
30
0
41
1
10
-28.5
20
-16.8168672741156
30
0
41
1
10
-28.5
20
-16.8014255225769
30
0
41
1
10
-28.5
20
-16.783709883521
30
0
41
1
10
-28.5
20
-16.7637529731542
30
0
41
1
10
-28.5
20
-16.7415855338906
30
0
41
1
10
-28.5
20
-16.7172383450784
30
0
41
1
10
-28.5
20
-16.6818353810987
30
0
41
1
10
-28.5
20
-16.642411510514
30
0
41
1
10
-28.5
20
-16.5986105790194
30
0
41
1
10
-28.5
20
-16.5637763020887
30
0
41
1
10
-28.5
20
-16.5269199075572
30
0
41
1
10
-28.5
20
-16.4750169305147
30
0
41
1
10
-28.5
20
-16.4194622625482
30
0
41
1
10
-28.5
20
-16.3597331913305
30
0
41
1
10
-28.5
20
-16.2974462059125
30
0
41
1
10
-28.5
20
-16.2317181614777
30
0
41
1
10
-28.5
20
-16.1619255301562
30
0
41
1
10
-28.5
20
-16.0896767577218
30
0
41
1
10
-28.5
20
-16.0141701499498
30
0
41
1
10
-28.5
20
-15.9346970720351
30
0
41
1
10
-28.5
20
-15.8734193498834
30
0
41
1
10
-28.5
20
-15.8103844132608
30
0
41
1
10
-28.5
20
-15.745608166167
30
0
41
1
10
-28.5
20
-15.6791035033831
30
0
41
1
10
-28.5
20
-15.6108850520675
30
0
41
1
10
-28.5
20
-15.5409672008416
30
0
41
1
10
-28.5
20
-15.4453363897878
30
0
41
1
10
-28.5
20
-15.3468344295442
30
0
41
1
10
-28.5
20
-15.2445501023872
30
0
41
1
10
-28.5
20
-15.1663215412447
30
0
41
1
10
-28.5
20
-15.0864673138636
30
0
41
1
10
-28.5
20
-14.9776668598204
30
0
41
1
10
-28.5
20
-14.8661866472663
30
0
41
1
10
-28.5
20
-14.7510047173632
30
0
41
1
10
-28.5
20
-14.6631805593238
30
0
41
1
10
-28.5
20
-14.5737935545692
30
0
41
1
10
-28.5
20
-14.4523474056541
30
0
41
1
10
-28.5
20
-14.3283920102608
30
0
41
1
10
-28.5
20
-14.2007962111626
30
0
41
1
10
-28.5
20
-14.1037299196573
30
0
41
1
10
-28.5
20
-14.0051547121626
30
0
41
1
10
-28.5
20
-13.8715103774192
30
0
41
1
10
-28.5
20
-13.7355116027341
30
0
41
1
10
-28.5
20
-13.5959164295663
30
0
41
1
10
-28.5
20
-13.4899116400767
30
0
41
1
10
-28.5
20
-13.3824445287113
30
0
41
1
10
-28.5
20
-13.2369867267196
30
0
41
1
10
-28.5
20
-13.0893180063072
30
0
41
1
10
-28.5
20
-12.9380809359595
30
0
41
1
10
-28.5
20
-12.8234002792818
30
0
41
1
10
-28.5
20
-12.7072977235968
30
0
41
1
10
-28.5
20
-12.550359403554
30
0
41
1
10
-28.5
20
-12.3913462445321
30
0
41
1
10
-28.5
20
-12.2287775158425
30
0
41
1
10
-28.5
20
-12.1056498288981
30
0
41
1
10
-28.5
20
-11.9811355431936
30
0
41
1
10
-28.5
20
-11.8130068133241
30
0
41
1
10
-28.5
20
-11.642935768078
30
0
41
1
10
-28.5
20
-11.4693068645233
30
0
41
1
10
-28.5
20
-11.2938625434425
30
0
41
1
10
-28.5
20
-11.0718089327865
30
0
41
1
10
-28.5
20
-10.8452681360072
30
0
41
1
10
-28.5
20
-10.6608198079832
30
0
41
1
10
-28.5
20
-10.4745957683654
30
0
41
1
10
-28.5
20
-10.2866518533399
30
0
41
1
10
-28.5
20
-10.0951135357909
30
0
41
1
10
-28.5
20
-9.9503895477591
30
0
41
1
10
-28.5
20
-9.8043545776041
30
0
41
1
10
-28.5
20
-9.65701503611822
30
0
41
1
10
-28.5
20
-9.50837340526911
30
0
41
1
10
-28.5
20
-9.30810992365676
30
0
41
1
10
-28.5
20
-9.05534970701541
30
0
41
1
10
-28.5
20
-8.79830464348922
30
0
41
1
10
-28.5
20
-8.58944232029054
30
0
41
1
10
-28.5
20
-8.43181572672981
30
0
41
1
10
-28.5
20
-8.27292311790592
30
0
41
1
10
-28.5
20
-8.11277014047184
30
0
41
1
10
-28.5
20
-7.9513617118449
30
0
41
1
10
-28.5
20
-7.73407184255308
30
0
41
1
10
-28.5
20
-7.46030866767529
30
0
41
1
10
-28.5
20
-7.12632140637373
30
0
41
1
10
-28.5
20
-6.84437402550569
30
0
41
1
10
-28.5
20
-6.61554359890371
30
0
41
1
10
-28.5
20
-6.44309029411605
30
0
41
1
10
-28.5
20
-6.26944364545889
30
0
41
1
10
-28.5
20
-6.09461246091772
30
0
41
1
10
-28.5
20
-5.91860523667609
30
0
41
1
10
-28.5
20
-5.74143189937953
30
0
41
1
10
-28.5
20
-5.56310357372001
30
0
41
1
10
-28.5
20
-5.38363134733163
30
0
41
1
10
-28.5
20
-5.20302692387261
30
0
41
1
10
-28.5
20
-5.0213042232472
30
0
41
1
10
-28.5
20
-4.83847919931264
30
0
41
1
10
-28.5
20
-4.65456716028004
30
0
41
1
10
-28.5
20
-4.46958486845949
30
0
41
1
10
-28.5
20
-4.28355302808069
30
0
41
1
10
-28.5
20
-4.09649275318182
30
0
41
1
10
-28.5
20
-3.90842813226232
30
0
41
1
10
-28.5
20
-3.75124940963562
30
0
41
1
10
-28.5
20
-3.6243549796439
30
0
41
1
10
-28.5
20
-3.5292431593418
30
0
41
1
10
-28.5
20
-3.43390158445521
30
0
41
1
10
-28.5
20
-3.30608717079298
30
0
41
1
10
-28.5
20
-3.14669072023423
30
0
41
1
10
-28.5
20
-2.9865693987912
30
0
41
1
10
-28.5
20
-2.85729421649611
30
0
41
1
10
-28.5
20
-2.76048089001324
30
0
41
1
10
-28.5
20
-2.66347976206254
30
0
41
1
10
-28.5
20
-2.56629526768592
30
0
41
1
10
-28.5
20
-2.46893611478751
30
0
41
1
10
-28.5
20
-2.33842740009587
30
0
41
1
10
-28.5
20
-2.20905952740142
30
0
41
1
10
-28.5
20
-2.07788039572898
30
0
41
1
10
-28.5
20
-1.97974994874616
30
0
41
1
10
-28.5
20
-1.88148715614122
30
0
41
1
10
-28.5
20
-1.78310090101277
30
0
41
1
10
-28.5
20
-1.68460072925305
30
0
41
1
10
-28.5
20
-1.58599184128096
30
0
41
1
10
-28.5
20
-1.48728649469356
30
0
41
1
10
-28.5
20
-1.38848914320587
30
0
41
1
10
-28.5
20
-1.28961139997082
30
0
41
1
10
-28.5
20
-1.19065859360987
30
0
41
1
10
-28.5
20
-1.09164071478048
30
0
41
1
10
-28.5
20
-0.992564090788449
30
0
41
1
10
-28.5
20
-0.893436923932512
30
0
41
1
10
-28.5
20
-0.794265471937138
30
0
41
1
10
-28.5
20
-0.695056741362833
30
0
41
1
10
-28.5
20
-0.595816468507252
30
0
41
1
10
-28.5
20
-0.49655061320999
30
0
41
1
10
-28.5
20
-0.397263853181812
30
0
41
1
10
-28.5
20
-0.297961366795107
30
0
41
1
10
-28.5
20
-0.198647102840709
30
0
41
1
10
-28.5
20
-0.0993254669347436
30
0
41
1
10
-28.5
20
-5.4725149E-09
30
0
41
1
10
-28.5
20
0.0993254684405827
30
0
41
1
10
-28.5
20
0.198647127601248
30
0
41
1
10
-28.5
20
0.297961388791691
30
0
41
1
10
-28.5
20
0.397263840424017
30
0
41
1
10
-28.5
20
0.496550594205559
30
0
41
1
10
-28.5
20
0.595816495504096
30
0
41
1
10
-28.5
20
0.695056784277028
30
0
41
1
10
-28.5
20
0.794265459276176
30
0
41
1
10
-28.5
20
0.89343688343348
30
0
41
1
10
-28.5
20
0.992564112169902
30
0
41
1
10
-28.5
20
1.09164077920423
30
0
41
1
10
-28.5
20
1.19065859620264
30
0
41
1
10
-28.5
20
1.28961134189754
30
0
41
1
10
-28.5
20
1.38848913588993
30
0
41
1
10
-28.5
20
1.48728656512978
30
0
41
1
10
-28.5
20
1.58599188781932
30
0
41
1
10
-28.5
20
1.6846006870125
30
0
41
1
10
-28.5
20
1.78310084050699
30
0
41
1
10
-28.5
20
1.88148718140701
30
0
41
1
10
-28.5
20
1.9797500364362
30
0
41
1
10
-28.5
20
2.0778804265363
30
0
41
1
10
-28.5
20
2.17587292609085
30
0
41
1
10
-28.5
20
2.27371679621319
30
0
41
1
10
-28.5
20
2.37140757120355
30
0
41
1
10
-28.5
20
2.46893613943033
30
0
41
1
10
-28.5
20
2.59923374131699
30
0
41
1
10
-28.5
20
2.72777279716706
30
0
41
1
10
-28.5
20
2.8572942882393
30
0
41
1
10
-28.5
20
2.98656948332388
30
0
41
1
10
-28.5
20
3.14669074057869
30
0
41
1
10
-28.5
20
3.30608709676801
30
0
41
1
10
-28.5
20
3.43390157548936
30
0
41
1
10
-28.5
20
3.52924322184191
30
0
41
1
10
-28.5
20
3.62435506854831
30
0
41
1
10
-28.5
20
3.75124942106058
30
0
41
1
10
-28.5
20
3.90842799420628
30
0
41
1
10
-28.5
20
4.09649259176146
30
0
41
1
10
-28.5
20
4.28355297730505
30
0
41
1
10
-28.5
20
4.4695846174555
30
0
41
1
10
-28.5
20
4.65456683421039
30
0
41
1
10
-28.5
20
4.83847943804494
30
0
41
1
10
-28.5
20
5.0213044851898
30
0
41
1
10
-28.5
20
5.2030267003301
30
0
41
1
10
-28.5
20
5.38363156234237
30
0
41
1
10
-28.5
20
5.56310445504442
30
0
41
1
10
-28.5
20
5.74143237747984
30
0
41
1
10
-28.5
20
5.91860495448572
30
0
41
1
10
-28.5
20
6.09461208825527
30
0
41
1
10
-28.5
20
6.26944357118299
30
0
41
1
10
-28.5
20
6.4430903265563
30
0
41
1
10
-28.5
20
6.61554357091572
30
0
41
1
10
-28.5
20
6.84437400802861
30
0
41
1
10
-28.5
20
7.12632144512301
30
0
41
1
10
-28.5
20
7.46030865505762
30
0
41
1
10
-28.5
20
7.73407184285281
30
0
41
1
10
-28.5
20
7.95136176299604
30
0
41
1
10
-28.5
20
8.11277014937085
30
0
41
1
10
-28.5
20
8.27292308432649
30
0
41
1
10
-28.5
20
8.43181570788789
30
0
41
1
10
-28.5
20
8.5894423488798
30
0
41
1
10
-28.5
20
8.79830467826932
30
0
41
1
10
-28.5
20
9.05534969583792
30
0
41
1
10
-28.5
20
9.30810991622687
30
0
41
1
10
-28.5
20
9.50837344479851
30
0
41
1
10
-28.5
20
9.65701506287493
30
0
41
1
10
-28.5
20
9.80435457188474
30
0
41
1
10
-28.5
20
9.95038952754788
30
0
41
1
10
-28.5
20
10.095113531911
30
0
41
1
10
-28.5
20
10.2866518813937
30
0
41
1
10
-28.5
20
10.4745957936973
30
0
41
1
10
-28.5
20
10.6608197986608
30
0
41
1
10
-28.5
20
10.8452681286137
30
0
41
1
10
-28.5
20
11.0718089525805
30
0
41
1
10
-28.5
20
11.2938625632929
30
0
41
1
10
-28.5
20
11.4693068596265
30
0
41
1
10
-28.5
20
11.6429357656381
30
0
41
1
10
-28.5
20
11.8130068303033
30
0
41
1
10
-28.5
20
11.9811355648908
30
0
41
1
10
-28.5
20
12.1056498404809
30
0
41
1
10
-28.5
20
12.2287775174238
30
0
41
1
10
-28.5
20
12.3913462461042
30
0
41
1
10
-28.5
20
12.5503594172971
30
0
41
1
10
-28.5
20
12.7072977423403
30
0
41
1
10
-28.5
20
12.8234002933141
30
0
41
1
10
-28.5
20
12.9380809438717
30
0
41
1
10
-28.5
20
13.0893180117675
30
0
41
1
10
-28.5
20
13.2369867372074
30
0
41
1
10
-28.5
20
13.3824445445542
30
0
41
1
10
-28.5
20
13.4899116562855
30
0
41
1
10
-28.5
20
13.5959164434403
30
0
41
1
10
-28.5
20
13.7355116125921
30
0
41
1
10
-28.5
20
13.8715103854275
30
0
41
1
10
-28.5
20
14.0051547249398
30
0
41
1
10
-28.5
20
14.1037299370701
30
0
41
1
10
-28.5
20
14.2007962250068
30
0
41
1
10
-28.5
20
14.328392039309
30
0
41
1
10
-28.5
20
14.452347405446
30
0
41
1
10
-28.5
20
14.5737935062701
30
0
41
1
10
-28.5
20
14.6481896525931
30
0
41
1
10
-28.5
20
14.7070919001429
30
0
41
1
10
-28.5
20
14.7654709460418
30
0
41
1
10
-28.5
20
14.8661866667289
30
0
41
1
10
-28.5
20
14.9776668655465
30
0
41
1
10
-28.5
20
15.086467321316
30
0
41
1
10
-28.5
20
15.1663215599361
30
0
41
1
10
-28.5
20
15.2445501295776
30
0
41
1
10
-28.5
20
15.3468344527491
30
0
41
1
10
-28.5
20
15.4453363938053
30
0
41
1
10
-28.5
20
15.5409672073329
30
0
41
1
10
-28.5
20
15.6108850733398
30
0
41
1
10
-28.5
20
15.679103534252
30
0
41
1
10
-28.5
20
15.7456081924762
30
0
41
1
10
-28.5
20
15.810384423087
30
0
41
1
10
-28.5
20
15.8734193510279
30
0
41
1
10
-28.5
20
15.9346970807191
30
0
41
1
10
-28.5
20
16.0141701800502
30
0
41
1
10
-28.5
20
16.0896767899468
30
0
41
1
10
-28.5
20
16.1619255341458
30
0
41
1
10
-28.5
20
16.2317181619347
30
0
41
1
10
-28.5
20
16.2974462376793
30
0
41
1
10
-28.5
20
16.3597332242326
30
0
41
1
10
-28.5
20
16.4194622696319
30
0
41
1
10
-28.5
20
16.4750169286961
30
0
41
1
10
-28.5
20
16.5269199399481
30
0
41
1
10
-28.5
20
16.5637763395248
30
0
41
1
10
-28.5
20
16.5986105943247
30
0
41
1
10
-28.5
20
16.642411504334
30
0
41
1
10
-28.5
20
16.6818354096897
30
0
41
1
10
-28.5
20
16.7172383773105
30
0
41
1
10
-28.5
20
16.741585550229
30
0
41
1
10
-28.5
20
16.7637529737167
30
0
41
1
10
-28.5
20
16.7837098927271
30
0
41
1
10
-28.5
20
16.8014255596809
30
0
41
1
10
-28.5
20
16.816867307208
30
0
41
1
10
-28.5
20
16.8300011251081
30
0
41
1
10
-28.5
20
16.8407921763224
30
0
41
1
10
-28.5
20
16.8492033090471
30
0
41
1
10
-28.5
20
16.8551966659016
30
0
41
1
10
-28.5
20
16.8587319423621
30
0
41
1
10
-28.5
20
16.8597680746869
30
0
41
1
10
-28.5
20
16.8586398964291
30
0
41
1
10
-28.5
20
16.8573438937159
30
0
41
1
10
-28.5
20
16.8570614828183
30
0
0
SPLINE
5
14B
100
AcDbEntity
8
SK1
62
256
6
ByLayer
370
18
48
1
60
0
100
AcDbSpline
70
4
71
3
72
106
73
102
40
0
40
0
40
0
40
0
40
0.0075864938756188
40
0.0161184316077917
40
0.0246503693399647
40
0.0331823070721376
40
0.0417142448043105
40
0.0502461825364835
40
0.0587781202686564
40
0.0673100580008293
40
0.0758419957330023
40
0.0843739334651752
40
0.0929058711973481
40
0.101437808929521
40
0.109969746661694
40
0.118501684393867
40
0.135565559858213
40
0.144097497590386
40
0.152629435322559
40
0.161161373054731
40
0.169693310786905
40
0.18675718625125
40
0.195289123983423
40
0.203821061715596
40
0.220884937179942
40
0.229416874912115
40
0.237948812644288
40
0.255012688108634
40
0.263544625840807
40
0.27207656357298
40
0.280608501305153
40
0.289140439037325
40
0.297672376769498
40
0.306204314501671
40
0.314736252233844
40
0.323268189966017
40
0.340332065430363
40
0.348864003162536
40
0.357395940894709
40
0.365927878626882
40
0.374459816359055
40
0.391523691823401
40
0.400055629555574
40
0.408587567287746
40
0.41711950501992
40
0.425651442752092
40
0.442715318216438
40
0.451247255948611
40
0.459779193680784
40
0.468311131412957
40
0.47684306914513
40
0.493906944609476
40
0.502438882341649
40
0.510970820073822
40
0.519502757805995
40
0.528034695538168
40
0.545098571002513
40
0.553630508734686
40
0.562162446466859
40
0.570694384199032
40
0.579226321931205
40
0.596290197395551
40
0.604822135127724
40
0.613354072859897
40
0.62188601059207
40
0.630417948324243
40
0.647481823788589
40
0.656013761520762
40
0.664545699252934
40
0.68160957471728
40
0.698673450181626
40
0.707205387913799
40
0.715737325645972
40
0.732801201110318
40
0.741333138842491
40
0.749865076574664
40
0.758397014306837
40
0.76692895203901
40
0.775460889771183
40
0.783992827503355
40
0.801056702967701
40
0.818120578432047
40
0.82665251616422
40
0.835184453896393
40
0.843716391628566
40
0.852248329360739
40
0.860780267092912
40
0.869312204825085
40
0.886376080289431
40
0.903439955753776
40
0.920503831218122
40
0.929035768950295
40
0.937567706682468
40
0.946099644414641
40
0.954631582146814
40
0.963163519878987
40
0.97169545761116
40
0.980227395343333
40
0.988759333075506
40
0.997291270807679
40
1
40
1
40
1
40
1
41
1
10
-0.394976888875277
20
-17.3601838880881
30
0
41
1
10
-0.394976888875277
20
-17.3617494125912
30
0
41
1
10
-0.394976888875277
20
-17.3643151423986
30
0
41
1
10
-0.394976888875277
20
-17.3658104187982
30
0
41
1
10
-0.394976888875277
20
-17.364743357607
30
0
41
1
10
-0.394976888875277
20
-17.3611046370287
30
0
41
1
10
-0.394976888875277
20
-17.3549392673806
30
0
41
1
10
-0.394976888875277
20
-17.3462909837355
30
0
41
1
10
-0.394976888875277
20
-17.3352007293143
30
0
41
1
10
-0.394976888875277
20
-17.3217086001335
30
0
41
1
10
-0.394976888875277
20
-17.3058521283006
30
0
41
1
10
-0.394976888875277
20
-17.2876678324761
30
0
41
1
10
-0.394976888875277
20
-17.267190526317
30
0
41
1
10
-0.394976888875277
20
-17.2444530966284
30
0
41
1
10
-0.394976888875277
20
-17.2194882282903
30
0
41
1
10
-0.394976888875277
20
-17.1832568130363
30
0
41
1
10
-0.394976888875277
20
-17.1427382851614
30
0
41
1
10
-0.394976888875277
20
-17.0979462613767
30
0
41
1
10
-0.394976888875277
20
-17.0622798138473
30
0
41
1
10
-0.394976888875277
20
-17.0245523789023
30
0
41
1
10
-0.394976888875277
20
-16.9715145338597
30
0
41
1
10
-0.394976888875277
20
-16.9145140859045
30
0
41
1
10
-0.394976888875277
20
-16.8535135157982
30
0
41
1
10
-0.394976888875277
20
-16.7899145739052
30
0
41
1
10
-0.394976888875277
20
-16.7225357594453
30
0
41
1
10
-0.394976888875277
20
-16.6513062647865
30
0
41
1
10
-0.394976888875277
20
-16.577583428992
30
0
41
1
10
-0.394976888875277
20
-16.5002370605308
30
0
41
1
10
-0.394976888875277
20
-16.4191737242595
30
0
41
1
10
-0.394976888875277
20
-16.3565947837564
30
0
41
1
10
-0.394976888875277
20
-16.2922298184193
30
0
41
1
10
-0.394976888875277
20
-16.2260943534788
30
0
41
1
10
-0.394976888875277
20
-16.1582019227301
30
0
41
1
10
-0.394976888875277
20
-16.0885677968918
30
0
41
1
10
-0.394976888875277
20
-16.0172057910894
30
0
41
1
10
-0.394976888875277
20
-15.9197362080175
30
0
41
1
10
-0.394976888875277
20
-15.8189643575456
30
0
41
1
10
-0.394976888875277
20
-15.7147364711228
30
0
41
1
10
-0.394976888875277
20
-15.6349267495635
30
0
41
1
10
-0.394976888875277
20
-15.553463729323
30
0
41
1
10
-0.394976888875277
20
-15.4426195996911
30
0
41
1
10
-0.394976888875277
20
-15.3286250260664
30
0
41
1
10
-0.394976888875277
20
-15.2112966721243
30
0
41
1
10
-0.394976888875277
20
-15.1217290697223
30
0
41
1
10
-0.394976888875277
20
-15.0305709686995
30
0
41
1
10
-0.394976888875277
20
-14.906878048735
30
0
41
1
10
-0.394976888875277
20
-14.7801642402503
30
0
41
1
10
-0.394976888875277
20
-14.6502180265082
30
0
41
1
10
-0.394976888875277
20
-14.5512443698349
30
0
41
1
10
-0.394976888875277
20
-14.4507333574048
30
0
41
1
10
-0.394976888875277
20
-14.3146351144528
30
0
41
1
10
-0.394976888875277
20
-14.1756274353422
30
0
41
1
10
-0.394976888875277
20
-14.0334711437704
30
0
41
1
10
-0.394976888875277
20
-13.9253889575191
30
0
41
1
10
-0.394976888875277
20
-13.8158144643309
30
0
41
1
10
-0.394976888875277
20
-13.6676860465324
30
0
41
1
10
-0.394976888875277
20
-13.5167448397425
30
0
41
1
10
-0.394976888875277
20
-13.3627236430939
30
0
41
1
10
-0.394976888875277
20
-13.2457848907918
30
0
41
1
10
-0.394976888875277
20
-13.127391952352
30
0
41
1
10
-0.394976888875277
20
-12.9675509274721
30
0
41
1
10
-0.394976888875277
20
-12.8049814419576
30
0
41
1
10
-0.394976888875277
20
-12.6393872212047
30
0
41
1
10
-0.394976888875277
20
-12.5138050377602
30
0
41
1
10
-0.394976888875277
20
-12.3868007822861
30
0
41
1
10
-0.394976888875277
20
-12.2155153079022
30
0
41
1
10
-0.394976888875277
20
-12.0415756036957
30
0
41
1
10
-0.394976888875277
20
-11.8646543426879
30
0
41
1
10
-0.394976888875277
20
-11.6858676336886
30
0
41
1
10
-0.394976888875277
20
-11.4590305058839
30
0
41
1
10
-0.394976888875277
20
-11.2275701322441
30
0
41
1
10
-0.394976888875277
20
-11.0395280715927
30
0
41
1
10
-0.394976888875277
20
-10.8496518299165
30
0
41
1
10
-0.394976888875277
20
-10.6572262982852
30
0
41
1
10
-0.394976888875277
20
-10.4618684218406
30
0
41
1
10
-0.394976888875277
20
-10.3140380853821
30
0
41
1
10
-0.394976888875277
20
-10.1648479968029
30
0
41
1
10
-0.394976888875277
20
-10.0143015620689
30
0
41
1
10
-0.394976888875277
20
-9.86240079247779
30
0
41
1
10
-0.394976888875277
20
-9.65799297250354
30
0
41
1
10
-0.394976888875277
20
-9.3992804435735
30
0
41
1
10
-0.394976888875277
20
-9.13609084815204
30
0
41
1
10
-0.394976888875277
20
-8.92272120904667
30
0
41
1
10
-0.394976888875277
20
-8.76141979935898
30
0
41
1
10
-0.394976888875277
20
-8.59878513251641
30
0
41
1
10
-0.394976888875277
20
-8.43482033812748
30
0
41
1
10
-0.394976888875277
20
-8.26952734508268
30
0
41
1
10
-0.394976888875277
20
-8.04728288893983
30
0
41
1
10
-0.394976888875277
20
-7.76637137475095
30
0
41
1
10
-0.394976888875277
20
-7.42389184310318
30
0
41
1
10
-0.394976888875277
20
-7.13420904829047
30
0
41
1
10
-0.394976888875277
20
-6.89966739484251
30
0
41
1
10
-0.394976888875277
20
-6.7225342898117
30
0
41
1
10
-0.394976888875277
20
-6.54409938064705
30
0
41
1
10
-0.394976888875277
20
-6.36436626337326
30
0
41
1
10
-0.394976888875277
20
-6.18333822517317
30
0
41
1
10
-0.394976888875277
20
-6.0010194773844
30
0
41
1
10
-0.394976888875277
20
-5.81741425905383
30
0
41
1
10
-0.394976888875277
20
-5.63252720020009
30
0
41
1
10
-0.394976888875277
20
-5.48871675629277
30
0
41
1
10
-0.394976888875277
20
-5.40659331253005
30
0
41
1
10
-0.394976888875277
20
-5.38678223324203
30
0
0
SPLINE
5
14C
100
AcDbEntity
8
SK1
62
256
6
ByLayer
370
18
48
1
60
0
100
AcDbSpline
70
4
71
3
72
107
73
103
40
0
40
0
40
0
40
0
40
0.0027087431769816
40
0.0112406780916317
40
0.0197726130062818
40
0.0283045479209319
40
0.036836482835582
40
0.0453684177502321
40
0.0539003526648822
40
0.0624322875795322
40
0.0709642224941823
40
0.0794961574088324
40
0.0965600272381326
40
0.113623897067433
40
0.130687766896733
40
0.139219701811383
40
0.147751636726033
40
0.156283571640683
40
0.164815506555333
40
0.173347441469983
40
0.181879376384634
40
0.198943246213934
40
0.216007116043234
40
0.224539050957884
40
0.233070985872534
40
0.241602920787184
40
0.250134855701834
40
0.258666790616484
40
0.267198725531134
40
0.284262595360435
40
0.292794530275085
40
0.301326465189735
40
0.318390335019035
40
0.335454204848335
40
0.343986139762985
40
0.352518074677635
40
0.369581944506935
40
0.378113879421585
40
0.386645814336236
40
0.395177749250886
40
0.403709684165536
40
0.420773553994836
40
0.429305488909486
40
0.437837423824136
40
0.446369358738786
40
0.454901293653436
40
0.471965163482736
40
0.480497098397387
40
0.489029033312037
40
0.497560968226687
40
0.506092903141337
40
0.523156772970637
40
0.531688707885287
40
0.540220642799937
40
0.548752577714587
40
0.557284512629237
40
0.574348382458538
40
0.582880317373188
40
0.591412252287838
40
0.595678219745163
40
0.599944187202488
40
0.608476122117138
40
0.625539991946438
40
0.634071926861088
40
0.642603861775738
40
0.651135796690388
40
0.659667731605038
40
0.676731601434339
40
0.685263536348989
40
0.693795471263639
40
0.702327406178289
40
0.710859341092939
40
0.719391276007589
40
0.727923210922239
40
0.736455145836889
40
0.744987080751539
40
0.762050950580839
40
0.77058288549549
40
0.77911482041014
40
0.79617869023944
40
0.80471062515409
40
0.81324256006874
40
0.83030642989804
40
0.83883836481269
40
0.84737029972734
40
0.855902234641991
40
0.864434169556641
40
0.881498039385941
40
0.890029974300591
40
0.898561909215241
40
0.907093844129891
40
0.915625779044541
40
0.924157713959191
40
0.932689648873841
40
0.941221583788492
40
0.949753518703141
40
0.958285453617792
40
0.966817388532442
40
0.975349323447092
40
0.983881258361742
40
0.992413193276392
40
1
40
1
40
1
40
1
41
1
10
-0.394976888875277
20
5.38678189578289
30
0
41
1
10
-0.394976888875277
20
5.4065930765673
30
0
41
1
10
-0.394976888875277
20
5.48871660168982
30
0
41
1
10
-0.394976888875277
20
5.63252719489225
30
0
41
1
10
-0.394976888875277
20
5.8174145162354
30
0
41
1
10
-0.394976888875277
20
6.00101977124669
30
0
41
1
10
-0.394976888875277
20
6.18333830919048
30
0
41
1
10
-0.394976888875277
20
6.3643662218949
30
0
41
1
10
-0.394976888875277
20
6.54409937286439
30
0
41
1
10
-0.394976888875277
20
6.72253430941348
30
0
41
1
10
-0.394976888875277
20
6.89966740060396
30
0
41
1
10
-0.394976888875277
20
7.13420903787926
30
0
41
1
10
-0.394976888875277
20
7.42389186204957
30
0
41
1
10
-0.394976888875277
20
7.76637138106329
30
0
41
1
10
-0.394976888875277
20
8.04728288344245
30
0
41
1
10
-0.394976888875277
20
8.26952736598562
30
0
41
1
10
-0.394976888875277
20
8.434820354761
30
0
41
1
10
-0.394976888875277
20
8.59878513137221
30
0
41
1
10
-0.394976888875277
20
8.76141979186249
30
0
41
1
10
-0.394976888875277
20
8.922721214403
30
0
41
1
10
-0.394976888875277
20
9.1360908691222
30
0
41
1
10
-0.394976888875277
20
9.39928045092248
30
0
41
1
10
-0.394976888875277
20
9.65799296546987
30
0
41
1
10
-0.394976888875277
20
9.86240080704218
30
0
41
1
10
-0.394976888875277
20
10.0143015815252
30
0
41
1
10
-0.394976888875277
20
10.1648480067744
30
0
41
1
10
-0.394976888875277
20
10.3140380843155
30
0
41
1
10
-0.394976888875277
20
10.4618684189216
30
0
41
1
10
-0.394976888875277
20
10.6572263081632
30
0
41
1
10
-0.394976888875277
20
10.8496518506122
30
0
41
1
10
-0.394976888875277
20
11.0395280782787
30
0
41
1
10
-0.394976888875277
20
11.2275701299333
30
0
41
1
10
-0.394976888875277
20
11.4590305143918
30
0
41
1
10
-0.394976888875277
20
11.685867652055
30
0
41
1
10
-0.394976888875277
20
11.864654349678
30
0
41
1
10
-0.394976888875277
20
12.0415756040849
30
0
41
1
10
-0.394976888875277
20
12.2155153161813
30
0
41
1
10
-0.394976888875277
20
12.3868007979199
30
0
41
1
10
-0.394976888875277
20
12.5138050519686
30
0
41
1
10
-0.394976888875277
20
12.6393872302303
30
0
41
1
10
-0.394976888875277
20
12.8049814458532
30
0
41
1
10
-0.394976888875277
20
12.9675509360494
30
0
41
1
10
-0.394976888875277
20
13.1273919665529
30
0
41
1
10
-0.394976888875277
20
13.2457849051211
30
0
41
1
10
-0.394976888875277
20
13.3627236547323
30
0
41
1
10
-0.394976888875277
20
13.5167448476072
30
0
41
1
10
-0.394976888875277
20
13.6676860552913
30
0
41
1
10
-0.394976888875277
20
13.8158144768541
30
0
41
1
10
-0.394976888875277
20
13.9253889718329
30
0
41
1
10
-0.394976888875277
20
14.0334711580348
30
0
41
1
10
-0.394976888875277
20
14.1756274475866
30
0
41
1
10
-0.394976888875277
20
14.3146351237356
30
0
41
1
10
-0.394976888875277
20
14.4507333681675
30
0
41
1
10
-0.394976888875277
20
14.5512443837086
30
0
41
1
10
-0.394976888875277
20
14.6502180419884
30
0
41
1
10
-0.394976888875277
20
14.780164253239
30
0
41
1
10
-0.394976888875277
20
14.9068780878822
30
0
41
1
10
-0.394976888875277
20
15.0305708978545
30
0
41
1
10
-0.394976888875277
20
15.1065165223896
30
0
41
1
10
-0.394976888875277
20
15.1665127141503
30
0
41
1
10
-0.394976888875277
20
15.2259771214207
30
0
41
1
10
-0.394976888875277
20
15.3286250474485
30
0
41
1
10
-0.394976888875277
20
15.4426196109061
30
0
41
1
10
-0.394976888875277
20
15.5534637367265
30
0
41
1
10
-0.394976888875277
20
15.6349267624759
30
0
41
1
10
-0.394976888875277
20
15.7147364921469
30
0
41
1
10
-0.394976888875277
20
15.8189643831875
30
0
41
1
10
-0.394976888875277
20
15.9197362187748
30
0
41
1
10
-0.394976888875277
20
16.0172057969154
30
0
41
1
10
-0.394976888875277
20
16.0885678110446
30
0
41
1
10
-0.394976888875277
20
16.1582019472912
30
0
41
1
10
-0.394976888875277
20
16.2260943811825
30
0
41
1
10
-0.394976888875277
20
16.2922298358683
30
0
41
1
10
-0.394976888875277
20
16.3565947902754
30
0
41
1
10
-0.394976888875277
20
16.4191737297992
30
0
41
1
10
-0.394976888875277
20
16.5002370830775
30
0
41
1
10
-0.394976888875277
20
16.5775834628441
30
0
41
1
10
-0.394976888875277
20
16.6513062771915
30
0
41
1
10
-0.394976888875277
20
16.7225357579897
30
0
41
1
10
-0.394976888875277
20
16.7899145981056
30
0
41
1
10
-0.394976888875277
20
16.8535135500206
30
0
41
1
10
-0.394976888875277
20
16.9145141001581
30
0
41
1
10
-0.394976888875277
20
16.9715145305624
30
0
41
1
10
-0.394976888875277
20
17.024552403858
30
0
41
1
10
-0.394976888875277
20
17.0622798511847
30
0
41
1
10
-0.394976888875277
20
17.0979462837243
30
0
41
1
10
-0.394976888875277
20
17.1427382787905
30
0
41
1
10
-0.394976888875277
20
17.1832568369982
30
0
41
1
10
-0.394976888875277
20
17.2194882612007
30
0
41
1
10
-0.394976888875277
20
17.2444531170066
30
0
41
1
10
-0.394976888875277
20
17.2671905287463
30
0
41
1
10
-0.394976888875277
20
17.2876678382251
30
0
41
1
10
-0.394976888875277
20
17.3058521626298
30
0
41
1
10
-0.394976888875277
20
17.3217086355548
30
0
41
1
10
-0.394976888875277
20
17.3352007360526
30
0
41
1
10
-0.394976888875277
20
17.3462909802274
30
0
41
1
10
-0.394976888875277
20
17.3549392880652
30
0
41
1
10
-0.394976888875277
20
17.3611046305144
30
0
41
1
10
-0.394976888875277
20
17.3647432146661
30
0
41
1
10
-0.394976888875277
20
17.3658102005923
30
0
41
1
10
-0.394976888875249
20
17.3643150511051
30
0
41
1
10
-0.394976888875277
20
17.3617494021519
30
0
41
1
10
-0.394976888875277
20
17.3601838595305
30
0
0
SPLINE
5
14D
100
AcDbEntity
8
SK1
62
256
6
ByLayer
370
18
48
1
60
0
100
AcDbSpline
70
4
71
3
72
288
73
284
40
0
40
0
40
0
40
0
40
0.0022851268410022
40
0.0057901674406064
40
0.0092952080402105
40
0.0128002486398148
40
0.016305289239419
40
0.0198103298390232
40
0.0233153704386274
40
0.0268204110382316
40
0.0303254516378357
40
0.03383049223744
40
0.0373355328370442
40
0.0408405734366484
40
0.0443456140362526
40
0.0513556952354609
40
0.0548607358350652
40
0.0583657764346693
40
0.0618708170342736
40
0.0653758576338777
40
0.0723859388330861
40
0.0758909794326903
40
0.0793960200322946
40
0.0864061012315029
40
0.0899111418311071
40
0.0934161824307113
40
0.10042626362992
40
0.103931304229524
40
0.107436344829128
40
0.110941385428732
40
0.114446426028337
40
0.117951466627941
40
0.121456507227545
40
0.124961547827149
40
0.128466588426753
40
0.135476669625962
40
0.138981710225566
40
0.14248675082517
40
0.145991791424774
40
0.149496832024378
40
0.156506913223587
40
0.160011953823191
40
0.163516994422795
40
0.1670220350224
40
0.170527075622004
40
0.177537156821212
40
0.181042197420816
40
0.184547238020421
40
0.188052278620025
40
0.191557319219629
40
0.198567400418837
40
0.202072441018441
40
0.205577481618046
40
0.20908252221765
40
0.212587562817254
40
0.219597644016463
40
0.223102684616067
40
0.226607725215671
40
0.230112765815275
40
0.233617806414879
40
0.240627887614088
40
0.244132928213692
40
0.247637968813296
40
0.2511430094129
40
0.254648050012504
40
0.261658131211713
40
0.265163171811317
40
0.268668212410921
40
0.27567829361013
40
0.282688374809338
40
0.286193415408942
40
0.289698456008546
40
0.296708537207755
40
0.300213577807359
40
0.303718618406963
40
0.307223659006568
40
0.310728699606172
40
0.314233740205776
40
0.31773878080538
40
0.324748862004588
40
0.331758943203797
40
0.335263983803401
40
0.338769024403005
40
0.342274065002609
40
0.345779105602214
40
0.349284146201818
40
0.352789186801422
40
0.35979926800063
40
0.366809349199839
40
0.373819430399047
40
0.377324470998651
40
0.380829511598256
40
0.38433455219786
40
0.387839592797464
40
0.391344633397068
40
0.394849673996672
40
0.398354714596277
40
0.401859755195881
40
0.405364795795485
40
0.408869836395089
40
0.412374876994693
40
0.415879917594297
40
0.419384958193902
40
0.422889998793506
40
0.42639503939311
40
0.429900079992714
40
0.433405120592318
40
0.435157640892121
40
0.436910161191923
40
0.438662681491725
40
0.440415201791527
40
0.443920242391131
40
0.447425282990735
40
0.449177803290537
40
0.450930323590339
40
0.452682843890142
40
0.454435364189944
40
0.456187884489746
40
0.457940404789548
40
0.461445445389152
40
0.463197965688954
40
0.464950485988756
40
0.466703006288558
40
0.46845552658836
40
0.470208046888162
40
0.471960567187965
40
0.473713087487767
40
0.475465607787569
40
0.477218128087371
40
0.478970648387173
40
0.480723168686975
40
0.482475688986777
40
0.484228209286579
40
0.485980729586381
40
0.487733249886184
40
0.489485770185986
40
0.491238290485788
40
0.49299081078559
40
0.494743331085392
40
0.496495851385194
40
0.498248371684996
40
0.500000891984798
40
0.5017534122846
40
0.503505932584402
40
0.505258452884205
40
0.507010973184007
40
0.508763493483809
40
0.510516013783611
40
0.512268534083413
40
0.514021054383215
40
0.515773574683017
40
0.517526094982819
40
0.519278615282621
40
0.521031135582423
40
0.522783655882226
40
0.524536176182028
40
0.52628869648183
40
0.528041216781632
40
0.529793737081434
40
0.531546257381236
40
0.533298777681038
40
0.53505129798084
40
0.536803818280642
40
0.538556338580444
40
0.540308858880246
40
0.542061379180049
40
0.543813899479851
40
0.545566419779653
40
0.549071460379257
40
0.550823980679059
40
0.552576500978861
40
0.556081541578465
40
0.55958658217807
40
0.561339102477872
40
0.563091622777674
40
0.564844143077476
40
0.566596663377278
40
0.570101703976882
40
0.573606744576486
40
0.577111785176091
40
0.580616825775695
40
0.584121866375299
40
0.587626906974903
40
0.591131947574507
40
0.594636988174112
40
0.598142028773716
40
0.60164706937332
40
0.605152109972924
40
0.608657150572528
40
0.612162191172133
40
0.615667231771737
40
0.619172272371341
40
0.622677312970945
40
0.626182353570549
40
0.633192434769758
40
0.640202515968966
40
0.647212597168174
40
0.650717637767779
40
0.654222678367383
40
0.657727718966987
40
0.661232759566591
40
0.664737800166196
40
0.6682428407658
40
0.675252921965008
40
0.682263003164217
40
0.685768043763821
40
0.689273084363425
40
0.692778124963029
40
0.696283165562633
40
0.699788206162237
40
0.703293246761842
40
0.71030332796105
40
0.713808368560654
40
0.717313409160258
40
0.724323490359467
40
0.731333571558675
40
0.734838612158279
40
0.738343652757883
40
0.745353733957092
40
0.748858774556696
40
0.7523638151563
40
0.755868855755904
40
0.759373896355509
40
0.766383977554717
40
0.769889018154321
40
0.773394058753925
40
0.77689909935353
40
0.780404139953134
40
0.787414221152342
40
0.790919261751946
40
0.794424302351551
40
0.797929342951155
40
0.801434383550759
40
0.808444464749968
40
0.811949505349572
40
0.815454545949176
40
0.81895958654878
40
0.822464627148384
40
0.829474708347593
40
0.832979748947197
40
0.836484789546801
40
0.838237309846603
40
0.839989830146405
40
0.843494870746009
40
0.850504951945218
40
0.854009992544822
40
0.857515033144426
40
0.86102007374403
40
0.864525114343635
40
0.871535195542843
40
0.875040236142447
40
0.878545276742052
40
0.882050317341656
40
0.88555535794126
40
0.889060398540864
40
0.892565439140468
40
0.896070479740073
40
0.899575520339677
40
0.906585601538885
40
0.910090642138489
40
0.913595682738094
40
0.920605763937302
40
0.924110804536906
40
0.92761584513651
40
0.934625926335719
40
0.938130966935323
40
0.941636007534927
40
0.945141048134531
40
0.948646088734136
40
0.955656169933344
40
0.959161210532948
40
0.962666251132552
40
0.966171291732156
40
0.969676332331761
40
0.973181372931365
40
0.976686413530969
40
0.980191454130573
40
0.983696494730177
40
0.987201535329782
40
0.990706575929386
40
0.99421161652899
40
0.997716657128594
40
1
40
1
40
1
40
1
41
1
10
-30
20
-15.9926656732376
30
0
41
1
10
-30
20
-15.9930575032228
30
0
41
1
10
-30
20
-15.993613001795
30
0
41
1
10
-30
20
-15.992743696334
30
0
41
1
10
-30
20
-15.9893850921089
30
0
41
1
10
-30
20
-15.9836860314146
30
0
41
1
10
-30
20
-15.9756808210229
30
0
41
1
10
-30
20
-15.9654018084481
30
0
41
1
10
-30
20
-15.9528811264941
30
0
41
1
10
-30
20
-15.9381491278438
30
0
41
1
10
-30
20
-15.9212355486336
30
0
41
1
10
-30
20
-15.9021692443494
30
0
41
1
10
-30
20
-15.8809772874923
30
0
41
1
10
-30
20
-15.85768719628
30
0
41
1
10
-30
20
-15.8237020449635
30
0
41
1
10
-30
20
-15.786151572388
30
0
41
1
10
-30
20
-15.7440467976174
30
0
41
1
10
-30
20
-15.7106366986067
30
0
41
1
10
-30
20
-15.6752710038507
30
0
41
1
10
-30
20
-15.6253102414823
30
0
41
1
10
-30
20
-15.5722298833996
30
0
41
1
10
-30
20
-15.5146768571488
30
0
41
1
10
-30
20
-15.454635155867
30
0
41
1
10
-30
20
-15.3917322415494
30
0
41
1
10
-30
20
-15.3243986601424
30
0
41
1
10
-30
20
-15.2546726017927
30
0
41
1
10
-30
20
-15.1823145630236
30
0
41
1
10
-30
20
-15.1055630554725
30
0
41
1
10
-30
20
-15.0465122402176
30
0
41
1
10
-30
20
-14.985753516587
30
0
41
1
10
-30
20
-14.9233034368069
30
0
41
1
10
-30
20
-14.8591738020485
30
0
41
1
10
-30
20
-14.7933781380804
30
0
41
1
10
-30
20
-14.7259318150055
30
0
41
1
10
-30
20
-14.6334478809413
30
0
41
1
10
-30
20
-14.5388306139923
30
0
41
1
10
-30
20
-14.4398724968665
30
0
41
1
10
-30
20
-14.3643499358607
30
0
41
1
10
-30
20
-14.2872489988171
30
0
41
1
10
-30
20
-14.1819460940194
30
0
41
1
10
-30
20
-14.0747689624993
30
0
41
1
10
-30
20
-13.9632604256822
30
0
41
1
10
-30
20
-13.8784200007502
30
0
41
1
10
-30
20
-13.7920640526129
30
0
41
1
10
-30
20
-13.674463030797
30
0
41
1
10
-30
20
-13.5552283874056
30
0
41
1
10
-30
20
-13.4316550911985
30
0
41
1
10
-30
20
-13.337853067095
30
0
41
1
10
-30
20
-13.2425907988595
30
0
41
1
10
-30
20
-13.1131460860381
30
0
41
1
10
-30
20
-12.9822967545723
30
0
41
1
10
-30
20
-12.847084683004
30
0
41
1
10
-30
20
-12.7446351532221
30
0
41
1
10
-30
20
-12.6407746180398
30
0
41
1
10
-30
20
-12.499887311655
30
0
41
1
10
-30
20
-12.3578191289812
30
0
41
1
10
-30
20
-12.2113468162578
30
0
41
1
10
-30
20
-12.100530667573
30
0
41
1
10
-30
20
-11.9883478761207
30
0
41
1
10
-30
20
-11.836377249174
30
0
41
1
10
-30
20
-11.6834503922585
30
0
41
1
10
-30
20
-11.5260594948948
30
0
41
1
10
-30
20
-11.4071324366749
30
0
41
1
10
-30
20
-11.2868794886981
30
0
41
1
10
-30
20
-11.1241532157817
30
0
41
1
10
-30
20
-10.9607029988619
30
0
41
1
10
-30
20
-10.7927086404325
30
0
41
1
10
-30
20
-10.6229844866849
30
0
41
1
10
-30
20
-10.4091173939315
30
0
41
1
10
-30
20
-10.1909959678347
30
0
41
1
10
-30
20
-10.0126979588287
30
0
41
1
10
-30
20
-9.83272430289384
30
0
41
1
10
-30
20
-9.65245023276196
30
0
41
1
10
-30
20
-9.46744871362009
30
0
41
1
10
-30
20
-9.32804093460692
30
0
41
1
10
-30
20
-9.18740563851225
30
0
41
1
10
-30
20
-9.0455543785921
30
0
41
1
10
-30
20
-8.90249044231979
30
0
41
1
10
-30
20
-8.70931958714519
30
0
41
1
10
-30
20
-8.46674616603482
30
0
41
1
10
-30
20
-8.22021686294167
30
0
41
1
10
-30
20
-8.01906836645577
30
0
41
1
10
-30
20
-7.86773085832667
30
0
41
1
10
-30
20
-7.71524241280142
30
0
41
1
10
-30
20
-7.56161298420645
30
0
41
1
10
-30
20
-7.40685260452798
30
0
41
1
10
-30
20
-7.19804202206524
30
0
41
1
10
-30
20
-6.93651252502835
30
0
41
1
10
-30
20
-6.61705894701072
30
0
41
1
10
-30
20
-6.34834996432815
30
0
41
1
10
-30
20
-6.12929373929515
30
0
41
1
10
-30
20
-5.96484945115367
30
0
41
1
10
-30
20
-5.7993974381898
30
0
41
1
10
-30
20
-5.63295542814623
30
0
41
1
10
-30
20
-5.46554083189747
30
0
41
1
10
-30
20
-5.29717335727497
30
0
41
1
10
-30
20
-5.12787591307327
30
0
41
1
10
-30
20
-4.9576706384986
30
0
41
1
10
-30
20
-4.78658071628459
30
0
41
1
10
-30
20
-4.6146335506248
30
0
41
1
10
-30
20
-4.44186113006066
30
0
41
1
10
-30
20
-4.26829321973949
30
0
41
1
10
-30
20
-4.09396155182321
30
0
41
1
10
-30
20
-3.91890592173866
30
0
41
1
10
-30
20
-3.74316620306936
30
0
41
1
10
-30
20
-3.56678705857649
30
0
41
1
10
-30
20
-3.42015123791836
30
0
41
1
10
-30
20
-3.3009810984795
30
0
41
1
10
-30
20
-3.21216327477833
30
0
41
1
10
-30
20
-3.12322377081893
30
0
41
1
10
-30
20
-3.00356413190352
30
0
41
1
10
-30
20
-2.85589664233001
30
0
41
1
10
-30
20
-2.70788037697056
30
0
41
1
10
-30
20
-2.58749550859633
30
0
41
1
10
-30
20
-2.49793822974365
30
0
41
1
10
-30
20
-2.40833000131903
30
0
41
1
10
-30
20
-2.31867596083524
30
0
41
1
10
-30
20
-2.22899146909501
30
0
41
1
10
-30
20
-2.10827328924756
30
0
41
1
10
-30
20
-1.99097459417121
30
0
41
1
10
-30
20
-1.87012467714985
30
0
41
1
10
-30
20
-1.78043031683035
30
0
41
1
10
-30
20
-1.69076251244053
30
0
41
1
10
-30
20
-1.60113247848605
30
0
41
1
10
-30
20
-1.51155313609783
30
0
41
1
10
-30
20
-1.422025757727
30
0
41
1
10
-30
20
-1.33256776537959
30
0
41
1
10
-30
20
-1.24317741509074
30
0
41
1
10
-30
20
-1.15386860885192
30
0
41
1
10
-30
20
-1.06464013673647
30
0
41
1
10
-30
20
-0.975500136218244
30
0
41
1
10
-30
20
-0.886447988926847
30
0
41
1
10
-30
20
-0.797485776681128
30
0
41
1
10
-30
20
-0.708610852102623
30
0
41
1
10
-30
20
-0.61982073744278
30
0
41
1
10
-30
20
-0.531109764951225
30
0
41
1
10
-30
20
-0.442471434007643
30
0
41
1
10
-30
20
-0.35389600796347
30
0
41
1
10
-30
20
-0.265373879214224
30
0
41
1
10
-30
20
-0.176892371692162
30
0
41
1
10
-30
20
-0.0884392148653887
30
0
41
1
10
-30
20
-2.04973958E-08
30
0
41
1
10
-30
20
0.0884392031952927
30
0
41
1
10
-30
20
0.17689241471993
30
0
41
1
10
-30
20
0.265373915570137
30
0
41
1
10
-30
20
0.353895962579486
30
0
41
1
10
-30
20
0.442471374506823
30
0
41
1
10
-30
20
0.531109813902646
30
0
41
1
10
-30
20
0.61982082298212
30
0
41
1
10
-30
20
0.70861080655007
30
0
41
1
10
-30
20
0.797485667180155
30
0
41
1
10
-30
20
0.886448026006832
30
0
41
1
10
-30
20
0.97550027278379
30
0
41
1
10
-30
20
1.06464012636249
30
0
41
1
10
-30
20
1.1538684580087
30
0
41
1
10
-30
20
1.24317738635406
30
0
41
1
10
-30
20
1.33256791795026
30
0
41
1
10
-30
20
1.42202585063245
30
0
41
1
10
-30
20
1.5115530207047
30
0
41
1
10
-30
20
1.60113232466117
30
0
41
1
10
-30
20
1.69076256252157
30
0
41
1
10
-30
20
1.78043050963589
30
0
41
1
10
-30
20
1.87012473193457
30
0
41
1
10
-30
20
1.95984062320625
30
0
41
1
10
-30
20
2.04956121840738
30
0
41
1
10
-30
20
2.13928298465069
30
0
41
1
10
-30
20
2.22899154181988
30
0
41
1
10
-30
20
2.34971237639814
30
0
41
1
10
-30
20
2.4670581044816
30
0
41
1
10
-30
20
2.58749567267543
30
0
41
1
10
-30
20
2.70788056755165
30
0
41
1
10
-30
20
2.85589666602098
30
0
41
1
10
-30
20
3.00356394920902
30
0
41
1
10
-30
20
3.12322374659235
30
0
41
1
10
-30
20
3.21216341650842
30
0
41
1
10
-30
20
3.3009812939207
30
0
41
1
10
-30
20
3.4201512431562
30
0
41
1
10
-30
20
3.56678672363679
30
0
41
1
10
-30
20
3.74316585626101
30
0
41
1
10
-30
20
3.91890584757377
30
0
41
1
10
-30
20
4.09396100129445
30
0
41
1
10
-30
20
4.26829259541552
30
0
41
1
10
-30
20
4.44186183082067
30
0
41
1
10
-30
20
4.61463414914383
30
0
41
1
10
-30
20
4.78658021025493
30
0
41
1
10
-30
20
4.95767123056282
30
0
41
1
10
-30
20
5.1278778625566
30
0
41
1
10
-30
20
5.29717415068043
30
0
41
1
10
-30
20
5.46553992297879
30
0
41
1
10
-30
20
5.63295448869491
30
0
41
1
10
-30
20
5.79939725011727
30
0
41
1
10
-30
20
5.96484950556561
30
0
41
1
10
-30
20
6.1292936535483
30
0
41
1
10
-30
20
6.34834993475852
30
0
41
1
10
-30
20
6.6170590196507
30
0
41
1
10
-30
20
6.93651248001379
30
0
41
1
10
-30
20
7.19804203228608
30
0
41
1
10
-30
20
7.40685270744595
30
0
41
1
10
-30
20
7.56161297986856
30
0
41
1
10
-30
20
7.71524232371232
30
0
41
1
10
-30
20
7.86773082006812
30
0
41
1
10
-30
20
8.01906843480592
30
0
41
1
10
-30
20
8.22021692135615
30
0
41
1
10
-30
20
8.46674612315107
30
0
41
1
10
-30
20
8.7093195790371
30
0
41
1
10
-30
20
8.90249052457438
30
0
41
1
10
-30
20
9.04555441784282
30
0
41
1
10
-30
20
9.18740560593943
30
0
41
1
10
-30
20
9.32804088163152
30
0
41
1
10
-30
20
9.46744870809565
30
0
41
1
10
-30
20
9.65245029192155
30
0
41
1
10
-30
20
9.83272433616031
30
0
41
1
10
-30
20
10.0126979221092
30
0
41
1
10
-30
20
10.1909959517429
30
0
41
1
10
-30
20
10.4091174330404
30
0
41
1
10
-30
20
10.6229845090751
30
0
41
1
10
-30
20
10.7927086151923
30
0
41
1
10
-30
20
10.9607029915804
30
0
41
1
10
-30
20
11.1241532476502
30
0
41
1
10
-30
20
11.286879520772
30
0
41
1
10
-30
20
11.4071324437642
30
0
41
1
10
-30
20
11.526059483736
30
0
41
1
10
-30
20
11.6834503898541
30
0
41
1
10
-30
20
11.8363772717575
30
0
41
1
10
-30
20
11.9883479026383
30
0
41
1
10
-30
20
12.100530681097
30
0
41
1
10
-30
20
12.211346817793
30
0
41
1
10
-30
20
12.3578191303265
30
0
41
1
10
-30
20
12.4998873251013
30
0
41
1
10
-30
20
12.640774639564
30
0
41
1
10
-30
20
12.7446351726738
30
0
41
1
10
-30
20
12.8470846962099
30
0
41
1
10
-30
20
12.9822967603461
30
0
41
1
10
-30
20
13.1131460918651
30
0
41
1
10
-30
20
13.2425908150843
30
0
41
1
10
-30
20
13.3378530905647
30
0
41
1
10
-30
20
13.431655102243
30
0
41
1
10
-30
20
13.5552284439381
30
0
41
1
10
-30
20
13.6744629632361
30
0
41
1
10
-30
20
13.7920640428987
30
0
41
1
10
-30
20
13.8638084100541
30
0
41
1
10
-30
20
13.9208384799595
30
0
41
1
10
-30
20
13.9773600368974
30
0
41
1
10
-30
20
14.0747689786766
30
0
41
1
10
-30
20
14.1819460903518
30
0
41
1
10
-30
20
14.2872490063531
30
0
41
1
10
-30
20
14.3643499644422
30
0
41
1
10
-30
20
14.4398725346097
30
0
41
1
10
-30
20
14.5388306330265
30
0
41
1
10
-30
20
14.6334478734244
30
0
41
1
10
-30
20
14.7259318226356
30
0
41
1
10
-30
20
14.793378171537
30
0
41
1
10
-30
20
14.8591738437125
30
0
41
1
10
-30
20
14.9233034607296
30
0
41
1
10
-30
20
14.9857535133679
30
0
41
1
10
-30
20
15.0465122321639
30
0
41
1
10
-30
20
15.1055630695376
30
0
41
1
10
-30
20
15.1823146060513
30
0
41
1
10
-30
20
15.2546726312332
30
0
41
1
10
-30
20
15.3243986497297
30
0
41
1
10
-30
20
15.3917322452796
30
0
41
1
10
-30
20
15.4546352005829
30
0
41
1
10
-30
20
15.5146768877911
30
0
41
1
10
-30
20
15.5722298782127
30
0
41
1
10
-30
20
15.6253102421943
30
0
41
1
10
-30
20
15.6752710489662
30
0
41
1
10
-30
20
15.7106367362118
30
0
41
1
10
-30
20
15.7440468008705
30
0
41
1
10
-30
20
15.7861515665346
30
0
41
1
10
-30
20
15.8237020814765
30
0
41
1
10
-30
20
15.8576872273509
30
0
41
1
10
-30
20
15.8809772969169
30
0
41
1
10
-30
20
15.9021692417172
30
0
41
1
10
-30
20
15.921235563756
30
0
41
1
10
-30
20
15.9381491696965
30
0
41
1
10
-30
20
15.9528811556007
30
0
41
1
10
-30
20
15.9654018081648
30
0
41
1
10
-30
20
15.9756808201301
30
0
41
1
10
-30
20
15.9836860510364
30
0
41
1
10
-30
20
15.989385071505
30
0
41
1
10
-30
20
15.992743547039
30
0
41
1
10
-30
20
15.9936126284966
30
0
41
1
10
-30
20
15.9930576925193
30
0
41
1
10
-30
20
15.9926664684806
30
0
0
SPLINE
5
14E
100
AcDbEntity
8
1
62
256
6
ByLayer
370
18
48
1
60
0
100
AcDbSpline
70
4
71
3
72
8
73
4
40
0
40
0
40
0
40
0
40
1
40
1
40
1
40
1
41
1
10
22.2908196498678
20
-30.1045270166388
30
0
41
1
10
22.2909318251406
20
-30.1045270166388
30
0
41
1
10
22.3231891625636
20
-30.1045270166393
30
0
41
1
10
22.3888596498653
20
-30.1045270166403
30
0
0
SPLINE
5
14F
100
AcDbEntity
8
1
62
256
6
ByLayer
370
18
48
1
60
0
100
AcDbSpline
70
4
71
3
72
11
73
7
40
0
40
0
40
0
40
0
40
0.616319687912193
40
0.616319687912193
40
0.616319687912193
40
1
40
1
40
1
40
1
41
1
10
31.2561097058866
20
-20.3819686455601
30
0
41
1
10
30.9701262017024
20
-20.2311249866337
30
0
41
1
10
30.6719118949417
20
-20.0419337649878
30
0
41
1
10
30.3905485958626
20
-19.8016649083016
30
0
41
1
10
30.2139647719333
20
-19.6508719881743
30
0
41
1
10
30.0424402403851
20
-19.4782409420068
30
0
41
1
10
29.8879190256216
20
-19.2848238350351
30
0
0
SPLINE
5
150
100
AcDbEntity
8
1
62
256
6
ByLayer
370
18
48
1
60
0
100
AcDbSpline
70
4
71
3
72
8
73
4
40
0
40
0
40
0
40
0
40
1
40
1
40
1
40
1
41
1
10
40.1271159856039
20
-21.2076797901908
30
0
41
1
10
39.8458702577455
20
-21.1381113888605
30
0
41
1
10
39.5762432831923
20
-21.0431429141936
30
0
41
1
10
39.3189887889615
20
-20.9217492747003
30
0
0
SPLINE
5
151
100
AcDbEntity
8
1
62
256
6
ByLayer
370
18
48
1
60
0
100
AcDbSpline
70
4
71
3
72
8
73
4
40
0
40
0
40
0
40
0
40
1
40
1
40
1
40
1
41
1
10
37.0902339100705
20
-12.3333332556937
30
0
41
1
10
36.8426698102818
20
-12.2703566497103
30
0
41
1
10
36.61113880518
20
-12.1828711177877
30
0
41
1
10
36.3930768861576
20
-12.078138360798
30
0
0
SPLINE
5
152
100
AcDbEntity
8
1
62
256
6
ByLayer
370
18
48
1
60
0
100
AcDbSpline
70
4
71
3
72
10
73
6
40
0
40
0
40
0
40
0
40
0.5
40
0.5
40
1
40
1
40
1
40
1
41
1
10
31.1741142682756
20
-17.1776232175001
30
0
41
1
10
30.8918208950131
20
-17.84685307373
30
0
41
1
10
30.7912347446092
20
-18.5241260298471
30
0
41
1
10
30.8344129487898
20
-19.5083560301245
30
0
41
1
10
30.9255138430977
20
-19.8466668711033
30
0
41
1
10
31.1874350907776
20
-20.1792685022189
30
0
0
SPLINE
5
153
100
AcDbEntity
8
1
62
256
6
ByLayer
370
18
48
1
60
0
100
AcDbSpline
70
4
71
3
72
10
73
6
40
0
40
0
40
0
40
0
40
0.5
40
0.5
40
1
40
1
40
1
40
1
41
1
10
51.4695956677122
20
-25.1491787123597
30
0
41
1
10
50.7361228465469
20
-25.1781880942011
30
0
41
1
10
50.2302139315104
20
-24.9312594075543
30
0
41
1
10
49.6451464781292
20
-24.2434957781158
30
0
41
1
10
49.5241150266596
20
-23.804317120525
30
0
41
1
10
49.4664043034554
20
-23.3450523956916
30
0
0
SPLINE
5
154
100
AcDbEntity
8
1
62
256
6
ByLayer
370
18
48
1
60
0
100
AcDbSpline
70
4
71
3
72
8
73
4
40
0
40
0
40
0
40
0
40
1
40
1
40
1
40
1
41
1
10
43.6077682027942
20
-13.8654514311093
30
0
41
1
10
43.3803930516798
20
-13.6953011938971
30
0
41
1
10
43.132933313286
20
-13.5444719547357
30
0
41
1
10
42.8741467943731
20
-13.4223553811202
30
0
0
SPLINE
5
155
100
AcDbEntity
8
1
62
256
6
ByLayer
370
18
48
1
60
0
100
AcDbSpline
70
4
71
3
72
12
73
8
40
0
40
0
40
0
40
0
40
0.466938972358618
40
0.466938972358618
40
0.928803236876551
40
0.928803236876551
40
1
40
1
40
1
40
1
41
1
10
35.5700118853347
20
-18.0154265077359
30
0
41
1
10
35.4877596411965
20
-17.8648664810323
30
0
41
1
10
35.3800842542051
20
-17.7139853335863
30
0
41
1
10
35.1402196107356
20
-17.4431826272732
30
0
41
1
10
35.0054406868655
20
-17.318927798143
30
0
41
1
10
34.8454959073732
20
-17.1931167856275
30
0
41
1
10
34.8238088335121
20
-17.176487582764
30
0
41
1
10
34.8020196004188
20
-17.1601849441094
30
0
0
SPLINE
5
156
100
AcDbEntity
8
1
62
256
6
ByLayer
370
18
48
1
60
0
100
AcDbSpline
70
4
71
3
72
10
73
6
40
0
40
0
40
0
40
0
40
0.5
40
0.5
40
1
40
1
40
1
40
1
41
1
10
38.092743490037
20
-23.6408372372844
30
0
41
1
10
39.3021804385256
20
-24.1975842464053
30
0
41
1
10
40.5662821004159
20
-24.5495511033496
30
0
41
1
10
43.1333639902338
20
-25.1078413449862
30
0
41
1
10
44.4559279979599
20
-25.2677715049389
30
0
41
1
10
45.7789395963124
20
-25.3208091883177
30
0
0
SPLINE
5
157
100
AcDbEntity
8
1
62
256
6
ByLayer
370
18
48
1
60
0
100
AcDbSpline
70
4
71
3
72
10
73
6
40
0
40
0
40
0
40
0
40
0.655488757716273
40
0.655488757716273
40
1
40
1
40
1
40
1
41
1
10
37.58604040522
20
-7.45311115535731
30
0
41
1
10
37.2523701589445
20
-7.29037314209731
30
0
41
1
10
36.8629630518613
20
-7.14115545567981
30
0
41
1
10
36.2048744237326
20
-7.01340518886303
30
0
41
1
10
35.9638595756316
20
-6.98735982322688
30
0
41
1
10
35.7173392346719
20
-6.98800938900473
30
0
0
SPLINE
5
158
100
AcDbEntity
8
1
62
256
6
ByLayer
370
18
48
1
60
0
100
AcDbSpline
70
4
71
3
72
11
73
7
40
0
40
0
40
0
40
0
40
0.423407924939447
40
0.740963868644032
40
0.899741840496325
40
1
40
1
40
1
40
1
41
1.02805999725224
10
44.1567512361102
20
-11.8640214438816
30
0
41
1.02767136955277
10
44.8844251444936
20
-12.3280724321198
30
0
41
1.02349884684923
10
47.0893444227637
20
-14.7454010732112
30
0
41
1.01876555595691
10
49.6467433925786
20
-18.0813509049905
30
0
41
1.01635405201137
10
50.6129205313304
20
-19.3288321423265
30
0
41
1.01722454828226
10
51.0317469286995
20
-19.5745327102087
30
0
41
1.01774327987904
10
51.2093677802152
20
-19.668374837515
30
0
0
SPLINE
5
159
100
AcDbEntity
8
1
62
256
6
ByLayer
370
18
48
1
60
0
100
AcDbSpline
70
4
71
3
72
10
73
6
40
0
40
0
40
0
40
0
40
0.5
40
0.5
40
1
40
1
40
1
40
1
41
1
10
51.2093677802145
20
-19.6683748375147
30
0
41
1
10
51.6089773195616
20
-19.4057386801466
30
0
41
1
10
52.0242580216616
20
-19.2059614893392
30
0
41
1
10
52.9493635960168
20
-19.1856354345535
30
0
41
1
10
53.4649114482767
20
-19.3956091150518
30
0
41
1
10
53.9200188720758
20
-19.9801570305723
30
0
0
SPLINE
5
15A
100
AcDbEntity
8
1
62
256
6
ByLayer
370
18
48
1
60
0
100
AcDbSpline
70
4
71
3
72
8
73
4
40
0
40
0
40
0
40
0
40
1
40
1
40
1
40
1
41
1
10
35.6651179245004
20
-18.2091454414115
30
0
41
1
10
35.6366150302007
20
-18.1439741898378
30
0
41
1
10
35.6049419945493
20
-18.0793649234132
30
0
41
1
10
35.5700118853347
20
-18.0154265077359
30
0
0
SPLINE
5
15B
100
AcDbEntity
8
1
62
256
6
ByLayer
370
18
48
1
60
0
100
AcDbSpline
70
4
71
3
72
11
73
7
40
0
40
0
40
0
40
0
40
0.423407924946023
40
0.74096386865554
40
0.899741840510299
40
1
40
1
40
1
40
1
41
1.02805999725224
10
38.9503333953311
20
-22.8466495304907
30
0
41
1.02767136955277
10
39.7705607016576
20
-23.1154646426983
30
0
41
1.02349884684923
10
43.0348146171482
20
-23.2981900121857
30
0
41
1.01876555595691
10
47.2405088059774
20
-23.1571593325313
30
0
41
1.01635405201144
10
48.821962052357
20
-23.106752296679
30
0
41
1.01722454828215
10
49.2800563115272
20
-23.2696196507621
30
0
41
1.0177432798788
10
49.4664043033794
20
-23.3450523956608
30
0
0
SPLINE
5
15C
100
AcDbEntity
8
1
62
256
6
ByLayer
370
18
48
1
60
0
100
AcDbSpline
70
4
71
3
72
8
73
4
40
0
40
0
40
0
40
0
40
1
40
1
40
1
40
1
41
1
10
52.3577302088752
20
-17.1538193120445
30
0
41
1
10
52.2731442029487
20
-17.0925516734107
30
0
41
1
10
52.1872999299607
20
-17.0332450583662
30
0
41
1
10
52.1001709514249
20
-16.9761473378919
30
0
0
SPLINE
5
15D
100
AcDbEntity
8
1
62
256
6
ByLayer
370
18
48
1
60
0
100
AcDbSpline
70
4
71
3
72
8
73
4
40
0
40
0
40
0
40
0
40
1
40
1
40
1
40
1
41
1
10
35.6651179245004
20
-18.2091454414114
30
0
41
1
10
36.0137482744908
20
-19.0062811991527
30
0
41
1
10
36.6466522725129
20
-19.6607230809592
30
0
41
1
10
37.481396575709
20
-20.0546234841933
30
0
0
SPLINE
5
15E
100
AcDbEntity
8
1
62
256
6
ByLayer
370
18
48
1
60
0
100
AcDbSpline
70
4
71
3
72
8
73
4
40
0
40
0
40
0
40
0
40
1
40
1
40
1
40
1
41
1
10
34.9485114026842
20
-9.59002111408014
30
0
41
1
10
35.5216294880894
20
-10.2010175805618
30
0
41
1
10
36.2948704674505
20
-11.2191602348271
30
0
41
1
10
37.0902339100705
20
-12.3333332556937
30
0
0
SPLINE
5
15F
100
AcDbEntity
8
1
62
256
6
ByLayer
370
18
48
1
60
0
100
AcDbSpline
70
4
71
3
72
8
73
4
40
0
40
0
40
0
40
0
40
1
40
1
40
1
40
1
41
1
10
31.202743518263
20
-17.1136690133058
30
0
41
1
10
31.192668773232
20
-17.1349210874047
30
0
41
1
10
31.1831340726912
20
-17.1562400644262
30
0
41
1
10
31.1741142682756
20
-17.1776232175001
30
0
0
SPLINE
5
160
100
AcDbEntity
8
1
62
256
6
ByLayer
370
18
48
1
60
0
100
AcDbSpline
70
4
71
3
72
12
73
8
40
0
40
0
40
0
40
0
40
0.108854002841678
40
0.502629245107337
40
0.699516866240166
40
0.896404487372995
40
1
40
1
40
1
40
1
41
1.0244126255267
10
44.2839080901446
20
-20.0181702791423
30
0
41
1.02394775696077
10
44.6012788786136
20
-20.136798498426
30
0
41
1.02173322391444
10
46.1056054191414
20
-20.6918671126878
30
0
41
1.01876555595691
10
48.2334164812589
20
-21.4311600778681
30
0
41
1.01610930227499
10
49.6670853768551
20
-21.8997340181832
30
0
41
1.01814069306376
10
50.2902809558041
20
-22.1998716332154
30
0
41
1.0200519600697
10
50.852940848163
20
-22.4488257542996
30
0
41
1.02076673234771
10
51.0595478321629
20
-22.5376359514541
30
0
0
SPLINE
5
161
100
AcDbEntity
8
1
62
256
6
ByLayer
370
18
48
1
60
0
100
AcDbSpline
70
4
71
2
72
6
73
3
40
0
40
0
40
0
40
1
40
1
40
1
41
1
10
50.2796893624214
20
-25.4694440697369
30
0
41
1
10
49.2993280372491
20
-25.6492796666929
30
0
41
1
10
48.2906811180691
20
-25.7329122238095
30
0
0
SPLINE
5
162
100
AcDbEntity
8
1
62
256
6
ByLayer
370
18
48
1
60
0
100
AcDbSpline
70
4
71
3
72
12
73
8
40
0
40
0
40
0
40
0
40
0.471343086678521
40
0.471343086678521
40
0.892619726108222
40
0.892619726108222
40
1
40
1
40
1
40
1
41
1
10
37.0902339100705
20
-12.3333332556937
30
0
41
1
10
37.2625975397215
20
-12.3771799862966
30
0
41
1
10
37.4455129643051
20
-12.4086075636947
30
0
41
1
10
37.792562444232
20
-12.4318296112988
30
0
41
1
10
37.9602754315117
20
-12.4273716511897
30
0
41
1
10
38.158807646872
20
-12.4004821107863
30
0
41
1
10
38.1990851519954
20
-12.3938538934925
30
0
41
1
10
38.2386133463823
20
-12.3861707978213
30
0
0
SPLINE
5
163
100
AcDbEntity
8
1
62
256
6
ByLayer
370
18
48
1
60
0
100
AcDbSpline
70
4
71
3
72
8
73
4
40
0
40
0
40
0
40
0
40
1
40
1
40
1
40
1
41
1
10
34.8007347526553
20
-9.52392097642971
30
0
41
1
10
34.8108094976862
20
-9.50266890233081
30
0
41
1
10
34.8212693168409
20
-9.48181063190458
30
0
41
1
10
34.8320966053493
20
-9.46132752551762
30
0
0
SPLINE
5
164
100
AcDbEntity
8
1
62
256
6
ByLayer
370
18
48
1
60
0
100
AcDbSpline
70
4
71
2
72
6
73
3
40
0
40
0
40
0
40
1
40
1
40
1
41
1.02805999725224
10
38.9503333953311
20
-22.8466495304907
30
0
41
1.02805999725224
10
38.5215384426841
20
-23.2437433838875
30
0
41
1.02805999725224
10
38.092743490037
20
-23.6408372372844
30
0
0
SPLINE
5
165
100
AcDbEntity
8
1
62
256
6
ByLayer
370
18
48
1
60
0
100
AcDbSpline
70
4
71
3
72
20
73
16
40
0
40
0
40
0
40
0
40
0.332873226652388
40
0.332873226652388
40
0.501657261698203
40
0.501657261698203
40
0.631212321676502
40
0.631212321676502
40
0.722542323637659
40
0.722542323637659
40
0.814765347404181
40
0.814765347404181
40
0.896421359038792
40
0.896421359038792
40
1
40
1
40
1
40
1
41
1
10
51.5925108804886
20
-21.4133821703595
30
0
41
1
10
51.4787521078986
20
-21.2397974959125
30
0
41
1
10
51.3679208778626
20
-21.0539281158045
30
0
41
1
10
51.2204283541906
20
-20.7456769451778
30
0
41
1
10
51.1737073958722
20
-20.6357309711417
30
0
41
1
10
51.1056809951529
20
-20.4319888645884
30
0
41
1
10
51.0805774967324
20
-20.3386482900413
30
0
41
1
10
51.0539901741441
20
-20.1800597851134
30
0
41
1
10
51.0476717057052
20
-20.1133040937709
30
0
41
1
10
51.0483103304212
20
-19.9881282476028
30
0
41
1
10
51.0555739585657
20
-19.9282087906789
30
0
41
1
10
51.0812812097981
20
-19.8322839887907
30
0
41
1
10
51.0985411008241
20
-19.7931199548726
30
0
41
1
10
51.1447269464627
20
-19.7205706729624
30
0
41
1
10
51.1759651341274
20
-19.69032405937
30
0
41
1
10
51.2093677802145
20
-19.6683748375147
30
0
0
SPLINE
5
166
100
AcDbEntity
8
1
62
256
6
ByLayer
370
18
48
1
60
0
100
AcDbSpline
70
4
71
3
72
8
73
4
40
0
40
0
40
0
40
0
40
1
40
1
40
1
40
1
41
1
10
54.3954671896198
20
-21.1977946293602
30
0
41
1
10
54.4370384487509
20
-21.2655406879837
30
0
41
1
10
54.4767606287919
20
-21.3380532158729
30
0
41
1
10
54.513803865526
20
-21.4141579721081
30
0
0
SPLINE
5
167
100
AcDbEntity
8
1
62
256
6
ByLayer
370
18
48
1
60
0
100
AcDbSpline
70
4
71
3
72
8
73
4
40
0
40
0
40
0
40
0
40
1
40
1
40
1
40
1
41
1
10
50.4365719566384
20
-15.4958113602608
30
0
41
1
10
50.9781979887183
20
-16.1028424194394
30
0
41
1
10
51.5589286006058
20
-16.6214581750521
30
0
41
1
10
52.1001709514249
20
-16.9761473378919
30
0
0
SPLINE
5
168
100
AcDbEntity
8
1
62
256
6
ByLayer
370
18
48
1
60
0
100
AcDbSpline
70
4
71
3
72
8
73
4
40
0
40
0
40
0
40
0
40
1
40
1
40
1
40
1
41
1
10
43.607768218041
20
-13.8654514131617
30
0
41
1
10
43.926065097774
20
-12.9972354468221
30
0
41
1
10
44.1219574878384
20
-12.28306963964
30
0
41
1
10
44.1567512361102
20
-11.8640214438816
30
0
0
SPLINE
5
169
100
AcDbEntity
8
1
62
256
6
ByLayer
370
18
48
1
60
0
100
AcDbSpline
70
4
71
3
72
10
73
6
40
0
40
0
40
0
40
0
40
0.967465556419474
40
0.967465556419474
40
1
40
1
40
1
40
1
41
1
10
51.0595478321794
20
-22.5376359514612
30
0
41
1
10
51.4652354034964
20
-22.4896277771095
30
0
41
1
10
51.8658719071987
20
-22.4512075789187
30
0
41
1
10
52.2697732671865
20
-22.4263015339189
30
0
41
1
10
52.2829140855134
20
-22.4255073558317
30
0
41
1
10
52.2960431895917
20
-22.424730343107
30
0
0
SPLINE
5
16A
100
AcDbEntity
8
1
62
256
6
ByLayer
370
18
48
1
60
0
100
AcDbSpline
70
4
71
3
72
8
73
4
40
0
40
0
40
0
40
0
40
1
40
1
40
1
40
1
41
1
10
38.2386133463823
20
-12.3861707978213
30
0
41
1
10
37.9798765034704
20
-10.8414518725367
30
0
41
1
10
37.664652871551
20
-9.42361732348675
30
0
41
1
10
37.3280837483384
20
-8.64169951046287
30
0
0
SPLINE
5
16B
100
AcDbEntity
8
1
62
256
6
ByLayer
370
18
48
1
60
0
100
AcDbSpline
70
4
71
3
72
8
73
4
40
0
40
0
40
0
40
0
40
1
40
1
40
1
40
1
41
1
10
38.9503333953311
20
-22.8466495304907
30
0
41
1
10
39.2424250911989
20
-22.5761523701547
30
0
41
1
10
39.6623338129211
20
-21.9913224414277
30
0
41
1
10
40.1271160004059
20
-21.2076797938522
30
0
0
SPLINE
5
16C
100
AcDbEntity
8
1
62
256
6
ByLayer
370
18
48
1
60
0
100
AcDbSpline
70
4
71
3
72
10
73
6
40
0
40
0
40
0
40
0
40
0.5
40
0.5
40
1
40
1
40
1
40
1
41
1
10
37.1910230175964
20
-7.51505763749111
30
0
41
1
10
36.7598936283492
20
-7.53549312406136
30
0
41
1
10
36.4327036991057
20
-7.69522212383745
30
0
41
1
10
35.63944604616
20
-8.30209370676735
30
0
41
1
10
35.1701487642773
20
-8.82179914033659
30
0
41
1
10
34.8320966053493
20
-9.46132752551762
30
0
0
SPLINE
5
16D
100
AcDbEntity
8
1
62
256
6
ByLayer
370
18
48
1
60
0
100
AcDbSpline
70
4
71
3
72
8
73
4
40
0
40
0
40
0
40
0
40
1
40
1
40
1
40
1
41
1
10
41.0365545811204
20
-12.5552295906134
30
0
41
1
10
40.2043579476294
20
-12.1625313856097
30
0
41
1
10
39.2876137725129
20
-12.094551442598
30
0
41
1
10
38.4495773413261
20
-12.3354942800062
30
0
0
SPLINE
5
16E
100
AcDbEntity
8
1
62
256
6
ByLayer
370
18
48
1
60
0
100
AcDbSpline
70
4
71
3
72
11
73
7
40
0
40
0
40
0
40
0
40
0.564783939443776
40
0.564783939443776
40
0.564783939443776
40
1
40
1
40
1
40
1
41
1
10
47.9875388352232
20
-25.6514996378
30
0
41
1
10
47.6415411976053
20
-25.5495299764884
30
0
41
1
10
47.2398563519931
20
-25.4536984358253
30
0
41
1
10
46.8130017377748
20
-25.4004925752312
30
0
41
1
10
46.4813588867857
20
-25.3591545113823
30
0
41
1
10
46.1313659395217
20
-25.3349374671844
30
0
41
1
10
45.7789395963128
20
-25.3208091883176
30
0
0
SPLINE
5
16F
100
AcDbEntity
8
1
62
256
6
ByLayer
370
18
48
1
60
0
100
AcDbSpline
70
4
71
3
72
8
73
4
40
0
40
0
40
0
40
0
40
1
40
1
40
1
40
1
41
1
10
32.1216659075592
20
-19.624327597072
30
0
41
1
10
32.9248554647083
20
-19.4198771228174
30
0
41
1
10
34.2151353874823
20
-18.7848588996437
30
0
41
1
10
35.5700118853296
20
-18.0154265077288
30
0
0
SPLINE
5
170
100
AcDbEntity
8
1
62
256
6
ByLayer
370
18
48
1
60
0
100
AcDbSpline
70
4
71
3
72
8
73
4
40
0
40
0
40
0
40
0
40
1
40
1
40
1
40
1
41
1
10
38.2386133463823
20
-12.3861707978213
30
0
41
1
10
38.3100120030541
20
-12.3722930399697
30
0
41
1
10
38.3804978358743
20
-12.3553552447935
30
0
41
1
10
38.4495773413261
20
-12.3354942800062
30
0
0
SPLINE
5
171
100
AcDbEntity
8
1
62
256
6
ByLayer
370
18
48
1
60
0
100
AcDbSpline
70
4
71
3
72
12
73
8
40
0
40
0
40
0
40
0
40
0.10885398860713
40
0.502629237162304
40
0.699516861439891
40
0.896404485717478
40
1
40
1
40
1
40
1
41
1.02441262532206
10
45.3173912512009
20
-17.8380995024254
30
0
41
1.02394775682001
10
45.6111203625548
20
-18.0065983200073
30
0
41
1.02173322384668
10
46.9981653712481
20
-18.8090652172289
30
0
41
1.01876555595691
10
48.9277341429914
20
-19.9665383579189
30
0
41
1.01610930227499
10
50.2069020561485
20
-20.7610229110578
30
0
41
1.01814069306376
10
50.8381215061601
20
-21.0442346483797
30
0
41
1.02005196006971
10
51.3913393094668
20
-21.313106293496
30
0
41
1.02076673234773
10
51.5925108804792
20
-21.4133821703549
30
0
0
SPLINE
5
172
100
AcDbEntity
8
1
62
256
6
ByLayer
370
18
48
1
60
0
100
AcDbSpline
70
4
71
3
72
8
73
4
40
0
40
0
40
0
40
0
40
1
40
1
40
1
40
1
41
1
10
53.4153065059214
20
-18.8551956946554
30
0
41
1
10
53.5845129479527
20
-19.2286895286898
30
0
41
1
10
53.7530499493138
20
-19.6043277548329
30
0
41
1
10
53.9200188720758
20
-19.9801570305723
30
0
0
SPLINE
5
173
100
AcDbEntity
8
1
62
256
6
ByLayer
370
18
48
1
60
0
100
AcDbSpline
70
4
71
3
72
15
73
11
40
0
40
0
40
0
40
0
40
0.322163720426457
40
0.322163720426457
40
0.644833452600231
40
0.644833452600231
40
0.912233455904557
40
0.912233455904557
40
0.912233455904557
40
1
40
1
40
1
40
1
41
1
10
40.1271160004059
20
-21.2076797938522
30
0
41
1
10
40.597314571779
20
-21.3235055894712
30
0
41
1
10
41.0941405514495
20
-21.3591649485661
30
0
41
1
10
42.0597387320873
20
-21.2748262656837
30
0
41
1
10
42.5420668760436
20
-21.1538414295819
30
0
41
1
10
43.3519184383958
20
-20.7934259004128
30
0
41
1
10
43.701111854091
20
-20.5724410667547
30
0
41
1
10
44.000867072502
20
-20.3029964848566
30
0
41
1
10
44.1004828735026
20
-20.213453630546
30
0
41
1
10
44.1952583573993
20
-20.1181921080606
30
0
41
1
10
44.2839082298022
20
-20.0181703313441
30
0
0
SPLINE
5
174
100
AcDbEntity
8
1
62
256
6
ByLayer
370
18
48
1
60
0
100
AcDbSpline
70
4
71
3
72
8
73
4
40
0
40
0
40
0
40
0
40
1
40
1
40
1
40
1
41
1
10
47.9875388352232
20
-25.6514996378
30
0
41
1
10
48.0877367703944
20
-25.6810291732728
30
0
41
1
10
48.1888297231523
20
-25.7081696072949
30
0
41
1
10
48.2906418696414
20
-25.7330997292382
30
0
0
SPLINE
5
175
100
AcDbEntity
8
1
62
256
6
ByLayer
370
18
48
1
60
0
100
AcDbSpline
70
4
71
3
72
15
73
11
40
0
40
0
40
0
40
0
40
0.227604479949749
40
0.227604479949749
40
0.479423709218442
40
0.479423709218442
40
0.785574270382838
40
0.785574270382838
40
0.785574270382838
40
1
40
1
40
1
40
1
41
1
10
45.3173912512008
20
-17.8380995024253
30
0
41
1
10
45.3717259249613
20
-17.5006154811685
30
0
41
1
10
45.3757886088235
20
-17.1495336294844
30
0
41
1
10
45.2881423228726
20
-16.4317743310298
30
0
41
1
10
45.1861017050884
20
-16.0588813414345
30
0
41
1
10
44.8621141544375
20
-15.2847697511498
30
0
41
1
10
44.6148491515018
20
-14.8833630097765
30
0
41
1
10
44.3163744714051
20
-14.5326323074424
30
0
41
1
10
44.1060372335639
20
-14.2854698776808
30
0
41
1
10
43.8673290555494
20
-14.059939248606
30
0
41
1
10
43.6077682095953
20
-13.8654514361987
30
0
0
SPLINE
5
176
100
AcDbEntity
8
1
62
256
6
ByLayer
370
18
48
1
60
0
100
AcDbSpline
70
4
71
1
72
4
73
2
40
0
40
0
40
1
40
1
41
1
10
44.1567512361102
20
-11.8640214438816
30
0
41
1
10
44.2589067166369
20
-10.6336834685933
30
0
0
SPLINE
5
177
100
AcDbEntity
8
1
62
256
6
ByLayer
370
18
48
1
60
0
100
AcDbSpline
70
4
71
3
72
20
73
16
40
0
40
0
40
0
40
0
40
0.110576036200127
40
0.110576036200127
40
0.197179369122807
40
0.197179369122807
40
0.284291117387366
40
0.284291117387366
40
0.365904217918074
40
0.365904217918074
40
0.497270233392068
40
0.497270233392068
40
0.7334963648267
40
0.7334963648267
40
1
40
1
40
1
40
1
41
1
10
49.4664043034567
20
-23.3450523956921
30
0
41
1
10
49.461263808072
20
-23.3041733512363
30
0
41
1
10
49.4650061772827
20
-23.2591417959491
30
0
41
1
10
49.4954243121218
20
-23.1740898038082
30
0
41
1
10
49.5175262520614
20
-23.1342685603703
30
0
41
1
10
49.5795651945528
20
-23.0553200668059
30
0
41
1
10
49.6204868471365
20
-23.0152210860267
30
0
41
1
10
49.7109273228641
20
-22.9434028700696
30
0
41
1
10
49.760620622969
20
-22.910468071424
30
0
41
1
10
49.8948881653636
20
-22.8332667497022
30
0
41
1
10
49.9844359553169
20
-22.7927036563082
30
0
41
1
10
50.2316512184725
20
-22.6977813302377
30
0
41
1
10
50.3922583350491
20
-22.6549130238763
30
0
41
1
10
50.7219509432146
20
-22.5835694715392
30
0
41
1
10
50.892999607605
20
-22.5573123415672
30
0
41
1
10
51.0595478321794
20
-22.5376359514612
30
0
0
SPLINE
5
178
100
AcDbEntity
8
1
62
256
6
ByLayer
370
18
48
1
60
0
100
AcDbSpline
70
4
71
3
72
8
73
4
40
0
40
0
40
0
40
0
40
1
40
1
40
1
40
1
41
1
10
34.8020196004188
20
-17.1601849441095
30
0
41
1
10
34.5972356341382
20
-17.0069661965647
30
0
41
1
10
34.3838108981753
20
-16.8812865691872
30
0
41
1
10
34.1657489791529
20
-16.7765538121974
30
0
0
SPLINE
5
179
100
AcDbEntity
8
1
62
256
6
ByLayer
370
18
48
1
60
0
100
AcDbSpline
70
4
71
3
72
12
73
8
40
0
40
0
40
0
40
0
40
0.286978363858297
40
0.286978363858297
40
0.569998995185618
40
0.569998995185618
40
1
40
1
40
1
40
1
41
1
10
44.2839082298013
20
-20.0181703313441
30
0
41
1
10
44.4388566613748
20
-19.8433269931815
30
0
41
1
10
44.5801944761407
20
-19.6548605481871
30
0
41
1
10
44.8281528212072
20
-19.2614863634828
30
0
41
1
10
44.936077306199
20
-19.0554910479368
30
0
41
1
10
45.1635189806221
20
-18.5218088090577
30
0
41
1
10
45.2620780399919
20
-18.1815503759755
30
0
41
1
10
45.3173912512008
20
-17.8380995024253
30
0
0
SPLINE
5
17A
100
AcDbEntity
8
1
62
256
6
ByLayer
370
18
48
1
60
0
100
AcDbSpline
70
4
71
3
72
10
73
6
40
0
40
0
40
0
40
0
40
0.264715639145584
40
0.264715639145584
40
1
40
1
40
1
40
1
41
1
10
52.2960431895756
20
-22.424730343108
30
0
41
1
10
52.2325915041893
20
-22.3397045580796
30
0
41
1
10
52.1695351004302
20
-22.2533343478228
30
0
41
1
10
51.9327539163322
20
-21.9228351011385
30
0
41
1
10
51.7613796533852
20
-21.671172251575
30
0
41
1
10
51.5925108804885
20
-21.4133821703595
30
0
0
SPLINE
5
17B
100
AcDbEntity
8
1
62
256
6
ByLayer
370
18
48
1
60
0
100
AcDbSpline
70
4
71
2
72
6
73
3
40
0
40
0
40
0
40
1
40
1
40
1
41
1
10
52.3576101057922
20
-17.1539681979044
30
0
41
1
10
52.9329313102397
20
-17.9852253014206
30
0
41
1
10
53.4152691799583
20
-18.8550800292486
30
0
0
SPLINE
5
17C
100
AcDbEntity
8
1
62
256
6
ByLayer
370
18
48
1
60
0
100
AcDbSpline
70
4
71
3
72
8
73
4
40
0
40
0
40
0
40
0
40
1
40
1
40
1
40
1
41
1
10
34.8020196004188
20
-17.1601849441094
30
0
41
1
10
33.4380164144237
20
-17.2429787696459
30
0
41
1
10
32.1769448634476
20
-17.2735032455888
30
0
41
1
10
31.3449285336311
20
-17.1915643709624
30
0
0
SPLINE
5
17D
100
AcDbEntity
8
1
62
256
6
ByLayer
370
18
48
1
60
0
100
AcDbSpline
70
4
71
3
72
8
73
4
40
0
40
0
40
0
40
0
40
1
40
1
40
1
40
1
41
1
10
50.279776279923
20
-25.4694097997861
30
0
41
1
10
50.6756645976069
20
-25.3647317295102
30
0
41
1
10
51.0729636148416
20
-25.2578101195441
30
0
41
1
10
51.4695956677359
20
-25.1491787123588
30
0
0
SPLINE
5
17E
100
AcDbEntity
8
1
62
256
6
ByLayer
370
18
48
1
60
0
100
AcDbSpline
70
4
71
3
72
8
73
4
40
0
40
0
40
0
40
0
40
1
40
1
40
1
40
1
41
1
10
52.9602200719725
20
-24.6913503772856
30
0
41
1
10
52.8775133126371
20
-24.7115701000283
30
0
41
1
10
52.7958307066082
20
-24.7275705895477
30
0
41
1
10
52.7166163721924
20
-24.7392303543772
30
0
0
SPLINE
5
17F
100
AcDbEntity
8
1
62
256
6
ByLayer
370
18
48
1
60
0
100
AcDbSpline
70
4
71
3
72
10
73
6
40
0
40
0
40
0
40
0
40
0.5
40
0.5
40
1
40
1
40
1
40
1
41
1
10
50.4365719566383
20
-15.4958113602606
30
0
41
1
10
49.560334849177
20
-14.5137626625802
30
0
41
1
10
48.611789634605
20
-13.6067222073042
30
0
41
1
10
46.542361129214
20
-11.9714148356417
30
0
41
1
10
45.4539625543527
20
-11.2115306527201
30
0
41
1
10
44.2589067166369
20
-10.6336834685933
30
0
0
SPLINE
5
180
100
AcDbEntity
8
1
62
256
6
ByLayer
370
18
48
1
60
0
100
AcDbSpline
70
4
71
2
72
6
73
3
40
0
40
0
40
0
40
1
40
1
40
1
41
0.877869679988385
10
29.8825937925376
20
-24.5632018473527
30
0
41
0.89323601096669
10
30.8533611230707
20
-23.7870927820976
30
0
41
1.02613459695995
10
31.4687797378139
20
-22.4889038986848
30
0
0
SPLINE
5
181
100
AcDbEntity
8
1
62
256
6
ByLayer
370
18
48
1
60
0
100
AcDbSpline
70
4
71
3
72
8
73
4
40
0
40
0
40
0
40
0
40
1
40
1
40
1
40
1
41
1
10
22.3888596498653
20
-30.1045270166403
30
0
41
1
10
22.2815711192821
20
-29.6921076657912
30
0
41
1
10
22.1744261767685
20
-29.2796492473332
30
0
41
1
10
22.0674431861687
20
-28.8671469592177
30
0
0
SPLINE
5
182
100
AcDbEntity
8
1
62
256
6
ByLayer
370
18
48
1
60
0
100
AcDbSpline
70
4
71
3
72
10
73
6
40
0
40
0
40
0
40
0
40
0.5
40
0.5
40
1
40
1
40
1
40
1
41
1
10
25.0278468227301
20
-22.3373055642485
30
0
41
1
10
24.554751032217
20
-21.4667510300618
30
0
41
1
10
24.2902319900886
20
-20.4817237392129
30
0
41
1
10
24.2454296011972
20
-18.4837291514102
30
0
41
1
10
24.3688198714784
20
-17.4689011219578
30
0
41
1
10
24.80888548159
20
-16.5612462992586
30
0
0
SPLINE
5
183
100
AcDbEntity
8
1
62
256
6
ByLayer
370
18
48
1
60
0
100
AcDbSpline
70
4
71
3
72
42
73
38
40
0
40
0
40
0
40
0
40
0.0001456803204731
40
0.0001456803204731
40
0.0001937816346409
40
0.0001937816346409
40
0.0002315128032231
40
0.0002315128032231
40
0.0002608510517565
40
0.0002608510517565
40
0.0002901053868673
40
0.0002901053868673
40
0.0003386248694491
40
0.0003386248694491
40
0.0004943092943607
40
0.0004943092943607
40
0.0012382905326537
40
0.0012382905326537
40
0.0042003720160773
40
0.0042003720160773
40
0.0160477651042722
40
0.0160477651042722
40
0.0634549719405852
40
0.0634549719405852
40
0.25471382076393
40
0.25471382076393
40
0.445727043918091
40
0.445727043918091
40
0.588325845737167
40
0.588325845737167
40
0.775840629000448
40
0.775840629000448
40
0.886032350798191
40
0.886032350798191
40
0.994826732346168
40
0.994826732346168
40
1
40
1
40
1
40
1
41
1
10
32.8638215739096
20
-6.90613296934234
30
0
41
1
10
32.8638052982728
20
-6.90621727106236
30
0
41
1
10
32.8637905446814
20
-6.9063022680341
30
0
41
1
10
32.8637859616407
20
-6.90640886912365
30
0
41
1
10
32.8637862093373
20
-6.90643500817711
30
0
41
1
10
32.8637918876794
20
-6.90647774285063
30
0
41
1
10
32.8637963229208
20
-6.90649546274213
30
0
41
1
10
32.8638093521455
20
-6.90652081437136
30
0
41
1
10
32.8638169991048
20
-6.90652992834143
30
0
41
1
10
32.8638352559477
20
-6.90654216837655
30
0
41
1
10
32.8638460142558
20
-6.90654548528457
30
0
41
1
10
32.8638761107437
20
-6.90654815233361
30
0
41
1
10
32.8638968380523
20
-6.90654391335619
30
0
41
1
10
32.8639833136215
20
-6.90651559005985
30
0
41
1
10
32.8640512763878
20
-6.90647174287983
30
0
41
1
10
32.864434225492
20
-6.90621309884605
30
0
41
1
10
32.8647437864127
20
-6.90594305235174
30
0
41
1
10
32.8662873662086
20
-6.90465187456667
30
0
41
1
10
32.8675152529416
20
-6.90358851561416
30
0
41
1
10
32.8736705698284
20
-6.89831978180953
30
0
41
1
10
32.8786162904285
20
-6.89411720462439
30
0
41
1
10
32.9034755742466
20
-6.87324282896151
30
0
41
1
10
32.9237616068094
20
-6.85693572336783
30
0
41
1
10
33.0275864343226
20
-6.77735469049358
30
0
41
1
10
33.1178645232298
20
-6.72029563865334
30
0
41
1
10
33.3128286883589
20
-6.62866154153858
30
0
41
1
10
33.4130357460083
20
-6.56311760216661
30
0
41
1
10
33.6086344445955
20
-6.54034814922775
30
0
41
1
10
33.6962115881548
20
-6.5603481208058
30
0
41
1
10
33.8957490086522
20
-6.60086215228691
30
0
41
1
10
34.0144161841737
20
-6.62069553984341
30
0
41
1
10
34.1837059213455
20
-6.68181597482126
30
0
41
1
10
34.2427758102052
20
-6.71305774674312
30
0
41
1
10
34.3421109273301
20
-6.78802609566932
30
0
41
1
10
34.3838656870277
20
-6.8322831390455
30
0
41
1
10
34.4185069765545
20
-6.88162214573285
30
0
41
1
10
34.4200493485107
20
-6.88387800014999
30
0
41
1
10
34.4215955683394
20
-6.88611999891063
30
0
0
SPLINE
5
184
100
AcDbEntity
8
1
62
256
6
ByLayer
370
18
48
1
60
0
100
AcDbSpline
70
4
71
1
72
4
73
2
40
0
40
0
40
1
40
1
41
1
10
31.8162115314309
20
-4.94324269857196
30
0
41
1
10
31.734829338705
20
-4.90626430908762
30
0
0
SPLINE
5
185
100
AcDbEntity
8
1
62
256
6
ByLayer
370
18
48
1
60
0
100
AcDbSpline
70
4
71
2
72
11
73
8
40
0
40
0
40
0
40
0.0353878362392733
40
0.324771485367491
40
0.517693918119637
40
0.710616350871782
40
0.807077567247855
40
1
40
1
40
1
41
1
10
25.5717597242715
20
-23.0892370594361
30
0
41
1
10
25.5286690120164
20
-22.9993099673453
30
0
41
1
10
25.1600150533061
20
-22.1447058229571
30
0
41
1
10
24.9918460792169
20
-20.6452960409372
30
0
41
1
10
25.1838055432877
20
-19.1056495375576
30
0
41
1
10
25.3435827193929
20
-18.5680725005269
30
0
41
1
10
25.5486594619451
20
-17.9557194915945
30
0
41
1
10
25.7381772813845
20
-17.5558443705477
30
0
0
SPLINE
5
186
100
AcDbEntity
8
1
62
256
6
ByLayer
370
18
48
1
60
0
100
AcDbSpline
70
4
71
3
72
8
73
4
40
0
40
0
40
0
40
0
40
1
40
1
40
1
40
1
41
1
10
21.4150979665882
20
-26.3750235579347
30
0
41
1
10
21.5545788839134
20
-26.9048446351326
30
0
41
1
10
21.6941959760029
20
-27.434630814429
30
0
41
1
10
21.8339278947275
20
-27.9643875667708
30
0
0
SPLINE
5
187
100
AcDbEntity
8
1
62
256
6
ByLayer
370
18
48
1
60
0
100
AcDbSpline
70
4
71
3
72
8
73
4
40
0
40
0
40
0
40
0
40
1
40
1
40
1
40
1
41
1
10
20.92079238
20
-24.4886190390076
30
0
41
1
10
21.0847242867994
20
-25.1173908764621
30
0
41
1
10
21.2495887675166
20
-25.7463335276432
30
0
41
1
10
21.4150979665882
20
-26.3750235579347
30
0
0
SPLINE
5
188
100
AcDbEntity
8
1
62
256
6
ByLayer
370
18
48
1
60
0
100
AcDbSpline
70
4
71
3
72
14
73
10
40
0
40
0
40
0
40
0
40
0.25714677776588
40
0.25714677776588
40
0.515043459777445
40
0.515043459777445
40
0.762218147059629
40
0.762218147059629
40
1
40
1
40
1
40
1
41
1
10
17.4303191742212
20
23.4553549429959
30
0
41
1
10
17.4691434490962
20
23.6190346355062
30
0
41
1
10
17.5852680371713
20
23.7696203769467
30
0
41
1
10
17.9643662295079
20
24.0254564367266
30
0
41
1
10
18.233500730627
20
24.1343161849438
30
0
41
1
10
18.8755030997166
20
24.301589819967
30
0
41
1
10
19.2526493539829
20
24.3645598084091
30
0
41
1
10
20.053239606227
20
24.4510990768829
30
0
41
1
10
20.4852178413433
20
24.4774760852936
30
0
41
1
10
20.92079238
20
24.4886190390076
30
0
0
SPLINE
5
189
100
AcDbEntity
8
1
62
256
6
ByLayer
370
18
48
1
60
0
100
AcDbSpline
70
4
71
3
72
12
73
8
40
0
40
0
40
0
40
0
40
0.257749114701655
40
0.257749114701655
40
0.5154981778412
40
0.5154981778412
40
1
40
1
40
1
40
1
41
1
10
35.3315930604538
20
-1.41140309910818
30
0
41
1
10
35.356420919392
20
-1.40847191462817
30
0
41
1
10
35.3812631746922
20
-1.4056602331934
30
0
41
1
10
35.4309728585702
20
-1.40027463942914
30
0
41
1
10
35.4558408552171
20
-1.39770066433445
30
0
41
1
10
35.5274857218283
20
-1.39062867405161
30
0
41
1
10
35.5742942298653
20
-1.386429740826
30
0
41
1
10
35.6211342020672
20
-1.38264325442131
30
0
0
SPLINE
5
18A
100
AcDbEntity
8
1
62
256
6
ByLayer
370
18
48
1
60
0
100
AcDbSpline
70
4
71
3
72
16
73
12
40
0
40
0
40
0
40
0
40
0.461208588217066
40
0.461208588217066
40
0.643534962278522
40
0.643534962278522
40
0.828408472975271
40
0.828408472975271
40
0.943003644159981
40
0.943003644159981
40
1
40
1
40
1
40
1
41
1
10
11.8943375672974
20
8.05584836782774
30
0
41
1
10
11.8660503915152
20
7.95080268681445
30
0
41
1
10
11.8273339192908
20
7.84628670970801
30
0
41
1
10
11.7473160248315
20
7.71442469145123
30
0
41
1
10
11.7212784637477
20
7.67825379650728
30
0
41
1
10
11.6606543989164
20
7.61290523367228
30
0
41
1
10
11.6251722226874
20
7.58305923051407
30
0
41
1
10
11.5599225851958
20
7.54855881865589
30
0
41
1
10
11.5324782774944
20
7.5385201810229
30
0
41
1
10
11.4901684747699
20
7.53097042135255
30
0
41
1
10
11.4757173930754
20
7.5296667942647
30
0
41
1
10
11.4613248654053
20
7.5296667942647
30
0
0
SPLINE
5
18B
100
AcDbEntity
8
1
62
256
6
ByLayer
370
18
48
1
60
0
100
AcDbSpline
70
4
71
3
72
16
73
12
40
0
40
0
40
0
40
0
40
0.11143027962805
40
0.11143027962805
40
0.248747543515472
40
0.248747543515472
40
0.465535329195252
40
0.465535329195252
40
0.88385535186756
40
0.88385535186756
40
1
40
1
40
1
40
1
41
1
10
8.5386751345948
20
-23.8391299750503
30
0
41
1
10
8.51081528400579
20
-23.8391299750503
30
0
41
1
10
8.48260885722448
20
-23.8375361275706
30
0
41
1
10
8.4241507967607
20
-23.831150658589
30
0
41
1
10
8.39395861076943
20
-23.825666877018
30
0
41
1
10
8.32484624564245
20
-23.8089605749788
30
0
41
1
10
8.28921459142956
20
-23.796037970776
30
0
41
1
10
8.201006109254
20
-23.7556824246832
30
0
41
1
10
8.16026799314912
20
-23.7250165399981
30
0
41
1
10
8.1207082984732
20
-23.6845451449633
30
0
41
1
10
8.11283840142687
20
-23.6755726082077
30
0
41
1
10
8.10566243270245
20
-23.6665017920809
30
0
0
SPLINE
5
18C
100
AcDbEntity
8
1
62
256
6
ByLayer
370
18
48
1
60
0
100
AcDbSpline
70
4
71
2
72
6
73
3
40
0
40
0
40
0
40
1
40
1
40
1
41
1.02613459695995
10
25.6567950886587
20
-17.5188659810634
30
0
41
0.924997513731836
10
25.0839414660524
20
-17.25857311275
30
0
41
0.891927522596013
10
24.8089252689238
20
-16.5613471754849
30
0
0
SPLINE
5
18D
100
AcDbEntity
8
1
62
256
6
ByLayer
370
18
48
1
60
0
100
AcDbSpline
70
4
71
2
72
6
73
3
40
0
40
0
40
0
40
1
40
1
40
1
41
1.02613459695995
10
31.8162115314309
20
-4.94324269857196
30
0
41
0.864503226079678
10
32.795775592112
20
-5.38833639963198
30
0
41
0.876719039568576
10
32.8637759088492
20
-6.90618380063313
30
0
0
SPLINE
5
18E
100
AcDbEntity
8
1
62
256
6
ByLayer
370
18
48
1
60
0
100
AcDbSpline
70
4
71
2
72
6
73
3
40
0
40
0
40
0
40
1
40
1
40
1
41
0.899336985698321
10
30.509623847566
20
-4.80780382472635
30
0
41
0.935256616461808
10
31.1443488036239
20
-4.63796213538351
30
0
41
1.02613459695995
10
31.6534471459792
20
-4.8692859196033
30
0
0
SPLINE
5
18F
100
AcDbEntity
8
1
62
256
6
ByLayer
370
18
48
1
60
0
100
AcDbSpline
70
4
71
3
72
16
73
12
40
0
40
0
40
0
40
0
40
0.461208588217094
40
0.461208588217094
40
0.643534962278546
40
0.643534962278546
40
0.828408472975285
40
0.828408472975285
40
0.943003644159988
40
0.943003644159988
40
1
40
1
40
1
40
1
41
1
10
8.10566243270262
20
23.6665017920809
30
0
41
1
10
8.13394960848487
20
23.7022583261632
30
0
41
1
10
8.17266608070923
20
23.7370095736338
30
0
41
1
10
8.25268397516848
20
23.7800170858174
30
0
41
1
10
8.27872153625233
20
23.7917125768793
30
0
41
1
10
8.33934560108361
20
23.8127037684951
30
0
41
1
10
8.37482777731262
20
23.8222104320954
30
0
41
1
10
8.44007741480422
20
23.8331586856493
30
0
41
1
10
8.46752172250564
20
23.836332378473
30
0
41
1
10
8.50983152523006
20
23.8387183279986
30
0
41
1
10
8.5242826069246
20
23.8391299750505
30
0
41
1
10
8.53867513459474
20
23.8391299750505
30
0
0
SPLINE
5
190
100
AcDbEntity
8
1
62
256
6
ByLayer
370
18
48
1
60
0
100
AcDbSpline
70
4
71
2
72
10
73
7
40
0
40
0
40
0
40
0.259180676195522
40
0.470843340139658
40
0.682506004083795
40
0.788337336055863
40
1
40
1
40
1
41
1.02613459695995
10
35.3315930651476
20
-1.41140309751651
30
0
41
1.02613459695995
10
34.6899024908522
20
-1.62899859531435
30
0
41
1.02613459695995
10
33.5677353837851
20
-2.34631947780021
30
0
41
1.02613459695995
10
32.501051875729
20
-3.46170529787807
30
0
41
1.02613459695995
10
32.1866865396389
20
-3.92430362723919
30
0
41
1.02613459695995
10
31.8430409563942
20
-4.46944765587567
30
0
41
1.02613459695995
10
31.6534471459792
20
-4.8692859196033
30
0
0
SPLINE
5
191
100
AcDbEntity
8
1
62
256
6
ByLayer
370
18
48
1
60
0
100
AcDbSpline
70
4
71
2
72
11
73
8
40
0
40
0
40
0
40
0.0610623745695794
40
0.342743662198706
40
0.53053118728479
40
0.718318712370874
40
0.812212474913916
40
1
40
1
40
1
41
1
10
25.7214786938815
20
-23.2632829448667
30
0
41
1
10
25.6410901468338
20
-23.1082420356715
30
0
41
1
10
25.241397246032
20
-22.1816842124414
30
0
41
1
10
25.0732282719427
20
-20.6822744304216
30
0
41
1
10
25.2651877360135
20
-19.1426279270419
30
0
41
1
10
25.4249649121187
20
-18.6050508900112
30
0
41
1
10
25.630041654671
20
-17.9926978810789
30
0
41
1
10
25.8195594741103
20
-17.5928227600321
30
0
0
SPLINE
5
192
100
AcDbEntity
8
1
62
256
6
ByLayer
370
18
48
1
60
0
100
AcDbSpline
70
4
71
3
72
8
73
4
40
0
40
0
40
0
40
0
40
1
40
1
40
1
40
1
41
1
10
20.9609847588647
20
24.6427113305059
30
0
41
1
10
20.9475812745097
20
24.5913467317342
30
0
41
1
10
20.934183755441
20
24.5399825588158
30
0
41
1
10
20.92079238
20
24.4886190390076
30
0
0
SPLINE
5
193
100
AcDbEntity
8
1
62
256
6
ByLayer
370
18
48
1
60
0
100
AcDbSpline
70
4
71
3
72
10
73
6
40
0
40
0
40
0
40
0
40
0.402044102652639
40
0.402044102652639
40
1
40
1
40
1
40
1
41
1
10
8.53867513459483
20
15.6264181175896
30
0
41
1
10
8.45565130451817
20
15.5634371823532
30
0
41
1
10
8.38116512940178
20
15.5084417956534
30
0
41
1
10
8.22555738648487
20
15.3873530726881
30
0
41
1
10
8.1547844176815
20
15.3245036331396
30
0
41
1
10
8.10566243270253
20
15.2776332060812
30
0
0
SPLINE
5
194
100
AcDbEntity
8
1
62
256
6
ByLayer
370
18
48
1
60
0
100
AcDbSpline
70
4
71
1
72
4
73
2
40
0
40
0
40
1
40
1
41
1
10
31.734829338705
20
-4.90626430908762
30
0
41
1
10
31.6534471459792
20
-4.86928591960327
30
0
0
SPLINE
5
195
100
AcDbEntity
8
1
62
256
6
ByLayer
370
18
48
1
60
0
100
AcDbSpline
70
4
71
3
72
12
73
8
40
0
40
0
40
0
40
0
40
0.364431194612651
40
0.364431194612651
40
0.735232788507616
40
0.735232788507616
40
1
40
1
40
1
40
1
41
1
10
39.7729374230763
20
-3.70011162269606
30
0
41
1
10
39.5952458826681
20
-3.29740237764267
30
0
41
1
10
39.3473797102658
20
-2.9199763199338
30
0
41
1
10
38.7442807690575
20
-2.27200818298465
30
0
41
1
10
38.3784876151121
20
-1.99518686824419
30
0
41
1
10
37.6993943573373
20
-1.64274597456432
30
0
41
1
10
37.3966867895616
20
-1.52886907439088
30
0
41
1
10
37.0870907890025
20
-1.45008231379646
30
0
0
SPLINE
5
196
100
AcDbEntity
8
1
62
256
6
ByLayer
370
18
48
1
60
0
100
AcDbSpline
70
4
71
3
72
16
73
12
40
0
40
0
40
0
40
0
40
0.461208588217085
40
0.461208588217085
40
0.643534962278541
40
0.643534962278541
40
0.828408472975291
40
0.828408472975291
40
0.943003644159993
40
0.943003644159993
40
1
40
1
40
1
40
1
41
1
10
11.8943375672974
20
-23.6665017920809
30
0
41
1
10
11.8660503915152
20
-23.7022583261632
30
0
41
1
10
11.8273339192908
20
-23.7370095736338
30
0
41
1
10
11.7473160248315
20
-23.7800170858174
30
0
41
1
10
11.7212784637477
20
-23.7917125768793
30
0
41
1
10
11.6606543989164
20
-23.8127037684951
30
0
41
1
10
11.6251722226874
20
-23.8222104320954
30
0
41
1
10
11.5599225851958
20
-23.8331586856493
30
0
41
1
10
11.5324782774944
20
-23.836332378473
30
0
41
1
10
11.4901684747699
20
-23.8387183279986
30
0
41
1
10
11.4757173930754
20
-23.8391299750505
30
0
41
1
10
11.4613248654053
20
-23.8391299750505
30
0
0
SPLINE
5
197
100
AcDbEntity
8
1
62
256
6
ByLayer
370
18
48
1
60
0
100
AcDbSpline
70
4
71
3
72
16
73
12
40
0
40
0
40
0
40
0
40
0.111430279628052
40
0.111430279628052
40
0.248747543515474
40
0.248747543515474
40
0.465535329195271
40
0.465535329195271
40
0.883855351867598
40
0.883855351867598
40
1
40
1
40
1
40
1
41
1
10
11.4613248654052
20
23.8391299750503
30
0
41
1
10
11.4891847159942
20
23.8391299750503
30
0
41
1
10
11.5173911427755
20
23.8375361275706
30
0
41
1
10
11.5758492032393
20
23.831150658589
30
0
41
1
10
11.6060413892306
20
23.825666877018
30
0
41
1
10
11.6751537543576
20
23.8089605749788
30
0
41
1
10
11.7107854085705
20
23.796037970776
30
0
41
1
10
11.798993890746
20
23.7556824246832
30
0
41
1
10
11.8397320068509
20
23.7250165399981
30
0
41
1
10
11.8792917015268
20
23.6845451449633
30
0
41
1
10
11.8871615985731
20
23.6755726082078
30
0
41
1
10
11.8943375672975
20
23.6665017920809
30
0
0
SPLINE
5
198
100
AcDbEntity
8
1
62
256
6
ByLayer
370
18
48
1
60
0
100
AcDbSpline
70
4
71
3
72
10
73
6
40
0
40
0
40
0
40
0
40
0.5
40
0.5
40
1
40
1
40
1
40
1
41
1
10
30.5095589736214
20
-4.80782118434635
30
0
41
1
10
30.9566534852661
20
-3.8863638176343
30
0
41
1
10
31.6881720973207
20
-3.14387686540553
30
0
41
1
10
33.3169788584094
20
-1.93588020823745
30
0
41
1
10
34.2987038603867
20
-1.53334630634225
30
0
41
1
10
35.3315930651467
20
-1.41140309751683
30
0
0
SPLINE
5
199
100
AcDbEntity
8
1
62
256
6
ByLayer
370
18
48
1
60
0
100
AcDbSpline
70
4
71
2
72
11
73
8
40
0
40
0
40
0
40
0.0225097225160199
40
0.315756805761214
40
0.51125486125801
40
0.706752916754806
40
0.804501944503204
40
1
40
1
40
1
41
1
10
35.9057635105917
20
-1.36469338752701
30
0
41
1
10
35.8451665741118
20
-1.37970846373116
30
0
41
1
10
34.9916457758993
20
-1.61411613966561
30
0
41
1
10
33.7304997692368
20
-2.42027625676889
30
0
41
1
10
32.6638162611806
20
-3.53566207684673
30
0
41
1
10
32.3494509250907
20
-3.99826040620783
30
0
41
1
10
32.0058053418459
20
-4.54340443484435
30
0
41
1
10
31.8162115314309
20
-4.94324269857196
30
0
0
SPLINE
5
19A
100
AcDbEntity
8
1
62
256
6
ByLayer
370
18
48
1
60
0
100
AcDbSpline
70
4
71
3
72
12
73
8
40
0
40
0
40
0
40
0
40
0.319932024559105
40
0.319932024559105
40
0.659954131885498
40
0.659954131885498
40
1
40
1
40
1
40
1
41
1
10
25.4247183118863
20
-22.9095430356952
30
0
41
1
10
25.4401621912019
20
-22.9289015909151
30
0
41
1
10
25.455682666958
20
-22.9481983568906
30
0
41
1
10
25.4878545452626
20
-22.9878744360506
30
0
41
1
10
25.5045160464639
20
-23.0082459855466
30
0
41
1
10
25.5380100090334
20
-23.0488477977035
30
0
41
1
10
25.5548427747101
20
-23.0690784049263
30
0
41
1
10
25.571759723478
20
-23.0892370597153
30
0
0
SPLINE
5
19B
100
AcDbEntity
8
1
62
256
6
ByLayer
370
18
48
1
60
0
100
AcDbSpline
70
4
71
3
72
8
73
4
40
0
40
0
40
0
40
0
40
1
40
1
40
1
40
1
41
1
10
25.7214786938836
20
-23.2632829448707
30
0
41
1
10
26.7442542424184
20
-24.4233238160085
30
0
41
1
10
28.3834246303143
20
-24.9812162158836
30
0
41
1
10
29.8825938780969
20
-24.5632017789498
30
0
0
SPLINE
5
19C
100
AcDbEntity
8
1
62
256
6
ByLayer
370
18
48
1
60
0
100
AcDbSpline
70
4
71
3
72
8
73
4
40
0
40
0
40
0
40
0
40
1
40
1
40
1
40
1
41
1
10
21.4150979665882
20
24.6479715189708
30
0
41
1
10
21.2634715016933
20
24.6479715189708
30
0
41
1
10
21.1115905576073
20
24.6462211497246
30
0
41
1
10
20.9609847588647
20
24.6427113305059
30
0
0
SPLINE
5
19D
100
AcDbEntity
8
1
62
256
6
ByLayer
370
18
48
1
60
0
100
AcDbSpline
70
4
71
3
72
16
73
12
40
0
40
0
40
0
40
0
40
0.111430279628047
40
0.111430279628047
40
0.248747543515467
40
0.248747543515467
40
0.465535329195252
40
0.465535329195252
40
0.883855351867553
40
0.883855351867553
40
1
40
1
40
1
40
1
41
1
10
8.53867513459483
20
7.52966679426501
30
0
41
1
10
8.51081528400579
20
7.52966679426501
30
0
41
1
10
8.48260885722448
20
7.53471706780857
30
0
41
1
10
8.42415079676073
20
7.55489210221029
30
0
41
1
10
8.39395861076943
20
7.57218953888446
30
0
41
1
10
8.32484624564245
20
7.62460019394089
30
0
41
1
10
8.28921459142956
20
7.66489294253907
30
0
41
1
10
8.201006109254
20
7.78941367630352
30
0
41
1
10
8.16026799314912
20
7.88247511004147
30
0
41
1
10
8.12070829847318
20
8.00269269538009
30
0
41
1
10
8.11283840142687
20
8.02920008991578
30
0
41
1
10
8.10566243270245
20
8.05584836782771
30
0
0
SPLINE
5
19E
100
AcDbEntity
8
1
62
256
6
ByLayer
370
18
48
1
60
0
100
AcDbSpline
70
4
71
3
72
8
73
4
40
0
40
0
40
0
40
0
40
1
40
1
40
1
40
1
41
1
10
35.9057635105917
20
-1.36469338752701
30
0
41
1
10
36.3045112065756
20
-1.34660714673777
30
0
41
1
10
36.6985179162662
20
-1.37290787577805
30
0
41
1
10
37.0870907890025
20
-1.45008231379649
30
0
0
SPLINE
5
19F
100
AcDbEntity
8
1
62
256
6
ByLayer
370
18
48
1
60
0
100
AcDbSpline
70
4
71
2
72
6
73
3
40
0
40
0
40
0
40
1
40
1
40
1
41
1
10
25.8195594741103
20
-17.5928227600321
30
0
41
1
10
25.7788683777474
20
-17.5743335652899
30
0
41
1
10
25.7381772813845
20
-17.5558443705477
30
0
0
SPLINE
5
1A0
100
AcDbEntity
8
1
62
256
6
ByLayer
370
18
48
1
60
0
100
AcDbSpline
70
4
71
3
72
16
73
12
40
0
40
0
40
0
40
0
40
0.238664520516886
40
0.238664520516886
40
0.477243676809563
40
0.477243676809563
40
0.717175962218134
40
0.717175962218134
40
0.962955965218023
40
0.962955965218023
40
1
40
1
40
1
40
1
41
1
10
20.92079238
20
-24.4886190390076
30
0
41
1
10
20.4840916723798
20
-24.4774472754172
30
0
41
1
10
20.0509926695775
20
-24.4509610891805
30
0
41
1
10
19.26391515033
20
-24.3656718780195
30
0
41
1
10
18.8991880574146
20
-24.3054862317241
30
0
41
1
10
18.2835116525487
20
-24.1494135952404
30
0
41
1
10
18.0249815792796
20
-24.0510028626091
30
0
41
1
10
17.6392199403027
20
-23.8174123097642
30
0
41
1
10
17.5100639463551
20
-23.6782359586606
30
0
41
1
10
17.4432353915025
20
-23.5027996833027
30
0
41
1
10
17.4359824174511
20
-23.4792306731536
30
0
41
1
10
17.4303191742212
20
-23.4553549429959
30
0
0
SPLINE
5
1A1
100
AcDbEntity
8
1
62
256
6
ByLayer
370
18
48
1
60
0
100
AcDbSpline
70
4
71
3
72
44
73
40
40
0
40
0
40
0
40
0
40
0.0051940133022577
40
0.0051940133022577
40
0.0199009034979378
40
0.0199009034979378
40
0.129752209434697
40
0.129752209434697
40
0.239839587856948
40
0.239839587856948
40
0.428838250530155
40
0.428838250530155
40
0.549630977793226
40
0.549630977793226
40
0.669783002750892
40
0.669783002750892
40
0.866798456852785
40
0.866798456852785
40
0.966549495872916
40
0.966549495872916
40
0.991441202567496
40
0.991441202567496
40
0.99766355715989
40
0.99766355715989
40
0.999220062119588
40
0.999220062119588
40
0.999613367556414
40
0.999613367556414
40
0.99970334546868
40
0.99970334546868
40
0.999741176144372
40
0.999741176144372
40
0.999773455169411
40
0.999773455169411
40
0.9998053939508
40
0.9998053939508
40
0.9998535556282
40
0.9998535556282
40
1
40
1
40
1
40
1
41
1
10
28.9997900616802
20
-18.3230955276852
30
0
41
1
10
28.9970936633352
20
-18.3232797619402
30
0
41
1
10
28.9943888283021
20
-18.3234760540789
30
0
41
1
10
28.9838866914287
20
-18.3241064753699
30
0
41
1
10
28.9760464145113
20
-18.3244209801432
30
0
41
1
10
28.9099840890895
20
-18.325716019304
30
0
41
1
10
28.8485790126396
20
-18.3177779803913
30
0
41
1
10
28.727864782018
20
-18.2810754497436
30
0
41
1
10
28.6672047659251
20
-18.2516953326572
30
0
41
1
10
28.5146898865615
20
-18.1517082244544
30
0
41
1
10
28.4227591940011
20
-18.0726261632166
30
0
41
1
10
28.2757790805243
20
-17.951053783218
30
0
41
1
10
28.2174866956545
20
-17.9033687162144
30
0
41
1
10
28.1373172261461
20
-17.7862364949651
30
0
41
1
10
28.1269118942786
20
-17.7118650807206
30
0
41
1
10
28.0772210779793
20
-17.536672549714
30
0
41
1
10
28.0482608631573
20
-17.4316101410126
30
0
41
1
10
28.0306426266036
20
-17.270660733231
30
0
41
1
10
28.027660821276
20
-17.2164180156098
30
0
41
1
10
28.0270868824631
20
-17.1489819898056
30
0
41
1
10
28.0271315220237
20
-17.1355170145505
30
0
41
1
10
28.0273699176683
20
-17.1187095765503
30
0
41
1
10
28.0274318533019
20
-17.1153467630905
30
0
41
1
10
28.0274981593967
20
-17.1111554750811
30
0
41
1
10
28.0275196837999
20
-17.1103124087126
30
0
41
1
10
28.027500874991
20
-17.1092818435099
30
0
41
1
10
28.027500559159
20
-17.1090691591144
30
0
41
1
10
28.0274548524282
20
-17.1088419621704
30
0
41
1
10
28.0274438061183
20
-17.1088004114035
30
0
41
1
10
28.027416096374
20
-17.1087560002395
30
0
41
1
10
28.0274060095613
20
-17.1087446763654
30
0
41
1
10
28.0273833666083
20
-17.1087317027685
30
0
41
1
10
28.0273710687986
20
-17.1087289191426
30
0
41
1
10
28.027345058537
20
-17.1087307881636
30
0
41
1
10
28.0273310982515
20
-17.1087352715375
30
0
41
1
10
28.0272965049953
20
-17.1087520453861
30
0
41
1
10
28.0272755348047
20
-17.1087670722404
30
0
41
1
10
28.0271940870358
20
-17.1088344061947
30
0
41
1
10
28.0271365535897
20
-17.1089001515575
30
0
41
1
10
28.0270808893777
20
-17.1089662095544
30
0
0
SPLINE
5
1A2
100
AcDbEntity
8
1
62
256
6
ByLayer
370
18
48
1
60
0
100
AcDbSpline
70
4
71
3
72
8
73
4
40
0
40
0
40
0
40
0
40
1
40
1
40
1
40
1
41
1
10
25.0278468227301
20
-22.3373055642484
30
0
41
1
10
25.1477520242934
20
-22.5365790165214
30
0
41
1
10
25.2795943522879
20
-22.7276334184793
30
0
41
1
10
25.4247183124161
20
-22.9095430370001
30
0
0
SPLINE
5
1A3
100
AcDbEntity
8
1
62
256
6
ByLayer
370
18
48
1
60
0
100
AcDbSpline
70
4
71
3
72
12
73
8
40
0
40
0
40
0
40
0
40
0.262966366376217
40
0.262966366376217
40
0.525932665672349
40
0.525932665672349
40
1
40
1
40
1
40
1
41
1
10
35.621134202086
20
-1.38264325461191
30
0
41
1
10
35.6460531856697
20
-1.38062883427494
30
0
41
1
10
35.6709818704286
20
-1.37873107164813
30
0
41
1
10
35.7208552474989
20
-1.37516731029243
30
0
41
1
10
35.7458004686713
20
-1.37350110812318
30
0
41
1
10
35.8157344262811
20
-1.3691550623544
30
0
41
1
10
35.8607411930953
20
-1.36673549208157
30
0
41
1
10
35.9057635056824
20
-1.3646933877497
30
0
0
SPLINE
5
1A4
100
AcDbEntity
8
1
62
256
6
ByLayer
370
18
48
1
60
0
100
AcDbSpline
70
4
71
3
72
16
73
12
40
0
40
0
40
0
40
0
40
0.461208588217088
40
0.461208588217088
40
0.643534962278544
40
0.643534962278544
40
0.82840847297529
40
0.82840847297529
40
0.943003644159989
40
0.943003644159989
40
1
40
1
40
1
40
1
41
1
10
8.10566243270262
20
-8.05584836782774
30
0
41
1
10
8.13394960848487
20
-7.95080268681445
30
0
41
1
10
8.17266608070923
20
-7.84628670970801
30
0
41
1
10
8.25268397516848
20
-7.71442469145123
30
0
41
1
10
8.27872153625231
20
-7.67825379650728
30
0
41
1
10
8.33934560108361
20
-7.61290523367228
30
0
41
1
10
8.37482777731262
20
-7.5830592305141
30
0
41
1
10
8.44007741480422
20
-7.54855881865589
30
0
41
1
10
8.46752172250564
20
-7.5385201810229
30
0
41
1
10
8.50983152523006
20
-7.53097042135255
30
0
41
1
10
8.5242826069246
20
-7.52966679426473
30
0
41
1
10
8.53867513459474
20
-7.52966679426473
30
0
0
SPLINE
5
1A5
100
AcDbEntity
8
1
62
256
6
ByLayer
370
18
48
1
60
0
100
AcDbSpline
70
4
71
2
72
9
73
6
40
0
40
0
40
0
40
0.419655468653539
40
0.629483202980308
40
0.944224804470462
40
1
40
1
40
1
41
1.02613459695995
10
31.4687797378139
20
-22.4889038986848
30
0
41
1.02613459695995
10
30.5898337703796
20
-22.0610689963742
30
0
41
1.02613459695995
10
29.6723925260187
20
-20.822749770555
30
0
41
1.02613459695995
10
29.1249182112892
20
-19.5536088668448
30
0
41
1.02613459695995
10
29.006136144967
20
-18.4945372209797
30
0
41
1.02613459695995
10
28.9997900616802
20
-18.3230955276852
30
0
0
SPLINE
5
1A6
100
AcDbEntity
8
1
62
256
6
ByLayer
370
18
48
1
60
0
100
AcDbSpline
70
4
71
3
72
16
73
12
40
0
40
0
40
0
40
0
40
0.111430279628047
40
0.111430279628047
40
0.248747543515475
40
0.248747543515475
40
0.465535329195272
40
0.465535329195272
40
0.883855351867603
40
0.883855351867603
40
1
40
1
40
1
40
1
41
1
10
11.4613248654052
20
-7.52966679426504
30
0
41
1
10
11.4891847159942
20
-7.52966679426504
30
0
41
1
10
11.5173911427755
20
-7.53471706780854
30
0
41
1
10
11.5758492032393
20
-7.55489210221029
30
0
41
1
10
11.6060413892306
20
-7.57218953888446
30
0
41
1
10
11.6751537543576
20
-7.62460019394089
30
0
41
1
10
11.7107854085705
20
-7.66489294253907
30
0
41
1
10
11.798993890746
20
-7.78941367630352
30
0
41
1
10
11.8397320068509
20
-7.8824751100415
30
0
41
1
10
11.8792917015268
20
-8.00269269538009
30
0
41
1
10
11.8871615985731
20
-8.02920008991578
30
0
41
1
10
11.8943375672975
20
-8.05584836782771
30
0
0
SPLINE
5
1A7
100
AcDbEntity
8
1
62
256
6
ByLayer
370
18
48
1
60
0
100
AcDbSpline
70
4
71
2
72
9
73
6
40
0
40
0
40
0
40
0.41965546865354
40
0.629483202980309
40
0.944224804470464
40
1
40
1
40
1
41
1.02613459695995
10
39.1787609543689
20
-6.22515810537891
30
0
41
1.02613459695995
10
38.2986382562717
20
-5.79980544625814
30
0
41
1.02613459695995
10
36.7696332039442
20
-5.85154361873694
30
0
41
1.02613459695995
10
35.4485084226877
20
-6.21437225776048
30
0
41
1.02613459695995
10
34.5577286018751
20
-6.78378385710409
30
0
41
1.02613459695995
10
34.4215955683394
20
-6.88611999891066
30
0
0
SPLINE
5
1A8
100
AcDbEntity
8
1
62
256
6
ByLayer
370
18
48
1
60
0
100
AcDbSpline
70
4
71
2
72
10
73
7
40
0
40
0
40
0
40
0.288980467786765
40
0.492128905561975
40
0.695277343337185
40
0.79685156222479
40
1
40
1
40
1
41
1
10
35.6211342023296
20
-1.3826432545406
30
0
41
1
10
34.8711725641046
20
-1.60212583272184
30
0
41
1
10
33.6491175765109
20
-2.38329786728454
30
0
41
1
10
32.5824340684548
20
-3.49868368736239
30
0
41
1
10
32.2680687323648
20
-3.96128201672352
30
0
41
1
10
31.9244231491201
20
-4.50642604536
30
0
41
1
10
31.734829338705
20
-4.90626430908762
30
0
0
SPLINE
5
1A9
100
AcDbEntity
8
1
62
256
6
ByLayer
370
18
48
1
60
0
100
AcDbSpline
70
4
71
2
72
6
73
3
40
0
40
0
40
0
40
1
40
1
40
1
41
0.876719220473415
10
28.0270902949327
20
-17.1089080519773
30
0
41
0.864502029337573
10
26.7991321436599
20
-18.0379203727843
30
0
41
1.02613459695995
10
25.8195594741103
20
-17.5928227600321
30
0
0
SPLINE
5
1AA
100
AcDbEntity
8
1
62
256
6
ByLayer
370
18
48
1
60
0
100
AcDbSpline
70
4
71
3
72
10
73
6
40
0
40
0
40
0
40
0
40
0.557501663665875
40
0.557501663665875
40
1
40
1
40
1
40
1
41
1
10
11.8943375672974
20
15.2776332060815
30
0
41
1
10
11.8484634024225
20
15.3214046802911
30
0
41
1
10
11.7837991840743
20
15.3793044422495
30
0
41
1
10
11.633322851829
20
15.4976441747706
30
0
41
1
10
11.5524968190072
20
15.5572561083222
30
0
41
1
10
11.4613248654052
20
15.6264181175895
30
0
0
SPLINE
5
1AB
100
AcDbEntity
8
1
62
256
6
ByLayer
370
18
48
1
60
0
100
AcDbSpline
70
4
71
2
72
11
73
8
40
0
40
0
40
0
40
0.0079111859457824
40
0.305537830162048
40
0.503955592972891
40
0.702373355783735
40
0.801582237189157
40
1
40
1
40
1
41
1.02613459695995
10
25.4247183119247
20
-22.9095430358872
30
0
41
1.02613459695995
10
25.4158488674987
20
-22.8894529249736
30
0
41
1.02613459695995
10
25.0786328605803
20
-22.1077274334727
30
0
41
1.02613459695995
10
24.9104638864911
20
-20.6083176514529
30
0
41
1.02613459695995
10
25.1024233505619
20
-19.0686711480733
30
0
41
1.02613459695995
10
25.262200526667
20
-18.5310941110425
30
0
41
1.02613459695995
10
25.4672772692193
20
-17.9187411021102
30
0
41
1.02613459695995
10
25.6567950886587
20
-17.5188659810634
30
0
0
SPLINE
5
1AC
100
AcDbEntity
8
1
62
256
6
ByLayer
370
18
48
1
60
0
100
AcDbSpline
70
4
71
3
72
8
73
4
40
0
40
0
40
0
40
0
40
1
40
1
40
1
40
1
41
1
10
22.0674431861687
20
-28.8671469592176
30
0
41
1
10
21.9893294989024
20
-28.5659581950051
30
0
41
1
10
21.9114828617399
20
-28.2650399003579
30
0
41
1
10
21.8339278947275
20
-27.9643875667708
30
0
0
SPLINE
5
1AD
100
AcDbEntity
8
1
62
256
6
ByLayer
370
18
48
1
60
0
100
AcDbSpline
70
4
71
2
72
6
73
3
40
0
40
0
40
0
40
1
40
1
40
1
41
1
10
25.7381772813845
20
-17.5558443705477
30
0
41
1
10
25.6974861850216
20
-17.5373551758056
30
0
41
1
10
25.6567950886587
20
-17.5188659810634
30
0
0
SPLINE
5
1AE
100
AcDbEntity
8
1
62
256
6
ByLayer
370
18
48
1
60
0
100
AcDbSpline
70
4
71
3
72
12
73
8
40
0
40
0
40
0
40
0
40
0.323508446938412
40
0.323508446938412
40
0.661742905177701
40
0.661742905177701
40
1
40
1
40
1
40
1
41
1
10
25.5717597241453
20
-23.08923705892
30
0
41
1
10
25.5876760433934
20
-23.1082033388166
30
0
41
1
10
25.6036671335375
20
-23.1271062290189
30
0
41
1
10
25.6365283925129
20
-23.1656412176318
30
0
41
1
10
25.6534057182041
20
-23.1852676665899
30
0
41
1
10
25.6873216214166
20
-23.2243805657961
30
0
41
1
10
25.7043604932331
20
-23.2438673336577
30
0
41
1
10
25.7214786917611
20
-23.2632829424634
30
0
0
SPLINE
5
1AF
100
AcDbEntity
8
1
62
256
6
ByLayer
370
18
48
1
60
0
100
AcDbSpline
70
4
71
3
72
10
73
6
40
0
40
0
40
0
40
0
40
0.578104426482813
40
0.578104426482813
40
1
40
1
40
1
40
1
41
1
10
8.10566243270256
20
14.3682408325648
30
0
41
1
10
8.15431207153046
20
14.2109872636803
30
0
41
1
10
8.22377139565089
20
14.0616626119233
30
0
41
1
10
8.37734423169181
20
13.839273457025
30
0
41
1
10
8.45435152708336
20
13.7545923235662
30
0
41
1
10
8.53867513459483
20
13.6906253919194
30
0
0
SPLINE
5
1B0
100
AcDbEntity
8
1
62
256
6
ByLayer
370
18
48
1
60
0
100
AcDbSpline
70
4
71
2
72
6
73
3
40
0
40
0
40
0
40
1
40
1
40
1
41
1.02613459695995
10
39.1787609543689
20
-6.22515810537891
30
0
41
0.893236016722497
10
39.7941795384929
20
-4.92696928655556
30
0
41
0.87786968131941
10
39.7729374230763
20
-3.700111622696
30
0
0
SPLINE
5
1B1
100
AcDbEntity
8
1
62
256
6
ByLayer
370
18
48
1
60
0
100
AcDbSpline
70
4
71
3
72
10
73
6
40
0
40
0
40
0
40
0
40
0.420519290906198
40
0.420519290906198
40
1
40
1
40
1
40
1
41
1
10
11.4613248654052
20
13.6906253919194
30
0
41
1
10
11.5453800896752
20
13.7543887310852
30
0
41
1
10
11.6221668639081
20
13.8387345203577
30
0
41
1
10
11.7759013620284
20
14.060958439368
30
0
41
1
10
11.8455749346608
20
14.2106220260311
30
0
41
1
10
11.8943375672975
20
14.3682408325643
30
0
0
SPLINE
5
1B2
100
AcDbEntity
8
SK1
62
256
6
ByLayer
370
18
48
1
60
0
100
AcDbSpline
70
4
71
3
72
22
73
18
40
0
40
0
40
0
40
0
40
0.0394331151890913
40
0.0394331151890913
40
0.0795339708694829
40
0.0795339708694829
40
0.109637917244288
40
0.109637917244288
40
0.13957706301322
40
0.13957706301322
40
0.189266399657458
40
0.189266399657458
40
0.289571152403382
40
0.289571152403382
40
0.658284396834382
40
0.658284396834382
40
1
40
1
40
1
40
1
41
1
10
-0.394976888875306
20
5.38678189578292
30
0
41
1
10
-0.415237014773396
20
5.40399317028476
30
0
41
1
10
-0.437419275645453
20
5.41977813092004
30
0
41
1
10
-0.486103141154984
20
5.44521655864725
30
0
41
1
10
-0.51341298093098
20
5.45496005292577
30
0
41
1
10
-0.562874322366525
20
5.46212264681108
30
0
41
1
10
-0.585106616517606
20
5.46199323188387
30
0
41
1
10
-0.627692822126733
20
5.45533455005088
30
0
41
1
10
-0.648523068172722
20
5.44883772858989
30
0
41
1
10
-0.699826196362153
20
5.42613682765011
30
0
41
1
10
-0.728695564403438
20
5.40623396070797
30
0
41
1
10
-0.806075449923839
20
5.34007786619352
30
0
41
1
10
-0.847522380016557
20
5.28655870152033
30
0
41
1
10
-1.01570466784384
20
5.03084699030373
30
0
41
1
10
-1.09210771407481
20
4.80149729085085
30
0
41
1
10
-1.21929875138233
20
4.35887826398974
30
0
41
1
10
-1.26692602208391
20
4.13998960128646
30
0
41
1
10
-1.30710678118655
20
3.91806548057696
30
0
0
SPLINE
5
1B3
100
AcDbEntity
8
SK1
62
256
6
ByLayer
370
18
48
1
60
0
100
AcDbSpline
70
4
71
3
72
24
73
20
40
0
40
0
40
0
40
0
40
0.469770575826712
40
0.469770575826712
40
0.663612078687295
40
0.663612078687295
40
0.860454184613411
40
0.860454184613411
40
0.903064590395674
40
0.903064590395674
40
0.923089343972159
40
0.923089343972159
40
0.943389594779288
40
0.943389594779288
40
0.961332284531898
40
0.961332284531898
40
0.988068136377815
40
0.988068136377815
40
1
40
1
40
1
40
1
41
1
10
-0.199999999999989
20
6.10344849123027
30
0
41
1
10
-0.199999999999989
20
5.97798788494984
30
0
41
1
10
-0.204016575726513
20
5.8509635670122
30
0
41
1
10
-0.223752631922082
20
5.67079358995508
30
0
41
1
10
-0.231244965282229
20
5.61789623093799
30
0
41
1
10
-0.253819137983157
20
5.51250015101135
30
0
41
1
10
-0.267096215270385
20
5.45724004647028
30
0
41
1
10
-0.303692478692511
20
5.40035311573845
30
0
41
1
10
-0.311479622041333
20
5.39039941672755
30
0
41
1
10
-0.32547775761438
20
5.37891036834915
30
0
41
1
10
-0.330455622185014
20
5.3756771312581
30
0
41
1
10
-0.341078704143143
20
5.37102422840917
30
0
41
1
10
-0.346883276538165
20
5.36960762575521
30
0
41
1
10
-0.357630415747764
20
5.36914354197148
30
0
41
1
10
-0.362713068049572
20
5.36981917830482
30
0
41
1
10
-0.37458340180882
20
5.37316903610403
30
0
41
1
10
-0.3812109954861
20
5.37664910167555
30
0
41
1
10
-0.38989246528871
20
5.38265091141974
30
0
41
1
10
-0.392483363308571
20
5.38466360919151
30
0
41
1
10
-0.394976888875334
20
5.38678189578178
30
0
0
SPLINE
5
1B4
100
AcDbEntity
8
SK1
62
256
6
ByLayer
370
18
48
1
60
0
100
AcDbSpline
70
4
71
3
72
22
73
18
40
0
40
0
40
0
40
0
40
0.359503326352592
40
0.359503326352592
40
0.722215553677066
40
0.722215553677066
40
0.826527133697721
40
0.826527133697721
40
0.863141914878009
40
0.863141914878009
40
0.900378805007221
40
0.900378805007221
40
0.933500873078508
40
0.933500873078508
40
0.972947835056124
40
0.972947835056124
40
1
40
1
40
1
40
1
41
1
10
-1.30710678118655
20
-3.91806548153781
30
0
41
1
10
-1.26486058419175
20
-4.15139729989579
30
0
41
1
10
-1.21446435132796
20
-4.3814323255595
30
0
41
1
10
-1.08204001032738
20
-4.82987250608483
30
0
41
1
10
-1.00537527699572
20
-5.05527264511531
30
0
41
1
10
-0.832356114396674
20
-5.30654108347395
30
0
41
1
10
-0.78723829488635
20
-5.36152992388779
30
0
41
1
10
-0.709490490588593
20
-5.41877880440927
30
0
41
1
10
-0.687203973712826
20
-5.43218986569767
30
0
41
1
10
-0.639076749164047
20
-5.45244590583036
30
0
41
1
10
-0.612446414061708
20
-5.45928056674788
30
0
41
1
10
-0.562058433231044
20
-5.46233960302246
30
0
41
1
10
-0.537713914852588
20
-5.45964677314575
30
0
41
1
10
-0.488053852696936
20
-5.44628701250068
30
0
41
1
10
-0.462609559288751
20
-5.43420976008088
30
0
41
1
10
-0.423860760477311
20
-5.40985221311715
30
0
41
1
10
-0.408979654247759
20
-5.39867780521598
30
0
41
1
10
-0.394976888875391
20
-5.38678223323953
30
0
0
SPLINE
5
1B5
100
AcDbEntity
8
SK1
62
256
6
ByLayer
370
18
48
1
60
0
100
AcDbSpline
70
4
71
3
72
10
73
6
40
0
40
0
40
0
40
0
40
0.5
40
0.5
40
1
40
1
40
1
40
1
41
1
10
-1.30710678118655
20
-3.91806548153784
30
0
41
1
10
-1.53227959010832
20
-2.67440369212437
30
0
41
1
10
-1.71681589069689
20
-1.34075776539186
30
0
41
1
10
-1.71598271729604
20
1.35050010337164
30
0
41
1
10
-1.53230696904976
20
2.67425240209695
30
0
41
1
10
-1.30710678118655
20
3.91806548057698
30
0
0
SPLINE
5
1B6
100
AcDbEntity
8
SK1
62
256
6
ByLayer
370
18
48
1
60
0
100
AcDbSpline
70
4
71
3
72
22
73
18
40
0
40
0
40
0
40
0
40
0.0260455644157247
40
0.0260455644157247
40
0.0526262165848557
40
0.0526262165848557
40
0.0706056579866929
40
0.0706056579866929
40
0.0884949509195805
40
0.0884949509195805
40
0.11748921873202
40
0.11748921873202
40
0.17459086731972
40
0.17459086731972
40
0.37652425293745
40
0.37652425293745
40
1
40
1
40
1
40
1
41
1
10
-0.394976888872947
20
-5.38678223324206
30
0
41
1
10
-0.389612432086437
20
-5.38222504185003
30
0
41
1
10
-0.383763200778958
20
-5.37811700449893
30
0
41
1
10
-0.3709728888754
20
-5.37184824531644
30
0
41
1
10
-0.363785592650885
20
-5.36968256852501
30
0
41
1
10
-0.351475656346565
20
-5.3691458249703
30
0
41
1
10
-0.346317238365032
20
-5.36979468027801
30
0
41
1
10
-0.336550133197363
20
-5.3727304206256
30
0
41
1
10
-0.331829865964124
20
-5.3750241182685
30
0
41
1
10
-0.32051111143835
20
-5.38234306083376
30
0
41
1
10
-0.314321448136184
20
-5.3882440687963
30
0
41
1
10
-0.298260159254511
20
-5.40702817233921
30
0
41
1
10
-0.290032841564653
20
-5.42147709180324
30
0
41
1
10
-0.258449669573651
20
-5.48745345024415
30
0
41
1
10
-0.24608390551893
20
-5.5434138926733
30
0
41
1
10
-0.204764795451922
20
-5.7670899064446
30
0
41
1
10
-0.200000000000358
20
-5.93709576978202
30
0
41
1
10
-0.200000000000358
20
-6.10344667966001
30
0
0
LINE
5
72
100
AcDbEntity
8
1
62
256
6
ByLayer
370
18
48
1
60
0
100
AcDbLine
10
0.3
20
25
30
0
11
0
21
24.7
31
0
39
0
210
0
220
0
230
1
0
LINE
5
74
100
AcDbEntity
8
1
62
256
6
ByLayer
370
18
48
1
60
0
100
AcDbLine
10
0
20
-24.7
30
0
11
0.3
21
-25
31
0
39
0
210
0
220
0
230
1
0
LINE
5
75
100
AcDbEntity
8
1
62
256
6
ByLayer
370
18
48
1
60
0
100
AcDbLine
10
0.3
20
-25
30
0
11
20.920792
21
-25
31
0
39
0
210
0
220
0
230
1
0
LINE
5
76
100
AcDbEntity
8
1
62
256
6
ByLayer
370
18
48
1
60
0
100
AcDbLine
10
20.920792
20
25
30
0
11
0.3
21
25
31
0
39
0
210
0
220
0
230
1
0
LINE
5
77
100
AcDbEntity
8
1
62
256
6
ByLayer
370
18
48
1
60
0
100
AcDbLine
10
20.960985
20
25.15
30
0
11
20.920792
21
25
31
0
39
0
210
0
220
0
230
1
0
LINE
5
78
100
AcDbEntity
8
1
62
256
6
ByLayer
370
18
48
1
60
0
100
AcDbLine
10
20.920792
20
-25
30
0
11
22.28939
21
-30.107674
31
0
39
0
210
0
220
0
230
1
0
LINE
5
79
100
AcDbEntity
8
1
62
256
6
ByLayer
370
18
48
1
60
0
100
AcDbLine
10
21.320081
20
25.15
30
0
11
20.960985
21
25.15
31
0
39
0
210
0
220
0
230
1
0
LINE
5
7A
100
AcDbEntity
8
1
62
256
6
ByLayer
370
18
48
1
60
0
100
AcDbLine
10
39.870625
20
-17.894849
30
0
11
39.666902
21
-17.777229
31
0
39
0
210
0
220
0
230
1
0
LINE
5
7B
100
AcDbEntity
8
1
62
256
6
ByLayer
370
18
48
1
60
0
100
AcDbLine
10
16.838265
20
4.934879
30
0
11
22.411102
21
1.511144
31
0
39
0
210
0
220
0
230
1
0
LINE
5
7C
100
AcDbEntity
8
1
62
256
6
ByLayer
370
18
48
1
60
0
100
AcDbLine
10
47.586819
20
-29.621482
30
0
11
48.140839
21
-29.941346
31
0
39
0
210
0
220
0
230
1
0
LINE
5
7D
100
AcDbEntity
8
1
62
256
6
ByLayer
370
18
48
1
60
0
100
AcDbLine
10
31.257454
20
-20.382685
30
0
11
31.81751
21
-20.678677
31
0
39
0
210
0
220
0
230
1
0
LINE
5
7E
100
AcDbEntity
8
1
62
256
6
ByLayer
370
18
48
1
60
0
100
AcDbLine
10
40.604952
20
-15.638078
30
0
11
40.808675
21
-15.755698
31
0
39
0
210
0
220
0
230
1
0
LINE
5
7F
100
AcDbEntity
8
1
62
256
6
ByLayer
370
18
48
1
60
0
100
AcDbLine
10
38.034065
20
-20.112945
30
0
11
38.246186
21
-20.235414
31
0
39
0
210
0
220
0
230
1
0
LINE
5
80
100
AcDbEntity
8
1
62
256
6
ByLayer
370
18
48
1
60
0
100
AcDbLine
10
42.246186
20
-13.30721
30
0
11
42.034065
21
-13.184742
31
0
39
0
210
0
220
0
230
1
0
LINE
5
81
100
AcDbEntity
8
1
62
256
6
ByLayer
370
18
48
1
60
0
100
AcDbLine
10
24.714348
20
5.260153
30
0
11
17.039415
21
9.975333
31
0
39
0
210
0
220
0
230
1
0
LINE
5
82
100
AcDbEntity
8
1
62
256
6
ByLayer
370
18
48
1
60
0
100
AcDbLine
10
22.479219
20
1.505763
30
0
11
22.812431
21
1.590317
31
0
39
0
210
0
220
0
230
1
0
LINE
5
83
100
AcDbEntity
8
1
62
256
6
ByLayer
370
18
48
1
60
0
100
AcDbLine
10
24.825111
20
4.86637
30
0
11
24.749935
21
5.201822
31
0
39
0
210
0
220
0
230
1
0
LINE
5
84
100
AcDbEntity
8
1
62
256
6
ByLayer
370
18
48
1
60
0
100
AcDbLine
10
34.302515
20
-16.845417
30
0
11
33.881334
21
-16.622822
31
0
39
0
210
0
220
0
230
1
0
LINE
5
85
100
AcDbEntity
8
1
62
256
6
ByLayer
370
18
48
1
60
0
100
AcDbLine
10
56.865635
20
-14.999395
30
0
11
56.325233
21
-14.687394
31
0
39
0
210
0
220
0
230
1
0
LINE
5
86
100
AcDbEntity
8
80
62
256
6
ByLayer
370
18
48
1
60
0
100
AcDbLine
10
0
20
0
30
0
11
-5
21
0
31
0
39
0
210
0
220
0
230
1
0
LINE
5
87
100
AcDbEntity
8
4
62
256
6
ByLayer
370
18
48
0.05
60
0
100
AcDbLine
10
0
20
0
30
0
11
60
21
0
31
0
39
0
210
0
220
0
230
1
0
LINE
5
89
100
AcDbEntity
8
81
62
256
6
ByLayer
370
18
48
1
60
0
100
AcDbLine
10
60
20
-27
30
0
11
70
21
-27
31
0
39
0
210
0
220
0
230
1
0
LINE
5
8A
100
AcDbEntity
8
SK4
62
256
6
ByLayer
370
18
48
0.05
60
0
100
AcDbLine
10
-35
20
0
30
0
11
60
21
0
31
0
39
0
210
0
220
0
230
1
0
LINE
5
8C
100
AcDbEntity
8
1
62
256
6
ByLayer
370
18
48
1
60
0
100
AcDbLine
10
0.3
20
0
30
0
11
0.3
21
-25
31
0
39
0
210
0
220
0
230
1
0
LINE
5
8D
100
AcDbEntity
8
1
62
256
6
ByLayer
370
18
48
1
60
0
100
AcDbLine
10
0.3
20
25
30
0
11
0.3
21
0
31
0
39
0
210
0
220
0
230
1
0
LINE
5
8E
100
AcDbEntity
8
1
62
256
6
ByLayer
370
18
48
1
60
0
100
AcDbLine
10
0
20
0
30
0
11
0
21
-24.7
31
0
39
0
210
0
220
0
230
1
0
LINE
5
8F
100
AcDbEntity
8
1
62
256
6
ByLayer
370
18
48
1
60
0
100
AcDbLine
10
0
20
24.7
30
0
11
0
21
0
31
0
39
0
210
0
220
0
230
1
0
LINE
5
90
100
AcDbEntity
8
1
62
256
6
ByLayer
370
18
48
1
60
0
100
AcDbLine
10
20.920792
20
-24.488619
30
0
11
20.920792
21
-25
31
0
39
0
210
0
220
0
230
1
0
LINE
5
91
100
AcDbEntity
8
1
62
256
6
ByLayer
370
18
48
1
60
0
100
AcDbLine
10
20.920792
20
25
30
0
11
20.920792
21
24.488619
31
0
39
0
210
0
220
0
230
1
0
LINE
5
92
100
AcDbEntity
8
SK1
62
256
6
ByLayer
370
18
48
1
60
0
100
AcDbLine
10
-0.2
20
17.833485
30
0
11
-0.2
21
6.103448
31
0
39
0
210
0
220
0
230
1
0
LINE
5
94
100
AcDbEntity
8
SK1
62
256
6
ByLayer
370
18
48
1
60
0
100
AcDbLine
10
-0.2
20
-6.103447
30
0
11
-0.2
21
-17.833485
31
0
39
0
210
0
220
0
230
1
0
LINE
5
95
100
AcDbEntity
8
1
62
256
6
ByLayer
370
18
48
1
60
0
100
AcDbLine
10
21.415098
20
-26.375024
30
0
11
21.415098
21
2.122914
31
0
39
0
210
0
220
0
230
1
0
LINE
5
96
100
AcDbEntity
8
1
62
256
6
ByLayer
370
18
48
1
60
0
100
AcDbLine
10
21.415098
20
7.2866
30
0
11
21.415098
21
24.647972
31
0
39
0
210
0
220
0
230
1
0
LINE
5
97
100
AcDbEntity
8
1
62
256
6
ByLayer
370
18
48
1
60
0
100
AcDbLine
10
39.839386
20
-6.545576
30
0
11
39.066541
21
-8.175847
31
0
39
0
210
0
220
0
230
1
0
LINE
5
98
100
AcDbEntity
8
1
62
256
6
ByLayer
370
18
48
1
60
0
100
AcDbLine
10
51.074631
20
-16.154473
30
0
11
56.345569
21
-14.766753
31
0
39
0
210
0
220
0
230
1
0
LINE
5
99
100
AcDbEntity
8
1
62
256
6
ByLayer
370
18
48
1
60
0
100
AcDbLine
10
46.568776
20
-25.376628
30
0
11
47.652131
21
-29.60398
31
0
39
0
210
0
220
0
230
1
0
LINE
5
9A
100
AcDbEntity
8
1
62
256
6
ByLayer
370
18
48
1
60
0
100
AcDbLine
10
32.896548
20
-21.191079
30
0
11
32.129405
21
-22.809322
31
0
39
0
210
0
220
0
230
1
0
LINE
5
9B
100
AcDbEntity
8
1
62
256
6
ByLayer
370
18
48
1
60
0
100
AcDbLine
10
20.960985
20
25.15
30
0
11
20.960985
21
24.642711
31
0
39
0
210
0
220
0
230
1
0
LINE
5
9C
100
AcDbEntity
8
1
62
256
6
ByLayer
370
18
48
1
60
0
100
AcDbLine
10
34.421596
20
-6.88612
30
0
11
34.057233
21
-7.65472
31
0
39
0
210
0
220
0
230
1
0
LINE
5
9D
100
AcDbEntity
8
1
62
256
6
ByLayer
370
18
48
1
60
0
100
AcDbLine
10
29.35136
20
-17.581479
30
0
11
28.99979
21
-18.323096
31
0
39
0
210
0
220
0
230
1
0
LINE
5
9E
100
AcDbEntity
8
1
62
256
6
ByLayer
370
18
48
1
60
0
100
AcDbLine
10
46.586488
20
-25.378286
30
0
11
46.84928
21
-26.403725
31
0
39
0
210
0
220
0
230
1
0
LINE
5
9F
100
AcDbEntity
8
1
62
256
6
ByLayer
370
18
48
1
60
0
100
AcDbLine
10
56.345569
20
-14.766753
30
0
11
56.315403
21
-14.874974
31
0
39
0
210
0
220
0
230
1
0
LINE
5
A0
100
AcDbEntity
8
1
62
256
6
ByLayer
370
18
48
1
60
0
100
AcDbLine
10
47.775096
20
-29.458098
30
0
11
46.733233
21
-25.392655
31
0
39
0
210
0
220
0
230
1
0
LINE
5
A1
100
AcDbEntity
8
1
62
256
6
ByLayer
370
18
48
1
60
0
100
AcDbLine
10
51.209165
20
-16.278735
30
0
11
56.272581
21
-14.921997
31
0
39
0
210
0
220
0
230
1
0
LINE
5
A2
100
AcDbEntity
8
1
62
256
6
ByLayer
370
18
48
1
60
0
100
AcDbLine
10
47.717793
20
-29.425015
30
0
11
47.775096
21
-29.458098
31
0
39
0
210
0
220
0
230
1
0
LINE
5
A3
100
AcDbEntity
8
1
62
256
6
ByLayer
370
18
48
1
60
0
100
AcDbLine
10
56.226017
20
-14.895113
30
0
11
56.272581
21
-14.921997
31
0
39
0
210
0
220
0
230
1
0
LINE
5
A4
100
AcDbEntity
8
1
62
256
6
ByLayer
370
18
48
1
60
0
100
AcDbLine
10
37.481397
20
-20.054623
30
0
11
37.282187
21
-19.949341
31
0
39
0
210
0
220
0
230
1
0
LINE
5
A5
100
AcDbEntity
8
1
62
256
6
ByLayer
370
18
48
1
60
0
100
AcDbLine
10
37.211619
20
-19.90371
30
0
11
38.894197
21
-20.697245
31
0
39
0
210
0
220
0
230
1
0
LINE
5
A6
100
AcDbEntity
8
1
62
256
6
ByLayer
370
18
48
1
60
0
100
AcDbLine
10
38.104272
20
-7.726998
30
0
11
39.392356
21
-8.334821
31
0
39
0
210
0
220
0
230
1
0
LINE
5
A7
100
AcDbEntity
8
1
62
256
6
ByLayer
370
18
48
1
60
0
100
AcDbLine
10
52.49634
20
-24.833826
30
0
11
51.469596
21
-25.149179
31
0
39
0
210
0
220
0
230
1
0
LINE
5
A8
100
AcDbEntity
8
1
62
256
6
ByLayer
370
18
48
1
60
0
100
AcDbLine
10
42.874147
20
-13.422355
30
0
11
41.036555
21
-12.55523
31
0
39
0
210
0
220
0
230
1
0
LINE
5
A9
100
AcDbEntity
8
1
62
256
6
ByLayer
370
18
48
1
60
0
100
AcDbLine
10
39.392356
20
-8.334821
30
0
11
39.396098
21
-8.339014
31
0
39
0
210
0
220
0
230
1
0
LINE
5
AA
100
AcDbEntity
8
1
62
256
6
ByLayer
370
18
48
1
60
0
100
AcDbLine
10
39.318989
20
-20.921749
30
0
11
38.894197
21
-20.697245
31
0
39
0
210
0
220
0
230
1
0
LINE
5
AB
100
AcDbEntity
8
1
62
256
6
ByLayer
370
18
48
1
60
0
100
AcDbLine
10
34.165749
20
-16.776554
30
0
11
33.762517
21
-16.563444
31
0
39
0
210
0
220
0
230
1
0
LINE
5
AC
100
AcDbEntity
8
1
62
256
6
ByLayer
370
18
48
1
60
0
100
AcDbLine
10
54.329019
20
-20.967899
30
0
11
53.920019
21
-19.980157
31
0
39
0
210
0
220
0
230
1
0
LINE
5
AD
100
AcDbEntity
8
1
62
256
6
ByLayer
370
18
48
1
60
0
100
AcDbLine
10
32.40125
20
-15.921445
30
0
11
34.628578
21
-11.22303
31
0
39
0
210
0
220
0
230
1
0
LINE
5
AE
100
AcDbEntity
8
1
62
256
6
ByLayer
370
18
48
1
60
0
100
AcDbLine
10
38.092743
20
-23.640837
30
0
11
33.229935
21
-21.346168
31
0
39
0
210
0
220
0
230
1
0
LINE
5
AF
100
AcDbEntity
8
1
62
256
6
ByLayer
370
18
48
1
60
0
100
AcDbLine
10
33.224371
20
-21.345818
30
0
11
33.229935
21
-21.346168
31
0
39
0
210
0
220
0
230
1
0
LINE
5
B0
100
AcDbEntity
8
1
62
256
6
ByLayer
370
18
48
1
60
0
100
AcDbLine
10
37.328084
20
-8.6417
30
0
11
44.156751
21
-11.864021
31
0
39
0
210
0
220
0
230
1
0
LINE
5
B1
100
AcDbEntity
8
1
62
256
6
ByLayer
370
18
48
1
60
0
100
AcDbLine
10
33.762517
20
-16.563444
30
0
11
32.40125
21
-15.921445
31
0
39
0
210
0
220
0
230
1
0
LINE
5
B2
100
AcDbEntity
8
1
62
256
6
ByLayer
370
18
48
1
60
0
100
AcDbLine
10
33.224371
20
-21.345818
30
0
11
31.936288
21
-20.737995
31
0
39
0
210
0
220
0
230
1
0
LINE
5
B3
100
AcDbEntity
8
1
62
256
6
ByLayer
370
18
48
1
60
0
100
AcDbLine
10
31.202744
20
-17.113669
30
0
11
29.641116
21
-16.288344
31
0
39
0
210
0
220
0
230
1
0
LINE
5
B4
100
AcDbEntity
8
1
62
256
6
ByLayer
370
18
48
1
60
0
100
AcDbLine
10
53.178305
20
-24.624368
30
0
11
52.96022
21
-24.69135
31
0
39
0
210
0
220
0
230
1
0
LINE
5
B5
100
AcDbEntity
8
1
62
256
6
ByLayer
370
18
48
1
60
0
100
AcDbLine
10
44.258907
20
-10.633683
30
0
11
39.396098
21
-8.339014
31
0
39
0
210
0
220
0
230
1
0
LINE
5
B6
100
AcDbEntity
8
1
62
256
6
ByLayer
370
18
48
1
60
0
100
AcDbLine
10
32.121666
20
-19.624328
30
0
11
38.950333
21
-22.84665
31
0
39
0
210
0
220
0
230
1
0
LINE
5
B7
100
AcDbEntity
8
1
62
256
6
ByLayer
370
18
48
1
60
0
100
AcDbLine
10
39.392356
20
-8.334821
30
0
11
37.653886
21
-7.486215
31
0
39
0
210
0
220
0
230
1
0
LINE
5
B8
100
AcDbEntity
8
1
62
256
6
ByLayer
370
18
48
1
60
0
100
AcDbLine
10
37.481397
20
-20.054623
30
0
11
39.318989
21
-20.921749
31
0
39
0
210
0
220
0
230
1
0
LINE
5
B9
100
AcDbEntity
8
1
62
256
6
ByLayer
370
18
48
1
60
0
100
AcDbLine
10
52.296043
20
-22.42473
30
0
11
54.660892
21
-23.498138
31
0
39
0
210
0
220
0
230
1
0
LINE
5
BA
100
AcDbEntity
8
1
62
256
6
ByLayer
370
18
48
1
60
0
100
AcDbLine
10
54.600677
20
-21.623958
30
0
11
54.513804
21
-21.414158
31
0
39
0
210
0
220
0
230
1
0
LINE
5
BB
100
AcDbEntity
8
1
62
256
6
ByLayer
370
18
48
1
60
0
100
AcDbLine
10
38.104272
20
-7.726998
30
0
11
37.58604
21
-7.453111
31
0
39
0
210
0
220
0
230
1
0
LINE
5
BC
100
AcDbEntity
8
1
62
256
6
ByLayer
370
18
48
1
60
0
100
AcDbLine
10
54.329019
20
-20.967899
30
0
11
54.395467
21
-21.197795
31
0
39
0
210
0
220
0
230
1
0
LINE
5
BD
100
AcDbEntity
8
1
62
256
6
ByLayer
370
18
48
1
60
0
100
AcDbLine
10
33.239107
20
-8.698596
30
0
11
29.641116
21
-16.288344
31
0
39
0
210
0
220
0
230
1
0
LINE
5
BE
100
AcDbEntity
8
1
62
256
6
ByLayer
370
18
48
1
60
0
100
AcDbLine
10
34.800735
20
-9.523921
30
0
11
33.239107
21
-8.698596
31
0
39
0
210
0
220
0
230
1
0
LINE
5
BF
100
AcDbEntity
8
1
62
256
6
ByLayer
370
18
48
1
60
0
100
AcDbLine
10
31.202744
20
-17.113669
30
0
11
34.800735
21
-9.523921
31
0
39
0
210
0
220
0
230
1
0
LINE
5
C0
100
AcDbEntity
8
1
62
256
6
ByLayer
370
18
48
1
60
0
100
AcDbLine
10
52.716616
20
-24.73923
30
0
11
52.49634
21
-24.833826
31
0
39
0
210
0
220
0
230
1
0
LINE
5
C1
100
AcDbEntity
8
1
62
256
6
ByLayer
370
18
48
1
60
0
100
AcDbLine
10
41.471433
20
-16.922631
30
0
11
41.675156
21
-17.040251
31
0
39
0
210
0
220
0
230
1
0
LINE
5
C2
100
AcDbEntity
8
1
62
256
6
ByLayer
370
18
48
1
60
0
100
AcDbLine
10
41.420841
20
-16.264318
30
0
11
41.624564
21
-16.381937
31
0
39
0
210
0
220
0
230
1
0
LINE
5
C3
100
AcDbEntity
8
1
62
256
6
ByLayer
370
18
48
1
60
0
100
AcDbLine
10
40.407048
20
-15.370705
30
0
11
40.610772
21
-15.488324
31
0
39
0
210
0
220
0
230
1
0
LINE
5
C4
100
AcDbEntity
8
1
62
256
6
ByLayer
370
18
48
1
60
0
100
AcDbLine
10
39.272059
20
-17.764897
30
0
11
39.475782
21
-17.882516
31
0
39
0
210
0
220
0
230
1
0
LINE
5
C5
100
AcDbEntity
8
1
62
256
6
ByLayer
370
18
48
1
60
0
100
AcDbLine
10
41.149719
20
-17.601267
30
0
11
41.353442
21
-17.718886
31
0
39
0
210
0
220
0
230
1
0
LINE
5
C6
100
AcDbEntity
8
1
62
256
6
ByLayer
370
18
48
1
60
0
100
AcDbLine
10
40.607565
20
-17.979874
30
0
11
40.811288
21
-18.097494
31
0
39
0
210
0
220
0
230
1
0
LINE
5
C7
100
AcDbEntity
8
1
62
256
6
ByLayer
370
18
48
1
60
0
100
AcDbLine
10
8.538675
20
-7.529667
30
0
11
11.461325
21
-7.529667
31
0
39
0
210
0
220
0
230
1
0
LINE
5
C8
100
AcDbEntity
8
1
62
256
6
ByLayer
370
18
48
1
60
0
100
AcDbLine
10
45.784062
20
-30.104527
30
0
11
22.38886
21
-30.104527
31
0
39
0
210
0
220
0
230
1
0
LINE
5
C9
100
AcDbEntity
8
1
62
256
6
ByLayer
370
18
48
1
60
0
100
AcDbLine
10
8.105662
20
-8.055848
30
0
11
8.105662
21
-23.666502
31
0
39
0
210
0
220
0
230
1
0
LINE
5
CA
100
AcDbEntity
8
1
62
256
6
ByLayer
370
18
48
1
60
0
100
AcDbLine
10
37.087091
20
-1.450082
30
0
11
40.493899
21
4.450683
31
0
39
0
210
0
220
0
230
1
0
LINE
5
CB
100
AcDbEntity
8
1
62
256
6
ByLayer
370
18
48
1
60
0
100
AcDbLine
10
8.105662
20
23.666502
30
0
11
8.105662
21
15.277633
31
0
39
0
210
0
220
0
230
1
0
LINE
5
CC
100
AcDbEntity
8
1
62
256
6
ByLayer
370
18
48
1
60
0
100
AcDbLine
10
11.461325
20
13.690625
30
0
11
11.461325
21
7.529667
31
0
39
0
210
0
220
0
230
1
0
LINE
5
CD
100
AcDbEntity
8
1
62
256
6
ByLayer
370
18
48
1
60
0
100
AcDbLine
10
11.461325
20
-23.83913
30
0
11
8.538675
21
-23.83913
31
0
39
0
210
0
220
0
230
1
0
LINE
5
CE
100
AcDbEntity
8
1
62
256
6
ByLayer
370
18
48
1
60
0
100
AcDbLine
10
8.538675
20
-7.529667
30
0
11
8.538675
21
-23.83913
31
0
39
0
210
0
220
0
230
1
0
LINE
5
CF
100
AcDbEntity
8
1
62
256
6
ByLayer
370
18
48
1
60
0
100
AcDbLine
10
11.461325
20
7.529667
30
0
11
8.538675
21
7.529667
31
0
39
0
210
0
220
0
230
1
0
LINE
5
D0
100
AcDbEntity
8
1
62
256
6
ByLayer
370
18
48
1
60
0
100
AcDbLine
10
8.105662
20
14.368241
30
0
11
8.105662
21
8.055848
31
0
39
0
210
0
220
0
230
1
0
LINE
5
D1
100
AcDbEntity
8
1
62
256
6
ByLayer
370
18
48
1
60
0
100
AcDbLine
10
11.894338
20
-8.055848
30
0
11
11.894338
21
-23.666502
31
0
39
0
210
0
220
0
230
1
0
LINE
5
D2
100
AcDbEntity
8
1
62
256
6
ByLayer
370
18
48
1
60
0
100
AcDbLine
10
39.839386
20
-6.545576
30
0
11
39.178761
21
-6.225158
31
0
39
0
210
0
220
0
230
1
0
LINE
5
D3
100
AcDbEntity
8
1
62
256
6
ByLayer
370
18
48
1
60
0
100
AcDbLine
10
8.538675
20
13.690625
30
0
11
8.538675
21
7.529667
31
0
39
0
210
0
220
0
230
1
0
LINE
5
D4
100
AcDbEntity
8
1
62
256
6
ByLayer
370
18
48
1
60
0
100
AcDbLine
10
55.770853
20
-12.524155
30
0
11
40.493899
21
4.450683
31
0
39
0
210
0
220
0
230
1
0
LINE
5
D5
100
AcDbEntity
8
1
62
256
6
ByLayer
370
18
48
1
60
0
100
AcDbLine
10
24.808608
20
-16.561818
30
0
11
30.509742
21
-4.807445
31
0
39
0
210
0
220
0
230
1
0
LINE
5
D6
100
AcDbEntity
8
1
62
256
6
ByLayer
370
18
48
1
60
0
100
AcDbLine
10
47.652131
20
-29.60398
30
0
11
45.784062
21
-30.104527
31
0
39
0
210
0
220
0
230
1
0
LINE
5
D7
100
AcDbEntity
8
1
62
256
6
ByLayer
370
18
48
1
60
0
100
AcDbLine
10
28.027133
20
-17.109063
30
0
11
32.863939
21
-6.90611
31
0
39
0
210
0
220
0
230
1
0
LINE
5
D8
100
AcDbEntity
8
1
62
256
6
ByLayer
370
18
48
1
60
0
100
AcDbLine
10
11.894338
20
14.368241
30
0
11
11.894338
21
8.055848
31
0
39
0
210
0
220
0
230
1
0
LINE
5
D9
100
AcDbEntity
8
1
62
256
6
ByLayer
370
18
48
1
60
0
100
AcDbLine
10
47.652131
20
-29.60398
30
0
11
47.741009
21
-29.515587
31
0
39
0
210
0
220
0
230
1
0
LINE
5
DA
100
AcDbEntity
8
1
62
256
6
ByLayer
370
18
48
1
60
0
100
AcDbLine
10
22.067443
20
-27.464875
30
0
11
25.027847
21
-22.337306
31
0
39
0
210
0
220
0
230
1
0
LINE
5
DB
100
AcDbEntity
8
1
62
256
6
ByLayer
370
18
48
1
60
0
100
AcDbLine
10
17.430319
20
-23.455355
30
0
11
17.430319
21
4.45378
31
0
39
0
210
0
220
0
230
1
0
LINE
5
DC
100
AcDbEntity
8
1
62
256
6
ByLayer
370
18
48
1
60
0
100
AcDbLine
10
16.990754
20
9.717509
30
0
11
17.249615
21
11.085468
31
0
39
0
210
0
220
0
230
1
0
LINE
5
DD
100
AcDbEntity
8
1
62
256
6
ByLayer
370
18
48
1
60
0
100
AcDbLine
10
16.839278
20
4.816893
30
0
11
16.83918
21
4.829537
31
0
39
0
210
0
220
0
230
1
0
LINE
5
DE
100
AcDbEntity
8
1
62
256
6
ByLayer
370
18
48
1
60
0
100
AcDbLine
10
32.129405
20
-22.809322
30
0
11
31.46878
21
-22.488904
31
0
39
0
210
0
220
0
230
1
0
LINE
5
DF
100
AcDbEntity
8
1
62
256
6
ByLayer
370
18
48
1
60
0
100
AcDbLine
10
22.082606
20
24.647972
30
0
11
21.415098
21
24.647972
31
0
39
0
210
0
220
0
230
1
0
LINE
5
E0
100
AcDbEntity
8
1
62
256
6
ByLayer
370
18
48
1
60
0
100
AcDbLine
10
11.894338
20
23.666502
30
0
11
11.894338
21
15.277633
31
0
39
0
210
0
220
0
230
1
0
LINE
5
E1
100
AcDbEntity
8
1
62
256
6
ByLayer
370
18
48
1
60
0
100
AcDbLine
10
11.461325
20
-7.529667
30
0
11
11.461325
21
-23.83913
31
0
39
0
210
0
220
0
230
1
0
LINE
5
E2
100
AcDbEntity
8
1
62
256
6
ByLayer
370
18
48
1
60
0
100
AcDbLine
10
17.430319
20
9.747099
30
0
11
17.430319
21
23.455355
31
0
39
0
210
0
220
0
230
1
0
LINE
5
E3
100
AcDbEntity
8
1
62
256
6
ByLayer
370
18
48
1
60
0
100
AcDbLine
10
22.067443
20
-27.464875
30
0
11
22.067443
21
-28.867147
31
0
39
0
210
0
220
0
230
1
0
LINE
5
E4
100
AcDbEntity
8
1
62
256
6
ByLayer
370
18
48
1
60
0
100
AcDbLine
10
17.556606
20
4.376194
30
0
11
17.430319
21
4.45378
31
0
39
0
210
0
220
0
230
1
0
LINE
5
E5
100
AcDbEntity
8
1
62
256
6
ByLayer
370
18
48
1
60
0
100
AcDbLine
10
55.770853
20
-12.524155
30
0
11
56.345569
21
-14.766753
31
0
39
0
210
0
220
0
230
1
0
LINE
5
E6
100
AcDbEntity
8
1
62
256
6
ByLayer
370
18
48
1
60
0
100
AcDbLine
10
8.538675
20
23.83913
30
0
11
11.461325
21
23.83913
31
0
39
0
210
0
220
0
230
1
0
LINE
5
E7
100
AcDbEntity
8
1
62
256
6
ByLayer
370
18
48
1
60
0
100
AcDbLine
10
8.538675
20
23.83913
30
0
11
8.538675
21
15.626418
31
0
39
0
210
0
220
0
230
1
0
LINE
5
E8
100
AcDbEntity
8
1
62
256
6
ByLayer
370
18
48
1
60
0
100
AcDbLine
10
11.461325
20
23.83913
30
0
11
11.461325
21
15.626418
31
0
39
0
210
0
220
0
230
1
0
LINE
5
E9
100
AcDbEntity
8
1
62
256
6
ByLayer
370
18
48
1
60
0
100
AcDbLine
10
22.082606
20
24.647972
30
0
11
40.493899
21
4.450683
31
0
39
0
210
0
220
0
230
1
0
LINE
5
EA
100
AcDbEntity
8
1
62
256
6
ByLayer
370
18
48
1
60
0
100
AcDbLine
10
47.741009
20
-29.515587
30
0
11
47.131882
21
-27.138718
31
0
39
0
210
0
220
0
230
1
0
LINE
5
EB
100
AcDbEntity
8
1
62
256
6
ByLayer
370
18
48
1
60
0
100
AcDbLine
10
17.430319
20
4.45378
30
0
11
16.839278
21
4.816893
31
0
39
0
210
0
220
0
230
1
0
LINE
5
EC
100
AcDbEntity
8
SK1
62
256
6
ByLayer
370
18
48
1
60
0
100
AcDbLine
10
-1.307107
20
3.918065
30
0
11
-1.307107
21
-3.918065
31
0
39
0
210
0
220
0
230
1
0
LINE
5
ED
100
AcDbEntity
8
1
62
256
6
ByLayer
370
18
48
1
60
0
100
AcDbLine
10
59.408463
20
-27.158502
30
0
11
48.733894
21
-30.018744
31
0
39
0
210
0
220
0
230
1
0
LINE
5
EE
100
AcDbEntity
8
1
62
256
6
ByLayer
370
18
48
1
60
0
100
AcDbLine
10
57.231379
20
-15.482643
30
0
11
59.975152
21
-26.189103
31
0
39
0
210
0
220
0
230
1
0
MTEXT
5
1B7
100
AcDbEntity
8
SK6
62
256
6
ByLayer
370
18
48
1
60
0
100
AcDbMText
10
-1.625
20
32.204096
30
0
210
0
220
0
230
1
1
\W0.7390;C5-DSRNL-27060-12
40
3.5
41
0
44
1.084337
50
0
71
7
72
5
7
iso_b_vert
0
DIMENSION
5
1C8
100
AcDbEntity
8
2
62
256
6
ByLayer
370
13
48
1
60
0
100
AcDbDimension
2
DimnDraft3D1
10
60
20
-25.4125
30
0
11
49.668976
21
-40.463653
31
0
70
34
71
5
72
1
41
1
210
0
220
0
230
1
3
Standard
100
AcDb2LineAngularDimension
13
60
23
-27
33
0
14
55.556741
24
-28.190568
34
0
15
60
25
-27
35
0
16
46.92955
26
-44.033743
36
0
40
0
0
DIMENSION
5
1DD
100
AcDbEntity
8
2
62
256
6
ByLayer
370
13
48
1
60
0
100
AcDbDimension
2
DimnDraft3D2
10
60
20
-54.25
30
0
11
24.718421
21
-54.25
31
0
70
32
71
5
72
1
41
1
210
0
220
0
230
1
3
Standard
100
AcDbAlignedDimension
13
0
23
-27
33
0
14
60
24
-29
34
0
50
0
100
AcDbRotatedDimension
1001
ACAD
1000
DSTYLE
1002
{
1070
   279
1070
     0
1070
   172
1070
     1
1070
   173
1070
     1
1070
   340
1005
1B8
1070
    77
1070
     1
1070
    73
1070
     0
1070
   171
1070
     3
1070
   274
1070
     4
1070
   177
1070
     2
1070
   176
1070
     2
1070
   178
1070
     7
1070
    78
1070
     8
1070
    41
1041
3.175
1070
   147
1041
2.25
1070
    42
1041
2.0
1070
    44
1041
2.0
1070
   140
1041
4.5
1070
   343
1005
1C9
1070
   344
1005
1C9
1002
}
0
DIMENSION
5
1EC
100
AcDbEntity
8
SK2
62
256
6
ByLayer
370
13
48
1
60
0
100
AcDbDimension
2
DimnDraft3D3
10
-37.75
20
25
30
0
11
-37.75
21
-2.688158
31
0
70
32
71
5
72
1
41
1
210
0
220
0
230
1
3
Standard
100
AcDbAlignedDimension
13
-2
23
-25
33
0
14
-2
24
25
34
0
50
90
100
AcDbRotatedDimension
1001
ACAD
1000
DSTYLE
1002
{
1070
    74
1070
     0
1070
   279
1070
     0
1070
   172
1070
     1
1070
   173
1070
     1
1070
   340
1005
1B8
1070
    77
1070
     1
1070
    73
1070
     0
1070
   171
1070
     3
1070
   274
1070
     4
1070
   177
1070
     2
1070
   176
1070
     2
1070
   178
1070
     7
1070
    78
1070
     8
1070
    41
1041
3.175
1070
   147
1041
2.25
1070
    42
1041
2.0
1070
    44
1041
2.0
1070
   140
1041
4.5
1070
   343
1005
1C9
1070
   344
1005
1C9
1002
}
0
DIMENSION
5
1FA
100
AcDbEntity
8
2
62
256
6
ByLayer
370
13
48
1
60
0
100
AcDbDimension
2
DimnDraft3D4
10
82.25
20
-27
30
0
11
82.25
21
-18.781579
31
0
70
32
71
5
72
1
41
1
210
0
220
0
230
1
3
Standard
100
AcDbAlignedDimension
13
62
23
0
33
0
14
62
24
-27
34
0
50
90
100
AcDbRotatedDimension
1001
ACAD
1000
DSTYLE
1002
{
1070
    74
1070
     0
1070
   279
1070
     0
1070
   172
1070
     1
1070
   173
1070
     1
1070
   340
1005
1B8
1070
    77
1070
     1
1070
    73
1070
     0
1070
   171
1070
     3
1070
   274
1070
     4
1070
   177
1070
     2
1070
   176
1070
     2
1070
   178
1070
     7
1070
    78
1070
     8
1070
    41
1041
3.175
1070
   147
1041
2.25
1070
    42
1041
2.0
1070
    44
1041
2.0
1070
   140
1041
4.5
1070
   343
1005
1C9
1070
   344
1005
1C9
1002
}
0
ENDSEC
0
SECTION
2
OBJECTS
0
DICTIONARY
5
265
330
0
100
AcDbDictionary
280
0
281
1
3
ACAD_GROUP
350
266
3
ACAD_MLINESTYLE
350
267
0
DICTIONARY
5
266
330
0
100
AcDbDictionary
280
0
281
1
0
DICTIONARY
5
267
330
0
100
AcDbDictionary
280
0
281
1
3
Standard
350
18
0
MLINESTYLE
5
18
330
267
100
AcDbMlineStyle
2
Standard
70
0
3

62
256
51
90
52
90
71
2
49
-0.5
62
256
6
ByLayer
49
0.5
62
256
6
ByLayer
0
RASTERVARIABLES
5
253
330

100
AcDbRasterVariables
90
0
70
1
71
1
72
1
0
ENDSEC
0
EOF
