0
SECTION
2
HEADER
9
$ACADVER
1
AC1015
9
$DWGCODEPAGE
3
ANSI_1252
9
$HANDSEED
5
26f
9
$ANGBASE
50
0
9
$ANGDIR
70
0
9
$ATTMODE
70
1
9
$AUNITS
70
0
9
$AUPREC
70
0
9
$CECOLOR
62
256
9
$CELTSCALE
40
1
9
$CELTYPE
6
ByLayer
9
$CELWEIGHT
370
18
9
$CLAYER
8
0
9
$CMLJUST
70
0
9
$CMLSCALE
40
1
9
$CMLSTYLE
2
Standard
9
$DIMSTYLE
2
Standard
9
$TEXTSIZE
40
0.2
9
$TEXTSTYLE
7
Standard
9
$LUNITS
70
2
9
$LUPREC
70
4
9
$EXTNAMES
290
1
9
$INSUNITS
70
4
9
$LTSCALE
40
1
9
$LWDISPLAY
290
1
9
$PDMODE
70
0
9
$PDSIZE
40
0
9
$PLINEGEN
70
0
0
ENDSEC
0
SECTION
2
CLASSES
0
CLASS
1
RASTERVARIABLES
2
AcDbRasterVariables
3
ISM
90
0
280
0
281
0
0
ENDSEC
0
SECTION
2
TABLES
0
TABLE
2
VPORT
5
265
100
AcDbSymbolTable
0
VPORT
5
1
100
AcDbSymbolTableRecord
100
AcDbViewportTableRecord
2
*Active
70
0
10
0
20
0
11
1
21
1
12
-1
22
1
13
0
23
0
14
0.5
24
0.5
15
10
25
10
16
0
26
0
36
1
17
0
27
0
37
0
0
ENDTAB
0
TABLE
2
LTYPE
5
266
100
AcDbSymbolTable
0
LTYPE
5
14
100
AcDbSymbolTableRecord
100
AcDbLinetypeTableRecord
70
0
2
ByBlock
3

72
65
73
0
40
0
0
LTYPE
5
15
100
AcDbSymbolTableRecord
100
AcDbLinetypeTableRecord
70
0
2
ByLayer
3

72
65
73
0
40
0
0
LTYPE
5
16
100
AcDbSymbolTableRecord
100
AcDbLinetypeTableRecord
70
0
2
CONTINUOUS
3
Solid line
72
65
73
0
40
0
0
LTYPE
5
6A
100
AcDbSymbolTableRecord
100
AcDbLinetypeTableRecord
70
0
2
CENTER
3
____ _ ____ _ ____ _ ____
72
65
73
4
40
47.5
49
22
74
0
49
-8.5
74
0
49
8.5
74
0
49
-8.5
74
0
0
LTYPE
5
6B
100
AcDbSymbolTableRecord
100
AcDbLinetypeTableRecord
70
0
2
DASHED
3
__ __ __ __ __ __ __ __ __
72
65
73
2
40
25.72
49
12.86
74
0
49
-12.86
74
0
0
ENDTAB
0
TABLE
2
LAYER
5
267
100
AcDbSymbolTable
0
LAYER
5
10
100
AcDbSymbolTableRecord
100
AcDbLayerTableRecord
2
0
70
0
62
7
6
CONTINUOUS
290
1
370
-3
390
0
0
LAYER
5
6D
100
AcDbSymbolTableRecord
100
AcDbLayerTableRecord
2
2
70
0
62
7
6
CONTINUOUS
290
1
370
-3
390
0
0
LAYER
5
6F
100
AcDbSymbolTableRecord
100
AcDbLayerTableRecord
2
80
70
0
62
-6
6
CONTINUOUS
290
1
370
-3
390
0
0
LAYER
5
71
100
AcDbSymbolTableRecord
100
AcDbLayerTableRecord
2
81
70
0
62
-3
6
CONTINUOUS
290
1
370
-3
390
0
0
LAYER
5
73
100
AcDbSymbolTableRecord
100
AcDbLayerTableRecord
2
1
70
0
62
4
6
CONTINUOUS
290
1
370
-3
390
0
0
LAYER
5
8C
100
AcDbSymbolTableRecord
100
AcDbLayerTableRecord
2
4
70
0
62
-2
6
CENTER
290
1
370
-3
390
0
0
LAYER
5
251
100
AcDbSymbolTableRecord
100
AcDbLayerTableRecord
2
SK4
70
0
62
2
6
CENTER
290
1
370
-3
390
0
0
LAYER
5
252
100
AcDbSymbolTableRecord
100
AcDbLayerTableRecord
2
SK1
70
0
62
4
6
CONTINUOUS
290
1
370
-3
390
0
0
LAYER
5
253
100
AcDbSymbolTableRecord
100
AcDbLayerTableRecord
2
SK6
70
0
62
5
6
CONTINUOUS
290
1
370
-3
390
0
0
LAYER
5
254
100
AcDbSymbolTableRecord
100
AcDbLayerTableRecord
2
SK2
70
0
62
7
6
CONTINUOUS
290
1
370
-3
390
0
0
ENDTAB
0
TABLE
2
STYLE
5
268
100
AcDbSymbolTable
0
STYLE
5
11
100
AcDbSymbolTableRecord
100
AcDbTextStyleTableRecord
2
Standard
3
txt
70
0
71
0
40
0
41
1
42
0
50
0
0
STYLE
5
1C3
100
AcDbSymbolTableRecord
100
AcDbTextStyleTableRecord
2
iso_b_vert
3
simplex.shx
70
0
71
0
40
0
41
1
42
0
50
0
0
STYLE
5
1C4
100
AcDbSymbolTableRecord
100
AcDbTextStyleTableRecord
2
DWGDirectTextStyle
3
simplex
70
0
71
0
40
0
41
1
42
0
50
0
0
ENDTAB
0
TABLE
2
DIMSTYLE
5
269
100
AcDbSymbolTable
100
AcDbDimStyleTable
0
DIMSTYLE
105
27
100
AcDbSymbolTableRecord
100
AcDbDimStyleTableRecord
2
Standard
70
0
3
<>
41
0.18
42
0.0625
44
0.18
140
0.18
147
0.09
73
0
74
0
77
1
271
2
275
0
278
52
280
0
340
11
0
ENDTAB
0
TABLE
2
VIEW
5
26a
100
AcDbSymbolTable
0
ENDTAB
0
TABLE
2
UCS
5
26b
100
AcDbSymbolTable
0
ENDTAB
0
TABLE
2
APPID
5
26c
100
AcDbSymbolTable
0
APPID
5
12
100
AcDbSymbolTableRecord
100
AcDbRegAppTableRecord
2
ACAD
70
0
0
ENDTAB
0
TABLE
2
BLOCK_RECORD
5
26d
100
AcDbSymbolTable
0
BLOCK_RECORD
5
1F
100
AcDbSymbolTableRecord
100
AcDbBlockTableRecord
2
*Model_Space
340
0
70
0
0
BLOCK_RECORD
5
1B
100
AcDbSymbolTableRecord
100
AcDbBlockTableRecord
2
*Paper_Space
340
0
70
0
0
BLOCK_RECORD
5
23
100
AcDbSymbolTableRecord
100
AcDbBlockTableRecord
2
*Paper_Space0
340
0
70
0
0
BLOCK_RECORD
5
1C6
100
AcDbSymbolTableRecord
100
AcDbBlockTableRecord
2
DimnDraft3D1
340
0
70
0
0
BLOCK_RECORD
5
1D4
100
AcDbSymbolTableRecord
100
AcDbBlockTableRecord
2
_CLOSED
340
0
70
0
0
BLOCK_RECORD
5
1DB
100
AcDbSymbolTableRecord
100
AcDbBlockTableRecord
2
DimnDraft3D2
340
0
70
0
0
BLOCK_RECORD
5
1EA
100
AcDbSymbolTableRecord
100
AcDbBlockTableRecord
2
DimnDraft3D3
340
0
70
0
0
ENDTAB
0
ENDSEC
0
SECTION
2
BLOCKS
0
BLOCK
5
20
100
AcDbEntity
8
0
100
AcDbBlockBegin
2
*Model_Space
70
0
10
0
20
0
30
0
3
*Model_Space
0
ENDBLK
5
21
100
AcDbEntity
8
0
100
AcDbBlockEnd
0
BLOCK
5
1C
100
AcDbEntity
8
0
100
AcDbBlockBegin
2
*Paper_Space
70
0
10
0
20
0
30
0
3
*Paper_Space
0
ENDBLK
5
1D
100
AcDbEntity
8
0
100
AcDbBlockEnd
0
BLOCK
5
24
100
AcDbEntity
8
0
100
AcDbBlockBegin
2
*Paper_Space0
70
0
10
0
20
0
30
0
3
*Paper_Space0
0
ENDBLK
5
25
100
AcDbEntity
8
0
100
AcDbBlockEnd
0
BLOCK
5
1D1
100
AcDbEntity
8
0
100
AcDbBlockBegin
2
DimnDraft3D1
70
0
10
0
20
0
30
0
3
DimnDraft3D1
0
MTEXT
5
1C7
100
AcDbEntity
8
2
62
256
6
ByLayer
370
18
48
1
60
0
100
AcDbMText
10
25.843421
20
-61.125
30
0
210
0
220
0
230
1
1
\W0.7346;60.0
40
4.5
41
0
44
1.084337
50
0
71
7
72
5
7
iso_b_vert
0
LINE
5
1C8
100
AcDbEntity
8
2
62
256
6
ByLayer
370
13
48
1
60
0
100
AcDbLine
10
0
20
-27
30
0
11
0
21
-64.25
31
0
39
0
210
0
220
0
230
1
0
LINE
5
1C9
100
AcDbEntity
8
2
62
256
6
ByLayer
370
13
48
1
60
0
100
AcDbLine
10
60
20
-37
30
0
11
60
21
-64.25
31
0
39
0
210
0
220
0
230
1
0
LINE
5
1CA
100
AcDbEntity
8
2
62
256
6
ByLayer
370
13
48
1
60
0
100
AcDbLine
10
0
20
-62.25
30
0
11
60
21
-62.25
31
0
39
0
210
0
220
0
230
1
0
LINE
5
1CB
100
AcDbEntity
8
2
62
256
6
ByLayer
370
13
48
1
60
0
100
AcDbLine
10
0
20
-62.25
30
0
11
3.174998
21
-61.832003
31
0
39
0
210
0
220
0
230
1
0
LINE
5
1CC
100
AcDbEntity
8
2
62
256
6
ByLayer
370
13
48
1
60
0
100
AcDbLine
10
0
20
-62.25
30
0
11
3.175002
21
-62.667997
31
0
39
0
210
0
220
0
230
1
0
LINE
5
1CD
100
AcDbEntity
8
2
62
256
6
ByLayer
370
13
48
1
60
0
100
AcDbLine
10
3.174998
20
-61.832003
30
0
11
3.175002
21
-62.667997
31
0
39
0
210
0
220
0
230
1
0
LINE
5
1CE
100
AcDbEntity
8
2
62
256
6
ByLayer
370
13
48
1
60
0
100
AcDbLine
10
60
20
-62.25
30
0
11
56.825002
21
-62.667997
31
0
39
0
210
0
220
0
230
1
0
LINE
5
1CF
100
AcDbEntity
8
2
62
256
6
ByLayer
370
13
48
1
60
0
100
AcDbLine
10
60
20
-62.25
30
0
11
56.824998
21
-61.832003
31
0
39
0
210
0
220
0
230
1
0
LINE
5
1D0
100
AcDbEntity
8
2
62
256
6
ByLayer
370
13
48
1
60
0
100
AcDbLine
10
56.825002
20
-62.667997
30
0
11
56.824998
21
-61.832003
31
0
39
0
210
0
220
0
230
1
0
ENDBLK
5
1D2
100
AcDbEntity
8
0
100
AcDbBlockEnd
0
BLOCK
5
1D5
100
AcDbEntity
8
0
100
AcDbBlockBegin
2
_CLOSED
70
0
10
0
20
0
30
0
3
_CLOSED
0
LINE
5
1D7
100
AcDbEntity
8
0
62
256
6
ByLayer
370
-2
48
1
60
0
100
AcDbLine
10
-1
20
0.166667
30
0
11
0
21
0
31
0
39
0
210
0
220
0
230
1
0
LINE
5
1D8
100
AcDbEntity
8
0
62
256
6
ByLayer
370
-2
48
1
60
0
100
AcDbLine
10
0
20
0
30
0
11
-1
21
-0.166667
31
0
39
0
210
0
220
0
230
1
0
LINE
5
1D9
100
AcDbEntity
8
0
62
256
6
ByLayer
370
-2
48
1
60
0
100
AcDbLine
10
-1
20
0.166667
30
0
11
-1
21
-0.166667
31
0
39
0
210
0
220
0
230
1
0
LINE
5
1DA
100
AcDbEntity
8
0
62
256
6
ByLayer
370
-2
48
1
60
0
100
AcDbLine
10
0
20
0
30
0
11
-1
21
0
31
0
39
0
210
0
220
0
230
1
0
ENDBLK
5
1D6
100
AcDbEntity
8
0
100
AcDbBlockEnd
0
BLOCK
5
1E7
100
AcDbEntity
8
0
100
AcDbBlockBegin
2
DimnDraft3D2
70
0
10
0
20
0
30
0
3
DimnDraft3D2
0
MTEXT
5
1DC
100
AcDbEntity
8
SK2
62
256
6
ByLayer
370
18
48
1
60
0
100
AcDbMText
10
-38.875
20
-1.563158
30
0
210
0
220
0
230
1
1
\W0.6740;50
40
4.5
41
0
44
1.084337
50
90
71
7
72
5
7
iso_b_vert
0
LINE
5
1DE
100
AcDbEntity
8
SK2
62
256
6
ByLayer
370
13
48
1
60
0
100
AcDbLine
10
-2
20
-25
30
0
11
-39.75
21
-25
31
0
39
0
210
0
220
0
230
1
0
LINE
5
1DF
100
AcDbEntity
8
SK2
62
256
6
ByLayer
370
13
48
1
60
0
100
AcDbLine
10
-2
20
25
30
0
11
-39.75
21
25
31
0
39
0
210
0
220
0
230
1
0
LINE
5
1E0
100
AcDbEntity
8
SK2
62
256
6
ByLayer
370
13
48
1
60
0
100
AcDbLine
10
-37.75
20
-25
30
0
11
-37.75
21
25
31
0
39
0
210
0
220
0
230
1
0
LINE
5
1E1
100
AcDbEntity
8
SK2
62
256
6
ByLayer
370
13
48
1
60
0
100
AcDbLine
10
-37.75
20
-25
30
0
11
-38.167997
21
-21.825002
31
0
39
0
210
0
220
0
230
1
0
LINE
5
1E2
100
AcDbEntity
8
SK2
62
256
6
ByLayer
370
13
48
1
60
0
100
AcDbLine
10
-37.75
20
-25
30
0
11
-37.332003
21
-21.824998
31
0
39
0
210
0
220
0
230
1
0
LINE
5
1E3
100
AcDbEntity
8
SK2
62
256
6
ByLayer
370
13
48
1
60
0
100
AcDbLine
10
-38.167997
20
-21.825002
30
0
11
-37.332003
21
-21.824998
31
0
39
0
210
0
220
0
230
1
0
LINE
5
1E4
100
AcDbEntity
8
SK2
62
256
6
ByLayer
370
13
48
1
60
0
100
AcDbLine
10
-37.75
20
25
30
0
11
-37.332003
21
21.825002
31
0
39
0
210
0
220
0
230
1
0
LINE
5
1E5
100
AcDbEntity
8
SK2
62
256
6
ByLayer
370
13
48
1
60
0
100
AcDbLine
10
-37.75
20
25
30
0
11
-38.167997
21
21.824998
31
0
39
0
210
0
220
0
230
1
0
LINE
5
1E6
100
AcDbEntity
8
SK2
62
256
6
ByLayer
370
13
48
1
60
0
100
AcDbLine
10
-37.332003
20
21.825002
30
0
11
-38.167997
21
21.824998
31
0
39
0
210
0
220
0
230
1
0
ENDBLK
5
1E8
100
AcDbEntity
8
0
100
AcDbBlockEnd
0
BLOCK
5
1F5
100
AcDbEntity
8
0
100
AcDbBlockBegin
2
DimnDraft3D3
70
0
10
0
20
0
30
0
3
DimnDraft3D3
0
MTEXT
5
1EB
100
AcDbEntity
8
2
62
256
6
ByLayer
370
18
48
1
60
0
100
AcDbMText
10
81.125
20
-21.656579
30
0
210
0
220
0
230
1
1
\W0.7346;35.0
40
4.5
41
0
44
1.084337
50
90
71
7
72
5
7
iso_b_vert
0
LINE
5
1EC
100
AcDbEntity
8
2
62
256
6
ByLayer
370
13
48
1
60
0
100
AcDbLine
10
62
20
0
30
0
11
84.25
21
0
31
0
39
0
210
0
220
0
230
1
0
LINE
5
1ED
100
AcDbEntity
8
2
62
256
6
ByLayer
370
13
48
1
60
0
100
AcDbLine
10
62
20
-35
30
0
11
84.25
21
-35
31
0
39
0
210
0
220
0
230
1
0
LINE
5
1EE
100
AcDbEntity
8
2
62
256
6
ByLayer
370
13
48
1
60
0
100
AcDbLine
10
82.25
20
0
30
0
11
82.25
21
-35
31
0
39
0
210
0
220
0
230
1
0
LINE
5
1EF
100
AcDbEntity
8
2
62
256
6
ByLayer
370
13
48
1
60
0
100
AcDbLine
10
82.25
20
0
30
0
11
82.667997
21
-3.174998
31
0
39
0
210
0
220
0
230
1
0
LINE
5
1F0
100
AcDbEntity
8
2
62
256
6
ByLayer
370
13
48
1
60
0
100
AcDbLine
10
82.25
20
0
30
0
11
81.832003
21
-3.175002
31
0
39
0
210
0
220
0
230
1
0
LINE
5
1F1
100
AcDbEntity
8
2
62
256
6
ByLayer
370
13
48
1
60
0
100
AcDbLine
10
82.667997
20
-3.174998
30
0
11
81.832003
21
-3.175002
31
0
39
0
210
0
220
0
230
1
0
LINE
5
1F2
100
AcDbEntity
8
2
62
256
6
ByLayer
370
13
48
1
60
0
100
AcDbLine
10
82.25
20
-35
30
0
11
81.832003
21
-31.825002
31
0
39
0
210
0
220
0
230
1
0
LINE
5
1F3
100
AcDbEntity
8
2
62
256
6
ByLayer
370
13
48
1
60
0
100
AcDbLine
10
82.25
20
-35
30
0
11
82.667997
21
-31.824998
31
0
39
0
210
0
220
0
230
1
0
LINE
5
1F4
100
AcDbEntity
8
2
62
256
6
ByLayer
370
13
48
1
60
0
100
AcDbLine
10
81.832003
20
-31.825002
30
0
11
82.667997
21
-31.824998
31
0
39
0
210
0
220
0
230
1
0
ENDBLK
5
1F6
100
AcDbEntity
8
0
100
AcDbBlockEnd
0
ENDSEC
0
SECTION
2
ENTITIES
0
ARC
5
F4
100
AcDbEntity
8
SK1
62
256
6
ByLayer
370
18
48
1
60
0
100
AcDbCircle
39
0
10
0.6
20
-18.75
30
0
40
1.00000000000001
210
0
220
0
230
-1
100
AcDbArc
50
113.578178
51
126.869898
0
ARC
5
F5
100
AcDbEntity
8
SK1
62
256
6
ByLayer
370
18
48
1
60
0
100
AcDbCircle
39
0
10
0.6
20
18.75
30
0
40
1.00000000000001
210
0
220
0
230
-1
100
AcDbArc
50
233.130102
51
246.421822
0
ELLIPSE
5
F6
100
AcDbEntity
8
1
62
256
6
ByLayer
370
18
48
1
60
0
100
AcDbEllipse
10
17.329058
20
-18.748852
30
0
11
-0.0227270275731229
21
2.77595171119735
31
0
210
0
220
0
230
1
40
0.080275
41
-0.535121258376118
42
0.000256566004606717
0
ELLIPSE
5
F7
100
AcDbEntity
8
1
62
256
6
ByLayer
370
18
48
1
60
0
100
AcDbEllipse
10
10
20
-17.843094
30
0
11
2
21
0
31
0
210
0
220
0
230
1
40
0.580703
41
-2.86316899596237
42
-0.278325648826447
0
ELLIPSE
5
F8
100
AcDbEntity
8
1
62
256
6
ByLayer
370
18
48
1
60
0
100
AcDbEllipse
10
21.256382
20
0
30
0
11
-0.277795462341686
21
25.1499834231895
31
0
210
0
220
0
230
1
40
0.103943
41
-0.201288742181598
42
-0.00114974163766448
0
ELLIPSE
5
F9
100
AcDbEntity
8
1
62
256
6
ByLayer
370
18
48
1
60
0
100
AcDbEllipse
10
53.129615
20
-28.154724
30
0
11
4.49012806053458
21
4.49012806053458
31
0
210
0
220
0
230
1
40
0.989133
41
3.01798512091674
42
-3.06688716279881
0
ELLIPSE
5
FA
100
AcDbEntity
8
1
62
256
6
ByLayer
370
18
48
1
60
0
100
AcDbEllipse
10
53.129615
20
-28.154724
30
0
11
4.49012806053458
21
4.49012806053458
31
0
210
0
220
0
230
1
40
0.989133
41
0.250830908005831
42
0.561946710754477
0
ELLIPSE
5
FB
100
AcDbEntity
8
1
62
256
6
ByLayer
370
18
48
1
60
0
100
AcDbEllipse
10
52.51104
20
-27.53615
30
0
11
-4.49012806053466
21
-4.4901280605345
31
0
210
0
220
0
230
1
40
0.989133
41
3.14158713513117
42
-2.67929312793232
0
ELLIPSE
5
FC
100
AcDbEntity
8
1
62
256
6
ByLayer
370
18
48
1
60
0
100
AcDbEllipse
10
41.769263
20
-20.742359
30
0
11
-0.268700576850893
21
-0.268700576850883
31
0
210
0
220
0
230
1
40
0.989133
41
2.5040566638732
42
2.82334085438503
0
ELLIPSE
5
FD
100
AcDbEntity
8
1
62
256
6
ByLayer
370
18
48
1
60
0
100
AcDbEllipse
10
40.667898
20
-22.614659
30
0
11
-0.268700576850893
21
-0.268700576850883
31
0
210
0
220
0
230
1
40
0.989133
41
0.318242469491304
42
1.1502083482718
0
ELLIPSE
5
FE
100
AcDbEntity
8
1
62
256
6
ByLayer
370
18
48
1
60
0
100
AcDbEllipse
10
42.561798
20
-20.620082
30
0
11
0.300520382004283
21
0.300520382004283
31
0
210
0
220
0
230
1
40
0.989133
41
2.50405666387319
42
-3.1415750854402
0
ELLIPSE
5
FF
100
AcDbEntity
8
1
62
256
6
ByLayer
370
18
48
1
60
0
100
AcDbEllipse
10
42.843352
20
-21.366459
30
0
11
-0.268700576850893
21
-0.268700576850883
31
0
210
0
220
0
230
1
40
0.989133
41
1.45685911267664
42
2.82334436917109
0
ELLIPSE
5
100
100
AcDbEntity
8
1
62
256
6
ByLayer
370
18
48
1
60
0
100
AcDbEllipse
10
40.949453
20
-23.361036
30
0
11
0.300520382004283
21
0.300520382004283
31
0
210
0
220
0
230
1
40
0.989133
41
1.93219937509984E-05
42
1.1502083482718
0
ELLIPSE
5
101
100
AcDbEntity
8
1
62
256
6
ByLayer
370
18
48
1
60
0
100
AcDbEllipse
10
41.741987
20
-23.238758
30
0
11
-0.268700576850893
21
-0.268700576850883
31
0
210
0
220
0
230
1
40
0.989133
41
0.318282348964198
42
2.19740589946838
0
ELLIPSE
5
102
100
AcDbEntity
8
1
62
256
6
ByLayer
370
18
48
1
60
0
100
AcDbEllipse
10
43.338022
20
-21.990559
30
0
11
0.300520382004283
21
0.300520382004283
31
0
210
0
220
0
230
1
40
0.989133
41
1.45685911267663
42
3.14158538262179
0
ELLIPSE
5
103
100
AcDbEntity
8
1
62
256
6
ByLayer
370
18
48
1
60
0
100
AcDbEllipse
10
41.672456
20
-21.907389
30
0
11
2.82842712474619
21
2.82842712474619
31
0
210
0
220
0
230
1
40
0.989133
41
0.790861420728865
42
3.14158722468707
0
ELLIPSE
5
104
100
AcDbEntity
8
1
62
256
6
ByLayer
370
18
48
1
60
0
100
AcDbEllipse
10
41.672456
20
-21.907389
30
0
11
2.82842712474619
21
2.82842712474619
31
0
210
0
220
0
230
1
40
0.989133
41
9.25155690952797E-05
42
0.790861169381806
0
ELLIPSE
5
105
100
AcDbEntity
8
1
62
256
6
ByLayer
370
18
48
1
60
0
100
AcDbEllipse
10
42.829714
20
-22.614659
30
0
11
-0.268700576850893
21
-0.268700576850883
31
0
210
0
220
0
230
1
40
0.989133
41
0.409661561480046
42
2.99158584164611
0
ELLIPSE
5
106
100
AcDbEntity
8
1
62
256
6
ByLayer
370
18
48
1
60
0
100
AcDbEllipse
10
41.755625
20
-21.990559
30
0
11
0.81317279836453
21
0.813172798364529
31
0
210
0
220
0
230
1
40
0.989133
41
0.790861409800729
42
0.962794571425547
0
ELLIPSE
5
107
100
AcDbEntity
8
1
62
256
6
ByLayer
370
18
48
1
60
0
100
AcDbEllipse
10
41.755625
20
-21.990559
30
0
11
0.81317279836453
21
0.813172798364529
31
0
210
0
220
0
230
1
40
0.989133
41
1.55360991125689
42
2.21864552198618
0
ELLIPSE
5
108
100
AcDbEntity
8
1
62
256
6
ByLayer
370
18
48
1
60
0
100
AcDbEllipse
10
41.755625
20
-21.990559
30
0
11
0.81317279836453
21
0.813172798364529
31
0
210
0
220
0
230
1
40
0.989133
41
2.71629377641699
42
0
0
ELLIPSE
5
109
100
AcDbEntity
8
1
62
256
6
ByLayer
370
18
48
1
60
0
100
AcDbEllipse
10
41.755625
20
-21.990559
30
0
11
0.81317279836453
21
0.813172798364529
31
0
210
0
220
0
230
1
40
0.989133
41
0.256427363113492
42
0.790861409800729
0
ELLIPSE
5
10A
100
AcDbEntity
8
1
62
256
6
ByLayer
370
18
48
1
60
0
100
AcDbEllipse
10
41.703644
20
-21.938578
30
0
11
0.81317279836453
21
0.813172798364529
31
0
210
0
220
0
230
1
40
0.989133
41
-3.10929855989491
42
-0.0644076512779615
0
ELLIPSE
5
10B
100
AcDbEntity
8
1
62
256
6
ByLayer
370
18
48
1
60
0
100
AcDbEllipse
10
24.45241
20
-22.129514
30
0
11
0.943257999448964
21
1.98752719389586
31
0
210
0
220
0
230
1
40
0.132393
41
-3.14156792737321
42
-0.0375901703554024
0
ELLIPSE
5
10C
100
AcDbEntity
8
1
62
256
6
ByLayer
370
18
48
1
60
0
100
AcDbEllipse
10
24.676277
20
-22.235759
30
0
11
-0.836069590420684
21
-1.76167183095312
31
0
210
0
220
0
230
1
40
0.132393
41
0.133968564381997
42
3.00756345360658
0
ELLIPSE
5
10D
100
AcDbEntity
8
1
62
256
6
ByLayer
370
18
48
1
60
0
100
AcDbEllipse
10
53.684409
20
-28.684409
30
0
11
4.49012806053458
21
4.49012806053458
31
0
210
0
220
0
230
1
40
0.989133
41
0.790861402916863
42
0.909387373618576
0
ELLIPSE
5
10E
100
AcDbEntity
8
1
62
256
6
ByLayer
370
18
48
1
60
0
100
AcDbEllipse
10
53.684409
20
-28.684409
30
0
11
4.49012806053458
21
4.49012806053458
31
0
210
0
220
0
230
1
40
0.989133
41
2.75193139260718
42
0
0
ELLIPSE
5
10F
100
AcDbEntity
8
1
62
256
6
ByLayer
370
18
48
1
60
0
100
AcDbEllipse
10
53.684409
20
-28.684409
30
0
11
4.49012806053458
21
4.49012806053458
31
0
210
0
220
0
230
1
40
0.989133
41
0
42
0.790861295697538
0
ELLIPSE
5
110
100
AcDbEntity
8
1
62
256
6
ByLayer
370
18
48
1
60
0
100
AcDbEllipse
10
53.18955
20
-28.18955
30
0
11
-4.49012806053466
21
-4.4901280605345
31
0
210
0
220
0
230
1
40
0.989133
41
-0.146973227182197
42
0
0
ELLIPSE
5
111
100
AcDbEntity
8
1
62
256
6
ByLayer
370
18
48
1
60
0
100
AcDbEllipse
10
53.18955
20
-28.18955
30
0
11
-4.49012806053466
21
-4.4901280605345
31
0
210
0
220
0
230
1
40
0.989133
41
3.14158713513117
42
-2.56815928803358
0
ELLIPSE
5
112
100
AcDbEntity
8
1
62
256
6
ByLayer
370
18
48
1
60
0
100
AcDbEllipse
10
53.684409
20
-28.684409
30
0
11
2.41749824055112
21
2.41749824055112
31
0
210
0
220
0
230
1
40
0.989133
41
-3.00513528039854
42
0
0
ELLIPSE
5
113
100
AcDbEntity
8
1
62
256
6
ByLayer
370
18
48
1
60
0
100
AcDbEllipse
10
53.684409
20
-28.684409
30
0
11
2.41749824055112
21
2.41749824055112
31
0
210
0
220
0
230
1
40
0.989133
41
0
42
0.375905672549807
0
ELLIPSE
5
114
100
AcDbEntity
8
1
62
256
6
ByLayer
370
18
48
1
60
0
100
AcDbEllipse
10
53.645943
20
-28.645943
30
0
11
1.96434263813623
21
1.96434263813623
31
0
210
0
220
0
230
1
40
0.989133
41
-2.73299495739269
42
0
0
ELLIPSE
5
115
100
AcDbEntity
8
1
62
256
6
ByLayer
370
18
48
1
60
0
100
AcDbEllipse
10
53.645943
20
-28.645943
30
0
11
1.96434263813623
21
1.96434263813623
31
0
210
0
220
0
230
1
40
0.989133
41
0
42
0.126934264574201
0
ELLIPSE
5
116
100
AcDbEntity
8
1
62
256
6
ByLayer
370
18
48
1
60
0
100
AcDbEllipse
10
53.645943
20
-28.645943
30
0
11
1.82292128189892
21
1.82292128189892
31
0
210
0
220
0
230
1
40
0.989133
41
-2.60271675332459
42
0
0
ELLIPSE
5
117
100
AcDbEntity
8
1
62
256
6
ByLayer
370
18
48
1
60
0
100
AcDbEllipse
10
53.228016
20
-28.228016
30
0
11
1.82292128189892
21
1.82292128189892
31
0
210
0
220
0
230
1
40
0.989133
41
-0.56205616378073
42
-0.379549139931653
0
ELLIPSE
5
118
100
AcDbEntity
8
1
62
256
6
ByLayer
370
18
48
1
60
0
100
AcDbEllipse
10
33.901595
20
-23.861981
30
0
11
2.0632272466306
21
2.17786439632065
31
0
210
0
220
0
230
1
40
0.9865
41
0.0891024469650678
42
0.229639942064432
0
ELLIPSE
5
119
100
AcDbEntity
8
1
62
256
6
ByLayer
370
18
48
1
60
0
100
AcDbEllipse
10
42.285488
20
-22.256394
30
0
11
-2.85413102450566
21
-3.01271241491024
31
0
210
0
220
0
230
1
40
0.9865
41
0.229639942064426
42
-3.05273537020986
0
ELLIPSE
5
11A
100
AcDbEntity
8
1
62
256
6
ByLayer
370
18
48
1
60
0
100
AcDbEllipse
10
40.466675
20
-21.201191
30
0
11
-1.78813028041318
21
-1.88748247681124
31
0
210
0
220
0
230
1
40
0.9865
41
-1.44654712648014
42
-1.24028195058365
0
ELLIPSE
5
11B
100
AcDbEntity
8
1
62
256
6
ByLayer
370
18
48
1
60
0
100
AcDbEllipse
10
34.042602
20
-22.003662
30
0
11
-2.71967146854744
21
-1.27437045679923
31
0
210
0
220
0
230
1
40
0.994282
41
-0.96724515482153
42
0.0844439082428449
0
ELLIPSE
5
11C
100
AcDbEntity
8
1
62
256
6
ByLayer
370
18
48
1
60
0
100
AcDbEllipse
10
38.298647
20
-14.768467
30
0
11
-2.71967146855643
21
-1.27437045678088
31
0
210
0
220
0
230
1
40
0.994282
41
-2.01893421787897
42
-0.967245154814606
0
ELLIPSE
5
11D
100
AcDbEntity
8
1
62
256
6
ByLayer
370
18
48
1
60
0
100
AcDbEllipse
10
54.087004
20
-29.047563
30
0
11
-1.91390274119971
21
-1.13589051590086
31
0
210
0
220
0
230
1
40
0.791036
41
1.17104293475318
42
2.02625426823138
0
ELLIPSE
5
11E
100
AcDbEntity
8
1
62
256
6
ByLayer
370
18
48
1
60
0
100
AcDbEllipse
10
34.402475
20
-22.479893
30
0
11
0.0727510281395571
21
1.99867638398632
31
0
210
0
220
0
230
1
40
0.790712
41
1.18921693979719
42
2.6018924340568
0
ELLIPSE
5
11F
100
AcDbEntity
8
1
62
256
6
ByLayer
370
18
48
1
60
0
100
AcDbEllipse
10
36.623325
20
-24.383234
30
0
11
-4.83980026538328
21
2.61976149585362
31
0
210
0
220
0
230
1
40
0.200196
41
-0.611875588246371
42
-0.558883283585284
0
ELLIPSE
5
120
100
AcDbEntity
8
1
62
256
6
ByLayer
370
18
48
1
60
0
100
AcDbEllipse
10
36.475503
20
-23.924194
30
0
11
-4.09968384562748
21
-0.0510822590102245
31
0
210
0
220
0
230
1
40
0.480311
41
0.317202882931653
42
0.676818616292416
0
ELLIPSE
5
121
100
AcDbEntity
8
1
62
256
6
ByLayer
370
18
48
1
60
0
100
AcDbEllipse
10
37.735794
20
-22.492058
30
0
11
4.74062427965016
21
-2.7886343322837
31
0
210
0
220
0
230
1
40
0.037276
41
-2.41648249963878
42
-1.97471476035273
0
ELLIPSE
5
122
100
AcDbEntity
8
1
62
256
6
ByLayer
370
18
48
1
60
0
100
AcDbEllipse
10
42.50441
20
-14.583844
30
0
11
-2.90115948092153
21
1.96869474376647
31
0
210
0
220
0
230
1
40
0.409411
41
-0.092040937717915
42
0.631177168680042
0
ELLIPSE
5
123
100
AcDbEntity
8
1
62
256
6
ByLayer
370
18
48
1
60
0
100
AcDbEllipse
10
38.665135
20
-15.233455
30
0
11
1.78854165072352
21
0.895052380381835
31
0
210
0
220
0
230
1
40
0.766835
41
0.642000135205715
42
2.05467562946532
0
ELLIPSE
5
124
100
AcDbEntity
8
1
62
256
6
ByLayer
370
18
48
1
60
0
100
AcDbEllipse
10
54.087004
20
-29.047563
30
0
11
-0.614274611240917
21
-2.2188457798888
31
0
210
0
220
0
230
1
40
0.801371
41
1.40106820121537
42
2.25627953469266
0
ELLIPSE
5
125
100
AcDbEntity
8
1
62
256
6
ByLayer
370
18
48
1
60
0
100
AcDbEllipse
10
40.370488
20
-18.013128
30
0
11
4.74062427965016
21
-2.7886343322837
31
0
210
0
220
0
230
1
40
0.037276
41
-2.41648249963878
42
-1.97471476035272
0
ELLIPSE
5
126
100
AcDbEntity
8
1
62
256
6
ByLayer
370
18
48
1
60
0
100
AcDbEllipse
10
41.482958
20
-16.121953
30
0
11
-4.63728465884143
21
2.96375165976954
31
0
210
0
220
0
230
1
40
0.274646
41
0.561908511461061
42
0.614900812873898
0
ELLIPSE
5
127
100
AcDbEntity
8
1
62
256
6
ByLayer
370
18
48
1
60
0
100
AcDbEllipse
10
40.731548
20
-16.688999
30
0
11
-1.4781318490523
21
4.10391311662068
31
0
210
0
220
0
230
1
40
0.518425
41
-0.55290021308124
42
-0.193284479725688
0
ELLIPSE
5
128
100
AcDbEntity
8
1
62
256
6
ByLayer
370
18
48
1
60
0
100
AcDbEllipse
10
35.924756
20
-10.178887
30
0
11
6.03352181046384
21
-3.54917096836108
31
0
210
0
220
0
230
1
40
0.037276
41
0.806029476653131
42
0.820810513393115
0
ELLIPSE
5
129
100
AcDbEntity
8
1
62
256
6
ByLayer
370
18
48
1
60
0
100
AcDbEllipse
10
35.748792
20
-26.068263
30
0
11
-3.12354062219174
21
1.59164150883805
31
0
210
0
220
0
230
1
40
0.335188
41
-0.625034491352327
42
0.098183615045771
0
ELLIPSE
5
12A
100
AcDbEntity
8
1
62
256
6
ByLayer
370
18
48
1
60
0
100
AcDbEllipse
10
42.531849
20
-23.361036
30
0
11
0.300520382004283
21
0.300520382004283
31
0
210
0
220
0
230
1
40
0.989133
41
0.409661561480015
42
2.1974058994684
0
ELLIPSE
5
12B
100
AcDbEntity
8
1
62
256
6
ByLayer
370
18
48
1
60
0
100
AcDbEllipse
10
40.339568
20
-22.156898
30
0
11
0.300520382004283
21
0.300520382004283
31
0
210
0
220
0
230
1
40
0.989133
41
-1.68473354091318
42
0.103010797075227
0
ELLIPSE
5
12C
100
AcDbEntity
8
1
62
256
6
ByLayer
370
18
48
1
60
0
100
AcDbEllipse
10
41.145741
20
-20.786421
30
0
11
0.300520382004283
21
0.300520382004283
31
0
210
0
220
0
230
1
40
0.989133
41
-2.73193109210976
42
-0.94418675412141
0
ELLIPSE
5
12D
100
AcDbEntity
8
1
62
256
6
ByLayer
370
18
48
1
60
0
100
AcDbEllipse
10
42.728137
20
-20.786421
30
0
11
0.300520382004283
21
0.300520382004283
31
0
210
0
220
0
230
1
40
0.989133
41
2.50405666387322
42
-1.99138430531796
0
ELLIPSE
5
12E
100
AcDbEntity
8
1
62
256
6
ByLayer
370
18
48
1
60
0
100
AcDbEllipse
10
41.845652
20
-22.080586
30
0
11
-2.82842712474624
21
-2.82842712474614
31
0
210
0
220
0
230
1
40
0.989133
41
0
42
6.28318530717959
0
ELLIPSE
5
12F
100
AcDbEntity
8
1
62
256
6
ByLayer
370
18
48
1
60
0
100
AcDbEllipse
10
43.504361
20
-22.156898
30
0
11
0.300520382004283
21
0.300520382004283
31
0
210
0
220
0
230
1
40
0.989133
41
1.45685911267661
42
-3.03858185651457
0
ELLIPSE
5
130
100
AcDbEntity
8
1
62
256
6
ByLayer
370
18
48
1
60
0
100
AcDbEllipse
10
41.921965
20
-22.156898
30
0
11
-1.62634559672909
21
-1.62634559672903
31
0
210
0
220
0
230
1
40
0.989133
41
0
42
6.28318530717959
0
ELLIPSE
5
131
100
AcDbEntity
8
1
62
256
6
ByLayer
370
18
48
1
60
0
100
AcDbEllipse
10
41.935603
20
-20.908699
30
0
11
-0.268700576850893
21
-0.268700576850883
31
0
210
0
220
0
230
1
40
0.989133
41
2.50405666387317
42
-0.944186754121371
0
ELLIPSE
5
132
100
AcDbEntity
8
1
62
256
6
ByLayer
370
18
48
1
60
0
100
AcDbEllipse
10
42.996053
20
-22.780998
30
0
11
-0.268700576850893
21
-0.268700576850883
31
0
210
0
220
0
230
1
40
0.989133
41
0.409661561480004
42
-3.03858185651459
0
ELLIPSE
5
133
100
AcDbEntity
8
1
62
256
6
ByLayer
370
18
48
1
60
0
100
AcDbEllipse
10
40.847876
20
-21.532798
30
0
11
-0.268700576850893
21
-0.268700576850883
31
0
210
0
220
0
230
1
40
0.989133
41
-2.73193109210976
42
0.103010797075203
0
ELLIPSE
5
134
100
AcDbEntity
8
1
62
256
6
ByLayer
370
18
48
1
60
0
100
AcDbEllipse
10
42.698189
20
-23.527375
30
0
11
0.300520382004283
21
0.300520382004283
31
0
210
0
220
0
230
1
40
0.989133
41
0.40966156148003
42
2.19740589946841
0
ELLIPSE
5
135
100
AcDbEntity
8
1
62
256
6
ByLayer
370
18
48
1
60
0
100
AcDbEllipse
10
41.115792
20
-23.527375
30
0
11
0.300520382004283
21
0.300520382004283
31
0
210
0
220
0
230
1
40
0.989133
41
-0.637535989716569
42
1.15020834827181
0
ELLIPSE
5
136
100
AcDbEntity
8
1
62
256
6
ByLayer
370
18
48
1
60
0
100
AcDbEllipse
10
43.009692
20
-21.532798
30
0
11
-0.268700576850893
21
-0.268700576850883
31
0
210
0
220
0
230
1
40
0.989133
41
1.45685911267661
42
-1.99138430531799
0
ELLIPSE
5
137
100
AcDbEntity
8
1
62
256
6
ByLayer
370
18
48
1
60
0
100
AcDbEllipse
10
41.908327
20
-23.405098
30
0
11
-0.268700576850893
21
-0.268700576850883
31
0
210
0
220
0
230
1
40
0.989133
41
-0.637535989716553
42
2.1974058994684
0
ELLIPSE
5
138
100
AcDbEntity
8
1
62
256
6
ByLayer
370
18
48
1
60
0
100
AcDbEllipse
10
40.834238
20
-22.780998
30
0
11
-0.268700576850893
21
-0.268700576850883
31
0
210
0
220
0
230
1
40
0.989133
41
-1.68473354091319
42
1.1502083482718
0
ELLIPSE
5
139
100
AcDbEntity
8
1
62
256
6
ByLayer
370
18
48
1
60
0
100
AcDbEllipse
10
21.056258
20
0
30
0
11
-11.7092723497278
21
24.6771864409381
31
0
210
0
220
0
230
1
40
0.341999
41
0.167213071908976
42
1.08183270048926
0
ELLIPSE
5
13A
100
AcDbEntity
8
1
62
256
6
ByLayer
370
18
48
1
60
0
100
AcDbEllipse
10
17.329058
20
-18.748852
30
0
11
-0.0227270275735562
21
2.7759517111624
31
0
210
0
220
0
230
1
40
0.080275
41
0.818993975386563
42
-2.77414710362925
0
ELLIPSE
5
13B
100
AcDbEntity
8
1
62
256
6
ByLayer
370
18
48
1
60
0
100
AcDbEllipse
10
31.857769
20
15.92178
30
0
11
-7.29172952763418
21
7.29172952763418
31
0
210
0
220
0
230
-1
40
0.989133
41
-1.56533311827336
42
-0.790861371918985
0
ELLIPSE
5
13C
100
AcDbEntity
8
1
62
256
6
ByLayer
370
18
48
1
60
0
100
AcDbEllipse
10
10
20
-17.843094
30
0
11
1.65
21
0
31
0
210
0
220
0
230
1
40
0.580703
41
0
42
6.28318530717959
0
ELLIPSE
5
13D
100
AcDbEntity
8
1
62
256
6
ByLayer
370
18
48
1
60
0
100
AcDbEllipse
10
49.487255
20
-16.391347
30
0
11
-12.3193482244138
21
12.4386539306949
31
0
210
0
220
0
230
1
40
0.000229
41
0.97416916439603
42
0.997412623631811
0
ELLIPSE
5
13E
100
AcDbEntity
8
1
62
256
6
ByLayer
370
18
48
1
60
0
100
AcDbEllipse
10
10
20
-18.309067
30
0
11
-2.00000000000002
21
2.02127811016475E-15
31
0
210
0
220
0
230
1
40
0.716939
41
0.75150462149233
42
2.39008803209747
0
ELLIPSE
5
13F
100
AcDbEntity
8
1
62
256
6
ByLayer
370
18
48
1
60
0
100
AcDbEllipse
10
10
20
-15.807097
30
0
11
-1.88518478424619
21
-3.17407998038192
31
0
210
0
220
0
230
1
40
0.21042
41
-0.666992228074264
42
-0.013980295021225
0
ELLIPSE
5
140
100
AcDbEntity
8
1
62
256
6
ByLayer
370
18
48
1
60
0
100
AcDbEllipse
10
-1.056258
20
0
30
0
11
-11.709272349727
21
24.677186440937
31
0
210
0
220
0
230
1
40
0.341999
41
-2.97437958168081
42
-2.0597599531005
0
ELLIPSE
5
141
100
AcDbEntity
8
1
62
256
6
ByLayer
370
18
48
1
60
0
100
AcDbEllipse
10
21.056258
20
0
30
0
11
-11.7092723497275
21
-24.6771864409378
31
0
210
0
220
0
230
1
40
0.341999
41
-1.08183270048927
42
-0.167213071908978
0
ELLIPSE
5
142
100
AcDbEntity
8
1
62
256
6
ByLayer
370
18
48
1
60
0
100
AcDbEllipse
10
10
20
-15.807097
30
0
11
-1.88518478424961
21
3.17407998038681
31
0
210
0
220
0
230
1
40
0.21042
41
-3.1276123585686
42
-2.4746004255161
0
ELLIPSE
5
143
100
AcDbEntity
8
1
62
256
6
ByLayer
370
18
48
1
60
0
100
AcDbEllipse
10
-1.056258
20
0
30
0
11
-11.7092723497277
21
-24.677186440938
31
0
210
0
220
0
230
1
40
0.341999
41
2.05975995310053
42
2.97437958168082
0
ELLIPSE
5
144
100
AcDbEntity
8
1
62
256
6
ByLayer
370
18
48
1
60
0
100
AcDbEllipse
10
18.187217
20
0
30
0
11
1.53075794227798E-15
21
25.0000000000001
31
0
210
0
220
0
230
1
40
0.087489
41
0.353363115402329
42
2.78822953818746
0
ELLIPSE
5
145
100
AcDbEntity
8
1
62
256
6
ByLayer
370
18
48
1
60
0
100
AcDbEllipse
10
28.477098
20
-24.445837
30
0
11
-4.8570696764794
21
2.78613637786355
31
0
210
0
220
0
230
1
40
0.71384
41
2.44410629918186
42
3.13379110514748
0
ELLIPSE
5
146
100
AcDbEntity
8
1
62
256
6
ByLayer
370
18
48
1
60
0
100
AcDbEllipse
10
37.597195
20
-8.941849
30
0
11
-4.85706967647772
21
2.78613637788211
31
0
210
0
220
0
230
1
40
0.71384
41
3.13379110514957
42
-2.62366080097803
0
ELLIPSE
5
147
100
AcDbEntity
8
1
62
256
6
ByLayer
370
18
48
1
60
0
100
AcDbEllipse
10
22.494167
20
-29.246081
30
0
11
-3.99949787112001
21
0.747447387132834
31
0
210
0
220
0
230
1
40
0.082276
41
-1.451271906563
42
-1.43737463498678
0
ELLIPSE
5
148
100
AcDbEntity
8
1
62
256
6
ByLayer
370
18
48
1
60
0
100
AcDbEllipse
10
10
20
-18.309067
30
0
11
-2.00000000000004
21
2.02127811016477E-15
31
0
210
0
220
0
230
1
40
0.716939
41
-2.39008803209746
42
-0.751504621492336
0
POINT
5
6C
100
AcDbEntity
8
2
62
256
6
ByLayer
370
18
48
1
60
0
100
AcDbPoint
10
60
20
35
30
0
39
0
210
0
220
0
230
1
50
360
0
POINT
5
6E
100
AcDbEntity
8
80
62
256
6
ByLayer
370
18
48
1
60
0
100
AcDbPoint
10
0
20
0
30
0
39
0
210
0
220
0
230
1
50
360
0
POINT
5
70
100
AcDbEntity
8
81
62
256
6
ByLayer
370
18
48
1
60
0
100
AcDbPoint
10
60
20
-35
30
0
39
0
210
0
220
0
230
1
50
360
0
SPLINE
5
149
100
AcDbEntity
8
SK1
62
256
6
ByLayer
370
18
48
1
60
0
100
AcDbSpline
70
4
71
2
72
6
73
3
40
0
40
0
40
0
40
1
40
1
40
1
41
1
10
-28.5
20
-16.854272429841
30
0
41
1
10
-15.3499999999294
20
-17.1845422725478
30
0
41
1
10
-2.19999999999999
20
-17.5148117187522
30
0
0
SPLINE
5
14A
100
AcDbEntity
8
SK1
62
256
6
ByLayer
370
18
48
1
60
0
100
AcDbSpline
70
4
71
2
72
6
73
3
40
0
40
0
40
0
40
1
40
1
40
1
41
1
10
-2.19999999999999
20
17.5148116792767
30
0
41
1
10
-15.3499999999286
20
17.1845422635703
30
0
41
1
10
-28.5
20
16.8542724489282
30
0
0
SPLINE
5
14B
100
AcDbEntity
8
SK1
62
256
6
ByLayer
370
18
48
1
60
0
100
AcDbSpline
70
4
71
3
72
13
73
9
40
0
40
0
40
0
40
0
40
0.239456135686852
40
0.368359721835155
40
0.499998983918667
40
0.631638415195385
40
0.7605424677172
40
1
40
1
40
1
40
1
41
1
10
-2.19999999999999
20
-17.5200987347078
30
0
41
1
10
-2.19909198642125
20
-17.4940412586114
30
0
41
1
10
-2.19103284106788
20
-17.4566686743027
30
0
41
1
10
-2.16563592203161
20
-17.4104495005037
30
0
41
1
10
-2.13886378679047
20
-17.3791679466684
30
0
41
1
10
-2.10627712749664
20
-17.3540005764861
30
0
41
1
10
-2.05884064233982
20
-17.3309567740351
30
0
41
1
10
-2.02111030872965
20
-17.324784519015
30
0
41
1
10
-1.99503997793928
20
-17.3251861589552
30
0
0
SPLINE
5
14C
100
AcDbEntity
8
SK1
62
256
6
ByLayer
370
18
48
1
60
0
100
AcDbSpline
70
4
71
3
72
13
73
9
40
0
40
0
40
0
40
0
40
0.239457532237385
40
0.368361584743632
40
0.500001016014352
40
0.631640278103004
40
0.760543864266449
40
1
40
1
40
1
40
1
41
1
10
-1.99503997793928
20
17.3251859759625
30
0
41
1
10
-2.02111030873061
20
17.3247843360228
30
0
41
1
10
-2.05884064234166
20
17.3309565910454
30
0
41
1
10
-2.106277127498
20
17.3540003935063
30
0
41
1
10
-2.13886378679174
20
17.3791677636994
30
0
41
1
10
-2.16563592203255
20
17.4104493175479
30
0
41
1
10
-2.19103284106862
20
17.4566684913667
30
0
41
1
10
-2.19909198642199
20
17.4940410756898
30
0
41
1
10
-2.19999999999999
20
17.520098551796
30
0
0
SPLINE
5
14D
100
AcDbEntity
8
SK1
62
256
6
ByLayer
370
18
48
1
60
0
100
AcDbSpline
70
4
71
2
72
6
73
3
40
0
40
0
40
0
40
1
40
1
40
1
41
1
10
-1.99503997793928
20
-17.3199593319919
30
0
41
1
10
-1.19500843340703
20
-17.3400525762132
30
0
41
1
10
-0.394976888875277
20
-17.3601458189993
30
0
0
SPLINE
5
14E
100
AcDbEntity
8
SK1
62
256
6
ByLayer
370
18
48
1
60
0
100
AcDbSpline
70
4
71
2
72
6
73
3
40
0
40
0
40
0
40
1
40
1
40
1
41
1
10
-0.394976888875277
20
17.3601457933935
30
0
41
1
10
-1.19500843340703
20
17.340052552406
30
0
41
1
10
-1.99503997793928
20
17.3199593099743
30
0
0
SPLINE
5
14F
100
AcDbEntity
8
SK1
62
256
6
ByLayer
370
18
48
1
60
0
100
AcDbSpline
70
4
71
2
72
6
73
3
40
0
40
0
40
0
40
1
40
1
40
1
41
1
10
-28.5
20
16.8584504491481
30
0
41
1
10
-29.2499999991495
20
16.4254650261933
30
0
41
1
10
-30
20
15.9924794145163
30
0
0
SPLINE
5
150
100
AcDbEntity
8
SK1
62
256
6
ByLayer
370
18
48
1
60
0
100
AcDbSpline
70
4
71
2
72
6
73
3
40
0
40
0
40
0
40
1
40
1
40
1
41
1
10
-30
20
-15.99247954079
30
0
41
1
10
-29.2499999991495
20
-16.4254651505507
30
0
41
1
10
-28.5
20
-16.8584505716142
30
0
0
SPLINE
5
151
100
AcDbEntity
8
SK1
62
256
6
ByLayer
370
18
48
1
60
0
100
AcDbSpline
70
4
71
2
72
6
73
3
40
0
40
0
40
0
40
1
40
1
40
1
41
1
10
-0.258658740615658
20
17.4310145299902
30
0
41
1
10
-0.305277226309727
20
17.3671842624703
30
0
41
1
10
-0.394976888875277
20
17.359696795897
30
0
0
SPLINE
5
152
100
AcDbEntity
8
SK1
62
256
6
ByLayer
370
18
48
1
60
0
100
AcDbSpline
70
4
71
2
72
6
73
3
40
0
40
0
40
0
40
1
40
1
40
1
41
1
10
-0.394976888875277
20
-17.3596982935394
30
0
41
1
10
-0.305123774552612
20
-17.3672404580573
30
0
41
1
10
-0.258442643302431
20
-17.4312381196178
30
0
0
SPLINE
5
153
100
AcDbEntity
8
1
62
256
6
ByLayer
370
18
48
1
60
0
100
AcDbSpline
70
4
71
3
72
10
73
6
40
0
40
0
40
0
40
0
40
0.496367980182925
40
0.496367980182925
40
1
40
1
40
1
40
1
41
1
10
32.3750228124359
20
-24.5093757824201
30
0
41
1
10
32.2096627416742
20
-24.3789598855131
30
0
41
1
10
32.0451709943429
20
-24.2325370910239
30
0
41
1
10
31.7281414649789
20
-23.8993647596158
30
0
41
1
10
31.574570751168
20
-23.7098848180878
30
0
41
1
10
31.4394915077774
20
-23.5015661837298
30
0
0
SPLINE
5
154
100
AcDbEntity
8
SK1
62
256
6
ByLayer
370
18
48
1
60
0
100
AcDbSpline
70
4
71
3
72
284
73
280
40
0
40
0
40
0
40
0
40
0.0001430966821617
40
0.0037135041867767
40
0.0072839116913918
40
0.0108543191960068
40
0.0144247267006218
40
0.0179951342052369
40
0.0215655417098519
40
0.025135949214467
40
0.028706356719082
40
0.0322767642236971
40
0.0358471717283121
40
0.0429879867375422
40
0.0465583942421572
40
0.0501288017467723
40
0.0536992092513873
40
0.0572696167560024
40
0.0644104317652325
40
0.0679808392698475
40
0.0715512467744625
40
0.0786920617836926
40
0.0822624692883077
40
0.0858328767929227
40
0.0929736918021528
40
0.0965440993067678
40
0.100114506811383
40
0.103684914315998
40
0.107255321820613
40
0.110825729325228
40
0.114396136829843
40
0.117966544334458
40
0.121536951839073
40
0.128677766848303
40
0.132248174352918
40
0.135818581857533
40
0.139388989362148
40
0.142959396866763
40
0.150100211875994
40
0.153670619380608
40
0.157241026885224
40
0.160811434389839
40
0.164381841894454
40
0.171522656903684
40
0.175093064408299
40
0.178663471912914
40
0.182233879417529
40
0.185804286922144
40
0.192945101931374
40
0.196515509435989
40
0.200085916940604
40
0.203656324445219
40
0.207226731949834
40
0.214367546959064
40
0.217937954463679
40
0.221508361968294
40
0.225078769472909
40
0.228649176977524
40
0.235789991986754
40
0.23936039949137
40
0.242930806995985
40
0.2465012145006
40
0.250071622005215
40
0.257212437014445
40
0.26078284451906
40
0.264353252023675
40
0.271494067032905
40
0.278634882042135
40
0.28220528954675
40
0.285775697051365
40
0.292916512060595
40
0.29648691956521
40
0.300057327069825
40
0.30362773457444
40
0.307198142079055
40
0.31076854958367
40
0.314338957088286
40
0.321479772097515
40
0.328620587106746
40
0.332190994611361
40
0.335761402115976
40
0.339331809620591
40
0.342902217125206
40
0.346472624629821
40
0.350043032134436
40
0.357183847143666
40
0.364324662152896
40
0.371465477162126
40
0.375035884666741
40
0.378606292171356
40
0.382176699675971
40
0.385747107180586
40
0.389317514685201
40
0.392887922189816
40
0.396458329694431
40
0.400028737199046
40
0.403599144703661
40
0.407169552208277
40
0.410739959712892
40
0.414310367217507
40
0.417880774722122
40
0.421451182226737
40
0.425021589731352
40
0.428591997235967
40
0.432162404740582
40
0.433947608492889
40
0.435732812245197
40
0.437518015997505
40
0.439303219749812
40
0.442873627254427
40
0.446444034759042
40
0.448229238511349
40
0.450014442263657
40
0.451799646015965
40
0.453584849768272
40
0.45537005352058
40
0.457155257272887
40
0.460725664777502
40
0.46251086852981
40
0.464296072282117
40
0.466081276034425
40
0.467866479786732
40
0.46965168353904
40
0.471436887291347
40
0.473222091043655
40
0.475007294795962
40
0.47679249854827
40
0.478577702300577
40
0.480362906052885
40
0.482148109805193
40
0.4839333135575
40
0.485718517309807
40
0.487503721062115
40
0.489288924814422
40
0.49107412856673
40
0.492859332319038
40
0.494644536071345
40
0.496429739823653
40
0.49821494357596
40
0.500000147328268
40
0.501785351080575
40
0.503570554832883
40
0.50535575858519
40
0.507140962337498
40
0.508926166089805
40
0.510711369842113
40
0.51249657359442
40
0.514281777346728
40
0.516066981099035
40
0.517852184851343
40
0.51963738860365
40
0.521422592355958
40
0.523207796108265
40
0.524992999860573
40
0.526778203612881
40
0.528563407365188
40
0.530348611117496
40
0.532133814869803
40
0.533919018622111
40
0.535704222374418
40
0.537489426126726
40
0.539274629879033
40
0.541059833631341
40
0.542845037383648
40
0.544630241135956
40
0.546415444888263
40
0.549985852392878
40
0.551771056145186
40
0.553556259897493
40
0.557126667402108
40
0.560697074906723
40
0.562482278659031
40
0.564267482411338
40
0.566052686163646
40
0.567837889915953
40
0.571408297420569
40
0.574978704925184
40
0.578549112429799
40
0.582119519934414
40
0.585689927439029
40
0.589260334943644
40
0.592830742448259
40
0.596401149952874
40
0.599971557457489
40
0.603541964962104
40
0.607112372466719
40
0.610682779971334
40
0.614253187475949
40
0.617823594980564
40
0.621394002485179
40
0.624964409989794
40
0.628534817494409
40
0.635675632503639
40
0.642816447512869
40
0.6499572625221
40
0.653527670026715
40
0.65709807753133
40
0.660668485035945
40
0.66423889254056
40
0.667809300045175
40
0.67137970754979
40
0.67852052255902
40
0.68566133756825
40
0.689231745072865
40
0.69280215257748
40
0.696372560082095
40
0.69994296758671
40
0.703513375091325
40
0.70708378259594
40
0.71422459760517
40
0.717795005109785
40
0.7213654126144
40
0.72850622762363
40
0.73564704263286
40
0.739217450137476
40
0.742787857642091
40
0.749928672651321
40
0.753499080155936
40
0.757069487660551
40
0.760639895165166
40
0.764210302669781
40
0.771351117679011
40
0.774921525183626
40
0.778491932688241
40
0.782062340192856
40
0.785632747697471
40
0.792773562706701
40
0.796343970211316
40
0.799914377715931
40
0.803484785220546
40
0.807055192725161
40
0.814196007734391
40
0.817766415239007
40
0.821336822743622
40
0.824907230248237
40
0.828477637752852
40
0.835618452762082
40
0.839188860266697
40
0.842759267771312
40
0.844544471523619
40
0.846329675275927
40
0.849900082780542
40
0.857040897789772
40
0.860611305294387
40
0.864181712799002
40
0.867752120303617
40
0.871322527808232
40
0.878463342817462
40
0.882033750322077
40
0.885604157826692
40
0.889174565331307
40
0.892744972835922
40
0.896315380340537
40
0.899885787845152
40
0.903456195349768
40
0.907026602854383
40
0.914167417863613
40
0.917737825368228
40
0.921308232872843
40
0.928449047882073
40
0.932019455386688
40
0.935589862891303
40
0.942730677900533
40
0.946301085405148
40
0.949871492909763
40
0.953441900414378
40
0.957012307918993
40
0.964153122928223
40
0.967723530432838
40
0.971293937937453
40
0.974864345442068
40
0.978434752946683
40
0.982005160451298
40
0.985575567955914
40
0.989145975460528
40
0.992716382965144
40
0.996286790469759
40
0.999857197974374
40
1
40
1
40
1
40
1
41
1
10
-1.99503997793928
20
-17.320689212063
30
0
41
1
10
-1.99503997793928
20
-17.3206252196247
30
0
41
1
10
-1.99503997793928
20
-17.3189470225139
30
0
41
1
10
-1.99503997793928
20
-17.3147637003649
30
0
41
1
10
-1.99503997793928
20
-17.3061342577567
30
0
41
1
10
-1.99503997793928
20
-17.295067771448
30
0
41
1
10
-1.99503997793928
20
-17.2816041041457
30
0
41
1
10
-1.99503997793928
20
-17.2657805776118
30
0
41
1
10
-1.99503997793928
20
-17.2476335117891
30
0
41
1
10
-1.99503997793928
20
-17.2271975457697
30
0
41
1
10
-1.99503997793928
20
-17.2045053960087
30
0
41
1
10
-1.99503997793928
20
-17.1795895960111
30
0
41
1
10
-1.99503997793928
20
-17.143423992764
30
0
41
1
10
-1.99503997793928
20
-17.1029924242496
30
0
41
1
10
-1.99503997793928
20
-17.0582791326422
30
0
41
1
10
-1.99503997793928
20
-17.0226787925821
30
0
41
1
10
-1.99503997793928
20
-16.9850205529168
30
0
41
1
10
-1.99503997793928
20
-16.9320728615657
30
0
41
1
10
-1.99503997793928
20
-16.8751872660894
30
0
41
1
10
-1.99503997793928
20
-16.8142877036056
30
0
41
1
10
-1.99503997793928
20
-16.7507929832779
30
0
41
1
10
-1.99503997793928
20
-16.6835453056651
30
0
41
1
10
-1.99503997793928
20
-16.6124299551482
30
0
41
1
10
-1.99503997793928
20
-16.5388242186582
30
0
41
1
10
-1.99503997793928
20
-16.4616240004255
30
0
41
1
10
-1.99503997793928
20
-16.3806869939664
30
0
41
1
10
-1.99503997793928
20
-16.3182114219941
30
0
41
1
10
-1.99503997793928
20
-16.2539521138773
30
0
41
1
10
-1.99503997793928
20
-16.1879246249361
30
0
41
1
10
-1.99503997793928
20
-16.1201424382026
30
0
41
1
10
-1.99503997793928
20
-16.0506207732709
30
0
41
1
10
-1.99503997793928
20
-15.979373490825
30
0
41
1
10
-1.99503997793928
20
-15.8820499794418
30
0
41
1
10
-1.99503997793928
20
-15.7814584486047
30
0
41
1
10
-1.99503997793928
20
-15.677384958149
30
0
41
1
10
-1.99503997793928
20
-15.5977008436634
30
0
41
1
10
-1.99503997793928
20
-15.5163656256123
30
0
41
1
10
-1.99503997793928
20
-15.4056838451686
30
0
41
1
10
-1.99503997793928
20
-15.2918890118945
30
0
41
1
10
-1.99503997793928
20
-15.1747311694574
30
0
41
1
10
-1.99503997793928
20
-15.0853020659337
30
0
41
1
10
-1.99503997793928
20
-14.9942846604514
30
0
41
1
10
-1.99503997793928
20
-14.8707702235387
30
0
41
1
10
-1.99503997793928
20
-14.7442755428493
30
0
41
1
10
-1.99503997793928
20
-14.6145160455858
30
0
41
1
10
-1.99503997793928
20
-14.5156939096276
30
0
41
1
10
-1.99503997793928
20
-14.4153366771621
30
0
41
1
10
-1.99503997793928
20
-14.2794333721973
30
0
41
1
10
-1.99503997793928
20
-14.1406647198644
30
0
41
1
10
-1.99503997793928
20
-13.9987118830366
30
0
41
1
10
-1.99503997793928
20
-13.8907947247769
30
0
41
1
10
-1.99503997793928
20
-13.7813876415877
30
0
41
1
10
-1.99503997793928
20
-13.6334713769854
30
0
41
1
10
-1.99503997793928
20
-13.482790135872
30
0
41
1
10
-1.99503997793928
20
-13.328990109671
30
0
41
1
10
-1.99503997793928
20
-13.2122307400427
30
0
41
1
10
-1.99503997793928
20
-13.09401974916
30
0
41
1
10
-1.99503997793928
20
-12.9344093145834
30
0
41
1
10
-1.99503997793928
20
-12.7721223429484
30
0
41
1
10
-1.99503997793928
20
-12.606768466692
30
0
41
1
10
-1.99503997793928
20
-12.4813812679684
30
0
41
1
10
-1.99503997793928
20
-12.3545748152048
30
0
41
1
10
-1.99503997793928
20
-12.1835401119863
30
0
41
1
10
-1.99503997793928
20
-12.0099077332894
30
0
41
1
10
-1.99503997793928
20
-11.8332480165124
30
0
41
1
10
-1.99503997793928
20
-11.6547268261542
30
0
41
1
10
-1.99503997793928
20
-11.4282697000141
30
0
41
1
10
-1.99503997793928
20
-11.1972001365959
30
0
41
1
10
-1.99503997793928
20
-11.00944356136
30
0
41
1
10
-1.99503997793928
20
-10.8198574498995
30
0
41
1
10
-1.99503997793928
20
-10.627787937013
30
0
41
1
10
-1.99503997793928
20
-10.4327334855784
30
0
41
1
10
-1.99503997793928
20
-10.2851499168301
30
0
41
1
10
-1.99503997793928
20
-10.13621047024
30
0
41
1
10
-1.99503997793928
20
-9.98591879047714
30
0
41
1
10
-1.99503997793928
20
-9.83427692622885
30
0
41
1
10
-1.99503997793928
20
-9.63019833168175
30
0
41
1
10
-1.99503997793928
20
-9.37195865327328
30
0
41
1
10
-1.99503997793928
20
-9.1092571782612
30
0
41
1
10
-1.99503997793928
20
-8.89624559944801
30
0
41
1
10
-1.99503997793928
20
-8.73523611643316
30
0
41
1
10
-1.99503997793928
20
-8.57289871794615
30
0
41
1
10
-1.99503997793928
20
-8.40923673354897
30
0
41
1
10
-1.99503997793928
20
-8.24425232954013
30
0
41
1
10
-1.99503997793928
20
-8.0224014648056
30
0
41
1
10
-1.99503997793928
20
-7.7420578132905
30
0
41
1
10
-1.99503997793928
20
-7.40025290593451
30
0
41
1
10
-1.99503997793928
20
-7.11118461088941
30
0
41
1
10
-1.99503997793928
20
-6.87709665618266
30
0
41
1
10
-1.99503997793928
20
-6.70033531356589
30
0
41
1
10
-1.99503997793928
20
-6.52228078287743
30
0
41
1
10
-1.99503997793928
20
-6.3429370741791
30
0
41
1
10
-1.99503997793928
20
-6.16230788845579
30
0
41
1
10
-1.99503997793928
20
-5.98039789106801
30
0
41
1
10
-1.99503997793928
20
-5.79721186805691
30
0
41
1
10
-1.99503997793928
20
-5.61275496243289
30
0
41
1
10
-1.99503997793928
20
-5.42703270327695
30
0
41
1
10
-1.99503997793928
20
-5.24005175731475
30
0
41
1
10
-1.99503997793928
20
-5.05181945337139
30
0
41
1
10
-1.99503997793928
20
-4.86234332329403
30
0
41
1
10
-1.99503997793928
20
-4.67163207713236
30
0
41
1
10
-1.99503997793928
20
-4.47969614999016
30
0
41
1
10
-1.99503997793928
20
-4.28654656517494
30
0
41
1
10
-1.99503997793928
20
-4.09219634432211
30
0
41
1
10
-1.99503997793928
20
-3.92934661081907
30
0
41
1
10
-1.99503997793928
20
-3.7982972967292
30
0
41
1
10
-1.99503997793928
20
-3.69979994526253
30
0
41
1
10
-1.99503997793928
20
-3.6010147061962
30
0
41
1
10
-1.99503997793928
20
-3.46881385164499
30
0
41
1
10
-1.99503997793928
20
-3.30310841087518
30
0
41
1
10
-1.99503997793928
20
-3.13647579824178
30
0
41
1
10
-1.99503997793928
20
-3.00241852965871
30
0
41
1
10
-1.99503997793928
20
-2.90170218623106
30
0
41
1
10
-1.99503997793928
20
-2.80072442890969
30
0
41
1
10
-1.99503997793928
20
-2.69948931487846
30
0
41
1
10
-1.99503997793928
20
-2.5980019734576
30
0
41
1
10
-1.99503997793928
20
-2.46222694501739
30
0
41
1
10
-1.99503997793928
20
-2.3263670801044
30
0
41
1
10
-1.99503997793928
20
-2.18963187963746
30
0
41
1
10
-1.99503997793928
20
-2.08696367451518
30
0
41
1
10
-1.99503997793928
20
-1.98407765086858
30
0
41
1
10
-1.99503997793928
20
-1.88098143773604
30
0
41
1
10
-1.99503997793928
20
-1.77768276547397
30
0
41
1
10
-1.99503997793928
20
-1.67418894734925
30
0
41
1
10
-1.99503997793928
20
-1.57050946303122
30
0
41
1
10
-1.99503997793928
20
-1.46665209995737
30
0
41
1
10
-1.99503997793928
20
-1.36262724011792
30
0
41
1
10
-1.99503997793928
20
-1.25844372920938
30
0
41
1
10
-1.99503997793928
20
-1.15411255471386
30
0
41
1
10
-1.99503997793928
20
-1.04964378000579
30
0
41
1
10
-1.99503997793928
20
-0.945048899580655
30
0
41
1
10
-1.99503997793928
20
-0.840338961204225
30
0
41
1
10
-1.99503997793928
20
-0.735526073032332
30
0
41
1
10
-1.99503997793928
20
-0.630622105582688
30
0
41
1
10
-1.99503997793928
20
-0.525639721157262
30
0
41
1
10
-1.99503997793928
20
-0.420591350928703
30
0
41
1
10
-1.99503997793928
20
-0.315490126623814
30
0
41
1
10
-1.99503997793928
20
-0.210348939519435
30
0
41
1
10
-1.99503997793928
20
-0.105181165306249
30
0
41
1
10
-1.99503997793928
20
2.6093687E-09
30
0
41
1
10
-1.99503997793928
20
0.10518117389941
30
0
41
1
10
-1.99503997793928
20
0.21034895445402
30
0
41
1
10
-1.99503997793928
20
0.315490140896543
30
0
41
1
10
-1.99503997793928
20
0.420591355720489
30
0
41
1
10
-1.99503997793928
20
0.525639723935797
30
0
41
1
10
-1.99503997793928
20
0.630622120770227
30
0
41
1
10
-1.99503997793928
20
0.735526093018507
30
0
41
1
10
-1.99503997793928
20
0.840338966235578
30
0
41
1
10
-1.99503997793928
20
0.945048896197648
30
0
41
1
10
-1.99503997793928
20
1.04964379294299
30
0
41
1
10
-1.99503997793928
20
1.15411258033262
30
0
41
1
10
-1.99503997793928
20
1.25844373877697
30
0
41
1
10
-1.99503997793928
20
1.36262723194542
30
0
41
1
10
-1.99503997793928
20
1.46665210416356
30
0
41
1
10
-1.99503997793928
20
1.57050948928742
30
0
41
1
10
-1.99503997793928
20
1.67418896894682
30
0
41
1
10
-1.99503997793928
20
1.77768276258209
30
0
41
1
10
-1.99503997793928
20
1.88098142742643
30
0
41
1
10
-1.99503997793928
20
1.98407766278629
30
0
41
1
10
-1.99503997793928
20
2.08696370566375
30
0
41
1
10
-1.99503997793928
20
2.18963189754737
30
0
41
1
10
-1.99503997793928
20
2.29207637206397
30
0
41
1
10
-1.99503997793928
20
2.39428973936722
30
0
41
1
10
-1.99503997793928
20
2.49626703199883
30
0
41
1
10
-1.99503997793928
20
2.59800197223717
30
0
41
1
10
-1.99503997793928
20
2.73345090264118
30
0
41
1
10
-1.99503997793928
20
2.86801083241156
30
0
41
1
10
-1.99503997793928
20
3.00241855173454
30
0
41
1
10
-1.99503997793928
20
3.13647582573117
30
0
41
1
10
-1.99503997793928
20
3.30310842941955
30
0
41
1
10
-1.99503997793928
20
3.46881383607317
30
0
41
1
10
-1.99503997793928
20
3.60101470543907
30
0
41
1
10
-1.99503997793928
20
3.69979996514493
30
0
41
1
10
-1.99503997793928
20
3.79829732832764
30
0
41
1
10
-1.99503997793928
20
3.92934662557204
30
0
41
1
10
-1.99503997793928
20
4.09219631216948
30
0
41
1
10
-1.99503997793928
20
4.28654650347451
30
0
41
1
10
-1.99503997793928
20
4.47969611179559
30
0
41
1
10
-1.99503997793928
20
4.67163198724225
30
0
41
1
10
-1.99503997793928
20
4.86234315765492
30
0
41
1
10
-1.99503997793928
20
5.05181944357969
30
0
41
1
10
-1.99503997793928
20
5.24005183821342
30
0
41
1
10
-1.99503997793928
20
5.42703263168386
30
0
41
1
10
-1.99503997793928
20
5.61275497462711
30
0
41
1
10
-1.99503997793928
20
5.79721217482029
30
0
41
1
10
-1.99503997793928
20
5.98039819956611
30
0
41
1
10
-1.99503997793928
20
6.16230794338162
30
0
41
1
10
-1.99503997793928
20
6.34293700639154
30
0
41
1
10
-1.99503997793928
20
6.52228076981257
30
0
41
1
10
-1.99503997793928
20
6.70033533418757
30
0
41
1
10
-1.99503997793928
20
6.87709665926303
30
0
41
1
10
-1.99503997793928
20
7.11118459991687
30
0
41
1
10
-1.99503997793928
20
7.40025292645402
30
0
41
1
10
-1.99503997793928
20
7.74205781809903
30
0
41
1
10
-1.99503997793928
20
8.02240145976876
30
0
41
1
10
-1.99503997793928
20
8.24425235284596
30
0
41
1
10
-1.99503997793928
20
8.40923674956807
30
0
41
1
10
-1.99503997793928
20
8.57289871422529
30
0
41
1
10
-1.99503997793928
20
8.73523610803539
30
0
41
1
10
-1.99503997793928
20
8.89624560664996
30
0
41
1
10
-1.99503997793928
20
9.10925720032841
30
0
41
1
10
-1.99503997793928
20
9.37195865915049
30
0
41
1
10
-1.99503997793928
20
9.6301983246166
30
0
41
1
10
-1.99503997793928
20
9.83427694277646
30
0
41
1
10
-1.99503997793928
20
9.98591881051331
30
0
41
1
10
-1.99503997793928
20
10.1362104789651
30
0
41
1
10
-1.99503997793928
20
10.2851499142426
30
0
41
1
10
-1.99503997793928
20
10.432733482583
30
0
41
1
10
-1.99503997793928
20
10.6277879483349
30
0
41
1
10
-1.99503997793928
20
10.8198574709635
30
0
41
1
10
-1.99503997793928
20
11.0094435667743
30
0
41
1
10
-1.99503997793928
20
11.1972001338813
30
0
41
1
10
-1.99503997793928
20
11.4282697094187
30
0
41
1
10
-1.99503997793928
20
11.6547268446385
30
0
41
1
10
-1.99503997793928
20
11.8332480225582
30
0
41
1
10
-1.99503997793928
20
12.0099077334538
30
0
41
1
10
-1.99503997793928
20
12.1835401209566
30
0
41
1
10
-1.99503997793928
20
12.3545748313203
30
0
41
1
10
-1.99503997793928
20
12.4813812819682
30
0
41
1
10
-1.99503997793928
20
12.6067684751262
30
0
41
1
10
-1.99503997793928
20
12.7721223466594
30
0
41
1
10
-1.99503997793928
20
12.9344093235711
30
0
41
1
10
-1.99503997793928
20
13.0940197637218
30
0
41
1
10
-1.99503997793928
20
13.2122307543484
30
0
41
1
10
-1.99503997793928
20
13.3289901210133
30
0
41
1
10
-1.99503997793928
20
13.4827901435456
30
0
41
1
10
-1.99503997793928
20
13.6334713858817
30
0
41
1
10
-1.99503997793928
20
13.7813876543746
30
0
41
1
10
-1.99503997793928
20
13.8907947392413
30
0
41
1
10
-1.99503997793928
20
13.99871189727
30
0
41
1
10
-1.99503997793928
20
14.1406647319193
30
0
41
1
10
-1.99503997793928
20
14.2794333813788
30
0
41
1
10
-1.99503997793928
20
14.4153366880849
30
0
41
1
10
-1.99503997793928
20
14.5156939237825
30
0
41
1
10
-1.99503997793928
20
14.614516060936
30
0
41
1
10
-1.99503997793928
20
14.7442755571137
30
0
41
1
10
-1.99503997793928
20
14.8707702595594
30
0
41
1
10
-1.99503997793928
20
14.9942845913974
30
0
41
1
10
-1.99503997793928
20
15.070107125687
30
0
41
1
10
-1.99503997793928
20
15.130016414734
30
0
41
1
10
-1.99503997793928
20
15.1893946011099
30
0
41
1
10
-1.99503997793928
20
15.2918890331241
30
0
41
1
10
-1.99503997793928
20
15.4056838559475
30
0
41
1
10
-1.99503997793928
20
15.5163656330196
30
0
41
1
10
-1.99503997793928
20
15.5977008570348
30
0
41
1
10
-1.99503997793928
20
15.677384979663
30
0
41
1
10
-1.99503997793928
20
15.781458474053
30
0
41
1
10
-1.99503997793928
20
15.8820499896637
30
0
41
1
10
-1.99503997793928
20
15.9793734967038
30
0
41
1
10
-1.99503997793928
20
16.0506207879892
30
0
41
1
10
-1.99503997793928
20
16.1201424632647
30
0
41
1
10
-1.99503997793928
20
16.1879246525291
30
0
41
1
10
-1.99503997793928
20
16.2539521307207
30
0
41
1
10
-1.99503997793928
20
16.3182114280861
30
0
41
1
10
-1.99503997793928
20
16.3806869997558
30
0
41
1
10
-1.99503997793928
20
16.4616240235723
30
0
41
1
10
-1.99503997793928
20
16.538824252381
30
0
41
1
10
-1.99503997793928
20
16.6124299668847
30
0
41
1
10
-1.99503997793928
20
16.6835453043615
30
0
41
1
10
-1.99503997793928
20
16.7507930080793
30
0
41
1
10
-1.99503997793928
20
16.8142877377232
30
0
41
1
10
-1.99503997793928
20
16.8751872797734
30
0
41
1
10
-1.99503997793928
20
16.9320728583858
30
0
41
1
10
-1.99503997793928
20
16.9850205784631
30
0
41
1
10
-1.99503997793928
20
17.0226788299273
30
0
41
1
10
-1.99503997793928
20
17.0582791544304
30
0
41
1
10
-1.99503997793928
20
17.1029924178939
30
0
41
1
10
-1.99503997793928
20
17.1434240170936
30
0
41
1
10
-1.99503997793928
20
17.1795896288677
30
0
41
1
10
-1.99503997793928
20
17.204505416066
30
0
41
1
10
-1.99503997793928
20
17.2271975480507
30
0
41
1
10
-1.99503997793928
20
17.2476335178127
30
0
41
1
10
-1.99503997793928
20
17.2657806121613
30
0
41
1
10
-1.99503997793928
20
17.2816041393821
30
0
41
1
10
-1.99503997793928
20
17.2950677779805
30
0
41
1
10
-1.99503997793928
20
17.3061342543252
30
0
41
1
10
-1.99503997793928
20
17.3147637210185
30
0
41
1
10
-1.99503997793928
20
17.3189468551844
30
0
41
1
10
-1.99503997793926
20
17.3206249260582
30
0
41
1
10
-1.99503997793926
20
17.3206887883549
30
0
0
SPLINE
5
155
100
AcDbEntity
8
SK1
62
256
6
ByLayer
370
18
48
1
60
0
100
AcDbSpline
70
4
71
3
72
282
73
278
40
0
40
0
40
0
40
0
40
0.0031455789259344
40
0.0067200705911304
40
0.0102945622563263
40
0.0138690539215222
40
0.0174435455867181
40
0.0210180372519141
40
0.02459252891711
40
0.0281670205823059
40
0.0317415122475019
40
0.0353160039126978
40
0.0424649872430896
40
0.0460394789082856
40
0.0496139705734815
40
0.0531884622386774
40
0.0567629539038734
40
0.0639119372342652
40
0.0674864288994611
40
0.0710609205646571
40
0.0782099038950489
40
0.0817843955602449
40
0.0853588872254408
40
0.0925078705558326
40
0.0960823622210286
40
0.0996568538862245
40
0.10323134555142
40
0.106805837216616
40
0.110380328881812
40
0.113954820547008
40
0.117529312212204
40
0.1211038038774
40
0.128252787207792
40
0.131827278872988
40
0.135401770538184
40
0.13897626220338
40
0.142550753868576
40
0.149699737198968
40
0.153274228864163
40
0.156848720529359
40
0.160423212194555
40
0.163997703859751
40
0.171146687190143
40
0.174721178855339
40
0.178295670520535
40
0.181870162185731
40
0.185444653850927
40
0.192593637181319
40
0.196168128846515
40
0.19974262051171
40
0.203317112176906
40
0.206891603842102
40
0.214040587172494
40
0.21761507883769
40
0.221189570502886
40
0.224764062168082
40
0.228338553833278
40
0.23548753716367
40
0.239062028828866
40
0.242636520494062
40
0.246211012159258
40
0.249785503824453
40
0.256934487154845
40
0.260508978820041
40
0.264083470485237
40
0.271232453815629
40
0.278381437146021
40
0.281955928811217
40
0.285530420476413
40
0.292679403806805
40
0.296253895472001
40
0.299828387137197
40
0.303402878802392
40
0.306977370467588
40
0.310551862132784
40
0.31412635379798
40
0.321275337128372
40
0.328424320458764
40
0.33199881212396
40
0.335573303789156
40
0.339147795454352
40
0.342722287119548
40
0.346296778784744
40
0.349871270449939
40
0.357020253780331
40
0.364169237110723
40
0.371318220441115
40
0.374892712106311
40
0.378467203771507
40
0.382041695436703
40
0.385616187101899
40
0.389190678767095
40
0.392765170432291
40
0.396339662097487
40
0.399914153762683
40
0.403488645427878
40
0.407063137093074
40
0.41063762875827
40
0.414212120423466
40
0.417786612088662
40
0.421361103753858
40
0.424935595419054
40
0.42851008708425
40
0.432084578749446
40
0.433871824582044
40
0.435659070414642
40
0.43744631624724
40
0.439233562079838
40
0.442808053745034
40
0.44638254541023
40
0.448169791242828
40
0.449957037075426
40
0.451744282908023
40
0.453531528740622
40
0.455318774573219
40
0.457106020405817
40
0.460680512071013
40
0.462467757903611
40
0.464255003736209
40
0.466042249568807
40
0.467829495401405
40
0.469616741234003
40
0.471403987066601
40
0.473191232899199
40
0.474978478731797
40
0.476765724564395
40
0.478552970396993
40
0.480340216229591
40
0.482127462062189
40
0.483914707894787
40
0.485701953727385
40
0.487489199559983
40
0.489276445392581
40
0.491063691225179
40
0.492850937057777
40
0.494638182890375
40
0.496425428722973
40
0.498212674555571
40
0.499999920388168
40
0.501787166220767
40
0.503574412053365
40
0.505361657885962
40
0.50714890371856
40
0.508936149551158
40
0.510723395383756
40
0.512510641216354
40
0.514297887048952
40
0.51608513288155
40
0.517872378714148
40
0.519659624546746
40
0.521446870379344
40
0.523234116211942
40
0.52502136204454
40
0.526808607877138
40
0.528595853709736
40
0.530383099542334
40
0.532170345374932
40
0.53395759120753
40
0.535744837040128
40
0.537532082872726
40
0.539319328705324
40
0.541106574537922
40
0.54289382037052
40
0.544681066203118
40
0.546468312035716
40
0.550042803700912
40
0.55183004953351
40
0.553617295366107
40
0.557191787031303
40
0.560766278696499
40
0.562553524529097
40
0.564340770361695
40
0.566128016194293
40
0.567915262026891
40
0.571489753692087
40
0.575064245357283
40
0.578638737022479
40
0.582213228687675
40
0.585787720352871
40
0.589362212018067
40
0.592936703683263
40
0.596511195348459
40
0.600085687013655
40
0.60366017867885
40
0.607234670344046
40
0.610809162009242
40
0.614383653674438
40
0.617958145339634
40
0.62153263700483
40
0.625107128670026
40
0.628681620335222
40
0.635830603665614
40
0.642979586996006
40
0.650128570326398
40
0.653703061991594
40
0.657277553656789
40
0.660852045321985
40
0.664426536987181
40
0.668001028652377
40
0.671575520317573
40
0.678724503647965
40
0.685873486978357
40
0.689447978643553
40
0.693022470308749
40
0.696596961973945
40
0.700171453639141
40
0.703745945304337
40
0.707320436969533
40
0.714469420299924
40
0.71804391196512
40
0.721618403630316
40
0.728767386960708
40
0.7359163702911
40
0.739490861956296
40
0.743065353621492
40
0.750214336951884
40
0.753788828617079
40
0.757363320282275
40
0.760937811947471
40
0.764512303612667
40
0.771661286943059
40
0.775235778608255
40
0.778810270273451
40
0.782384761938647
40
0.785959253603843
40
0.793108236934235
40
0.796682728599431
40
0.800257220264627
40
0.803831711929822
40
0.807406203595018
40
0.81455518692541
40
0.818129678590606
40
0.821704170255802
40
0.825278661920998
40
0.828853153586194
40
0.836002136916586
40
0.839576628581782
40
0.843151120246978
40
0.844938366079576
40
0.846725611912174
40
0.85030010357737
40
0.857449086907761
40
0.861023578572957
40
0.864598070238153
40
0.868172561903349
40
0.871747053568545
40
0.878896036898937
40
0.882470528564133
40
0.886045020229329
40
0.889619511894525
40
0.893194003559721
40
0.896768495224917
40
0.900342986890113
40
0.903917478555309
40
0.907491970220504
40
0.914640953550896
40
0.918215445216092
40
0.921789936881288
40
0.92893892021168
40
0.932513411876876
40
0.936087903542072
40
0.943236886872464
40
0.94681137853766
40
0.950385870202856
40
0.953960361868052
40
0.957534853533247
40
0.964683836863639
40
0.968258328528835
40
0.971832820194031
40
0.975407311859227
40
0.978981803524423
40
0.982556295189619
40
0.986130786854815
40
0.989705278520011
40
0.993279770185207
40
0.996854261850403
40
1
40
1
40
1
40
1
41
1
10
-2.19999999999996
20
-17.5147448898181
30
0
41
1
10
-2.19999999999996
20
-17.5132050221523
30
0
41
1
10
-2.19999999999996
20
-17.5092143226125
30
0
41
1
10
-2.19999999999999
20
-17.5008423359265
30
0
41
1
10
-2.19999999999999
20
-17.4896606050755
30
0
41
1
10
-2.19999999999999
20
-17.4760589345483
30
0
41
1
10
-2.19999999999999
20
-17.4600756660116
30
0
41
1
10
-2.19999999999999
20
-17.4417480829298
30
0
41
1
10
-2.19999999999999
20
-17.4211116708093
30
0
41
1
10
-2.19999999999999
20
-17.3981999720817
30
0
41
1
10
-2.19999999999999
20
-17.373046254225
30
0
41
1
10
-2.19999999999999
20
-17.3365615480365
30
0
41
1
10
-2.19999999999999
20
-17.2957083393221
30
0
41
1
10
-2.19999999999999
20
-17.2506132986913
30
0
41
1
10
-2.19999999999999
20
-17.2146924230801
30
0
41
1
10
-2.19999999999999
20
-17.1766986759847
30
0
41
1
10
-2.19999999999999
20
-17.1233138560685
30
0
41
1
10
-2.19999999999999
20
-17.0658713749173
30
0
41
1
10
-2.19999999999999
20
-17.0044820563696
30
0
41
1
10
-2.19999999999999
20
-16.9404819965209
30
0
41
1
10
-2.19999999999999
20
-16.8725984751516
30
0
41
1
10
-2.19999999999999
20
-16.8009296734765
30
0
41
1
10
-2.19999999999999
20
-16.72675615712
30
0
41
1
10
-2.19999999999999
20
-16.6488472996884
30
0
41
1
10
-2.19999999999999
20
-16.5672977573629
30
0
41
1
10
-2.19999999999999
20
-16.5043209819811
30
0
41
1
10
-2.19999999999999
20
-16.4395493732765
30
0
41
1
10
-2.19999999999999
20
-16.3729983406747
30
0
41
1
10
-2.19999999999999
20
-16.3046816133433
30
0
41
1
10
-2.19999999999999
20
-16.2346146587631
30
0
41
1
10
-2.19999999999999
20
-16.1628111167189
30
0
41
1
10
-2.19999999999999
20
-16.0647793469533
30
0
41
1
10
-2.19999999999999
20
-15.9633134995801
30
0
41
1
10
-2.19999999999999
20
-15.8584913887799
30
0
41
1
10
-2.19999999999999
20
-15.7781982427732
30
0
41
1
10
-2.19999999999999
20
-15.6962433497342
30
0
41
1
10
-2.19999999999999
20
-15.5847743861311
30
0
41
1
10
-2.19999999999999
20
-15.4700110710185
30
0
41
1
10
-2.19999999999999
20
-15.3520264687641
30
0
41
1
10
-2.19999999999999
20
-15.2619258251736
30
0
41
1
10
-2.19999999999999
20
-15.1702262286607
30
0
41
1
10
-2.19999999999999
20
-15.0458463802595
30
0
41
1
10
-2.19999999999999
20
-14.9182892137509
30
0
41
1
10
-2.19999999999999
20
-14.7876243835494
30
0
41
1
10
-2.19999999999999
20
-14.6880675684927
30
0
41
1
10
-2.19999999999999
20
-14.5869647024964
30
0
41
1
10
-2.19999999999999
20
-14.4501162009323
30
0
41
1
10
-2.19999999999999
20
-14.310188578504
30
0
41
1
10
-2.19999999999999
20
-14.1672492498436
30
0
41
1
10
-2.19999999999999
20
-14.0585319196999
30
0
41
1
10
-2.19999999999999
20
-13.9483131149779
30
0
41
1
10
-2.19999999999999
20
-13.7993681823229
30
0
41
1
10
-2.19999999999999
20
-13.6474264445925
30
0
41
1
10
-2.19999999999999
20
-13.4925540283558
30
0
41
1
10
-2.19999999999999
20
-13.3749248852381
30
0
41
1
10
-2.19999999999999
20
-13.2558316845062
30
0
41
1
10
-2.19999999999999
20
-13.0951031858018
30
0
41
1
10
-2.19999999999999
20
-12.9314463879873
30
0
41
1
10
-2.19999999999999
20
-12.7649271524075
30
0
41
1
10
-2.19999999999999
20
-12.6385945304865
30
0
41
1
10
-2.19999999999999
20
-12.510828990928
30
0
41
1
10
-2.19999999999999
20
-12.3385783725546
30
0
41
1
10
-2.19999999999999
20
-12.1634558634281
30
0
41
1
10
-2.19999999999999
20
-11.9855279960913
30
0
41
1
10
-2.19999999999999
20
-11.8057193844339
30
0
41
1
10
-2.19999999999999
20
-11.5774197426994
30
0
41
1
10
-2.19999999999999
20
-11.3444552561941
30
0
41
1
10
-2.19999999999999
20
-11.1553144466797
30
0
41
1
10
-2.19999999999999
20
-10.96432157968
30
0
41
1
10
-2.19999999999999
20
-10.7705258372791
30
0
41
1
10
-2.19999999999999
20
-10.5740001677826
30
0
41
1
10
-2.19999999999999
20
-10.4252200954492
30
0
41
1
10
-2.19999999999999
20
-10.2750653600417
30
0
41
1
10
-2.19999999999999
20
-10.1235384488298
30
0
41
1
10
-2.19999999999999
20
-9.97064122920807
30
0
41
1
10
-2.19999999999999
20
-9.76496631801302
30
0
41
1
10
-2.19999999999999
20
-9.50443392738597
30
0
41
1
10
-2.19999999999999
20
-9.23936570098886
30
0
41
1
10
-2.19999999999999
20
-9.02461799380217
30
0
41
1
10
-2.19999999999999
20
-8.86219304475887
30
0
41
1
10
-2.19999999999999
20
-8.69841428000512
30
0
41
1
10
-2.19999999999999
20
-8.53328405958746
30
0
41
1
10
-2.19999999999999
20
-8.36680339868337
30
0
41
1
10
-2.19999999999999
20
-8.14304412571011
30
0
41
1
10
-2.19999999999999
20
-7.85994707617317
30
0
41
1
10
-2.19999999999999
20
-7.51487111531026
30
0
41
1
10
-2.19999999999999
20
-7.22282329277962
30
0
41
1
10
-2.19999999999999
20
-6.98653548716825
30
0
41
1
10
-2.19999999999999
20
-6.80797157864473
30
0
41
1
10
-2.19999999999999
20
-6.62807270531451
30
0
41
1
10
-2.19999999999999
20
-6.44684086969582
30
0
41
1
10
-2.19999999999999
20
-6.26427776637016
30
0
41
1
10
-2.19999999999999
20
-6.0803858592752
30
0
41
1
10
-2.19999999999999
20
-5.89516728223867
30
0
41
1
10
-2.19999999999999
20
-5.70862469092603
30
0
41
1
10
-2.19999999999999
20
-5.52076103085633
30
0
41
1
10
-2.19999999999999
20
-5.33157993388585
30
0
41
1
10
-2.19999999999999
20
-5.14108511996025
30
0
41
1
10
-2.19999999999999
20
-4.94928086714648
30
0
41
1
10
-2.19999999999999
20
-4.75617251627347
30
0
41
1
10
-2.19999999999999
20
-4.56176620564526
30
0
41
1
10
-2.19999999999999
20
-4.36606873641344
30
0
41
1
10
-2.19999999999999
20
-4.16908849962459
30
0
41
1
10
-2.19999999999999
20
-4.00386590607064
30
0
41
1
10
-2.19999999999999
20
-3.87107810854147
30
0
41
1
10
-2.19999999999999
20
-3.77116418570387
30
0
41
1
10
-2.19999999999999
20
-3.67093805129474
30
0
41
1
10
-2.19999999999999
20
-3.5369018254882
30
0
41
1
10
-2.19999999999999
20
-3.36855658184018
30
0
41
1
10
-2.19999999999999
20
-3.19919951970698
30
0
41
1
10
-2.19999999999999
20
-3.06314133422208
30
0
41
1
10
-2.19999999999999
20
-2.96079189341756
30
0
41
1
10
-2.19999999999999
20
-2.85815023786418
30
0
41
1
10
-2.19999999999999
20
-2.75522026664268
30
0
41
1
10
-2.19999999999999
20
-2.65200561172494
30
0
41
1
10
-2.19999999999999
20
-2.51402705629772
30
0
41
1
10
-2.19999999999999
20
-2.375450816946
30
0
41
1
10
-2.19999999999999
20
-2.23639085040648
30
0
41
1
10
-2.19999999999999
20
-2.13182395998015
30
0
41
1
10
-2.19999999999999
20
-2.02700348752293
30
0
41
1
10
-2.19999999999999
20
-1.92193653735015
30
0
41
1
10
-2.19999999999999
20
-1.81663008016324
30
0
41
1
10
-2.19999999999999
20
-1.71109231328518
30
0
41
1
10
-2.19999999999999
20
-1.60533155404698
30
0
41
1
10
-2.19999999999999
20
-1.49935698477981
30
0
41
1
10
-2.19999999999999
20
-1.39317847233161
30
0
41
1
10
-2.19999999999999
20
-1.28680633401083
30
0
41
1
10
-2.19999999999999
20
-1.18025197439016
30
0
41
1
10
-2.19999999999999
20
-1.073527020087
30
0
41
1
10
-2.19999999999999
20
-0.96664434311532
30
0
41
1
10
-2.19999999999999
20
-0.859616995486334
30
0
41
1
10
-2.19999999999999
20
-0.752459219961509
30
0
41
1
10
-2.19999999999999
20
-0.645185453734172
30
0
41
1
10
-2.19999999999999
20
-0.537811163545626
30
0
41
1
10
-2.19999999999999
20
-0.430352024765995
30
0
41
1
10
-2.19999999999999
20
-0.322824496958617
30
0
41
1
10
-2.19999999999999
20
-0.215245213108545
30
0
41
1
10
-2.19999999999999
20
-0.107631302158183
30
0
41
1
10
-2.19999999999999
20
5.9909553E-09
30
0
41
1
10
-2.19999999999999
20
0.107631313716837
30
0
41
1
10
-2.19999999999999
20
0.21524522393176
30
0
41
1
10
-2.19999999999999
20
0.322824507999513
30
0
41
1
10
-2.19999999999999
20
0.430352036900842
30
0
41
1
10
-2.19999999999999
20
0.537811175438549
30
0
41
1
10
-2.19999999999999
20
0.645185463980482
30
0
41
1
10
-2.19999999999999
20
0.752459230354134
30
0
41
1
10
-2.19999999999999
20
0.859617007920519
30
0
41
1
10
-2.19999999999999
20
0.966644355262389
30
0
41
1
10
-2.19999999999999
20
1.07352702949097
30
0
41
1
10
-2.19999999999999
20
1.18025198377217
30
0
41
1
10
-2.19999999999999
20
1.2868063464968
30
0
41
1
10
-2.19999999999999
20
1.39317848503856
30
0
41
1
10
-2.19999999999999
20
1.49935699380708
30
0
41
1
10
-2.19999999999999
20
1.60533156181745
30
0
41
1
10
-2.19999999999999
20
1.71109232444707
30
0
41
1
10
-2.19999999999999
20
1.81663009373557
30
0
41
1
10
-2.19999999999999
20
1.92193654804359
30
0
41
1
10
-2.19999999999999
20
2.02700349385552
30
0
41
1
10
-2.19999999999999
20
2.13182396747069
30
0
41
1
10
-2.19999999999999
20
2.23639086291988
30
0
41
1
10
-2.19999999999999
20
2.34069812940876
30
0
41
1
10
-2.19999999999999
20
2.44473977839391
30
0
41
1
10
-2.19999999999999
20
2.54851063247165
30
0
41
1
10
-2.19999999999999
20
2.65200559968281
30
0
41
1
10
-2.19999999999999
20
2.78960994504098
30
0
41
1
10
-2.19999999999999
20
2.92668912429065
30
0
41
1
10
-2.19999999999999
20
3.06314133551615
30
0
41
1
10
-2.19999999999999
20
3.19919952332836
30
0
41
1
10
-2.19999999999999
20
3.36855659963138
30
0
41
1
10
-2.19999999999999
20
3.53690183437428
30
0
41
1
10
-2.19999999999999
20
3.67093805397229
30
0
41
1
10
-2.19999999999999
20
3.77116418775421
30
0
41
1
10
-2.19999999999999
20
3.87107811616198
30
0
41
1
10
-2.19999999999999
20
4.00386592221614
30
0
41
1
10
-2.19999999999999
20
4.169088511784
30
0
41
1
10
-2.19999999999999
20
4.36606871643775
30
0
41
1
10
-2.19999999999999
20
4.56176617271484
30
0
41
1
10
-2.19999999999999
20
4.75617249379653
30
0
41
1
10
-2.19999999999999
20
4.94928076863457
30
0
41
1
10
-2.19999999999999
20
5.14108500618136
30
0
41
1
10
-2.19999999999999
20
5.33157993903225
30
0
41
1
10
-2.19999999999999
20
5.52076102284181
30
0
41
1
10
-2.19999999999999
20
5.70862461825791
30
0
41
1
10
-2.19999999999999
20
5.89516734859464
30
0
41
1
10
-2.19999999999999
20
6.0803860968085
30
0
41
1
10
-2.19999999999999
20
6.26427796235188
30
0
41
1
10
-2.19999999999999
20
6.44684092947378
30
0
41
1
10
-2.19999999999999
20
6.62807271786153
30
0
41
1
10
-2.19999999999999
20
6.80797159432129
30
0
41
1
10
-2.19999999999999
20
6.98653550324826
30
0
41
1
10
-2.19999999999999
20
7.22282328452872
30
0
41
1
10
-2.19999999999999
20
7.51487112820209
30
0
41
1
10
-2.19999999999999
20
7.85994708827315
30
0
41
1
10
-2.19999999999999
20
8.14304411844034
30
0
41
1
10
-2.19999999999999
20
8.36680341033821
30
0
41
1
10
-2.19999999999999
20
8.53328407858575
30
0
41
1
10
-2.19999999999999
20
8.69841428877766
30
0
41
1
10
-2.19999999999999
20
8.86219304073114
30
0
41
1
10
-2.19999999999999
20
9.02461799205523
30
0
41
1
10
-2.19999999999999
20
9.23936571773672
30
0
41
1
10
-2.19999999999999
20
9.50443394039922
30
0
41
1
10
-2.19999999999999
20
9.76496631110049
30
0
41
1
10
-2.19999999999999
20
9.97064123613964
30
0
41
1
10
-2.19999999999999
20
10.123538466054
30
0
41
1
10
-2.19999999999999
20
10.2750653748105
30
0
41
1
10
-2.19999999999999
20
10.4252201002359
30
0
41
1
10
-2.19999999999999
20
10.5740001651574
30
0
41
1
10
-2.19999999999999
20
10.7705258416001
30
0
41
1
10
-2.19999999999999
20
10.9643215989582
30
0
41
1
10
-2.19999999999999
20
11.1553144582602
30
0
41
1
10
-2.19999999999999
20
11.3444552554371
30
0
41
1
10
-2.19999999999999
20
11.5774197477568
30
0
41
1
10
-2.19999999999999
20
11.8057194023465
30
0
41
1
10
-2.19999999999999
20
11.9855280067157
30
0
41
1
10
-2.19999999999999
20
12.1634558646821
30
0
41
1
10
-2.19999999999999
20
12.3385783781737
30
0
41
1
10
-2.19999999999999
20
12.510829004708
30
0
41
1
10
-2.19999999999999
20
12.6385945454976
30
0
41
1
10
-2.19999999999999
20
12.7649271637091
30
0
41
1
10
-2.19999999999999
20
12.9314463925932
30
0
41
1
10
-2.19999999999999
20
13.0951031927999
30
0
41
1
10
-2.19999999999999
20
13.2558316973182
30
0
41
1
10
-2.19999999999999
20
13.3749248996582
30
0
41
1
10
-2.19999999999999
20
13.4925540411334
30
0
41
1
10
-2.19999999999999
20
13.6474264531923
30
0
41
1
10
-2.19999999999999
20
13.7993681905533
30
0
41
1
10
-2.19999999999999
20
13.9483131264862
30
0
41
1
10
-2.19999999999999
20
14.0585319334344
30
0
41
1
10
-2.19999999999999
20
14.1672492642274
30
0
41
1
10
-2.19999999999999
20
14.3101885914782
30
0
41
1
10
-2.19999999999999
20
14.4501162106047
30
0
41
1
10
-2.19999999999999
20
14.5869647126432
30
0
41
1
10
-2.19999999999999
20
14.6880675812844
30
0
41
1
10
-2.19999999999999
20
14.7876243995297
30
0
41
1
10
-2.19999999999999
20
14.9182892218295
30
0
41
1
10
-2.19999999999999
20
15.0458464314392
30
0
41
1
10
-2.19999999999999
20
15.1702261509224
30
0
41
1
10
-2.19999999999999
20
15.2466455133785
30
0
41
1
10
-2.19999999999999
20
15.3069761679616
30
0
41
1
10
-2.19999999999999
20
15.3667724139347
30
0
41
1
10
-2.19999999999999
20
15.4700110929875
30
0
41
1
10
-2.19999999999999
20
15.5847743990242
30
0
41
1
10
-2.19999999999999
20
15.6962433571227
30
0
41
1
10
-2.19999999999999
20
15.7781982539187
30
0
41
1
10
-2.19999999999999
20
15.8584914079188
30
0
41
1
10
-2.19999999999999
20
15.9633135259672
30
0
41
1
10
-2.19999999999999
20
16.0647793597711
30
0
41
1
10
-2.19999999999999
20
16.1628111223414
30
0
41
1
10
-2.19999999999999
20
16.2346146707391
30
0
41
1
10
-2.19999999999999
20
16.3046816359758
30
0
41
1
10
-2.19999999999999
20
16.3729983688048
30
0
41
1
10
-2.19999999999999
20
16.439549393056
30
0
41
1
10
-2.19999999999999
20
16.5043209901434
30
0
41
1
10
-2.19999999999999
20
16.5672977619412
30
0
41
1
10
-2.19999999999999
20
16.6488473199257
30
0
41
1
10
-2.19999999999999
20
16.7267561914694
30
0
41
1
10
-2.19999999999999
20
16.8009296884544
30
0
41
1
10
-2.19999999999999
20
16.8725984731112
30
0
41
1
10
-2.19999999999999
20
16.9404820184079
30
0
41
1
10
-2.19999999999999
20
17.0044820909957
30
0
41
1
10
-2.19999999999999
20
17.0658713913631
30
0
41
1
10
-2.19999999999999
20
17.123313852319
30
0
41
1
10
-2.19999999999999
20
17.1766986986672
30
0
41
1
10
-2.19999999999999
20
17.2146924603873
30
0
41
1
10
-2.19999999999999
20
17.250613323192
30
0
41
1
10
-2.19999999999999
20
17.2957083328928
30
0
41
1
10
-2.19999999999999
20
17.3365615705832
30
0
41
1
10
-2.19999999999999
20
17.3730462873428
30
0
41
1
10
-2.19999999999999
20
17.398199993695
30
0
41
1
10
-2.19999999999999
20
17.4211116738093
30
0
41
1
10
-2.19999999999999
20
17.4417480876219
30
0
41
1
10
-2.19999999999999
20
17.4600756994924
30
0
41
1
10
-2.19999999999999
20
17.4760589706817
30
0
41
1
10
-2.19999999999999
20
17.4896606126055
30
0
41
1
10
-2.19999999999999
20
17.5008423321234
30
0
41
1
10
-2.19999999999999
20
17.5092144719208
30
0
41
1
10
-2.20000000000002
20
17.5132052168486
30
0
41
1
10
-2.19999999999999
20
17.5147451091238
30
0
0
SPLINE
5
156
100
AcDbEntity
8
SK1
62
256
6
ByLayer
370
18
48
1
60
0
100
AcDbSpline
70
4
71
3
72
287
73
283
40
0
40
0
40
0
40
0
40
0.0019139616007271
40
0.0054377006297872
40
0.0089614396588473
40
0.0124851786879075
40
0.0160089177169676
40
0.0195326567460278
40
0.0230563957750879
40
0.0265801348041481
40
0.0301038738332083
40
0.0336276128622684
40
0.0371513518913286
40
0.0441988299494488
40
0.047722568978509
40
0.0512463080075691
40
0.0547700470366293
40
0.0582937860656895
40
0.0653412641238097
40
0.0688650031528699
40
0.07238874218193
40
0.0794362202400503
40
0.0829599592691105
40
0.0864836982981707
40
0.093531176356291
40
0.0970549153853512
40
0.100578654414411
40
0.104102393443471
40
0.107626132472531
40
0.111149871501592
40
0.114673610530652
40
0.118197349559712
40
0.121721088588772
40
0.128768566646893
40
0.132292305675953
40
0.135816044705013
40
0.139339783734073
40
0.142863522763133
40
0.149911000821253
40
0.153434739850314
40
0.156958478879374
40
0.160482217908434
40
0.164005956937494
40
0.171053434995614
40
0.174577174024674
40
0.178100913053735
40
0.181624652082795
40
0.185148391111855
40
0.192195869169975
40
0.195719608199035
40
0.199243347228096
40
0.202767086257156
40
0.206290825286216
40
0.213338303344336
40
0.216862042373396
40
0.220385781402456
40
0.223909520431516
40
0.227433259460577
40
0.234480737518697
40
0.238004476547757
40
0.241528215576817
40
0.245051954605877
40
0.248575693634938
40
0.255623171693058
40
0.259146910722118
40
0.262670649751178
40
0.269718127809298
40
0.276765605867419
40
0.280289344896479
40
0.283813083925539
40
0.290860561983659
40
0.29438430101272
40
0.29790804004178
40
0.30143177907084
40
0.3049555180999
40
0.30847925712896
40
0.31200299615802
40
0.319050474216141
40
0.326097952274261
40
0.329621691303321
40
0.333145430332381
40
0.336669169361441
40
0.340192908390501
40
0.343716647419561
40
0.347240386448622
40
0.354287864506742
40
0.361335342564862
40
0.368382820622983
40
0.371906559652043
40
0.375430298681103
40
0.378954037710163
40
0.382477776739223
40
0.386001515768283
40
0.389525254797344
40
0.393048993826404
40
0.396572732855464
40
0.400096471884524
40
0.403620210913584
40
0.407143949942644
40
0.410667688971704
40
0.414191428000765
40
0.417715167029825
40
0.421238906058885
40
0.424762645087945
40
0.428286384117005
40
0.430048253631535
40
0.431810123146065
40
0.433571992660595
40
0.435333862175125
40
0.438857601204185
40
0.442381340233246
40
0.444143209747776
40
0.445905079262306
40
0.447666948776836
40
0.449428818291366
40
0.451190687805896
40
0.452952557320426
40
0.456476296349486
40
0.458238165864016
40
0.460000035378546
40
0.461761904893077
40
0.463523774407607
40
0.465285643922137
40
0.467047513436667
40
0.468809382951197
40
0.470571252465727
40
0.472333121980257
40
0.474094991494787
40
0.475856861009317
40
0.477618730523847
40
0.479380600038377
40
0.481142469552907
40
0.482904339067438
40
0.484666208581968
40
0.486428078096498
40
0.488189947611028
40
0.489951817125558
40
0.491713686640088
40
0.493475556154618
40
0.495237425669148
40
0.496999295183678
40
0.498761164698208
40
0.500523034212738
40
0.502284903727268
40
0.504046773241798
40
0.505808642756328
40
0.507570512270859
40
0.509332381785389
40
0.511094251299919
40
0.512856120814449
40
0.514617990328979
40
0.516379859843509
40
0.518141729358039
40
0.519903598872569
40
0.521665468387099
40
0.523427337901629
40
0.525189207416159
40
0.526951076930689
40
0.528712946445219
40
0.530474815959749
40
0.532236685474279
40
0.53399855498881
40
0.53576042450334
40
0.53752229401787
40
0.5392841635324
40
0.54104603304693
40
0.54456977207599
40
0.54633164159052
40
0.54809351110505
40
0.55161725013411
40
0.55514098916317
40
0.5569028586777
40
0.55866472819223
40
0.560426597706761
40
0.562188467221291
40
0.565712206250351
40
0.569235945279411
40
0.572759684308471
40
0.576283423337531
40
0.579807162366591
40
0.583330901395652
40
0.586854640424712
40
0.590378379453772
40
0.593902118482832
40
0.597425857511892
40
0.600949596540952
40
0.604473335570012
40
0.607997074599072
40
0.611520813628133
40
0.615044552657193
40
0.618568291686253
40
0.622092030715313
40
0.629139508773434
40
0.636186986831554
40
0.643234464889674
40
0.646758203918734
40
0.650281942947794
40
0.653805681976855
40
0.657329421005915
40
0.660853160034975
40
0.664376899064035
40
0.671424377122155
40
0.678471855180276
40
0.681995594209336
40
0.685519333238396
40
0.689043072267456
40
0.692566811296516
40
0.696090550325576
40
0.699614289354637
40
0.706661767412757
40
0.710185506441817
40
0.713709245470877
40
0.720756723528998
40
0.727804201587117
40
0.731327940616178
40
0.734851679645238
40
0.741899157703358
40
0.745422896732418
40
0.748946635761479
40
0.752470374790539
40
0.755994113819599
40
0.763041591877719
40
0.766565330906779
40
0.770089069935839
40
0.773612808964899
40
0.77713654799396
40
0.78418402605208
40
0.78770776508114
40
0.7912315041102
40
0.79475524313926
40
0.798278982168321
40
0.805326460226441
40
0.808850199255501
40
0.812373938284561
40
0.815897677313621
40
0.819421416342682
40
0.826468894400802
40
0.829992633429862
40
0.833516372458922
40
0.835278241973452
40
0.837040111487983
40
0.840563850517043
40
0.847611328575163
40
0.851135067604223
40
0.854658806633283
40
0.858182545662343
40
0.861706284691403
40
0.868753762749524
40
0.872277501778584
40
0.875801240807644
40
0.879324979836704
40
0.882848718865764
40
0.886372457894824
40
0.889896196923885
40
0.893419935952945
40
0.896943674982005
40
0.903991153040125
40
0.907514892069185
40
0.911038631098245
40
0.918086109156366
40
0.921609848185426
40
0.925133587214486
40
0.932181065272606
40
0.935704804301666
40
0.939228543330726
40
0.942752282359787
40
0.946276021388847
40
0.953323499446967
40
0.956847238476027
40
0.960370977505088
40
0.963894716534148
40
0.967418455563208
40
0.970942194592268
40
0.974465933621328
40
0.977989672650388
40
0.981513411679448
40
0.985037150708509
40
0.988560889737569
40
0.992084628766629
40
0.995608367795689
40
0.999132106824749
40
1
40
1
40
1
40
1
41
1
10
-28.5
20
-16.8570111720127
30
0
41
1
10
-28.5
20
-16.8563913811379
30
0
41
1
10
-28.5
20
-16.8542840086147
30
0
41
1
10
-28.5
20
-16.8492032887544
30
0
41
1
10
-28.5
20
-16.8407921788659
30
0
41
1
10
-28.5
20
-16.8300011209595
30
0
41
1
10
-28.5
20
-16.8168672741156
30
0
41
1
10
-28.5
20
-16.8014255225769
30
0
41
1
10
-28.5
20
-16.783709883521
30
0
41
1
10
-28.5
20
-16.7637529731542
30
0
41
1
10
-28.5
20
-16.7415855338906
30
0
41
1
10
-28.5
20
-16.7172383450784
30
0
41
1
10
-28.5
20
-16.6818353810987
30
0
41
1
10
-28.5
20
-16.642411510514
30
0
41
1
10
-28.5
20
-16.5986105790194
30
0
41
1
10
-28.5
20
-16.5637763020887
30
0
41
1
10
-28.5
20
-16.5269199075572
30
0
41
1
10
-28.5
20
-16.4750169305147
30
0
41
1
10
-28.5
20
-16.4194622625482
30
0
41
1
10
-28.5
20
-16.3597331913305
30
0
41
1
10
-28.5
20
-16.2974462059125
30
0
41
1
10
-28.5
20
-16.2317181614777
30
0
41
1
10
-28.5
20
-16.1619255301562
30
0
41
1
10
-28.5
20
-16.0896767577218
30
0
41
1
10
-28.5
20
-16.0141701499498
30
0
41
1
10
-28.5
20
-15.9346970720351
30
0
41
1
10
-28.5
20
-15.8734193498834
30
0
41
1
10
-28.5
20
-15.8103844132608
30
0
41
1
10
-28.5
20
-15.745608166167
30
0
41
1
10
-28.5
20
-15.6791035033831
30
0
41
1
10
-28.5
20
-15.6108850520675
30
0
41
1
10
-28.5
20
-15.5409672008416
30
0
41
1
10
-28.5
20
-15.4453363897878
30
0
41
1
10
-28.5
20
-15.3468344295442
30
0
41
1
10
-28.5
20
-15.2445501023872
30
0
41
1
10
-28.5
20
-15.1663215412447
30
0
41
1
10
-28.5
20
-15.0864673138636
30
0
41
1
10
-28.5
20
-14.9776668598204
30
0
41
1
10
-28.5
20
-14.8661866472663
30
0
41
1
10
-28.5
20
-14.7510047173632
30
0
41
1
10
-28.5
20
-14.6631805593238
30
0
41
1
10
-28.5
20
-14.5737935545692
30
0
41
1
10
-28.5
20
-14.4523474056541
30
0
41
1
10
-28.5
20
-14.3283920102608
30
0
41
1
10
-28.5
20
-14.2007962111626
30
0
41
1
10
-28.5
20
-14.1037299196573
30
0
41
1
10
-28.5
20
-14.0051547121626
30
0
41
1
10
-28.5
20
-13.8715103774192
30
0
41
1
10
-28.5
20
-13.7355116027341
30
0
41
1
10
-28.5
20
-13.5959164295663
30
0
41
1
10
-28.5
20
-13.4899116400767
30
0
41
1
10
-28.5
20
-13.3824445287113
30
0
41
1
10
-28.5
20
-13.2369867267196
30
0
41
1
10
-28.5
20
-13.0893180063072
30
0
41
1
10
-28.5
20
-12.9380809359595
30
0
41
1
10
-28.5
20
-12.8234002792818
30
0
41
1
10
-28.5
20
-12.7072977235968
30
0
41
1
10
-28.5
20
-12.550359403554
30
0
41
1
10
-28.5
20
-12.3913462445321
30
0
41
1
10
-28.5
20
-12.2287775158425
30
0
41
1
10
-28.5
20
-12.1056498288981
30
0
41
1
10
-28.5
20
-11.9811355431936
30
0
41
1
10
-28.5
20
-11.8130068133241
30
0
41
1
10
-28.5
20
-11.642935768078
30
0
41
1
10
-28.5
20
-11.4693068645233
30
0
41
1
10
-28.5
20
-11.2938625434425
30
0
41
1
10
-28.5
20
-11.0718089327865
30
0
41
1
10
-28.5
20
-10.8452681360072
30
0
41
1
10
-28.5
20
-10.6608198079832
30
0
41
1
10
-28.5
20
-10.4745957683654
30
0
41
1
10
-28.5
20
-10.2866518533399
30
0
41
1
10
-28.5
20
-10.0951135357909
30
0
41
1
10
-28.5
20
-9.9503895477591
30
0
41
1
10
-28.5
20
-9.8043545776041
30
0
41
1
10
-28.5
20
-9.65701503611822
30
0
41
1
10
-28.5
20
-9.50837340526911
30
0
41
1
10
-28.5
20
-9.30810992365676
30
0
41
1
10
-28.5
20
-9.05534970701541
30
0
41
1
10
-28.5
20
-8.79830464348922
30
0
41
1
10
-28.5
20
-8.58944232029054
30
0
41
1
10
-28.5
20
-8.43181572672981
30
0
41
1
10
-28.5
20
-8.27292311790592
30
0
41
1
10
-28.5
20
-8.11277014047184
30
0
41
1
10
-28.5
20
-7.9513617118449
30
0
41
1
10
-28.5
20
-7.73407184255308
30
0
41
1
10
-28.5
20
-7.46030866767529
30
0
41
1
10
-28.5
20
-7.12632140637373
30
0
41
1
10
-28.5
20
-6.84437402550569
30
0
41
1
10
-28.5
20
-6.61554359890371
30
0
41
1
10
-28.5
20
-6.44309029411605
30
0
41
1
10
-28.5
20
-6.26944364545889
30
0
41
1
10
-28.5
20
-6.09461246091772
30
0
41
1
10
-28.5
20
-5.91860523667609
30
0
41
1
10
-28.5
20
-5.74143189937953
30
0
41
1
10
-28.5
20
-5.56310357372001
30
0
41
1
10
-28.5
20
-5.38363134733163
30
0
41
1
10
-28.5
20
-5.20302692387261
30
0
41
1
10
-28.5
20
-5.0213042232472
30
0
41
1
10
-28.5
20
-4.83847919931264
30
0
41
1
10
-28.5
20
-4.65456716028004
30
0
41
1
10
-28.5
20
-4.46958486845949
30
0
41
1
10
-28.5
20
-4.28355302808069
30
0
41
1
10
-28.5
20
-4.09649275318182
30
0
41
1
10
-28.5
20
-3.90842813226232
30
0
41
1
10
-28.5
20
-3.75124940963562
30
0
41
1
10
-28.5
20
-3.6243549796439
30
0
41
1
10
-28.5
20
-3.5292431593418
30
0
41
1
10
-28.5
20
-3.43390158445521
30
0
41
1
10
-28.5
20
-3.30608717079298
30
0
41
1
10
-28.5
20
-3.14669072023423
30
0
41
1
10
-28.5
20
-2.9865693987912
30
0
41
1
10
-28.5
20
-2.85729421649611
30
0
41
1
10
-28.5
20
-2.76048089001324
30
0
41
1
10
-28.5
20
-2.66347976206254
30
0
41
1
10
-28.5
20
-2.56629526768592
30
0
41
1
10
-28.5
20
-2.46893611478751
30
0
41
1
10
-28.5
20
-2.33842740009587
30
0
41
1
10
-28.5
20
-2.20905952740142
30
0
41
1
10
-28.5
20
-2.07788039572898
30
0
41
1
10
-28.5
20
-1.97974994874616
30
0
41
1
10
-28.5
20
-1.88148715614122
30
0
41
1
10
-28.5
20
-1.78310090101277
30
0
41
1
10
-28.5
20
-1.68460072925305
30
0
41
1
10
-28.5
20
-1.58599184128096
30
0
41
1
10
-28.5
20
-1.48728649469356
30
0
41
1
10
-28.5
20
-1.38848914320587
30
0
41
1
10
-28.5
20
-1.28961139997082
30
0
41
1
10
-28.5
20
-1.19065859360987
30
0
41
1
10
-28.5
20
-1.09164071478048
30
0
41
1
10
-28.5
20
-0.992564090788449
30
0
41
1
10
-28.5
20
-0.893436923932512
30
0
41
1
10
-28.5
20
-0.794265471937138
30
0
41
1
10
-28.5
20
-0.695056741362833
30
0
41
1
10
-28.5
20
-0.595816468507252
30
0
41
1
10
-28.5
20
-0.49655061320999
30
0
41
1
10
-28.5
20
-0.397263853181812
30
0
41
1
10
-28.5
20
-0.297961366795107
30
0
41
1
10
-28.5
20
-0.198647102840709
30
0
41
1
10
-28.5
20
-0.0993254669347436
30
0
41
1
10
-28.5
20
-5.4725149E-09
30
0
41
1
10
-28.5
20
0.0993254684405827
30
0
41
1
10
-28.5
20
0.198647127601248
30
0
41
1
10
-28.5
20
0.297961388791691
30
0
41
1
10
-28.5
20
0.397263840424017
30
0
41
1
10
-28.5
20
0.496550594205559
30
0
41
1
10
-28.5
20
0.595816495504096
30
0
41
1
10
-28.5
20
0.695056784277028
30
0
41
1
10
-28.5
20
0.794265459276176
30
0
41
1
10
-28.5
20
0.89343688343348
30
0
41
1
10
-28.5
20
0.992564112169902
30
0
41
1
10
-28.5
20
1.09164077920423
30
0
41
1
10
-28.5
20
1.19065859620264
30
0
41
1
10
-28.5
20
1.28961134189754
30
0
41
1
10
-28.5
20
1.38848913588993
30
0
41
1
10
-28.5
20
1.48728656512978
30
0
41
1
10
-28.5
20
1.58599188781932
30
0
41
1
10
-28.5
20
1.6846006870125
30
0
41
1
10
-28.5
20
1.78310084050699
30
0
41
1
10
-28.5
20
1.88148718140701
30
0
41
1
10
-28.5
20
1.9797500364362
30
0
41
1
10
-28.5
20
2.0778804265363
30
0
41
1
10
-28.5
20
2.17587292609085
30
0
41
1
10
-28.5
20
2.27371679621319
30
0
41
1
10
-28.5
20
2.37140757120355
30
0
41
1
10
-28.5
20
2.46893613943033
30
0
41
1
10
-28.5
20
2.59923374131699
30
0
41
1
10
-28.5
20
2.72777279716706
30
0
41
1
10
-28.5
20
2.8572942882393
30
0
41
1
10
-28.5
20
2.98656948332388
30
0
41
1
10
-28.5
20
3.14669074057869
30
0
41
1
10
-28.5
20
3.30608709676801
30
0
41
1
10
-28.5
20
3.43390157548936
30
0
41
1
10
-28.5
20
3.52924322184191
30
0
41
1
10
-28.5
20
3.62435506854831
30
0
41
1
10
-28.5
20
3.75124942106058
30
0
41
1
10
-28.5
20
3.90842799420628
30
0
41
1
10
-28.5
20
4.09649259176146
30
0
41
1
10
-28.5
20
4.28355297730505
30
0
41
1
10
-28.5
20
4.4695846174555
30
0
41
1
10
-28.5
20
4.65456683421039
30
0
41
1
10
-28.5
20
4.83847943804494
30
0
41
1
10
-28.5
20
5.0213044851898
30
0
41
1
10
-28.5
20
5.2030267003301
30
0
41
1
10
-28.5
20
5.38363156234237
30
0
41
1
10
-28.5
20
5.56310445504442
30
0
41
1
10
-28.5
20
5.74143237747984
30
0
41
1
10
-28.5
20
5.91860495448572
30
0
41
1
10
-28.5
20
6.09461208825527
30
0
41
1
10
-28.5
20
6.26944357118299
30
0
41
1
10
-28.5
20
6.4430903265563
30
0
41
1
10
-28.5
20
6.61554357091572
30
0
41
1
10
-28.5
20
6.84437400802861
30
0
41
1
10
-28.5
20
7.12632144512301
30
0
41
1
10
-28.5
20
7.46030865505762
30
0
41
1
10
-28.5
20
7.73407184285281
30
0
41
1
10
-28.5
20
7.95136176299604
30
0
41
1
10
-28.5
20
8.11277014937085
30
0
41
1
10
-28.5
20
8.27292308432649
30
0
41
1
10
-28.5
20
8.43181570788789
30
0
41
1
10
-28.5
20
8.5894423488798
30
0
41
1
10
-28.5
20
8.79830467826932
30
0
41
1
10
-28.5
20
9.05534969583792
30
0
41
1
10
-28.5
20
9.30810991622687
30
0
41
1
10
-28.5
20
9.50837344479851
30
0
41
1
10
-28.5
20
9.65701506287493
30
0
41
1
10
-28.5
20
9.80435457188474
30
0
41
1
10
-28.5
20
9.95038952754788
30
0
41
1
10
-28.5
20
10.095113531911
30
0
41
1
10
-28.5
20
10.2866518813937
30
0
41
1
10
-28.5
20
10.4745957936973
30
0
41
1
10
-28.5
20
10.6608197986608
30
0
41
1
10
-28.5
20
10.8452681286137
30
0
41
1
10
-28.5
20
11.0718089525805
30
0
41
1
10
-28.5
20
11.2938625632929
30
0
41
1
10
-28.5
20
11.4693068596265
30
0
41
1
10
-28.5
20
11.6429357656381
30
0
41
1
10
-28.5
20
11.8130068303033
30
0
41
1
10
-28.5
20
11.9811355648908
30
0
41
1
10
-28.5
20
12.1056498404809
30
0
41
1
10
-28.5
20
12.2287775174238
30
0
41
1
10
-28.5
20
12.3913462461042
30
0
41
1
10
-28.5
20
12.5503594172971
30
0
41
1
10
-28.5
20
12.7072977423403
30
0
41
1
10
-28.5
20
12.8234002933141
30
0
41
1
10
-28.5
20
12.9380809438717
30
0
41
1
10
-28.5
20
13.0893180117675
30
0
41
1
10
-28.5
20
13.2369867372074
30
0
41
1
10
-28.5
20
13.3824445445542
30
0
41
1
10
-28.5
20
13.4899116562855
30
0
41
1
10
-28.5
20
13.5959164434403
30
0
41
1
10
-28.5
20
13.7355116125921
30
0
41
1
10
-28.5
20
13.8715103854275
30
0
41
1
10
-28.5
20
14.0051547249398
30
0
41
1
10
-28.5
20
14.1037299370701
30
0
41
1
10
-28.5
20
14.2007962250068
30
0
41
1
10
-28.5
20
14.328392039309
30
0
41
1
10
-28.5
20
14.452347405446
30
0
41
1
10
-28.5
20
14.5737935062701
30
0
41
1
10
-28.5
20
14.6481896525931
30
0
41
1
10
-28.5
20
14.7070919001429
30
0
41
1
10
-28.5
20
14.7654709460418
30
0
41
1
10
-28.5
20
14.8661866667289
30
0
41
1
10
-28.5
20
14.9776668655465
30
0
41
1
10
-28.5
20
15.086467321316
30
0
41
1
10
-28.5
20
15.1663215599361
30
0
41
1
10
-28.5
20
15.2445501295776
30
0
41
1
10
-28.5
20
15.3468344527491
30
0
41
1
10
-28.5
20
15.4453363938053
30
0
41
1
10
-28.5
20
15.5409672073329
30
0
41
1
10
-28.5
20
15.6108850733398
30
0
41
1
10
-28.5
20
15.679103534252
30
0
41
1
10
-28.5
20
15.7456081924762
30
0
41
1
10
-28.5
20
15.810384423087
30
0
41
1
10
-28.5
20
15.8734193510279
30
0
41
1
10
-28.5
20
15.9346970807191
30
0
41
1
10
-28.5
20
16.0141701800502
30
0
41
1
10
-28.5
20
16.0896767899468
30
0
41
1
10
-28.5
20
16.1619255341458
30
0
41
1
10
-28.5
20
16.2317181619347
30
0
41
1
10
-28.5
20
16.2974462376793
30
0
41
1
10
-28.5
20
16.3597332242326
30
0
41
1
10
-28.5
20
16.4194622696319
30
0
41
1
10
-28.5
20
16.4750169286961
30
0
41
1
10
-28.5
20
16.5269199399481
30
0
41
1
10
-28.5
20
16.5637763395248
30
0
41
1
10
-28.5
20
16.5986105943247
30
0
41
1
10
-28.5
20
16.642411504334
30
0
41
1
10
-28.5
20
16.6818354096897
30
0
41
1
10
-28.5
20
16.7172383773105
30
0
41
1
10
-28.5
20
16.741585550229
30
0
41
1
10
-28.5
20
16.7637529737167
30
0
41
1
10
-28.5
20
16.7837098927271
30
0
41
1
10
-28.5
20
16.8014255596809
30
0
41
1
10
-28.5
20
16.816867307208
30
0
41
1
10
-28.5
20
16.8300011251081
30
0
41
1
10
-28.5
20
16.8407921763224
30
0
41
1
10
-28.5
20
16.8492033090471
30
0
41
1
10
-28.5
20
16.8551966659016
30
0
41
1
10
-28.5
20
16.8587319423621
30
0
41
1
10
-28.5
20
16.8597680746869
30
0
41
1
10
-28.5
20
16.8586398973756
30
0
41
1
10
-28.5
20
16.8573438976352
30
0
41
1
10
-28.5
20
16.8570614893007
30
0
0
SPLINE
5
157
100
AcDbEntity
8
SK1
62
256
6
ByLayer
370
18
48
1
60
0
100
AcDbSpline
70
4
71
3
72
106
73
102
40
0
40
0
40
0
40
0
40
0.0075864935720483
40
0.0161184313068311
40
0.0246503690416139
40
0.0331823067763966
40
0.0417142445111794
40
0.0502461822459622
40
0.058778119980745
40
0.0673100577155277
40
0.0758419954503105
40
0.0843739331850933
40
0.0929058709198761
40
0.101437808654659
40
0.109969746389442
40
0.118501684124224
40
0.13556555959379
40
0.144097497328573
40
0.152629435063355
40
0.161161372798138
40
0.169693310532921
40
0.186757186002487
40
0.195289123737269
40
0.203821061472052
40
0.220884936941618
40
0.2294168746764
40
0.237948812411183
40
0.255012687880749
40
0.263544625615531
40
0.272076563350314
40
0.280608501085097
40
0.28914043881988
40
0.297672376554663
40
0.306204314289445
40
0.314736252024228
40
0.323268189759011
40
0.340332065228577
40
0.348864002963359
40
0.357395940698142
40
0.365927878432925
40
0.374459816167708
40
0.391523691637273
40
0.400055629372056
40
0.408587567106839
40
0.417119504841621
40
0.425651442576404
40
0.44271531804597
40
0.451247255780753
40
0.459779193515535
40
0.468311131250318
40
0.476843068985101
40
0.493906944454666
40
0.502438882189449
40
0.510970819924232
40
0.519502757659015
40
0.528034695393797
40
0.545098570863363
40
0.553630508598146
40
0.562162446332929
40
0.570694384067711
40
0.579226321802494
40
0.59629019727206
40
0.604822135006842
40
0.613354072741625
40
0.621886010476408
40
0.630417948211191
40
0.647481823680756
40
0.656013761415539
40
0.664545699150322
40
0.681609574619887
40
0.698673450089453
40
0.707205387824236
40
0.715737325559018
40
0.732801201028584
40
0.741333138763367
40
0.74986507649815
40
0.758397014232932
40
0.766928951967715
40
0.775460889702498
40
0.783992827437281
40
0.801056702906846
40
0.818120578376412
40
0.826652516111195
40
0.835184453845977
40
0.84371639158076
40
0.852248329315543
40
0.860780267050326
40
0.869312204785108
40
0.886376080254674
40
0.90343995572424
40
0.920503831193805
40
0.929035768928588
40
0.937567706663371
40
0.946099644398153
40
0.954631582132936
40
0.963163519867719
40
0.971695457602502
40
0.980227395337285
40
0.988759333072067
40
0.99729127080685
40
1
40
1
40
1
40
1
41
1
10
-0.394976888875277
20
-17.3601838882775
30
0
41
1
10
-0.394976888875277
20
-17.3617494126886
30
0
41
1
10
-0.394976888875277
20
-17.3643151424172
30
0
41
1
10
-0.394976888875277
20
-17.3658104187982
30
0
41
1
10
-0.394976888875277
20
-17.364743357607
30
0
41
1
10
-0.394976888875277
20
-17.3611046370287
30
0
41
1
10
-0.394976888875277
20
-17.3549392673806
30
0
41
1
10
-0.394976888875277
20
-17.3462909837355
30
0
41
1
10
-0.394976888875277
20
-17.3352007293143
30
0
41
1
10
-0.394976888875277
20
-17.3217086001335
30
0
41
1
10
-0.394976888875277
20
-17.3058521283006
30
0
41
1
10
-0.394976888875277
20
-17.2876678324761
30
0
41
1
10
-0.394976888875277
20
-17.267190526317
30
0
41
1
10
-0.394976888875277
20
-17.2444530966284
30
0
41
1
10
-0.394976888875277
20
-17.2194882282903
30
0
41
1
10
-0.394976888875277
20
-17.1832568130363
30
0
41
1
10
-0.394976888875277
20
-17.1427382851614
30
0
41
1
10
-0.394976888875277
20
-17.0979462613767
30
0
41
1
10
-0.394976888875277
20
-17.0622798138473
30
0
41
1
10
-0.394976888875277
20
-17.0245523789023
30
0
41
1
10
-0.394976888875277
20
-16.9715145338597
30
0
41
1
10
-0.394976888875277
20
-16.9145140859045
30
0
41
1
10
-0.394976888875277
20
-16.8535135157982
30
0
41
1
10
-0.394976888875277
20
-16.7899145739052
30
0
41
1
10
-0.394976888875277
20
-16.7225357594453
30
0
41
1
10
-0.394976888875277
20
-16.6513062647865
30
0
41
1
10
-0.394976888875277
20
-16.577583428992
30
0
41
1
10
-0.394976888875277
20
-16.5002370605308
30
0
41
1
10
-0.394976888875277
20
-16.4191737242595
30
0
41
1
10
-0.394976888875277
20
-16.3565947837564
30
0
41
1
10
-0.394976888875277
20
-16.2922298184193
30
0
41
1
10
-0.394976888875277
20
-16.2260943534788
30
0
41
1
10
-0.394976888875277
20
-16.1582019227301
30
0
41
1
10
-0.394976888875277
20
-16.0885677968918
30
0
41
1
10
-0.394976888875277
20
-16.0172057910894
30
0
41
1
10
-0.394976888875277
20
-15.9197362080175
30
0
41
1
10
-0.394976888875277
20
-15.8189643575456
30
0
41
1
10
-0.394976888875277
20
-15.7147364711228
30
0
41
1
10
-0.394976888875277
20
-15.6349267495635
30
0
41
1
10
-0.394976888875277
20
-15.553463729323
30
0
41
1
10
-0.394976888875277
20
-15.4426195996911
30
0
41
1
10
-0.394976888875277
20
-15.3286250260664
30
0
41
1
10
-0.394976888875277
20
-15.2112966721243
30
0
41
1
10
-0.394976888875277
20
-15.1217290697223
30
0
41
1
10
-0.394976888875277
20
-15.0305709686995
30
0
41
1
10
-0.394976888875277
20
-14.906878048735
30
0
41
1
10
-0.394976888875277
20
-14.7801642402503
30
0
41
1
10
-0.394976888875277
20
-14.6502180265082
30
0
41
1
10
-0.394976888875277
20
-14.5512443698349
30
0
41
1
10
-0.394976888875277
20
-14.4507333574048
30
0
41
1
10
-0.394976888875277
20
-14.3146351144528
30
0
41
1
10
-0.394976888875277
20
-14.1756274353422
30
0
41
1
10
-0.394976888875277
20
-14.0334711437704
30
0
41
1
10
-0.394976888875277
20
-13.9253889575191
30
0
41
1
10
-0.394976888875277
20
-13.8158144643309
30
0
41
1
10
-0.394976888875277
20
-13.6676860465324
30
0
41
1
10
-0.394976888875277
20
-13.5167448397425
30
0
41
1
10
-0.394976888875277
20
-13.3627236430939
30
0
41
1
10
-0.394976888875277
20
-13.2457848907918
30
0
41
1
10
-0.394976888875277
20
-13.127391952352
30
0
41
1
10
-0.394976888875277
20
-12.9675509274721
30
0
41
1
10
-0.394976888875277
20
-12.8049814419576
30
0
41
1
10
-0.394976888875277
20
-12.6393872212047
30
0
41
1
10
-0.394976888875277
20
-12.5138050377602
30
0
41
1
10
-0.394976888875277
20
-12.3868007822861
30
0
41
1
10
-0.394976888875277
20
-12.2155153079022
30
0
41
1
10
-0.394976888875277
20
-12.0415756036957
30
0
41
1
10
-0.394976888875277
20
-11.8646543426879
30
0
41
1
10
-0.394976888875277
20
-11.6858676336886
30
0
41
1
10
-0.394976888875277
20
-11.4590305058839
30
0
41
1
10
-0.394976888875277
20
-11.2275701322441
30
0
41
1
10
-0.394976888875277
20
-11.0395280715927
30
0
41
1
10
-0.394976888875277
20
-10.8496518299165
30
0
41
1
10
-0.394976888875277
20
-10.6572262982852
30
0
41
1
10
-0.394976888875277
20
-10.4618684218406
30
0
41
1
10
-0.394976888875277
20
-10.3140380853821
30
0
41
1
10
-0.394976888875277
20
-10.1648479968029
30
0
41
1
10
-0.394976888875277
20
-10.0143015620689
30
0
41
1
10
-0.394976888875277
20
-9.86240079247779
30
0
41
1
10
-0.394976888875277
20
-9.65799297250354
30
0
41
1
10
-0.394976888875277
20
-9.3992804435735
30
0
41
1
10
-0.394976888875277
20
-9.13609084815204
30
0
41
1
10
-0.394976888875277
20
-8.92272120904667
30
0
41
1
10
-0.394976888875277
20
-8.76141979935898
30
0
41
1
10
-0.394976888875277
20
-8.59878513251641
30
0
41
1
10
-0.394976888875277
20
-8.43482033812748
30
0
41
1
10
-0.394976888875277
20
-8.26952734508268
30
0
41
1
10
-0.394976888875277
20
-8.04728288893983
30
0
41
1
10
-0.394976888875277
20
-7.76637137475095
30
0
41
1
10
-0.394976888875277
20
-7.42389184310318
30
0
41
1
10
-0.394976888875277
20
-7.13420904829047
30
0
41
1
10
-0.394976888875277
20
-6.89966739484251
30
0
41
1
10
-0.394976888875277
20
-6.7225342898117
30
0
41
1
10
-0.394976888875277
20
-6.54409938064705
30
0
41
1
10
-0.394976888875277
20
-6.36436626337326
30
0
41
1
10
-0.394976888875277
20
-6.18333822517317
30
0
41
1
10
-0.394976888875277
20
-6.0010194773844
30
0
41
1
10
-0.394976888875277
20
-5.81741425905383
30
0
41
1
10
-0.394976888875277
20
-5.63252720020009
30
0
41
1
10
-0.394976888875277
20
-5.48871675629277
30
0
41
1
10
-0.394976888875277
20
-5.40659331253005
30
0
41
1
10
-0.394976888875277
20
-5.38678223324203
30
0
0
SPLINE
5
158
100
AcDbEntity
8
SK1
62
256
6
ByLayer
370
18
48
1
60
0
100
AcDbSpline
70
4
71
3
72
107
73
103
40
0
40
0
40
0
40
0
40
0.0027087431771262
40
0.0112406780922318
40
0.0197726130073374
40
0.028304547922443
40
0.0368364828375486
40
0.0453684177526541
40
0.0539003526677597
40
0.0624322875828653
40
0.0709642224979709
40
0.0794961574130765
40
0.0965600272432876
40
0.113623897073499
40
0.13068776690371
40
0.139219701818816
40
0.147751636733921
40
0.156283571649027
40
0.164815506564132
40
0.173347441479238
40
0.181879376394344
40
0.198943246224555
40
0.216007116054766
40
0.224539050969871
40
0.233070985884977
40
0.241602920800083
40
0.250134855715188
40
0.258666790630294
40
0.267198725545399
40
0.28426259537561
40
0.292794530290716
40
0.301326465205822
40
0.318390335036033
40
0.335454204866244
40
0.34398613978135
40
0.352518074696455
40
0.369581944526666
40
0.378113879441772
40
0.386645814356878
40
0.395177749271983
40
0.403709684187089
40
0.4207735540173
40
0.429305488932405
40
0.437837423847511
40
0.446369358762617
40
0.454901293677722
40
0.471965163507933
40
0.480497098423039
40
0.489029033338145
40
0.49756096825325
40
0.506092903168356
40
0.523156772998567
40
0.531688707913673
40
0.540220642828778
40
0.548752577743884
40
0.557284512658989
40
0.5743483824892
40
0.582880317404306
40
0.591412252319412
40
0.595678219776964
40
0.599944187234517
40
0.608476122149623
40
0.625539991979834
40
0.63407192689494
40
0.642603861810045
40
0.651135796725151
40
0.659667731640256
40
0.676731601470467
40
0.685263536385573
40
0.693795471300679
40
0.702327406215784
40
0.71085934113089
40
0.719391276045995
40
0.727923210961101
40
0.736455145876207
40
0.744987080791312
40
0.762050950621523
40
0.770582885536629
40
0.779114820451734
40
0.796178690281946
40
0.804710625197051
40
0.813242560112157
40
0.830306429942368
40
0.838838364857474
40
0.847370299772579
40
0.855902234687685
40
0.86443416960279
40
0.881498039433001
40
0.890029974348107
40
0.898561909263213
40
0.907093844178318
40
0.915625779093424
40
0.924157714008529
40
0.932689648923635
40
0.941221583838741
40
0.949753518753846
40
0.958285453668952
40
0.966817388584057
40
0.975349323499163
40
0.983881258414269
40
0.992413193329374
40
1
40
1
40
1
40
1
41
1
10
-0.394976888875277
20
5.38678189578289
30
0
41
1
10
-0.394976888875277
20
5.4065930765673
30
0
41
1
10
-0.394976888875277
20
5.48871660168982
30
0
41
1
10
-0.394976888875277
20
5.63252719489225
30
0
41
1
10
-0.394976888875277
20
5.8174145162354
30
0
41
1
10
-0.394976888875277
20
6.00101977124669
30
0
41
1
10
-0.394976888875277
20
6.18333830919048
30
0
41
1
10
-0.394976888875277
20
6.3643662218949
30
0
41
1
10
-0.394976888875277
20
6.54409937286439
30
0
41
1
10
-0.394976888875277
20
6.72253430941348
30
0
41
1
10
-0.394976888875277
20
6.89966740060396
30
0
41
1
10
-0.394976888875277
20
7.13420903787926
30
0
41
1
10
-0.394976888875277
20
7.42389186204957
30
0
41
1
10
-0.394976888875277
20
7.76637138106329
30
0
41
1
10
-0.394976888875277
20
8.04728288344245
30
0
41
1
10
-0.394976888875277
20
8.26952736598562
30
0
41
1
10
-0.394976888875277
20
8.434820354761
30
0
41
1
10
-0.394976888875277
20
8.59878513137221
30
0
41
1
10
-0.394976888875277
20
8.76141979186249
30
0
41
1
10
-0.394976888875277
20
8.922721214403
30
0
41
1
10
-0.394976888875277
20
9.1360908691222
30
0
41
1
10
-0.394976888875277
20
9.39928045092248
30
0
41
1
10
-0.394976888875277
20
9.65799296546987
30
0
41
1
10
-0.394976888875277
20
9.86240080704218
30
0
41
1
10
-0.394976888875277
20
10.0143015815252
30
0
41
1
10
-0.394976888875277
20
10.1648480067744
30
0
41
1
10
-0.394976888875277
20
10.3140380843155
30
0
41
1
10
-0.394976888875277
20
10.4618684189216
30
0
41
1
10
-0.394976888875277
20
10.6572263081632
30
0
41
1
10
-0.394976888875277
20
10.8496518506122
30
0
41
1
10
-0.394976888875277
20
11.0395280782787
30
0
41
1
10
-0.394976888875277
20
11.2275701299333
30
0
41
1
10
-0.394976888875277
20
11.4590305143918
30
0
41
1
10
-0.394976888875277
20
11.685867652055
30
0
41
1
10
-0.394976888875277
20
11.864654349678
30
0
41
1
10
-0.394976888875277
20
12.0415756040849
30
0
41
1
10
-0.394976888875277
20
12.2155153161813
30
0
41
1
10
-0.394976888875277
20
12.3868007979199
30
0
41
1
10
-0.394976888875277
20
12.5138050519686
30
0
41
1
10
-0.394976888875277
20
12.6393872302303
30
0
41
1
10
-0.394976888875277
20
12.8049814458532
30
0
41
1
10
-0.394976888875277
20
12.9675509360494
30
0
41
1
10
-0.394976888875277
20
13.1273919665529
30
0
41
1
10
-0.394976888875277
20
13.2457849051211
30
0
41
1
10
-0.394976888875277
20
13.3627236547323
30
0
41
1
10
-0.394976888875277
20
13.5167448476072
30
0
41
1
10
-0.394976888875277
20
13.6676860552913
30
0
41
1
10
-0.394976888875277
20
13.8158144768541
30
0
41
1
10
-0.394976888875277
20
13.9253889718329
30
0
41
1
10
-0.394976888875277
20
14.0334711580348
30
0
41
1
10
-0.394976888875277
20
14.1756274475866
30
0
41
1
10
-0.394976888875277
20
14.3146351237356
30
0
41
1
10
-0.394976888875277
20
14.4507333681675
30
0
41
1
10
-0.394976888875277
20
14.5512443837086
30
0
41
1
10
-0.394976888875277
20
14.6502180419884
30
0
41
1
10
-0.394976888875277
20
14.780164253239
30
0
41
1
10
-0.394976888875277
20
14.9068780878822
30
0
41
1
10
-0.394976888875277
20
15.0305708978545
30
0
41
1
10
-0.394976888875277
20
15.1065165223896
30
0
41
1
10
-0.394976888875277
20
15.1665127141503
30
0
41
1
10
-0.394976888875277
20
15.2259771214207
30
0
41
1
10
-0.394976888875277
20
15.3286250474485
30
0
41
1
10
-0.394976888875277
20
15.4426196109061
30
0
41
1
10
-0.394976888875277
20
15.5534637367265
30
0
41
1
10
-0.394976888875277
20
15.6349267624759
30
0
41
1
10
-0.394976888875277
20
15.7147364921469
30
0
41
1
10
-0.394976888875277
20
15.8189643831875
30
0
41
1
10
-0.394976888875277
20
15.9197362187748
30
0
41
1
10
-0.394976888875277
20
16.0172057969154
30
0
41
1
10
-0.394976888875277
20
16.0885678110446
30
0
41
1
10
-0.394976888875277
20
16.1582019472912
30
0
41
1
10
-0.394976888875277
20
16.2260943811825
30
0
41
1
10
-0.394976888875277
20
16.2922298358683
30
0
41
1
10
-0.394976888875277
20
16.3565947902754
30
0
41
1
10
-0.394976888875277
20
16.4191737297992
30
0
41
1
10
-0.394976888875277
20
16.5002370830775
30
0
41
1
10
-0.394976888875277
20
16.5775834628441
30
0
41
1
10
-0.394976888875277
20
16.6513062771915
30
0
41
1
10
-0.394976888875277
20
16.7225357579897
30
0
41
1
10
-0.394976888875277
20
16.7899145981056
30
0
41
1
10
-0.394976888875277
20
16.8535135500206
30
0
41
1
10
-0.394976888875277
20
16.9145141001581
30
0
41
1
10
-0.394976888875277
20
16.9715145305624
30
0
41
1
10
-0.394976888875277
20
17.024552403858
30
0
41
1
10
-0.394976888875277
20
17.0622798511847
30
0
41
1
10
-0.394976888875277
20
17.0979462837243
30
0
41
1
10
-0.394976888875277
20
17.1427382787905
30
0
41
1
10
-0.394976888875277
20
17.1832568369982
30
0
41
1
10
-0.394976888875277
20
17.2194882612007
30
0
41
1
10
-0.394976888875277
20
17.2444531170066
30
0
41
1
10
-0.394976888875277
20
17.2671905287463
30
0
41
1
10
-0.394976888875277
20
17.2876678382251
30
0
41
1
10
-0.394976888875277
20
17.3058521626298
30
0
41
1
10
-0.394976888875277
20
17.3217086355548
30
0
41
1
10
-0.394976888875277
20
17.3352007360526
30
0
41
1
10
-0.394976888875277
20
17.3462909802274
30
0
41
1
10
-0.394976888875277
20
17.3549392880652
30
0
41
1
10
-0.394976888875277
20
17.3611046305144
30
0
41
1
10
-0.394976888875277
20
17.3647432146661
30
0
41
1
10
-0.394976888875277
20
17.3658102005923
30
0
41
1
10
-0.394976888875306
20
17.3643150511083
30
0
41
1
10
-0.394976888875306
20
17.3617494021688
30
0
41
1
10
-0.394976888875277
20
17.3601838595635
30
0
0
SPLINE
5
159
100
AcDbEntity
8
SK1
62
256
6
ByLayer
370
18
48
1
60
0
100
AcDbSpline
70
4
71
3
72
288
73
284
40
0
40
0
40
0
40
0
40
0.0022851240206211
40
0.0057901646068633
40
0.0092952051931053
40
0.0128002457793475
40
0.0163052863655897
40
0.0198103269518318
40
0.0233153675380739
40
0.0268204081243161
40
0.0303254487105582
40
0.0338304892968003
40
0.0373355298830425
40
0.0408405704692846
40
0.0443456110555268
40
0.051355692228011
40
0.0548607328142532
40
0.0583657734004953
40
0.0618708139867375
40
0.0653758545729796
40
0.0723859357454639
40
0.075890976331706
40
0.0793960169179482
40
0.0864060980904324
40
0.0899111386766746
40
0.0934161792629167
40
0.100426260435401
40
0.103931301021643
40
0.107436341607885
40
0.110941382194127
40
0.11444642278037
40
0.117951463366612
40
0.121456503952854
40
0.124961544539096
40
0.128466585125338
40
0.135476666297823
40
0.138981706884064
40
0.142486747470307
40
0.145991788056549
40
0.149496828642791
40
0.156506909815275
40
0.160011950401517
40
0.163516990987759
40
0.167022031574002
40
0.170527072160244
40
0.177537153332728
40
0.18104219391897
40
0.184547234505212
40
0.188052275091455
40
0.191557315677697
40
0.198567396850181
40
0.202072437436423
40
0.205577478022665
40
0.209082518608907
40
0.212587559195149
40
0.219597640367634
40
0.223102680953876
40
0.226607721540118
40
0.23011276212636
40
0.233617802712602
40
0.240627883885087
40
0.244132924471329
40
0.247637965057571
40
0.251143005643813
40
0.254648046230055
40
0.26165812740254
40
0.265163167988782
40
0.268668208575024
40
0.275678289747508
40
0.282688370919992
40
0.286193411506235
40
0.289698452092477
40
0.296708533264961
40
0.300213573851203
40
0.303718614437445
40
0.307223655023687
40
0.310728695609929
40
0.314233736196172
40
0.317738776782414
40
0.324748857954898
40
0.331758939127382
40
0.335263979713624
40
0.338769020299867
40
0.342274060886109
40
0.345779101472351
40
0.349284142058593
40
0.352789182644835
40
0.35979926381732
40
0.366809344989804
40
0.373819426162288
40
0.37732446674853
40
0.380829507334772
40
0.384334547921014
40
0.387839588507256
40
0.391344629093499
40
0.394849669679741
40
0.398354710265983
40
0.401859750852225
40
0.405364791438467
40
0.408869832024709
40
0.412374872610952
40
0.415879913197194
40
0.419384953783436
40
0.422889994369678
40
0.42639503495592
40
0.429900075542162
40
0.433405116128404
40
0.435157636421525
40
0.436910156714647
40
0.438662677007768
40
0.440415197300889
40
0.443920237887131
40
0.447425278473373
40
0.449177798766494
40
0.450930319059615
40
0.452682839352736
40
0.454435359645857
40
0.456187879938978
40
0.457940400232099
40
0.461445440818341
40
0.463197961111463
40
0.464950481404584
40
0.466703001697705
40
0.468455521990826
40
0.470208042283947
40
0.471960562577068
40
0.473713082870189
40
0.47546560316331
40
0.477218123456431
40
0.478970643749552
40
0.480723164042673
40
0.482475684335794
40
0.484228204628915
40
0.485980724922036
40
0.487733245215158
40
0.489485765508278
40
0.4912382858014
40
0.492990806094521
40
0.494743326387642
40
0.496495846680763
40
0.498248366973884
40
0.500000887267005
40
0.501753407560126
40
0.503505927853247
40
0.505258448146368
40
0.507010968439489
40
0.50876348873261
40
0.510516009025731
40
0.512268529318852
40
0.514021049611974
40
0.515773569905095
40
0.517526090198216
40
0.519278610491337
40
0.521031130784458
40
0.522783651077579
40
0.5245361713707
40
0.526288691663821
40
0.528041211956942
40
0.529793732250063
40
0.531546252543184
40
0.533298772836305
40
0.535051293129426
40
0.536803813422547
40
0.538556333715668
40
0.540308854008789
40
0.542061374301911
40
0.543813894595032
40
0.545566414888153
40
0.549071455474395
40
0.550823975767516
40
0.552576496060637
40
0.556081536646879
40
0.559586577233121
40
0.561339097526242
40
0.563091617819363
40
0.564844138112485
40
0.566596658405605
40
0.570101698991848
40
0.57360673957809
40
0.577111780164332
40
0.580616820750574
40
0.584121861336816
40
0.587626901923059
40
0.591131942509301
40
0.594636983095543
40
0.598142023681785
40
0.601647064268027
40
0.605152104854269
40
0.608657145440511
40
0.612162186026754
40
0.615667226612995
40
0.619172267199238
40
0.62267730778548
40
0.626182348371722
40
0.633192429544206
40
0.640202510716691
40
0.647212591889175
40
0.650717632475417
40
0.654222673061659
40
0.657727713647901
40
0.661232754234143
40
0.664737794820386
40
0.668242835406628
40
0.675252916579112
40
0.682262997751596
40
0.685768038337838
40
0.689273078924081
40
0.692778119510323
40
0.696283160096565
40
0.699788200682807
40
0.703293241269049
40
0.710303322441533
40
0.713808363027776
40
0.717313403614018
40
0.724323484786502
40
0.731333565958986
40
0.734838606545228
40
0.73834364713147
40
0.745353728303955
40
0.748858768890197
40
0.752363809476439
40
0.755868850062681
40
0.759373890648923
40
0.766383971821408
40
0.76988901240765
40
0.773394052993892
40
0.776899093580134
40
0.780404134166376
40
0.78741421533886
40
0.790919255925102
40
0.794424296511345
40
0.797929337097587
40
0.801434377683829
40
0.808444458856313
40
0.811949499442555
40
0.815454540028797
40
0.81895958061504
40
0.822464621201282
40
0.829474702373766
40
0.832979742960008
40
0.83648478354625
40
0.838237303839371
40
0.839989824132492
40
0.843494864718735
40
0.850504945891219
40
0.854009986477461
40
0.857515027063703
40
0.861020067649945
40
0.864525108236188
40
0.871535189408672
40
0.875040229994914
40
0.878545270581156
40
0.882050311167398
40
0.88555535175364
40
0.889060392339883
40
0.892565432926125
40
0.896070473512367
40
0.899575514098609
40
0.906585595271093
40
0.910090635857335
40
0.913595676443578
40
0.920605757616062
40
0.924110798202304
40
0.927615838788546
40
0.93462591996103
40
0.938130960547273
40
0.941636001133515
40
0.945141041719756
40
0.948646082305999
40
0.955656163478483
40
0.959161204064725
40
0.962666244650967
40
0.96617128523721
40
0.969676325823452
40
0.973181366409694
40
0.976686406995936
40
0.980191447582178
40
0.98369648816842
40
0.987201528754662
40
0.990706569340905
40
0.994211609927147
40
0.997716650513389
40
1
40
1
40
1
40
1
41
1
10
-30
20
-15.9926656746839
30
0
41
1
10
-30
20
-15.9930575037623
30
0
41
1
10
-30
20
-15.993613001532
30
0
41
1
10
-30
20
-15.992743696334
30
0
41
1
10
-30
20
-15.9893850921089
30
0
41
1
10
-30
20
-15.9836860314146
30
0
41
1
10
-30
20
-15.9756808210229
30
0
41
1
10
-30
20
-15.9654018084481
30
0
41
1
10
-30
20
-15.9528811264941
30
0
41
1
10
-30
20
-15.9381491278438
30
0
41
1
10
-30
20
-15.9212355486336
30
0
41
1
10
-30
20
-15.9021692443494
30
0
41
1
10
-30
20
-15.8809772874923
30
0
41
1
10
-30
20
-15.85768719628
30
0
41
1
10
-30
20
-15.8237020449635
30
0
41
1
10
-30
20
-15.786151572388
30
0
41
1
10
-30
20
-15.7440467976174
30
0
41
1
10
-30
20
-15.7106366986067
30
0
41
1
10
-30
20
-15.6752710038507
30
0
41
1
10
-30
20
-15.6253102414823
30
0
41
1
10
-30
20
-15.5722298833996
30
0
41
1
10
-30
20
-15.5146768571488
30
0
41
1
10
-30
20
-15.454635155867
30
0
41
1
10
-30
20
-15.3917322415494
30
0
41
1
10
-30
20
-15.3243986601424
30
0
41
1
10
-30
20
-15.2546726017927
30
0
41
1
10
-30
20
-15.1823145630236
30
0
41
1
10
-30
20
-15.1055630554725
30
0
41
1
10
-30
20
-15.0465122402176
30
0
41
1
10
-30
20
-14.985753516587
30
0
41
1
10
-30
20
-14.9233034368069
30
0
41
1
10
-30
20
-14.8591738020485
30
0
41
1
10
-30
20
-14.7933781380804
30
0
41
1
10
-30
20
-14.7259318150055
30
0
41
1
10
-30
20
-14.6334478809413
30
0
41
1
10
-30
20
-14.5388306139923
30
0
41
1
10
-30
20
-14.4398724968665
30
0
41
1
10
-30
20
-14.3643499358607
30
0
41
1
10
-30
20
-14.2872489988171
30
0
41
1
10
-30
20
-14.1819460940194
30
0
41
1
10
-30
20
-14.0747689624993
30
0
41
1
10
-30
20
-13.9632604256822
30
0
41
1
10
-30
20
-13.8784200007502
30
0
41
1
10
-30
20
-13.7920640526129
30
0
41
1
10
-30
20
-13.674463030797
30
0
41
1
10
-30
20
-13.5552283874056
30
0
41
1
10
-30
20
-13.4316550911985
30
0
41
1
10
-30
20
-13.337853067095
30
0
41
1
10
-30
20
-13.2425907988595
30
0
41
1
10
-30
20
-13.1131460860381
30
0
41
1
10
-30
20
-12.9822967545723
30
0
41
1
10
-30
20
-12.847084683004
30
0
41
1
10
-30
20
-12.7446351532221
30
0
41
1
10
-30
20
-12.6407746180398
30
0
41
1
10
-30
20
-12.499887311655
30
0
41
1
10
-30
20
-12.3578191289812
30
0
41
1
10
-30
20
-12.2113468162578
30
0
41
1
10
-30
20
-12.100530667573
30
0
41
1
10
-30
20
-11.9883478761207
30
0
41
1
10
-30
20
-11.836377249174
30
0
41
1
10
-30
20
-11.6834503922585
30
0
41
1
10
-30
20
-11.5260594948948
30
0
41
1
10
-30
20
-11.4071324366749
30
0
41
1
10
-30
20
-11.2868794886981
30
0
41
1
10
-30
20
-11.1241532157817
30
0
41
1
10
-30
20
-10.9607029988619
30
0
41
1
10
-30
20
-10.7927086404325
30
0
41
1
10
-30
20
-10.6229844866849
30
0
41
1
10
-30
20
-10.4091173939315
30
0
41
1
10
-30
20
-10.1909959678347
30
0
41
1
10
-30
20
-10.0126979588287
30
0
41
1
10
-30
20
-9.83272430289384
30
0
41
1
10
-30
20
-9.65245023276196
30
0
41
1
10
-30
20
-9.46744871362009
30
0
41
1
10
-30
20
-9.32804093460692
30
0
41
1
10
-30
20
-9.18740563851225
30
0
41
1
10
-30
20
-9.0455543785921
30
0
41
1
10
-30
20
-8.90249044231979
30
0
41
1
10
-30
20
-8.70931958714519
30
0
41
1
10
-30
20
-8.46674616603482
30
0
41
1
10
-30
20
-8.22021686294167
30
0
41
1
10
-30
20
-8.01906836645577
30
0
41
1
10
-30
20
-7.86773085832667
30
0
41
1
10
-30
20
-7.71524241280142
30
0
41
1
10
-30
20
-7.56161298420645
30
0
41
1
10
-30
20
-7.40685260452798
30
0
41
1
10
-30
20
-7.19804202206524
30
0
41
1
10
-30
20
-6.93651252502835
30
0
41
1
10
-30
20
-6.61705894701072
30
0
41
1
10
-30
20
-6.34834996432815
30
0
41
1
10
-30
20
-6.12929373929515
30
0
41
1
10
-30
20
-5.96484945115367
30
0
41
1
10
-30
20
-5.7993974381898
30
0
41
1
10
-30
20
-5.63295542814623
30
0
41
1
10
-30
20
-5.46554083189747
30
0
41
1
10
-30
20
-5.29717335727497
30
0
41
1
10
-30
20
-5.12787591307327
30
0
41
1
10
-30
20
-4.9576706384986
30
0
41
1
10
-30
20
-4.78658071628459
30
0
41
1
10
-30
20
-4.6146335506248
30
0
41
1
10
-30
20
-4.44186113006066
30
0
41
1
10
-30
20
-4.26829321973949
30
0
41
1
10
-30
20
-4.09396155182321
30
0
41
1
10
-30
20
-3.91890592173866
30
0
41
1
10
-30
20
-3.74316620306936
30
0
41
1
10
-30
20
-3.56678705857649
30
0
41
1
10
-30
20
-3.42015123791836
30
0
41
1
10
-30
20
-3.3009810984795
30
0
41
1
10
-30
20
-3.21216327477833
30
0
41
1
10
-30
20
-3.12322377081893
30
0
41
1
10
-30
20
-3.00356413190352
30
0
41
1
10
-30
20
-2.85589664233001
30
0
41
1
10
-30
20
-2.70788037697056
30
0
41
1
10
-30
20
-2.58749550859633
30
0
41
1
10
-30
20
-2.49793822974365
30
0
41
1
10
-30
20
-2.40833000131903
30
0
41
1
10
-30
20
-2.31867596083524
30
0
41
1
10
-30
20
-2.22899146909501
30
0
41
1
10
-30
20
-2.10827328924756
30
0
41
1
10
-30
20
-1.99097459417121
30
0
41
1
10
-30
20
-1.87012467714985
30
0
41
1
10
-30
20
-1.78043031683035
30
0
41
1
10
-30
20
-1.69076251244053
30
0
41
1
10
-30
20
-1.60113247848605
30
0
41
1
10
-30
20
-1.51155313609783
30
0
41
1
10
-30
20
-1.422025757727
30
0
41
1
10
-30
20
-1.33256776537959
30
0
41
1
10
-30
20
-1.24317741509074
30
0
41
1
10
-30
20
-1.15386860885192
30
0
41
1
10
-30
20
-1.06464013673647
30
0
41
1
10
-30
20
-0.975500136218244
30
0
41
1
10
-30
20
-0.886447988926847
30
0
41
1
10
-30
20
-0.797485776681128
30
0
41
1
10
-30
20
-0.708610852102623
30
0
41
1
10
-30
20
-0.61982073744278
30
0
41
1
10
-30
20
-0.531109764951225
30
0
41
1
10
-30
20
-0.442471434007643
30
0
41
1
10
-30
20
-0.35389600796347
30
0
41
1
10
-30
20
-0.265373879214224
30
0
41
1
10
-30
20
-0.176892371692162
30
0
41
1
10
-30
20
-0.0884392148653887
30
0
41
1
10
-30
20
-2.04973958E-08
30
0
41
1
10
-30
20
0.0884392031952927
30
0
41
1
10
-30
20
0.17689241471993
30
0
41
1
10
-30
20
0.265373915570137
30
0
41
1
10
-30
20
0.353895962579486
30
0
41
1
10
-30
20
0.442471374506823
30
0
41
1
10
-30
20
0.531109813902646
30
0
41
1
10
-30
20
0.61982082298212
30
0
41
1
10
-30
20
0.70861080655007
30
0
41
1
10
-30
20
0.797485667180155
30
0
41
1
10
-30
20
0.886448026006832
30
0
41
1
10
-30
20
0.97550027278379
30
0
41
1
10
-30
20
1.06464012636249
30
0
41
1
10
-30
20
1.1538684580087
30
0
41
1
10
-30
20
1.24317738635406
30
0
41
1
10
-30
20
1.33256791795026
30
0
41
1
10
-30
20
1.42202585063245
30
0
41
1
10
-30
20
1.5115530207047
30
0
41
1
10
-30
20
1.60113232466117
30
0
41
1
10
-30
20
1.69076256252157
30
0
41
1
10
-30
20
1.78043050963589
30
0
41
1
10
-30
20
1.87012473193457
30
0
41
1
10
-30
20
1.95984062320625
30
0
41
1
10
-30
20
2.04956121840738
30
0
41
1
10
-30
20
2.13928298465069
30
0
41
1
10
-30
20
2.22899154181988
30
0
41
1
10
-30
20
2.34971237639814
30
0
41
1
10
-30
20
2.4670581044816
30
0
41
1
10
-30
20
2.58749567267543
30
0
41
1
10
-30
20
2.70788056755165
30
0
41
1
10
-30
20
2.85589666602098
30
0
41
1
10
-30
20
3.00356394920902
30
0
41
1
10
-30
20
3.12322374659235
30
0
41
1
10
-30
20
3.21216341650842
30
0
41
1
10
-30
20
3.3009812939207
30
0
41
1
10
-30
20
3.4201512431562
30
0
41
1
10
-30
20
3.56678672363679
30
0
41
1
10
-30
20
3.74316585626101
30
0
41
1
10
-30
20
3.91890584757377
30
0
41
1
10
-30
20
4.09396100129445
30
0
41
1
10
-30
20
4.26829259541552
30
0
41
1
10
-30
20
4.44186183082067
30
0
41
1
10
-30
20
4.61463414914383
30
0
41
1
10
-30
20
4.78658021025493
30
0
41
1
10
-30
20
4.95767123056282
30
0
41
1
10
-30
20
5.1278778625566
30
0
41
1
10
-30
20
5.29717415068043
30
0
41
1
10
-30
20
5.46553992297879
30
0
41
1
10
-30
20
5.63295448869491
30
0
41
1
10
-30
20
5.79939725011727
30
0
41
1
10
-30
20
5.96484950556561
30
0
41
1
10
-30
20
6.1292936535483
30
0
41
1
10
-30
20
6.34834993475852
30
0
41
1
10
-30
20
6.6170590196507
30
0
41
1
10
-30
20
6.93651248001379
30
0
41
1
10
-30
20
7.19804203228608
30
0
41
1
10
-30
20
7.40685270744595
30
0
41
1
10
-30
20
7.56161297986856
30
0
41
1
10
-30
20
7.71524232371232
30
0
41
1
10
-30
20
7.86773082006812
30
0
41
1
10
-30
20
8.01906843480592
30
0
41
1
10
-30
20
8.22021692135615
30
0
41
1
10
-30
20
8.46674612315107
30
0
41
1
10
-30
20
8.7093195790371
30
0
41
1
10
-30
20
8.90249052457438
30
0
41
1
10
-30
20
9.04555441784282
30
0
41
1
10
-30
20
9.18740560593943
30
0
41
1
10
-30
20
9.32804088163152
30
0
41
1
10
-30
20
9.46744870809565
30
0
41
1
10
-30
20
9.65245029192155
30
0
41
1
10
-30
20
9.83272433616031
30
0
41
1
10
-30
20
10.0126979221092
30
0
41
1
10
-30
20
10.1909959517429
30
0
41
1
10
-30
20
10.4091174330404
30
0
41
1
10
-30
20
10.6229845090751
30
0
41
1
10
-30
20
10.7927086151923
30
0
41
1
10
-30
20
10.9607029915804
30
0
41
1
10
-30
20
11.1241532476502
30
0
41
1
10
-30
20
11.286879520772
30
0
41
1
10
-30
20
11.4071324437642
30
0
41
1
10
-30
20
11.526059483736
30
0
41
1
10
-30
20
11.6834503898541
30
0
41
1
10
-30
20
11.8363772717575
30
0
41
1
10
-30
20
11.9883479026383
30
0
41
1
10
-30
20
12.100530681097
30
0
41
1
10
-30
20
12.211346817793
30
0
41
1
10
-30
20
12.3578191303265
30
0
41
1
10
-30
20
12.4998873251013
30
0
41
1
10
-30
20
12.640774639564
30
0
41
1
10
-30
20
12.7446351726738
30
0
41
1
10
-30
20
12.8470846962099
30
0
41
1
10
-30
20
12.9822967603461
30
0
41
1
10
-30
20
13.1131460918651
30
0
41
1
10
-30
20
13.2425908150843
30
0
41
1
10
-30
20
13.3378530905647
30
0
41
1
10
-30
20
13.431655102243
30
0
41
1
10
-30
20
13.5552284439381
30
0
41
1
10
-30
20
13.6744629632361
30
0
41
1
10
-30
20
13.7920640428987
30
0
41
1
10
-30
20
13.8638084100541
30
0
41
1
10
-30
20
13.9208384799595
30
0
41
1
10
-30
20
13.9773600368974
30
0
41
1
10
-30
20
14.0747689786766
30
0
41
1
10
-30
20
14.1819460903518
30
0
41
1
10
-30
20
14.2872490063531
30
0
41
1
10
-30
20
14.3643499644422
30
0
41
1
10
-30
20
14.4398725346097
30
0
41
1
10
-30
20
14.5388306330265
30
0
41
1
10
-30
20
14.6334478734244
30
0
41
1
10
-30
20
14.7259318226356
30
0
41
1
10
-30
20
14.793378171537
30
0
41
1
10
-30
20
14.8591738437125
30
0
41
1
10
-30
20
14.9233034607296
30
0
41
1
10
-30
20
14.9857535133679
30
0
41
1
10
-30
20
15.0465122321639
30
0
41
1
10
-30
20
15.1055630695376
30
0
41
1
10
-30
20
15.1823146060513
30
0
41
1
10
-30
20
15.2546726312332
30
0
41
1
10
-30
20
15.3243986497297
30
0
41
1
10
-30
20
15.3917322452796
30
0
41
1
10
-30
20
15.4546352005829
30
0
41
1
10
-30
20
15.5146768877911
30
0
41
1
10
-30
20
15.5722298782127
30
0
41
1
10
-30
20
15.6253102421943
30
0
41
1
10
-30
20
15.6752710489662
30
0
41
1
10
-30
20
15.7106367362118
30
0
41
1
10
-30
20
15.7440468008705
30
0
41
1
10
-30
20
15.7861515665346
30
0
41
1
10
-30
20
15.8237020814765
30
0
41
1
10
-30
20
15.8576872273509
30
0
41
1
10
-30
20
15.8809772969169
30
0
41
1
10
-30
20
15.9021692417172
30
0
41
1
10
-30
20
15.921235563756
30
0
41
1
10
-30
20
15.9381491696965
30
0
41
1
10
-30
20
15.9528811556007
30
0
41
1
10
-30
20
15.9654018081648
30
0
41
1
10
-30
20
15.9756808201301
30
0
41
1
10
-30
20
15.9836860510364
30
0
41
1
10
-30
20
15.989385071505
30
0
41
1
10
-30
20
15.992743547039
30
0
41
1
10
-30
20
15.9936126291161
30
0
41
1
10
-30
20
15.9930576912493
30
0
41
1
10
-30
20
15.9926664650758
30
0
0
SPLINE
5
15A
100
AcDbEntity
8
1
62
256
6
ByLayer
370
18
48
1
60
0
100
AcDbSpline
70
4
71
3
72
8
73
4
40
0
40
0
40
0
40
0
40
1
40
1
40
1
40
1
41
1
10
17.4495574936458
20
-21.2549759673791
30
0
41
1
10
17.4419789771171
20
-21.2849367393137
30
0
41
1
10
17.4355054292484
20
-21.3129189568482
30
0
41
1
10
17.4303191742212
20
-21.3388478541342
30
0
0
SPLINE
5
15B
100
AcDbEntity
8
1
62
256
6
ByLayer
370
18
48
1
60
0
100
AcDbSpline
70
4
71
3
72
8
73
4
40
0
40
0
40
0
40
0
40
1
40
1
40
1
40
1
41
1
10
20.4441802061305
20
-24.4701747267055
30
0
41
1
10
20.6017913056672
20
-23.9454546374087
30
0
41
1
10
20.7721293622392
20
-23.4241874585932
30
0
41
1
10
20.9517633191552
20
-22.9050842523437
30
0
0
SPLINE
5
15C
100
AcDbEntity
8
1
62
256
6
ByLayer
370
18
48
1
60
0
100
AcDbSpline
70
4
71
3
72
8
73
4
40
0
40
0
40
0
40
0
40
1
40
1
40
1
40
1
41
1
10
21.8423164442404
20
-28.4314474839352
30
0
41
1
10
21.874400767102
20
-28.5556802102179
30
0
41
1
10
21.9345636772011
20
-28.6853503075483
30
0
41
1
10
22.023079533289
20
-28.8205109050356
30
0
0
SPLINE
5
15D
100
AcDbEntity
8
1
62
256
6
ByLayer
370
18
48
1
60
0
100
AcDbSpline
70
4
71
3
72
8
73
4
40
0
40
0
40
0
40
0
40
1
40
1
40
1
40
1
41
1
10
41.3377625543039
20
-26.4819492154452
30
0
41
1
10
41.0637713810492
20
-26.3876834198338
30
0
41
1
10
40.8033279997914
20
-26.2694934910161
30
0
41
1
10
40.5572188094353
20
-26.1264916570444
30
0
0
SPLINE
5
15E
100
AcDbEntity
8
1
62
256
6
ByLayer
370
18
48
1
60
0
100
AcDbSpline
70
4
71
3
72
8
73
4
40
0
40
0
40
0
40
0
40
1
40
1
40
1
40
1
41
1
10
40.2183196050925
20
-17.5557230380839
30
0
41
1
10
40.1032655408772
20
-15.9880119445612
30
0
41
1
10
39.9298659891361
20
-14.5306919375482
30
0
41
1
10
39.686587449149
20
-13.6953456444198
30
0
0
SPLINE
5
15F
100
AcDbEntity
8
1
62
256
6
ByLayer
370
18
48
1
60
0
100
AcDbSpline
70
4
71
3
72
11
73
7
40
0
40
0
40
0
40
0
40
0.423407924946022
40
0.740963868655539
40
0.899741840510297
40
1
40
1
40
1
40
1
41
1.02805999725224
10
40.0607648646108
20
-27.9608206383585
30
0
41
1.02767136955277
10
40.8543036697163
20
-28.3009990423406
30
0
41
1.02349884684923
10
44.0841634547145
20
-28.7797723224527
30
0
41
1.01876555595691
10
48.2917348265351
20
-29.0065934637481
30
0
41
1.01635405201144
10
49.877659518567
20
-29.0897411357232
30
0
41
1.01722454828215
10
50.3238276051809
20
-29.2875216146196
30
0
41
1.0177432798788
10
50.5047343387904
20
-29.3768495550537
30
0
0
SPLINE
5
160
100
AcDbEntity
8
1
62
256
6
ByLayer
370
18
48
1
60
0
100
AcDbSpline
70
4
71
3
72
12
73
8
40
0
40
0
40
0
40
0
40
0.108853988607131
40
0.502629237162305
40
0.699516861439892
40
0.896404485717479
40
1
40
1
40
1
40
1
41
1.02441262532206
10
46.8038730030306
20
-23.5921100954731
30
0
41
1.02394775682001
10
47.0830263412778
20
-23.7841970136834
30
0
41
1.02173322384668
10
48.4012650201778
20
-24.6972784419125
30
0
41
1.01876555595691
10
50.2366672749
20
-26.0022653722604
30
0
41
1.01610930227499
10
51.4542908947722
20
-26.8905082538126
30
0
41
1.01814069306376
10
52.064776743129
20
-27.2204826889444
30
0
41
1.02005196006971
10
52.5987646621683
20
-27.5293276066427
30
0
41
1.02076673234773
10
52.7928235461654
20
-27.6440069084629
30
0
0
SPLINE
5
161
100
AcDbEntity
8
1
62
256
6
ByLayer
370
18
48
1
60
0
100
AcDbSpline
70
4
71
3
72
8
73
4
40
0
40
0
40
0
40
0
40
1
40
1
40
1
40
1
41
1
10
40.0607648646108
20
-27.9608206383585
30
0
41
1
10
40.3591418586291
20
-27.7371954054721
30
0
41
1
10
40.8148101114261
20
-27.2094930040041
30
0
41
1
10
41.337762568724
20
-26.4819492204064
30
0
0
SPLINE
5
162
100
AcDbEntity
8
1
62
256
6
ByLayer
370
18
48
1
60
0
100
AcDbSpline
70
4
71
3
72
8
73
4
40
0
40
0
40
0
40
0
40
1
40
1
40
1
40
1
41
1
10
45.4550079757765
20
-19.4827118654817
30
0
41
1
10
45.2435840429538
20
-19.2931133327521
30
0
41
1
10
45.0101715835838
20
-19.1212841855385
30
0
41
1
10
44.7625967420436
20
-18.9774307344167
30
0
0
SPLINE
5
163
100
AcDbEntity
8
1
62
256
6
ByLayer
370
18
48
1
60
0
100
AcDbSpline
70
4
71
3
72
20
73
16
40
0
40
0
40
0
40
0
40
0.110576036200127
40
0.110576036200127
40
0.197179369122807
40
0.197179369122807
40
0.28429111738737
40
0.28429111738737
40
0.365904217918081
40
0.365904217918081
40
0.497270233392078
40
0.497270233392078
40
0.733496364826715
40
0.733496364826715
40
1
40
1
40
1
40
1
41
1
10
50.5047343388654
20
-29.3768495550907
30
0
41
1
10
50.5020976767216
20
-29.3370505325018
30
0
41
1
10
50.5086817566053
20
-29.2939022967254
30
0
41
1
10
50.5446744836848
20
-29.2141293368318
30
0
41
1
10
50.5694562567371
20
-29.1773593926354
30
0
41
1
10
50.6369699971043
20
-29.1058039997774
30
0
41
1
10
50.6807559639157
20
-29.0701541193952
30
0
41
1
10
50.77647881223
20
-29.0075690130996
30
0
41
1
10
50.828667531131
20
-28.9794744784722
30
0
41
1
10
50.9689424514275
20
-28.9149305005074
30
0
41
1
10
51.0618154055326
20
-28.8824190802401
30
0
41
1
10
51.3171464663218
20
-28.8091161201592
30
0
41
1
10
51.4818536753602
20
-28.7796221438913
30
0
41
1
10
51.8189241267041
20
-28.7351387637233
30
0
41
1
10
51.9931296423914
20
-28.72243308065
30
0
41
1
10
52.1623843255143
20
-28.7157413562976
30
0
0
SPLINE
5
164
100
AcDbEntity
8
1
62
256
6
ByLayer
370
18
48
1
60
0
100
AcDbSpline
70
4
71
3
72
8
73
4
40
0
40
0
40
0
40
0
40
1
40
1
40
1
40
1
41
1
10
36.3724615813315
20
-22.0022469327408
30
0
41
1
10
36.1832098395703
20
-21.8301225885447
30
0
41
1
10
35.9832052716773
20
-21.6842951654242
30
0
41
1
10
35.7770274215723
20
-21.5585492133894
30
0
0
SPLINE
5
165
100
AcDbEntity
8
1
62
256
6
ByLayer
370
18
48
1
60
0
100
AcDbSpline
70
4
71
3
72
11
73
7
40
0
40
0
40
0
40
0
40
0.423407924939447
40
0.740963868644031
40
0.899741840496324
40
1
40
1
40
1
40
1
41
1.02805999725224
10
46.2194094768117
20
-17.4912442437988
30
0
41
1.02767136955277
10
46.9034673483757
20
-18.0175381114908
30
0
41
1.02349884684923
10
48.8802456951193
20
-20.626525533349
30
0
41
1.01876555595691
10
51.1380572166382
20
-24.1679006046991
30
0
41
1.01635405201137
10
51.9961749978228
20
-25.48830590942
30
0
41
1.01722454828226
10
52.3958933347381
20
-25.7650500619518
30
0
41
1.01774327987904
10
52.5664767793813
20
-25.8719273934794
30
0
0
SPLINE
5
166
100
AcDbEntity
8
1
62
256
6
ByLayer
370
18
48
1
60
0
100
AcDbSpline
70
4
71
3
72
10
73
6
40
0
40
0
40
0
40
0
40
0.5
40
0.5
40
1
40
1
40
1
40
1
41
1
10
39.1847211370348
20
-28.6173909722824
30
0
41
1
10
40.3429841454259
20
-29.275803815453
30
0
41
1
10
41.5737504676408
20
-29.7353274742264
30
0
41
1
10
44.0868488241909
20
-30.5129210859277
30
0
41
1
10
45.3927918160268
20
-30.7865562835721
30
0
41
1
10
46.7085492335661
20
-30.9539401716234
30
0
0
SPLINE
5
167
100
AcDbEntity
8
1
62
256
6
ByLayer
370
18
48
1
60
0
100
AcDbSpline
70
4
71
3
72
8
73
4
40
0
40
0
40
0
40
0
40
1
40
1
40
1
40
1
41
1
10
52.2180383523344
20
-21.5879155256059
30
0
41
1
10
52.7053991936004
20
-22.2384601343152
30
0
41
1
10
53.2427665038853
20
-22.8006337174125
30
0
41
1
10
53.7586795324481
20
-23.1921122278617
30
0
0
SPLINE
5
168
100
AcDbEntity
8
1
62
256
6
ByLayer
370
18
48
1
60
0
100
AcDbSpline
70
4
71
3
72
10
73
6
40
0
40
0
40
0
40
0
40
0.5
40
0.5
40
1
40
1
40
1
40
1
41
1
10
52.5664767793807
20
-25.871927393479
30
0
41
1
10
53.0005332539097
20
-25.63086692895
30
0
41
1
10
53.4446570961279
20
-25.4537454978391
30
0
41
1
10
54.3936412389135
20
-25.4852470089167
30
0
41
1
10
54.9014587209695
20
-25.7248111251902
30
0
41
1
10
55.3117937895892
20
-26.3367569851127
30
0
0
SPLINE
5
169
100
AcDbEntity
8
1
62
256
6
ByLayer
370
18
48
1
60
0
100
AcDbSpline
70
4
71
3
72
8
73
4
40
0
40
0
40
0
40
0
40
1
40
1
40
1
40
1
41
1
10
54.003447070377
20
-23.3871927646138
30
0
41
1
10
53.923304441586
20
-23.3202401756811
30
0
41
1
10
53.8417310067533
20
-23.2551322828935
30
0
41
1
10
53.7586795324481
20
-23.1921122278617
30
0
0
SPLINE
5
16A
100
AcDbEntity
8
1
62
256
6
ByLayer
370
18
48
1
60
0
100
AcDbSpline
70
4
71
3
72
10
73
6
40
0
40
0
40
0
40
0
40
0.5
40
0.5
40
1
40
1
40
1
40
1
41
1
10
52.413200913208
20
-31.2643086563008
30
0
41
1
10
51.6714040549815
20
-31.2381915465506
30
0
41
1
10
51.1764017122243
20
-30.9627675974892
30
0
41
1
10
50.6290311622113
20
-30.2564059745297
30
0
41
1
10
50.5343148231771
20
-29.8239774868961
30
0
41
1
10
50.5047343388642
20
-29.3768495550901
30
0
0
SPLINE
5
16B
100
AcDbEntity
8
1
62
256
6
ByLayer
370
18
48
1
60
0
100
AcDbSpline
70
4
71
3
72
10
73
6
40
0
40
0
40
0
40
0
40
0.264715639145585
40
0.264715639145585
40
1
40
1
40
1
40
1
41
1
10
53.416903975026
20
-28.6980529340725
30
0
41
1
10
53.3600298301673
20
-28.6091960111122
30
0
41
1
10
53.3036881493258
20
-28.5190125364435
30
0
41
1
10
53.0927080502189
20
-28.1741744758675
30
0
41
1
10
52.9411920977124
20
-27.9120938339279
30
0
41
1
10
52.7928235461744
20
-27.6440069084683
30
0
0
SPLINE
5
16C
100
AcDbEntity
8
1
62
256
6
ByLayer
370
18
48
1
60
0
100
AcDbSpline
70
4
71
3
72
10
73
6
40
0
40
0
40
0
40
0
40
0.655488757716273
40
0.655488757716273
40
1
40
1
40
1
40
1
41
1
10
40.1341796363461
20
-12.4335382822921
30
0
41
1
10
39.8219899260669
20
-12.2349986644972
30
0
41
1
10
39.452496220889
20
-12.0456586017935
30
0
41
1
10
38.8147573643502
20
-11.8522551747594
30
0
41
1
10
38.5789869161488
20
-11.8025131874413
30
0
41
1
10
38.3350823843926
20
-11.7791954326512
30
0
0
SPLINE
5
16D
100
AcDbEntity
8
1
62
256
6
ByLayer
370
18
48
1
60
0
100
AcDbSpline
70
4
71
3
72
8
73
4
40
0
40
0
40
0
40
0
40
1
40
1
40
1
40
1
41
1
10
55.6827688883183
20
-27.5849580525128
30
0
41
1
10
55.7188861996084
20
-27.6552526376308
30
0
41
1
10
55.7526574511202
20
-27.7302252128609
30
0
41
1
10
55.7833447186157
20
-27.8086512321031
30
0
0
SPLINE
5
16E
100
AcDbEntity
8
1
62
256
6
ByLayer
370
18
48
1
60
0
100
AcDbSpline
70
4
71
3
72
8
73
4
40
0
40
0
40
0
40
0
40
1
40
1
40
1
40
1
41
1
10
39.0791783990484
20
-17.4008808390738
30
0
41
1
10
38.8393222596386
20
-17.3147829894139
30
0
41
1
10
38.6178998800583
20
-17.2053654307659
30
0
41
1
10
38.4117220299532
20
-17.0796194787311
30
0
0
SPLINE
5
16F
100
AcDbEntity
8
1
62
256
6
ByLayer
370
18
48
1
60
0
100
AcDbSpline
70
4
71
3
72
11
73
7
40
0
40
0
40
0
40
0
40
0.564783939443776
40
0.564783939443776
40
0.564783939443776
40
1
40
1
40
1
40
1
41
1
10
48.8938683707263
20
-31.4621968503532
30
0
41
1
10
48.5536970803394
20
-31.3353294254296
30
0
41
1
10
48.158417695881
20
-31.2085417674554
30
0
41
1
10
47.7354504586985
20
-31.1205692979192
30
0
41
1
10
47.4068278885264
20
-31.0522194672421
30
0
41
1
10
47.0590431943079
20
-30.9985282097414
30
0
41
1
10
46.7085492335665
20
-30.9539401716234
30
0
0
SPLINE
5
170
100
AcDbEntity
8
1
62
256
6
ByLayer
370
18
48
1
60
0
100
AcDbSpline
70
4
71
3
72
8
73
4
40
0
40
0
40
0
40
0
40
1
40
1
40
1
40
1
41
1
10
53.945618521377
20
-30.9327501249274
30
0
41
1
10
53.8609161102563
20
-30.9461488022307
30
0
41
1
10
53.7775100888626
20
-30.9555543731387
30
0
41
1
10
53.6968649794052
20
-30.9609561812937
30
0
0
SPLINE
5
171
100
AcDbEntity
8
1
62
256
6
ByLayer
370
18
48
1
60
0
100
AcDbSpline
70
4
71
3
72
12
73
8
40
0
40
0
40
0
40
0
40
0.466938972358616
40
0.466938972358616
40
0.928803236876548
40
0.928803236876548
40
1
40
1
40
1
40
1
41
1
10
37.0616448024106
20
-22.9220089793651
30
0
41
1
10
36.9921311291608
20
-22.7659050387371
30
0
41
1
10
36.8977879040293
20
-22.6066657361504
30
0
41
1
10
36.6828181155398
20
-22.315782905279
30
0
41
1
10
36.559975928642
20
-22.1796189796025
30
0
41
1
10
36.4126109534621
20
-22.0391831757801
30
0
41
1
10
36.3925981691193
20
-22.0205611471046
30
0
41
1
10
36.3724615813315
20
-22.0022469327408
30
0
0
SPLINE
5
172
100
AcDbEntity
8
1
62
256
6
ByLayer
370
18
48
1
60
0
100
AcDbSpline
70
4
71
3
72
10
73
6
40
0
40
0
40
0
40
0
40
0.5
40
0.5
40
1
40
1
40
1
40
1
41
1
10
52.2180383523343
20
-21.5879155256057
30
0
41
1
10
51.4295909208087
20
-20.5354710483325
30
0
41
1
10
50.5624043340262
20
-19.5513462795531
30
0
41
1
10
48.640365418893
20
-17.7459289277891
30
0
41
1
10
47.6207046533726
20
-16.8960122053556
30
0
41
1
10
46.47864357945
20
-16.2178642849372
30
0
0
SPLINE
5
173
100
AcDbEntity
8
1
62
256
6
ByLayer
370
18
48
1
60
0
100
AcDbSpline
70
4
71
3
72
10
73
6
40
0
40
0
40
0
40
0
40
0.5
40
0.5
40
1
40
1
40
1
40
1
41
1
10
32.7980038185243
20
-21.6483203624402
30
0
41
1
10
32.4567017704371
20
-22.2904058623844
30
0
41
1
10
32.3030092517947
20
-22.9479501003506
30
0
41
1
10
32.275887949409
20
-23.9112956331999
30
0
41
1
10
32.3471190023872
20
-24.2437493902767
30
0
41
1
10
32.5879982780773
20
-24.586917596342
30
0
0
SPLINE
5
174
100
AcDbEntity
8
1
62
256
6
ByLayer
370
18
48
1
60
0
100
AcDbSpline
70
4
71
3
72
12
73
8
40
0
40
0
40
0
40
0
40
0.108854002841677
40
0.502629245107336
40
0.699516866240166
40
0.896404487372996
40
1
40
1
40
1
40
1
41
1.0244126255267
10
45.5813711716728
20
-25.6703392051498
30
0
41
1.02394775696077
10
45.8884901173422
20
-25.8148852264332
30
0
41
1.02173322391444
10
47.3454605006006
20
-26.4921255472193
30
0
41
1.01876555595691
10
49.4153625203931
20
-27.3984675258081
30
0
41
1.01610930227499
10
50.8157445496311
20
-27.9760246560224
30
0
41
1.01814069306376
10
51.4167390025988
20
-28.3221342792289
30
0
41
1.0200519600697
10
51.9618959197193
20
-28.6119921168036
30
0
41
1.02076673234771
10
52.1623843254982
20
-28.7157413562893
30
0
0
SPLINE
5
175
100
AcDbEntity
8
1
62
256
6
ByLayer
370
18
48
1
60
0
100
AcDbSpline
70
4
71
3
72
15
73
11
40
0
40
0
40
0
40
0
40
0.322163720426458
40
0.322163720426458
40
0.644833452600232
40
0.644833452600232
40
0.912233455904557
40
0.912233455904557
40
0.912233455904557
40
1
40
1
40
1
40
1
41
1
10
41.337762568724
20
-26.4819492204064
30
0
41
1
10
41.7959916143097
20
-26.6389290256798
30
0
41
1
10
42.2878201556671
20
-26.7185027325893
30
0
41
1
10
43.2563434743949
20
-26.7213626504251
30
0
41
1
10
43.7467528439834
20
-26.6447247070553
30
0
41
1
10
44.5842894436993
20
-26.3592598089054
30
0
41
1
10
44.9513245298653
20
-26.1707749880988
30
0
41
1
10
45.2739044817491
20
-25.9290596018657
30
0
41
1
10
45.3811054855014
20
-25.8487318199462
30
0
41
1
10
45.4840460010052
20
-25.7622159346754
30
0
41
1
10
45.5813713068192
20
-25.6703392687567
30
0
0
SPLINE
5
176
100
AcDbEntity
8
1
62
256
6
ByLayer
370
18
48
1
60
0
100
AcDbSpline
70
4
71
3
72
8
73
4
40
0
40
0
40
0
40
0
40
1
40
1
40
1
40
1
41
1
10
36.3724615813315
20
-22.0022469327408
30
0
41
1
10
35.0120133333261
20
-21.9567138813025
30
0
41
1
10
33.7655215841155
20
-21.8602192343488
30
0
41
1
10
32.9628546995789
20
-21.6822246028882
30
0
0
SPLINE
5
177
100
AcDbEntity
8
1
62
256
6
ByLayer
370
18
48
1
60
0
100
AcDbSpline
70
4
71
3
72
20
73
16
40
0
40
0
40
0
40
0
40
0.332873226652389
40
0.332873226652389
40
0.501657261698204
40
0.501657261698204
40
0.631212321676501
40
0.631212321676501
40
0.722542323637655
40
0.722542323637655
40
0.814765347404174
40
0.814765347404174
40
0.896421359038784
40
0.896421359038784
40
1
40
1
40
1
40
1
41
1
10
52.7928235461744
20
-27.6440069084683
30
0
41
1
10
52.6928675519509
20
-27.463485988539
30
0
41
1
10
52.5970763715841
20
-27.2708052948464
30
0
41
1
10
52.4753881618784
20
-26.9532949849837
30
0
41
1
10
52.4380106359174
20
-26.8403766697326
30
0
41
1
10
52.3877387805433
20
-26.6321671751276
30
0
41
1
10
52.3709129869803
20
-26.5371199636556
30
0
41
1
10
52.3587708331447
20
-26.3765329352571
30
0
41
1
10
52.3586484684595
20
-26.3092093428341
30
0
41
1
10
52.3712018361053
20
-26.1836690252942
30
0
41
1
10
52.3843339035381
20
-26.1239653982009
30
0
41
1
10
52.4197699092818
20
-26.0291758567636
30
0
41
1
10
52.4411623082952
20
-25.9908547525629
30
0
41
1
10
52.4953405755617
20
-25.9206642021121
30
0
41
1
10
52.5301951620178
20
-25.8920731287934
30
0
41
1
10
52.5664767793807
20
-25.871927393479
30
0
0
SPLINE
5
178
100
AcDbEntity
8
1
62
256
6
ByLayer
370
18
48
1
60
0
100
AcDbSpline
70
4
71
3
72
8
73
4
40
0
40
0
40
0
40
0
40
1
40
1
40
1
40
1
41
1
10
37.1404471580601
20
-23.1218539835712
30
0
41
1
10
37.4223506690482
20
-23.9401661810348
30
0
41
1
10
38.000658705836
20
-24.6410014852031
30
0
41
1
10
38.7992385138514
20
-25.1050165711648
30
0
0
SPLINE
5
179
100
AcDbEntity
8
1
62
256
6
ByLayer
370
18
48
1
60
0
100
AcDbSpline
70
4
71
3
72
8
73
4
40
0
40
0
40
0
40
0
40
1
40
1
40
1
40
1
41
1
10
48.8938683707263
20
-31.4621968503532
30
0
41
1
10
48.9923790459319
20
-31.4989365636799
30
0
41
1
10
49.0919900648352
20
-31.5333809133809
30
0
41
1
10
49.1925094057939
20
-31.5656934868291
30
0
0
SPLINE
5
17A
100
AcDbEntity
8
1
62
256
6
ByLayer
370
18
48
1
60
0
100
AcDbSpline
70
4
71
2
72
6
73
3
40
0
40
0
40
0
40
1
40
1
40
1
41
1
10
54.003314155995
20
-23.387330403954
30
0
41
1
10
54.5046533378303
20
-24.2637572979987
30
0
41
1
10
54.9098097745651
20
-25.1705068662157
30
0
0
SPLINE
5
17B
100
AcDbEntity
8
1
62
256
6
ByLayer
370
18
48
1
60
0
100
AcDbSpline
70
4
71
3
72
8
73
4
40
0
40
0
40
0
40
0
40
1
40
1
40
1
40
1
41
1
10
54.9098368904534
20
-25.1706251142702
30
0
41
1
10
55.0446386659464
20
-25.5582700375307
30
0
41
1
10
55.1788630610512
20
-25.9476577888426
30
0
41
1
10
55.3117937895892
20
-26.3367569851127
30
0
0
SPLINE
5
17C
100
AcDbEntity
8
1
62
256
6
ByLayer
370
18
48
1
60
0
100
AcDbSpline
70
4
71
3
72
8
73
4
40
0
40
0
40
0
40
0
40
1
40
1
40
1
40
1
41
1
10
40.2183196050925
20
-17.5557230380839
30
0
41
1
10
40.2910545964973
20
-17.5478003253814
30
0
41
1
10
40.3631721775931
20
-17.5367254551303
30
0
41
1
10
40.4341697346482
20
-17.52258948473
30
0
0
SPLINE
5
17D
100
AcDbEntity
8
1
62
256
6
ByLayer
370
18
48
1
60
0
100
AcDbSpline
70
4
71
3
72
8
73
4
40
0
40
0
40
0
40
0
40
1
40
1
40
1
40
1
41
1
10
37.2255141517815
20
-14.4357862079183
30
0
41
1
10
37.7236186527745
20
-15.1171953020376
30
0
41
1
10
38.3911407331018
20
-16.2144103920697
30
0
41
1
10
39.0791783990484
20
-17.4008808390738
30
0
0
SPLINE
5
17E
100
AcDbEntity
8
1
62
256
6
ByLayer
370
18
48
1
60
0
100
AcDbSpline
70
4
71
3
72
12
73
8
40
0
40
0
40
0
40
0
40
0.47134308667852
40
0.47134308667852
40
0.892619726108219
40
0.892619726108219
40
1
40
1
40
1
40
1
41
1
10
39.0791783990483
20
-17.4008808390738
30
0
41
1
10
39.2461754507937
20
-17.4608254670921
30
0
41
1
10
39.4250728309224
20
-17.5090011158843
30
0
41
1
10
39.768518907516
20
-17.5632180283772
30
0
41
1
10
39.9362211650218
20
-17.5734028024368
30
0
41
1
10
40.1371554559164
20
-17.5633491623495
30
0
41
1
10
40.1780515802725
20
-17.5601092624523
30
0
41
1
10
40.2183196050925
20
-17.5557230380839
30
0
0
SPLINE
5
17F
100
AcDbEntity
8
1
62
256
6
ByLayer
370
18
48
1
60
0
100
AcDbSpline
70
4
71
3
72
15
73
11
40
0
40
0
40
0
40
0
40
0.227604479949749
40
0.227604479949749
40
0.479423709218442
40
0.479423709218442
40
0.785574270382838
40
0.785574270382838
40
0.785574270382838
40
1
40
1
40
1
40
1
41
1
10
46.8038730030305
20
-23.592110095473
30
0
41
1
10
46.8874602367429
20
-23.2614937253742
30
0
41
1
10
46.9226102927479
20
-22.9123526447603
30
0
41
1
10
46.8993698937832
20
-22.1894599446844
30
0
41
1
10
46.8312829775796
20
-21.8085491129376
30
0
41
1
10
46.5782064626615
20
-21.0078319437656
30
0
41
1
10
46.3679830488481
20
-20.5856233129423
30
0
41
1
10
46.1018738556816
20
-20.2097671179251
30
0
41
1
10
45.9143448075337
20
-19.9448985741016
30
0
41
1
10
45.6964152342601
20
-19.6993071311373
30
0
41
1
10
45.4550079821005
20
-19.4827118711528
30
0
0
SPLINE
5
180
100
AcDbEntity
8
1
62
256
6
ByLayer
370
18
48
1
60
0
100
AcDbSpline
70
4
71
3
72
8
73
4
40
0
40
0
40
0
40
0
40
1
40
1
40
1
40
1
41
1
10
33.5279428369481
20
-24.1649220389795
30
0
41
1
10
34.3233981075089
20
-24.059853851086
30
0
41
1
10
35.6497983189489
20
-23.5604309388594
30
0
41
1
10
37.0616448024061
20
-22.9220089793576
30
0
0
SPLINE
5
181
100
AcDbEntity
8
1
62
256
6
ByLayer
370
18
48
1
60
0
100
AcDbSpline
70
4
71
1
72
4
73
2
40
0
40
0
40
1
40
1
41
1
10
46.2194094768117
20
-17.4912442437988
30
0
41
1
10
46.47864357945
20
-16.2178642849372
30
0
0
SPLINE
5
182
100
AcDbEntity
8
1
62
256
6
ByLayer
370
18
48
1
60
0
100
AcDbSpline
70
4
71
3
72
8
73
4
40
0
40
0
40
0
40
0
40
1
40
1
40
1
40
1
41
1
10
37.0882708044287
20
-14.3519606001565
30
0
41
1
10
37.1001881679791
20
-14.3317013132566
30
0
41
1
10
37.1124403383024
20
-14.3118848179015
30
0
41
1
10
37.125012118798
20
-14.2924901737877
30
0
0
SPLINE
5
183
100
AcDbEntity
8
1
62
256
6
ByLayer
370
18
48
1
60
0
100
AcDbSpline
70
4
71
2
72
6
73
3
40
0
40
0
40
0
40
1
40
1
40
1
41
1
10
51.2007447283156
20
-31.4758838238485
30
0
41
1
10
50.2065543424399
20
-31.5697531193838
30
0
41
1
10
49.1925650092879
20
-31.5655104391257
30
0
0
SPLINE
5
184
100
AcDbEntity
8
1
62
256
6
ByLayer
370
18
48
1
60
0
100
AcDbSpline
70
4
71
3
72
8
73
4
40
0
40
0
40
0
40
0
40
1
40
1
40
1
40
1
41
1
10
45.4550079928028
20
-19.4827118486747
30
0
41
1
10
45.858355695379
20
-18.6355633259257
30
0
41
1
10
46.1311153778149
20
-17.9249523670897
30
0
41
1
10
46.2194094768117
20
-17.4912442437988
30
0
0
SPLINE
5
185
100
AcDbEntity
8
1
62
256
6
ByLayer
370
18
48
1
60
0
100
AcDbSpline
70
4
71
3
72
12
73
8
40
0
40
0
40
0
40
0
40
0.286978363858294
40
0.286978363858294
40
0.569998995185616
40
0.569998995185616
40
1
40
1
40
1
40
1
41
1
10
45.5813713068183
20
-25.6703392687566
30
0
41
1
10
45.7514856567099
20
-25.5097316905946
30
0
41
1
10
45.9091733267596
20
-25.3344420786022
30
0
41
1
10
46.1912500010264
20
-24.9646136033302
30
0
41
1
10
46.3170373417449
20
-24.769104337656
30
0
41
1
10
46.5907455334124
20
-24.2582047054436
30
0
41
1
10
46.7187912339482
20
-23.9285689614631
30
0
41
1
10
46.8038730030305
20
-23.592110095473
30
0
0
SPLINE
5
186
100
AcDbEntity
8
1
62
256
6
ByLayer
370
18
48
1
60
0
100
AcDbSpline
70
4
71
3
72
8
73
4
40
0
40
0
40
0
40
0
40
1
40
1
40
1
40
1
41
1
10
32.8322256678132
20
-21.5871547869122
30
0
41
1
10
32.8203083042627
20
-21.607414073812
30
0
41
1
10
32.8089090611263
20
-21.6278045226222
30
0
41
1
10
32.7980038185243
20
-21.6483203624402
30
0
0
SPLINE
5
187
100
AcDbEntity
8
1
62
256
6
ByLayer
370
18
48
1
60
0
100
AcDbSpline
70
4
71
3
72
10
73
6
40
0
40
0
40
0
40
0
40
0.5
40
0.5
40
1
40
1
40
1
40
1
41
1
10
39.6896112430951
20
-12.5143132907529
30
0
41
1
10
39.248880123591
20
-12.5075751877014
30
0
41
1
10
38.8983594262369
20
-12.6499190583083
30
0
41
1
10
38.0375702631882
20
-13.2035555025169
30
0
41
1
10
37.5175312185535
20
-13.6869460147643
30
0
41
1
10
37.125012118798
20
-14.2924901737877
30
0
0
SPLINE
5
188
100
AcDbEntity
8
1
62
256
6
ByLayer
370
18
48
1
60
0
100
AcDbSpline
70
4
71
3
72
8
73
4
40
0
40
0
40
0
40
0
40
1
40
1
40
1
40
1
41
1
10
37.1404471580601
20
-23.1218539835713
30
0
41
1
10
37.1173996351561
20
-23.054951414506
30
0
41
1
10
37.0911652151842
20
-22.9883017322509
30
0
41
1
10
37.0616448024106
20
-22.9220089793651
30
0
0
SPLINE
5
189
100
AcDbEntity
8
1
62
256
6
ByLayer
370
18
48
1
60
0
100
AcDbSpline
70
4
71
3
72
10
73
6
40
0
40
0
40
0
40
0
40
0.967465556419477
40
0.967465556419477
40
1
40
1
40
1
40
1
41
1
10
52.1623843255143
20
-28.7157413562976
30
0
41
1
10
52.5746693878478
20
-28.6993647950291
30
0
41
1
10
52.9812605475958
20
-28.6918614831807
30
0
41
1
10
53.3903027291767
20
-28.6976307290566
30
0
41
1
10
53.4036097965313
20
-28.6978339871715
30
0
41
1
10
53.4169039750422
20
-28.6980529340727
30
0
0
SPLINE
5
18A
100
AcDbEntity
8
1
62
256
6
ByLayer
370
18
48
1
60
0
100
AcDbSpline
70
4
71
2
72
6
73
3
40
0
40
0
40
0
40
1
40
1
40
1
41
1.02805999725224
10
40.0607648646108
20
-27.9608206383585
30
0
41
1.02805999725224
10
39.6227430008228
20
-28.2891058053204
30
0
41
1.02805999725224
10
39.1847211370348
20
-28.6173909722824
30
0
0
SPLINE
5
18B
100
AcDbEntity
8
1
62
256
6
ByLayer
370
18
48
1
60
0
100
AcDbSpline
70
4
71
3
72
8
73
4
40
0
40
0
40
0
40
0
40
1
40
1
40
1
40
1
41
1
10
43.0046164464595
20
-17.9559556485371
30
0
41
1
10
42.2084739328063
20
-17.4933567533452
30
0
41
1
10
41.2954749647351
20
-17.3510992850232
30
0
41
1
10
40.4341697346482
20
-17.52258948473
30
0
0
SPLINE
5
18C
100
AcDbEntity
8
1
62
256
6
ByLayer
370
18
48
1
60
0
100
AcDbSpline
70
4
71
3
72
8
73
4
40
0
40
0
40
0
40
0
40
1
40
1
40
1
40
1
41
1
10
51.2008344779127
20
-31.4758572788271
30
0
41
1
10
51.6037770663024
20
-31.4076680208371
30
0
41
1
10
52.0086028613632
20
-31.3370386406227
30
0
41
1
10
52.4132009132319
20
-31.2643086563016
30
0
0
SPLINE
5
18D
100
AcDbEntity
8
1
62
256
6
ByLayer
370
18
48
1
60
0
100
AcDbSpline
70
4
71
2
72
6
73
3
40
0
40
0
40
0
40
1
40
1
40
1
41
1.02613459695995
10
34.6060093024612
20
-9.42553711429416
30
0
41
0.864503226079954
10
35.5659215424293
20
-9.92768914397638
30
0
41
0.876719039568534
10
35.5148480431996
20
-11.4261282989741
30
0
0
SPLINE
5
18E
100
AcDbEntity
8
1
62
256
6
ByLayer
370
18
48
1
60
0
100
AcDbSpline
70
4
71
3
72
16
73
12
40
0
40
0
40
0
40
0
40
0.111430279628047
40
0.111430279628047
40
0.248747543515475
40
0.248747543515475
40
0.465535329195272
40
0.465535329195272
40
0.883855351867603
40
0.883855351867603
40
1
40
1
40
1
40
1
41
1
10
11.4613248654052
20
-7.52966679426504
30
0
41
1
10
11.4891847159942
20
-7.52966679426504
30
0
41
1
10
11.5173911427755
20
-7.53471706780854
30
0
41
1
10
11.5758492032393
20
-7.55489210221029
30
0
41
1
10
11.6060413892306
20
-7.57218953888446
30
0
41
1
10
11.6751537543576
20
-7.62460019394089
30
0
41
1
10
11.7107854085705
20
-7.66489294253907
30
0
41
1
10
11.798993890746
20
-7.78941367630352
30
0
41
1
10
11.8397320068509
20
-7.8824751100415
30
0
41
1
10
11.8792917015268
20
-8.00269269538009
30
0
41
1
10
11.8871615985731
20
-8.02920008991578
30
0
41
1
10
11.8943375672975
20
-8.05584836782771
30
0
0
SPLINE
5
18F
100
AcDbEntity
8
1
62
256
6
ByLayer
370
18
48
1
60
0
100
AcDbSpline
70
4
71
3
72
42
73
38
40
0
40
0
40
0
40
0
40
0.0001456802920823
40
0.0001456802920823
40
0.0001937815952238
40
0.0001937815952238
40
0.000231512761324
40
0.000231512761324
40
0.0002608509910902
40
0.0002608509910902
40
0.0002901053232678
40
0.0002901053232678
40
0.0003386247698446
40
0.0003386247698446
40
0.000494309038079
40
0.000494309038079
40
0.0012382895178429
40
0.0012382895178429
40
0.0042003679649735
40
0.0042003679649735
40
0.0160477489062813
40
0.0160477489062813
40
0.0634549071112989
40
0.0634549071112989
40
0.254713556850322
40
0.254713556850322
40
0.445726578731974
40
0.445726578731974
40
0.588325255317624
40
0.588325255317624
40
0.775840288369492
40
0.775840288369492
40
0.886032037113902
40
0.886032037113902
40
0.994826733356079
40
0.994826733356079
40
1
40
1
40
1
40
1
41
1
10
35.5148984581961
20
-11.4260812530229
30
0
41
1
10
35.5148752503319
20
-11.4261631653906
30
0
41
1
10
35.514853533675
20
-11.426245861638
30
0
41
1
10
35.5148404390508
20
-11.4263504876057
30
0
41
1
10
35.514838621453
20
-11.4263762320538
30
0
41
1
10
35.514841007132
20
-11.4264186664457
30
0
41
1
10
35.5148441102188
20
-11.4264363978564
30
0
41
1
10
35.5148553397333
20
-11.4264622031378
30
0
41
1
10
35.514862386724
20
-11.4264716740591
30
0
41
1
10
35.5148799649021
20
-11.4264849157131
30
0
41
1
10
35.5148906317337
20
-11.4264888840076
30
0
41
1
10
35.514920995596
20
-11.4264934774554
30
0
41
1
10
35.5149423879776
20
-11.4264906607406
30
0
41
1
10
35.5150324803962
20
-11.426468438226
30
0
41
1
10
35.5151049944531
20
-11.4264297252163
30
0
41
1
10
35.5155145043973
20
-11.4262001937259
30
0
41
1
10
35.515850359168
20
-11.4259546427763
30
0
41
1
10
35.5175206506023
20
-11.4247847568005
30
0
41
1
10
35.5188521534408
20
-11.4238185126286
30
0
41
1
10
35.5255217472199
20
-11.4190359353776
30
0
41
1
10
35.5308774429505
20
-11.4152244501547
30
0
41
1
10
35.5577736015508
20
-11.396316796927
30
0
41
1
10
35.5796512501593
20
-11.3816186216705
30
0
41
1
10
35.6912451887205
20
-11.3102941508895
30
0
41
1
10
35.7871001806242
20
-11.2604824261335
30
0
41
1
10
35.9910039348425
20
-11.1847209550601
30
0
41
1
10
36.0972047819358
20
-11.1276979550136
30
0
41
1
10
36.2950629582539
20
-11.1212333539338
30
0
41
1
10
36.3808749515575
20
-11.148519008279
30
0
41
1
10
36.5763586366626
20
-11.2062265786599
30
0
41
1
10
36.6926693171269
20
-11.2366889255012
30
0
41
1
10
36.855143577568
20
-11.3134736995643
30
0
41
1
10
36.9108152482763
20
-11.3503050862821
30
0
41
1
10
37.0021532369618
20
-11.4349238891335
30
0
41
1
10
37.0392490973192
20
-11.483380406922
30
0
41
1
10
37.0687403099489
20
-11.5363449426825
30
0
41
1
10
37.0700475690618
20
-11.5387626306749
30
0
41
1
10
37.0713596545399
20
-11.5411671459578
30
0
0
SPLINE
5
190
100
AcDbEntity
8
1
62
256
6
ByLayer
370
18
48
1
60
0
100
AcDbSpline
70
4
71
3
72
8
73
4
40
0
40
0
40
0
40
0
40
1
40
1
40
1
40
1
41
1
10
20.4441802061305
20
-24.4701747267056
30
0
41
1
10
20.5968972746935
20
-24.4897806683283
30
0
41
1
10
20.7557255086314
20
-24.5066450179225
30
0
41
1
10
20.92079238
20
-24.5210489957919
30
0
0
SPLINE
5
191
100
AcDbEntity
8
1
62
256
6
ByLayer
370
18
48
1
60
0
100
AcDbSpline
70
4
71
2
72
6
73
3
40
0
40
0
40
0
40
1
40
1
40
1
41
0.877869679988386
10
30.9224148600915
20
-28.8082372028856
30
0
41
0.893236010966695
10
31.9700630526783
20
-28.1078039007837
30
0
41
1.02613459695995
10
32.6980385344482
20
-26.870259700773
30
0
0
SPLINE
5
192
100
AcDbEntity
8
1
62
256
6
ByLayer
370
18
48
1
60
0
100
AcDbSpline
70
4
71
3
72
16
73
12
40
0
40
0
40
0
40
0
40
0.111430279628052
40
0.111430279628052
40
0.248747543515474
40
0.248747543515474
40
0.465535329195271
40
0.465535329195271
40
0.883855351867598
40
0.883855351867598
40
1
40
1
40
1
40
1
41
1
10
11.4613248654052
20
23.8391299750503
30
0
41
1
10
11.4891847159942
20
23.8391299750503
30
0
41
1
10
11.5173911427755
20
23.8375361275706
30
0
41
1
10
11.5758492032393
20
23.831150658589
30
0
41
1
10
11.6060413892306
20
23.825666877018
30
0
41
1
10
11.6751537543576
20
23.8089605749788
30
0
41
1
10
11.7107854085705
20
23.796037970776
30
0
41
1
10
11.798993890746
20
23.7556824246832
30
0
41
1
10
11.8397320068509
20
23.7250165399981
30
0
41
1
10
11.8792917015268
20
23.6845451449633
30
0
41
1
10
11.8871615985731
20
23.6755726082078
30
0
41
1
10
11.8943375672975
20
23.6665017920809
30
0
0
SPLINE
5
193
100
AcDbEntity
8
1
62
256
6
ByLayer
370
18
48
1
60
0
100
AcDbSpline
70
4
71
1
72
4
73
2
40
0
40
0
40
1
40
1
41
1
10
34.526259783212
20
-9.38381831825245
30
0
41
1
10
34.4465102639628
20
-9.34209952221073
30
0
0
SPLINE
5
194
100
AcDbEntity
8
1
62
256
6
ByLayer
370
18
48
1
60
0
100
AcDbSpline
70
4
71
2
72
11
73
8
40
0
40
0
40
0
40
0.0079111859457715
40
0.30553783016204
40
0.503955592972886
40
0.702373355783732
40
0.801582237189154
40
1
40
1
40
1
41
1.02613459695995
10
26.6182421012461
20
-26.7776018165471
30
0
41
1.02613459695995
10
26.6113947333315
20
-26.7565661452764
30
0
41
1.02613459695995
10
26.352739275869
20
-25.938857470273
30
0
41
1.02613459695995
10
26.3279639492092
20
-24.4194569209847
30
0
41
1.02613459695995
10
26.6616101021085
20
-22.8966341112641
30
0
41
1.02613459695995
10
26.8694450547591
20
-22.3744320764052
30
0
41
1.02613459695995
10
27.1289128001168
20
-21.7819563065034
30
0
41
1.02613459695995
10
27.3531017029369
20
-21.4007565001368
30
0
0
SPLINE
5
195
100
AcDbEntity
8
1
62
256
6
ByLayer
370
18
48
1
60
0
100
AcDbSpline
70
4
71
2
72
6
73
3
40
0
40
0
40
0
40
1
40
1
40
1
41
0.876719220473431
10
29.793555840784
20
-21.15223469157
30
0
41
0.864502029337466
10
28.4725214175653
20
-21.9863505350515
30
0
41
1.02613459695995
10
27.5126007414354
20
-21.4841940922203
30
0
0
SPLINE
5
196
100
AcDbEntity
8
1
62
256
6
ByLayer
370
18
48
1
60
0
100
AcDbSpline
70
4
71
3
72
14
73
10
40
0
40
0
40
0
40
0
40
0.25714677776588
40
0.25714677776588
40
0.515043459777445
40
0.515043459777445
40
0.762218147059629
40
0.762218147059629
40
1
40
1
40
1
40
1
41
1
10
17.4303191742212
20
23.4553549429959
30
0
41
1
10
17.4691434490962
20
23.6190346355062
30
0
41
1
10
17.5852680371713
20
23.7696203769467
30
0
41
1
10
17.9643662295079
20
24.0254564367266
30
0
41
1
10
18.233500730627
20
24.1343161849438
30
0
41
1
10
18.8755030997166
20
24.301589819967
30
0
41
1
10
19.2526493539829
20
24.3645598084091
30
0
41
1
10
20.053239606227
20
24.4510990768829
30
0
41
1
10
20.4852178413433
20
24.4774760852936
30
0
41
1
10
20.92079238
20
24.4886190390076
30
0
0
SPLINE
5
197
100
AcDbEntity
8
1
62
256
6
ByLayer
370
18
48
1
60
0
100
AcDbSpline
70
4
71
3
72
10
73
6
40
0
40
0
40
0
40
0
40
0.5
40
0.5
40
1
40
1
40
1
40
1
41
1
10
42.5632013406878
20
-9.40495677598776
30
0
41
1
10
42.0334967867537
20
-8.86995489255023
30
0
41
1
10
41.4452599771336
20
-8.27567715590709
30
0
41
1
10
40.2486229361911
20
-7.06576870752608
30
0
41
1
10
39.7373152543951
20
-6.54822727224879
30
0
41
1
10
39.4671435367734
20
-6.27424164228032
30
0
0
SPLINE
5
198
100
AcDbEntity
8
1
62
256
6
ByLayer
370
18
48
1
60
0
100
AcDbSpline
70
4
71
2
72
6
73
3
40
0
40
0
40
0
40
1
40
1
40
1
41
1.02613459695995
10
27.3531017029369
20
-21.4007565001368
30
0
41
0.889137202354602
10
26.5620296950191
20
-20.9869286543601
30
0
41
0.877033632073645
10
26.4559558859176
20
-19.8361417423414
30
0
0
SPLINE
5
199
100
AcDbEntity
8
1
62
256
6
ByLayer
370
18
48
1
60
0
100
AcDbSpline
70
4
71
3
72
16
73
12
40
0
40
0
40
0
40
0
40
0.111430279628047
40
0.111430279628047
40
0.248747543515467
40
0.248747543515467
40
0.465535329195252
40
0.465535329195252
40
0.883855351867553
40
0.883855351867553
40
1
40
1
40
1
40
1
41
1
10
8.53867513459483
20
7.52966679426501
30
0
41
1
10
8.51081528400579
20
7.52966679426501
30
0
41
1
10
8.48260885722448
20
7.53471706780857
30
0
41
1
10
8.42415079676073
20
7.55489210221029
30
0
41
1
10
8.39395861076943
20
7.57218953888446
30
0
41
1
10
8.32484624564245
20
7.62460019394089
30
0
41
1
10
8.28921459142956
20
7.66489294253907
30
0
41
1
10
8.201006109254
20
7.78941367630352
30
0
41
1
10
8.16026799314912
20
7.88247511004147
30
0
41
1
10
8.12070829847318
20
8.00269269538009
30
0
41
1
10
8.11283840142687
20
8.02920008991578
30
0
41
1
10
8.10566243270245
20
8.05584836782771
30
0
0
SPLINE
5
19A
100
AcDbEntity
8
1
62
256
6
ByLayer
370
18
48
1
60
0
100
AcDbSpline
70
4
71
2
72
11
73
8
40
0
40
0
40
0
40
0.0079111861631758
40
0.305537830314223
40
0.503955593081588
40
0.702373355848953
40
0.801582237232635
40
1
40
1
40
1
41
1.02613459695995
10
38.7298406368191
20
-6.18811921090022
30
0
41
1.02613459695995
10
38.7085965934055
20
-6.19155760784779
30
0
41
1.02613459695995
10
37.8862576012251
20
-6.33210000838774
30
0
41
1.02613459695995
10
36.568605421656
20
-7.0105650338518
30
0
41
1.02613459695995
10
35.41340934252
20
-8.01874514267273
30
0
41
1.02613459695995
10
35.0603835810584
20
-8.44999544397771
30
0
41
1.02613459695995
10
34.6707705382982
20
-8.96094442503135
30
0
41
1.02613459695995
10
34.4465102639627
20
-9.34209952221074
30
0
0
SPLINE
5
19B
100
AcDbEntity
8
1
62
256
6
ByLayer
370
18
48
1
60
0
100
AcDbSpline
70
4
71
3
72
8
73
4
40
0
40
0
40
0
40
0
40
1
40
1
40
1
40
1
41
1
10
32.6255902109097
20
-9.42373276533385
30
0
41
1
10
33.3581404487594
20
-8.25469637734153
30
0
41
1
10
34.4723824257954
20
-7.37817084531375
30
0
41
1
10
35.7093960187666
20
-6.77701944304692
30
0
0
SPLINE
5
19C
100
AcDbEntity
8
1
62
256
6
ByLayer
370
18
48
1
60
0
100
AcDbSpline
70
4
71
3
72
16
73
12
40
0
40
0
40
0
40
0
40
0.11143027962805
40
0.11143027962805
40
0.248747543515472
40
0.248747543515472
40
0.465535329195252
40
0.465535329195252
40
0.88385535186756
40
0.88385535186756
40
1
40
1
40
1
40
1
41
1
10
8.5386751345948
20
-23.8391299750503
30
0
41
1
10
8.51081528400579
20
-23.8391299750503
30
0
41
1
10
8.48260885722448
20
-23.8375361275706
30
0
41
1
10
8.4241507967607
20
-23.831150658589
30
0
41
1
10
8.39395861076943
20
-23.825666877018
30
0
41
1
10
8.32484624564245
20
-23.8089605749788
30
0
41
1
10
8.28921459142956
20
-23.796037970776
30
0
41
1
10
8.201006109254
20
-23.7556824246832
30
0
41
1
10
8.16026799314912
20
-23.7250165399981
30
0
41
1
10
8.1207082984732
20
-23.6845451449633
30
0
41
1
10
8.11283840142687
20
-23.6755726082077
30
0
41
1
10
8.10566243270245
20
-23.6665017920809
30
0
0
SPLINE
5
19D
100
AcDbEntity
8
1
62
256
6
ByLayer
370
18
48
1
60
0
100
AcDbSpline
70
4
71
2
72
11
73
8
40
0
40
0
40
0
40
0.0353878362392666
40
0.324771485367487
40
0.517693918119633
40
0.71061635087178
40
0.807077567247853
40
1
40
1
40
1
41
1
10
26.7492460520734
20
-26.9690250140767
30
0
41
1
10
26.7152581666168
20
-26.8745182320787
30
0
41
1
10
26.4324887951183
20
-25.9805762663147
30
0
41
1
10
26.4077134684584
20
-24.4611757170264
30
0
41
1
10
26.7413596213577
20
-22.9383529073058
30
0
41
1
10
26.9491945740083
20
-22.416150872447
30
0
41
1
10
27.208662319366
20
-21.8236751025451
30
0
41
1
10
27.4328512221862
20
-21.4424752961786
30
0
0
SPLINE
5
19E
100
AcDbEntity
8
1
62
256
6
ByLayer
370
18
48
1
60
0
100
AcDbSpline
70
4
71
2
72
6
73
3
40
0
40
0
40
0
40
1
40
1
40
1
41
1.02613459695995
10
41.818135255767
20
-11.3662721577252
30
0
41
0.918946592493331
10
42.3888492603478
20
-10.3960694188683
30
0
41
0.888214085722749
10
42.5632013406878
20
-9.40495677598776
30
0
0
SPLINE
5
19F
100
AcDbEntity
8
1
62
256
6
ByLayer
370
18
48
1
60
0
100
AcDbSpline
70
4
71
3
72
8
73
4
40
0
40
0
40
0
40
0
40
1
40
1
40
1
40
1
41
1
10
39.4671435367659
20
-6.27424164227898
30
0
41
1
10
39.3755289322539
20
-6.25767722411942
30
0
41
1
10
39.2833556051815
20
-6.24383408836616
30
0
41
1
10
39.1908763474914
20
-6.2326221967985
30
0
0
SPLINE
5
1A0
100
AcDbEntity
8
1
62
256
6
ByLayer
370
18
48
1
60
0
100
AcDbSpline
70
4
71
3
72
8
73
4
40
0
40
0
40
0
40
0
40
1
40
1
40
1
40
1
41
1
10
26.8834172706014
20
-27.1550639258022
30
0
41
1
10
27.8025158171641
20
-28.3971957563413
30
0
41
1
10
29.3895653785831
20
-29.0939859317409
30
0
41
1
10
30.9224149524267
20
-28.8082371411524
30
0
0
SPLINE
5
1A1
100
AcDbEntity
8
1
62
256
6
ByLayer
370
18
48
1
60
0
100
AcDbSpline
70
4
71
3
72
44
73
40
40
0
40
0
40
0
40
0
40
0.0051940143904623
40
0.0051940143904623
40
0.0199007899411064
40
0.0199007899411064
40
0.129752086418446
40
0.129752086418446
40
0.239839457006878
40
0.239839457006878
40
0.428838115368907
40
0.428838115368907
40
0.549630848134963
40
0.549630848134963
40
0.669782903848669
40
0.669782903848669
40
0.866798570023576
40
0.866798570023576
40
0.966549523986961
40
0.966549523986961
40
0.991441209550957
40
0.991441209550957
40
0.997663558862481
40
0.997663558862481
40
0.999220062503437
40
0.999220062503437
40
0.999613367611283
40
0.999613367611283
40
0.999703345446742
40
0.999703345446742
40
0.999741176123871
40
0.999741176123871
40
0.999773455131883
40
0.999773455131883
40
0.999805393909189
40
0.999805393909189
40
0.999853555595619
40
0.999853555595619
40
1
40
1
40
1
40
1
41
1
10
30.6579340914871
20
-22.4438662155196
30
0
41
1
10
30.6552614658193
20
-22.4437745921683
30
0
41
1
10
30.6525791351766
20
-22.4436944990975
30
0
41
1
10
30.6421757721745
20
-22.4432527847227
30
0
41
1
10
30.6344217060521
20
-22.4427692378362
30
0
41
1
10
30.569193510396
20
-22.4373600926395
30
0
41
1
10
30.5092940965012
20
-22.4233261842616
30
0
41
1
10
30.3932228185711
20
-22.3749561849118
30
0
41
1
10
30.3357687301792
20
-22.3398765755959
30
0
41
1
10
30.1933601902116
20
-22.225995778789
30
0
41
1
10
30.1088711905109
20
-22.1390004984376
30
0
41
1
10
29.9728384466913
20
-22.0053723786165
30
0
41
1
10
29.9186937073135
20
-21.9530785602771
30
0
41
1
10
29.8484845735358
20
-21.8302096353127
30
0
41
1
10
29.8443775966921
20
-21.7556408777633
30
0
41
1
10
29.8092883071129
20
-21.5781401947873
30
0
41
1
10
29.7888536280421
20
-21.4720390219185
30
0
41
1
10
29.7842026295873
20
-21.3118646236489
30
0
41
1
10
29.78556617576
20
-21.2581619083499
30
0
41
1
10
29.790370302611
20
-21.1916901566958
30
0
41
1
10
29.7914875892946
20
-21.1784325628489
30
0
41
1
10
29.7930633504533
20
-21.1619012289218
30
0
41
1
10
29.7933928676342
20
-21.1585948549325
30
0
41
1
10
29.793792229782
20
-21.1544735256591
30
0
41
1
10
29.7938808637244
20
-21.1536450833435
30
0
41
1
10
29.7939433554959
20
-21.1526294637445
30
0
41
1
10
29.7939598739658
20
-21.1524200980616
30
0
41
1
10
29.7939314278495
20
-21.1521934804153
30
0
41
1
10
29.7939234954462
20
-21.1521518599228
30
0
41
1
10
29.7938988610487
20
-21.1521063342763
30
0
41
1
10
29.7938895103557
20
-21.1520945286023
30
0
41
1
10
29.7938675344143
20
-21.1520802780602
30
0
41
1
10
29.7938552613855
20
-21.1520767340006
30
0
41
1
10
29.7938286895223
20
-21.1520768727156
30
0
41
1
10
29.7938141522952
20
-21.1520803726899
30
0
41
1
10
29.7937776809475
20
-21.1520946208081
30
0
41
1
10
29.793755187621
20
-21.1521080403135
30
0
41
1
10
29.7936671138928
20
-21.1521689902111
30
0
41
1
10
29.7936034605692
20
-21.1522299403501
30
0
41
1
10
29.7935416814447
20
-21.1522913204758
30
0
0
SPLINE
5
1A2
100
AcDbEntity
8
1
62
256
6
ByLayer
370
18
48
1
60
0
100
AcDbSpline
70
4
71
3
72
10
73
6
40
0
40
0
40
0
40
0
40
0.390699660137824
40
0.390699660137824
40
1
40
1
40
1
40
1
41
1
10
8.5386751345948
20
-17.3301020066932
30
0
41
1
10
8.45606980790453
20
-17.39348204405
30
0
41
1
10
8.38298095223726
20
-17.4778806824472
30
0
41
1
10
8.2261467652954
20
-17.7138050834476
30
0
41
1
10
8.15491942224403
20
-17.8808201081295
30
0
41
1
10
8.10566243270256
20
-18.0555297374794
30
0
0
SPLINE
5
1A3
100
AcDbEntity
8
1
62
256
6
ByLayer
370
18
48
1
60
0
100
AcDbSpline
70
4
71
3
72
10
73
6
40
0
40
0
40
0
40
0
40
0.434790140770694
40
0.434790140770694
40
1
40
1
40
1
40
1
41
1
10
11.4613248654052
20
-19.2880310577442
30
0
41
1
10
11.5463855142922
20
-19.2227671417225
30
0
41
1
10
11.6249791044128
20
-19.1676067502435
30
0
41
1
10
11.777364361007
20
-19.0596659241482
30
0
41
1
10
11.8459532322554
20
-19.0085858101699
30
0
41
1
10
11.8943375672975
20
-18.9753212643807
30
0
0
SPLINE
5
1A4
100
AcDbEntity
8
1
62
256
6
ByLayer
370
18
48
1
60
0
100
AcDbSpline
70
4
71
3
72
8
73
4
40
0
40
0
40
0
40
0
40
1
40
1
40
1
40
1
41
1
10
21.4150979665883
20
24.6479715189708
30
0
41
1
10
21.2634715016935
20
24.6479715189708
30
0
41
1
10
21.1115905576073
20
24.6462211497246
30
0
41
1
10
20.9609847588647
20
24.6427113305059
30
0
0
SPLINE
5
1A5
100
AcDbEntity
8
1
62
256
6
ByLayer
370
18
48
1
60
0
100
AcDbSpline
70
4
71
2
72
11
73
8
40
0
40
0
40
0
40
0.0610623745695788
40
0.342743662198705
40
0.530531187284789
40
0.718318712370874
40
0.812212474913916
40
1
40
1
40
1
41
1
10
39.1908763474868
20
-6.23262219679893
30
0
41
1
10
39.0204525327059
20
-6.24895654095829
30
0
41
1
10
38.0457566397235
20
-6.41553760047117
30
0
41
1
10
36.7281044601545
20
-7.09400262593522
30
0
41
1
10
35.5729083810184
20
-8.10218273475616
30
0
41
1
10
35.2198826195568
20
-8.53343303606115
30
0
41
1
10
34.8302695767966
20
-9.04438201711477
30
0
41
1
10
34.6060093024612
20
-9.42553711429417
30
0
0
SPLINE
5
1A6
100
AcDbEntity
8
1
62
256
6
ByLayer
370
18
48
1
60
0
100
AcDbSpline
70
4
71
2
72
9
73
6
40
0
40
0
40
0
40
0.419655468653538
40
0.629483202980307
40
0.94422480447046
40
1
40
1
40
1
41
1.02613459695995
10
32.6980385344482
20
-26.870259700773
30
0
41
1.02613459695995
10
31.8726667092169
20
-26.3516037302149
30
0
41
1.02613459695995
10
31.0855106224198
20
-25.017025767572
30
0
41
1.02613459695995
10
30.6655803213069
20
-23.6894657250141
30
0
41
1.02613459695995
10
30.6480808716587
20
-22.6162740867046
30
0
41
1.02613459695995
10
30.6579340914871
20
-22.4438662155195
30
0
0
SPLINE
5
1A7
100
AcDbEntity
8
1
62
256
6
ByLayer
370
18
48
1
60
0
100
AcDbSpline
70
4
71
1
72
4
73
2
40
0
40
0
40
1
40
1
41
1
10
34.6060093024612
20
-9.42553711429417
30
0
41
1
10
34.526259783212
20
-9.38381831825245
30
0
0
SPLINE
5
1A8
100
AcDbEntity
8
1
62
256
6
ByLayer
370
18
48
1
60
0
100
AcDbSpline
70
4
71
3
72
8
73
4
40
0
40
0
40
0
40
0
40
1
40
1
40
1
40
1
41
1
10
20.9609847588647
20
24.6427113305059
30
0
41
1
10
20.9475812745097
20
24.5913467317342
30
0
41
1
10
20.934183755441
20
24.5399825588158
30
0
41
1
10
20.92079238
20
24.4886190390076
30
0
0
SPLINE
5
1A9
100
AcDbEntity
8
1
62
256
6
ByLayer
370
18
48
1
60
0
100
AcDbSpline
70
4
71
3
72
16
73
12
40
0
40
0
40
0
40
0
40
0.16595232427079
40
0.16595232427079
40
0.427317249649598
40
0.427317249649598
40
0.690164536253498
40
0.690164536253498
40
0.959418033255831
40
0.959418033255831
40
1
40
1
40
1
40
1
41
1
10
20.4441802061305
20
-24.4701747267056
30
0
41
1
10
20.172953682498
20
-24.4559762494923
30
0
41
1
10
19.9077046119717
20
-24.4354341237887
30
0
41
1
10
19.26391515033
20
-24.3656718780195
30
0
41
1
10
18.8991880574146
20
-24.3054862317241
30
0
41
1
10
18.2835116525487
20
-24.1494135952404
30
0
41
1
10
18.0249815792796
20
-24.0510028626091
30
0
41
1
10
17.6392199403027
20
-23.8174123097642
30
0
41
1
10
17.5100639463551
20
-23.6782359586606
30
0
41
1
10
17.4432353915025
20
-23.5027996833027
30
0
41
1
10
17.4359824174511
20
-23.4792306731536
30
0
41
1
10
17.4303191742212
20
-23.4553549429959
30
0
0
SPLINE
5
1AA
100
AcDbEntity
8
1
62
256
6
ByLayer
370
18
48
1
60
0
100
AcDbSpline
70
4
71
3
72
8
73
4
40
0
40
0
40
0
40
0
40
1
40
1
40
1
40
1
41
1
10
22.023079533289
20
-28.8205109050356
30
0
41
1
10
21.6484276083474
20
-27.3800183707029
30
0
41
1
10
21.2796568211626
20
-25.9469352457391
30
0
41
1
10
20.92079238
20
-24.5210489957919
30
0
0
SPLINE
5
1AB
100
AcDbEntity
8
1
62
256
6
ByLayer
370
18
48
1
60
0
100
AcDbSpline
70
4
71
2
72
6
73
3
40
0
40
0
40
0
40
1
40
1
40
1
41
1
10
27.4328512221862
20
-21.4424752961786
30
0
41
1
10
27.3929764625616
20
-21.4216158981577
30
0
41
1
10
27.353101702937
20
-21.4007565001368
30
0
0
SPLINE
5
1AC
100
AcDbEntity
8
1
62
256
6
ByLayer
370
18
48
1
60
0
100
AcDbSpline
70
4
71
2
72
6
73
3
40
0
40
0
40
0
40
1
40
1
40
1
41
0.877807196297819
10
32.625737056329
20
-9.42366566723198
30
0
41
0.8929636757837
10
33.6808288551774
20
-8.94155407909372
30
0
41
1.02613459695995
10
34.4465102639627
20
-9.34209952221074
30
0
0
SPLINE
5
1AD
100
AcDbEntity
8
1
62
256
6
ByLayer
370
18
48
1
60
0
100
AcDbSpline
70
4
71
2
72
11
73
8
40
0
40
0
40
0
40
0.0353878362392742
40
0.324771485367492
40
0.517693918119637
40
0.710616350871782
40
0.807077567247855
40
1
40
1
40
1
41
1
10
38.9619421220393
20
-6.20767855892655
30
0
41
1
10
38.8650110776769
20
-6.22017392629328
30
0
41
1
10
37.9660071204743
20
-6.37381880442945
30
0
41
1
10
36.6483549409053
20
-7.05228382989353
30
0
41
1
10
35.4931588617693
20
-8.06046393871446
30
0
41
1
10
35.1401331003076
20
-8.49171424001943
30
0
41
1
10
34.7505200575474
20
-9.00266322107305
30
0
41
1
10
34.526259783212
20
-9.38381831825245
30
0
0
SPLINE
5
1AE
100
AcDbEntity
8
1
62
256
6
ByLayer
370
18
48
1
60
0
100
AcDbSpline
70
4
71
3
72
10
73
6
40
0
40
0
40
0
40
0
40
0.569662971760365
40
0.569662971760365
40
1
40
1
40
1
40
1
41
1
10
8.10566243270256
20
-18.9753212643828
30
0
41
1
10
8.15441862226712
20
-19.0088414625798
30
0
41
1
10
8.22370629390966
20
-19.0604238505184
30
0
41
1
10
8.37658822414471
20
-19.1687173120905
30
0
41
1
10
8.45446449409374
20
-19.2234193219803
30
0
41
1
10
8.5386751345948
20
-19.2880310577442
30
0
0
SPLINE
5
1AF
100
AcDbEntity
8
1
62
256
6
ByLayer
370
18
48
1
60
0
100
AcDbSpline
70
4
71
3
72
12
73
8
40
0
40
0
40
0
40
0
40
0.319932024559083
40
0.319932024559083
40
0.659954131885498
40
0.659954131885498
40
1
40
1
40
1
40
1
41
1
10
26.6182421012192
20
-26.7776018163593
30
0
41
1
10
26.6319590362717
20
-26.7981895622934
30
0
41
1
10
26.6457578318864
20
-26.8187225046365
30
0
41
1
10
26.6743892511796
20
-26.8609628359858
30
0
41
1
10
26.689232633995
20
-26.88266338016
30
0
41
1
10
26.7191024049567
20
-26.9259387923717
30
0
41
1
10
26.7341290666157
20
-26.9475140293992
30
0
41
1
10
26.7492460512209
20
-26.9690250143285
30
0
0
SPLINE
5
1B0
100
AcDbEntity
8
1
62
256
6
ByLayer
370
18
48
1
60
0
100
AcDbSpline
70
4
71
3
72
8
73
4
40
0
40
0
40
0
40
0
40
1
40
1
40
1
40
1
41
1
10
38.7298406368191
20
-6.18811921090023
30
0
41
1
10
37.6882826091389
20
-6.11326506962664
30
0
41
1
10
36.6476898874377
20
-6.33838277600015
30
0
41
1
10
35.7093960187477
20
-6.77701944305619
30
0
0
SPLINE
5
1B1
100
AcDbEntity
8
1
62
256
6
ByLayer
370
18
48
1
60
0
100
AcDbSpline
70
4
71
2
72
6
73
3
40
0
40
0
40
0
40
1
40
1
40
1
41
1
10
27.5126007414354
20
-21.4841940922203
30
0
41
1
10
27.4727259818108
20
-21.4633346941994
30
0
41
1
10
27.4328512221862
20
-21.4424752961786
30
0
0
SPLINE
5
1B2
100
AcDbEntity
8
1
62
256
6
ByLayer
370
18
48
1
60
0
100
AcDbSpline
70
4
71
2
72
11
73
8
40
0
40
0
40
0
40
0.0610623745695711
40
0.3427436621987
40
0.530531187284786
40
0.718318712370871
40
0.812212474913914
40
1
40
1
40
1
41
1
10
26.8834172705997
20
-27.155063925798
30
0
41
1
10
26.8188155467063
20
-26.9915027678553
30
0
41
1
10
26.5122383143675
20
-26.0222950623564
30
0
41
1
10
26.4874629877076
20
-24.5028945130682
30
0
41
1
10
26.8211091406069
20
-22.9800717033475
30
0
41
1
10
27.0289440932576
20
-22.4578696684887
30
0
41
1
10
27.2884118386153
20
-21.8653938985868
30
0
41
1
10
27.5126007414354
20
-21.4841940922203
30
0
0
SPLINE
5
1B3
100
AcDbEntity
8
1
62
256
6
ByLayer
370
18
48
1
60
0
100
AcDbSpline
70
4
71
3
72
12
73
8
40
0
40
0
40
0
40
0
40
0.319932000007823
40
0.319932000007823
40
0.659954096648615
40
0.659954096648615
40
1
40
1
40
1
40
1
41
1
10
38.9619421215155
20
-6.20767855914838
30
0
41
1
10
38.9372201478678
20
-6.20528829204653
30
0
41
1
10
38.9124875382619
20
-6.20299517071794
30
0
41
1
10
38.8614496546598
20
-6.19846585188728
30
0
41
1
10
38.8351427039431
20
-6.19624223061507
30
0
41
1
10
38.7825073242925
20
-6.19201533629931
30
0
41
1
10
38.7561784331777
20
-6.19001204171073
30
0
41
1
10
38.7298406355414
20
-6.1881192108084
30
0
0
SPLINE
5
1B4
100
AcDbEntity
8
1
62
256
6
ByLayer
370
18
48
1
60
0
100
AcDbSpline
70
4
71
3
72
12
73
8
40
0
40
0
40
0
40
0
40
0.323508413868246
40
0.323508413868246
40
0.66174285465766
40
0.66174285465766
40
1
40
1
40
1
40
1
41
1
10
39.190876344038
20
-6.2326221972763
30
0
41
1
10
39.1662260008451
20
-6.22963366794787
30
0
41
1
10
39.1415627527041
20
-6.22674146192898
30
0
41
1
10
39.0910894697129
20
-6.22102311435904
30
0
41
1
10
39.0652779142698
20
-6.21820592415213
30
0
41
1
10
39.0136289706368
20
-6.21278328029285
30
0
41
1
10
38.9877911473189
20
-6.21017779537723
30
0
41
1
10
38.961942121777
20
-6.20767855820705
30
0
0
SPLINE
5
1B5
100
AcDbEntity
8
1
62
256
6
ByLayer
370
18
48
1
60
0
100
AcDbSpline
70
4
71
3
72
10
73
6
40
0
40
0
40
0
40
0
40
0.5
40
0.5
40
1
40
1
40
1
40
1
41
1
10
26.4559474512365
20
-19.8360502204054
30
0
41
1
10
25.8365779368612
20
-20.8893674453717
30
0
41
1
10
25.6432462835938
20
-22.1225987904109
30
0
41
1
10
25.6275415053127
20
-24.5376050360144
30
0
41
1
10
25.9426417502682
20
-25.7635933436796
30
0
41
1
10
26.6182421016254
20
-26.7776018177124
30
0
0
SPLINE
5
1B6
100
AcDbEntity
8
1
62
256
6
ByLayer
370
18
48
1
60
0
100
AcDbSpline
70
4
71
3
72
16
73
12
40
0
40
0
40
0
40
0
40
0.461208588217085
40
0.461208588217085
40
0.643534962278541
40
0.643534962278541
40
0.828408472975291
40
0.828408472975291
40
0.943003644159993
40
0.943003644159993
40
1
40
1
40
1
40
1
41
1
10
11.8943375672974
20
-23.6665017920809
30
0
41
1
10
11.8660503915152
20
-23.7022583261632
30
0
41
1
10
11.8273339192908
20
-23.7370095736338
30
0
41
1
10
11.7473160248315
20
-23.7800170858174
30
0
41
1
10
11.7212784637477
20
-23.7917125768793
30
0
41
1
10
11.6606543989164
20
-23.8127037684951
30
0
41
1
10
11.6251722226874
20
-23.8222104320954
30
0
41
1
10
11.5599225851958
20
-23.8331586856493
30
0
41
1
10
11.5324782774944
20
-23.836332378473
30
0
41
1
10
11.4901684747699
20
-23.8387183279986
30
0
41
1
10
11.4757173930754
20
-23.8391299750505
30
0
41
1
10
11.4613248654053
20
-23.8391299750505
30
0
0
SPLINE
5
1B7
100
AcDbEntity
8
1
62
256
6
ByLayer
370
18
48
1
60
0
100
AcDbSpline
70
4
71
3
72
16
73
12
40
0
40
0
40
0
40
0
40
0.461208588217094
40
0.461208588217094
40
0.643534962278546
40
0.643534962278546
40
0.828408472975285
40
0.828408472975285
40
0.943003644159988
40
0.943003644159988
40
1
40
1
40
1
40
1
41
1
10
8.10566243270262
20
23.6665017920809
30
0
41
1
10
8.13394960848487
20
23.7022583261632
30
0
41
1
10
8.17266608070923
20
23.7370095736338
30
0
41
1
10
8.25268397516848
20
23.7800170858174
30
0
41
1
10
8.27872153625233
20
23.7917125768793
30
0
41
1
10
8.33934560108361
20
23.8127037684951
30
0
41
1
10
8.37482777731262
20
23.8222104320954
30
0
41
1
10
8.44007741480422
20
23.8331586856493
30
0
41
1
10
8.46752172250564
20
23.836332378473
30
0
41
1
10
8.50983152523006
20
23.8387183279986
30
0
41
1
10
8.5242826069246
20
23.8391299750505
30
0
41
1
10
8.53867513459474
20
23.8391299750505
30
0
0
SPLINE
5
1B8
100
AcDbEntity
8
1
62
256
6
ByLayer
370
18
48
1
60
0
100
AcDbSpline
70
4
71
3
72
12
73
8
40
0
40
0
40
0
40
0
40
0.323508446938363
40
0.323508446938363
40
0.661742905177697
40
0.661742905177697
40
1
40
1
40
1
40
1
41
1
10
26.7492460519785
20
-26.9690250135695
30
0
41
1
10
26.7634688740924
20
-26.9892636339181
30
0
41
1
10
26.7777718750647
20
-27.0094457010694
30
0
41
1
10
26.8071913186033
20
-27.0506111103995
30
0
41
1
10
26.8223153990098
20
-27.0715894551638
30
0
41
1
10
26.8527367630539
20
-27.1134209081495
30
0
41
1
10
26.8680343125721
20
-27.1342743576965
30
0
41
1
10
26.8834172686941
20
-27.1550639232245
30
0
0
SPLINE
5
1B9
100
AcDbEntity
8
1
62
256
6
ByLayer
370
18
48
1
60
0
100
AcDbSpline
70
4
71
3
72
16
73
12
40
0
40
0
40
0
40
0
40
0.461208588217088
40
0.461208588217088
40
0.643534962278544
40
0.643534962278544
40
0.82840847297529
40
0.82840847297529
40
0.943003644159989
40
0.943003644159989
40
1
40
1
40
1
40
1
41
1
10
8.10566243270262
20
-8.05584836782774
30
0
41
1
10
8.13394960848487
20
-7.95080268681445
30
0
41
1
10
8.17266608070923
20
-7.84628670970801
30
0
41
1
10
8.25268397516848
20
-7.71442469145123
30
0
41
1
10
8.27872153625231
20
-7.67825379650728
30
0
41
1
10
8.33934560108361
20
-7.61290523367228
30
0
41
1
10
8.37482777731262
20
-7.5830592305141
30
0
41
1
10
8.44007741480422
20
-7.54855881865589
30
0
41
1
10
8.46752172250564
20
-7.5385201810229
30
0
41
1
10
8.50983152523006
20
-7.53097042135255
30
0
41
1
10
8.5242826069246
20
-7.52966679426473
30
0
41
1
10
8.53867513459474
20
-7.52966679426473
30
0
0
SPLINE
5
1BA
100
AcDbEntity
8
1
62
256
6
ByLayer
370
18
48
1
60
0
100
AcDbSpline
70
4
71
3
72
10
73
6
40
0
40
0
40
0
40
0
40
0.539719091383334
40
0.539719091383334
40
1
40
1
40
1
40
1
41
1
10
11.8943375672974
20
-18.0555297374795
30
0
41
1
10
11.8505865771285
20
-17.9003493387736
30
0
41
1
10
11.7896099247477
20
-17.7517913508358
30
0
41
1
10
11.6420402748372
20
-17.507646375978
30
0
41
1
10
11.5582831583753
20
-17.4044945486358
30
0
41
1
10
11.4613248654052
20
-17.3301020066931
30
0
0
SPLINE
5
1BB
100
AcDbEntity
8
1
62
256
6
ByLayer
370
18
48
1
60
0
100
AcDbSpline
70
4
71
2
72
9
73
6
40
0
40
0
40
0
40
0.419655468653538
40
0.629483202980307
40
0.944224804470461
40
1
40
1
40
1
41
1.02613459695995
10
41.818135255767
20
-11.3662721577252
30
0
41
1.02613459695995
10
40.9913714819487
20
-10.8499824727683
30
0
41
1.02613459695995
10
39.4807997442889
20
-10.7451970860314
30
0
41
1.02613459695995
10
38.1457223260768
20
-10.9733693933723
30
0
41
1.02613459695995
10
37.2150307438103
20
-11.4525866692608
30
0
41
1.02613459695995
10
37.0713596545399
20
-11.5411671459578
30
0
0
SPLINE
5
1BC
100
AcDbEntity
8
1
62
256
6
ByLayer
370
18
48
1
60
0
100
AcDbSpline
70
4
71
3
72
16
73
12
40
0
40
0
40
0
40
0
40
0.461208588217066
40
0.461208588217066
40
0.643534962278522
40
0.643534962278522
40
0.828408472975271
40
0.828408472975271
40
0.943003644159981
40
0.943003644159981
40
1
40
1
40
1
40
1
41
1
10
11.8943375672974
20
8.05584836782774
30
0
41
1
10
11.8660503915152
20
7.95080268681445
30
0
41
1
10
11.8273339192908
20
7.84628670970801
30
0
41
1
10
11.7473160248315
20
7.71442469145123
30
0
41
1
10
11.7212784637477
20
7.67825379650728
30
0
41
1
10
11.6606543989164
20
7.61290523367228
30
0
41
1
10
11.6251722226874
20
7.58305923051407
30
0
41
1
10
11.5599225851958
20
7.54855881865589
30
0
41
1
10
11.5324782774944
20
7.5385201810229
30
0
41
1
10
11.4901684747699
20
7.53097042135255
30
0
41
1
10
11.4757173930754
20
7.5296667942647
30
0
41
1
10
11.4613248654053
20
7.5296667942647
30
0
0
SPLINE
5
1BD
100
AcDbEntity
8
SK1
62
256
6
ByLayer
370
18
48
1
60
0
100
AcDbSpline
70
4
71
3
72
10
73
6
40
0
40
0
40
0
40
0
40
0.5
40
0.5
40
1
40
1
40
1
40
1
41
1
10
-1.30710678118655
20
-3.91806548153784
30
0
41
1
10
-1.53227959010832
20
-2.67440369212437
30
0
41
1
10
-1.71681589069689
20
-1.34075776539186
30
0
41
1
10
-1.71598271729604
20
1.35050010337164
30
0
41
1
10
-1.53230696904976
20
2.67425240209695
30
0
41
1
10
-1.30710678118655
20
3.91806548057698
30
0
0
SPLINE
5
1BE
100
AcDbEntity
8
SK1
62
256
6
ByLayer
370
18
48
1
60
0
100
AcDbSpline
70
4
71
3
72
22
73
18
40
0
40
0
40
0
40
0
40
0.0260455644157247
40
0.0260455644157247
40
0.0526262165848557
40
0.0526262165848557
40
0.0706056579866929
40
0.0706056579866929
40
0.0884949509195805
40
0.0884949509195805
40
0.11748921873202
40
0.11748921873202
40
0.17459086731972
40
0.17459086731972
40
0.37652425293745
40
0.37652425293745
40
1
40
1
40
1
40
1
41
1
10
-0.394976888872947
20
-5.38678223324206
30
0
41
1
10
-0.389612432086437
20
-5.38222504185003
30
0
41
1
10
-0.383763200778958
20
-5.37811700449893
30
0
41
1
10
-0.3709728888754
20
-5.37184824531644
30
0
41
1
10
-0.363785592650885
20
-5.36968256852501
30
0
41
1
10
-0.351475656346565
20
-5.3691458249703
30
0
41
1
10
-0.346317238365032
20
-5.36979468027801
30
0
41
1
10
-0.336550133197363
20
-5.3727304206256
30
0
41
1
10
-0.331829865964124
20
-5.3750241182685
30
0
41
1
10
-0.32051111143835
20
-5.38234306083376
30
0
41
1
10
-0.314321448136184
20
-5.3882440687963
30
0
41
1
10
-0.298260159254511
20
-5.40702817233921
30
0
41
1
10
-0.290032841564653
20
-5.42147709180324
30
0
41
1
10
-0.258449669573651
20
-5.48745345024415
30
0
41
1
10
-0.24608390551893
20
-5.5434138926733
30
0
41
1
10
-0.204764795451922
20
-5.7670899064446
30
0
41
1
10
-0.200000000000358
20
-5.93709576978202
30
0
41
1
10
-0.200000000000358
20
-6.10344667966001
30
0
0
SPLINE
5
1BF
100
AcDbEntity
8
SK1
62
256
6
ByLayer
370
18
48
1
60
0
100
AcDbSpline
70
4
71
3
72
22
73
18
40
0
40
0
40
0
40
0
40
0.0394331151890913
40
0.0394331151890913
40
0.0795339708694829
40
0.0795339708694829
40
0.109637917244288
40
0.109637917244288
40
0.13957706301322
40
0.13957706301322
40
0.189266399657458
40
0.189266399657458
40
0.289571152403382
40
0.289571152403382
40
0.658284396834382
40
0.658284396834382
40
1
40
1
40
1
40
1
41
1
10
-0.394976888875306
20
5.38678189578292
30
0
41
1
10
-0.415237014773396
20
5.40399317028476
30
0
41
1
10
-0.437419275645453
20
5.41977813092004
30
0
41
1
10
-0.486103141154984
20
5.44521655864725
30
0
41
1
10
-0.51341298093098
20
5.45496005292577
30
0
41
1
10
-0.562874322366525
20
5.46212264681108
30
0
41
1
10
-0.585106616517606
20
5.46199323188387
30
0
41
1
10
-0.627692822126733
20
5.45533455005088
30
0
41
1
10
-0.648523068172722
20
5.44883772858989
30
0
41
1
10
-0.699826196362153
20
5.42613682765011
30
0
41
1
10
-0.728695564403438
20
5.40623396070797
30
0
41
1
10
-0.806075449923839
20
5.34007786619352
30
0
41
1
10
-0.847522380016557
20
5.28655870152033
30
0
41
1
10
-1.01570466784384
20
5.03084699030373
30
0
41
1
10
-1.09210771407481
20
4.80149729085085
30
0
41
1
10
-1.21929875138233
20
4.35887826398974
30
0
41
1
10
-1.26692602208391
20
4.13998960128646
30
0
41
1
10
-1.30710678118655
20
3.91806548057696
30
0
0
SPLINE
5
1C0
100
AcDbEntity
8
SK1
62
256
6
ByLayer
370
18
48
1
60
0
100
AcDbSpline
70
4
71
3
72
22
73
18
40
0
40
0
40
0
40
0
40
0.359503326352592
40
0.359503326352592
40
0.722215553677066
40
0.722215553677066
40
0.826527133697721
40
0.826527133697721
40
0.863141914878009
40
0.863141914878009
40
0.900378805007221
40
0.900378805007221
40
0.933500873078508
40
0.933500873078508
40
0.972947835056124
40
0.972947835056124
40
1
40
1
40
1
40
1
41
1
10
-1.30710678118655
20
-3.91806548153781
30
0
41
1
10
-1.26486058419175
20
-4.15139729989579
30
0
41
1
10
-1.21446435132796
20
-4.3814323255595
30
0
41
1
10
-1.08204001032738
20
-4.82987250608483
30
0
41
1
10
-1.00537527699572
20
-5.05527264511531
30
0
41
1
10
-0.832356114396674
20
-5.30654108347395
30
0
41
1
10
-0.78723829488635
20
-5.36152992388779
30
0
41
1
10
-0.709490490588593
20
-5.41877880440927
30
0
41
1
10
-0.687203973712826
20
-5.43218986569767
30
0
41
1
10
-0.639076749164047
20
-5.45244590583036
30
0
41
1
10
-0.612446414061708
20
-5.45928056674788
30
0
41
1
10
-0.562058433231044
20
-5.46233960302246
30
0
41
1
10
-0.537713914852588
20
-5.45964677314575
30
0
41
1
10
-0.488053852696936
20
-5.44628701250068
30
0
41
1
10
-0.462609559288751
20
-5.43420976008088
30
0
41
1
10
-0.423860760477311
20
-5.40985221311715
30
0
41
1
10
-0.408979654247759
20
-5.39867780521598
30
0
41
1
10
-0.394976888875391
20
-5.38678223323953
30
0
0
SPLINE
5
1C1
100
AcDbEntity
8
SK1
62
256
6
ByLayer
370
18
48
1
60
0
100
AcDbSpline
70
4
71
3
72
24
73
20
40
0
40
0
40
0
40
0
40
0.469770575826712
40
0.469770575826712
40
0.663612078687295
40
0.663612078687295
40
0.860454184613411
40
0.860454184613411
40
0.903064590395674
40
0.903064590395674
40
0.923089343972159
40
0.923089343972159
40
0.943389594779288
40
0.943389594779288
40
0.961332284531898
40
0.961332284531898
40
0.988068136377815
40
0.988068136377815
40
1
40
1
40
1
40
1
41
1
10
-0.199999999999989
20
6.10344849123027
30
0
41
1
10
-0.199999999999989
20
5.97798788494984
30
0
41
1
10
-0.204016575726513
20
5.8509635670122
30
0
41
1
10
-0.223752631922082
20
5.67079358995508
30
0
41
1
10
-0.231244965282229
20
5.61789623093799
30
0
41
1
10
-0.253819137983157
20
5.51250015101135
30
0
41
1
10
-0.267096215270385
20
5.45724004647028
30
0
41
1
10
-0.303692478692511
20
5.40035311573845
30
0
41
1
10
-0.311479622041333
20
5.39039941672755
30
0
41
1
10
-0.32547775761438
20
5.37891036834915
30
0
41
1
10
-0.330455622185014
20
5.3756771312581
30
0
41
1
10
-0.341078704143143
20
5.37102422840917
30
0
41
1
10
-0.346883276538165
20
5.36960762575521
30
0
41
1
10
-0.357630415747764
20
5.36914354197148
30
0
41
1
10
-0.362713068049572
20
5.36981917830482
30
0
41
1
10
-0.37458340180882
20
5.37316903610403
30
0
41
1
10
-0.3812109954861
20
5.37664910167555
30
0
41
1
10
-0.38989246528871
20
5.38265091141974
30
0
41
1
10
-0.392483363308571
20
5.38466360919151
30
0
41
1
10
-0.394976888875334
20
5.38678189578178
30
0
0
LINE
5
72
100
AcDbEntity
8
1
62
256
6
ByLayer
370
18
48
1
60
0
100
AcDbLine
10
0.3
20
-25
30
0
11
20.920792
21
-25
31
0
39
0
210
0
220
0
230
1
0
LINE
5
74
100
AcDbEntity
8
1
62
256
6
ByLayer
370
18
48
1
60
0
100
AcDbLine
10
20.920792
20
25
30
0
11
0.3
21
25
31
0
39
0
210
0
220
0
230
1
0
LINE
5
75
100
AcDbEntity
8
1
62
256
6
ByLayer
370
18
48
1
60
0
100
AcDbLine
10
0.3
20
25
30
0
11
0
21
24.7
31
0
39
0
210
0
220
0
230
1
0
LINE
5
76
100
AcDbEntity
8
1
62
256
6
ByLayer
370
18
48
1
60
0
100
AcDbLine
10
0
20
-24.7
30
0
11
0.3
21
-25
31
0
39
0
210
0
220
0
230
1
0
LINE
5
77
100
AcDbEntity
8
1
62
256
6
ByLayer
370
18
48
1
60
0
100
AcDbLine
10
20.981588
20
25.15
30
0
11
20.960985
21
25.15
31
0
39
0
210
0
220
0
230
1
0
LINE
5
78
100
AcDbEntity
8
1
62
256
6
ByLayer
370
18
48
1
60
0
100
AcDbLine
10
40.640089
20
-21.856378
30
0
11
40.542476
21
-21.758765
31
0
39
0
210
0
220
0
230
1
0
LINE
5
79
100
AcDbEntity
8
1
62
256
6
ByLayer
370
18
48
1
60
0
100
AcDbLine
10
42.261277
20
-20.920602
30
0
11
42.427616
21
-21.086941
31
0
39
0
210
0
220
0
230
1
0
LINE
5
7A
100
AcDbEntity
8
1
62
256
6
ByLayer
370
18
48
1
60
0
100
AcDbLine
10
41.416313
20
-23.226855
30
0
11
41.249973
21
-23.060516
31
0
39
0
210
0
220
0
230
1
0
LINE
5
7B
100
AcDbEntity
8
1
62
256
6
ByLayer
370
18
48
1
60
0
100
AcDbLine
10
8.846327
20
-17.15823
30
0
11
10.25789
21
-17.828142
31
0
39
0
210
0
220
0
230
1
0
LINE
5
7C
100
AcDbEntity
8
1
62
256
6
ByLayer
370
18
48
1
60
0
100
AcDbLine
10
17.235212
20
-21.139501
30
0
11
23.509152
21
-24.117042
31
0
39
0
210
0
220
0
230
1
0
LINE
5
7D
100
AcDbEntity
8
1
62
256
6
ByLayer
370
18
48
1
60
0
100
AcDbLine
10
32.384274
20
-24.516667
30
0
11
32.961888
21
-24.972636
31
0
39
0
210
0
220
0
230
1
0
LINE
5
7E
100
AcDbEntity
8
1
62
256
6
ByLayer
370
18
48
1
60
0
100
AcDbLine
10
48.699422
20
-32.679678
30
0
11
49.194281
21
-33.174537
31
0
39
0
210
0
220
0
230
1
0
LINE
5
7F
100
AcDbEntity
8
1
62
256
6
ByLayer
370
18
48
1
60
0
100
AcDbLine
10
20.920792
20
-25
30
0
11
21.842188
21
-28.438694
31
0
39
0
210
0
220
0
230
1
0
LINE
5
80
100
AcDbEntity
8
1
62
256
6
ByLayer
370
18
48
1
60
0
100
AcDbLine
10
20.960985
20
25.15
30
0
11
20.920792
21
25
31
0
39
0
210
0
220
0
230
1
0
LINE
5
81
100
AcDbEntity
8
1
62
256
6
ByLayer
370
18
48
1
60
0
100
AcDbLine
10
43.037501
20
-22.291079
30
0
11
43.20384
21
-22.457419
31
0
39
0
210
0
220
0
230
1
0
LINE
5
82
100
AcDbEntity
8
1
62
256
6
ByLayer
370
18
48
1
60
0
100
AcDbLine
10
38.844029
20
-24.735816
30
0
11
39.017225
21
-24.909013
31
0
39
0
210
0
220
0
230
1
0
LINE
5
83
100
AcDbEntity
8
1
62
256
6
ByLayer
370
18
48
1
60
0
100
AcDbLine
10
44.674079
20
-19.252159
30
0
11
44.500883
21
-19.078962
31
0
39
0
210
0
220
0
230
1
0
LINE
5
84
100
AcDbEntity
8
1
62
256
6
ByLayer
370
18
48
1
60
0
100
AcDbLine
10
23.55275
20
-24.115913
30
0
11
23.878852
21
-23.99643
31
0
39
0
210
0
220
0
230
1
0
LINE
5
85
100
AcDbEntity
8
1
62
256
6
ByLayer
370
18
48
1
60
0
100
AcDbLine
10
25.536008
20
-20.504658
30
0
11
25.422362
21
-20.176477
31
0
39
0
210
0
220
0
230
1
0
LINE
5
86
100
AcDbEntity
8
1
62
256
6
ByLayer
370
18
48
1
60
0
100
AcDbLine
10
57.335218
20
-23.380072
30
0
11
57.001169
21
-23.046022
31
0
39
0
210
0
220
0
230
1
0
LINE
5
87
100
AcDbEntity
8
1
62
256
6
ByLayer
370
18
48
1
60
0
100
AcDbLine
10
48.163851
20
-32.169217
30
0
11
48.639487
21
-32.644852
31
0
39
0
210
0
220
0
230
1
0
LINE
5
88
100
AcDbEntity
8
1
62
256
6
ByLayer
370
18
48
1
60
0
100
AcDbLine
10
36.171044
20
-21.83181
30
0
11
35.7658
21
-21.51191
31
0
39
0
210
0
220
0
230
1
0
LINE
5
89
100
AcDbEntity
8
1
62
256
6
ByLayer
370
18
48
1
60
0
100
AcDbLine
10
58.174537
20
-24.194281
30
0
11
57.679678
21
-23.699422
31
0
39
0
210
0
220
0
230
1
0
LINE
5
8A
100
AcDbEntity
8
80
62
256
6
ByLayer
370
18
48
1
60
0
100
AcDbLine
10
0
20
0
30
0
11
-5
21
0
31
0
39
0
210
0
220
0
230
1
0
LINE
5
8B
100
AcDbEntity
8
4
62
256
6
ByLayer
370
18
48
0.05
60
0
100
AcDbLine
10
0
20
0
30
0
11
60
21
0
31
0
39
0
210
0
220
0
230
1
0
LINE
5
8D
100
AcDbEntity
8
81
62
256
6
ByLayer
370
18
48
1
60
0
100
AcDbLine
10
60
20
-35
30
0
11
70
21
-35
31
0
39
0
210
0
220
0
230
1
0
LINE
5
8E
100
AcDbEntity
8
SK4
62
256
6
ByLayer
370
18
48
0.05
60
0
100
AcDbLine
10
-35
20
0
30
0
11
60
21
0
31
0
39
0
210
0
220
0
230
1
0
LINE
5
90
100
AcDbEntity
8
1
62
256
6
ByLayer
370
18
48
1
60
0
100
AcDbLine
10
20.920792
20
25
30
0
11
20.920792
21
24.488619
31
0
39
0
210
0
220
0
230
1
0
LINE
5
91
100
AcDbEntity
8
1
62
256
6
ByLayer
370
18
48
1
60
0
100
AcDbLine
10
20.920792
20
-25
30
0
11
20.920792
21
-24.521049
31
0
39
0
210
0
220
0
230
1
0
LINE
5
92
100
AcDbEntity
8
1
62
256
6
ByLayer
370
18
48
1
60
0
100
AcDbLine
10
0.3
20
0
30
0
11
0.3
21
-25
31
0
39
0
210
0
220
0
230
1
0
LINE
5
93
100
AcDbEntity
8
1
62
256
6
ByLayer
370
18
48
1
60
0
100
AcDbLine
10
0.3
20
25
30
0
11
0.3
21
0
31
0
39
0
210
0
220
0
230
1
0
LINE
5
94
100
AcDbEntity
8
1
62
256
6
ByLayer
370
18
48
1
60
0
100
AcDbLine
10
0
20
0
30
0
11
0
21
-24.7
31
0
39
0
210
0
220
0
230
1
0
LINE
5
95
100
AcDbEntity
8
1
62
256
6
ByLayer
370
18
48
1
60
0
100
AcDbLine
10
0
20
24.7
30
0
11
0
21
0
31
0
39
0
210
0
220
0
230
1
0
LINE
5
96
100
AcDbEntity
8
1
62
256
6
ByLayer
370
18
48
1
60
0
100
AcDbLine
10
17.430319
20
-16.363278
30
0
11
17.430319
21
23.455355
31
0
39
0
210
0
220
0
230
1
0
LINE
5
97
100
AcDbEntity
8
SK1
62
256
6
ByLayer
370
18
48
1
60
0
100
AcDbLine
10
-0.2
20
17.833485
30
0
11
-0.2
21
6.103448
31
0
39
0
210
0
220
0
230
1
0
LINE
5
99
100
AcDbEntity
8
SK1
62
256
6
ByLayer
370
18
48
1
60
0
100
AcDbLine
10
-0.2
20
-6.103447
30
0
11
-0.2
21
-17.833485
31
0
39
0
210
0
220
0
230
1
0
LINE
5
9A
100
AcDbEntity
8
1
62
256
6
ByLayer
370
18
48
1
60
0
100
AcDbLine
10
21.415098
20
-18.254245
30
0
11
21.415098
21
24.647972
31
0
39
0
210
0
220
0
230
1
0
LINE
5
9B
100
AcDbEntity
8
1
62
256
6
ByLayer
370
18
48
1
60
0
100
AcDbLine
10
22.078325
20
-23.43809
30
0
11
22.078325
21
-28.830239
31
0
39
0
210
0
220
0
230
1
0
LINE
5
9C
100
AcDbEntity
8
1
62
256
6
ByLayer
370
18
48
1
60
0
100
AcDbLine
10
42.438601
20
-11.75495
30
0
11
41.519846
21
-13.316815
31
0
39
0
210
0
220
0
230
1
0
LINE
5
9D
100
AcDbEntity
8
1
62
256
6
ByLayer
370
18
48
1
60
0
100
AcDbLine
10
54.462791
20
-21.991646
30
0
11
52.789388
21
-22.286163
31
0
39
0
210
0
220
0
230
1
0
LINE
5
9E
100
AcDbEntity
8
1
62
256
6
ByLayer
370
18
48
1
60
0
100
AcDbLine
10
48.192315
20
-32.651334
30
0
11
47.646187
21
-31.104329
31
0
39
0
210
0
220
0
230
1
0
LINE
5
9F
100
AcDbEntity
8
1
62
256
6
ByLayer
370
18
48
1
60
0
100
AcDbLine
10
23.325357
20
-19.161058
30
0
11
31.892644
21
-10.593771
31
0
39
0
210
0
220
0
230
1
0
LINE
5
A0
100
AcDbEntity
8
1
62
256
6
ByLayer
370
18
48
1
60
0
100
AcDbLine
10
34.216311
20
-25.732683
30
0
11
33.318504
21
-27.258937
31
0
39
0
210
0
220
0
230
1
0
LINE
5
A1
100
AcDbEntity
8
1
62
256
6
ByLayer
370
18
48
1
60
0
100
AcDbLine
10
20.960985
20
24.642711
30
0
11
20.960985
21
25.15
31
0
39
0
210
0
220
0
230
1
0
LINE
5
A2
100
AcDbEntity
8
1
62
256
6
ByLayer
370
18
48
1
60
0
100
AcDbLine
10
37.07136
20
-11.541167
30
0
11
36.630036
21
-12.291409
31
0
39
0
210
0
220
0
230
1
0
LINE
5
A3
100
AcDbEntity
8
1
62
256
6
ByLayer
370
18
48
1
60
0
100
AcDbLine
10
31.05226
20
-21.773521
30
0
11
30.657934
21
-22.443866
31
0
39
0
210
0
220
0
230
1
0
LINE
5
A4
100
AcDbEntity
8
1
62
256
6
ByLayer
370
18
48
1
60
0
100
AcDbLine
10
54.507011
20
-22.083929
30
0
11
52.86905
21
-22.372207
31
0
39
0
210
0
220
0
230
1
0
LINE
5
A5
100
AcDbEntity
8
1
62
256
6
ByLayer
370
18
48
1
60
0
100
AcDbLine
10
48.317833
20
-32.605412
30
0
11
47.799413
21
-31.136893
31
0
39
0
210
0
220
0
230
1
0
LINE
5
A6
100
AcDbEntity
8
1
62
256
6
ByLayer
370
18
48
1
60
0
100
AcDbLine
10
48.535495
20
-32.540845
30
0
11
48.279053
21
-32.495537
31
0
39
0
210
0
220
0
230
1
0
LINE
5
A7
100
AcDbEntity
8
1
62
256
6
ByLayer
370
18
48
1
60
0
100
AcDbLine
10
40.553269
20
-21.772744
30
0
11
40.607929
21
-21.827405
31
0
39
0
210
0
220
0
230
1
0
LINE
5
A8
100
AcDbEntity
8
1
62
256
6
ByLayer
370
18
48
1
60
0
100
AcDbLine
10
42.568798
20
-21.177386
30
0
11
42.568724
21
-21.177312
31
0
39
0
210
0
220
0
230
1
0
LINE
5
A9
100
AcDbEntity
8
1
62
256
6
ByLayer
370
18
48
1
60
0
100
AcDbLine
10
17.252279
20
-16.278947
30
0
11
25.40489
21
-20.148084
31
0
39
0
210
0
220
0
230
1
0
LINE
5
AA
100
AcDbEntity
8
1
62
256
6
ByLayer
370
18
48
1
60
0
100
AcDbLine
10
48.699422
20
-32.679678
30
0
11
48.699833
21
-32.680089
31
0
39
0
210
0
220
0
230
1
0
LINE
5
AB
100
AcDbEntity
8
1
62
256
6
ByLayer
370
18
48
1
60
0
100
AcDbLine
10
55.468864
20
-26.823022
30
0
11
55.468697
21
-26.822855
31
0
39
0
210
0
220
0
230
1
0
LINE
5
AC
100
AcDbEntity
8
1
62
256
6
ByLayer
370
18
48
1
60
0
100
AcDbLine
10
44.762597
20
-18.977431
30
0
11
43.004616
21
-17.955956
31
0
39
0
210
0
220
0
230
1
0
LINE
5
AD
100
AcDbEntity
8
1
62
256
6
ByLayer
370
18
48
1
60
0
100
AcDbLine
10
38.432298
20
-24.815354
30
0
11
40.182799
21
-25.830925
31
0
39
0
210
0
220
0
230
1
0
LINE
5
AE
100
AcDbEntity
8
1
62
256
6
ByLayer
370
18
48
1
60
0
100
AcDbLine
10
39.184721
20
-28.617391
30
0
11
34.532589
21
-25.914268
31
0
39
0
210
0
220
0
230
1
0
LINE
5
AF
100
AcDbEntity
8
1
62
256
6
ByLayer
370
18
48
1
60
0
100
AcDbLine
10
33.527943
20
-24.164922
30
0
11
40.060765
21
-27.960821
31
0
39
0
210
0
220
0
230
1
0
LINE
5
B0
100
AcDbEntity
8
1
62
256
6
ByLayer
370
18
48
1
60
0
100
AcDbLine
10
38.799239
20
-25.105017
30
0
11
40.557219
21
-26.126492
31
0
39
0
210
0
220
0
230
1
0
LINE
5
B1
100
AcDbEntity
8
1
62
256
6
ByLayer
370
18
48
1
60
0
100
AcDbLine
10
55.636599
20
-27.3506
30
0
11
55.682769
21
-27.584958
31
0
39
0
210
0
220
0
230
1
0
LINE
5
B2
100
AcDbEntity
8
1
62
256
6
ByLayer
370
18
48
1
60
0
100
AcDbLine
10
55.852335
20
-28.023995
30
0
11
55.783345
21
-27.808651
31
0
39
0
210
0
220
0
230
1
0
LINE
5
B3
100
AcDbEntity
8
1
62
256
6
ByLayer
370
18
48
1
60
0
100
AcDbLine
10
41.823238
20
-13.510136
30
0
11
41.826511
21
-13.514741
31
0
39
0
210
0
220
0
230
1
0
LINE
5
B4
100
AcDbEntity
8
1
62
256
6
ByLayer
370
18
48
1
60
0
100
AcDbLine
10
40.59096
20
-12.79412
30
0
11
40.13418
21
-12.433538
31
0
39
0
210
0
220
0
230
1
0
LINE
5
B5
100
AcDbEntity
8
1
62
256
6
ByLayer
370
18
48
1
60
0
100
AcDbLine
10
53.416904
20
-28.698053
30
0
11
55.735813
21
-29.907546
31
0
39
0
210
0
220
0
230
1
0
LINE
5
B6
100
AcDbEntity
8
1
62
256
6
ByLayer
370
18
48
1
60
0
100
AcDbLine
10
35.777027
20
-21.558549
30
0
11
35.421611
21
-21.277983
31
0
39
0
210
0
220
0
230
1
0
LINE
5
B7
100
AcDbEntity
8
1
62
256
6
ByLayer
370
18
48
1
60
0
100
AcDbLine
10
41.823238
20
-13.510136
30
0
11
40.197639
21
-12.473942
31
0
39
0
210
0
220
0
230
1
0
LINE
5
B8
100
AcDbEntity
8
1
62
256
6
ByLayer
370
18
48
1
60
0
100
AcDbLine
10
40.59096
20
-12.79412
30
0
11
41.823238
21
-13.510136
31
0
39
0
210
0
220
0
230
1
0
LINE
5
B9
100
AcDbEntity
8
1
62
256
6
ByLayer
370
18
48
1
60
0
100
AcDbLine
10
40.557219
20
-26.126492
30
0
11
40.182799
21
-25.830925
31
0
39
0
210
0
220
0
230
1
0
LINE
5
BA
100
AcDbEntity
8
1
62
256
6
ByLayer
370
18
48
1
60
0
100
AcDbLine
10
53.696865
20
-30.960956
30
0
11
53.468733
21
-31.035931
31
0
39
0
210
0
220
0
230
1
0
LINE
5
BB
100
AcDbEntity
8
1
62
256
6
ByLayer
370
18
48
1
60
0
100
AcDbLine
10
54.169817
20
-30.884242
30
0
11
53.945619
21
-30.93275
31
0
39
0
210
0
220
0
230
1
0
LINE
5
BC
100
AcDbEntity
8
1
62
256
6
ByLayer
370
18
48
1
60
0
100
AcDbLine
10
46.478644
20
-16.217864
30
0
11
41.826511
21
-13.514741
31
0
39
0
210
0
220
0
230
1
0
LINE
5
BD
100
AcDbEntity
8
1
62
256
6
ByLayer
370
18
48
1
60
0
100
AcDbLine
10
34.527161
20
-25.913326
30
0
11
33.294882
21
-25.19731
31
0
39
0
210
0
220
0
230
1
0
LINE
5
BE
100
AcDbEntity
8
1
62
256
6
ByLayer
370
18
48
1
60
0
100
AcDbLine
10
32.832226
20
-21.587155
30
0
11
31.455777
21
-20.500586
31
0
39
0
210
0
220
0
230
1
0
LINE
5
BF
100
AcDbEntity
8
1
62
256
6
ByLayer
370
18
48
1
60
0
100
AcDbLine
10
55.636599
20
-27.3506
30
0
11
55.311794
21
-26.336757
31
0
39
0
210
0
220
0
230
1
0
LINE
5
C0
100
AcDbEntity
8
1
62
256
6
ByLayer
370
18
48
1
60
0
100
AcDbLine
10
32.832226
20
-21.587155
30
0
11
37.088271
21
-14.351961
31
0
39
0
210
0
220
0
230
1
0
LINE
5
C1
100
AcDbEntity
8
1
62
256
6
ByLayer
370
18
48
1
60
0
100
AcDbLine
10
35.711822
20
-13.265392
30
0
11
31.455777
21
-20.500586
31
0
39
0
210
0
220
0
230
1
0
LINE
5
C2
100
AcDbEntity
8
1
62
256
6
ByLayer
370
18
48
1
60
0
100
AcDbLine
10
35.421611
20
-21.277983
30
0
11
34.118844
21
-20.52217
31
0
39
0
210
0
220
0
230
1
0
LINE
5
C3
100
AcDbEntity
8
1
62
256
6
ByLayer
370
18
48
1
60
0
100
AcDbLine
10
53.468733
20
-31.035931
30
0
11
52.413201
21
-31.264309
31
0
39
0
210
0
220
0
230
1
0
LINE
5
C4
100
AcDbEntity
8
1
62
256
6
ByLayer
370
18
48
1
60
0
100
AcDbLine
10
34.118844
20
-20.52217
30
0
11
36.753539
21
-16.04324
31
0
39
0
210
0
220
0
230
1
0
LINE
5
C5
100
AcDbEntity
8
1
62
256
6
ByLayer
370
18
48
1
60
0
100
AcDbLine
10
34.527161
20
-25.913326
30
0
11
34.532589
21
-25.914268
31
0
39
0
210
0
220
0
230
1
0
LINE
5
C6
100
AcDbEntity
8
1
62
256
6
ByLayer
370
18
48
1
60
0
100
AcDbLine
10
37.088271
20
-14.351961
30
0
11
35.711822
21
-13.265392
31
0
39
0
210
0
220
0
230
1
0
LINE
5
C7
100
AcDbEntity
8
1
62
256
6
ByLayer
370
18
48
1
60
0
100
AcDbLine
10
39.686587
20
-13.695346
30
0
11
46.219409
21
-17.491244
31
0
39
0
210
0
220
0
230
1
0
LINE
5
C8
100
AcDbEntity
8
1
62
256
6
ByLayer
370
18
48
1
60
0
100
AcDbLine
10
42.114841
20
-23.29648
30
0
11
42.281181
21
-23.462819
31
0
39
0
210
0
220
0
230
1
0
LINE
5
C9
100
AcDbEntity
8
1
62
256
6
ByLayer
370
18
48
1
60
0
100
AcDbLine
10
42.689107
20
-22.966986
30
0
11
42.855446
21
-23.133325
31
0
39
0
210
0
220
0
230
1
0
LINE
5
CA
100
AcDbEntity
8
1
62
256
6
ByLayer
370
18
48
1
60
0
100
AcDbLine
10
40.800806
20
-22.966986
30
0
11
40.967145
21
-23.133325
31
0
39
0
210
0
220
0
230
1
0
LINE
5
CB
100
AcDbEntity
8
1
62
256
6
ByLayer
370
18
48
1
60
0
100
AcDbLine
10
43.076861
20
-21.661065
30
0
11
43.2432
21
-21.827405
31
0
39
0
210
0
220
0
230
1
0
LINE
5
CC
100
AcDbEntity
8
1
62
256
6
ByLayer
370
18
48
1
60
0
100
AcDbLine
10
42.143379
20
-20.684638
30
0
11
42.309718
21
-20.850978
31
0
39
0
210
0
220
0
230
1
0
LINE
5
CD
100
AcDbEntity
8
1
62
256
6
ByLayer
370
18
48
1
60
0
100
AcDbLine
10
31.892644
20
-10.593771
30
0
11
26.455764
21
-19.836362
31
0
39
0
210
0
220
0
230
1
0
LINE
5
CE
100
AcDbEntity
8
1
62
256
6
ByLayer
370
18
48
1
60
0
100
AcDbLine
10
11.461325
20
23.83913
30
0
11
11.461325
21
7.529667
31
0
39
0
210
0
220
0
230
1
0
LINE
5
CF
100
AcDbEntity
8
1
62
256
6
ByLayer
370
18
48
1
60
0
100
AcDbLine
10
48.317833
20
-32.605412
30
0
11
47.886528
21
-33.338621
31
0
39
0
210
0
220
0
230
1
0
LINE
5
D0
100
AcDbEntity
8
1
62
256
6
ByLayer
370
18
48
1
60
0
100
AcDbLine
10
42.438601
20
-11.75495
30
0
11
41.818135
21
-11.366272
31
0
39
0
210
0
220
0
230
1
0
LINE
5
D1
100
AcDbEntity
8
1
62
256
6
ByLayer
370
18
48
1
60
0
100
AcDbLine
10
17.306273
20
-15.972901
30
0
11
17.15076
21
-16.85433
31
0
39
0
210
0
220
0
230
1
0
LINE
5
D2
100
AcDbEntity
8
1
62
256
6
ByLayer
370
18
48
1
60
0
100
AcDbLine
10
54.507011
20
-22.083929
30
0
11
54.462791
21
-21.991646
31
0
39
0
210
0
220
0
230
1
0
LINE
5
D3
100
AcDbEntity
8
1
62
256
6
ByLayer
370
18
48
1
60
0
100
AcDbLine
10
11.894338
20
23.666502
30
0
11
11.894338
21
8.055848
31
0
39
0
210
0
220
0
230
1
0
LINE
5
D4
100
AcDbEntity
8
1
62
256
6
ByLayer
370
18
48
1
60
0
100
AcDbLine
10
8.105662
20
-8.055848
30
0
11
8.105662
21
-18.05553
31
0
39
0
210
0
220
0
230
1
0
LINE
5
D5
100
AcDbEntity
8
1
62
256
6
ByLayer
370
18
48
1
60
0
100
AcDbLine
10
17.430319
20
-23.455355
30
0
11
17.430319
21
-21.338848
31
0
39
0
210
0
220
0
230
1
0
LINE
5
D6
100
AcDbEntity
8
1
62
256
6
ByLayer
370
18
48
1
60
0
100
AcDbLine
10
11.461325
20
7.529667
30
0
11
8.538675
21
7.529667
31
0
39
0
210
0
220
0
230
1
0
LINE
5
D7
100
AcDbEntity
8
1
62
256
6
ByLayer
370
18
48
1
60
0
100
AcDbLine
10
8.538675
20
-7.529667
30
0
11
11.461325
21
-7.529667
31
0
39
0
210
0
220
0
230
1
0
LINE
5
D8
100
AcDbEntity
8
1
62
256
6
ByLayer
370
18
48
1
60
0
100
AcDbLine
10
11.461325
20
-7.529667
30
0
11
11.461325
21
-17.330102
31
0
39
0
210
0
220
0
230
1
0
LINE
5
D9
100
AcDbEntity
8
1
62
256
6
ByLayer
370
18
48
1
60
0
100
AcDbLine
10
11.894338
20
-8.055848
30
0
11
11.894338
21
-18.05553
31
0
39
0
210
0
220
0
230
1
0
LINE
5
DA
100
AcDbEntity
8
1
62
256
6
ByLayer
370
18
48
1
60
0
100
AcDbLine
10
42.801887
20
-9.646027
30
0
11
54.667575
21
-21.643518
31
0
39
0
210
0
220
0
230
1
0
LINE
5
DB
100
AcDbEntity
8
1
62
256
6
ByLayer
370
18
48
1
60
0
100
AcDbLine
10
54.729086
20
-21.706406
30
0
11
54.507011
21
-22.083929
31
0
39
0
210
0
220
0
230
1
0
LINE
5
DC
100
AcDbEntity
8
1
62
256
6
ByLayer
370
18
48
1
60
0
100
AcDbLine
10
48.317833
20
-32.605412
30
0
11
48.192315
21
-32.651334
31
0
39
0
210
0
220
0
230
1
0
LINE
5
DD
100
AcDbEntity
8
1
62
256
6
ByLayer
370
18
48
1
60
0
100
AcDbLine
10
21.506853
20
24.647972
30
0
11
21.415098
21
24.647972
31
0
39
0
210
0
220
0
230
1
0
LINE
5
DE
100
AcDbEntity
8
1
62
256
6
ByLayer
370
18
48
1
60
0
100
AcDbLine
10
33.318504
20
-27.258937
30
0
11
32.698039
21
-26.87026
31
0
39
0
210
0
220
0
230
1
0
LINE
5
DF
100
AcDbEntity
8
1
62
256
6
ByLayer
370
18
48
1
60
0
100
AcDbLine
10
21.506853
20
24.647972
30
0
11
21.602197
21
15.92178
31
0
39
0
210
0
220
0
230
1
0
LINE
5
E0
100
AcDbEntity
8
1
62
256
6
ByLayer
370
18
48
1
60
0
100
AcDbLine
10
47.769931
20
-33.369378
30
0
11
22.078325
21
-28.830239
31
0
39
0
210
0
220
0
230
1
0
LINE
5
E1
100
AcDbEntity
8
1
62
256
6
ByLayer
370
18
48
1
60
0
100
AcDbLine
10
11.461325
20
-19.288031
30
0
11
11.461325
21
-23.83913
31
0
39
0
210
0
220
0
230
1
0
LINE
5
E2
100
AcDbEntity
8
1
62
256
6
ByLayer
370
18
48
1
60
0
100
AcDbLine
10
48.192315
20
-32.651334
30
0
11
47.769931
21
-33.369378
31
0
39
0
210
0
220
0
230
1
0
LINE
5
E3
100
AcDbEntity
8
1
62
256
6
ByLayer
370
18
48
1
60
0
100
AcDbLine
10
31.892644
20
-10.593771
30
0
11
32.625907
21
-9.423228
31
0
39
0
210
0
220
0
230
1
0
LINE
5
E4
100
AcDbEntity
8
1
62
256
6
ByLayer
370
18
48
1
60
0
100
AcDbLine
10
35.709396
20
-6.777019
30
0
11
37.848648
21
-4.637768
31
0
39
0
210
0
220
0
230
1
0
LINE
5
E5
100
AcDbEntity
8
1
62
256
6
ByLayer
370
18
48
1
60
0
100
AcDbLine
10
54.729086
20
-21.706406
30
0
11
54.667575
21
-21.643518
31
0
39
0
210
0
220
0
230
1
0
LINE
5
E6
100
AcDbEntity
8
1
62
256
6
ByLayer
370
18
48
1
60
0
100
AcDbLine
10
29.793587
20
-21.15239
30
0
11
35.515019
21
-11.426066
31
0
39
0
210
0
220
0
230
1
0
LINE
5
E7
100
AcDbEntity
8
1
62
256
6
ByLayer
370
18
48
1
60
0
100
AcDbLine
10
8.538675
20
23.83913
30
0
11
8.538675
21
7.529667
31
0
39
0
210
0
220
0
230
1
0
LINE
5
E8
100
AcDbEntity
8
1
62
256
6
ByLayer
370
18
48
1
60
0
100
AcDbLine
10
8.538675
20
-19.288031
30
0
11
8.538675
21
-23.83913
31
0
39
0
210
0
220
0
230
1
0
LINE
5
E9
100
AcDbEntity
8
1
62
256
6
ByLayer
370
18
48
1
60
0
100
AcDbLine
10
47.769931
20
-33.369378
30
0
11
47.886528
21
-33.338621
31
0
39
0
210
0
220
0
230
1
0
LINE
5
EA
100
AcDbEntity
8
1
62
256
6
ByLayer
370
18
48
1
60
0
100
AcDbLine
10
8.538675
20
-7.529667
30
0
11
8.538675
21
-17.330102
31
0
39
0
210
0
220
0
230
1
0
LINE
5
EB
100
AcDbEntity
8
1
62
256
6
ByLayer
370
18
48
1
60
0
100
AcDbLine
10
8.538675
20
23.83913
30
0
11
11.461325
21
23.83913
31
0
39
0
210
0
220
0
230
1
0
LINE
5
EC
100
AcDbEntity
8
1
62
256
6
ByLayer
370
18
48
1
60
0
100
AcDbLine
10
11.461325
20
-23.83913
30
0
11
8.538675
21
-23.83913
31
0
39
0
210
0
220
0
230
1
0
LINE
5
ED
100
AcDbEntity
8
1
62
256
6
ByLayer
370
18
48
1
60
0
100
AcDbLine
10
54.667575
20
-21.643518
30
0
11
54.462791
21
-21.991646
31
0
39
0
210
0
220
0
230
1
0
LINE
5
EE
100
AcDbEntity
8
1
62
256
6
ByLayer
370
18
48
1
60
0
100
AcDbLine
10
11.894338
20
-18.975321
30
0
11
11.894338
21
-23.666502
31
0
39
0
210
0
220
0
230
1
0
LINE
5
EF
100
AcDbEntity
8
1
62
256
6
ByLayer
370
18
48
1
60
0
100
AcDbLine
10
37.848648
20
-4.637768
30
0
11
39.467144
21
-6.274242
31
0
39
0
210
0
220
0
230
1
0
LINE
5
F0
100
AcDbEntity
8
1
62
256
6
ByLayer
370
18
48
1
60
0
100
AcDbLine
10
37.848648
20
-4.637768
30
0
11
24.605551
21
8.749235
31
0
39
0
210
0
220
0
230
1
0
LINE
5
F1
100
AcDbEntity
8
1
62
256
6
ByLayer
370
18
48
1
60
0
100
AcDbLine
10
8.105662
20
23.666502
30
0
11
8.105662
21
8.055848
31
0
39
0
210
0
220
0
230
1
0
LINE
5
F2
100
AcDbEntity
8
1
62
256
6
ByLayer
370
18
48
1
60
0
100
AcDbLine
10
8.105662
20
-18.975321
30
0
11
8.105662
21
-23.666502
31
0
39
0
210
0
220
0
230
1
0
LINE
5
F3
100
AcDbEntity
8
SK1
62
256
6
ByLayer
370
18
48
1
60
0
100
AcDbLine
10
-1.307107
20
3.918065
30
0
11
-1.307107
21
-3.918065
31
0
39
0
210
0
220
0
230
1
0
MTEXT
5
1C2
100
AcDbEntity
8
SK6
62
256
6
ByLayer
370
18
48
1
60
0
100
AcDbMText
10
-1.625
20
34.2
30
0
210
0
220
0
230
1
1
\W0.7390;C5-DRSNL-35060-12
40
3.5
41
0
44
1.084337
50
0
71
7
72
5
7
iso_b_vert
0
DIMENSION
5
1D3
100
AcDbEntity
8
2
62
256
6
ByLayer
370
13
48
1
60
0
100
AcDbDimension
2
DimnDraft3D1
10
60
20
-62.25
30
0
11
24.718421
21
-62.25
31
0
70
32
71
5
72
1
41
1
210
0
220
0
230
1
3
Standard
100
AcDbAlignedDimension
13
0
23
-27
33
0
14
60
24
-37
34
0
50
0
100
AcDbRotatedDimension
1001
ACAD
1000
DSTYLE
1002
{
1070
   279
1070
     0
1070
   172
1070
     1
1070
   173
1070
     1
1070
   340
1005
1C3
1070
    77
1070
     1
1070
    73
1070
     0
1070
   171
1070
     3
1070
   274
1070
     4
1070
   177
1070
     2
1070
   176
1070
     2
1070
   178
1070
     7
1070
    78
1070
     8
1070
    41
1041
3.175
1070
   147
1041
2.25
1070
    42
1041
2.0
1070
    44
1041
2.0
1070
   140
1041
4.5
1070
   343
1005
1D4
1070
   344
1005
1D4
1002
}
0
DIMENSION
5
1E9
100
AcDbEntity
8
SK2
62
256
6
ByLayer
370
13
48
1
60
0
100
AcDbDimension
2
DimnDraft3D2
10
-37.75
20
25
30
0
11
-37.75
21
-2.688158
31
0
70
32
71
5
72
1
41
1
210
0
220
0
230
1
3
Standard
100
AcDbAlignedDimension
13
-2
23
-25
33
0
14
-2
24
25
34
0
50
90
100
AcDbRotatedDimension
1001
ACAD
1000
DSTYLE
1002
{
1070
    74
1070
     0
1070
   279
1070
     0
1070
   172
1070
     1
1070
   173
1070
     1
1070
   340
1005
1C3
1070
    77
1070
     1
1070
    73
1070
     0
1070
   171
1070
     3
1070
   274
1070
     4
1070
   177
1070
     2
1070
   176
1070
     2
1070
   178
1070
     7
1070
    78
1070
     8
1070
    41
1041
3.175
1070
   147
1041
2.25
1070
    42
1041
2.0
1070
    44
1041
2.0
1070
   140
1041
4.5
1070
   343
1005
1D4
1070
   344
1005
1D4
1002
}
0
DIMENSION
5
1F7
100
AcDbEntity
8
2
62
256
6
ByLayer
370
13
48
1
60
0
100
AcDbDimension
2
DimnDraft3D3
10
82.25
20
-35
30
0
11
82.25
21
-22.781579
31
0
70
32
71
5
72
1
41
1
210
0
220
0
230
1
3
Standard
100
AcDbAlignedDimension
13
62
23
0
33
0
14
62
24
-35
34
0
50
90
100
AcDbRotatedDimension
1001
ACAD
1000
DSTYLE
1002
{
1070
    74
1070
     0
1070
   279
1070
     0
1070
   172
1070
     1
1070
   173
1070
     1
1070
   340
1005
1C3
1070
    77
1070
     1
1070
    73
1070
     0
1070
   171
1070
     3
1070
   274
1070
     4
1070
   177
1070
     2
1070
   176
1070
     2
1070
   178
1070
     7
1070
    78
1070
     8
1070
    41
1041
3.175
1070
   147
1041
2.25
1070
    42
1041
2.0
1070
    44
1041
2.0
1070
   140
1041
4.5
1070
   343
1005
1D4
1070
   344
1005
1D4
1002
}
0
ENDSEC
0
SECTION
2
OBJECTS
0
DICTIONARY
5
262
330
0
100
AcDbDictionary
280
0
281
1
3
ACAD_GROUP
350
263
3
ACAD_MLINESTYLE
350
264
0
DICTIONARY
5
263
330
0
100
AcDbDictionary
280
0
281
1
0
DICTIONARY
5
264
330
0
100
AcDbDictionary
280
0
281
1
3
Standard
350
18
0
MLINESTYLE
5
18
330
264
100
AcDbMlineStyle
2
Standard
70
0
3

62
256
51
90
52
90
71
2
49
-0.5
62
256
6
ByLayer
49
0.5
62
256
6
ByLayer
0
RASTERVARIABLES
5
250
330

100
AcDbRasterVariables
90
0
70
1
71
1
72
1
0
ENDSEC
0
EOF
