0
SECTION
2
HEADER
9
$ACADVER
1
AC1015
9
$DWGCODEPAGE
3
ANSI_1252
9
$HANDSEED
5
27d
9
$ANGBASE
50
0
9
$ANGDIR
70
0
9
$ATTMODE
70
1
9
$AUNITS
70
0
9
$AUPREC
70
0
9
$CECOLOR
62
256
9
$CELTSCALE
40
1
9
$CELTYPE
6
ByLayer
9
$CELWEIGHT
370
18
9
$CLAYER
8
0
9
$CMLJUST
70
0
9
$CMLSCALE
40
1
9
$CMLSTYLE
2
Standard
9
$DIMSTYLE
2
Standard
9
$TEXTSIZE
40
0.2
9
$TEXTSTYLE
7
Standard
9
$LUNITS
70
2
9
$LUPREC
70
4
9
$EXTNAMES
290
1
9
$INSUNITS
70
4
9
$LTSCALE
40
1
9
$LWDISPLAY
290
1
9
$PDMODE
70
0
9
$PDSIZE
40
0
9
$PLINEGEN
70
0
0
ENDSEC
0
SECTION
2
CLASSES
0
CLASS
1
RASTERVARIABLES
2
AcDbRasterVariables
3
ISM
90
0
280
0
281
0
0
ENDSEC
0
SECTION
2
TABLES
0
TABLE
2
VPORT
5
273
100
AcDbSymbolTable
0
VPORT
5
1
100
AcDbSymbolTableRecord
100
AcDbViewportTableRecord
2
*Active
70
0
10
0
20
0
11
1
21
1
12
-1
22
1
13
0
23
0
14
0.5
24
0.5
15
10
25
10
16
0
26
0
36
1
17
0
27
0
37
0
0
ENDTAB
0
TABLE
2
LTYPE
5
274
100
AcDbSymbolTable
0
LTYPE
5
14
100
AcDbSymbolTableRecord
100
AcDbLinetypeTableRecord
70
0
2
ByBlock
3

72
65
73
0
40
0
0
LTYPE
5
15
100
AcDbSymbolTableRecord
100
AcDbLinetypeTableRecord
70
0
2
ByLayer
3

72
65
73
0
40
0
0
LTYPE
5
16
100
AcDbSymbolTableRecord
100
AcDbLinetypeTableRecord
70
0
2
CONTINUOUS
3
Solid line
72
65
73
0
40
0
0
LTYPE
5
6A
100
AcDbSymbolTableRecord
100
AcDbLinetypeTableRecord
70
0
2
CENTER
3
____ _ ____ _ ____ _ ____
72
65
73
4
40
47.5
49
22
74
0
49
-8.5
74
0
49
8.5
74
0
49
-8.5
74
0
0
LTYPE
5
6B
100
AcDbSymbolTableRecord
100
AcDbLinetypeTableRecord
70
0
2
DASHED
3
__ __ __ __ __ __ __ __ __
72
65
73
2
40
25.72
49
12.86
74
0
49
-12.86
74
0
0
ENDTAB
0
TABLE
2
LAYER
5
275
100
AcDbSymbolTable
0
LAYER
5
10
100
AcDbSymbolTableRecord
100
AcDbLayerTableRecord
2
0
70
0
62
7
6
CONTINUOUS
290
1
370
-3
390
0
0
LAYER
5
6D
100
AcDbSymbolTableRecord
100
AcDbLayerTableRecord
2
2
70
0
62
7
6
CONTINUOUS
290
1
370
-3
390
0
0
LAYER
5
6F
100
AcDbSymbolTableRecord
100
AcDbLayerTableRecord
2
80
70
0
62
-6
6
CONTINUOUS
290
1
370
-3
390
0
0
LAYER
5
71
100
AcDbSymbolTableRecord
100
AcDbLayerTableRecord
2
81
70
0
62
-3
6
CONTINUOUS
290
1
370
-3
390
0
0
LAYER
5
73
100
AcDbSymbolTableRecord
100
AcDbLayerTableRecord
2
1
70
0
62
4
6
CONTINUOUS
290
1
370
-3
390
0
0
LAYER
5
86
100
AcDbSymbolTableRecord
100
AcDbLayerTableRecord
2
4
70
0
62
-2
6
CENTER
290
1
370
-3
390
0
0
LAYER
5
25f
100
AcDbSymbolTableRecord
100
AcDbLayerTableRecord
2
SK4
70
0
62
2
6
CENTER
290
1
370
-3
390
0
0
LAYER
5
260
100
AcDbSymbolTableRecord
100
AcDbLayerTableRecord
2
SK1
70
0
62
4
6
CONTINUOUS
290
1
370
-3
390
0
0
LAYER
5
261
100
AcDbSymbolTableRecord
100
AcDbLayerTableRecord
2
SK6
70
0
62
5
6
CONTINUOUS
290
1
370
-3
390
0
0
LAYER
5
262
100
AcDbSymbolTableRecord
100
AcDbLayerTableRecord
2
SK2
70
0
62
7
6
CONTINUOUS
290
1
370
-3
390
0
0
ENDTAB
0
TABLE
2
STYLE
5
276
100
AcDbSymbolTable
0
STYLE
5
11
100
AcDbSymbolTableRecord
100
AcDbTextStyleTableRecord
2
Standard
3
txt
70
0
71
0
40
0
41
1
42
0
50
0
0
STYLE
5
1C3
100
AcDbSymbolTableRecord
100
AcDbTextStyleTableRecord
2
iso_b_vert
3
simplex.shx
70
0
71
0
40
0
41
1
42
0
50
0
0
STYLE
5
1C4
100
AcDbSymbolTableRecord
100
AcDbTextStyleTableRecord
2
DWGDirectTextStyle
3
simplex
70
0
71
0
40
0
41
1
42
0
50
0
0
ENDTAB
0
TABLE
2
DIMSTYLE
5
277
100
AcDbSymbolTable
100
AcDbDimStyleTable
0
DIMSTYLE
105
27
100
AcDbSymbolTableRecord
100
AcDbDimStyleTableRecord
2
Standard
70
0
3
<>
41
0.18
42
0.0625
44
0.18
140
0.18
147
0.09
73
0
74
0
77
1
271
2
275
0
278
52
280
0
340
11
0
ENDTAB
0
TABLE
2
VIEW
5
278
100
AcDbSymbolTable
0
ENDTAB
0
TABLE
2
UCS
5
279
100
AcDbSymbolTable
0
ENDTAB
0
TABLE
2
APPID
5
27a
100
AcDbSymbolTable
0
APPID
5
12
100
AcDbSymbolTableRecord
100
AcDbRegAppTableRecord
2
ACAD
70
0
0
ENDTAB
0
TABLE
2
BLOCK_RECORD
5
27b
100
AcDbSymbolTable
0
BLOCK_RECORD
5
1F
100
AcDbSymbolTableRecord
100
AcDbBlockTableRecord
2
*Model_Space
340
0
70
0
0
BLOCK_RECORD
5
1B
100
AcDbSymbolTableRecord
100
AcDbBlockTableRecord
2
*Paper_Space
340
0
70
0
0
BLOCK_RECORD
5
23
100
AcDbSymbolTableRecord
100
AcDbBlockTableRecord
2
*Paper_Space0
340
0
70
0
0
BLOCK_RECORD
5
1C6
100
AcDbSymbolTableRecord
100
AcDbBlockTableRecord
2
DimnDraft3D11
340
0
70
0
0
BLOCK_RECORD
5
1D4
100
AcDbSymbolTableRecord
100
AcDbBlockTableRecord
2
DimnDraft3D2
340
0
70
0
0
BLOCK_RECORD
5
1E2
100
AcDbSymbolTableRecord
100
AcDbBlockTableRecord
2
_CLOSED
340
0
70
0
0
BLOCK_RECORD
5
1E9
100
AcDbSymbolTableRecord
100
AcDbBlockTableRecord
2
DimnDraft3D3
340
0
70
0
0
BLOCK_RECORD
5
1F8
100
AcDbSymbolTableRecord
100
AcDbBlockTableRecord
2
DimnDraft3D4
340
0
70
0
0
ENDTAB
0
ENDSEC
0
SECTION
2
BLOCKS
0
BLOCK
5
20
100
AcDbEntity
8
0
100
AcDbBlockBegin
2
*Model_Space
70
0
10
0
20
0
30
0
3
*Model_Space
0
ENDBLK
5
21
100
AcDbEntity
8
0
100
AcDbBlockEnd
0
BLOCK
5
1C
100
AcDbEntity
8
0
100
AcDbBlockBegin
2
*Paper_Space
70
0
10
0
20
0
30
0
3
*Paper_Space
0
ENDBLK
5
1D
100
AcDbEntity
8
0
100
AcDbBlockEnd
0
BLOCK
5
24
100
AcDbEntity
8
0
100
AcDbBlockBegin
2
*Paper_Space0
70
0
10
0
20
0
30
0
3
*Paper_Space0
0
ENDBLK
5
25
100
AcDbEntity
8
0
100
AcDbBlockEnd
0
BLOCK
5
1C7
100
AcDbEntity
8
0
100
AcDbBlockBegin
2
DimnDraft3D11
70
0
10
0
20
0
30
0
3
DimnDraft3D11
0
LINE
5
1C9
100
AcDbEntity
8
2
62
256
6
ByLayer
370
25
48
1
60
0
100
AcDbLine
10
60
20
2.4817
30
0
11
60
21
38.2317
31
0
39
0
210
0
220
0
230
1
0
LINE
5
1CA
100
AcDbEntity
8
2
62
256
6
ByLayer
370
25
48
1
60
0
100
AcDbLine
10
0
20
27
30
0
11
0
21
38.2317
31
0
39
0
210
0
220
0
230
1
0
LINE
5
1CB
100
AcDbEntity
8
2
62
256
6
ByLayer
370
25
48
1
60
0
100
AcDbLine
10
60
20
36.2317
30
0
11
0
21
36.2317
31
0
39
0
210
0
220
0
230
1
0
LINE
5
1CC
100
AcDbEntity
8
2
62
256
6
ByLayer
370
25
48
1
60
0
100
AcDbLine
10
60
20
36.2317
30
0
11
56.825002
21
35.813703
31
0
39
0
210
0
220
0
230
1
0
LINE
5
1CD
100
AcDbEntity
8
2
62
256
6
ByLayer
370
25
48
1
60
0
100
AcDbLine
10
60
20
36.2317
30
0
11
56.824998
21
36.649697
31
0
39
0
210
0
220
0
230
1
0
LINE
5
1CE
100
AcDbEntity
8
2
62
256
6
ByLayer
370
25
48
1
60
0
100
AcDbLine
10
56.825002
20
35.813703
30
0
11
56.824998
21
36.649697
31
0
39
0
210
0
220
0
230
1
0
LINE
5
1CF
100
AcDbEntity
8
2
62
256
6
ByLayer
370
25
48
1
60
0
100
AcDbLine
10
0
20
36.2317
30
0
11
3.174998
21
36.649697
31
0
39
0
210
0
220
0
230
1
0
LINE
5
1D0
100
AcDbEntity
8
2
62
256
6
ByLayer
370
25
48
1
60
0
100
AcDbLine
10
0
20
36.2317
30
0
11
3.175002
21
35.813703
31
0
39
0
210
0
220
0
230
1
0
LINE
5
1D1
100
AcDbEntity
8
2
62
256
6
ByLayer
370
25
48
1
60
0
100
AcDbLine
10
3.174998
20
36.649697
30
0
11
3.175002
21
35.813703
31
0
39
0
210
0
220
0
230
1
0
MTEXT
5
1D2
100
AcDbEntity
8
2
62
256
6
ByLayer
370
18
48
1
60
0
100
AcDbMText
10
25.843421
20
37.3567
30
0
210
0
220
0
230
1
1
\W0.7346;60.0
40
4.5
41
0
44
1.084337
50
0
71
7
72
5
7
iso_b_vert
0
ENDBLK
5
1C8
100
AcDbEntity
8
0
100
AcDbBlockEnd
0
BLOCK
5
1DF
100
AcDbEntity
8
0
100
AcDbBlockBegin
2
DimnDraft3D2
70
0
10
0
20
0
30
0
3
DimnDraft3D2
0
MTEXT
5
1D5
100
AcDbEntity
8
2
62
256
6
ByLayer
370
18
48
1
60
0
100
AcDbMText
10
42.543953
20
15.743255
30
0
210
0
220
0
230
1
1
\W0.7645;62%%d30'
40
4.5
41
0
44
1.084337
50
31.069587815
71
7
72
5
7
iso_b_vert
0
LINE
5
1D6
100
AcDbEntity
8
2
62
256
6
ByLayer
370
13
48
1
60
0
100
AcDbLine
10
60
20
2.4817
30
0
11
60
21
23.437544
31
0
39
0
210
0
220
0
230
1
0
LINE
5
1D7
100
AcDbEntity
8
2
62
256
6
ByLayer
370
13
48
1
60
0
100
AcDbLine
10
51.307466
20
5.076553
30
0
11
39.705074
21
11.20955
31
0
39
0
210
0
220
0
230
1
0
ARC
5
1D8
100
AcDbEntity
8
2
62
256
6
ByLayer
370
13
48
1
60
0
100
AcDbCircle
39
0
10
60
20
0.4817
30
0
40
20.9558441220057
210
0
220
0
230
1
100
AcDbArc
50
90
51
152.139176
0
LINE
5
1D9
100
AcDbEntity
8
2
62
256
6
ByLayer
370
13
48
1
60
0
100
AcDbLine
10
60
20
21.437544
30
0
11
56.843069
21
20.899844
31
0
39
0
210
0
220
0
230
1
0
LINE
5
1DA
100
AcDbEntity
8
2
62
256
6
ByLayer
370
13
48
1
60
0
100
AcDbLine
10
60
20
21.437544
30
0
11
56.811468
21
21.73524
31
0
39
0
210
0
220
0
230
1
0
LINE
5
1DB
100
AcDbEntity
8
2
62
256
6
ByLayer
370
13
48
1
60
0
100
AcDbLine
10
56.843069
20
20.899844
30
0
11
56.811468
21
21.73524
31
0
39
0
210
0
220
0
230
1
0
LINE
5
1DC
100
AcDbEntity
8
2
62
256
6
ByLayer
370
13
48
1
60
0
100
AcDbLine
10
41.473245
20
10.274899
30
0
11
42.700137
21
13.232951
31
0
39
0
210
0
220
0
230
1
0
LINE
5
1DD
100
AcDbEntity
8
2
62
256
6
ByLayer
370
13
48
1
60
0
100
AcDbLine
10
41.473245
20
10.274899
30
0
11
43.423934
21
12.814617
31
0
39
0
210
0
220
0
230
1
0
LINE
5
1DE
100
AcDbEntity
8
2
62
256
6
ByLayer
370
13
48
1
60
0
100
AcDbLine
10
42.700137
20
13.232951
30
0
11
43.423934
21
12.814617
31
0
39
0
210
0
220
0
230
1
0
ENDBLK
5
1E0
100
AcDbEntity
8
0
100
AcDbBlockEnd
0
BLOCK
5
1E3
100
AcDbEntity
8
0
100
AcDbBlockBegin
2
_CLOSED
70
0
10
0
20
0
30
0
3
_CLOSED
0
LINE
5
1E5
100
AcDbEntity
8
0
62
256
6
ByLayer
370
-2
48
1
60
0
100
AcDbLine
10
-1
20
0.166667
30
0
11
0
21
0
31
0
39
0
210
0
220
0
230
1
0
LINE
5
1E6
100
AcDbEntity
8
0
62
256
6
ByLayer
370
-2
48
1
60
0
100
AcDbLine
10
0
20
0
30
0
11
-1
21
-0.166667
31
0
39
0
210
0
220
0
230
1
0
LINE
5
1E7
100
AcDbEntity
8
0
62
256
6
ByLayer
370
-2
48
1
60
0
100
AcDbLine
10
-1
20
0.166667
30
0
11
-1
21
-0.166667
31
0
39
0
210
0
220
0
230
1
0
LINE
5
1E8
100
AcDbEntity
8
0
62
256
6
ByLayer
370
-2
48
1
60
0
100
AcDbLine
10
0
20
0
30
0
11
-1
21
0
31
0
39
0
210
0
220
0
230
1
0
ENDBLK
5
1E4
100
AcDbEntity
8
0
100
AcDbBlockEnd
0
BLOCK
5
1F5
100
AcDbEntity
8
0
100
AcDbBlockBegin
2
DimnDraft3D3
70
0
10
0
20
0
30
0
3
DimnDraft3D3
0
MTEXT
5
1EA
100
AcDbEntity
8
SK2
62
256
6
ByLayer
370
18
48
1
60
0
100
AcDbMText
10
-38.875
20
-1.563158
30
0
210
0
220
0
230
1
1
\W0.6740;50
40
4.5
41
0
44
1.084337
50
90
71
7
72
5
7
iso_b_vert
0
LINE
5
1EC
100
AcDbEntity
8
SK2
62
256
6
ByLayer
370
13
48
1
60
0
100
AcDbLine
10
-2
20
-25
30
0
11
-39.75
21
-25
31
0
39
0
210
0
220
0
230
1
0
LINE
5
1ED
100
AcDbEntity
8
SK2
62
256
6
ByLayer
370
13
48
1
60
0
100
AcDbLine
10
-2
20
25
30
0
11
-39.75
21
25
31
0
39
0
210
0
220
0
230
1
0
LINE
5
1EE
100
AcDbEntity
8
SK2
62
256
6
ByLayer
370
13
48
1
60
0
100
AcDbLine
10
-37.75
20
-25
30
0
11
-37.75
21
25
31
0
39
0
210
0
220
0
230
1
0
LINE
5
1EF
100
AcDbEntity
8
SK2
62
256
6
ByLayer
370
13
48
1
60
0
100
AcDbLine
10
-37.75
20
-25
30
0
11
-38.167997
21
-21.825002
31
0
39
0
210
0
220
0
230
1
0
LINE
5
1F0
100
AcDbEntity
8
SK2
62
256
6
ByLayer
370
13
48
1
60
0
100
AcDbLine
10
-37.75
20
-25
30
0
11
-37.332003
21
-21.824998
31
0
39
0
210
0
220
0
230
1
0
LINE
5
1F1
100
AcDbEntity
8
SK2
62
256
6
ByLayer
370
13
48
1
60
0
100
AcDbLine
10
-38.167997
20
-21.825002
30
0
11
-37.332003
21
-21.824998
31
0
39
0
210
0
220
0
230
1
0
LINE
5
1F2
100
AcDbEntity
8
SK2
62
256
6
ByLayer
370
13
48
1
60
0
100
AcDbLine
10
-37.75
20
25
30
0
11
-37.332003
21
21.825002
31
0
39
0
210
0
220
0
230
1
0
LINE
5
1F3
100
AcDbEntity
8
SK2
62
256
6
ByLayer
370
13
48
1
60
0
100
AcDbLine
10
-37.75
20
25
30
0
11
-38.167997
21
21.824998
31
0
39
0
210
0
220
0
230
1
0
LINE
5
1F4
100
AcDbEntity
8
SK2
62
256
6
ByLayer
370
13
48
1
60
0
100
AcDbLine
10
-37.332003
20
21.825002
30
0
11
-38.167997
21
21.824998
31
0
39
0
210
0
220
0
230
1
0
ENDBLK
5
1F6
100
AcDbEntity
8
0
100
AcDbBlockEnd
0
BLOCK
5
203
100
AcDbEntity
8
0
100
AcDbBlockBegin
2
DimnDraft3D4
70
0
10
0
20
0
30
0
3
DimnDraft3D4
0
MTEXT
5
1F9
100
AcDbEntity
8
2
62
256
6
ByLayer
370
18
48
1
60
0
100
AcDbMText
10
81.125
20
11.8617
30
0
210
0
220
0
230
1
1
\W0.7121;0.5
40
4.5
41
0
44
1.084337
50
90
71
7
72
5
7
iso_b_vert
0
LINE
5
1FA
100
AcDbEntity
8
2
62
256
6
ByLayer
370
13
48
1
60
0
100
AcDbLine
10
62
20
0
30
0
11
84.25
21
0
31
0
39
0
210
0
220
0
230
1
0
LINE
5
1FB
100
AcDbEntity
8
2
62
256
6
ByLayer
370
13
48
1
60
0
100
AcDbLine
10
62
20
0.4817
30
0
11
84.25
21
0.4817
31
0
39
0
210
0
220
0
230
1
0
LINE
5
1FC
100
AcDbEntity
8
2
62
256
6
ByLayer
370
13
48
1
60
0
100
AcDbLine
10
82.25
20
17.9367
30
0
11
82.25
21
-11.25
31
0
39
0
210
0
220
0
230
1
0
LINE
5
1FD
100
AcDbEntity
8
2
62
256
6
ByLayer
370
13
48
1
60
0
100
AcDbLine
10
82.25
20
0
30
0
11
82.667997
21
-3.174998
31
0
39
0
210
0
220
0
230
1
0
LINE
5
1FE
100
AcDbEntity
8
2
62
256
6
ByLayer
370
13
48
1
60
0
100
AcDbLine
10
82.25
20
0
30
0
11
81.832003
21
-3.175002
31
0
39
0
210
0
220
0
230
1
0
LINE
5
1FF
100
AcDbEntity
8
2
62
256
6
ByLayer
370
13
48
1
60
0
100
AcDbLine
10
82.667997
20
-3.174998
30
0
11
81.832003
21
-3.175002
31
0
39
0
210
0
220
0
230
1
0
LINE
5
200
100
AcDbEntity
8
2
62
256
6
ByLayer
370
13
48
1
60
0
100
AcDbLine
10
82.25
20
0.4817
30
0
11
81.832003
21
3.656698
31
0
39
0
210
0
220
0
230
1
0
LINE
5
201
100
AcDbEntity
8
2
62
256
6
ByLayer
370
13
48
1
60
0
100
AcDbLine
10
82.25
20
0.4817
30
0
11
82.667997
21
3.656702
31
0
39
0
210
0
220
0
230
1
0
LINE
5
202
100
AcDbEntity
8
2
62
256
6
ByLayer
370
13
48
1
60
0
100
AcDbLine
10
81.832003
20
3.656698
30
0
11
82.667997
21
3.656702
31
0
39
0
210
0
220
0
230
1
0
ENDBLK
5
204
100
AcDbEntity
8
0
100
AcDbBlockEnd
0
ENDSEC
0
SECTION
2
ENTITIES
0
ARC
5
F8
100
AcDbEntity
8
SK1
62
256
6
ByLayer
370
18
48
1
60
0
100
AcDbCircle
39
0
10
0.6
20
-18.75
30
0
40
1.00000000000001
210
0
220
0
230
-1
100
AcDbArc
50
113.578178
51
126.869898
0
ARC
5
F9
100
AcDbEntity
8
SK1
62
256
6
ByLayer
370
18
48
1
60
0
100
AcDbCircle
39
0
10
0.6
20
18.75
30
0
40
1.00000000000001
210
0
220
0
230
-1
100
AcDbArc
50
233.130102
51
246.421822
0
ELLIPSE
5
FA
100
AcDbEntity
8
1
62
256
6
ByLayer
370
18
48
1
60
0
100
AcDbEllipse
10
46.26539
20
5.355105
30
0
11
9.79685083057902E-17
21
1.6
31
0
210
0
220
0
230
1
40
0.984808
41
-0.479965544296824
42
-1.86886443500482E-07
0
ELLIPSE
5
FB
100
AcDbEntity
8
1
62
256
6
ByLayer
370
18
48
1
60
0
100
AcDbEllipse
10
46.26539
20
-5.355024
30
0
11
9.79685083057902E-17
21
1.6
31
0
210
0
220
0
230
1
40
0.984808
41
-3.14159246670012
42
-2.66162710928975
0
ELLIPSE
5
FC
100
AcDbEntity
8
1
62
256
6
ByLayer
370
18
48
1
60
0
100
AcDbEllipse
10
33.753598
20
3.8011
30
0
11
2.32675207226252E-17
21
0.38
31
0
210
0
220
0
230
1
40
0.984808
41
-2.76130041379004
42
-2.57060639621291
0
ELLIPSE
5
FD
100
AcDbEntity
8
1
62
256
6
ByLayer
370
18
48
1
60
0
100
AcDbEllipse
10
34.18206
20
3.123799
30
0
11
-7.80686550561765E-17
21
-0.425
31
0
210
0
220
0
230
1
40
0.984808
41
3.14159065697699
42
-2.57060639621296
0
ELLIPSE
5
FE
100
AcDbEntity
8
1
62
256
6
ByLayer
370
18
48
1
60
0
100
AcDbEllipse
10
34.432852
20
5.862494
30
0
11
2.32675207226252E-17
21
0.38
31
0
210
0
220
0
230
1
40
0.984808
41
-1.21675808061157
42
-0.380273966624705
0
ELLIPSE
5
FF
100
AcDbEntity
8
1
62
256
6
ByLayer
370
18
48
1
60
0
100
AcDbEllipse
10
34.925663
20
3.402883
30
0
11
2.32675207226252E-17
21
0.38
31
0
210
0
220
0
230
1
40
0.984808
41
-2.76130300633605
42
-1.5234088450164
0
ELLIPSE
5
100
100
AcDbEntity
8
1
62
256
6
ByLayer
370
18
48
1
60
0
100
AcDbEllipse
10
35.176455
20
6.141578
30
0
11
-7.80686550561765E-17
21
-0.425
31
0
210
0
220
0
230
1
40
0.984808
41
-1.21675808061156
42
-3.08050918389567E-06
0
ELLIPSE
5
101
100
AcDbEntity
8
1
62
256
6
ByLayer
370
18
48
1
60
0
100
AcDbEllipse
10
34.540339
20
4.632689
30
0
11
-7.34763812293426E-16
21
-4
31
0
210
0
220
0
230
1
40
0.984808
41
-3.1415054353455
42
-2.25469944319128E-16
0
ELLIPSE
5
102
100
AcDbEntity
8
1
62
256
6
ByLayer
370
18
48
1
60
0
100
AcDbEllipse
10
35.717543
20
3.441016
30
0
11
-7.80686550561765E-17
21
-0.425
31
0
210
0
220
0
230
1
40
0.984808
41
-3.1415699292329
42
-1.52340884501637
0
ELLIPSE
5
103
100
AcDbEntity
8
1
62
256
6
ByLayer
370
18
48
1
60
0
100
AcDbEllipse
10
35.604917
20
5.464277
30
0
11
2.32675207226252E-17
21
0.38
31
0
210
0
220
0
230
1
40
0.984808
41
-2.26395563180815
42
-0.380358348151658
0
ELLIPSE
5
104
100
AcDbEntity
8
1
62
256
6
ByLayer
370
18
48
1
60
0
100
AcDbEllipse
10
35.851322
20
4.234471
30
0
11
2.32675207226252E-17
21
0.38
31
0
210
0
220
0
230
1
40
0.984808
41
-2.89446096032372
42
-0.476211293819763
0
ELLIPSE
5
105
100
AcDbEntity
8
1
62
256
6
ByLayer
370
18
48
1
60
0
100
AcDbEllipse
10
34.679257
20
4.632689
30
0
11
-2.1124459603436E-16
21
-1.15
31
0
210
0
220
0
230
1
40
0.984808
41
-1.00532087102658
42
-0.322907939023674
0
ELLIPSE
5
106
100
AcDbEntity
8
1
62
256
6
ByLayer
370
18
48
1
60
0
100
AcDbEllipse
10
34.679257
20
4.632689
30
0
11
-2.1124459603436E-16
21
-1.15
31
0
210
0
220
0
230
1
40
0.984808
41
-2.3005402022213
42
-1.65926216958503
0
ELLIPSE
5
107
100
AcDbEntity
8
1
62
256
6
ByLayer
370
18
48
1
60
0
100
AcDbEllipse
10
34.679257
20
4.632689
30
0
11
-2.1124459603436E-16
21
-1.15
31
0
210
0
220
0
230
1
40
0.984808
41
0
42
-2.82420416317839
0
ELLIPSE
5
108
100
AcDbEntity
8
1
62
256
6
ByLayer
370
18
48
1
60
0
100
AcDbEllipse
10
34.592433
20
4.632689
30
0
11
-2.1124459603436E-16
21
-1.15
31
0
210
0
220
0
230
1
40
0.984808
41
0.0762704620299182
42
3.10329330634056
0
ELLIPSE
5
109
100
AcDbEntity
8
1
62
256
6
ByLayer
370
18
48
1
60
0
100
AcDbEllipse
10
10
20
-14.421031
30
0
11
-1.99999999999999
21
2.44921270764474E-16
31
0
210
0
220
0
230
1
40
0.75471
41
0.168271303406706
42
1.57079610092107
0
ELLIPSE
5
10A
100
AcDbEntity
8
1
62
256
6
ByLayer
370
18
48
1
60
0
100
AcDbEllipse
10
10
20
-14.421031
30
0
11
-1.99999999999999
21
2.44921270764474E-16
31
0
210
0
220
0
230
1
40
0.75471
41
1.57079610092107
42
2.97332075785602
0
ELLIPSE
5
10B
100
AcDbEntity
8
1
62
256
6
ByLayer
370
18
48
1
60
0
100
AcDbEllipse
10
25.425013
20
-8.839748
30
0
11
0.455756244333503
21
-2.15227466782263
31
0
210
0
220
0
230
1
40
0.213587
41
4.13232701225578E-05
42
3.14155169819627
0
ELLIPSE
5
10C
100
AcDbEntity
8
1
62
256
6
ByLayer
370
18
48
1
60
0
100
AcDbEllipse
10
25.663946
20
-8.789152
30
0
11
-0.403965762022884
21
1.90769800102462
31
0
210
0
220
0
230
1
40
0.213587
41
-2.92114039940171
42
-0.220417368366221
0
ELLIPSE
5
10D
100
AcDbEntity
8
1
62
256
6
ByLayer
370
18
48
1
60
0
100
AcDbEllipse
10
20.791677
20
0
30
0
11
1.53075794227763E-15
21
24.9999999999944
31
0
210
0
220
0
230
1
40
0.176327
41
-0.029294137775362
42
9.56118412596062E-06
0
ELLIPSE
5
10E
100
AcDbEntity
8
1
62
256
6
ByLayer
370
18
48
1
60
0
100
AcDbEllipse
10
10
20
-14.421031
30
0
11
-1.65
21
2.02060048380692E-16
31
0
210
0
220
0
230
1
40
0.75471
41
-0.918523121078673
42
0
0
ELLIPSE
5
10F
100
AcDbEntity
8
1
62
256
6
ByLayer
370
18
48
1
60
0
100
AcDbEllipse
10
10
20
-14.421031
30
0
11
-1.65
21
2.02060048380692E-16
31
0
210
0
220
0
230
1
40
0.75471
41
0
42
1.57079640208616
0
ELLIPSE
5
110
100
AcDbEntity
8
1
62
256
6
ByLayer
370
18
48
1
60
0
100
AcDbEllipse
10
10
20
-14.421031
30
0
11
-1.65
21
2.02060048380692E-16
31
0
210
0
220
0
230
1
40
0.75471
41
1.57079610092107
42
-2.22306969667175
0
ELLIPSE
5
111
100
AcDbEntity
8
1
62
256
6
ByLayer
370
18
48
1
60
0
100
AcDbEllipse
10
21.415098
20
-42.195412
30
0
11
-0.838207246783518
21
90.3127266628119
31
0
210
0
220
0
230
1
40
0.043307
41
1.23861762922559
42
1.24623073119012
0
ELLIPSE
5
112
100
AcDbEntity
8
1
62
256
6
ByLayer
370
18
48
1
60
0
100
AcDbEllipse
10
21.415098
20
-42.195412
30
0
11
-0.838207246783518
21
90.3127266628119
31
0
210
0
220
0
230
1
40
0.043307
41
1.18413045078686
42
1.1853549963769
0
ELLIPSE
5
113
100
AcDbEntity
8
1
62
256
6
ByLayer
370
18
48
1
60
0
100
AcDbEllipse
10
34.862895
20
-2.194251
30
0
11
-4.35154490004314E-16
21
-2.36894894780439
31
0
210
0
220
0
230
1
40
0.984808
41
-1.44037015596693
42
-1.09083078249664
0
ELLIPSE
5
114
100
AcDbEntity
8
1
62
256
6
ByLayer
370
18
48
1
60
0
100
AcDbEllipse
10
33.043602
20
-2.460355
30
0
11
-4.31353124059626E-16
21
-2.34825459197964
31
0
210
0
220
0
230
1
40
0.984808
41
0.425036931573757
42
0.479965544300042
0
ELLIPSE
5
115
100
AcDbEntity
8
1
62
256
6
ByLayer
370
18
48
1
60
0
100
AcDbEllipse
10
30.903604
20
11.77039
30
0
11
-0.0874371315969232
21
-2.99872552062007
31
0
210
0
220
0
230
1
40
0.981784
41
-0.294220949637216
42
-0.103433765127586
0
ELLIPSE
5
116
100
AcDbEntity
8
1
62
256
6
ByLayer
370
18
48
1
60
0
100
AcDbEllipse
10
33.291317
20
5.049413
30
0
11
-0.120954698709077
21
-4.1482369701911
31
0
210
0
220
0
230
1
40
0.981784
41
2.84737170395258
42
2.97833733328052
0
ELLIPSE
5
117
100
AcDbEntity
8
1
62
256
6
ByLayer
370
18
48
1
60
0
100
AcDbEllipse
10
35.199342
20
4.399038
30
0
11
0.120954698709087
21
4.1482369701911
31
0
210
0
220
0
230
1
40
0.981784
41
3.1042951208053
42
-0.294220949637214
0
ELLIPSE
5
118
100
AcDbEntity
8
1
62
256
6
ByLayer
370
18
48
1
60
0
100
AcDbEllipse
10
33.216858
20
5.074794
30
0
11
0.0757788473840061
21
2.59889545120406
31
0
210
0
220
0
230
1
40
0.981784
41
1.15768586032815
42
1.40209205360694
0
ELLIPSE
5
119
100
AcDbEntity
8
1
62
256
6
ByLayer
370
18
48
1
60
0
100
AcDbEllipse
10
47.368055
20
4.1E-05
30
0
11
-4.7392265892926E-16
21
-2.58
31
0
210
0
220
0
230
1
40
0.984808
41
-0.0896336490212151
42
-2.48700793926E-16
0
ELLIPSE
5
11A
100
AcDbEntity
8
1
62
256
6
ByLayer
370
18
48
1
60
0
100
AcDbEllipse
10
47.368055
20
4.1E-05
30
0
11
-4.7392265892926E-16
21
-2.58
31
0
210
0
220
0
230
1
40
0.984808
41
0
42
2.572080783756
0
ELLIPSE
5
11B
100
AcDbEntity
8
1
62
256
6
ByLayer
370
18
48
1
60
0
100
AcDbEllipse
10
46.124835
20
-5.158959
30
0
11
7.29253083701226E-17
21
1.191
31
0
210
0
220
0
230
1
40
0.984808
41
2.66162710929292
42
-3.14159265358823
0
ELLIPSE
5
11C
100
AcDbEntity
8
1
62
256
6
ByLayer
370
18
48
1
60
0
100
AcDbEllipse
10
48.611276
20
5.159041
30
0
11
7.29253083701226E-17
21
1.191
31
0
210
0
220
0
230
1
40
0.984808
41
-0.479965544296874
42
1.57431406965395E-12
0
ELLIPSE
5
11D
100
AcDbEntity
8
1
62
256
6
ByLayer
370
18
48
1
60
0
100
AcDbEllipse
10
59.217776
20
4.1E-05
30
0
11
4.86168722467484E-17
21
0.794
31
0
210
0
220
0
230
1
40
0.984808
41
-2.66162710928978
42
-0.479965544296869
0
ELLIPSE
5
11E
100
AcDbEntity
8
1
62
256
6
ByLayer
370
18
48
1
60
0
100
AcDbEllipse
10
48.611276
20
-5.158959
30
0
11
7.29253083701226E-17
21
1.191
31
0
210
0
220
0
230
1
40
0.984808
41
-3.14159265358823
42
-2.66162710928979
0
ELLIPSE
5
11F
100
AcDbEntity
8
1
62
256
6
ByLayer
370
18
48
1
60
0
100
AcDbEllipse
10
46.124835
20
5.159041
30
0
11
7.29253083701226E-17
21
1.191
31
0
210
0
220
0
230
1
40
0.984808
41
0
42
0.479965544300007
0
ELLIPSE
5
120
100
AcDbEntity
8
1
62
256
6
ByLayer
370
18
48
1
60
0
100
AcDbEllipse
10
30.131167
20
1.948956
30
0
11
-4.20092790419868
21
-1.73061023034887
31
0
210
0
220
0
230
1
40
0.496675
41
0.157125829236433
42
0.516741562592208
0
ELLIPSE
5
121
100
AcDbEntity
8
1
62
256
6
ByLayer
370
18
48
1
60
0
100
AcDbEllipse
10
30.686018
20
3.020597
30
0
11
5.22371557769875
21
-1.72127730575505
31
0
210
0
220
0
230
1
40
0.055099
41
1.95183693222475
42
2.39360467151122
0
ELLIPSE
5
122
100
AcDbEntity
8
1
62
256
6
ByLayer
370
18
48
1
60
0
100
AcDbEllipse
10
26.775696
20
2.402376
30
0
11
-0.66939173871913
21
2.92827033532951
31
0
210
0
220
0
230
1
40
0.989691
41
1.02315838605775
42
2.0748474491219
0
ELLIPSE
5
123
100
AcDbEntity
8
1
62
256
6
ByLayer
370
18
48
1
60
0
100
AcDbEllipse
10
29.537953
20
-0.835911
30
0
11
-3.40563304170812
21
0.842346813521644
31
0
210
0
220
0
230
1
40
0.425012
41
-0.65990616377809
42
0.0633119426206182
0
ELLIPSE
5
124
100
AcDbEntity
8
1
62
256
6
ByLayer
370
18
48
1
60
0
100
AcDbEllipse
10
47.985994
20
-0.034863
30
0
11
-0.479797139535509
21
2.17034109677093
31
0
210
0
220
0
230
1
40
0.750374
41
-2.05807031594903
42
-1.202858982473
0
ELLIPSE
5
125
100
AcDbEntity
8
1
62
256
6
ByLayer
370
18
48
1
60
0
100
AcDbEllipse
10
32.756033
20
9.914875
30
0
11
-2.82859171265488
21
3.05430993265748
31
0
210
0
220
0
230
1
40
0.43895
41
-0.681260415741242
42
-0.321644682385928
0
ELLIPSE
5
126
100
AcDbEntity
8
1
62
256
6
ByLayer
370
18
48
1
60
0
100
AcDbEllipse
10
32.310935
20
7.95188
30
0
11
5.22371557769875
21
-1.72127730575505
31
0
210
0
220
0
230
1
40
0.055099
41
1.95183693222475
42
2.39360467151122
0
ELLIPSE
5
127
100
AcDbEntity
8
1
62
256
6
ByLayer
370
18
48
1
60
0
100
AcDbEllipse
10
27.52877
20
2.491255
30
0
11
0.511501247168567
21
-1.93348557639952
31
0
210
0
220
0
230
1
40
0.747978
41
-2.05852772702365
42
-0.645852232764043
0
ELLIPSE
5
128
100
AcDbEntity
8
1
62
256
6
ByLayer
370
18
48
1
60
0
100
AcDbEllipse
10
47.985994
20
-0.034863
30
0
11
-1.2294288266023
21
-1.98690016584582
31
0
210
0
220
0
230
1
40
0.768306
41
0.836476084503953
42
1.69168741797964
0
ELLIPSE
5
129
100
AcDbEntity
8
1
62
256
6
ByLayer
370
18
48
1
60
0
100
AcDbEllipse
10
33.704402
20
11.808387
30
0
11
-3.24772553319843
21
1.32473365361457
31
0
210
0
220
0
230
1
40
0.315466
41
-0.0737990580063694
42
0.649419048393492
0
ELLIPSE
5
12A
100
AcDbEntity
8
1
62
256
6
ByLayer
370
18
48
1
60
0
100
AcDbEllipse
10
29.999916
20
0.93842
30
0
11
-5.29774373692234
21
1.49522362892358
31
0
210
0
220
0
230
1
40
0.291278
41
-0.640222459980412
42
-0.587230156565532
0
ELLIPSE
5
12B
100
AcDbEntity
8
1
62
256
6
ByLayer
370
18
48
1
60
0
100
AcDbEllipse
10
21.94434
20
1.228476
30
0
11
6.64836528070751
21
-2.19071657096097
31
0
210
0
220
0
230
1
40
0.055099
41
-0.84368834152059
42
-0.82890730478061
0
ELLIPSE
5
12C
100
AcDbEntity
8
1
62
256
6
ByLayer
370
18
48
1
60
0
100
AcDbEllipse
10
30.157715
20
10.469553
30
0
11
-1.40807995611108
21
-1.42032068111332
31
0
210
0
220
0
230
1
40
0.783271
41
-2.6446327019783
42
-1.2319572077187
0
ELLIPSE
5
12D
100
AcDbEntity
8
1
62
256
6
ByLayer
370
18
48
1
60
0
100
AcDbEllipse
10
32.997037
20
10.034056
30
0
11
-5.15313386906395
21
1.934994097387
31
0
210
0
220
0
230
1
40
0.181284
41
0.582051099946967
42
0.635043405239545
0
ELLIPSE
5
12E
100
AcDbEntity
8
1
62
256
6
ByLayer
370
18
48
1
60
0
100
AcDbEllipse
10
29.400563
20
10.368295
30
0
11
-0.669391738725042
21
2.92827033532835
31
0
210
0
220
0
230
1
40
0.989691
41
-0.0285306770085084
42
1.02315838605565
0
ELLIPSE
5
12F
100
AcDbEntity
8
1
62
256
6
ByLayer
370
18
48
1
60
0
100
AcDbEllipse
10
35.2035
20
3.402883
30
0
11
2.32675207226252E-17
21
0.38
31
0
210
0
220
0
230
1
40
0.984808
41
1.92483457297822
42
-1.52340884501638
0
ELLIPSE
5
130
100
AcDbEntity
8
1
62
256
6
ByLayer
370
18
48
1
60
0
100
AcDbEllipse
10
36.12916
20
4.234471
30
0
11
2.32675207226252E-17
21
0.38
31
0
210
0
220
0
230
1
40
0.984808
41
2.97203212417488
42
-0.476211293819737
0
ELLIPSE
5
131
100
AcDbEntity
8
1
62
256
6
ByLayer
370
18
48
1
60
0
100
AcDbEllipse
10
33.421611
20
4.315472
30
0
11
-7.80686550561765E-17
21
-0.425
31
0
210
0
220
0
230
1
40
0.984808
41
0.877637021781642
42
2.66538135977006
0
ELLIPSE
5
132
100
AcDbEntity
8
1
62
256
6
ByLayer
370
18
48
1
60
0
100
AcDbEllipse
10
34.957094
20
4.632689
30
0
11
1.40829730689573E-16
21
2.3
31
0
210
0
220
0
230
1
40
0.984808
41
0
42
6.28318530717959
0
ELLIPSE
5
133
100
AcDbEntity
8
1
62
256
6
ByLayer
370
18
48
1
60
0
100
AcDbEllipse
10
33.785029
20
5.030906
30
0
11
2.32675207226252E-17
21
0.38
31
0
210
0
220
0
230
1
40
0.984808
41
-0.169560529414911
42
2.66538135977002
0
ELLIPSE
5
134
100
AcDbEntity
8
1
62
256
6
ByLayer
370
18
48
1
60
0
100
AcDbEllipse
10
33.918809
20
5.824362
30
0
11
-7.80686550561765E-17
21
-0.425
31
0
210
0
220
0
230
1
40
0.984808
41
-0.169560529414913
42
1.61818380857342
0
ELLIPSE
5
135
100
AcDbEntity
8
1
62
256
6
ByLayer
370
18
48
1
60
0
100
AcDbEllipse
10
35.454292
20
6.141578
30
0
11
-7.80686550561765E-17
21
-0.425
31
0
210
0
220
0
230
1
40
0.984808
41
-1.21675808061157
42
0.570986257376842
0
ELLIPSE
5
136
100
AcDbEntity
8
1
62
256
6
ByLayer
370
18
48
1
60
0
100
AcDbEllipse
10
36.21474
20
4.949905
30
0
11
-7.80686550561765E-17
21
-0.425
31
0
210
0
220
0
230
1
40
0.984808
41
-2.26395563180815
42
-0.476211293819726
0
ELLIPSE
5
137
100
AcDbEntity
8
1
62
256
6
ByLayer
370
18
48
1
60
0
100
AcDbEllipse
10
35.99538
20
3.441016
30
0
11
-7.80686550561765E-17
21
-0.425
31
0
210
0
220
0
230
1
40
0.984808
41
2.97203212417488
42
-1.52340884501639
0
ELLIPSE
5
138
100
AcDbEntity
8
1
62
256
6
ByLayer
370
18
48
1
60
0
100
AcDbEllipse
10
36.492578
20
4.949905
30
0
11
-7.80686550561765E-17
21
-0.425
31
0
210
0
220
0
230
1
40
0.984808
41
-2.26395563180813
42
-0.476211293819751
0
ELLIPSE
5
139
100
AcDbEntity
8
1
62
256
6
ByLayer
370
18
48
1
60
0
100
AcDbEllipse
10
35.882754
20
5.464277
30
0
11
2.32675207226252E-17
21
0.38
31
0
210
0
220
0
230
1
40
0.984808
41
-2.26395563180814
42
0.57098625737685
0
ELLIPSE
5
13A
100
AcDbEntity
8
1
62
256
6
ByLayer
370
18
48
1
60
0
100
AcDbEllipse
10
34.829629
20
4.632689
30
0
11
2.44921270764475E-16
21
4
31
0
210
0
220
0
230
1
40
0.984808
41
0
42
6.28318530717959
0
ELLIPSE
5
13B
100
AcDbEntity
8
1
62
256
6
ByLayer
370
18
48
1
60
0
100
AcDbEllipse
10
34.459897
20
3.123799
30
0
11
-7.80686550561765E-17
21
-0.425
31
0
210
0
220
0
230
1
40
0.984808
41
1.92483457297823
42
-2.57060639621294
0
ELLIPSE
5
13C
100
AcDbEntity
8
1
62
256
6
ByLayer
370
18
48
1
60
0
100
AcDbEllipse
10
34.710689
20
5.862494
30
0
11
2.32675207226252E-17
21
0.38
31
0
210
0
220
0
230
1
40
0.984808
41
-1.21675808061157
42
1.61818380857341
0
ELLIPSE
5
13D
100
AcDbEntity
8
1
62
256
6
ByLayer
370
18
48
1
60
0
100
AcDbEllipse
10
34.031435
20
3.8011
30
0
11
2.32675207226252E-17
21
0.38
31
0
210
0
220
0
230
1
40
0.984808
41
0.877637021781648
42
-2.57060639621291
0
ELLIPSE
5
13E
100
AcDbEntity
8
1
62
256
6
ByLayer
370
18
48
1
60
0
100
AcDbEllipse
10
18.187217
20
0
30
0
11
1.53075794227798E-15
21
25.0000000000001
31
0
210
0
220
0
230
1
40
0.087489
41
0.353363115402329
42
2.78822953818746
0
ELLIPSE
5
13F
100
AcDbEntity
8
1
62
256
6
ByLayer
370
18
48
1
60
0
100
AcDbEllipse
10
10
20
-14.658522
30
0
11
-1.99999999999996
21
2.02127811016469E-15
31
0
210
0
220
0
230
1
40
0.708833
41
0.751504621492298
42
2.39008803209751
0
ELLIPSE
5
140
100
AcDbEntity
8
1
62
256
6
ByLayer
370
18
48
1
60
0
100
AcDbEllipse
10
34.999315
20
-2.460355
30
0
11
-4.35154490004314E-16
21
-2.36894894780439
31
0
210
0
220
0
230
1
40
0.984808
41
-1.09083078249664
42
0.479965544299462
0
ELLIPSE
5
141
100
AcDbEntity
8
1
62
256
6
ByLayer
370
18
48
1
60
0
100
AcDbEllipse
10
17.259094
20
-10.395759
30
0
11
-0.0157476834552029
21
10.2225085312444
31
0
210
0
220
0
230
1
40
0.017992
41
2.84093671195556
42
-2.03922747877961
0
ELLIPSE
5
142
100
AcDbEntity
8
1
62
256
6
ByLayer
370
18
48
1
60
0
100
AcDbEllipse
10
32.030664
20
-25.982442
30
0
11
-10.3573514412346
21
1.26836783837072E-15
31
0
210
0
220
0
230
1
40
0.984808
41
-1.09083078249488
42
-0.123633893273284
0
ELLIPSE
5
143
100
AcDbEntity
8
1
62
256
6
ByLayer
370
18
48
1
60
0
100
AcDbEllipse
10
21.056258
20
0
30
0
11
-11.7092723497278
21
-24.6771864409381
31
0
210
0
220
0
230
1
40
0.341999
41
-1.08183270048926
42
-0.167213071908978
0
ELLIPSE
5
144
100
AcDbEntity
8
1
62
256
6
ByLayer
370
18
48
1
60
0
100
AcDbEllipse
10
10
20
-12.665093
30
0
11
-1.86732139084921
21
2.63482006209687
31
0
210
0
220
0
230
1
40
0.271866
41
-3.10180352726313
42
-2.44879159421084
0
ELLIPSE
5
145
100
AcDbEntity
8
1
62
256
6
ByLayer
370
18
48
1
60
0
100
AcDbEllipse
10
25.809667
20
-0.000365
30
0
11
-5.77329291970314E-05
21
32.5625220107429
31
0
210
0
220
0
230
1
40
0.234177
41
0.688988177233186
42
0.695964206730582
0
ELLIPSE
5
146
100
AcDbEntity
8
1
62
256
6
ByLayer
370
18
48
1
60
0
100
AcDbEllipse
10
-1.056258
20
0
30
0
11
-11.709272349727
21
-24.677186440937
31
0
210
0
220
0
230
1
40
0.341999
41
2.0597599531005
42
2.97437958168081
0
ELLIPSE
5
147
100
AcDbEntity
8
1
62
256
6
ByLayer
370
18
48
1
60
0
100
AcDbEllipse
10
-1.056258
20
0
30
0
11
-11.7092723497277
21
24.677186440938
31
0
210
0
220
0
230
1
40
0.341999
41
-2.97437958168082
42
-2.05975995310053
0
ELLIPSE
5
148
100
AcDbEntity
8
1
62
256
6
ByLayer
370
18
48
1
60
0
100
AcDbEllipse
10
17.002685
20
-6.091837
30
0
11
-0.0157476834554329
21
10.2225085312272
31
0
210
0
220
0
230
1
40
0.017992
41
1.78944847475531
42
2.84093671195555
0
ELLIPSE
5
149
100
AcDbEntity
8
1
62
256
6
ByLayer
370
18
48
1
60
0
100
AcDbEllipse
10
10
20
-14.658522
30
0
11
-2
21
2.02127811016473E-15
31
0
210
0
220
0
230
1
40
0.708833
41
-2.39008803209748
42
-0.751504621492318
0
ELLIPSE
5
14A
100
AcDbEntity
8
1
62
256
6
ByLayer
370
18
48
1
60
0
100
AcDbEllipse
10
21.056258
20
0
30
0
11
-11.7092723497275
21
24.6771864409378
31
0
210
0
220
0
230
1
40
0.341999
41
0.167213071908977
42
1.08183270048926
0
ELLIPSE
5
14B
100
AcDbEntity
8
1
62
256
6
ByLayer
370
18
48
1
60
0
100
AcDbEllipse
10
21.415098
20
15.519383
30
0
11
-3.27299716083359
21
-17.3678965648112
31
0
210
0
220
0
230
1
40
0.132397
41
0.676679858136725
42
0.958358949206495
0
ELLIPSE
5
14C
100
AcDbEntity
8
1
62
256
6
ByLayer
370
18
48
1
60
0
100
AcDbEllipse
10
10
20
-12.665093
30
0
11
-1.86732139085573
21
-2.63482006210443
31
0
210
0
220
0
230
1
40
0.271866
41
-0.692801059377754
42
-0.0397891263265755
0
POINT
5
6C
100
AcDbEntity
8
2
62
256
6
ByLayer
370
18
48
1
60
0
100
AcDbPoint
10
60
20
0.4817
30
0
39
0
210
0
220
0
230
1
50
360
0
POINT
5
6E
100
AcDbEntity
8
80
62
256
6
ByLayer
370
18
48
1
60
0
100
AcDbPoint
10
0
20
0
30
0
39
0
210
0
220
0
230
1
50
360
0
POINT
5
70
100
AcDbEntity
8
81
62
256
6
ByLayer
370
18
48
1
60
0
100
AcDbPoint
10
60
20
0.4817
30
0
39
0
210
0
220
0
230
1
50
360
0
SPLINE
5
14D
100
AcDbEntity
8
SK1
62
256
6
ByLayer
370
18
48
1
60
0
100
AcDbSpline
70
4
71
3
72
13
73
9
40
0
40
0
40
0
40
0
40
0.239456135733551
40
0.368359721896995
40
0.499998983985648
40
0.631638415256368
40
0.760542467762615
40
1
40
1
40
1
40
1
41
1
10
-2.19999999999999
20
-17.520098551796
30
0
41
1
10
-2.19909198642199
20
-17.4940410756898
30
0
41
1
10
-2.19103284106862
20
-17.4566684913667
30
0
41
1
10
-2.16563592203255
20
-17.4104493175479
30
0
41
1
10
-2.13886378679174
20
-17.3791677636994
30
0
41
1
10
-2.106277127498
20
-17.3540003935063
30
0
41
1
10
-2.05884064234166
20
-17.3309565910454
30
0
41
1
10
-2.02111030873061
20
-17.3247843360228
30
0
41
1
10
-1.99503997793928
20
-17.3251859759625
30
0
0
SPLINE
5
14E
100
AcDbEntity
8
SK1
62
256
6
ByLayer
370
18
48
1
60
0
100
AcDbSpline
70
4
71
3
72
13
73
9
40
0
40
0
40
0
40
0
40
0.2394575322828
40
0.368361584804615
40
0.500001016081333
40
0.631640278164845
40
0.760543864313148
40
1
40
1
40
1
40
1
41
1
10
-1.99503997793928
20
17.3251861589552
30
0
41
1
10
-2.02111030872965
20
17.324784519015
30
0
41
1
10
-2.05884064233982
20
17.3309567740351
30
0
41
1
10
-2.10627712749664
20
17.3540005764861
30
0
41
1
10
-2.13886378679047
20
17.3791679466684
30
0
41
1
10
-2.16563592203158
20
17.4104495005037
30
0
41
1
10
-2.19103284106788
20
17.4566686743027
30
0
41
1
10
-2.19909198642125
20
17.4940412586114
30
0
41
1
10
-2.19999999999999
20
17.5200987347078
30
0
0
SPLINE
5
14F
100
AcDbEntity
8
SK1
62
256
6
ByLayer
370
18
48
1
60
0
100
AcDbSpline
70
4
71
2
72
6
73
3
40
0
40
0
40
0
40
1
40
1
40
1
41
1
10
-28.5
20
-16.8542724489282
30
0
41
1
10
-15.3499999999286
20
-17.1845422635703
30
0
41
1
10
-2.19999999999999
20
-17.5148116792767
30
0
0
SPLINE
5
150
100
AcDbEntity
8
SK1
62
256
6
ByLayer
370
18
48
1
60
0
100
AcDbSpline
70
4
71
2
72
6
73
3
40
0
40
0
40
0
40
1
40
1
40
1
41
1
10
-2.19999999999999
20
17.5148117187522
30
0
41
1
10
-15.3499999999294
20
17.1845422725478
30
0
41
1
10
-28.5
20
16.854272429841
30
0
0
SPLINE
5
151
100
AcDbEntity
8
SK1
62
256
6
ByLayer
370
18
48
1
60
0
100
AcDbSpline
70
4
71
2
72
6
73
3
40
0
40
0
40
0
40
1
40
1
40
1
41
1
10
-1.99503997793928
20
-17.3199593099743
30
0
41
1
10
-1.19500843340703
20
-17.340052552406
30
0
41
1
10
-0.394976888875277
20
-17.3601457933935
30
0
0
SPLINE
5
152
100
AcDbEntity
8
SK1
62
256
6
ByLayer
370
18
48
1
60
0
100
AcDbSpline
70
4
71
2
72
6
73
3
40
0
40
0
40
0
40
1
40
1
40
1
41
1
10
-0.394976888875277
20
17.3601458189993
30
0
41
1
10
-1.19500843340703
20
17.3400525762132
30
0
41
1
10
-1.99503997793928
20
17.3199593319919
30
0
0
SPLINE
5
153
100
AcDbEntity
8
SK1
62
256
6
ByLayer
370
18
48
1
60
0
100
AcDbSpline
70
4
71
2
72
6
73
3
40
0
40
0
40
0
40
1
40
1
40
1
41
1
10
-30
20
-15.9924794145163
30
0
41
1
10
-29.2499999991495
20
-16.4254650261933
30
0
41
1
10
-28.5
20
-16.8584504491481
30
0
0
SPLINE
5
154
100
AcDbEntity
8
SK1
62
256
6
ByLayer
370
18
48
1
60
0
100
AcDbSpline
70
4
71
2
72
6
73
3
40
0
40
0
40
0
40
1
40
1
40
1
41
1
10
-28.5
20
16.8584505716142
30
0
41
1
10
-29.2499999991495
20
16.4254651505507
30
0
41
1
10
-30
20
15.99247954079
30
0
0
SPLINE
5
155
100
AcDbEntity
8
SK1
62
256
6
ByLayer
370
18
48
1
60
0
100
AcDbSpline
70
4
71
2
72
6
73
3
40
0
40
0
40
0
40
1
40
1
40
1
41
1
10
-0.394976888875277
20
-17.359696795897
30
0
41
1
10
-0.305277226309727
20
-17.3671842624703
30
0
41
1
10
-0.258658740615658
20
-17.4310145299902
30
0
0
SPLINE
5
156
100
AcDbEntity
8
SK1
62
256
6
ByLayer
370
18
48
1
60
0
100
AcDbSpline
70
4
71
2
72
6
73
3
40
0
40
0
40
0
40
1
40
1
40
1
41
1
10
-0.258442643302431
20
17.4312381196178
30
0
41
1
10
-0.305123774552612
20
17.3672404580573
30
0
41
1
10
-0.394976888875277
20
17.3596982935394
30
0
0
SPLINE
5
157
100
AcDbEntity
8
1
62
256
6
ByLayer
370
18
48
1
60
0
100
AcDbSpline
70
4
71
3
72
8
73
4
40
0
40
0
40
0
40
0
40
1
40
1
40
1
40
1
41
1
10
20.8393969836743
20
-25.0000856847484
30
0
41
1
10
20.866478383064
20
-25.0000340656689
30
0
41
1
10
20.8936217725157
20
-24.9986136611403
30
0
41
1
10
20.92079238
20
-24.9958260310702
30
0
0
SPLINE
5
158
100
AcDbEntity
8
SK1
62
256
6
ByLayer
370
18
48
1
60
0
100
AcDbSpline
70
4
71
3
72
282
73
278
40
0
40
0
40
0
40
0
40
0.0031455728111652
40
0.006720064474316
40
0.0102945561374668
40
0.0138690478006176
40
0.0174435394637684
40
0.0210180311269192
40
0.02459252279007
40
0.0281670144532208
40
0.0317415061163716
40
0.0353159977795224
40
0.042464981105824
40
0.0460394727689748
40
0.0496139644321256
40
0.0531884560952764
40
0.0567629477584272
40
0.0639119310847288
40
0.0674864227478796
40
0.0710609144110304
40
0.078209897737332
40
0.0817843894004828
40
0.0853588810636336
40
0.0925078643899352
40
0.096082356053086
40
0.0996568477162368
40
0.103231339379388
40
0.106805831042538
40
0.110380322705689
40
0.11395481436884
40
0.117529306031991
40
0.121103797695142
40
0.128252781021443
40
0.131827272684594
40
0.135401764347745
40
0.138976256010896
40
0.142550747674046
40
0.149699731000348
40
0.153274222663499
40
0.15684871432665
40
0.1604232059898
40
0.163997697652951
40
0.171146680979253
40
0.174721172642404
40
0.178295664305554
40
0.181870155968705
40
0.185444647631856
40
0.192593630958158
40
0.196168122621308
40
0.199742614284459
40
0.20331710594761
40
0.206891597610761
40
0.214040580937062
40
0.217615072600213
40
0.221189564263364
40
0.224764055926515
40
0.228338547589666
40
0.235487530915967
40
0.239062022579118
40
0.242636514242269
40
0.24621100590542
40
0.24978549756857
40
0.256934480894872
40
0.260508972558023
40
0.264083464221174
40
0.271232447547475
40
0.278381430873777
40
0.281955922536928
40
0.285530414200078
40
0.29267939752638
40
0.296253889189531
40
0.299828380852682
40
0.303402872515832
40
0.306977364178983
40
0.310551855842134
40
0.314126347505285
40
0.321275330831586
40
0.328424314157888
40
0.331998805821039
40
0.33557329748419
40
0.33914778914734
40
0.342722280810491
40
0.346296772473642
40
0.349871264136793
40
0.357020247463094
40
0.364169230789396
40
0.371318214115698
40
0.374892705778848
40
0.378467197441999
40
0.38204168910515
40
0.385616180768301
40
0.389190672431452
40
0.392765164094602
40
0.396339655757753
40
0.399914147420904
40
0.403488639084055
40
0.407063130747206
40
0.410637622410356
40
0.414212114073507
40
0.417786605736658
40
0.421361097399809
40
0.42493558906296
40
0.42851008072611
40
0.432084572389261
40
0.433871818220837
40
0.435659064052412
40
0.437446309883987
40
0.439233555715563
40
0.442808047378714
40
0.446382539041864
40
0.44816978487344
40
0.449957030705015
40
0.45174427653659
40
0.453531522368166
40
0.455318768199741
40
0.457106014031317
40
0.460680505694468
40
0.462467751526043
40
0.464254997357618
40
0.466042243189194
40
0.467829489020769
40
0.469616734852345
40
0.47140398068392
40
0.473191226515495
40
0.474978472347071
40
0.476765718178646
40
0.478552964010222
40
0.480340209841797
40
0.482127455673372
40
0.483914701504948
40
0.485701947336523
40
0.487489193168099
40
0.489276438999674
40
0.491063684831249
40
0.492850930662825
40
0.4946381764944
40
0.496425422325976
40
0.498212668157551
40
0.499999913989126
40
0.501787159820702
40
0.503574405652277
40
0.505361651483853
40
0.507148897315428
40
0.508936143147003
40
0.510723388978579
40
0.512510634810154
40
0.51429788064173
40
0.516085126473305
40
0.51787237230488
40
0.519659618136456
40
0.521446863968031
40
0.523234109799607
40
0.525021355631182
40
0.526808601462757
40
0.528595847294333
40
0.530383093125908
40
0.532170338957484
40
0.533957584789059
40
0.535744830620634
40
0.53753207645221
40
0.539319322283785
40
0.541106568115361
40
0.542893813946936
40
0.544681059778511
40
0.546468305610087
40
0.550042797273238
40
0.551830043104813
40
0.553617288936388
40
0.557191780599539
40
0.56076627226269
40
0.562553518094265
40
0.564340763925841
40
0.566128009757416
40
0.567915255588992
40
0.571489747252142
40
0.575064238915293
40
0.578638730578444
40
0.582213222241595
40
0.585787713904746
40
0.589362205567896
40
0.592936697231047
40
0.596511188894198
40
0.600085680557349
40
0.6036601722205
40
0.60723466388365
40
0.610809155546801
40
0.614383647209952
40
0.617958138873103
40
0.621532630536254
40
0.625107122199404
40
0.628681613862555
40
0.635830597188857
40
0.642979580515158
40
0.65012856384146
40
0.653703055504611
40
0.657277547167762
40
0.660852038830912
40
0.664426530494063
40
0.668001022157214
40
0.671575513820365
40
0.678724497146666
40
0.685873480472968
40
0.689447972136119
40
0.69302246379927
40
0.69659695546242
40
0.700171447125571
40
0.703745938788722
40
0.707320430451873
40
0.714469413778174
40
0.718043905441325
40
0.721618397104476
40
0.728767380430778
40
0.735916363757079
40
0.73949085542023
40
0.743065347083381
40
0.750214330409682
40
0.753788822072833
40
0.757363313735984
40
0.760937805399135
40
0.764512297062286
40
0.771661280388587
40
0.775235772051738
40
0.778810263714889
40
0.78238475537804
40
0.78595924704119
40
0.793108230367492
40
0.796682722030643
40
0.800257213693794
40
0.803831705356944
40
0.807406197020095
40
0.814555180346397
40
0.818129672009548
40
0.821704163672698
40
0.825278655335849
40
0.828853146999
40
0.836002130325302
40
0.839576621988452
40
0.843151113651603
40
0.844938359483179
40
0.846725605314754
40
0.850300096977905
40
0.857449080304207
40
0.861023571967357
40
0.864598063630508
40
0.868172555293659
40
0.87174704695681
40
0.878896030283111
40
0.882470521946262
40
0.886045013609413
40
0.889619505272564
40
0.893193996935714
40
0.896768488598865
40
0.900342980262016
40
0.903917471925167
40
0.907491963588318
40
0.914640946914619
40
0.91821543857777
40
0.921789930240921
40
0.928938913567222
40
0.932513405230373
40
0.936087896893524
40
0.943236880219826
40
0.946811371882976
40
0.950385863546127
40
0.953960355209278
40
0.957534846872429
40
0.96468383019873
40
0.968258321861881
40
0.971832813525032
40
0.975407305188183
40
0.978981796851334
40
0.982556288514484
40
0.986130780177635
40
0.989705271840786
40
0.993279763503937
40
0.996854255167088
40
1
40
1
40
1
40
1
41
1
10
-2.19999999999996
20
17.5147448808405
30
0
41
1
10
-2.19999999999996
20
17.513205014892
30
0
41
1
10
-2.20000000000002
20
17.5092143176412
30
0
41
1
10
-2.19999999999999
20
17.5008423359265
30
0
41
1
10
-2.19999999999999
20
17.4896606050755
30
0
41
1
10
-2.19999999999999
20
17.4760589345483
30
0
41
1
10
-2.19999999999999
20
17.4600756660116
30
0
41
1
10
-2.19999999999999
20
17.4417480829298
30
0
41
1
10
-2.19999999999999
20
17.4211116708093
30
0
41
1
10
-2.19999999999999
20
17.3981999720817
30
0
41
1
10
-2.19999999999999
20
17.373046254225
30
0
41
1
10
-2.19999999999999
20
17.3365615480365
30
0
41
1
10
-2.19999999999999
20
17.2957083393221
30
0
41
1
10
-2.19999999999999
20
17.2506132986913
30
0
41
1
10
-2.19999999999999
20
17.2146924230801
30
0
41
1
10
-2.19999999999999
20
17.1766986759847
30
0
41
1
10
-2.19999999999999
20
17.1233138560685
30
0
41
1
10
-2.19999999999999
20
17.0658713749173
30
0
41
1
10
-2.19999999999999
20
17.0044820563696
30
0
41
1
10
-2.19999999999999
20
16.9404819965209
30
0
41
1
10
-2.19999999999999
20
16.8725984751516
30
0
41
1
10
-2.19999999999999
20
16.8009296734765
30
0
41
1
10
-2.19999999999999
20
16.72675615712
30
0
41
1
10
-2.19999999999999
20
16.6488472996884
30
0
41
1
10
-2.19999999999999
20
16.5672977573629
30
0
41
1
10
-2.19999999999999
20
16.5043209819811
30
0
41
1
10
-2.19999999999999
20
16.4395493732765
30
0
41
1
10
-2.19999999999999
20
16.3729983406747
30
0
41
1
10
-2.19999999999999
20
16.3046816133433
30
0
41
1
10
-2.19999999999999
20
16.2346146587631
30
0
41
1
10
-2.19999999999999
20
16.1628111167189
30
0
41
1
10
-2.19999999999999
20
16.0647793469533
30
0
41
1
10
-2.19999999999999
20
15.9633134995801
30
0
41
1
10
-2.19999999999999
20
15.8584913887799
30
0
41
1
10
-2.19999999999999
20
15.7781982427732
30
0
41
1
10
-2.19999999999999
20
15.6962433497342
30
0
41
1
10
-2.19999999999999
20
15.5847743861311
30
0
41
1
10
-2.19999999999999
20
15.4700110710185
30
0
41
1
10
-2.19999999999999
20
15.3520264687641
30
0
41
1
10
-2.19999999999999
20
15.2619258251736
30
0
41
1
10
-2.19999999999999
20
15.1702262286607
30
0
41
1
10
-2.19999999999999
20
15.0458463802595
30
0
41
1
10
-2.19999999999999
20
14.9182892137509
30
0
41
1
10
-2.19999999999999
20
14.7876243835494
30
0
41
1
10
-2.19999999999999
20
14.6880675684927
30
0
41
1
10
-2.19999999999999
20
14.5869647024964
30
0
41
1
10
-2.19999999999999
20
14.4501162009323
30
0
41
1
10
-2.19999999999999
20
14.310188578504
30
0
41
1
10
-2.19999999999999
20
14.1672492498436
30
0
41
1
10
-2.19999999999999
20
14.0585319196999
30
0
41
1
10
-2.19999999999999
20
13.9483131149779
30
0
41
1
10
-2.19999999999999
20
13.7993681823229
30
0
41
1
10
-2.19999999999999
20
13.6474264445925
30
0
41
1
10
-2.19999999999999
20
13.4925540283558
30
0
41
1
10
-2.19999999999999
20
13.3749248852381
30
0
41
1
10
-2.19999999999999
20
13.2558316845062
30
0
41
1
10
-2.19999999999999
20
13.0951031858018
30
0
41
1
10
-2.19999999999999
20
12.9314463879873
30
0
41
1
10
-2.19999999999999
20
12.7649271524075
30
0
41
1
10
-2.19999999999999
20
12.6385945304865
30
0
41
1
10
-2.19999999999999
20
12.510828990928
30
0
41
1
10
-2.19999999999999
20
12.3385783725546
30
0
41
1
10
-2.19999999999999
20
12.1634558634281
30
0
41
1
10
-2.19999999999999
20
11.9855279960913
30
0
41
1
10
-2.19999999999999
20
11.8057193844339
30
0
41
1
10
-2.19999999999999
20
11.5774197426994
30
0
41
1
10
-2.19999999999999
20
11.3444552561941
30
0
41
1
10
-2.19999999999999
20
11.1553144466797
30
0
41
1
10
-2.19999999999999
20
10.96432157968
30
0
41
1
10
-2.19999999999999
20
10.7705258372791
30
0
41
1
10
-2.19999999999999
20
10.5740001677826
30
0
41
1
10
-2.19999999999999
20
10.4252200954492
30
0
41
1
10
-2.19999999999999
20
10.2750653600417
30
0
41
1
10
-2.19999999999999
20
10.1235384488298
30
0
41
1
10
-2.19999999999999
20
9.97064122920807
30
0
41
1
10
-2.19999999999999
20
9.76496631801302
30
0
41
1
10
-2.19999999999999
20
9.50443392738597
30
0
41
1
10
-2.19999999999999
20
9.23936570098886
30
0
41
1
10
-2.19999999999999
20
9.02461799380217
30
0
41
1
10
-2.19999999999999
20
8.86219304475887
30
0
41
1
10
-2.19999999999999
20
8.69841428000512
30
0
41
1
10
-2.19999999999999
20
8.53328405958746
30
0
41
1
10
-2.19999999999999
20
8.36680339868337
30
0
41
1
10
-2.19999999999999
20
8.14304412571011
30
0
41
1
10
-2.19999999999999
20
7.85994707617317
30
0
41
1
10
-2.19999999999999
20
7.51487111531026
30
0
41
1
10
-2.19999999999999
20
7.22282329277962
30
0
41
1
10
-2.19999999999999
20
6.98653548716825
30
0
41
1
10
-2.19999999999999
20
6.80797157864473
30
0
41
1
10
-2.19999999999999
20
6.62807270531451
30
0
41
1
10
-2.19999999999999
20
6.44684086969582
30
0
41
1
10
-2.19999999999999
20
6.26427776637016
30
0
41
1
10
-2.19999999999999
20
6.0803858592752
30
0
41
1
10
-2.19999999999999
20
5.89516728223867
30
0
41
1
10
-2.19999999999999
20
5.70862469092603
30
0
41
1
10
-2.19999999999999
20
5.52076103085633
30
0
41
1
10
-2.19999999999999
20
5.33157993388585
30
0
41
1
10
-2.19999999999999
20
5.14108511996025
30
0
41
1
10
-2.19999999999999
20
4.94928086714648
30
0
41
1
10
-2.19999999999999
20
4.75617251627347
30
0
41
1
10
-2.19999999999999
20
4.56176620564526
30
0
41
1
10
-2.19999999999999
20
4.36606873641344
30
0
41
1
10
-2.19999999999999
20
4.16908849962459
30
0
41
1
10
-2.19999999999999
20
4.00386590607064
30
0
41
1
10
-2.19999999999999
20
3.87107810854147
30
0
41
1
10
-2.19999999999999
20
3.77116418570387
30
0
41
1
10
-2.19999999999999
20
3.67093805129474
30
0
41
1
10
-2.19999999999999
20
3.5369018254882
30
0
41
1
10
-2.19999999999999
20
3.36855658184018
30
0
41
1
10
-2.19999999999999
20
3.19919951970698
30
0
41
1
10
-2.19999999999999
20
3.06314133422208
30
0
41
1
10
-2.19999999999999
20
2.96079189341756
30
0
41
1
10
-2.19999999999999
20
2.85815023786418
30
0
41
1
10
-2.19999999999999
20
2.75522026664268
30
0
41
1
10
-2.19999999999999
20
2.65200561172494
30
0
41
1
10
-2.19999999999999
20
2.51402705629772
30
0
41
1
10
-2.19999999999999
20
2.375450816946
30
0
41
1
10
-2.19999999999999
20
2.23639085040648
30
0
41
1
10
-2.19999999999999
20
2.13182395998015
30
0
41
1
10
-2.19999999999999
20
2.02700348752293
30
0
41
1
10
-2.19999999999999
20
1.92193653735015
30
0
41
1
10
-2.19999999999999
20
1.81663008016324
30
0
41
1
10
-2.19999999999999
20
1.71109231328518
30
0
41
1
10
-2.19999999999999
20
1.60533155404698
30
0
41
1
10
-2.19999999999999
20
1.49935698477981
30
0
41
1
10
-2.19999999999999
20
1.39317847233161
30
0
41
1
10
-2.19999999999999
20
1.28680633401083
30
0
41
1
10
-2.19999999999999
20
1.18025197439016
30
0
41
1
10
-2.19999999999999
20
1.073527020087
30
0
41
1
10
-2.19999999999999
20
0.96664434311532
30
0
41
1
10
-2.19999999999999
20
0.859616995486334
30
0
41
1
10
-2.19999999999999
20
0.752459219961509
30
0
41
1
10
-2.19999999999999
20
0.645185453734172
30
0
41
1
10
-2.19999999999999
20
0.537811163545626
30
0
41
1
10
-2.19999999999999
20
0.430352024765995
30
0
41
1
10
-2.19999999999999
20
0.322824496958617
30
0
41
1
10
-2.19999999999999
20
0.215245213108545
30
0
41
1
10
-2.19999999999999
20
0.107631302158183
30
0
41
1
10
-2.19999999999999
20
-5.9909553E-09
30
0
41
1
10
-2.19999999999999
20
-0.107631313716837
30
0
41
1
10
-2.19999999999999
20
-0.21524522393176
30
0
41
1
10
-2.19999999999999
20
-0.322824507999513
30
0
41
1
10
-2.19999999999999
20
-0.430352036900842
30
0
41
1
10
-2.19999999999999
20
-0.537811175438549
30
0
41
1
10
-2.19999999999999
20
-0.645185463980482
30
0
41
1
10
-2.19999999999999
20
-0.752459230354134
30
0
41
1
10
-2.19999999999999
20
-0.859617007920519
30
0
41
1
10
-2.19999999999999
20
-0.966644355262389
30
0
41
1
10
-2.19999999999999
20
-1.07352702949097
30
0
41
1
10
-2.19999999999999
20
-1.18025198377217
30
0
41
1
10
-2.19999999999999
20
-1.2868063464968
30
0
41
1
10
-2.19999999999999
20
-1.39317848503856
30
0
41
1
10
-2.19999999999999
20
-1.49935699380708
30
0
41
1
10
-2.19999999999999
20
-1.60533156181745
30
0
41
1
10
-2.19999999999999
20
-1.71109232444707
30
0
41
1
10
-2.19999999999999
20
-1.81663009373557
30
0
41
1
10
-2.19999999999999
20
-1.92193654804359
30
0
41
1
10
-2.19999999999999
20
-2.02700349385552
30
0
41
1
10
-2.19999999999999
20
-2.13182396747069
30
0
41
1
10
-2.19999999999999
20
-2.23639086291988
30
0
41
1
10
-2.19999999999999
20
-2.34069812940876
30
0
41
1
10
-2.19999999999999
20
-2.44473977839391
30
0
41
1
10
-2.19999999999999
20
-2.54851063247165
30
0
41
1
10
-2.19999999999999
20
-2.65200559968281
30
0
41
1
10
-2.19999999999999
20
-2.78960994504098
30
0
41
1
10
-2.19999999999999
20
-2.92668912429065
30
0
41
1
10
-2.19999999999999
20
-3.06314133551615
30
0
41
1
10
-2.19999999999999
20
-3.19919952332836
30
0
41
1
10
-2.19999999999999
20
-3.36855659963138
30
0
41
1
10
-2.19999999999999
20
-3.53690183437428
30
0
41
1
10
-2.19999999999999
20
-3.67093805397229
30
0
41
1
10
-2.19999999999999
20
-3.77116418775421
30
0
41
1
10
-2.19999999999999
20
-3.87107811616198
30
0
41
1
10
-2.19999999999999
20
-4.00386592221614
30
0
41
1
10
-2.19999999999999
20
-4.169088511784
30
0
41
1
10
-2.19999999999999
20
-4.36606871643775
30
0
41
1
10
-2.19999999999999
20
-4.56176617271484
30
0
41
1
10
-2.19999999999999
20
-4.75617249379653
30
0
41
1
10
-2.19999999999999
20
-4.94928076863457
30
0
41
1
10
-2.19999999999999
20
-5.14108500618136
30
0
41
1
10
-2.19999999999999
20
-5.33157993903225
30
0
41
1
10
-2.19999999999999
20
-5.52076102284181
30
0
41
1
10
-2.19999999999999
20
-5.70862461825791
30
0
41
1
10
-2.19999999999999
20
-5.89516734859464
30
0
41
1
10
-2.19999999999999
20
-6.0803860968085
30
0
41
1
10
-2.19999999999999
20
-6.26427796235188
30
0
41
1
10
-2.19999999999999
20
-6.44684092947378
30
0
41
1
10
-2.19999999999999
20
-6.62807271786153
30
0
41
1
10
-2.19999999999999
20
-6.80797159432129
30
0
41
1
10
-2.19999999999999
20
-6.98653550324826
30
0
41
1
10
-2.19999999999999
20
-7.22282328452872
30
0
41
1
10
-2.19999999999999
20
-7.51487112820209
30
0
41
1
10
-2.19999999999999
20
-7.85994708827315
30
0
41
1
10
-2.19999999999999
20
-8.14304411844034
30
0
41
1
10
-2.19999999999999
20
-8.36680341033821
30
0
41
1
10
-2.19999999999999
20
-8.53328407858575
30
0
41
1
10
-2.19999999999999
20
-8.69841428877766
30
0
41
1
10
-2.19999999999999
20
-8.86219304073114
30
0
41
1
10
-2.19999999999999
20
-9.02461799205523
30
0
41
1
10
-2.19999999999999
20
-9.23936571773672
30
0
41
1
10
-2.19999999999999
20
-9.50443394039922
30
0
41
1
10
-2.19999999999999
20
-9.76496631110049
30
0
41
1
10
-2.19999999999999
20
-9.97064123613964
30
0
41
1
10
-2.19999999999999
20
-10.123538466054
30
0
41
1
10
-2.19999999999999
20
-10.2750653748105
30
0
41
1
10
-2.19999999999999
20
-10.4252201002359
30
0
41
1
10
-2.19999999999999
20
-10.5740001651574
30
0
41
1
10
-2.19999999999999
20
-10.7705258416001
30
0
41
1
10
-2.19999999999999
20
-10.9643215989582
30
0
41
1
10
-2.19999999999999
20
-11.1553144582602
30
0
41
1
10
-2.19999999999999
20
-11.3444552554371
30
0
41
1
10
-2.19999999999999
20
-11.5774197477568
30
0
41
1
10
-2.19999999999999
20
-11.8057194023465
30
0
41
1
10
-2.19999999999999
20
-11.9855280067157
30
0
41
1
10
-2.19999999999999
20
-12.1634558646821
30
0
41
1
10
-2.19999999999999
20
-12.3385783781737
30
0
41
1
10
-2.19999999999999
20
-12.510829004708
30
0
41
1
10
-2.19999999999999
20
-12.6385945454976
30
0
41
1
10
-2.19999999999999
20
-12.7649271637091
30
0
41
1
10
-2.19999999999999
20
-12.9314463925932
30
0
41
1
10
-2.19999999999999
20
-13.0951031927999
30
0
41
1
10
-2.19999999999999
20
-13.2558316973182
30
0
41
1
10
-2.19999999999999
20
-13.3749248996582
30
0
41
1
10
-2.19999999999999
20
-13.4925540411334
30
0
41
1
10
-2.19999999999999
20
-13.6474264531923
30
0
41
1
10
-2.19999999999999
20
-13.7993681905533
30
0
41
1
10
-2.19999999999999
20
-13.9483131264862
30
0
41
1
10
-2.19999999999999
20
-14.0585319334344
30
0
41
1
10
-2.19999999999999
20
-14.1672492642274
30
0
41
1
10
-2.19999999999999
20
-14.3101885914782
30
0
41
1
10
-2.19999999999999
20
-14.4501162106047
30
0
41
1
10
-2.19999999999999
20
-14.5869647126432
30
0
41
1
10
-2.19999999999999
20
-14.6880675812844
30
0
41
1
10
-2.19999999999999
20
-14.7876243995297
30
0
41
1
10
-2.19999999999999
20
-14.9182892218295
30
0
41
1
10
-2.19999999999999
20
-15.0458464314392
30
0
41
1
10
-2.19999999999999
20
-15.1702261509224
30
0
41
1
10
-2.19999999999999
20
-15.2466455133785
30
0
41
1
10
-2.19999999999999
20
-15.3069761679616
30
0
41
1
10
-2.19999999999999
20
-15.3667724139347
30
0
41
1
10
-2.19999999999999
20
-15.4700110929875
30
0
41
1
10
-2.19999999999999
20
-15.5847743990242
30
0
41
1
10
-2.19999999999999
20
-15.6962433571227
30
0
41
1
10
-2.19999999999999
20
-15.7781982539187
30
0
41
1
10
-2.19999999999999
20
-15.8584914079188
30
0
41
1
10
-2.19999999999999
20
-15.9633135259672
30
0
41
1
10
-2.19999999999999
20
-16.0647793597711
30
0
41
1
10
-2.19999999999999
20
-16.1628111223414
30
0
41
1
10
-2.19999999999999
20
-16.2346146707391
30
0
41
1
10
-2.19999999999999
20
-16.3046816359758
30
0
41
1
10
-2.19999999999999
20
-16.3729983688048
30
0
41
1
10
-2.19999999999999
20
-16.439549393056
30
0
41
1
10
-2.19999999999999
20
-16.5043209901434
30
0
41
1
10
-2.19999999999999
20
-16.5672977619412
30
0
41
1
10
-2.19999999999999
20
-16.6488473199257
30
0
41
1
10
-2.19999999999999
20
-16.7267561914694
30
0
41
1
10
-2.19999999999999
20
-16.8009296884544
30
0
41
1
10
-2.19999999999999
20
-16.8725984731112
30
0
41
1
10
-2.19999999999999
20
-16.9404820184079
30
0
41
1
10
-2.19999999999999
20
-17.0044820909957
30
0
41
1
10
-2.19999999999999
20
-17.0658713913631
30
0
41
1
10
-2.19999999999999
20
-17.123313852319
30
0
41
1
10
-2.19999999999999
20
-17.1766986986672
30
0
41
1
10
-2.19999999999999
20
-17.2146924603873
30
0
41
1
10
-2.19999999999999
20
-17.250613323192
30
0
41
1
10
-2.19999999999999
20
-17.2957083328928
30
0
41
1
10
-2.19999999999999
20
-17.3365615705832
30
0
41
1
10
-2.19999999999999
20
-17.3730462873428
30
0
41
1
10
-2.19999999999999
20
-17.398199993695
30
0
41
1
10
-2.19999999999999
20
-17.4211116738093
30
0
41
1
10
-2.19999999999999
20
-17.4417480876219
30
0
41
1
10
-2.19999999999999
20
-17.4600756994924
30
0
41
1
10
-2.19999999999999
20
-17.4760589706817
30
0
41
1
10
-2.19999999999999
20
-17.4896606126055
30
0
41
1
10
-2.19999999999999
20
-17.5008423321234
30
0
41
1
10
-2.19999999999999
20
-17.5092144773574
30
0
41
1
10
-2.19999999999999
20
-17.5132052247884
30
0
41
1
10
-2.20000000000002
20
-17.5147451189412
30
0
0
SPLINE
5
159
100
AcDbEntity
8
SK1
62
256
6
ByLayer
370
18
48
1
60
0
100
AcDbSpline
70
4
71
3
72
287
73
283
40
0
40
0
40
0
40
0
40
0.0019139555469062
40
0.0054376945654043
40
0.0089614335839025
40
0.0124851726024007
40
0.0160089116208988
40
0.0195326506393971
40
0.0230563896578952
40
0.0265801286763934
40
0.0301038676948916
40
0.0336276067133897
40
0.0371513457318879
40
0.0441988237688843
40
0.0477225627873824
40
0.0512463018058806
40
0.0547700408243788
40
0.058293779842877
40
0.0653412578798733
40
0.0688649968983715
40
0.0723887359168696
40
0.079436213953866
40
0.0829599529723642
40
0.0864836919908624
40
0.0935311700278588
40
0.097054909046357
40
0.100578648064855
40
0.104102387083353
40
0.107626126101851
40
0.11114986512035
40
0.114673604138848
40
0.118197343157346
40
0.121721082175844
40
0.128768560212841
40
0.132292299231339
40
0.135816038249837
40
0.139339777268335
40
0.142863516286833
40
0.14991099432383
40
0.153434733342328
40
0.156958472360826
40
0.160482211379324
40
0.164005950397822
40
0.171053428434819
40
0.174577167453317
40
0.178100906471815
40
0.181624645490313
40
0.185148384508811
40
0.192195862545808
40
0.195719601564306
40
0.199243340582804
40
0.202767079601302
40
0.206290818619801
40
0.213338296656797
40
0.216862035675295
40
0.220385774693793
40
0.223909513712291
40
0.227433252730789
40
0.234480730767786
40
0.238004469786284
40
0.241528208804782
40
0.24505194782328
40
0.248575686841779
40
0.255623164878775
40
0.259146903897273
40
0.262670642915771
40
0.269718120952768
40
0.276765598989764
40
0.280289338008262
40
0.28381307702676
40
0.290860555063757
40
0.294384294082255
40
0.297908033100753
40
0.301431772119251
40
0.304955511137749
40
0.308479250156248
40
0.312002989174746
40
0.319050467211742
40
0.326097945248738
40
0.329621684267237
40
0.333145423285735
40
0.336669162304233
40
0.340192901322731
40
0.343716640341229
40
0.347240379359728
40
0.354287857396724
40
0.36133533543372
40
0.368382813470717
40
0.371906552489215
40
0.375430291507713
40
0.378954030526211
40
0.382477769544709
40
0.386001508563207
40
0.389525247581706
40
0.393048986600204
40
0.396572725618702
40
0.4000964646372
40
0.403620203655698
40
0.407143942674197
40
0.410667681692695
40
0.414191420711193
40
0.417715159729691
40
0.421238898748189
40
0.424762637766687
40
0.428286376785186
40
0.430048246294435
40
0.431810115803684
40
0.433571985312933
40
0.435333854822182
40
0.43885759384068
40
0.442381332859178
40
0.444143202368427
40
0.445905071877676
40
0.447666941386925
40
0.449428810896175
40
0.451190680405424
40
0.452952549914673
40
0.456476288933171
40
0.45823815844242
40
0.460000027951669
40
0.461761897460918
40
0.463523766970167
40
0.465285636479417
40
0.467047505988666
40
0.468809375497915
40
0.470571245007164
40
0.472333114516413
40
0.474094984025662
40
0.475856853534911
40
0.47761872304416
40
0.479380592553409
40
0.481142462062658
40
0.482904331571907
40
0.484666201081156
40
0.486428070590405
40
0.488189940099655
40
0.489951809608904
40
0.491713679118153
40
0.493475548627402
40
0.495237418136651
40
0.4969992876459
40
0.498761157155149
40
0.500523026664398
40
0.502284896173647
40
0.504046765682896
40
0.505808635192145
40
0.507570504701395
40
0.509332374210644
40
0.511094243719893
40
0.512856113229142
40
0.514617982738391
40
0.51637985224764
40
0.518141721756889
40
0.519903591266138
40
0.521665460775387
40
0.523427330284636
40
0.525189199793885
40
0.526951069303134
40
0.528712938812383
40
0.530474808321633
40
0.532236677830882
40
0.533998547340131
40
0.53576041684938
40
0.537522286358629
40
0.539284155867878
40
0.541046025377127
40
0.544569764395625
40
0.546331633904874
40
0.548093503414124
40
0.551617242432622
40
0.55514098145112
40
0.556902850960369
40
0.558664720469618
40
0.560426589978867
40
0.562188459488116
40
0.565712198506614
40
0.569235937525112
40
0.572759676543611
40
0.576283415562109
40
0.579807154580607
40
0.583330893599105
40
0.586854632617603
40
0.590378371636102
40
0.5939021106546
40
0.597425849673098
40
0.600949588691596
40
0.604473327710094
40
0.607997066728592
40
0.611520805747091
40
0.615044544765589
40
0.618568283784087
40
0.622092022802585
40
0.629139500839581
40
0.636186978876578
40
0.643234456913574
40
0.646758195932072
40
0.650281934950571
40
0.653805673969069
40
0.657329412987567
40
0.660853152006065
40
0.664376891024563
40
0.67142436906156
40
0.678471847098556
40
0.681995586117054
40
0.685519325135552
40
0.68904306415405
40
0.692566803172549
40
0.696090542191047
40
0.699614281209545
40
0.706661759246541
40
0.71018549826504
40
0.713709237283538
40
0.720756715320534
40
0.72780419335753
40
0.731327932376029
40
0.734851671394527
40
0.741899149431523
40
0.745422888450021
40
0.74894662746852
40
0.752470366487018
40
0.755994105505516
40
0.763041583542512
40
0.76656532256101
40
0.770089061579509
40
0.773612800598007
40
0.777136539616505
40
0.784184017653501
40
0.787707756672
40
0.791231495690498
40
0.794755234708996
40
0.798278973727494
40
0.80532645176449
40
0.808850190782988
40
0.812373929801487
40
0.815897668819985
40
0.819421407838483
40
0.826468885875479
40
0.829992624893978
40
0.833516363912476
40
0.835278233421725
40
0.837040102930974
40
0.840563841949472
40
0.847611319986468
40
0.851135059004967
40
0.854658798023465
40
0.858182537041963
40
0.861706276060461
40
0.868753754097458
40
0.872277493115956
40
0.875801232134454
40
0.879324971152952
40
0.88284871017145
40
0.886372449189948
40
0.889896188208447
40
0.893419927226945
40
0.896943666245443
40
0.903991144282439
40
0.907514883300938
40
0.911038622319436
40
0.918086100356432
40
0.92160983937493
40
0.925133578393429
40
0.932181056430425
40
0.935704795448923
40
0.939228534467421
40
0.942752273485919
40
0.946276012504418
40
0.953323490541414
40
0.956847229559912
40
0.96037096857841
40
0.963894707596909
40
0.967418446615406
40
0.970942185633905
40
0.974465924652403
40
0.977989663670901
40
0.981513402689399
40
0.985037141707897
40
0.988560880726396
40
0.992084619744894
40
0.995608358763392
40
0.99913209778189
40
1
40
1
40
1
40
1
41
1
10
-28.5
20
16.8570111661371
30
0
41
1
10
-28.5
20
16.8563913764501
30
0
41
1
10
-28.5
20
16.8542840051858
30
0
41
1
10
-28.5
20
16.8492032887544
30
0
41
1
10
-28.5
20
16.8407921788659
30
0
41
1
10
-28.5
20
16.8300011209595
30
0
41
1
10
-28.5
20
16.8168672741156
30
0
41
1
10
-28.5
20
16.8014255225769
30
0
41
1
10
-28.5
20
16.783709883521
30
0
41
1
10
-28.5
20
16.7637529731542
30
0
41
1
10
-28.5
20
16.7415855338906
30
0
41
1
10
-28.5
20
16.7172383450784
30
0
41
1
10
-28.5
20
16.6818353810987
30
0
41
1
10
-28.5
20
16.642411510514
30
0
41
1
10
-28.5
20
16.5986105790194
30
0
41
1
10
-28.5
20
16.5637763020887
30
0
41
1
10
-28.5
20
16.5269199075572
30
0
41
1
10
-28.5
20
16.4750169305147
30
0
41
1
10
-28.5
20
16.4194622625482
30
0
41
1
10
-28.5
20
16.3597331913305
30
0
41
1
10
-28.5
20
16.2974462059125
30
0
41
1
10
-28.5
20
16.2317181614777
30
0
41
1
10
-28.5
20
16.1619255301562
30
0
41
1
10
-28.5
20
16.0896767577218
30
0
41
1
10
-28.5
20
16.0141701499498
30
0
41
1
10
-28.5
20
15.9346970720351
30
0
41
1
10
-28.5
20
15.8734193498834
30
0
41
1
10
-28.5
20
15.8103844132608
30
0
41
1
10
-28.5
20
15.745608166167
30
0
41
1
10
-28.5
20
15.6791035033831
30
0
41
1
10
-28.5
20
15.6108850520675
30
0
41
1
10
-28.5
20
15.5409672008416
30
0
41
1
10
-28.5
20
15.4453363897878
30
0
41
1
10
-28.5
20
15.3468344295442
30
0
41
1
10
-28.5
20
15.2445501023872
30
0
41
1
10
-28.5
20
15.1663215412447
30
0
41
1
10
-28.5
20
15.0864673138636
30
0
41
1
10
-28.5
20
14.9776668598204
30
0
41
1
10
-28.5
20
14.8661866472663
30
0
41
1
10
-28.5
20
14.7510047173632
30
0
41
1
10
-28.5
20
14.6631805593238
30
0
41
1
10
-28.5
20
14.5737935545692
30
0
41
1
10
-28.5
20
14.4523474056541
30
0
41
1
10
-28.5
20
14.3283920102608
30
0
41
1
10
-28.5
20
14.2007962111626
30
0
41
1
10
-28.5
20
14.1037299196573
30
0
41
1
10
-28.5
20
14.0051547121626
30
0
41
1
10
-28.5
20
13.8715103774192
30
0
41
1
10
-28.5
20
13.7355116027341
30
0
41
1
10
-28.5
20
13.5959164295663
30
0
41
1
10
-28.5
20
13.4899116400767
30
0
41
1
10
-28.5
20
13.3824445287113
30
0
41
1
10
-28.5
20
13.2369867267196
30
0
41
1
10
-28.5
20
13.0893180063072
30
0
41
1
10
-28.5
20
12.9380809359595
30
0
41
1
10
-28.5
20
12.8234002792818
30
0
41
1
10
-28.5
20
12.7072977235968
30
0
41
1
10
-28.5
20
12.550359403554
30
0
41
1
10
-28.5
20
12.3913462445321
30
0
41
1
10
-28.5
20
12.2287775158425
30
0
41
1
10
-28.5
20
12.1056498288981
30
0
41
1
10
-28.5
20
11.9811355431936
30
0
41
1
10
-28.5
20
11.8130068133241
30
0
41
1
10
-28.5
20
11.642935768078
30
0
41
1
10
-28.5
20
11.4693068645233
30
0
41
1
10
-28.5
20
11.2938625434425
30
0
41
1
10
-28.5
20
11.0718089327865
30
0
41
1
10
-28.5
20
10.8452681360072
30
0
41
1
10
-28.5
20
10.6608198079832
30
0
41
1
10
-28.5
20
10.4745957683654
30
0
41
1
10
-28.5
20
10.2866518533399
30
0
41
1
10
-28.5
20
10.0951135357909
30
0
41
1
10
-28.5
20
9.9503895477591
30
0
41
1
10
-28.5
20
9.8043545776041
30
0
41
1
10
-28.5
20
9.65701503611822
30
0
41
1
10
-28.5
20
9.50837340526911
30
0
41
1
10
-28.5
20
9.30810992365679
30
0
41
1
10
-28.5
20
9.05534970701544
30
0
41
1
10
-28.5
20
8.79830464348922
30
0
41
1
10
-28.5
20
8.58944232029054
30
0
41
1
10
-28.5
20
8.43181572672981
30
0
41
1
10
-28.5
20
8.27292311790592
30
0
41
1
10
-28.5
20
8.11277014047184
30
0
41
1
10
-28.5
20
7.9513617118449
30
0
41
1
10
-28.5
20
7.73407184255308
30
0
41
1
10
-28.5
20
7.46030866767529
30
0
41
1
10
-28.5
20
7.12632140637373
30
0
41
1
10
-28.5
20
6.84437402550569
30
0
41
1
10
-28.5
20
6.61554359890371
30
0
41
1
10
-28.5
20
6.44309029411608
30
0
41
1
10
-28.5
20
6.26944364545889
30
0
41
1
10
-28.5
20
6.09461246091772
30
0
41
1
10
-28.5
20
5.91860523667609
30
0
41
1
10
-28.5
20
5.74143189937953
30
0
41
1
10
-28.5
20
5.56310357372001
30
0
41
1
10
-28.5
20
5.38363134733163
30
0
41
1
10
-28.5
20
5.20302692387261
30
0
41
1
10
-28.5
20
5.0213042232472
30
0
41
1
10
-28.5
20
4.83847919931264
30
0
41
1
10
-28.5
20
4.65456716028004
30
0
41
1
10
-28.5
20
4.46958486845949
30
0
41
1
10
-28.5
20
4.28355302808069
30
0
41
1
10
-28.5
20
4.09649275318182
30
0
41
1
10
-28.5
20
3.90842813226232
30
0
41
1
10
-28.5
20
3.75124940963565
30
0
41
1
10
-28.5
20
3.6243549796439
30
0
41
1
10
-28.5
20
3.52924315934183
30
0
41
1
10
-28.5
20
3.43390158445521
30
0
41
1
10
-28.5
20
3.30608717079298
30
0
41
1
10
-28.5
20
3.14669072023423
30
0
41
1
10
-28.5
20
2.9865693987912
30
0
41
1
10
-28.5
20
2.85729421649611
30
0
41
1
10
-28.5
20
2.76048089001324
30
0
41
1
10
-28.5
20
2.66347976206254
30
0
41
1
10
-28.5
20
2.56629526768592
30
0
41
1
10
-28.5
20
2.46893611478751
30
0
41
1
10
-28.5
20
2.33842740009587
30
0
41
1
10
-28.5
20
2.20905952740142
30
0
41
1
10
-28.5
20
2.07788039572898
30
0
41
1
10
-28.5
20
1.97974994874616
30
0
41
1
10
-28.5
20
1.88148715614122
30
0
41
1
10
-28.5
20
1.78310090101277
30
0
41
1
10
-28.5
20
1.68460072925305
30
0
41
1
10
-28.5
20
1.58599184128096
30
0
41
1
10
-28.5
20
1.48728649469356
30
0
41
1
10
-28.5
20
1.38848914320587
30
0
41
1
10
-28.5
20
1.28961139997082
30
0
41
1
10
-28.5
20
1.19065859360987
30
0
41
1
10
-28.5
20
1.09164071478048
30
0
41
1
10
-28.5
20
0.992564090788449
30
0
41
1
10
-28.5
20
0.893436923932512
30
0
41
1
10
-28.5
20
0.794265471937166
30
0
41
1
10
-28.5
20
0.695056741362833
30
0
41
1
10
-28.5
20
0.595816468507252
30
0
41
1
10
-28.5
20
0.49655061320999
30
0
41
1
10
-28.5
20
0.397263853181812
30
0
41
1
10
-28.5
20
0.297961366795107
30
0
41
1
10
-28.5
20
0.198647102840738
30
0
41
1
10
-28.5
20
0.0993254669347436
30
0
41
1
10
-28.5
20
5.4725149E-09
30
0
41
1
10
-28.5
20
-0.0993254684405827
30
0
41
1
10
-28.5
20
-0.198647127601248
30
0
41
1
10
-28.5
20
-0.297961388791691
30
0
41
1
10
-28.5
20
-0.397263840424017
30
0
41
1
10
-28.5
20
-0.496550594205559
30
0
41
1
10
-28.5
20
-0.595816495504096
30
0
41
1
10
-28.5
20
-0.695056784277028
30
0
41
1
10
-28.5
20
-0.794265459276176
30
0
41
1
10
-28.5
20
-0.89343688343348
30
0
41
1
10
-28.5
20
-0.992564112169902
30
0
41
1
10
-28.5
20
-1.0916407792042
30
0
41
1
10
-28.5
20
-1.19065859620264
30
0
41
1
10
-28.5
20
-1.28961134189751
30
0
41
1
10
-28.5
20
-1.38848913588993
30
0
41
1
10
-28.5
20
-1.48728656512978
30
0
41
1
10
-28.5
20
-1.58599188781932
30
0
41
1
10
-28.5
20
-1.6846006870125
30
0
41
1
10
-28.5
20
-1.78310084050699
30
0
41
1
10
-28.5
20
-1.88148718140701
30
0
41
1
10
-28.5
20
-1.9797500364362
30
0
41
1
10
-28.5
20
-2.0778804265363
30
0
41
1
10
-28.5
20
-2.17587292609082
30
0
41
1
10
-28.5
20
-2.27371679621319
30
0
41
1
10
-28.5
20
-2.37140757120352
30
0
41
1
10
-28.5
20
-2.46893613943033
30
0
41
1
10
-28.5
20
-2.59923374131699
30
0
41
1
10
-28.5
20
-2.72777279716706
30
0
41
1
10
-28.5
20
-2.8572942882393
30
0
41
1
10
-28.5
20
-2.98656948332388
30
0
41
1
10
-28.5
20
-3.14669074057869
30
0
41
1
10
-28.5
20
-3.30608709676798
30
0
41
1
10
-28.5
20
-3.43390157548936
30
0
41
1
10
-28.5
20
-3.52924322184191
30
0
41
1
10
-28.5
20
-3.62435506854831
30
0
41
1
10
-28.5
20
-3.75124942106058
30
0
41
1
10
-28.5
20
-3.90842799420625
30
0
41
1
10
-28.5
20
-4.09649259176146
30
0
41
1
10
-28.5
20
-4.28355297730505
30
0
41
1
10
-28.5
20
-4.4695846174555
30
0
41
1
10
-28.5
20
-4.65456683421039
30
0
41
1
10
-28.5
20
-4.83847943804494
30
0
41
1
10
-28.5
20
-5.0213044851898
30
0
41
1
10
-28.5
20
-5.2030267003301
30
0
41
1
10
-28.5
20
-5.38363156234237
30
0
41
1
10
-28.5
20
-5.56310445504442
30
0
41
1
10
-28.5
20
-5.74143237747984
30
0
41
1
10
-28.5
20
-5.91860495448572
30
0
41
1
10
-28.5
20
-6.09461208825527
30
0
41
1
10
-28.5
20
-6.26944357118299
30
0
41
1
10
-28.5
20
-6.4430903265563
30
0
41
1
10
-28.5
20
-6.61554357091572
30
0
41
1
10
-28.5
20
-6.84437400802861
30
0
41
1
10
-28.5
20
-7.12632144512301
30
0
41
1
10
-28.5
20
-7.46030865505762
30
0
41
1
10
-28.5
20
-7.73407184285279
30
0
41
1
10
-28.5
20
-7.95136176299604
30
0
41
1
10
-28.5
20
-8.11277014937085
30
0
41
1
10
-28.5
20
-8.27292308432649
30
0
41
1
10
-28.5
20
-8.43181570788789
30
0
41
1
10
-28.5
20
-8.5894423488798
30
0
41
1
10
-28.5
20
-8.79830467826932
30
0
41
1
10
-28.5
20
-9.05534969583792
30
0
41
1
10
-28.5
20
-9.30810991622684
30
0
41
1
10
-28.5
20
-9.50837344479851
30
0
41
1
10
-28.5
20
-9.65701506287493
30
0
41
1
10
-28.5
20
-9.80435457188474
30
0
41
1
10
-28.5
20
-9.95038952754788
30
0
41
1
10
-28.5
20
-10.095113531911
30
0
41
1
10
-28.5
20
-10.2866518813937
30
0
41
1
10
-28.5
20
-10.4745957936973
30
0
41
1
10
-28.5
20
-10.6608197986608
30
0
41
1
10
-28.5
20
-10.8452681286137
30
0
41
1
10
-28.5
20
-11.0718089525805
30
0
41
1
10
-28.5
20
-11.2938625632929
30
0
41
1
10
-28.5
20
-11.4693068596264
30
0
41
1
10
-28.5
20
-11.6429357656381
30
0
41
1
10
-28.5
20
-11.8130068303033
30
0
41
1
10
-28.5
20
-11.9811355648908
30
0
41
1
10
-28.5
20
-12.1056498404809
30
0
41
1
10
-28.5
20
-12.2287775174238
30
0
41
1
10
-28.5
20
-12.3913462461042
30
0
41
1
10
-28.5
20
-12.5503594172971
30
0
41
1
10
-28.5
20
-12.7072977423403
30
0
41
1
10
-28.5
20
-12.8234002933141
30
0
41
1
10
-28.5
20
-12.9380809438717
30
0
41
1
10
-28.5
20
-13.0893180117675
30
0
41
1
10
-28.5
20
-13.2369867372074
30
0
41
1
10
-28.5
20
-13.3824445445542
30
0
41
1
10
-28.5
20
-13.4899116562855
30
0
41
1
10
-28.5
20
-13.5959164434403
30
0
41
1
10
-28.5
20
-13.7355116125921
30
0
41
1
10
-28.5
20
-13.8715103854275
30
0
41
1
10
-28.5
20
-14.0051547249398
30
0
41
1
10
-28.5
20
-14.1037299370701
30
0
41
1
10
-28.5
20
-14.2007962250068
30
0
41
1
10
-28.5
20
-14.328392039309
30
0
41
1
10
-28.5
20
-14.4523474054459
30
0
41
1
10
-28.5
20
-14.5737935062701
30
0
41
1
10
-28.5
20
-14.6481896525931
30
0
41
1
10
-28.5
20
-14.7070919001429
30
0
41
1
10
-28.5
20
-14.7654709460418
30
0
41
1
10
-28.5
20
-14.8661866667289
30
0
41
1
10
-28.5
20
-14.9776668655465
30
0
41
1
10
-28.5
20
-15.0864673213159
30
0
41
1
10
-28.5
20
-15.1663215599361
30
0
41
1
10
-28.5
20
-15.2445501295776
30
0
41
1
10
-28.5
20
-15.3468344527491
30
0
41
1
10
-28.5
20
-15.4453363938053
30
0
41
1
10
-28.5
20
-15.5409672073329
30
0
41
1
10
-28.5
20
-15.6108850733398
30
0
41
1
10
-28.5
20
-15.679103534252
30
0
41
1
10
-28.5
20
-15.7456081924762
30
0
41
1
10
-28.5
20
-15.810384423087
30
0
41
1
10
-28.5
20
-15.8734193510279
30
0
41
1
10
-28.5
20
-15.9346970807191
30
0
41
1
10
-28.5
20
-16.0141701800502
30
0
41
1
10
-28.5
20
-16.0896767899468
30
0
41
1
10
-28.5
20
-16.1619255341458
30
0
41
1
10
-28.5
20
-16.2317181619347
30
0
41
1
10
-28.5
20
-16.2974462376793
30
0
41
1
10
-28.5
20
-16.3597332242326
30
0
41
1
10
-28.5
20
-16.4194622696319
30
0
41
1
10
-28.5
20
-16.4750169286961
30
0
41
1
10
-28.5
20
-16.5269199399481
30
0
41
1
10
-28.5
20
-16.5637763395248
30
0
41
1
10
-28.5
20
-16.5986105943247
30
0
41
1
10
-28.5
20
-16.642411504334
30
0
41
1
10
-28.5
20
-16.6818354096897
30
0
41
1
10
-28.5
20
-16.7172383773105
30
0
41
1
10
-28.5
20
-16.741585550229
30
0
41
1
10
-28.5
20
-16.7637529737167
30
0
41
1
10
-28.5
20
-16.7837098927271
30
0
41
1
10
-28.5
20
-16.8014255596809
30
0
41
1
10
-28.5
20
-16.816867307208
30
0
41
1
10
-28.5
20
-16.8300011251081
30
0
41
1
10
-28.5
20
-16.8407921763224
30
0
41
1
10
-28.5
20
-16.8492033090471
30
0
41
1
10
-28.5
20
-16.8551966659016
30
0
41
1
10
-28.5
20
-16.8587319423621
30
0
41
1
10
-28.5
20
-16.8597680746869
30
0
41
1
10
-28.5
20
-16.8586398960863
30
0
41
1
10
-28.5
20
-16.8573438922965
30
0
41
1
10
-28.5
20
-16.8570614804707
30
0
0
SPLINE
5
15A
100
AcDbEntity
8
SK1
62
256
6
ByLayer
370
18
48
1
60
0
100
AcDbSpline
70
4
71
3
72
284
73
280
40
0
40
0
40
0
40
0
40
0.0001430681278534
40
0.0037134756345505
40
0.0072838831412475
40
0.0108542906479446
40
0.0144246981546416
40
0.0179951056613387
40
0.0215655131680357
40
0.0251359206747328
40
0.0287063281814298
40
0.0322767356881269
40
0.0358471431948239
40
0.042987958208218
40
0.0465583657149151
40
0.0501287732216121
40
0.0536991807283092
40
0.0572695882350062
40
0.0644104032484003
40
0.0679808107550974
40
0.0715512182617944
40
0.0786920332751885
40
0.0822624407818856
40
0.0858328482885826
40
0.0929736633019767
40
0.0965440708086738
40
0.100114478315371
40
0.103684885822068
40
0.107255293328765
40
0.110825700835462
40
0.114396108342159
40
0.117966515848856
40
0.121536923355553
40
0.128677738368947
40
0.132248145875644
40
0.135818553382341
40
0.139388960889038
40
0.142959368395735
40
0.15010018340913
40
0.153670590915826
40
0.157240998422524
40
0.160811405929221
40
0.164381813435918
40
0.171522628449312
40
0.175093035956009
40
0.178663443462706
40
0.182233850969403
40
0.1858042584761
40
0.192945073489494
40
0.196515480996191
40
0.200085888502888
40
0.203656296009585
40
0.207226703516282
40
0.214367518529676
40
0.217937926036373
40
0.221508333543071
40
0.225078741049768
40
0.228649148556465
40
0.235789963569859
40
0.239360371076556
40
0.242930778583253
40
0.24650118608995
40
0.250071593596647
40
0.257212408610041
40
0.260782816116738
40
0.264353223623435
40
0.271494038636829
40
0.278634853650223
40
0.28220526115692
40
0.285775668663617
40
0.292916483677012
40
0.296486891183709
40
0.300057298690406
40
0.303627706197103
40
0.3071981137038
40
0.310768521210497
40
0.314338928717194
40
0.321479743730588
40
0.328620558743982
40
0.332190966250679
40
0.335761373757376
40
0.339331781264073
40
0.34290218877077
40
0.346472596277467
40
0.350043003784164
40
0.357183818797558
40
0.364324633810952
40
0.371465448824347
40
0.375035856331044
40
0.378606263837741
40
0.382176671344438
40
0.385747078851135
40
0.389317486357832
40
0.392887893864529
40
0.396458301371226
40
0.400028708877923
40
0.40359911638462
40
0.407169523891317
40
0.410739931398014
40
0.414310338904711
40
0.417880746411408
40
0.421451153918105
40
0.425021561424802
40
0.428591968931499
40
0.432162376438196
40
0.433947580191545
40
0.435732783944894
40
0.437517987698242
40
0.439303191451591
40
0.442873598958288
40
0.446444006464985
40
0.448229210218333
40
0.450014413971682
40
0.45179961772503
40
0.453584821478379
40
0.455370025231727
40
0.457155228985076
40
0.460725636491773
40
0.462510840245121
40
0.46429604399847
40
0.466081247751818
40
0.467866451505167
40
0.469651655258515
40
0.471436859011864
40
0.473222062765213
40
0.475007266518561
40
0.47679247027191
40
0.478577674025258
40
0.480362877778607
40
0.482148081531955
40
0.483933285285304
40
0.485718489038652
40
0.487503692792001
40
0.489288896545349
40
0.491074100298698
40
0.492859304052046
40
0.494644507805395
40
0.496429711558743
40
0.498214915312092
40
0.50000011906544
40
0.501785322818789
40
0.503570526572137
40
0.505355730325486
40
0.507140934078834
40
0.508926137832183
40
0.510711341585532
40
0.51249654533888
40
0.514281749092229
40
0.516066952845577
40
0.517852156598926
40
0.519637360352274
40
0.521422564105623
40
0.523207767858971
40
0.52499297161232
40
0.526778175365668
40
0.528563379119017
40
0.530348582872365
40
0.532133786625714
40
0.533918990379062
40
0.535704194132411
40
0.537489397885759
40
0.539274601639108
40
0.541059805392456
40
0.542845009145805
40
0.544630212899153
40
0.546415416652502
40
0.549985824159199
40
0.551771027912548
40
0.553556231665896
40
0.557126639172593
40
0.56069704667929
40
0.562482250432639
40
0.564267454185987
40
0.566052657939336
40
0.567837861692684
40
0.571408269199381
40
0.574978676706079
40
0.578549084212776
40
0.582119491719473
40
0.58568989922617
40
0.589260306732867
40
0.592830714239564
40
0.596401121746261
40
0.599971529252958
40
0.603541936759655
40
0.607112344266352
40
0.610682751773049
40
0.614253159279746
40
0.617823566786443
40
0.62139397429314
40
0.624964381799837
40
0.628534789306534
40
0.635675604319928
40
0.642816419333322
40
0.649957234346716
40
0.653527641853414
40
0.657098049360111
40
0.660668456866808
40
0.664238864373505
40
0.667809271880202
40
0.671379679386899
40
0.678520494400293
40
0.685661309413687
40
0.689231716920384
40
0.692802124427081
40
0.696372531933778
40
0.699942939440475
40
0.703513346947172
40
0.707083754453869
40
0.714224569467263
40
0.71779497697396
40
0.721365384480657
40
0.728506199494051
40
0.735647014507446
40
0.739217422014143
40
0.74278782952084
40
0.749928644534234
40
0.753499052040931
40
0.757069459547628
40
0.760639867054325
40
0.764210274561022
40
0.771351089574416
40
0.774921497081113
40
0.77849190458781
40
0.782062312094507
40
0.785632719601204
40
0.792773534614599
40
0.796343942121296
40
0.799914349627993
40
0.80348475713469
40
0.807055164641387
40
0.814195979654781
40
0.817766387161478
40
0.821336794668175
40
0.824907202174872
40
0.828477609681569
40
0.835618424694963
40
0.83918883220166
40
0.842759239708357
40
0.844544443461706
40
0.846329647215054
40
0.849900054721751
40
0.857040869735145
40
0.860611277241842
40
0.864181684748539
40
0.867752092255237
40
0.871322499761934
40
0.878463314775328
40
0.882033722282025
40
0.885604129788722
40
0.889174537295419
40
0.892744944802116
40
0.896315352308813
40
0.89988575981551
40
0.903456167322207
40
0.907026574828904
40
0.914167389842298
40
0.917737797348995
40
0.921308204855692
40
0.928449019869086
40
0.932019427375783
40
0.93558983488248
40
0.942730649895875
40
0.946301057402572
40
0.949871464909269
40
0.953441872415966
40
0.957012279922663
40
0.964153094936057
40
0.967723502442754
40
0.971293909949451
40
0.974864317456148
40
0.978434724962845
40
0.982005132469542
40
0.985575539976239
40
0.989145947482936
40
0.992716354989633
40
0.99628676249633
40
0.999857170003027
40
1
40
1
40
1
40
1
41
1
10
-1.99503997793931
20
17.3206891737545
30
0
41
1
10
-1.99503997793931
20
17.3206251938162
30
0
41
1
10
-1.99503997793928
20
17.3189470061145
30
0
41
1
10
-1.99503997793928
20
17.3147637003649
30
0
41
1
10
-1.99503997793928
20
17.3061342577567
30
0
41
1
10
-1.99503997793928
20
17.295067771448
30
0
41
1
10
-1.99503997793928
20
17.2816041041457
30
0
41
1
10
-1.99503997793928
20
17.2657805776118
30
0
41
1
10
-1.99503997793928
20
17.2476335117891
30
0
41
1
10
-1.99503997793928
20
17.2271975457697
30
0
41
1
10
-1.99503997793928
20
17.2045053960087
30
0
41
1
10
-1.99503997793928
20
17.1795895960111
30
0
41
1
10
-1.99503997793928
20
17.143423992764
30
0
41
1
10
-1.99503997793928
20
17.1029924242496
30
0
41
1
10
-1.99503997793928
20
17.0582791326422
30
0
41
1
10
-1.99503997793928
20
17.0226787925821
30
0
41
1
10
-1.99503997793928
20
16.9850205529168
30
0
41
1
10
-1.99503997793928
20
16.9320728615657
30
0
41
1
10
-1.99503997793928
20
16.8751872660894
30
0
41
1
10
-1.99503997793928
20
16.8142877036056
30
0
41
1
10
-1.99503997793928
20
16.7507929832779
30
0
41
1
10
-1.99503997793928
20
16.6835453056651
30
0
41
1
10
-1.99503997793928
20
16.6124299551482
30
0
41
1
10
-1.99503997793928
20
16.5388242186582
30
0
41
1
10
-1.99503997793928
20
16.4616240004255
30
0
41
1
10
-1.99503997793928
20
16.3806869939664
30
0
41
1
10
-1.99503997793928
20
16.3182114219941
30
0
41
1
10
-1.99503997793928
20
16.2539521138773
30
0
41
1
10
-1.99503997793928
20
16.1879246249361
30
0
41
1
10
-1.99503997793928
20
16.1201424382026
30
0
41
1
10
-1.99503997793928
20
16.0506207732709
30
0
41
1
10
-1.99503997793928
20
15.979373490825
30
0
41
1
10
-1.99503997793928
20
15.8820499794418
30
0
41
1
10
-1.99503997793928
20
15.7814584486047
30
0
41
1
10
-1.99503997793928
20
15.677384958149
30
0
41
1
10
-1.99503997793928
20
15.5977008436634
30
0
41
1
10
-1.99503997793928
20
15.5163656256123
30
0
41
1
10
-1.99503997793928
20
15.4056838451686
30
0
41
1
10
-1.99503997793928
20
15.2918890118945
30
0
41
1
10
-1.99503997793928
20
15.1747311694574
30
0
41
1
10
-1.99503997793928
20
15.0853020659337
30
0
41
1
10
-1.99503997793928
20
14.9942846604514
30
0
41
1
10
-1.99503997793928
20
14.8707702235387
30
0
41
1
10
-1.99503997793928
20
14.7442755428493
30
0
41
1
10
-1.99503997793928
20
14.6145160455858
30
0
41
1
10
-1.99503997793928
20
14.5156939096276
30
0
41
1
10
-1.99503997793928
20
14.4153366771621
30
0
41
1
10
-1.99503997793928
20
14.2794333721973
30
0
41
1
10
-1.99503997793928
20
14.1406647198644
30
0
41
1
10
-1.99503997793928
20
13.9987118830366
30
0
41
1
10
-1.99503997793928
20
13.8907947247769
30
0
41
1
10
-1.99503997793928
20
13.7813876415877
30
0
41
1
10
-1.99503997793928
20
13.6334713769854
30
0
41
1
10
-1.99503997793928
20
13.482790135872
30
0
41
1
10
-1.99503997793928
20
13.328990109671
30
0
41
1
10
-1.99503997793928
20
13.2122307400427
30
0
41
1
10
-1.99503997793928
20
13.09401974916
30
0
41
1
10
-1.99503997793928
20
12.9344093145834
30
0
41
1
10
-1.99503997793928
20
12.7721223429484
30
0
41
1
10
-1.99503997793928
20
12.606768466692
30
0
41
1
10
-1.99503997793928
20
12.4813812679684
30
0
41
1
10
-1.99503997793928
20
12.3545748152048
30
0
41
1
10
-1.99503997793928
20
12.1835401119863
30
0
41
1
10
-1.99503997793928
20
12.0099077332894
30
0
41
1
10
-1.99503997793928
20
11.8332480165124
30
0
41
1
10
-1.99503997793928
20
11.6547268261542
30
0
41
1
10
-1.99503997793928
20
11.4282697000141
30
0
41
1
10
-1.99503997793928
20
11.1972001365959
30
0
41
1
10
-1.99503997793928
20
11.00944356136
30
0
41
1
10
-1.99503997793928
20
10.8198574498995
30
0
41
1
10
-1.99503997793928
20
10.627787937013
30
0
41
1
10
-1.99503997793928
20
10.4327334855784
30
0
41
1
10
-1.99503997793928
20
10.2851499168301
30
0
41
1
10
-1.99503997793928
20
10.13621047024
30
0
41
1
10
-1.99503997793928
20
9.98591879047714
30
0
41
1
10
-1.99503997793928
20
9.83427692622885
30
0
41
1
10
-1.99503997793928
20
9.63019833168175
30
0
41
1
10
-1.99503997793928
20
9.37195865327328
30
0
41
1
10
-1.99503997793928
20
9.1092571782612
30
0
41
1
10
-1.99503997793928
20
8.89624559944801
30
0
41
1
10
-1.99503997793928
20
8.73523611643316
30
0
41
1
10
-1.99503997793928
20
8.57289871794615
30
0
41
1
10
-1.99503997793928
20
8.40923673354897
30
0
41
1
10
-1.99503997793928
20
8.24425232954013
30
0
41
1
10
-1.99503997793928
20
8.0224014648056
30
0
41
1
10
-1.99503997793928
20
7.7420578132905
30
0
41
1
10
-1.99503997793928
20
7.40025290593451
30
0
41
1
10
-1.99503997793928
20
7.11118461088941
30
0
41
1
10
-1.99503997793928
20
6.87709665618266
30
0
41
1
10
-1.99503997793928
20
6.70033531356589
30
0
41
1
10
-1.99503997793928
20
6.52228078287743
30
0
41
1
10
-1.99503997793928
20
6.3429370741791
30
0
41
1
10
-1.99503997793928
20
6.16230788845579
30
0
41
1
10
-1.99503997793928
20
5.98039789106801
30
0
41
1
10
-1.99503997793928
20
5.79721186805691
30
0
41
1
10
-1.99503997793928
20
5.61275496243289
30
0
41
1
10
-1.99503997793928
20
5.42703270327695
30
0
41
1
10
-1.99503997793928
20
5.24005175731475
30
0
41
1
10
-1.99503997793928
20
5.05181945337139
30
0
41
1
10
-1.99503997793928
20
4.86234332329403
30
0
41
1
10
-1.99503997793928
20
4.67163207713236
30
0
41
1
10
-1.99503997793928
20
4.47969614999016
30
0
41
1
10
-1.99503997793928
20
4.28654656517494
30
0
41
1
10
-1.99503997793928
20
4.09219634432211
30
0
41
1
10
-1.99503997793928
20
3.92934661081907
30
0
41
1
10
-1.99503997793928
20
3.7982972967292
30
0
41
1
10
-1.99503997793928
20
3.69979994526253
30
0
41
1
10
-1.99503997793928
20
3.6010147061962
30
0
41
1
10
-1.99503997793928
20
3.46881385164499
30
0
41
1
10
-1.99503997793928
20
3.30310841087518
30
0
41
1
10
-1.99503997793928
20
3.13647579824178
30
0
41
1
10
-1.99503997793928
20
3.00241852965871
30
0
41
1
10
-1.99503997793928
20
2.90170218623106
30
0
41
1
10
-1.99503997793928
20
2.80072442890969
30
0
41
1
10
-1.99503997793928
20
2.69948931487846
30
0
41
1
10
-1.99503997793928
20
2.5980019734576
30
0
41
1
10
-1.99503997793928
20
2.46222694501739
30
0
41
1
10
-1.99503997793928
20
2.3263670801044
30
0
41
1
10
-1.99503997793928
20
2.18963187963746
30
0
41
1
10
-1.99503997793928
20
2.08696367451518
30
0
41
1
10
-1.99503997793928
20
1.98407765086858
30
0
41
1
10
-1.99503997793928
20
1.88098143773604
30
0
41
1
10
-1.99503997793928
20
1.77768276547397
30
0
41
1
10
-1.99503997793928
20
1.67418894734925
30
0
41
1
10
-1.99503997793928
20
1.57050946303122
30
0
41
1
10
-1.99503997793928
20
1.46665209995737
30
0
41
1
10
-1.99503997793928
20
1.36262724011792
30
0
41
1
10
-1.99503997793928
20
1.25844372920938
30
0
41
1
10
-1.99503997793928
20
1.15411255471386
30
0
41
1
10
-1.99503997793928
20
1.04964378000579
30
0
41
1
10
-1.99503997793928
20
0.945048899580655
30
0
41
1
10
-1.99503997793928
20
0.840338961204225
30
0
41
1
10
-1.99503997793928
20
0.735526073032332
30
0
41
1
10
-1.99503997793928
20
0.630622105582688
30
0
41
1
10
-1.99503997793928
20
0.525639721157262
30
0
41
1
10
-1.99503997793928
20
0.420591350928703
30
0
41
1
10
-1.99503997793928
20
0.315490126623814
30
0
41
1
10
-1.99503997793928
20
0.210348939519435
30
0
41
1
10
-1.99503997793928
20
0.105181165306249
30
0
41
1
10
-1.99503997793928
20
-2.6093687E-09
30
0
41
1
10
-1.99503997793928
20
-0.10518117389941
30
0
41
1
10
-1.99503997793928
20
-0.21034895445402
30
0
41
1
10
-1.99503997793928
20
-0.315490140896543
30
0
41
1
10
-1.99503997793928
20
-0.420591355720489
30
0
41
1
10
-1.99503997793928
20
-0.525639723935797
30
0
41
1
10
-1.99503997793928
20
-0.630622120770227
30
0
41
1
10
-1.99503997793928
20
-0.735526093018507
30
0
41
1
10
-1.99503997793928
20
-0.840338966235578
30
0
41
1
10
-1.99503997793928
20
-0.945048896197648
30
0
41
1
10
-1.99503997793928
20
-1.04964379294299
30
0
41
1
10
-1.99503997793928
20
-1.15411258033262
30
0
41
1
10
-1.99503997793928
20
-1.25844373877697
30
0
41
1
10
-1.99503997793928
20
-1.36262723194542
30
0
41
1
10
-1.99503997793928
20
-1.46665210416356
30
0
41
1
10
-1.99503997793928
20
-1.57050948928742
30
0
41
1
10
-1.99503997793928
20
-1.67418896894682
30
0
41
1
10
-1.99503997793928
20
-1.77768276258209
30
0
41
1
10
-1.99503997793928
20
-1.88098142742643
30
0
41
1
10
-1.99503997793928
20
-1.98407766278629
30
0
41
1
10
-1.99503997793928
20
-2.08696370566375
30
0
41
1
10
-1.99503997793928
20
-2.18963189754737
30
0
41
1
10
-1.99503997793928
20
-2.29207637206397
30
0
41
1
10
-1.99503997793928
20
-2.39428973936722
30
0
41
1
10
-1.99503997793928
20
-2.49626703199883
30
0
41
1
10
-1.99503997793928
20
-2.59800197223717
30
0
41
1
10
-1.99503997793928
20
-2.73345090264118
30
0
41
1
10
-1.99503997793928
20
-2.86801083241156
30
0
41
1
10
-1.99503997793928
20
-3.00241855173454
30
0
41
1
10
-1.99503997793928
20
-3.13647582573117
30
0
41
1
10
-1.99503997793928
20
-3.30310842941955
30
0
41
1
10
-1.99503997793928
20
-3.46881383607317
30
0
41
1
10
-1.99503997793928
20
-3.60101470543907
30
0
41
1
10
-1.99503997793928
20
-3.69979996514493
30
0
41
1
10
-1.99503997793928
20
-3.79829732832764
30
0
41
1
10
-1.99503997793928
20
-3.92934662557204
30
0
41
1
10
-1.99503997793928
20
-4.09219631216948
30
0
41
1
10
-1.99503997793928
20
-4.28654650347451
30
0
41
1
10
-1.99503997793928
20
-4.47969611179559
30
0
41
1
10
-1.99503997793928
20
-4.67163198724225
30
0
41
1
10
-1.99503997793928
20
-4.86234315765492
30
0
41
1
10
-1.99503997793928
20
-5.05181944357969
30
0
41
1
10
-1.99503997793928
20
-5.24005183821342
30
0
41
1
10
-1.99503997793928
20
-5.42703263168386
30
0
41
1
10
-1.99503997793928
20
-5.61275497462711
30
0
41
1
10
-1.99503997793928
20
-5.79721217482029
30
0
41
1
10
-1.99503997793928
20
-5.98039819956611
30
0
41
1
10
-1.99503997793928
20
-6.16230794338162
30
0
41
1
10
-1.99503997793928
20
-6.34293700639154
30
0
41
1
10
-1.99503997793928
20
-6.52228076981257
30
0
41
1
10
-1.99503997793928
20
-6.70033533418757
30
0
41
1
10
-1.99503997793928
20
-6.87709665926303
30
0
41
1
10
-1.99503997793928
20
-7.11118459991687
30
0
41
1
10
-1.99503997793928
20
-7.40025292645402
30
0
41
1
10
-1.99503997793928
20
-7.74205781809903
30
0
41
1
10
-1.99503997793928
20
-8.02240145976876
30
0
41
1
10
-1.99503997793928
20
-8.24425235284596
30
0
41
1
10
-1.99503997793928
20
-8.40923674956807
30
0
41
1
10
-1.99503997793928
20
-8.57289871422529
30
0
41
1
10
-1.99503997793928
20
-8.73523610803539
30
0
41
1
10
-1.99503997793928
20
-8.89624560664996
30
0
41
1
10
-1.99503997793928
20
-9.10925720032841
30
0
41
1
10
-1.99503997793928
20
-9.37195865915049
30
0
41
1
10
-1.99503997793928
20
-9.6301983246166
30
0
41
1
10
-1.99503997793928
20
-9.83427694277646
30
0
41
1
10
-1.99503997793928
20
-9.98591881051331
30
0
41
1
10
-1.99503997793928
20
-10.1362104789651
30
0
41
1
10
-1.99503997793928
20
-10.2851499142426
30
0
41
1
10
-1.99503997793928
20
-10.432733482583
30
0
41
1
10
-1.99503997793928
20
-10.6277879483349
30
0
41
1
10
-1.99503997793928
20
-10.8198574709635
30
0
41
1
10
-1.99503997793928
20
-11.0094435667743
30
0
41
1
10
-1.99503997793928
20
-11.1972001338813
30
0
41
1
10
-1.99503997793928
20
-11.4282697094187
30
0
41
1
10
-1.99503997793928
20
-11.6547268446385
30
0
41
1
10
-1.99503997793928
20
-11.8332480225582
30
0
41
1
10
-1.99503997793928
20
-12.0099077334538
30
0
41
1
10
-1.99503997793928
20
-12.1835401209566
30
0
41
1
10
-1.99503997793928
20
-12.3545748313203
30
0
41
1
10
-1.99503997793928
20
-12.4813812819682
30
0
41
1
10
-1.99503997793928
20
-12.6067684751262
30
0
41
1
10
-1.99503997793928
20
-12.7721223466594
30
0
41
1
10
-1.99503997793928
20
-12.9344093235711
30
0
41
1
10
-1.99503997793928
20
-13.0940197637218
30
0
41
1
10
-1.99503997793928
20
-13.2122307543484
30
0
41
1
10
-1.99503997793928
20
-13.3289901210133
30
0
41
1
10
-1.99503997793928
20
-13.4827901435456
30
0
41
1
10
-1.99503997793928
20
-13.6334713858817
30
0
41
1
10
-1.99503997793928
20
-13.7813876543746
30
0
41
1
10
-1.99503997793928
20
-13.8907947392413
30
0
41
1
10
-1.99503997793928
20
-13.99871189727
30
0
41
1
10
-1.99503997793928
20
-14.1406647319193
30
0
41
1
10
-1.99503997793928
20
-14.2794333813788
30
0
41
1
10
-1.99503997793928
20
-14.4153366880849
30
0
41
1
10
-1.99503997793928
20
-14.5156939237825
30
0
41
1
10
-1.99503997793928
20
-14.614516060936
30
0
41
1
10
-1.99503997793928
20
-14.7442755571137
30
0
41
1
10
-1.99503997793928
20
-14.8707702595594
30
0
41
1
10
-1.99503997793928
20
-14.9942845913974
30
0
41
1
10
-1.99503997793928
20
-15.070107125687
30
0
41
1
10
-1.99503997793928
20
-15.130016414734
30
0
41
1
10
-1.99503997793928
20
-15.1893946011099
30
0
41
1
10
-1.99503997793928
20
-15.2918890331241
30
0
41
1
10
-1.99503997793928
20
-15.4056838559475
30
0
41
1
10
-1.99503997793928
20
-15.5163656330196
30
0
41
1
10
-1.99503997793928
20
-15.5977008570348
30
0
41
1
10
-1.99503997793928
20
-15.677384979663
30
0
41
1
10
-1.99503997793928
20
-15.781458474053
30
0
41
1
10
-1.99503997793928
20
-15.8820499896637
30
0
41
1
10
-1.99503997793928
20
-15.9793734967038
30
0
41
1
10
-1.99503997793928
20
-16.0506207879892
30
0
41
1
10
-1.99503997793928
20
-16.1201424632647
30
0
41
1
10
-1.99503997793928
20
-16.1879246525291
30
0
41
1
10
-1.99503997793928
20
-16.2539521307207
30
0
41
1
10
-1.99503997793928
20
-16.3182114280861
30
0
41
1
10
-1.99503997793928
20
-16.3806869997558
30
0
41
1
10
-1.99503997793928
20
-16.4616240235723
30
0
41
1
10
-1.99503997793928
20
-16.538824252381
30
0
41
1
10
-1.99503997793928
20
-16.6124299668847
30
0
41
1
10
-1.99503997793928
20
-16.6835453043615
30
0
41
1
10
-1.99503997793928
20
-16.7507930080793
30
0
41
1
10
-1.99503997793928
20
-16.8142877377232
30
0
41
1
10
-1.99503997793928
20
-16.8751872797734
30
0
41
1
10
-1.99503997793928
20
-16.9320728583858
30
0
41
1
10
-1.99503997793928
20
-16.9850205784631
30
0
41
1
10
-1.99503997793928
20
-17.0226788299273
30
0
41
1
10
-1.99503997793928
20
-17.0582791544304
30
0
41
1
10
-1.99503997793928
20
-17.1029924178939
30
0
41
1
10
-1.99503997793928
20
-17.1434240170936
30
0
41
1
10
-1.99503997793928
20
-17.1795896288677
30
0
41
1
10
-1.99503997793928
20
-17.204505416066
30
0
41
1
10
-1.99503997793928
20
-17.2271975480507
30
0
41
1
10
-1.99503997793928
20
-17.2476335178127
30
0
41
1
10
-1.99503997793928
20
-17.2657806121613
30
0
41
1
10
-1.99503997793928
20
-17.2816041393821
30
0
41
1
10
-1.99503997793928
20
-17.2950677779805
30
0
41
1
10
-1.99503997793928
20
-17.3061342543252
30
0
41
1
10
-1.99503997793928
20
-17.3147637210185
30
0
41
1
10
-1.99503997793928
20
-17.3189468712489
30
0
41
1
10
-1.99503997793928
20
-17.3206249513397
30
0
41
1
10
-1.99503997793926
20
-17.3206888258818
30
0
0
SPLINE
5
15B
100
AcDbEntity
8
SK1
62
256
6
ByLayer
370
18
48
1
60
0
100
AcDbSpline
70
4
71
3
72
107
73
103
40
0
40
0
40
0
40
0
40
0.0027087431761753
40
0.0112406780882857
40
0.0197726130003961
40
0.0283045479125065
40
0.0368364828246168
40
0.0453684177367272
40
0.0539003526488376
40
0.062432287560948
40
0.0709642224730584
40
0.0794961573851688
40
0.0965600272093895
40
0.11362389703361
40
0.130687766857831
40
0.139219701769941
40
0.147751636682052
40
0.156283571594162
40
0.164815506506273
40
0.173347441418383
40
0.181879376330493
40
0.198943246154714
40
0.216007115978935
40
0.224539050891045
40
0.233070985803156
40
0.241602920715266
40
0.250134855627376
40
0.258666790539487
40
0.267198725451597
40
0.284262595275818
40
0.292794530187928
40
0.301326465100039
40
0.31839033492426
40
0.33545420474848
40
0.343986139660591
40
0.352518074572701
40
0.369581944396922
40
0.378113879309032
40
0.386645814221143
40
0.395177749133253
40
0.403709684045363
40
0.420773553869584
40
0.429305488781695
40
0.437837423693805
40
0.446369358605915
40
0.454901293518026
40
0.471965163342246
40
0.480497098254357
40
0.489029033166467
40
0.497560968078578
40
0.506092902990688
40
0.523156772814909
40
0.531688707727019
40
0.54022064263913
40
0.54875257755124
40
0.55728451246335
40
0.574348382287571
40
0.582880317199681
40
0.591412252111792
40
0.595678219567847
40
0.599944187023902
40
0.608476121936013
40
0.625539991760233
40
0.634071926672344
40
0.642603861584454
40
0.651135796496565
40
0.659667731408675
40
0.676731601232896
40
0.685263536145006
40
0.693795471057116
40
0.702327405969227
40
0.710859340881337
40
0.719391275793448
40
0.727923210705558
40
0.736455145617668
40
0.744987080529779
40
0.762050950354
40
0.77058288526611
40
0.77911482017822
40
0.796178690002441
40
0.804710624914551
40
0.813242559826662
40
0.830306429650883
40
0.838838364562993
40
0.847370299475103
40
0.855902234387214
40
0.864434169299324
40
0.881498039123545
40
0.890029974035655
40
0.898561908947766
40
0.907093843859876
40
0.915625778771986
40
0.924157713684097
40
0.932689648596207
40
0.941221583508318
40
0.949753518420428
40
0.958285453332538
40
0.966817388244649
40
0.975349323156759
40
0.98388125806887
40
0.99241319298098
40
1
40
1
40
1
40
1
41
1
10
-0.394976888875277
20
-5.38678189578289
30
0
41
1
10
-0.394976888875277
20
-5.4065930765673
30
0
41
1
10
-0.394976888875277
20
-5.48871660168982
30
0
41
1
10
-0.394976888875277
20
-5.63252719489225
30
0
41
1
10
-0.394976888875277
20
-5.8174145162354
30
0
41
1
10
-0.394976888875277
20
-6.00101977124669
30
0
41
1
10
-0.394976888875277
20
-6.18333830919048
30
0
41
1
10
-0.394976888875277
20
-6.3643662218949
30
0
41
1
10
-0.394976888875277
20
-6.54409937286439
30
0
41
1
10
-0.394976888875277
20
-6.72253430941348
30
0
41
1
10
-0.394976888875277
20
-6.89966740060396
30
0
41
1
10
-0.394976888875277
20
-7.13420903787926
30
0
41
1
10
-0.394976888875277
20
-7.42389186204957
30
0
41
1
10
-0.394976888875277
20
-7.76637138106329
30
0
41
1
10
-0.394976888875277
20
-8.04728288344245
30
0
41
1
10
-0.394976888875277
20
-8.26952736598562
30
0
41
1
10
-0.394976888875277
20
-8.434820354761
30
0
41
1
10
-0.394976888875277
20
-8.59878513137221
30
0
41
1
10
-0.394976888875277
20
-8.76141979186249
30
0
41
1
10
-0.394976888875277
20
-8.922721214403
30
0
41
1
10
-0.394976888875277
20
-9.1360908691222
30
0
41
1
10
-0.394976888875277
20
-9.39928045092248
30
0
41
1
10
-0.394976888875277
20
-9.65799296546987
30
0
41
1
10
-0.394976888875277
20
-9.86240080704218
30
0
41
1
10
-0.394976888875277
20
-10.0143015815252
30
0
41
1
10
-0.394976888875277
20
-10.1648480067744
30
0
41
1
10
-0.394976888875277
20
-10.3140380843155
30
0
41
1
10
-0.394976888875277
20
-10.4618684189216
30
0
41
1
10
-0.394976888875277
20
-10.6572263081632
30
0
41
1
10
-0.394976888875277
20
-10.8496518506122
30
0
41
1
10
-0.394976888875277
20
-11.0395280782787
30
0
41
1
10
-0.394976888875277
20
-11.2275701299333
30
0
41
1
10
-0.394976888875277
20
-11.4590305143918
30
0
41
1
10
-0.394976888875277
20
-11.685867652055
30
0
41
1
10
-0.394976888875277
20
-11.864654349678
30
0
41
1
10
-0.394976888875277
20
-12.0415756040849
30
0
41
1
10
-0.394976888875277
20
-12.2155153161813
30
0
41
1
10
-0.394976888875277
20
-12.3868007979199
30
0
41
1
10
-0.394976888875277
20
-12.5138050519686
30
0
41
1
10
-0.394976888875277
20
-12.6393872302303
30
0
41
1
10
-0.394976888875277
20
-12.8049814458532
30
0
41
1
10
-0.394976888875277
20
-12.9675509360494
30
0
41
1
10
-0.394976888875277
20
-13.1273919665529
30
0
41
1
10
-0.394976888875277
20
-13.2457849051211
30
0
41
1
10
-0.394976888875277
20
-13.3627236547323
30
0
41
1
10
-0.394976888875277
20
-13.5167448476072
30
0
41
1
10
-0.394976888875277
20
-13.6676860552913
30
0
41
1
10
-0.394976888875277
20
-13.8158144768541
30
0
41
1
10
-0.394976888875277
20
-13.9253889718329
30
0
41
1
10
-0.394976888875277
20
-14.0334711580348
30
0
41
1
10
-0.394976888875277
20
-14.1756274475866
30
0
41
1
10
-0.394976888875277
20
-14.3146351237356
30
0
41
1
10
-0.394976888875277
20
-14.4507333681675
30
0
41
1
10
-0.394976888875277
20
-14.5512443837086
30
0
41
1
10
-0.394976888875277
20
-14.6502180419884
30
0
41
1
10
-0.394976888875277
20
-14.780164253239
30
0
41
1
10
-0.394976888875277
20
-14.9068780878822
30
0
41
1
10
-0.394976888875277
20
-15.0305708978545
30
0
41
1
10
-0.394976888875277
20
-15.1065165223896
30
0
41
1
10
-0.394976888875277
20
-15.1665127141503
30
0
41
1
10
-0.394976888875277
20
-15.2259771214207
30
0
41
1
10
-0.394976888875277
20
-15.3286250474485
30
0
41
1
10
-0.394976888875277
20
-15.4426196109061
30
0
41
1
10
-0.394976888875277
20
-15.5534637367265
30
0
41
1
10
-0.394976888875277
20
-15.6349267624759
30
0
41
1
10
-0.394976888875277
20
-15.7147364921469
30
0
41
1
10
-0.394976888875277
20
-15.8189643831875
30
0
41
1
10
-0.394976888875277
20
-15.9197362187748
30
0
41
1
10
-0.394976888875277
20
-16.0172057969154
30
0
41
1
10
-0.394976888875277
20
-16.0885678110446
30
0
41
1
10
-0.394976888875277
20
-16.1582019472912
30
0
41
1
10
-0.394976888875277
20
-16.2260943811825
30
0
41
1
10
-0.394976888875277
20
-16.2922298358683
30
0
41
1
10
-0.394976888875277
20
-16.3565947902754
30
0
41
1
10
-0.394976888875277
20
-16.4191737297992
30
0
41
1
10
-0.394976888875277
20
-16.5002370830775
30
0
41
1
10
-0.394976888875277
20
-16.5775834628441
30
0
41
1
10
-0.394976888875277
20
-16.6513062771915
30
0
41
1
10
-0.394976888875277
20
-16.7225357579897
30
0
41
1
10
-0.394976888875277
20
-16.7899145981056
30
0
41
1
10
-0.394976888875277
20
-16.8535135500206
30
0
41
1
10
-0.394976888875277
20
-16.9145141001581
30
0
41
1
10
-0.394976888875277
20
-16.9715145305624
30
0
41
1
10
-0.394976888875277
20
-17.024552403858
30
0
41
1
10
-0.394976888875277
20
-17.0622798511847
30
0
41
1
10
-0.394976888875277
20
-17.0979462837243
30
0
41
1
10
-0.394976888875277
20
-17.1427382787905
30
0
41
1
10
-0.394976888875277
20
-17.1832568369982
30
0
41
1
10
-0.394976888875277
20
-17.2194882612007
30
0
41
1
10
-0.394976888875277
20
-17.2444531170066
30
0
41
1
10
-0.394976888875277
20
-17.2671905287463
30
0
41
1
10
-0.394976888875277
20
-17.2876678382251
30
0
41
1
10
-0.394976888875277
20
-17.3058521626298
30
0
41
1
10
-0.394976888875277
20
-17.3217086355548
30
0
41
1
10
-0.394976888875277
20
-17.3352007360526
30
0
41
1
10
-0.394976888875277
20
-17.3462909802274
30
0
41
1
10
-0.394976888875277
20
-17.3549392880652
30
0
41
1
10
-0.394976888875277
20
-17.3611046305144
30
0
41
1
10
-0.394976888875277
20
-17.3647432146661
30
0
41
1
10
-0.394976888875277
20
-17.3658102005923
30
0
41
1
10
-0.394976888875277
20
-17.3643150510871
30
0
41
1
10
-0.394976888875277
20
-17.3617494020571
30
0
41
1
10
-0.394976888875277
20
-17.3601838593462
30
0
0
SPLINE
5
15C
100
AcDbEntity
8
SK1
62
256
6
ByLayer
370
18
48
1
60
0
100
AcDbSpline
70
4
71
3
72
106
73
102
40
0
40
0
40
0
40
0
40
0.0075864940418979
40
0.0161184317726413
40
0.0246503695033847
40
0.0331823072341281
40
0.0417142449648715
40
0.0502461826956149
40
0.0587781204263583
40
0.0673100581571017
40
0.0758419958878451
40
0.0843739336185885
40
0.0929058713493319
40
0.101437809080075
40
0.109969746810819
40
0.118501684541562
40
0.135565560003049
40
0.144097497733792
40
0.152629435464536
40
0.161161373195279
40
0.169693310926022
40
0.186757186387509
40
0.195289124118253
40
0.203821061848996
40
0.220884937310483
40
0.229416875041226
40
0.23794881277197
40
0.255012688233457
40
0.2635446259642
40
0.272076563694943
40
0.280608501425687
40
0.28914043915643
40
0.297672376887174
40
0.306204314617917
40
0.31473625234866
40
0.323268190079404
40
0.340332065540891
40
0.348864003271634
40
0.357395941002377
40
0.365927878733121
40
0.374459816463864
40
0.391523691925351
40
0.400055629656094
40
0.408587567386838
40
0.417119505117581
40
0.425651442848325
40
0.442715318309811
40
0.451247256040555
40
0.459779193771298
40
0.468311131502042
40
0.476843069232785
40
0.493906944694272
40
0.502438882425015
40
0.510970820155759
40
0.519502757886502
40
0.528034695617245
40
0.545098571078732
40
0.553630508809476
40
0.562162446540219
40
0.570694384270962
40
0.579226322001706
40
0.596290197463193
40
0.604822135193936
40
0.613354072924679
40
0.621886010655423
40
0.630417948386166
40
0.647481823847653
40
0.656013761578397
40
0.66454569930914
40
0.681609574770627
40
0.698673450232113
40
0.707205387962857
40
0.7157373256936
40
0.732801201155087
40
0.741333138885831
40
0.749865076616574
40
0.758397014347317
40
0.766928952078061
40
0.775460889808804
40
0.783992827539548
40
0.801056703001034
40
0.818120578462521
40
0.826652516193265
40
0.835184453924008
40
0.843716391654751
40
0.852248329385495
40
0.860780267116238
40
0.869312204846982
40
0.886376080308468
40
0.903439955769955
40
0.920503831231442
40
0.929035768962185
40
0.937567706692929
40
0.946099644423672
40
0.954631582154416
40
0.963163519885159
40
0.971695457615902
40
0.980227395346646
40
0.988759333077389
40
0.997291270808133
40
1
40
1
40
1
40
1
41
1
10
-0.394976888875277
20
17.3601838879844
30
0
41
1
10
-0.394976888875277
20
17.3617494125379
30
0
41
1
10
-0.394976888875277
20
17.3643151423885
30
0
41
1
10
-0.394976888875277
20
17.3658104187982
30
0
41
1
10
-0.394976888875277
20
17.364743357607
30
0
41
1
10
-0.394976888875277
20
17.3611046370287
30
0
41
1
10
-0.394976888875277
20
17.3549392673806
30
0
41
1
10
-0.394976888875277
20
17.3462909837355
30
0
41
1
10
-0.394976888875277
20
17.3352007293143
30
0
41
1
10
-0.394976888875277
20
17.3217086001335
30
0
41
1
10
-0.394976888875277
20
17.3058521283006
30
0
41
1
10
-0.394976888875277
20
17.2876678324761
30
0
41
1
10
-0.394976888875277
20
17.267190526317
30
0
41
1
10
-0.394976888875277
20
17.2444530966284
30
0
41
1
10
-0.394976888875277
20
17.2194882282903
30
0
41
1
10
-0.394976888875277
20
17.1832568130363
30
0
41
1
10
-0.394976888875277
20
17.1427382851614
30
0
41
1
10
-0.394976888875277
20
17.0979462613767
30
0
41
1
10
-0.394976888875277
20
17.0622798138473
30
0
41
1
10
-0.394976888875277
20
17.0245523789023
30
0
41
1
10
-0.394976888875277
20
16.9715145338597
30
0
41
1
10
-0.394976888875277
20
16.9145140859045
30
0
41
1
10
-0.394976888875277
20
16.8535135157982
30
0
41
1
10
-0.394976888875277
20
16.7899145739052
30
0
41
1
10
-0.394976888875277
20
16.7225357594453
30
0
41
1
10
-0.394976888875277
20
16.6513062647865
30
0
41
1
10
-0.394976888875277
20
16.577583428992
30
0
41
1
10
-0.394976888875277
20
16.5002370605308
30
0
41
1
10
-0.394976888875277
20
16.4191737242595
30
0
41
1
10
-0.394976888875277
20
16.3565947837564
30
0
41
1
10
-0.394976888875277
20
16.2922298184193
30
0
41
1
10
-0.394976888875277
20
16.2260943534788
30
0
41
1
10
-0.394976888875277
20
16.1582019227301
30
0
41
1
10
-0.394976888875277
20
16.0885677968918
30
0
41
1
10
-0.394976888875277
20
16.0172057910894
30
0
41
1
10
-0.394976888875277
20
15.9197362080175
30
0
41
1
10
-0.394976888875277
20
15.8189643575456
30
0
41
1
10
-0.394976888875277
20
15.7147364711228
30
0
41
1
10
-0.394976888875277
20
15.6349267495635
30
0
41
1
10
-0.394976888875277
20
15.553463729323
30
0
41
1
10
-0.394976888875277
20
15.4426195996911
30
0
41
1
10
-0.394976888875277
20
15.3286250260664
30
0
41
1
10
-0.394976888875277
20
15.2112966721243
30
0
41
1
10
-0.394976888875277
20
15.1217290697223
30
0
41
1
10
-0.394976888875277
20
15.0305709686995
30
0
41
1
10
-0.394976888875277
20
14.906878048735
30
0
41
1
10
-0.394976888875277
20
14.7801642402503
30
0
41
1
10
-0.394976888875277
20
14.6502180265082
30
0
41
1
10
-0.394976888875277
20
14.5512443698349
30
0
41
1
10
-0.394976888875277
20
14.4507333574048
30
0
41
1
10
-0.394976888875277
20
14.3146351144528
30
0
41
1
10
-0.394976888875277
20
14.1756274353422
30
0
41
1
10
-0.394976888875277
20
14.0334711437704
30
0
41
1
10
-0.394976888875277
20
13.9253889575191
30
0
41
1
10
-0.394976888875277
20
13.8158144643309
30
0
41
1
10
-0.394976888875277
20
13.6676860465324
30
0
41
1
10
-0.394976888875277
20
13.5167448397425
30
0
41
1
10
-0.394976888875277
20
13.3627236430939
30
0
41
1
10
-0.394976888875277
20
13.2457848907918
30
0
41
1
10
-0.394976888875277
20
13.127391952352
30
0
41
1
10
-0.394976888875277
20
12.9675509274721
30
0
41
1
10
-0.394976888875277
20
12.8049814419576
30
0
41
1
10
-0.394976888875277
20
12.6393872212047
30
0
41
1
10
-0.394976888875277
20
12.5138050377602
30
0
41
1
10
-0.394976888875277
20
12.3868007822861
30
0
41
1
10
-0.394976888875277
20
12.2155153079022
30
0
41
1
10
-0.394976888875277
20
12.0415756036957
30
0
41
1
10
-0.394976888875277
20
11.8646543426879
30
0
41
1
10
-0.394976888875277
20
11.6858676336886
30
0
41
1
10
-0.394976888875277
20
11.4590305058839
30
0
41
1
10
-0.394976888875277
20
11.2275701322441
30
0
41
1
10
-0.394976888875277
20
11.0395280715927
30
0
41
1
10
-0.394976888875277
20
10.8496518299165
30
0
41
1
10
-0.394976888875277
20
10.6572262982852
30
0
41
1
10
-0.394976888875277
20
10.4618684218406
30
0
41
1
10
-0.394976888875277
20
10.3140380853821
30
0
41
1
10
-0.394976888875277
20
10.1648479968029
30
0
41
1
10
-0.394976888875277
20
10.0143015620689
30
0
41
1
10
-0.394976888875277
20
9.86240079247779
30
0
41
1
10
-0.394976888875277
20
9.65799297250354
30
0
41
1
10
-0.394976888875277
20
9.3992804435735
30
0
41
1
10
-0.394976888875277
20
9.13609084815204
30
0
41
1
10
-0.394976888875277
20
8.92272120904667
30
0
41
1
10
-0.394976888875277
20
8.76141979935898
30
0
41
1
10
-0.394976888875277
20
8.59878513251641
30
0
41
1
10
-0.394976888875277
20
8.43482033812748
30
0
41
1
10
-0.394976888875277
20
8.26952734508268
30
0
41
1
10
-0.394976888875277
20
8.04728288893983
30
0
41
1
10
-0.394976888875277
20
7.76637137475095
30
0
41
1
10
-0.394976888875277
20
7.42389184310318
30
0
41
1
10
-0.394976888875277
20
7.13420904829047
30
0
41
1
10
-0.394976888875277
20
6.89966739484251
30
0
41
1
10
-0.394976888875277
20
6.7225342898117
30
0
41
1
10
-0.394976888875277
20
6.54409938064705
30
0
41
1
10
-0.394976888875277
20
6.36436626337326
30
0
41
1
10
-0.394976888875277
20
6.18333822517317
30
0
41
1
10
-0.394976888875277
20
6.0010194773844
30
0
41
1
10
-0.394976888875277
20
5.81741425905383
30
0
41
1
10
-0.394976888875277
20
5.63252720020009
30
0
41
1
10
-0.394976888875277
20
5.48871675629277
30
0
41
1
10
-0.394976888875277
20
5.40659331253005
30
0
41
1
10
-0.394976888875277
20
5.38678223324203
30
0
0
SPLINE
5
15D
100
AcDbEntity
8
1
62
256
6
ByLayer
370
18
48
1
60
0
100
AcDbSpline
70
4
71
3
72
10
73
6
40
0
40
0
40
0
40
0
40
0.409370725354944
40
0.409370725354944
40
1
40
1
40
1
40
1
41
1
10
30.0181604752326
20
13.3121180861752
30
0
41
1
10
29.8651405621989
20
13.3330241594726
30
0
41
1
10
29.7070567815958
20
13.3474753439397
30
0
41
1
10
29.3091064748737
20
13.3614188466407
30
0
41
1
10
29.0623494352876
20
13.3509173076901
30
0
41
1
10
28.8141162176973
20
13.3142721511196
30
0
0
SPLINE
5
15E
100
AcDbEntity
8
SK1
62
256
6
ByLayer
370
18
48
1
60
0
100
AcDbSpline
70
4
71
3
72
288
73
284
40
0
40
0
40
0
40
0
40
0.0022851245555096
40
0.0057901651236899
40
0.0092952056918701
40
0.0128002462600504
40
0.0163052868282307
40
0.0198103273964109
40
0.0233153679645912
40
0.0268204085327715
40
0.0303254491009517
40
0.033830489669132
40
0.0373355302373123
40
0.0408405708054926
40
0.0443456113736729
40
0.0513556925100334
40
0.0548607330782137
40
0.0583657736463939
40
0.0618708142145742
40
0.0653758547827545
40
0.072385935919115
40
0.0758909764872953
40
0.0793960170554756
40
0.0864060981918361
40
0.0899111387600163
40
0.0934161793281966
40
0.100426260464557
40
0.103931301032737
40
0.107436341600918
40
0.110941382169098
40
0.114446422737278
40
0.117951463305459
40
0.121456503873639
40
0.124961544441819
40
0.128466585009999
40
0.13547666614636
40
0.13898170671454
40
0.142486747282721
40
0.145991787850901
40
0.149496828419081
40
0.156506909555441
40
0.160011950123622
40
0.163516990691802
40
0.167022031259982
40
0.170527071828163
40
0.177537152964523
40
0.181042193532703
40
0.184547234100884
40
0.188052274669064
40
0.191557315237244
40
0.198567396373605
40
0.202072436941785
40
0.205577477509965
40
0.209082518078146
40
0.212587558646326
40
0.219597639782687
40
0.223102680350867
40
0.226607720919047
40
0.230112761487227
40
0.233617802055407
40
0.240627883191768
40
0.244132923759948
40
0.247637964328129
40
0.251143004896309
40
0.254648045464489
40
0.26165812660085
40
0.26516316716903
40
0.26866820773721
40
0.275678288873571
40
0.282688370009931
40
0.286193410578112
40
0.289698451146292
40
0.296708532282652
40
0.300213572850833
40
0.303718613419013
40
0.307223653987193
40
0.310728694555373
40
0.314233735123554
40
0.317738775691734
40
0.324748856828095
40
0.331758937964455
40
0.335263978532635
40
0.338769019100816
40
0.342274059668996
40
0.345779100237176
40
0.349284140805357
40
0.352789181373537
40
0.359799262509897
40
0.366809343646258
40
0.373819424782618
40
0.377324465350799
40
0.380829505918979
40
0.384334546487159
40
0.387839587055339
40
0.39134462762352
40
0.3948496681917
40
0.39835470875988
40
0.401859749328061
40
0.405364789896241
40
0.408869830464421
40
0.412374871032601
40
0.415879911600782
40
0.419384952168962
40
0.422889992737142
40
0.426395033305323
40
0.429900073873503
40
0.433405114441683
40
0.435157634725773
40
0.436910155009863
40
0.438662675293953
40
0.440415195578043
40
0.443920236146224
40
0.447425276714404
40
0.449177796998494
40
0.450930317282584
40
0.452682837566674
40
0.454435357850765
40
0.456187878134855
40
0.457940398418945
40
0.461445438987125
40
0.463197959271215
40
0.464950479555305
40
0.466702999839396
40
0.468455520123486
40
0.470208040407576
40
0.471960560691666
40
0.473713080975756
40
0.475465601259846
40
0.477218121543936
40
0.478970641828027
40
0.480723162112117
40
0.482475682396207
40
0.484228202680297
40
0.485980722964387
40
0.487733243248477
40
0.489485763532567
40
0.491238283816657
40
0.492990804100748
40
0.494743324384838
40
0.496495844668928
40
0.498248364953018
40
0.500000885237108
40
0.501753405521198
40
0.503505925805289
40
0.505258446089379
40
0.507010966373469
40
0.508763486657559
40
0.510516006941649
40
0.512268527225739
40
0.514021047509829
40
0.515773567793919
40
0.517526088078009
40
0.5192786083621
40
0.52103112864619
40
0.52278364893028
40
0.52453616921437
40
0.52628868949846
40
0.52804120978255
40
0.52979373006664
40
0.53154625035073
40
0.533298770634821
40
0.535051290918911
40
0.536803811203001
40
0.538556331487091
40
0.540308851771181
40
0.542061372055272
40
0.543813892339362
40
0.545566412623452
40
0.549071453191632
40
0.550823973475722
40
0.552576493759812
40
0.556081534327992
40
0.559586574896173
40
0.561339095180263
40
0.563091615464353
40
0.564844135748443
40
0.566596656032533
40
0.570101696600714
40
0.573606737168894
40
0.577111777737074
40
0.580616818305254
40
0.584121858873434
40
0.587626899441615
40
0.591131940009795
40
0.594636980577976
40
0.598142021146156
40
0.601647061714336
40
0.605152102282516
40
0.608657142850697
40
0.612162183418877
40
0.615667223987057
40
0.619172264555237
40
0.622677305123418
40
0.626182345691598
40
0.633192426827958
40
0.640202507964319
40
0.64721258910068
40
0.65071762966886
40
0.65422267023704
40
0.65772771080522
40
0.661232751373401
40
0.664737791941581
40
0.668242832509761
40
0.675252913646122
40
0.682262994782482
40
0.685768035350662
40
0.689273075918843
40
0.692778116487023
40
0.696283157055203
40
0.699788197623384
40
0.703293238191564
40
0.710303319327925
40
0.713808359896105
40
0.717313400464285
40
0.724323481600646
40
0.731333562737006
40
0.734838603305186
40
0.738343643873366
40
0.745353725009727
40
0.748858765577907
40
0.752363806146088
40
0.755868846714268
40
0.759373887282448
40
0.766383968418809
40
0.769889008986989
40
0.773394049555169
40
0.77689909012335
40
0.78040413069153
40
0.78741421182789
40
0.790919252396071
40
0.794424292964251
40
0.797929333532431
40
0.801434374100611
40
0.808444455236972
40
0.811949495805152
40
0.815454536373333
40
0.818959576941513
40
0.822464617509693
40
0.829474698646054
40
0.832979739214234
40
0.836484779782414
40
0.838237300066504
40
0.839989820350594
40
0.843494860918775
40
0.850504942055135
40
0.854009982623316
40
0.857515023191496
40
0.861020063759676
40
0.864525104327856
40
0.871535185464217
40
0.875040226032397
40
0.878545266600577
40
0.882050307168758
40
0.885555347736938
40
0.889060388305118
40
0.892565428873298
40
0.896070469441479
40
0.899575510009659
40
0.90658559114602
40
0.9100906317142
40
0.91359567228238
40
0.920605753418741
40
0.924110793986921
40
0.927615834555101
40
0.934625915691462
40
0.938130956259642
40
0.941635996827822
40
0.945141037396002
40
0.948646077964183
40
0.955656159100544
40
0.959161199668724
40
0.962666240236904
40
0.966171280805084
40
0.969676321373265
40
0.973181361941445
40
0.976686402509625
40
0.980191443077805
40
0.983696483645986
40
0.987201524214166
40
0.990706564782346
40
0.994211605350526
40
0.997716645918707
40
1
40
1
40
1
40
1
41
1
10
-30
20
15.9926656744027
30
0
41
1
10
-30
20
15.9930575036574
30
0
41
1
10
-30
20
15.9936130015831
30
0
41
1
10
-30
20
15.992743696334
30
0
41
1
10
-30
20
15.9893850921089
30
0
41
1
10
-30
20
15.9836860314146
30
0
41
1
10
-30
20
15.9756808210229
30
0
41
1
10
-30
20
15.9654018084481
30
0
41
1
10
-30
20
15.9528811264941
30
0
41
1
10
-30
20
15.9381491278438
30
0
41
1
10
-30
20
15.9212355486336
30
0
41
1
10
-30
20
15.9021692443494
30
0
41
1
10
-30
20
15.8809772874923
30
0
41
1
10
-30
20
15.85768719628
30
0
41
1
10
-30
20
15.8237020449635
30
0
41
1
10
-30
20
15.786151572388
30
0
41
1
10
-30
20
15.7440467976174
30
0
41
1
10
-30
20
15.7106366986067
30
0
41
1
10
-30
20
15.6752710038507
30
0
41
1
10
-30
20
15.6253102414823
30
0
41
1
10
-30
20
15.5722298833996
30
0
41
1
10
-30
20
15.5146768571488
30
0
41
1
10
-30
20
15.454635155867
30
0
41
1
10
-30
20
15.3917322415494
30
0
41
1
10
-30
20
15.3243986601424
30
0
41
1
10
-30
20
15.2546726017927
30
0
41
1
10
-30
20
15.1823145630236
30
0
41
1
10
-30
20
15.1055630554725
30
0
41
1
10
-30
20
15.0465122402176
30
0
41
1
10
-30
20
14.985753516587
30
0
41
1
10
-30
20
14.9233034368069
30
0
41
1
10
-30
20
14.8591738020485
30
0
41
1
10
-30
20
14.7933781380804
30
0
41
1
10
-30
20
14.7259318150055
30
0
41
1
10
-30
20
14.6334478809413
30
0
41
1
10
-30
20
14.5388306139923
30
0
41
1
10
-30
20
14.4398724968665
30
0
41
1
10
-30
20
14.3643499358607
30
0
41
1
10
-30
20
14.2872489988171
30
0
41
1
10
-30
20
14.1819460940194
30
0
41
1
10
-30
20
14.0747689624993
30
0
41
1
10
-30
20
13.9632604256822
30
0
41
1
10
-30
20
13.8784200007502
30
0
41
1
10
-30
20
13.7920640526129
30
0
41
1
10
-30
20
13.674463030797
30
0
41
1
10
-30
20
13.5552283874056
30
0
41
1
10
-30
20
13.4316550911985
30
0
41
1
10
-30
20
13.337853067095
30
0
41
1
10
-30
20
13.2425907988595
30
0
41
1
10
-30
20
13.1131460860381
30
0
41
1
10
-30
20
12.9822967545723
30
0
41
1
10
-30
20
12.847084683004
30
0
41
1
10
-30
20
12.7446351532221
30
0
41
1
10
-30
20
12.6407746180399
30
0
41
1
10
-30
20
12.499887311655
30
0
41
1
10
-30
20
12.3578191289812
30
0
41
1
10
-30
20
12.2113468162578
30
0
41
1
10
-30
20
12.100530667573
30
0
41
1
10
-30
20
11.9883478761207
30
0
41
1
10
-30
20
11.836377249174
30
0
41
1
10
-30
20
11.6834503922585
30
0
41
1
10
-30
20
11.5260594948948
30
0
41
1
10
-30
20
11.4071324366749
30
0
41
1
10
-30
20
11.2868794886981
30
0
41
1
10
-30
20
11.1241532157817
30
0
41
1
10
-30
20
10.9607029988619
30
0
41
1
10
-30
20
10.7927086404326
30
0
41
1
10
-30
20
10.6229844866849
30
0
41
1
10
-30
20
10.4091173939315
30
0
41
1
10
-30
20
10.1909959678347
30
0
41
1
10
-30
20
10.0126979588287
30
0
41
1
10
-30
20
9.83272430289384
30
0
41
1
10
-30
20
9.65245023276196
30
0
41
1
10
-30
20
9.46744871362009
30
0
41
1
10
-30
20
9.32804093460692
30
0
41
1
10
-30
20
9.18740563851225
30
0
41
1
10
-30
20
9.0455543785921
30
0
41
1
10
-30
20
8.90249044231982
30
0
41
1
10
-30
20
8.70931958714519
30
0
41
1
10
-30
20
8.46674616603482
30
0
41
1
10
-30
20
8.22021686294167
30
0
41
1
10
-30
20
8.01906836645577
30
0
41
1
10
-30
20
7.86773085832669
30
0
41
1
10
-30
20
7.71524241280142
30
0
41
1
10
-30
20
7.56161298420645
30
0
41
1
10
-30
20
7.40685260452798
30
0
41
1
10
-30
20
7.19804202206524
30
0
41
1
10
-30
20
6.93651252502835
30
0
41
1
10
-30
20
6.61705894701072
30
0
41
1
10
-30
20
6.34834996432815
30
0
41
1
10
-30
20
6.12929373929515
30
0
41
1
10
-30
20
5.96484945115367
30
0
41
1
10
-30
20
5.7993974381898
30
0
41
1
10
-30
20
5.63295542814623
30
0
41
1
10
-30
20
5.46554083189747
30
0
41
1
10
-30
20
5.29717335727497
30
0
41
1
10
-30
20
5.12787591307327
30
0
41
1
10
-30
20
4.9576706384986
30
0
41
1
10
-30
20
4.78658071628462
30
0
41
1
10
-30
20
4.6146335506248
30
0
41
1
10
-30
20
4.44186113006069
30
0
41
1
10
-30
20
4.26829321973949
30
0
41
1
10
-30
20
4.09396155182321
30
0
41
1
10
-30
20
3.91890592173868
30
0
41
1
10
-30
20
3.74316620306936
30
0
41
1
10
-30
20
3.56678705857649
30
0
41
1
10
-30
20
3.42015123791836
30
0
41
1
10
-30
20
3.3009810984795
30
0
41
1
10
-30
20
3.21216327477833
30
0
41
1
10
-30
20
3.12322377081893
30
0
41
1
10
-30
20
3.00356413190352
30
0
41
1
10
-30
20
2.85589664233001
30
0
41
1
10
-30
20
2.70788037697056
30
0
41
1
10
-30
20
2.58749550859633
30
0
41
1
10
-30
20
2.49793822974365
30
0
41
1
10
-30
20
2.40833000131903
30
0
41
1
10
-30
20
2.31867596083526
30
0
41
1
10
-30
20
2.22899146909501
30
0
41
1
10
-30
20
2.10827328924756
30
0
41
1
10
-30
20
1.99097459417121
30
0
41
1
10
-30
20
1.87012467714987
30
0
41
1
10
-30
20
1.78043031683035
30
0
41
1
10
-30
20
1.69076251244053
30
0
41
1
10
-30
20
1.60113247848605
30
0
41
1
10
-30
20
1.51155313609783
30
0
41
1
10
-30
20
1.422025757727
30
0
41
1
10
-30
20
1.33256776537959
30
0
41
1
10
-30
20
1.24317741509074
30
0
41
1
10
-30
20
1.15386860885192
30
0
41
1
10
-30
20
1.06464013673647
30
0
41
1
10
-30
20
0.975500136218244
30
0
41
1
10
-30
20
0.886447988926847
30
0
41
1
10
-30
20
0.797485776681128
30
0
41
1
10
-30
20
0.708610852102623
30
0
41
1
10
-30
20
0.61982073744278
30
0
41
1
10
-30
20
0.531109764951253
30
0
41
1
10
-30
20
0.442471434007643
30
0
41
1
10
-30
20
0.35389600796347
30
0
41
1
10
-30
20
0.265373879214224
30
0
41
1
10
-30
20
0.176892371692162
30
0
41
1
10
-30
20
0.0884392148653887
30
0
41
1
10
-30
20
2.04973958E-08
30
0
41
1
10
-30
20
-0.0884392031952927
30
0
41
1
10
-30
20
-0.17689241471993
30
0
41
1
10
-30
20
-0.265373915570137
30
0
41
1
10
-30
20
-0.353895962579486
30
0
41
1
10
-30
20
-0.442471374506823
30
0
41
1
10
-30
20
-0.531109813902646
30
0
41
1
10
-30
20
-0.61982082298212
30
0
41
1
10
-30
20
-0.70861080655007
30
0
41
1
10
-30
20
-0.797485667180155
30
0
41
1
10
-30
20
-0.886448026006832
30
0
41
1
10
-30
20
-0.97550027278379
30
0
41
1
10
-30
20
-1.06464012636249
30
0
41
1
10
-30
20
-1.1538684580087
30
0
41
1
10
-30
20
-1.24317738635406
30
0
41
1
10
-30
20
-1.33256791795026
30
0
41
1
10
-30
20
-1.42202585063245
30
0
41
1
10
-30
20
-1.5115530207047
30
0
41
1
10
-30
20
-1.60113232466117
30
0
41
1
10
-30
20
-1.69076256252157
30
0
41
1
10
-30
20
-1.78043050963589
30
0
41
1
10
-30
20
-1.87012473193457
30
0
41
1
10
-30
20
-1.95984062320625
30
0
41
1
10
-30
20
-2.04956121840735
30
0
41
1
10
-30
20
-2.13928298465069
30
0
41
1
10
-30
20
-2.22899154181985
30
0
41
1
10
-30
20
-2.34971237639812
30
0
41
1
10
-30
20
-2.4670581044816
30
0
41
1
10
-30
20
-2.58749567267543
30
0
41
1
10
-30
20
-2.70788056755165
30
0
41
1
10
-30
20
-2.85589666602098
30
0
41
1
10
-30
20
-3.00356394920902
30
0
41
1
10
-30
20
-3.12322374659235
30
0
41
1
10
-30
20
-3.21216341650842
30
0
41
1
10
-30
20
-3.3009812939207
30
0
41
1
10
-30
20
-3.4201512431562
30
0
41
1
10
-30
20
-3.56678672363677
30
0
41
1
10
-30
20
-3.74316585626101
30
0
41
1
10
-30
20
-3.91890584757377
30
0
41
1
10
-30
20
-4.09396100129445
30
0
41
1
10
-30
20
-4.26829259541552
30
0
41
1
10
-30
20
-4.44186183082067
30
0
41
1
10
-30
20
-4.61463414914383
30
0
41
1
10
-30
20
-4.78658021025493
30
0
41
1
10
-30
20
-4.95767123056282
30
0
41
1
10
-30
20
-5.1278778625566
30
0
41
1
10
-30
20
-5.29717415068043
30
0
41
1
10
-30
20
-5.46553992297876
30
0
41
1
10
-30
20
-5.63295448869491
30
0
41
1
10
-30
20
-5.79939725011727
30
0
41
1
10
-30
20
-5.96484950556561
30
0
41
1
10
-30
20
-6.1292936535483
30
0
41
1
10
-30
20
-6.34834993475852
30
0
41
1
10
-30
20
-6.6170590196507
30
0
41
1
10
-30
20
-6.93651248001379
30
0
41
1
10
-30
20
-7.19804203228608
30
0
41
1
10
-30
20
-7.40685270744595
30
0
41
1
10
-30
20
-7.56161297986856
30
0
41
1
10
-30
20
-7.71524232371232
30
0
41
1
10
-30
20
-7.86773082006812
30
0
41
1
10
-30
20
-8.01906843480592
30
0
41
1
10
-30
20
-8.22021692135615
30
0
41
1
10
-30
20
-8.46674612315107
30
0
41
1
10
-30
20
-8.7093195790371
30
0
41
1
10
-30
20
-8.90249052457438
30
0
41
1
10
-30
20
-9.04555441784282
30
0
41
1
10
-30
20
-9.18740560593943
30
0
41
1
10
-30
20
-9.32804088163152
30
0
41
1
10
-30
20
-9.46744870809565
30
0
41
1
10
-30
20
-9.65245029192155
30
0
41
1
10
-30
20
-9.83272433616031
30
0
41
1
10
-30
20
-10.0126979221092
30
0
41
1
10
-30
20
-10.1909959517429
30
0
41
1
10
-30
20
-10.4091174330404
30
0
41
1
10
-30
20
-10.6229845090751
30
0
41
1
10
-30
20
-10.7927086151923
30
0
41
1
10
-30
20
-10.9607029915804
30
0
41
1
10
-30
20
-11.1241532476502
30
0
41
1
10
-30
20
-11.286879520772
30
0
41
1
10
-30
20
-11.4071324437642
30
0
41
1
10
-30
20
-11.526059483736
30
0
41
1
10
-30
20
-11.6834503898541
30
0
41
1
10
-30
20
-11.8363772717575
30
0
41
1
10
-30
20
-11.9883479026383
30
0
41
1
10
-30
20
-12.100530681097
30
0
41
1
10
-30
20
-12.211346817793
30
0
41
1
10
-30
20
-12.3578191303265
30
0
41
1
10
-30
20
-12.4998873251013
30
0
41
1
10
-30
20
-12.640774639564
30
0
41
1
10
-30
20
-12.7446351726738
30
0
41
1
10
-30
20
-12.8470846962099
30
0
41
1
10
-30
20
-12.9822967603461
30
0
41
1
10
-30
20
-13.1131460918651
30
0
41
1
10
-30
20
-13.2425908150843
30
0
41
1
10
-30
20
-13.3378530905647
30
0
41
1
10
-30
20
-13.431655102243
30
0
41
1
10
-30
20
-13.5552284439381
30
0
41
1
10
-30
20
-13.6744629632361
30
0
41
1
10
-30
20
-13.7920640428987
30
0
41
1
10
-30
20
-13.8638084100541
30
0
41
1
10
-30
20
-13.9208384799595
30
0
41
1
10
-30
20
-13.9773600368974
30
0
41
1
10
-30
20
-14.0747689786766
30
0
41
1
10
-30
20
-14.1819460903518
30
0
41
1
10
-30
20
-14.2872490063531
30
0
41
1
10
-30
20
-14.3643499644422
30
0
41
1
10
-30
20
-14.4398725346097
30
0
41
1
10
-30
20
-14.5388306330265
30
0
41
1
10
-30
20
-14.6334478734244
30
0
41
1
10
-30
20
-14.7259318226356
30
0
41
1
10
-30
20
-14.793378171537
30
0
41
1
10
-30
20
-14.8591738437125
30
0
41
1
10
-30
20
-14.9233034607296
30
0
41
1
10
-30
20
-14.9857535133679
30
0
41
1
10
-30
20
-15.0465122321639
30
0
41
1
10
-30
20
-15.1055630695376
30
0
41
1
10
-30
20
-15.1823146060513
30
0
41
1
10
-30
20
-15.2546726312332
30
0
41
1
10
-30
20
-15.3243986497297
30
0
41
1
10
-30
20
-15.3917322452796
30
0
41
1
10
-30
20
-15.4546352005829
30
0
41
1
10
-30
20
-15.5146768877911
30
0
41
1
10
-30
20
-15.5722298782127
30
0
41
1
10
-30
20
-15.6253102421943
30
0
41
1
10
-30
20
-15.6752710489662
30
0
41
1
10
-30
20
-15.7106367362118
30
0
41
1
10
-30
20
-15.7440468008705
30
0
41
1
10
-30
20
-15.7861515665346
30
0
41
1
10
-30
20
-15.8237020814765
30
0
41
1
10
-30
20
-15.8576872273509
30
0
41
1
10
-30
20
-15.8809772969169
30
0
41
1
10
-30
20
-15.9021692417172
30
0
41
1
10
-30
20
-15.921235563756
30
0
41
1
10
-30
20
-15.9381491696965
30
0
41
1
10
-30
20
-15.9528811556007
30
0
41
1
10
-30
20
-15.9654018081648
30
0
41
1
10
-30
20
-15.9756808201301
30
0
41
1
10
-30
20
-15.9836860510364
30
0
41
1
10
-30
20
-15.989385071505
30
0
41
1
10
-30
20
-15.992743547039
30
0
41
1
10
-30
20
-15.9936126295468
30
0
41
1
10
-30
20
-15.993057690366
30
0
41
1
10
-30
20
-15.992666462708
30
0
0
SPLINE
5
15F
100
AcDbEntity
8
1
62
256
6
ByLayer
370
18
48
1
60
0
100
AcDbSpline
70
4
71
3
72
8
73
4
40
0
40
0
40
0
40
0
40
1
40
1
40
1
40
1
41
1
10
49.2233133931387
20
1.28287978977141
30
0
41
1
10
49.1784083147868
20
1.35571313779951
30
0
41
1
10
49.1315220171555
20
1.42499935320893
30
0
41
1
10
49.0835866096422
20
1.48962104860328
30
0
0
SPLINE
5
160
100
AcDbEntity
8
1
62
256
6
ByLayer
370
18
48
1
60
0
100
AcDbSpline
70
4
71
3
72
8
73
4
40
0
40
0
40
0
40
0
40
1
40
1
40
1
40
1
41
1
10
32.5005948214563
20
1.04548345613196
30
0
41
1
10
31.6318297422641
20
1.34065246587414
30
0
41
1
10
30.9328998482687
20
1.93699149802788
30
0
41
1
10
30.5024577643061
20
2.70072058997886
30
0
0
SPLINE
5
161
100
AcDbEntity
8
1
62
256
6
ByLayer
370
18
48
1
60
0
100
AcDbSpline
70
4
71
3
72
10
73
6
40
0
40
0
40
0
40
0
40
0.5
40
0.5
40
1
40
1
40
1
40
1
41
1
10
48.4737044648197
20
2.65781218844151
30
0
41
1
10
47.9793799696168
20
3.20354495470699
30
0
41
1
10
47.467769797139
20
3.4020471451818
30
0
41
1
10
46.6189846893925
20
3.36354322219876
30
0
41
1
10
46.2535895922949
20
3.15769233167291
30
0
41
1
10
45.9196296213406
20
2.89301012111414
30
0
0
SPLINE
5
162
100
AcDbEntity
8
1
62
256
6
ByLayer
370
18
48
1
60
0
100
AcDbSpline
70
4
71
3
72
15
73
11
40
0
40
0
40
0
40
0
40
0.227604479949748
40
0.227604479949748
40
0.479423709218441
40
0.479423709218441
40
0.785574270382838
40
0.785574270382838
40
0.785574270382838
40
1
40
1
40
1
40
1
41
1
10
39.2304611122007
20
1.89896686229082
30
0
41
1
10
39.0381108738649
20
1.6186010283399
30
0
41
1
10
38.799207561279
20
1.36220042350027
30
0
41
1
10
38.2404787218162
20
0.903248387449906
30
0
41
1
10
37.9088142635424
20
0.703246826981342
30
0
41
1
10
37.1391845409976
20
0.365518583929003
30
0
41
1
10
36.6828337970597
20
0.245203689562032
30
0
41
1
10
36.2250766831372
20
0.197674461337073
30
0
41
1
10
35.9024919770797
20
0.164180274901156
30
0
41
1
10
35.5747080418734
20
0.166377009894006
30
0
41
1
10
35.2531405708709
20
0.205301627862894
30
0
0
SPLINE
5
163
100
AcDbEntity
8
1
62
256
6
ByLayer
370
18
48
1
60
0
100
AcDbSpline
70
4
71
3
72
12
73
8
40
0
40
0
40
0
40
0
40
0.108853988607133
40
0.502629237162306
40
0.699516861439893
40
0.89640448571748
40
1
40
1
40
1
40
1
41
1.02441262532206
10
39.2304611122007
20
1.89896686229083
30
0
41
1.02394775682001
10
39.556181431864
20
1.8146790348468
30
0
41
1.02173322384668
10
41.097788307089
20
1.42022682041084
30
0
41
1.01876555595691
10
43.2608892849134
20
0.890139365331937
30
0
41
1.01610930227499
10
44.707370793095
20
0.551349753401653
30
0
41
1.01814069306376
10
45.3461930155006
20
0.305568246716251
30
0
41
1.02005196006971
10
45.9188457624591
20
0.10343728427798
30
0
41
1.02076673234773
10
46.1286168337743
20
0.0315262273043868
30
0
0
SPLINE
5
164
100
AcDbEntity
8
1
62
256
6
ByLayer
370
18
48
1
60
0
100
AcDbSpline
70
4
71
3
72
8
73
4
40
0
40
0
40
0
40
0
40
1
40
1
40
1
40
1
41
1
10
30.8650794610348
20
12.2438842408804
30
0
41
1
10
31.3481776411061
20
11.5899775528017
30
0
41
1
10
31.8726574296364
20
10.2725420804038
30
0
41
1
10
32.3339040668094
20
8.79384393032171
30
0
0
SPLINE
5
165
100
AcDbEntity
8
1
62
256
6
ByLayer
370
18
48
1
60
0
100
AcDbSpline
70
4
71
3
72
11
73
7
40
0
40
0
40
0
40
0
40
0.564783939443777
40
0.564783939443777
40
0.564783939443777
40
1
40
1
40
1
40
1
41
1
10
46.3128609362959
20
5.4384330897455
30
0
41
1
10
46.00093906978
20
5.61337866371613
30
0
41
1
10
45.6512507918346
20
5.82928034063201
30
0
41
1
10
45.310525833631
20
6.09088123036835
30
0
41
1
10
45.0458010473035
20
6.29413091305562
30
0
41
1
10
44.7783994643174
20
6.5210698771883
30
0
41
1
10
44.5150376531017
20
6.75568127019943
30
0
0
SPLINE
5
166
100
AcDbEntity
8
1
62
256
6
ByLayer
370
18
48
1
60
0
100
AcDbSpline
70
4
71
3
72
8
73
4
40
0
40
0
40
0
40
0
40
1
40
1
40
1
40
1
41
1
10
30.3870616094667
20
2.88558543087316
30
0
41
1
10
29.1248152141138
20
1.93604974535205
30
0
41
1
10
27.8918003224651
20
1.09766560594514
30
0
41
1
10
27.0668070509883
20
0.716924180252647
30
0
0
SPLINE
5
167
100
AcDbEntity
8
1
62
256
6
ByLayer
370
18
48
1
60
0
100
AcDbSpline
70
4
71
3
72
12
73
8
40
0
40
0
40
0
40
0
40
0.471343086678521
40
0.471343086678521
40
0.892619726108223
40
0.892619726108223
40
1
40
1
40
1
40
1
41
1
10
29.5197943877343
20
3.64017408401565
30
0
41
1
10
29.6762137810317
20
3.55455768820931
30
0
41
1
10
29.8311644056772
20
3.45206879791999
30
0
41
1
10
30.0985755836071
20
3.22962536617686
30
0
41
1
10
30.2163566263351
20
3.11007567384596
30
0
41
1
10
30.3399487987273
20
2.95188164492615
30
0
41
1
10
30.3641630117192
20
2.9188822645385
30
0
41
1
10
30.3870616094667
20
2.88558543087316
30
0
0
SPLINE
5
168
100
AcDbEntity
8
1
62
256
6
ByLayer
370
18
48
1
60
0
100
AcDbSpline
70
4
71
3
72
10
73
6
40
0
40
0
40
0
40
0
40
0.5
40
0.5
40
1
40
1
40
1
40
1
41
1
10
44.648073959102
20
-0.96589459957471
30
0
41
1
10
44.7321623919054
20
-1.45863632841946
30
0
41
1
10
44.8708380127234
20
-1.91684955609495
30
0
41
1
10
45.477513917327
20
-2.6249654641569
30
0
41
1
10
45.9707539970387
20
-2.85668858190601
30
0
41
1
10
46.6860310334193
20
-2.76740170499525
30
0
0
SPLINE
5
169
100
AcDbEntity
8
1
62
256
6
ByLayer
370
18
48
1
60
0
100
AcDbSpline
70
4
71
3
72
8
73
4
40
0
40
0
40
0
40
0
40
1
40
1
40
1
40
1
41
1
10
47.8588034793927
20
-2.22733884821113
30
0
41
1
10
47.9342008883541
20
-2.20861912948251
30
0
41
1
10
48.0116988528196
20
-2.18500535697728
30
0
41
1
10
48.0899171425476
20
-2.15674009606752
30
0
0
SPLINE
5
16A
100
AcDbEntity
8
1
62
256
6
ByLayer
370
18
48
1
60
0
100
AcDbSpline
70
4
71
3
72
10
73
6
40
0
40
0
40
0
40
0
40
0.655488757716274
40
0.655488757716274
40
1
40
1
40
1
40
1
41
1
10
26.2734062824343
20
-0.50139776360794
30
0
41
1
10
25.9090454722666
20
-0.400823255810593
30
0
41
1
10
25.5147873828756
20
-0.250749129090877
30
0
41
1
10
24.9385185702146
20
0.0976013054835221
30
0
41
1
10
24.7424572604373
20
0.240950672856968
30
0
41
1
10
24.5613407732873
20
0.407990715151698
30
0
0
SPLINE
5
16B
100
AcDbEntity
8
1
62
256
6
ByLayer
370
18
48
1
60
0
100
AcDbSpline
70
4
71
3
72
8
73
4
40
0
40
0
40
0
40
0
40
1
40
1
40
1
40
1
41
1
10
32.5338228416509
20
8.86548751221764
30
0
41
1
10
33.3251977375512
20
9.18937833751016
30
0
41
1
10
34.222788033922
20
9.21264242844217
30
0
41
1
10
35.094212732709
20
8.91656979434757
30
0
0
SPLINE
5
16C
100
AcDbEntity
8
1
62
256
6
ByLayer
370
18
48
1
60
0
100
AcDbSpline
70
4
71
1
72
4
73
2
40
0
40
0
40
1
40
1
41
1
10
37.9938127580027
20
9.82184726174839
30
0
41
1
10
37.828767817724
20
10.8842808839663
30
0
0
SPLINE
5
16D
100
AcDbEntity
8
1
62
256
6
ByLayer
370
18
48
1
60
0
100
AcDbSpline
70
4
71
3
72
8
73
4
40
0
40
0
40
0
40
0
40
1
40
1
40
1
40
1
41
1
10
29.5197943877343
20
3.64017408401565
30
0
41
1
10
29.2951308298271
20
3.76314402841678
30
0
41
1
10
29.0646309570347
20
3.85671884487141
30
0
41
1
10
28.8314268880307
20
3.927896952894
30
0
0
SPLINE
5
16E
100
AcDbEntity
8
1
62
256
6
ByLayer
370
18
48
1
60
0
100
AcDbSpline
70
4
71
3
72
8
73
4
40
0
40
0
40
0
40
0
40
1
40
1
40
1
40
1
41
1.02417048357497
10
47.8313081903795
20
3.70821487726021
30
0
41
1.02233815524058
10
47.408239290325
20
4.29668543771673
30
0
41
1.02059845272928
10
46.9566887139622
20
4.84850810560731
30
0
41
1.01923193651505
10
46.5809044519734
20
5.27964493754502
30
0
0
SPLINE
5
16F
100
AcDbEntity
8
1
62
256
6
ByLayer
370
18
48
1
60
0
100
AcDbSpline
70
4
71
3
72
10
73
6
40
0
40
0
40
0
40
0
40
0.264715639145585
40
0.264715639145585
40
1
40
1
40
1
40
1
41
1
10
47.3098538989413
20
0.248843097181009
30
0
41
1
10
47.2076560967945
20
0.233798134296706
30
0
41
1
10
47.1047810640302
20
0.217467368400264
30
0
41
1
10
46.7141503595018
20
0.151600194463867
30
0
41
1
10
46.4226905821678
20
0.0947569803575448
30
0
41
1
10
46.1286168337841
20
0.0315262273010433
30
0
0
SPLINE
5
170
100
AcDbEntity
8
1
62
256
6
ByLayer
370
18
48
1
60
0
100
AcDbSpline
70
4
71
3
72
8
73
4
40
0
40
0
40
0
40
0
40
1
40
1
40
1
40
1
41
1
10
41.117124340843
20
-3.55627290567335
30
0
41
1
10
41.9240101965078
20
-3.49523562105691
30
0
41
1
10
42.6921923259912
20
-3.53192091281781
30
0
41
1
10
43.3125452533537
20
-3.66689567895298
30
0
0
SPLINE
5
171
100
AcDbEntity
8
1
62
256
6
ByLayer
370
18
48
1
60
0
100
AcDbSpline
70
4
71
3
72
20
73
16
40
0
40
0
40
0
40
0
40
0.332873226652389
40
0.332873226652389
40
0.501657261698202
40
0.501657261698202
40
0.631212321676501
40
0.631212321676501
40
0.722542323637657
40
0.722542323637657
40
0.814765347404177
40
0.814765347404177
40
0.896421359038785
40
0.896421359038785
40
1
40
1
40
1
40
1
41
1
10
46.1286168337841
20
0.0315262273010433
30
0
41
1
10
45.9305668467437
20
-0.0110132677054082
30
0
41
1
10
45.7258693232025
20
-0.0647890445966368
30
0
41
1
10
45.4107662431306
20
-0.181180748353739
30
0
41
1
10
45.3023271202835
20
-0.227105275157044
30
0
41
1
10
45.1138298683719
20
-0.326109528824418
30
0
41
1
10
45.0315418840204
20
-0.376008150148181
30
0
41
1
10
44.9025143379482
20
-0.472823935103747
30
0
41
1
10
44.8514727365499
20
-0.517228506120802
30
0
41
1
10
44.7641438483726
20
-0.609848847405317
30
0
41
1
10
44.7270111845569
20
-0.659397930224173
30
0
41
1
10
44.6770153723006
20
-0.749269772991795
30
0
41
1
10
44.6611432344924
20
-0.791030706317997
30
0
41
1
10
44.6412805156045
20
-0.879039845578603
30
0
41
1
10
44.6410423080667
20
-0.924710192289098
30
0
41
1
10
44.648073959102
20
-0.96589459957471
30
0
0
SPLINE
5
172
100
AcDbEntity
8
1
62
256
6
ByLayer
370
18
48
1
60
0
100
AcDbSpline
70
4
71
3
72
10
73
6
40
0
40
0
40
0
40
0
40
0.5
40
0.5
40
1
40
1
40
1
40
1
41
1
10
28.4995957486603
20
11.1368735864357
30
0
41
1
10
28.7579375880107
20
11.816938027724
30
0
41
1
10
29.1394272047101
20
12.3617595406518
30
0
41
1
10
29.8164055337818
20
13.006556951793
30
0
41
1
10
30.0955934607879
20
13.1657652396737
30
0
41
1
10
30.4963292517004
20
13.2050568701248
30
0
0
SPLINE
5
173
100
AcDbEntity
8
1
62
256
6
ByLayer
370
18
48
1
60
0
100
AcDbSpline
70
4
71
3
72
12
73
8
40
0
40
0
40
0
40
0
40
0.286978363858296
40
0.286978363858296
40
0.569998995185618
40
0.569998995185618
40
1
40
1
40
1
40
1
41
1
10
39.9844248097894
20
4.18708853736905
30
0
41
1
10
39.9755419773297
20
3.95321053459017
30
0
41
1
10
39.9475728459211
20
3.71905181965815
30
0
41
1
10
39.8555225578931
20
3.26319868059215
30
0
41
1
10
39.7916296012943
20
3.03981169739191
30
0
41
1
10
39.5887709435524
20
2.49754731081737
30
0
41
1
10
39.426197112655
20
2.18429961700872
30
0
41
1
10
39.2304611122007
20
1.89896686229082
30
0
0
SPLINE
5
174
100
AcDbEntity
8
1
62
256
6
ByLayer
370
18
48
1
60
0
100
AcDbSpline
70
4
71
3
72
8
73
4
40
0
40
0
40
0
40
0
40
1
40
1
40
1
40
1
41
1
10
43.6137799449029
20
-3.72481055348294
30
0
41
1
10
43.5128708565072
20
-3.70786380830813
30
0
41
1
10
43.4124094210615
20
-3.68862386316411
30
0
41
1
10
43.3125452533537
20
-3.66689567895298
30
0
0
SPLINE
5
175
100
AcDbEntity
8
1
62
256
6
ByLayer
370
18
48
1
60
0
100
AcDbSpline
70
4
71
3
72
12
73
8
40
0
40
0
40
0
40
0
40
0.108854002841679
40
0.502629245107338
40
0.699516866240167
40
0.896404487372996
40
1
40
1
40
1
40
1
41
1.0244126255267
10
39.9844246740478
20
4.187088597492
30
0
41
1.02394775696077
10
40.2928976004537
20
4.0504583989123
30
0
41
1.02173322391444
10
41.7489433854392
20
3.39634606220678
30
0
41
1.01876555595691
10
43.7674194365439
20
2.42735212867699
30
0
41
1.01610930227499
10
45.1011868221094
20
1.74649879686511
30
0
41
1.01814069306376
10
45.7458627521892
20
1.51848206513416
30
0
41
1.0200519600697
10
46.3116271495248
20
1.2954464064626
30
0
41
1.02076673234771
10
46.5174328880834
20
1.21150139632629
30
0
0
SPLINE
5
176
100
AcDbEntity
8
1
62
256
6
ByLayer
370
18
48
1
60
0
100
AcDbSpline
70
4
71
3
72
11
73
7
40
0
40
0
40
0
40
0
40
0.423407924939465
40
0.740963868644064
40
0.899741840496363
40
1
40
1
40
1
40
1
41
1.02805999725225
10
34.1955403479562
20
-1.70511279887942
30
0
41
1.02767136955277
10
35.0409605952981
20
-1.87306351374239
30
0
41
1.02349884684923
10
38.3113155127453
20
-1.63793403045096
30
0
41
1.01876555595691
10
42.4480687966171
20
-1.00671498255026
30
0
41
1.01635405201137
10
43.9945496079005
20
-0.785997171043412
30
0
41
1.01722454828226
10
44.458662793927
20
-0.906845910645969
30
0
41
1.01774327987904
10
44.6480739591023
20
-0.965894599574799
30
0
0
SPLINE
5
177
100
AcDbEntity
8
1
62
256
6
ByLayer
370
18
48
1
60
0
100
AcDbSpline
70
4
71
3
72
11
73
7
40
0
40
0
40
0
40
0
40
0.423407924946041
40
0.740963868655572
40
0.899741840510338
40
1
40
1
40
1
40
1
41
1.02805999725224
10
37.9938127580027
20
9.82184726174838
30
0
41
1.02767136955277
10
38.7717119133262
20
9.44898419554228
30
0
41
1.02349884684923
10
41.2692434330083
20
7.33875676975341
30
0
41
1.01876555595691
10
44.2035050143231
20
4.32066572800799
30
0
41
1.01635405201144
10
45.3011193811955
20
3.17916803243685
30
0
41
1.01722454828215
10
45.7365852245025
20
2.97138061663863
30
0
41
1.0177432798788
10
45.9196296212656
20
2.89301012114622
30
0
0
SPLINE
5
178
100
AcDbEntity
8
1
62
256
6
ByLayer
370
18
48
1
60
0
100
AcDbSpline
70
4
71
3
72
8
73
4
40
0
40
0
40
0
40
0
40
1
40
1
40
1
40
1
41
1
10
32.533822841651
20
8.86548751221767
30
0
41
1
10
32.4691225795827
20
8.83900724175865
30
0
41
1
10
32.4024771526125
20
8.81507779980606
30
0
41
1
10
32.3339040668179
20
8.79384393032325
30
0
0
SPLINE
5
179
100
AcDbEntity
8
1
62
256
6
ByLayer
370
18
48
1
60
0
100
AcDbSpline
70
4
71
3
72
15
73
11
40
0
40
0
40
0
40
0
40
0.322163720426457
40
0.322163720426457
40
0.644833452600231
40
0.644833452600231
40
0.912233455904556
40
0.912233455904556
40
0.912233455904556
40
1
40
1
40
1
40
1
41
1
10
37.7924037762907
20
7.91143283500745
30
0
41
1
10
38.2120881222431
20
7.67017145094152
30
0
41
1
10
38.5958613597006
20
7.35267415078465
30
0
41
1
10
39.2377403862302
20
6.62669946525392
30
0
41
1
10
39.504738138022
20
6.20788516373222
30
0
41
1
10
39.8443549781793
20
5.39068251949192
30
0
41
1
10
39.9454383653349
20
4.99074812707087
30
0
41
1
10
39.976438222792
20
4.58888749402377
30
0
41
1
10
39.986740214023
20
4.45533963099146
30
0
41
1
10
39.9894988569093
20
4.32088749194753
30
0
41
1
10
39.98442480979
20
4.18708853736848
30
0
0
SPLINE
5
17A
100
AcDbEntity
8
1
62
256
6
ByLayer
370
18
48
1
60
0
100
AcDbSpline
70
4
71
3
72
8
73
4
40
0
40
0
40
0
40
0
40
1
40
1
40
1
40
1
41
1
10
31.1891304929831
20
8.70625901306661
30
0
41
1
10
30.9332572615977
20
8.73451414482352
30
0
41
1
10
30.6895482026388
20
8.78800185194626
30
0
41
1
10
30.4563441336347
20
8.85917995996883
30
0
0
SPLINE
5
17B
100
AcDbEntity
8
1
62
256
6
ByLayer
370
18
48
1
60
0
100
AcDbSpline
70
4
71
3
72
8
73
4
40
0
40
0
40
0
40
0
40
1
40
1
40
1
40
1
41
1
10
46.3128609362959
20
5.4384330897455
30
0
41
1
10
46.4031908217102
20
5.38777035863589
30
0
41
1
10
46.4925277870412
20
5.33476998010471
30
0
41
1
10
46.5808697752839
20
5.27968472197333
30
0
0
SPLINE
5
17C
100
AcDbEntity
8
1
62
256
6
ByLayer
370
18
48
1
60
0
100
AcDbSpline
70
4
71
3
72
10
73
6
40
0
40
0
40
0
40
0
40
0.5
40
0.5
40
1
40
1
40
1
40
1
41
1
10
26.1164920812915
20
-0.0868302525098557
30
0
41
1
10
25.8365938961038
20
0.245776921577175
30
0
41
1
10
25.7296940913613
20
0.609325418137473
30
0
41
1
10
25.6057624280227
20
1.6312962366228
30
0
41
1
10
25.6366155126775
20
2.34462876158835
30
0
41
1
10
25.8309637232936
20
3.03813514641462
30
0
0
SPLINE
5
17D
100
AcDbEntity
8
1
62
256
6
ByLayer
370
18
48
1
60
0
100
AcDbSpline
70
4
71
3
72
8
73
4
40
0
40
0
40
0
40
0
40
1
40
1
40
1
40
1
41
1
10
30.3870616094667
20
2.88558543087316
30
0
41
1
10
30.4284226972723
20
2.82544230437799
30
0
41
1
10
30.4669763398963
20
2.76367492705515
30
0
41
1
10
30.5024577643061
20
2.70072058997886
30
0
0
SPLINE
5
17E
100
AcDbEntity
8
1
62
256
6
ByLayer
370
18
48
1
60
0
100
AcDbSpline
70
4
71
3
72
8
73
4
40
0
40
0
40
0
40
0
40
1
40
1
40
1
40
1
41
1
10
25.8513121381758
20
3.10490975323088
30
0
41
1
10
25.8439622428621
20
3.08260436262569
30
0
41
1
10
25.837188396297
20
3.06034708475789
30
0
41
1
10
25.8309637232936
20
3.03813514641462
30
0
0
SPLINE
5
17F
100
AcDbEntity
8
1
62
256
6
ByLayer
370
18
48
1
60
0
100
AcDbSpline
70
4
71
2
72
6
73
3
40
0
40
0
40
0
40
1
40
1
40
1
41
1.02805999725224
10
34.1955403479562
20
-1.70511279887942
30
0
41
1.02805999725224
10
33.7629331812833
20
-2.2363296099892
30
0
41
1.02805999725224
10
33.3303260146104
20
-2.76754642109896
30
0
0
SPLINE
5
180
100
AcDbEntity
8
1
62
256
6
ByLayer
370
18
48
1
60
0
100
AcDbSpline
70
4
71
3
72
8
73
4
40
0
40
0
40
0
40
0
40
1
40
1
40
1
40
1
41
1
10
35.2531405624459
20
0.205301628883234
30
0
41
1
10
34.9714708948849
20
0.239413890911351
30
0
41
1
10
34.6890927821207
20
0.301925972821465
30
0
41
1
10
34.4189346469524
20
0.393714088091457
30
0
0
SPLINE
5
181
100
AcDbEntity
8
1
62
256
6
ByLayer
370
18
48
1
60
0
100
AcDbSpline
70
4
71
2
72
6
73
3
40
0
40
0
40
0
40
1
40
1
40
1
41
0.937301687603847
10
35.2531405606399
20
0.205301604858473
30
0
41
0.930554446910518
10
34.6537201830863
20
-1.14249421628741
30
0
41
1.02805999725225
10
34.1955403479562
20
-1.70511279887942
30
0
0
SPLINE
5
182
100
AcDbEntity
8
1
62
256
6
ByLayer
370
18
48
1
60
0
100
AcDbSpline
70
4
71
3
72
12
73
8
40
0
40
0
40
0
40
0
40
0.46693897235862
40
0.46693897235862
40
0.928803236876549
40
0.928803236876549
40
1
40
1
40
1
40
1
41
1
10
32.3339040668179
20
8.79384393032325
30
0
41
1
10
32.1724304750965
20
8.74384312998291
30
0
41
1
10
31.9914644780486
20
8.71017236242318
30
0
41
1
10
31.6314675883146
20
8.68025147929035
30
0
41
1
10
31.4476160953583
20
8.68270188828765
30
0
41
1
10
31.2437189015315
20
8.7005380209541
30
0
41
1
10
31.2163556785397
20
8.70325263681988
30
0
41
1
10
31.1891304929831
20
8.70625901306661
30
0
0
SPLINE
5
183
100
AcDbEntity
8
1
62
256
6
ByLayer
370
18
48
1
60
0
100
AcDbSpline
70
4
71
3
72
8
73
4
40
0
40
0
40
0
40
0
40
1
40
1
40
1
40
1
41
1
10
45.5438775651351
20
-3.23389386758069
30
0
41
1
10
45.9247993003221
20
-3.07954525480997
30
0
41
1
10
46.3061859795879
20
-2.92378026608793
30
0
41
1
10
46.6860310334193
20
-2.76740170499525
30
0
0
SPLINE
5
184
100
AcDbEntity
8
1
62
256
6
ByLayer
370
18
48
1
60
0
100
AcDbSpline
70
4
71
3
72
10
73
6
40
0
40
0
40
0
40
0
40
0.967465556419478
40
0.967465556419478
40
1
40
1
40
1
40
1
41
1
10
46.5174328880998
20
1.21150139631962
30
0
41
1
10
46.7704124844148
20
0.888350509852501
30
0
41
1
10
47.0259897609135
20
0.575215055344614
30
0
41
1
10
47.2924894988507
20
0.26874366655008
30
0
41
1
10
47.3011703075265
20
0.258783457966729
30
0
41
1
10
47.3098538989519
20
0.248843097168873
30
0
0
SPLINE
5
185
100
AcDbEntity
8
1
62
256
6
ByLayer
370
18
48
1
60
0
100
AcDbSpline
70
4
71
2
72
6
73
3
40
0
40
0
40
0
40
1
40
1
40
1
41
1.02805999725224
10
37.9938127580027
20
9.82184726174838
30
0
41
0.93055444607248
10
38.0812133723124
20
9.25922867381503
30
0
41
0.937301687719828
10
37.7924037762915
20
7.91143283501064
30
0
0
SPLINE
5
186
100
AcDbEntity
8
1
62
256
6
ByLayer
370
18
48
1
60
0
100
AcDbSpline
70
4
71
3
72
10
73
6
40
0
40
0
40
0
40
0
40
0.5
40
0.5
40
1
40
1
40
1
40
1
41
1
10
37.828767817724
20
10.8842808839663
30
0
41
1
10
39.0817561186215
20
10.4452516869486
30
0
41
1
10
40.2333960269777
20
9.82075215606974
30
0
41
1
10
42.4645949723754
20
8.43984312581082
30
0
41
1
10
43.5263750927801
20
7.6364145072022
30
0
41
1
10
44.5150376531014
20
6.75568127019969
30
0
0
SPLINE
5
187
100
AcDbEntity
8
1
62
256
6
ByLayer
370
18
48
1
60
0
100
AcDbSpline
70
4
71
3
72
8
73
4
40
0
40
0
40
0
40
0
40
1
40
1
40
1
40
1
41
1.01923193622652
10
43.6138311005448
20
-3.72479999536988
30
0
41
1.02059843499303
10
44.1694614460418
20
-3.61012165953351
30
0
41
1.02233811057541
10
44.8571252474242
20
-3.44536131929569
30
0
41
1.02417041321379
10
45.5437644802726
20
-3.23392868953739
30
0
0
SPLINE
5
188
100
AcDbEntity
8
1
62
256
6
ByLayer
370
18
48
1
60
0
100
AcDbSpline
70
4
71
3
72
8
73
4
40
0
40
0
40
0
40
0
40
1
40
1
40
1
40
1
41
1
10
28.4761784579978
20
11.0708284569672
30
0
41
1
10
28.4835283533115
20
11.0931338475724
30
0
41
1
10
28.4913412408185
20
11.1151442479837
30
0
41
1
10
28.4995957486603
20
11.1368735864357
30
0
0
SPLINE
5
189
100
AcDbEntity
8
1
62
256
6
ByLayer
370
18
48
1
60
0
100
AcDbSpline
70
4
71
3
72
20
73
16
40
0
40
0
40
0
40
0
40
0.110576036200127
40
0.110576036200127
40
0.197179369122806
40
0.197179369122806
40
0.284291117387366
40
0.284291117387366
40
0.365904217918076
40
0.365904217918076
40
0.497270233392068
40
0.497270233392068
40
0.733496364826696
40
0.733496364826696
40
1
40
1
40
1
40
1
41
1
10
45.9196296213417
20
2.89301012111363
30
0
41
1
10
45.8899013518828
20
2.86945345951423
30
0
41
1
10
45.8637296071339
20
2.83675410404183
30
0
41
1
10
45.8306255519338
20
2.75823648794352
30
0
41
1
10
45.8206224047483
20
2.71583352820559
30
0
41
1
10
45.8135306841119
20
2.61869030617291
30
0
41
1
10
45.8165093881858
20
2.56259572269713
30
0
41
1
10
45.8338353885428
20
2.44982164856143
30
0
41
1
10
45.8475275791133
20
2.39220676629219
30
0
41
1
10
45.8920576090109
20
2.24439108808895
30
0
41
1
10
45.9287407203236
20
2.15308921787798
30
0
41
1
10
46.0409188004878
20
1.91240228598471
30
0
41
1
10
46.1258153874005
20
1.76856620757616
30
0
41
1
10
46.3107383819347
20
1.48440227550941
30
0
41
1
10
46.4135555444022
20
1.34414386856417
30
0
41
1
10
46.5174328880998
20
1.21150139631959
30
0
0
SPLINE
5
18A
100
AcDbEntity
8
1
62
256
6
ByLayer
370
18
48
1
60
0
100
AcDbSpline
70
4
71
3
72
10
73
6
40
0
40
0
40
0
40
0
40
0.5
40
0.5
40
1
40
1
40
1
40
1
41
1
10
41.1171243408427
20
-3.55627290567338
30
0
41
1
10
39.8117525781449
20
-3.65501840635443
30
0
41
1
10
38.5058717057392
20
-3.64951243609488
30
0
41
1
10
35.8928965563562
20
-3.39002907700774
30
0
41
1
10
34.587460389109
20
-3.18138852872102
30
0
41
1
10
33.3303260146104
20
-2.76754642109893
30
0
0
SPLINE
5
18B
100
AcDbEntity
8
1
62
256
6
ByLayer
370
18
48
1
60
0
100
AcDbSpline
70
4
71
3
72
8
73
4
40
0
40
0
40
0
40
0
40
1
40
1
40
1
40
1
41
1
10
26.011493191044
20
3.05934981707156
30
0
41
1
10
26.882198066929
20
3.14466400068346
30
0
41
1
10
28.1665201475209
20
3.37281031307475
30
0
41
1
10
29.5197943877343
20
3.64017408401565
30
0
0
SPLINE
5
18C
100
AcDbEntity
8
1
62
256
6
ByLayer
370
18
48
1
60
0
100
AcDbSpline
70
4
71
3
72
8
73
4
40
0
40
0
40
0
40
0
40
1
40
1
40
1
40
1
41
1
10
47.8313616487867
20
3.70814051851963
30
0
41
1
10
48.0469106574682
20
3.36061759379416
30
0
41
1
10
48.2614070717895
20
3.00990563416491
30
0
41
1
10
48.4737044648356
20
2.65781218842389
30
0
0
SPLINE
5
18D
100
AcDbEntity
8
1
62
256
6
ByLayer
370
18
48
1
60
0
100
AcDbSpline
70
4
71
3
72
8
73
4
40
0
40
0
40
0
40
0
40
1
40
1
40
1
40
1
41
1
10
37.7924037630616
20
7.91143284258368
30
0
41
1
10
37.5410428853972
20
8.05538538319817
30
0
41
1
10
37.28111134835
20
8.17355569969095
30
0
41
1
10
37.012552558205
20
8.2648004263072
30
0
0
SPLINE
5
18E
100
AcDbEntity
8
1
62
256
6
ByLayer
370
18
48
1
60
0
100
AcDbSpline
70
4
71
3
72
8
73
4
40
0
40
0
40
0
40
0
40
1
40
1
40
1
40
1
41
1
10
31.1891304929831
20
8.70625901306661
30
0
41
1
10
30.2489374003097
20
9.6960095353854
30
0
41
1
10
29.3343581963338
20
10.5624678034796
30
0
41
1
10
28.6404388130482
20
11.0376483472798
30
0
0
SPLINE
5
18F
100
AcDbEntity
8
1
62
256
6
ByLayer
370
18
48
1
60
0
100
AcDbSpline
70
4
71
3
72
16
73
12
40
0
40
0
40
0
40
0
40
0.461208588217088
40
0.461208588217088
40
0.643534962278544
40
0.643534962278544
40
0.82840847297529
40
0.82840847297529
40
0.943003644159989
40
0.943003644159989
40
1
40
1
40
1
40
1
41
1
10
8.10566243270262
20
8.05584836782774
30
0
41
1
10
8.13394960848487
20
7.95080268681445
30
0
41
1
10
8.17266608070923
20
7.84628670970801
30
0
41
1
10
8.25268397516848
20
7.71442469145123
30
0
41
1
10
8.27872153625231
20
7.67825379650728
30
0
41
1
10
8.33934560108361
20
7.61290523367228
30
0
41
1
10
8.37482777731262
20
7.5830592305141
30
0
41
1
10
8.44007741480422
20
7.54855881865589
30
0
41
1
10
8.46752172250564
20
7.5385201810229
30
0
41
1
10
8.50983152523006
20
7.53097042135255
30
0
41
1
10
8.5242826069246
20
7.52966679426473
30
0
41
1
10
8.53867513459474
20
7.52966679426473
30
0
0
SPLINE
5
190
100
AcDbEntity
8
1
62
256
6
ByLayer
370
18
48
1
60
0
100
AcDbSpline
70
4
71
3
72
14
73
10
40
0
40
0
40
0
40
0
40
0.196753210471103
40
0.196753210471103
40
0.593456971848919
40
0.593456971848919
40
0.795664385137235
40
0.795664385137235
40
1
40
1
40
1
40
1
41
1
10
20.3032221352613
20
1.70703877770853
30
0
41
1
10
20.2691300010785
20
1.61348473319416
30
0
41
1
10
20.23810179449
20
1.51869830948607
30
0
41
1
10
20.1552600364506
20
1.23020035995535
30
0
41
1
10
20.1149007744513
20
1.03224859060322
30
0
41
1
10
20.0766937933737
20
0.730855983942604
30
0
41
1
10
20.065836950403
20
0.628569633574017
30
0
41
1
10
20.0498405908809
20
0.422722611274224
30
0
41
1
10
20.0488089579994
20
0.318397523052596
30
0
41
1
10
20.0561789279801
20
0.215012304028676
30
0
0
SPLINE
5
191
100
AcDbEntity
8
1
62
256
6
ByLayer
370
18
48
1
60
0
100
AcDbSpline
70
4
71
3
72
8
73
4
40
0
40
0
40
0
40
0
40
1
40
1
40
1
40
1
41
1
10
20.9614530592887
20
-25.1401946323201
30
0
41
1
10
20.9476241009588
20
-25.0916409130888
30
0
41
1
10
20.9340733247208
20
-25.0435349734811
30
0
41
1
10
20.9207923799998
20
-24.9958260310697
30
0
0
SPLINE
5
192
100
AcDbEntity
8
1
62
256
6
ByLayer
370
18
48
1
60
0
100
AcDbSpline
70
4
71
3
72
8
73
4
40
0
40
0
40
0
40
0
40
1
40
1
40
1
40
1
41
1
10
21.4150979665882
20
-24.7245863837164
30
0
41
1
10
21.2702770095115
20
-24.7245863837164
30
0
41
1
10
21.1252367380463
20
-24.7232355889817
30
0
41
1
10
20.9812951365587
20
-24.7205272986346
30
0
0
SPLINE
5
193
100
AcDbEntity
8
1
62
256
6
ByLayer
370
18
48
1
60
0
100
AcDbSpline
70
4
71
3
72
16
73
12
40
0
40
0
40
0
40
0
40
0.461208588217094
40
0.461208588217094
40
0.643534962278546
40
0.643534962278546
40
0.828408472975285
40
0.828408472975285
40
0.943003644159988
40
0.943003644159988
40
1
40
1
40
1
40
1
41
1
10
8.10566243270259
20
-23.6665017920809
30
0
41
1
10
8.13394960848487
20
-23.7022583261632
30
0
41
1
10
8.17266608070923
20
-23.7370095736338
30
0
41
1
10
8.25268397516848
20
-23.7800170858174
30
0
41
1
10
8.27872153625231
20
-23.7917125768793
30
0
41
1
10
8.33934560108361
20
-23.8127037684951
30
0
41
1
10
8.37482777731262
20
-23.8222104320954
30
0
41
1
10
8.44007741480422
20
-23.8331586856493
30
0
41
1
10
8.46752172250564
20
-23.836332378473
30
0
41
1
10
8.50983152523006
20
-23.8387183279986
30
0
41
1
10
8.5242826069246
20
-23.8391299750505
30
0
41
1
10
8.53867513459474
20
-23.8391299750505
30
0
0
SPLINE
5
194
100
AcDbEntity
8
1
62
256
6
ByLayer
370
18
48
1
60
0
100
AcDbSpline
70
4
71
2
72
9
73
6
40
0
40
0
40
0
40
0.114948499884212
40
0.468969099930527
40
0.645979399953685
40
1
40
1
40
1
41
1.02613459695995
10
26.0303457246992
20
17.539106132652
30
0
41
1.02613459695995
10
25.8785681177167
20
17.3595744587647
30
0
41
1.02613459695995
10
25.2605164022613
20
16.5266640839988
30
0
41
1.02613459695995
10
25.003793367642
20
16.0257899570032
30
0
41
1.02613459695995
10
24.7285468034836
20
15.4398693708293
30
0
41
1.02613459695995
10
24.5902177179951
20
15.0202063793894
30
0
0
SPLINE
5
195
100
AcDbEntity
8
1
62
256
6
ByLayer
370
18
48
1
60
0
100
AcDbSpline
70
4
71
3
72
8
73
4
40
0
40
0
40
0
40
0
40
1
40
1
40
1
40
1
41
1
10
21.6733120803586
20
24.7245863837164
30
0
41
1
10
21.4372812797896
20
24.9543289999619
30
0
41
1
10
21.2000810050199
20
25.0902809964533
30
0
41
1
10
20.9617344316687
20
25.1343010338392
30
0
0
SPLINE
5
196
100
AcDbEntity
8
1
62
256
6
ByLayer
370
18
48
1
60
0
100
AcDbSpline
70
4
71
3
72
8
73
4
40
0
40
0
40
0
40
0
40
1
40
1
40
1
40
1
41
1
10
20.9617344316687
20
25.1343010338392
30
0
41
1
10
20.963852224477
20
25.0899358249579
30
0
41
1
10
20.9704459510305
20
24.9522795259962
30
0
41
1
10
20.9812951365587
20
24.7205272986346
30
0
0
SPLINE
5
197
100
AcDbEntity
8
1
62
256
6
ByLayer
370
18
48
1
60
0
100
AcDbSpline
70
4
71
2
72
9
73
6
40
0
40
0
40
0
40
0.111174626498724
40
0.466704775899235
40
0.64446985059949
40
1
40
1
40
1
41
1
10
26.0997721761456
20
17.4921543929646
30
0
41
1
10
25.9536110874365
20
17.3183782873605
30
0
41
1
10
25.3411550339263
20
16.4930088428621
30
0
41
1
10
25.084431999307
20
15.9921347158664
30
0
41
1
10
24.8091854351486
20
15.4062141296925
30
0
41
1
10
24.6708563496601
20
14.9865511382527
30
0
0
SPLINE
5
198
100
AcDbEntity
8
1
62
256
6
ByLayer
370
18
48
1
60
0
100
AcDbSpline
70
4
71
3
72
10
73
6
40
0
40
0
40
0
40
0
40
0.420519290906201
40
0.420519290906201
40
1
40
1
40
1
40
1
41
1
10
11.4613248654052
20
-13.6906253919194
30
0
41
1
10
11.5453800896752
20
-13.7543887310852
30
0
41
1
10
11.6221668639081
20
-13.8387345203577
30
0
41
1
10
11.7759013620284
20
-14.060958439368
30
0
41
1
10
11.8455749346608
20
-14.2106220260311
30
0
41
1
10
11.8943375672975
20
-14.3682408325643
30
0
0
SPLINE
5
199
100
AcDbEntity
8
1
62
256
6
ByLayer
370
18
48
1
60
0
100
AcDbSpline
70
4
71
3
72
16
73
12
40
0
40
0
40
0
40
0
40
0.461208588217066
40
0.461208588217066
40
0.643534962278522
40
0.643534962278522
40
0.828408472975271
40
0.828408472975271
40
0.943003644159981
40
0.943003644159981
40
1
40
1
40
1
40
1
41
1
10
11.8943375672974
20
-8.05584836782774
30
0
41
1
10
11.8660503915152
20
-7.95080268681445
30
0
41
1
10
11.8273339192908
20
-7.84628670970801
30
0
41
1
10
11.7473160248315
20
-7.71442469145123
30
0
41
1
10
11.7212784637477
20
-7.67825379650728
30
0
41
1
10
11.6606543989164
20
-7.61290523367228
30
0
41
1
10
11.6251722226874
20
-7.58305923051407
30
0
41
1
10
11.5599225851958
20
-7.54855881865589
30
0
41
1
10
11.5324782774944
20
-7.5385201810229
30
0
41
1
10
11.4901684747699
20
-7.53097042135255
30
0
41
1
10
11.4757173930754
20
-7.5296667942647
30
0
41
1
10
11.4613248654053
20
-7.5296667942647
30
0
0
SPLINE
5
19A
100
AcDbEntity
8
1
62
256
6
ByLayer
370
18
48
1
60
0
100
AcDbSpline
70
4
71
3
72
12
73
8
40
0
40
0
40
0
40
0
40
0.499999990237582
40
0.499999990237582
40
0.749999994040978
40
0.749999994040978
40
1
40
1
40
1
40
1
41
1
10
26.0303457252977
20
17.539106131794
30
0
41
1
10
26.0419132189325
20
17.5312824456303
30
0
41
1
10
26.0534825056439
20
17.5234579519338
30
0
41
1
10
26.0708391239735
20
17.5117200154353
30
0
41
1
10
26.0766251104342
20
17.5078071698223
30
0
41
1
10
26.088197974681
20
17.499981079639
30
0
41
1
10
26.0939848524802
20
17.4960678350611
30
0
41
1
10
26.0997721746789
20
17.4921543915824
30
0
0
SPLINE
5
19B
100
AcDbEntity
8
1
62
256
6
ByLayer
370
18
48
1
60
0
100
AcDbSpline
70
4
71
3
72
19
73
15
40
0
40
0
40
0
40
0
40
0.215967604169541
40
0.215967604169541
40
0.426322920556868
40
0.426322920556868
40
0.606044039192288
40
0.606044039192288
40
0.779995545114794
40
0.779995545114794
40
0.942943148998152
40
0.942943148998152
40
0.942943148998152
40
1
40
1
40
1
40
1
41
1
10
21.4150979665881
20
-2.82811001318686
30
0
41
1
10
21.694495875811
20
-3.11151602963429
30
0
41
1
10
22.0254279312035
20
-3.35374041064097
30
0
41
1
10
22.734184982222
20
-3.69019061737797
30
0
41
1
10
23.122685550125
20
-3.79176380446083
30
0
41
1
10
23.8404097719433
20
-3.82706584244735
30
0
41
1
10
24.1800579619352
20
-3.78602142870065
30
0
41
1
10
24.804065920431
20
-3.59275965842158
30
0
41
1
10
25.0992363996081
20
-3.4413815629328
30
0
41
1
10
25.5899823988396
20
-3.0589901528709
30
0
41
1
10
25.7978711516835
20
-2.8271463507748
30
0
41
1
10
25.9512043624198
20
-2.56825602039106
30
0
41
1
10
26.0057488525592
20
-2.47616220063097
30
0
41
1
10
26.0540091406435
20
-2.38004376692348
30
0
41
1
10
26.0952344806349
20
-2.28126702682161
30
0
0
SPLINE
5
19C
100
AcDbEntity
8
1
62
256
6
ByLayer
370
18
48
1
60
0
100
AcDbSpline
70
4
71
3
72
8
73
4
40
0
40
0
40
0
40
0
40
1
40
1
40
1
40
1
41
1
10
20.9812951365587
20
-24.7205272986346
30
0
41
1
10
20.96990551288
20
-24.9638239635773
30
0
41
1
10
20.9632103068274
20
-25.103392579001
30
0
41
1
10
20.9614530592888
20
-25.1401946323207
30
0
0
SPLINE
5
19D
100
AcDbEntity
8
1
62
256
6
ByLayer
370
18
48
1
60
0
100
AcDbSpline
70
4
71
3
72
16
73
12
40
0
40
0
40
0
40
0
40
0.111430279628052
40
0.111430279628052
40
0.248747543515474
40
0.248747543515474
40
0.465535329195271
40
0.465535329195271
40
0.883855351867598
40
0.883855351867598
40
1
40
1
40
1
40
1
41
1
10
11.4613248654052
20
-23.8391299750503
30
0
41
1
10
11.4891847159942
20
-23.8391299750503
30
0
41
1
10
11.5173911427755
20
-23.8375361275706
30
0
41
1
10
11.5758492032393
20
-23.831150658589
30
0
41
1
10
11.6060413892306
20
-23.825666877018
30
0
41
1
10
11.6751537543576
20
-23.8089605749788
30
0
41
1
10
11.7107854085705
20
-23.796037970776
30
0
41
1
10
11.798993890746
20
-23.7556824246832
30
0
41
1
10
11.8397320068509
20
-23.7250165399981
30
0
41
1
10
11.8792917015268
20
-23.6845451449633
30
0
41
1
10
11.8871615985731
20
-23.6755726082078
30
0
41
1
10
11.8943375672975
20
-23.6665017920809
30
0
0
SPLINE
5
19E
100
AcDbEntity
8
1
62
256
6
ByLayer
370
18
48
1
60
0
100
AcDbSpline
70
4
71
2
72
6
73
3
40
0
40
0
40
0
40
1
40
1
40
1
41
1
10
20.3767177816217
20
1.67636472422208
30
0
41
1
10
20.3399699584525
20
1.6917017509607
30
0
41
1
10
20.3032221352834
20
1.70703877769932
30
0
0
SPLINE
5
19F
100
AcDbEntity
8
1
62
256
6
ByLayer
370
18
48
1
60
0
100
AcDbSpline
70
4
71
3
72
8
73
4
40
0
40
0
40
0
40
0
40
1
40
1
40
1
40
1
41
1
10
20.9812951365587
20
-24.7205272986346
30
0
41
1
10
20.9611140269563
20
-24.6432235340533
30
0
41
1
10
20.9409462400292
20
-24.5659205225918
30
0
41
1
10
20.92079238
20
-24.4886190390076
30
0
0
SPLINE
5
1A0
100
AcDbEntity
8
1
62
256
6
ByLayer
370
18
48
1
60
0
100
AcDbSpline
70
4
71
3
72
8
73
4
40
0
40
0
40
0
40
0
40
1
40
1
40
1
40
1
41
1
10
25.9113433075816
20
17.6203487293563
30
0
41
1
10
25.1581709059349
20
16.9465163476826
30
0
41
1
10
24.5420718201079
20
16.0949184721191
30
0
41
1
10
24.2600333540607
20
15.1109980921202
30
0
0
SPLINE
5
1A1
100
AcDbEntity
8
1
62
256
6
ByLayer
370
18
48
1
60
0
100
AcDbSpline
70
4
71
3
72
14
73
10
40
0
40
0
40
0
40
0
40
0.25
40
0.25
40
0.5
40
0.5
40
0.75
40
0.75
40
1
40
1
40
1
40
1
41
1
10
26.169240248516
20
17.4451842646889
30
0
41
1
10
26.4371092808354
20
17.2640860194461
30
0
41
1
10
26.7411398356562
20
17.0674979251242
30
0
41
1
10
27.4676915094175
20
16.6235661037371
30
0
41
1
10
27.913332627798
20
16.3650399257165
30
0
41
1
10
28.930728923635
20
15.8298941826735
30
0
41
1
10
29.4587787232467
20
15.5764229068465
30
0
41
1
10
30.3936359421058
20
15.1452118665623
30
0
41
1
10
30.8319759476367
20
14.9509495990831
30
0
41
1
10
31.2648386887875
20
14.7596911470767
30
0
0
SPLINE
5
1A2
100
AcDbEntity
8
1
62
256
6
ByLayer
370
18
48
1
60
0
100
AcDbSpline
70
4
71
1
72
4
73
2
40
0
40
0
40
1
40
1
41
1
10
24.6708563496601
20
14.9865511382527
30
0
41
1
10
24.590217717995
20
15.0202063793895
30
0
0
SPLINE
5
1A3
100
AcDbEntity
8
1
62
256
6
ByLayer
370
18
48
1
60
0
100
AcDbSpline
70
4
71
3
72
8
73
4
40
0
40
0
40
0
40
0
40
1
40
1
40
1
40
1
41
1
10
20.92079238
20
24.4886190390076
30
0
41
1
10
20.9409462400292
20
24.5659205225918
30
0
41
1
10
20.9611140269563
20
24.6432235340533
30
0
41
1
10
20.9812951365587
20
24.7205272986346
30
0
0
SPLINE
5
1A4
100
AcDbEntity
8
1
62
256
6
ByLayer
370
18
48
1
60
0
100
AcDbSpline
70
4
71
3
72
16
73
12
40
0
40
0
40
0
40
0
40
0.461208588217085
40
0.461208588217085
40
0.643534962278541
40
0.643534962278541
40
0.828408472975291
40
0.828408472975291
40
0.943003644159993
40
0.943003644159993
40
1
40
1
40
1
40
1
41
1
10
11.8943375672974
20
23.6665017920809
30
0
41
1
10
11.8660503915152
20
23.7022583261632
30
0
41
1
10
11.8273339192908
20
23.7370095736338
30
0
41
1
10
11.7473160248315
20
23.7800170858174
30
0
41
1
10
11.7212784637477
20
23.7917125768793
30
0
41
1
10
11.6606543989164
20
23.8127037684951
30
0
41
1
10
11.6251722226874
20
23.8222104320954
30
0
41
1
10
11.5599225851958
20
23.8331586856493
30
0
41
1
10
11.5324782774944
20
23.836332378473
30
0
41
1
10
11.4901684747699
20
23.8387183279986
30
0
41
1
10
11.4757173930754
20
23.8391299750505
30
0
41
1
10
11.4613248654053
20
23.8391299750505
30
0
0
SPLINE
5
1A5
100
AcDbEntity
8
1
62
256
6
ByLayer
370
18
48
1
60
0
100
AcDbSpline
70
4
71
3
72
8
73
4
40
0
40
0
40
0
40
0
40
1
40
1
40
1
40
1
41
1
10
20.0561789279801
20
0.215012304028704
30
0
41
1
10
20.1382130098131
20
-0.935753783202642
30
0
41
1
10
20.6090816912643
20
-2.01053101835222
30
0
41
1
10
21.4150979665882
20
-2.82811001318686
30
0
0
SPLINE
5
1A6
100
AcDbEntity
8
1
62
256
6
ByLayer
370
18
48
1
60
0
100
AcDbSpline
70
4
71
3
72
8
73
4
40
0
40
0
40
0
40
0
40
1
40
1
40
1
40
1
41
1
10
20.9812951365587
20
24.7205272986346
30
0
41
1
10
21.1252367380463
20
24.7232355889817
30
0
41
1
10
21.2702770095114
20
24.7245863837164
30
0
41
1
10
21.4150979665882
20
24.7245863837164
30
0
0
SPLINE
5
1A7
100
AcDbEntity
8
1
62
256
6
ByLayer
370
18
48
1
60
0
100
AcDbSpline
70
4
71
3
72
14
73
10
40
0
40
0
40
0
40
0
40
0.257146777765879
40
0.257146777765879
40
0.515043459777444
40
0.515043459777444
40
0.762218147059628
40
0.762218147059628
40
1
40
1
40
1
40
1
41
1
10
17.4303191742212
20
-23.4553549429959
30
0
41
1
10
17.4691434490962
20
-23.6190346355062
30
0
41
1
10
17.5852680371713
20
-23.7696203769467
30
0
41
1
10
17.9643662295079
20
-24.0254564367266
30
0
41
1
10
18.233500730627
20
-24.1343161849438
30
0
41
1
10
18.8755030997166
20
-24.301589819967
30
0
41
1
10
19.2526493539829
20
-24.3645598084091
30
0
41
1
10
20.053239606227
20
-24.4510990768829
30
0
41
1
10
20.4852178413433
20
-24.4774760852936
30
0
41
1
10
20.92079238
20
-24.4886190390076
30
0
0
SPLINE
5
1A8
100
AcDbEntity
8
1
62
256
6
ByLayer
370
18
48
1
60
0
100
AcDbSpline
70
4
71
3
72
8
73
4
40
0
40
0
40
0
40
0
40
1
40
1
40
1
40
1
41
1
10
17.4303191742212
20
-15.0108362709094
30
0
41
1
10
17.4343001226745
20
-14.4844981075638
30
0
41
1
10
17.4380202845137
20
-13.9570915577833
30
0
41
1
10
17.44081173407
20
-13.4293509423308
30
0
0
SPLINE
5
1A9
100
AcDbEntity
8
1
62
256
6
ByLayer
370
18
48
1
60
0
100
AcDbSpline
70
4
71
3
72
16
73
12
40
0
40
0
40
0
40
0
40
0.111430279628047
40
0.111430279628047
40
0.248747543515475
40
0.248747543515475
40
0.465535329195272
40
0.465535329195272
40
0.883855351867603
40
0.883855351867603
40
1
40
1
40
1
40
1
41
1
10
11.4613248654052
20
7.52966679426504
30
0
41
1
10
11.4891847159942
20
7.52966679426504
30
0
41
1
10
11.5173911427755
20
7.53471706780854
30
0
41
1
10
11.5758492032393
20
7.55489210221029
30
0
41
1
10
11.6060413892306
20
7.57218953888446
30
0
41
1
10
11.6751537543576
20
7.62460019394089
30
0
41
1
10
11.7107854085705
20
7.66489294253907
30
0
41
1
10
11.798993890746
20
7.78941367630352
30
0
41
1
10
11.8397320068509
20
7.8824751100415
30
0
41
1
10
11.8792917015268
20
8.00269269538009
30
0
41
1
10
11.8871615985731
20
8.02920008991578
30
0
41
1
10
11.8943375672975
20
8.05584836782771
30
0
0
SPLINE
5
1AA
100
AcDbEntity
8
1
62
256
6
ByLayer
370
18
48
1
60
0
100
AcDbSpline
70
4
71
3
72
16
73
12
40
0
40
0
40
0
40
0
40
0.238664520516886
40
0.238664520516886
40
0.477243676809563
40
0.477243676809563
40
0.717175962218134
40
0.717175962218134
40
0.962955965218022
40
0.962955965218022
40
1
40
1
40
1
40
1
41
1
10
20.92079238
20
24.4886190390076
30
0
41
1
10
20.4840916723798
20
24.4774472754172
30
0
41
1
10
20.0509926695775
20
24.4509610891805
30
0
41
1
10
19.26391515033
20
24.3656718780195
30
0
41
1
10
18.8991880574146
20
24.3054862317241
30
0
41
1
10
18.2835116525487
20
24.1494135952404
30
0
41
1
10
18.0249815792796
20
24.0510028626091
30
0
41
1
10
17.6392199403027
20
23.8174123097642
30
0
41
1
10
17.5100639463551
20
23.6782359586606
30
0
41
1
10
17.4432353915025
20
23.5027996833027
30
0
41
1
10
17.4359824174511
20
23.4792306731536
30
0
41
1
10
17.4303191742212
20
23.4553549429959
30
0
0
SPLINE
5
1AB
100
AcDbEntity
8
1
62
256
6
ByLayer
370
18
48
1
60
0
100
AcDbSpline
70
4
71
3
72
12
73
8
40
0
40
0
40
0
40
0
40
0.499999991435062
40
0.499999991435062
40
0.749999994662547
40
0.749999994662547
40
1
40
1
40
1
40
1
41
1
10
26.0997721763671
20
17.4921543926492
30
0
41
1
10
26.1113466463733
20
17.4843276236167
30
0
41
1
10
26.1229228923053
20
17.476500057889
30
0
41
1
10
26.1402899154213
20
17.4647575241144
30
0
41
1
10
26.146079365184
20
17.4608431483193
30
0
41
1
10
26.1576591461645
20
17.4530140022348
30
0
41
1
10
26.1634494773952
20
17.449099231938
30
0
41
1
10
26.1692402481134
20
17.4451842649611
30
0
0
SPLINE
5
1AC
100
AcDbEntity
8
1
62
256
6
ByLayer
370
18
48
1
60
0
100
AcDbSpline
70
4
71
3
72
8
73
4
40
0
40
0
40
0
40
0
40
1
40
1
40
1
40
1
41
1
10
21.752369119215
20
-24.7245863837148
30
0
41
1
10
21.4756665382843
20
-24.9644557543394
30
0
41
1
10
21.215570512199
20
-25.1035596370925
30
0
41
1
10
20.9614530592889
20
-25.1401946323207
30
0
0
SPLINE
5
1AD
100
AcDbEntity
8
1
62
256
6
ByLayer
370
18
48
1
60
0
100
AcDbSpline
70
4
71
1
72
4
73
2
40
0
40
0
40
1
40
1
41
1
10
24.751494981325
20
14.9528958971159
30
0
41
1
10
24.6708563496599
20
14.9865511382527
30
0
0
SPLINE
5
1AE
100
AcDbEntity
8
1
62
256
6
ByLayer
370
18
48
1
60
0
100
AcDbSpline
70
4
71
2
72
6
73
3
40
0
40
0
40
0
40
1
40
1
40
1
41
1
10
24.5902177179951
20
15.0202063793895
30
0
41
1
10
24.4296209742643
20
15.0872328408316
30
0
41
1
10
24.2602014323459
20
15.1116390136113
30
0
0
SPLINE
5
1AF
100
AcDbEntity
8
1
62
256
6
ByLayer
370
18
48
1
60
0
100
AcDbSpline
70
4
71
2
72
9
73
6
40
0
40
0
40
0
40
0.344239307097738
40
0.581334296401754
40
0.936976780357777
40
1
40
1
40
1
41
1.02613459695995
10
26.0952344806349
20
-2.2812670268216
30
0
41
1.02613459695995
10
25.446855880269
20
-1.99649575566319
30
0
41
1.02613459695995
10
24.545664025983
20
-1.13276941555411
30
0
41
1.02613459695995
10
23.8152787745993
20
0.0137530516073165
30
0
41
1.02613459695995
10
23.549800433309
20
1.02508273038661
30
0
41
1.02613459695995
10
23.5199335796631
20
1.19087577736022
30
0
0
SPLINE
5
1B0
100
AcDbEntity
8
1
62
256
6
ByLayer
370
18
48
1
60
0
100
AcDbSpline
70
4
71
2
72
8
73
5
40
0
40
0
40
0
40
0.0733047478974245
40
0.536652373948712
40
1
40
1
40
1
41
1
10
25.941184373615
20
12.9958527206098
30
0
41
1
10
25.9259701623819
20
13.1028766528099
30
0
41
1
10
25.779286585621
20
13.8670235053605
30
0
41
1
10
25.179228878038
20
14.7743773987359
30
0
41
1
10
24.7514949813249
20
14.9528958971159
30
0
0
SPLINE
5
1B1
100
AcDbEntity
8
1
62
256
6
ByLayer
370
18
48
1
60
0
100
AcDbSpline
70
4
71
3
72
8
73
4
40
0
40
0
40
0
40
0
40
1
40
1
40
1
40
1
41
1
10
25.9113433075093
20
17.6203487294062
30
0
41
1
10
25.9498761300717
20
17.5937795381534
30
0
41
1
10
25.9895722712359
20
17.5666832932613
30
0
41
1
10
26.0303457212643
20
17.5391061285889
30
0
0
SPLINE
5
1B2
100
AcDbEntity
8
1
62
256
6
ByLayer
370
18
48
1
60
0
100
AcDbSpline
70
4
71
2
72
9
73
6
40
0
40
0
40
0
40
0.464691154463967
40
0.464691154463967
40
0.929382308927934
40
1
40
1
40
1
41
1
10
20.3767177816217
20
1.67636472422208
30
0
41
1
10
20.7868857941558
20
1.50517750187706
30
0
41
1
10
21.25601536787
20
1.61234328514829
30
0
41
1
10
21.7653898964984
20
1.72870243920181
30
0
41
1
10
22.3390260990363
20
2.21723231408652
30
0
41
1
10
22.4125444421707
20
2.28717427787774
30
0
0
SPLINE
5
1B3
100
AcDbEntity
8
1
62
256
6
ByLayer
370
18
48
1
60
0
100
AcDbSpline
70
4
71
3
72
16
73
12
40
0
40
0
40
0
40
0
40
0.11143027962805
40
0.11143027962805
40
0.248747543515472
40
0.248747543515472
40
0.465535329195252
40
0.465535329195252
40
0.88385535186756
40
0.88385535186756
40
1
40
1
40
1
40
1
41
1
10
8.53867513459483
20
23.8391299750503
30
0
41
1
10
8.51081528400579
20
23.8391299750503
30
0
41
1
10
8.48260885722448
20
23.8375361275706
30
0
41
1
10
8.42415079676073
20
23.831150658589
30
0
41
1
10
8.39395861076943
20
23.825666877018
30
0
41
1
10
8.32484624564245
20
23.8089605749788
30
0
41
1
10
8.28921459142956
20
23.796037970776
30
0
41
1
10
8.201006109254
20
23.7556824246832
30
0
41
1
10
8.16026799314912
20
23.7250165399981
30
0
41
1
10
8.1207082984732
20
23.6845451449633
30
0
41
1
10
8.1128384014269
20
23.6755726082077
30
0
41
1
10
8.10566243270245
20
23.6665017920809
30
0
0
SPLINE
5
1B4
100
AcDbEntity
8
1
62
256
6
ByLayer
370
18
48
1
60
0
100
AcDbSpline
70
4
71
3
72
10
73
6
40
0
40
0
40
0
40
0
40
0.557501663665877
40
0.557501663665877
40
1
40
1
40
1
40
1
41
1
10
11.8943375672974
20
-15.2776332060815
30
0
41
1
10
11.8484634024225
20
-15.3214046802911
30
0
41
1
10
11.7837991840743
20
-15.3793044422495
30
0
41
1
10
11.633322851829
20
-15.4976441747706
30
0
41
1
10
11.5524968190072
20
-15.5572561083222
30
0
41
1
10
11.4613248654052
20
-15.6264181175895
30
0
0
SPLINE
5
1B5
100
AcDbEntity
8
1
62
256
6
ByLayer
370
18
48
1
60
0
100
AcDbSpline
70
4
71
2
72
8
73
5
40
0
40
0
40
0
40
0.154108314336779
40
0.436072209557853
40
1
40
1
40
1
41
1
10
20.0561789279801
20
0.215012304028704
30
0
41
1
10
20.0674300558979
20
0.344778905651737
30
0
41
1
10
20.1134045947154
20
0.62773266322165
30
0
41
1
10
20.238471054711
20
1.25667813798813
30
0
41
1
10
20.3767177816217
20
1.67636472422208
30
0
0
SPLINE
5
1B6
100
AcDbEntity
8
1
62
256
6
ByLayer
370
18
48
1
60
0
100
AcDbSpline
70
4
71
2
72
9
73
6
40
0
40
0
40
0
40
0.107382354789237
40
0.464429412873542
40
0.642952941915695
40
1
40
1
40
1
41
1
10
26.169240248516
20
17.4451842646889
30
0
41
1
10
26.028674439337
20
17.2772095837708
30
0
41
1
10
25.4217936655912
20
16.4593536017253
30
0
41
1
10
25.165070630972
20
15.9584794747296
30
0
41
1
10
24.8898240668136
20
15.3725588885557
30
0
41
1
10
24.751494981325
20
14.9528958971159
30
0
0
SPLINE
5
1B7
100
AcDbEntity
8
1
62
256
6
ByLayer
370
18
48
1
60
0
100
AcDbSpline
70
4
71
3
72
10
73
6
40
0
40
0
40
0
40
0
40
0.402044102652632
40
0.402044102652632
40
1
40
1
40
1
40
1
41
1
10
8.5386751345948
20
-15.6264181175896
30
0
41
1
10
8.45565130451814
20
-15.5634371823532
30
0
41
1
10
8.38116512940178
20
-15.5084417956534
30
0
41
1
10
8.22555738648487
20
-15.3873530726881
30
0
41
1
10
8.1547844176815
20
-15.3245036331396
30
0
41
1
10
8.10566243270253
20
-15.2776332060813
30
0
0
SPLINE
5
1B8
100
AcDbEntity
8
1
62
256
6
ByLayer
370
18
48
1
60
0
100
AcDbSpline
70
4
71
3
72
42
73
38
40
0
40
0
40
0
40
0
40
0.0001456802312426
40
0.0001456802312426
40
0.0001937815231818
40
0.0001937815231818
40
0.000231512688656
40
0.000231512688656
40
0.000260850911838
40
0.000260850911838
40
0.000290105234975
40
0.000290105234975
40
0.0003386246643695
40
0.0003386246643695
40
0.0004943088665545
40
0.0004943088665545
40
0.0012382889146618
40
0.0012382889146618
40
0.0042003656444981
40
0.0042003656444981
40
0.0160477397161233
40
0.0160477397161233
40
0.0634548704176177
40
0.0634548704176177
40
0.254713407559556
40
0.254713407559556
40
0.445726315602557
40
0.445726315602557
40
0.58832492141717
40
0.58832492141717
40
0.775840096437143
40
0.775840096437143
40
0.886031860653295
40
0.886031860653295
40
0.994826735536989
40
0.994826735536989
40
1
40
1
40
1
40
1
41
1
10
22.4124958231151
20
2.28729180480849
30
0
41
1
10
22.4125412273374
20
2.28736292952294
30
0
41
1
10
22.4125881422057
20
2.28743342743644
30
0
41
1
10
22.4126565308144
20
2.28751164573356
30
0
41
1
10
22.412674240814
20
2.2875298203835
30
0
41
1
10
22.4127068122386
20
2.28755567077593
30
0
41
1
10
22.4127217452742
20
2.28756486523315
30
0
41
1
10
22.4127476946863
20
2.28757312297961
30
0
41
1
10
22.4127590560603
20
2.28757392103711
30
0
41
1
10
22.4127797932365
20
2.28756914133174
30
0
41
1
10
22.4127893989001
20
2.28756358884533
30
0
41
1
10
22.4128118340621
20
2.28754341262419
30
0
41
1
10
22.412823208071
20
2.28752525070325
30
0
41
1
10
22.4128635227391
20
2.287442007583
30
0
41
1
10
22.4128807213256
20
2.28736142585356
30
0
41
1
10
22.4129698618662
20
2.28689924342933
30
0
41
1
10
22.4130010138462
20
2.28648282500063
30
0
41
1
10
22.413193532412
20
2.28444533230095
30
0
41
1
10
22.4133224452744
20
2.28279919617438
30
0
41
1
10
22.4140106307461
20
2.27459116559476
30
0
41
1
10
22.4145857538616
20
2.2680194429808
30
0
41
1
10
22.4176517301715
20
2.2351711167168
30
0
41
1
10
22.420666114152
20
2.20890399974138
30
0
41
1
10
22.4388288751253
20
2.07734053193519
30
0
41
1
10
22.4631782442997
20
1.97193053102202
30
0
41
1
10
22.5381013472798
20
1.76775655233027
30
0
41
1
10
22.5643478417968
20
1.6499923904496
30
0
41
1
10
22.6882564211083
20
1.49635023028469
30
0
41
1
10
22.7647271812556
20
1.4495858911535
30
0
41
1
10
22.9363851040144
20
1.34040779175803
30
0
41
1
10
23.0361480072598
20
1.27308875474455
30
0
41
1
10
23.202112028148
20
1.2019243486306
30
0
41
1
10
23.2671191540714
20
1.18455666791863
30
0
41
1
10
23.3924484028267
20
1.17218126229312
30
0
41
1
10
23.4542269300242
20
1.17654351656671
30
0
41
1
10
23.5144900385958
20
1.18963443633282
30
0
41
1
10
23.5172149685373
20
1.19026119035635
30
0
41
1
10
23.5199335796631
20
1.19087577736016
30
0
0
SPLINE
5
1B9
100
AcDbEntity
8
1
62
256
6
ByLayer
370
18
48
1
60
0
100
AcDbSpline
70
4
71
2
72
9
73
6
40
0
40
0
40
0
40
0.267973446292205
40
0.532642905441191
40
0.929647094164669
40
1
40
1
40
1
41
1.02613459695995
10
31.2648386887876
20
14.7596911470767
30
0
41
1.02613459695995
10
30.7623398615256
20
14.7798205778429
30
0
41
1.02613459695995
10
29.7233609144813
20
14.5804545969977
30
0
41
1.02613459695995
10
28.4285693261698
20
14.0141222182239
30
0
41
1.02613459695995
10
27.5998903618848
20
13.3162561399503
30
0
41
1.02613459695995
10
27.4753391768251
20
13.1947021015261
30
0
0
SPLINE
5
1BA
100
AcDbEntity
8
1
62
256
6
ByLayer
370
18
48
1
60
0
100
AcDbSpline
70
4
71
3
72
44
73
40
40
0
40
0
40
0
40
0
40
0.0051940134818202
40
0.0051940134818202
40
0.019900816477103
40
0.019900816477103
40
0.129752115292148
40
0.129752115292148
40
0.23983948782943
40
0.23983948782943
40
0.428838147350695
40
0.428838147350695
40
0.549630878883109
40
0.549630878883109
40
0.669782927319196
40
0.669782927319196
40
0.866798542878985
40
0.866798542878985
40
0.966549517268631
40
0.966549517268631
40
0.99144120790719
40
0.99144120790719
40
0.997663558486924
40
0.997663558486924
40
0.999220062444728
40
0.999220062444728
40
0.999613367632895
40
0.999613367632895
40
0.999703345486263
40
0.999703345486263
40
0.999741176157316
40
0.999741176157316
40
0.999773455170438
40
0.999773455170438
40
0.999805393932761
40
0.999805393932761
40
0.999853555622549
40
0.999853555622549
40
1
40
1
40
1
40
1
41
1
10
27.4753391768251
20
13.194702101526
30
0
41
1
10
27.4734596630293
20
13.1966339989208
30
0
41
1
10
27.4715827924486
20
13.1985809271905
30
0
41
1
10
27.4642053391877
20
13.2060458475429
30
0
41
1
10
27.4585928255988
20
13.2115088611602
30
0
41
1
10
27.4103905133066
20
13.2565871178333
30
0
41
1
10
27.3594392310683
20
13.2920533694026
30
0
41
1
10
27.2450943673706
20
13.3469321437553
30
0
41
1
10
27.180282835943
20
13.3668139194934
30
0
41
1
10
26.9998450913308
20
13.3985067053402
30
0
41
1
10
26.8787225006221
20
13.4046950131431
30
0
41
1
10
26.6894028106125
20
13.4192089966828
30
0
41
1
10
26.6149619267335
20
13.4256615969487
30
0
41
1
10
26.4776599645251
20
13.3979610459728
30
0
41
1
10
26.4195275522287
20
13.3521297278458
30
0
41
1
10
26.2650036147158
20
13.2622628066964
30
0
41
1
10
26.1733733126548
20
13.2082750700619
30
0
41
1
10
26.0523291142688
20
13.1070778310299
30
0
41
1
10
26.0136985178413
20
13.0709600449918
30
0
41
1
10
25.9679609752062
20
13.0239195808767
30
0
41
1
10
25.958944814727
20
13.0144182628913
30
0
41
1
10
25.9478242621892
20
13.0024340444989
30
0
41
1
10
25.9456094632695
20
13.0000263002415
30
0
41
1
10
25.9428420685863
20
12.997033937233
30
0
41
1
10
25.9422910571039
20
12.9964260631378
30
0
41
1
10
25.9415865803659
20
12.9957160888108
30
0
41
1
10
25.9414436407829
20
12.9955669563619
30
0
41
1
10
25.941259827373
20
12.9954408884056
30
0
41
1
10
25.9412243674809
20
12.9954198013926
30
0
41
1
10
25.9411755575867
20
12.9954089137206
30
0
41
1
10
25.9411610395263
20
12.9954083511917
30
0
41
1
10
25.9411368013074
20
12.9954158290584
30
0
41
1
10
25.9411264974421
20
12.9954228838579
30
0
41
1
10
25.9411099093886
20
12.9954432521494
30
0
41
1
10
25.9411033415939
20
12.9954566283067
30
0
41
1
10
25.9410908676171
20
12.9954937518374
30
0
41
1
10
25.9410865663784
20
12.9955196679642
30
0
41
1
10
25.9410758795312
20
12.9956266247733
30
0
41
1
10
25.9410805311796
20
12.9957149457487
30
0
41
1
10
25.9410866748751
20
12.9958021168567
30
0
0
SPLINE
5
1BB
100
AcDbEntity
8
1
62
256
6
ByLayer
370
18
48
1
60
0
100
AcDbSpline
70
4
71
3
72
16
73
12
40
0
40
0
40
0
40
0
40
0.111430279628047
40
0.111430279628047
40
0.248747543515467
40
0.248747543515467
40
0.465535329195252
40
0.465535329195252
40
0.883855351867553
40
0.883855351867553
40
1
40
1
40
1
40
1
41
1
10
8.53867513459483
20
-7.52966679426501
30
0
41
1
10
8.51081528400579
20
-7.52966679426501
30
0
41
1
10
8.48260885722448
20
-7.53471706780857
30
0
41
1
10
8.42415079676073
20
-7.55489210221029
30
0
41
1
10
8.39395861076943
20
-7.57218953888446
30
0
41
1
10
8.32484624564245
20
-7.62460019394089
30
0
41
1
10
8.28921459142956
20
-7.66489294253907
30
0
41
1
10
8.201006109254
20
-7.78941367630352
30
0
41
1
10
8.16026799314912
20
-7.88247511004147
30
0
41
1
10
8.12070829847318
20
-8.00269269538009
30
0
41
1
10
8.11283840142687
20
-8.02920008991578
30
0
41
1
10
8.10566243270245
20
-8.05584836782771
30
0
0
SPLINE
5
1BC
100
AcDbEntity
8
1
62
256
6
ByLayer
370
18
48
1
60
0
100
AcDbSpline
70
4
71
3
72
10
73
6
40
0
40
0
40
0
40
0
40
0.578104426482819
40
0.578104426482819
40
1
40
1
40
1
40
1
41
1
10
8.10566243270256
20
-14.3682408325648
30
0
41
1
10
8.15431207153046
20
-14.2109872636803
30
0
41
1
10
8.22377139565091
20
-14.0616626119233
30
0
41
1
10
8.37734423169181
20
-13.839273457025
30
0
41
1
10
8.45435152708336
20
-13.7545923235662
30
0
41
1
10
8.53867513459483
20
-13.6906253919194
30
0
0
SPLINE
5
1BD
100
AcDbEntity
8
SK1
62
256
6
ByLayer
370
18
48
1
60
0
100
AcDbSpline
70
4
71
3
72
24
73
20
40
0
40
0
40
0
40
0
40
0.469770575826712
40
0.469770575826712
40
0.663612078687295
40
0.663612078687295
40
0.860454184613411
40
0.860454184613411
40
0.903064590395674
40
0.903064590395674
40
0.923089343972159
40
0.923089343972159
40
0.943389594779288
40
0.943389594779288
40
0.961332284531898
40
0.961332284531898
40
0.988068136377815
40
0.988068136377815
40
1
40
1
40
1
40
1
41
1
10
-0.199999999999989
20
-6.10344849123027
30
0
41
1
10
-0.199999999999989
20
-5.97798788494984
30
0
41
1
10
-0.204016575726513
20
-5.8509635670122
30
0
41
1
10
-0.223752631922082
20
-5.67079358995508
30
0
41
1
10
-0.231244965282229
20
-5.61789623093799
30
0
41
1
10
-0.253819137983157
20
-5.51250015101135
30
0
41
1
10
-0.267096215270385
20
-5.45724004647028
30
0
41
1
10
-0.303692478692511
20
-5.40035311573845
30
0
41
1
10
-0.311479622041333
20
-5.39039941672755
30
0
41
1
10
-0.32547775761438
20
-5.37891036834915
30
0
41
1
10
-0.330455622185014
20
-5.3756771312581
30
0
41
1
10
-0.341078704143143
20
-5.37102422840917
30
0
41
1
10
-0.346883276538165
20
-5.36960762575521
30
0
41
1
10
-0.357630415747764
20
-5.36914354197148
30
0
41
1
10
-0.362713068049572
20
-5.36981917830482
30
0
41
1
10
-0.37458340180882
20
-5.37316903610403
30
0
41
1
10
-0.3812109954861
20
-5.37664910167555
30
0
41
1
10
-0.38989246528871
20
-5.38265091141974
30
0
41
1
10
-0.392483363308571
20
-5.38466360919151
30
0
41
1
10
-0.394976888875334
20
-5.38678189578178
30
0
0
SPLINE
5
1BE
100
AcDbEntity
8
SK1
62
256
6
ByLayer
370
18
48
1
60
0
100
AcDbSpline
70
4
71
3
72
22
73
18
40
0
40
0
40
0
40
0
40
0.359503326352592
40
0.359503326352592
40
0.722215553677066
40
0.722215553677066
40
0.826527133697721
40
0.826527133697721
40
0.863141914878009
40
0.863141914878009
40
0.900378805007221
40
0.900378805007221
40
0.933500873078508
40
0.933500873078508
40
0.972947835056124
40
0.972947835056124
40
1
40
1
40
1
40
1
41
1
10
-1.30710678118655
20
3.91806548153781
30
0
41
1
10
-1.26486058419175
20
4.15139729989579
30
0
41
1
10
-1.21446435132796
20
4.3814323255595
30
0
41
1
10
-1.08204001032738
20
4.82987250608483
30
0
41
1
10
-1.00537527699572
20
5.05527264511531
30
0
41
1
10
-0.832356114396674
20
5.30654108347395
30
0
41
1
10
-0.78723829488635
20
5.36152992388779
30
0
41
1
10
-0.709490490588593
20
5.41877880440927
30
0
41
1
10
-0.687203973712826
20
5.43218986569767
30
0
41
1
10
-0.639076749164047
20
5.45244590583036
30
0
41
1
10
-0.612446414061708
20
5.45928056674788
30
0
41
1
10
-0.562058433231044
20
5.46233960302246
30
0
41
1
10
-0.537713914852588
20
5.45964677314575
30
0
41
1
10
-0.488053852696936
20
5.44628701250068
30
0
41
1
10
-0.462609559288751
20
5.43420976008088
30
0
41
1
10
-0.423860760477311
20
5.40985221311715
30
0
41
1
10
-0.408979654247759
20
5.39867780521598
30
0
41
1
10
-0.394976888875391
20
5.38678223323953
30
0
0
SPLINE
5
1BF
100
AcDbEntity
8
SK1
62
256
6
ByLayer
370
18
48
1
60
0
100
AcDbSpline
70
4
71
3
72
22
73
18
40
0
40
0
40
0
40
0
40
0.0260455644157247
40
0.0260455644157247
40
0.0526262165848557
40
0.0526262165848557
40
0.0706056579866929
40
0.0706056579866929
40
0.0884949509195805
40
0.0884949509195805
40
0.11748921873202
40
0.11748921873202
40
0.17459086731972
40
0.17459086731972
40
0.37652425293745
40
0.37652425293745
40
1
40
1
40
1
40
1
41
1
10
-0.394976888872947
20
5.38678223324206
30
0
41
1
10
-0.389612432086437
20
5.38222504185003
30
0
41
1
10
-0.383763200778958
20
5.37811700449893
30
0
41
1
10
-0.3709728888754
20
5.37184824531644
30
0
41
1
10
-0.363785592650885
20
5.36968256852501
30
0
41
1
10
-0.351475656346565
20
5.3691458249703
30
0
41
1
10
-0.346317238365032
20
5.36979468027801
30
0
41
1
10
-0.336550133197363
20
5.3727304206256
30
0
41
1
10
-0.331829865964124
20
5.3750241182685
30
0
41
1
10
-0.32051111143835
20
5.38234306083376
30
0
41
1
10
-0.314321448136155
20
5.3882440687963
30
0
41
1
10
-0.298260159254511
20
5.40702817233921
30
0
41
1
10
-0.290032841564653
20
5.42147709180324
30
0
41
1
10
-0.258449669573651
20
5.48745345024415
30
0
41
1
10
-0.24608390551893
20
5.5434138926733
30
0
41
1
10
-0.204764795451922
20
5.7670899064446
30
0
41
1
10
-0.200000000000358
20
5.93709576978202
30
0
41
1
10
-0.200000000000358
20
6.10344667966001
30
0
0
SPLINE
5
1C0
100
AcDbEntity
8
SK1
62
256
6
ByLayer
370
18
48
1
60
0
100
AcDbSpline
70
4
71
3
72
10
73
6
40
0
40
0
40
0
40
0
40
0.5
40
0.5
40
1
40
1
40
1
40
1
41
1
10
-1.30710678118655
20
3.91806548153784
30
0
41
1
10
-1.53227959010832
20
2.67440369212437
30
0
41
1
10
-1.71681589069689
20
1.34075776539186
30
0
41
1
10
-1.71598271729604
20
-1.35050010337164
30
0
41
1
10
-1.53230696904976
20
-2.67425240209695
30
0
41
1
10
-1.30710678118655
20
-3.91806548057698
30
0
0
SPLINE
5
1C1
100
AcDbEntity
8
SK1
62
256
6
ByLayer
370
18
48
1
60
0
100
AcDbSpline
70
4
71
3
72
22
73
18
40
0
40
0
40
0
40
0
40
0.0394331151890913
40
0.0394331151890913
40
0.0795339708694829
40
0.0795339708694829
40
0.109637917244288
40
0.109637917244288
40
0.13957706301322
40
0.13957706301322
40
0.189266399657458
40
0.189266399657458
40
0.289571152403382
40
0.289571152403382
40
0.658284396834382
40
0.658284396834382
40
1
40
1
40
1
40
1
41
1
10
-0.394976888875306
20
-5.38678189578292
30
0
41
1
10
-0.415237014773396
20
-5.40399317028476
30
0
41
1
10
-0.437419275645453
20
-5.41977813092004
30
0
41
1
10
-0.486103141154984
20
-5.44521655864725
30
0
41
1
10
-0.51341298093098
20
-5.45496005292577
30
0
41
1
10
-0.562874322366525
20
-5.46212264681108
30
0
41
1
10
-0.585106616517606
20
-5.46199323188387
30
0
41
1
10
-0.627692822126733
20
-5.45533455005088
30
0
41
1
10
-0.648523068172722
20
-5.44883772858989
30
0
41
1
10
-0.699826196362153
20
-5.42613682765011
30
0
41
1
10
-0.728695564403438
20
-5.40623396070797
30
0
41
1
10
-0.806075449923839
20
-5.34007786619352
30
0
41
1
10
-0.847522380016557
20
-5.28655870152033
30
0
41
1
10
-1.01570466784384
20
-5.03084699030373
30
0
41
1
10
-1.09210771407481
20
-4.80149729085085
30
0
41
1
10
-1.21929875138233
20
-4.35887826398974
30
0
41
1
10
-1.26692602208391
20
-4.13998960128646
30
0
41
1
10
-1.30710678118655
20
-3.91806548057696
30
0
0
INSERT
5
1D3
100
AcDbEntity
8
2
62
256
6
ByLayer
370
25
48
1
60
0
100
AcDbBlockReference
2
DimnDraft3D11
10
0
20
0
30
0
41
1
42
1
43
1
50
0
210
0
220
0
230
1
0
LINE
5
72
100
AcDbEntity
8
1
62
256
6
ByLayer
370
18
48
1
60
0
100
AcDbLine
10
34.459897
20
3.548799
30
0
11
34.18206
21
3.548799
31
0
39
0
210
0
220
0
230
1
0
LINE
5
74
100
AcDbEntity
8
1
62
256
6
ByLayer
370
18
48
1
60
0
100
AcDbLine
10
34.540339
20
0.632689
30
0
11
34.829629
21
0.632689
31
0
39
0
210
0
220
0
230
1
0
LINE
5
75
100
AcDbEntity
8
1
62
256
6
ByLayer
370
18
48
1
60
0
100
AcDbLine
10
0.3
20
-25
30
0
11
20.840879
21
-25
31
0
39
0
210
0
220
0
230
1
0
LINE
5
76
100
AcDbEntity
8
1
62
256
6
ByLayer
370
18
48
1
60
0
100
AcDbLine
10
0.3
20
25
30
0
11
0
21
24.7
31
0
39
0
210
0
220
0
230
1
0
LINE
5
77
100
AcDbEntity
8
1
62
256
6
ByLayer
370
18
48
1
60
0
100
AcDbLine
10
0
20
-24.7
30
0
11
0.3
21
-25
31
0
39
0
210
0
220
0
230
1
0
LINE
5
78
100
AcDbEntity
8
1
62
256
6
ByLayer
370
18
48
1
60
0
100
AcDbLine
10
35.176455
20
5.716578
30
0
11
35.454292
21
5.716578
31
0
39
0
210
0
220
0
230
1
0
LINE
5
79
100
AcDbEntity
8
1
62
256
6
ByLayer
370
18
48
1
60
0
100
AcDbLine
10
30.889418
20
13.194373
30
0
11
30.024107
21
13.311302
31
0
39
0
210
0
220
0
230
1
0
LINE
5
7A
100
AcDbEntity
8
1
62
256
6
ByLayer
370
18
48
1
60
0
100
AcDbLine
10
30.512962
20
8.796513
30
0
11
31.0965
21
8.717661
31
0
39
0
210
0
220
0
230
1
0
LINE
5
7B
100
AcDbEntity
8
1
62
256
6
ByLayer
370
18
48
1
60
0
100
AcDbLine
10
33.693487
20
5.399362
30
0
11
33.918809
21
5.399362
31
0
39
0
210
0
220
0
230
1
0
LINE
5
7C
100
AcDbEntity
8
1
62
256
6
ByLayer
370
18
48
1
60
0
100
AcDbLine
10
34.829629
20
8.632689
30
0
11
34.540339
21
8.632689
31
0
39
0
210
0
220
0
230
1
0
LINE
5
7D
100
AcDbEntity
8
1
62
256
6
ByLayer
370
18
48
1
60
0
100
AcDbLine
10
35.99538
20
3.866016
30
0
11
35.717543
21
3.866016
31
0
39
0
210
0
220
0
230
1
0
LINE
5
7E
100
AcDbEntity
8
1
62
256
6
ByLayer
370
18
48
1
60
0
100
AcDbLine
10
20.791677
20
25
30
0
11
0.3
21
25
31
0
39
0
210
0
220
0
230
1
0
LINE
5
7F
100
AcDbEntity
8
1
62
256
6
ByLayer
370
18
48
1
60
0
100
AcDbLine
10
24.969257
20
-6.687473
30
0
11
16.827234
21
-8.411592
31
0
39
0
210
0
220
0
230
1
0
LINE
5
80
100
AcDbEntity
8
1
62
256
6
ByLayer
370
18
48
1
60
0
100
AcDbLine
10
9.766893
20
-14.404226
30
0
11
10.276482
21
-14.296318
31
0
39
0
210
0
220
0
230
1
0
LINE
5
81
100
AcDbEntity
8
1
62
256
6
ByLayer
370
18
48
1
60
0
100
AcDbLine
10
16.875997
20
-12.898833
30
0
11
25.880769
21
-10.992022
31
0
39
0
210
0
220
0
230
1
0
LINE
5
82
100
AcDbEntity
8
1
62
256
6
ByLayer
370
18
48
1
60
0
100
AcDbLine
10
25.970248
20
-10.91867
30
0
11
26.147223
21
-10.631834
31
0
39
0
210
0
220
0
230
1
0
LINE
5
83
100
AcDbEntity
8
1
62
256
6
ByLayer
370
18
48
1
60
0
100
AcDbLine
10
25.358837
20
-6.908743
30
0
11
25.080788
21
-6.71826
31
0
39
0
210
0
220
0
230
1
0
LINE
5
84
100
AcDbEntity
8
80
62
256
6
ByLayer
370
18
48
1
60
0
100
AcDbLine
10
0
20
0
30
0
11
-5
21
0
31
0
39
0
210
0
220
0
230
1
0
LINE
5
85
100
AcDbEntity
8
4
62
256
6
ByLayer
370
18
48
0.05
60
0
100
AcDbLine
10
0
20
0
30
0
11
60
21
0
31
0
39
0
210
0
220
0
230
1
0
LINE
5
87
100
AcDbEntity
8
81
62
256
6
ByLayer
370
18
48
1
60
0
100
AcDbLine
10
60
20
0.4817
30
0
11
70
21
0.4817
31
0
39
0
210
0
220
0
230
1
0
LINE
5
88
100
AcDbEntity
8
SK4
62
256
6
ByLayer
370
18
48
0.05
60
0
100
AcDbLine
10
-35
20
0
30
0
11
60
21
0
31
0
39
0
210
0
220
0
230
1
0
LINE
5
8A
100
AcDbEntity
8
1
62
256
6
ByLayer
370
18
48
1
60
0
100
AcDbLine
10
46.992963
20
6.774322
30
0
11
47.795663
21
6.350017
31
0
39
0
210
0
220
0
230
1
0
LINE
5
8B
100
AcDbEntity
8
1
62
256
6
ByLayer
370
18
48
1
60
0
100
AcDbLine
10
47.795663
20
-6.349936
30
0
11
46.992963
21
-6.774241
31
0
39
0
210
0
220
0
230
1
0
LINE
5
8C
100
AcDbEntity
8
1
62
256
6
ByLayer
370
18
48
1
60
0
100
AcDbLine
10
33.721877
20
5.405456
30
0
11
33.84818
21
5.405456
31
0
39
0
210
0
220
0
230
1
0
LINE
5
8D
100
AcDbEntity
8
1
62
256
6
ByLayer
370
18
48
1
60
0
100
AcDbLine
10
0.3
20
-25
30
0
11
0.3
21
25
31
0
39
0
210
0
220
0
230
1
0
LINE
5
8E
100
AcDbEntity
8
1
62
256
6
ByLayer
370
18
48
1
60
0
100
AcDbLine
10
0
20
-24.7
30
0
11
0
21
24.7
31
0
39
0
210
0
220
0
230
1
0
LINE
5
8F
100
AcDbEntity
8
1
62
256
6
ByLayer
370
18
48
1
60
0
100
AcDbLine
10
45.75968
20
6.350041
30
0
11
46.124835
21
6.350041
31
0
39
0
210
0
220
0
230
1
0
LINE
5
90
100
AcDbEntity
8
SK1
62
256
6
ByLayer
370
18
48
1
60
0
100
AcDbLine
10
-0.2
20
6.103447
30
0
11
-0.2
21
17.833485
31
0
39
0
210
0
220
0
230
1
0
LINE
5
92
100
AcDbEntity
8
SK1
62
256
6
ByLayer
370
18
48
1
60
0
100
AcDbLine
10
-0.2
20
-17.833485
30
0
11
-0.2
21
-6.103448
31
0
39
0
210
0
220
0
230
1
0
LINE
5
93
100
AcDbEntity
8
1
62
256
6
ByLayer
370
18
48
1
60
0
100
AcDbLine
10
17.440812
20
-13.429351
30
0
11
17.309044
21
-12.807086
31
0
39
0
210
0
220
0
230
1
0
LINE
5
94
100
AcDbEntity
8
1
62
256
6
ByLayer
370
18
48
1
60
0
100
AcDbLine
10
21.415098
20
-2.82811
30
0
11
21.415098
21
-7.440397
31
0
39
0
210
0
220
0
230
1
0
LINE
5
95
100
AcDbEntity
8
1
62
256
6
ByLayer
370
18
48
1
60
0
100
AcDbLine
10
21.415098
20
-11.937728
30
0
11
21.415098
21
-24.724586
31
0
39
0
210
0
220
0
230
1
0
LINE
5
96
100
AcDbEntity
8
1
62
256
6
ByLayer
370
18
48
1
60
0
100
AcDbLine
10
32.507406
20
13.082425
30
0
11
32.365477
21
12.74236
31
0
39
0
210
0
220
0
230
1
0
LINE
5
97
100
AcDbEntity
8
1
62
256
6
ByLayer
370
18
48
1
60
0
100
AcDbLine
10
26.780029
20
-0.640485
30
0
11
26.095234
21
-2.281267
31
0
39
0
210
0
220
0
230
1
0
LINE
5
98
100
AcDbEntity
8
1
62
256
6
ByLayer
370
18
48
1
60
0
100
AcDbLine
10
23.519934
20
1.190876
30
0
11
23.818258
21
2.096227
31
0
39
0
210
0
220
0
230
1
0
LINE
5
99
100
AcDbEntity
8
1
62
256
6
ByLayer
370
18
48
1
60
0
100
AcDbLine
10
27.220092
20
12.42008
30
0
11
27.475339
21
13.194702
31
0
39
0
210
0
220
0
230
1
0
LINE
5
9A
100
AcDbEntity
8
1
62
256
6
ByLayer
370
18
48
1
60
0
100
AcDbLine
10
45.190121
20
6.18786
30
0
11
46.464161
21
6.861314
31
0
39
0
210
0
220
0
230
1
0
LINE
5
9B
100
AcDbEntity
8
1
62
256
6
ByLayer
370
18
48
1
60
0
100
AcDbLine
10
36.076556
20
-4.561638
30
0
11
37.945995
21
-3.573457
31
0
39
0
210
0
220
0
230
1
0
LINE
5
9C
100
AcDbEntity
8
1
62
256
6
ByLayer
370
18
48
1
60
0
100
AcDbLine
10
40.211551
20
-3.57988
30
0
11
46.474972
21
-6.855518
31
0
39
0
210
0
220
0
230
1
0
LINE
5
9D
100
AcDbEntity
8
1
62
256
6
ByLayer
370
18
48
1
60
0
100
AcDbLine
10
32.507406
20
-2.487957
30
0
11
32.507406
21
-14.23874
31
0
39
0
210
0
220
0
230
1
0
LINE
5
9E
100
AcDbEntity
8
1
62
256
6
ByLayer
370
18
48
1
60
0
100
AcDbLine
10
32.507406
20
13.082425
30
0
11
32.507406
21
12.694149
31
0
39
0
210
0
220
0
230
1
0
LINE
5
9F
100
AcDbEntity
8
1
62
256
6
ByLayer
370
18
48
1
60
0
100
AcDbLine
10
46.543441
20
6.764332
30
0
11
45.29418
21
6.103976
31
0
39
0
210
0
220
0
230
1
0
LINE
5
A0
100
AcDbEntity
8
1
62
256
6
ByLayer
370
18
48
1
60
0
100
AcDbLine
10
34.20569
20
-4.676334
30
0
11
36.539421
21
-3.442729
31
0
39
0
210
0
220
0
230
1
0
LINE
5
A1
100
AcDbEntity
8
1
62
256
6
ByLayer
370
18
48
1
60
0
100
AcDbLine
10
40.464822
20
-3.573299
30
0
11
44.414345
21
-5.638816
31
0
39
0
210
0
220
0
230
1
0
LINE
5
A2
100
AcDbEntity
8
1
62
256
6
ByLayer
370
18
48
1
60
0
100
AcDbLine
10
45.611783
20
-6.265051
30
0
11
46.554816
21
-6.758238
31
0
39
0
210
0
220
0
230
1
0
LINE
5
A3
100
AcDbEntity
8
1
62
256
6
ByLayer
370
18
48
1
60
0
100
AcDbLine
10
34.111433
20
-4.543282
30
0
11
36.276669
21
-3.398743
31
0
39
0
210
0
220
0
230
1
0
LINE
5
A4
100
AcDbEntity
8
1
62
256
6
ByLayer
370
18
48
1
60
0
100
AcDbLine
10
40.579107
20
-3.570213
30
0
11
45.583247
21
-6.215389
31
0
39
0
210
0
220
0
230
1
0
LINE
5
A5
100
AcDbEntity
8
1
62
256
6
ByLayer
370
18
48
1
60
0
100
AcDbLine
10
45.583247
20
6.215471
30
0
11
45.326345
21
6.079673
31
0
39
0
210
0
220
0
230
1
0
LINE
5
A6
100
AcDbEntity
8
1
62
256
6
ByLayer
370
18
48
1
60
0
100
AcDbLine
10
45.508404
20
-6.215389
30
0
11
45.583247
21
-6.215389
31
0
39
0
210
0
220
0
230
1
0
LINE
5
A7
100
AcDbEntity
8
1
62
256
6
ByLayer
370
18
48
1
60
0
100
AcDbLine
10
45.583247
20
6.215471
30
0
11
45.505096
21
6.215471
31
0
39
0
210
0
220
0
230
1
0
LINE
5
A8
100
AcDbEntity
8
1
62
256
6
ByLayer
370
18
48
1
60
0
100
AcDbLine
10
46.124835
20
-6.349959
30
0
11
45.774135
21
-6.349959
31
0
39
0
210
0
220
0
230
1
0
LINE
5
A9
100
AcDbEntity
8
1
62
256
6
ByLayer
370
18
48
1
60
0
100
AcDbLine
10
59.578834
20
0.704327
30
0
11
49.152864
21
6.215471
31
0
39
0
210
0
220
0
230
1
0
LINE
5
AA
100
AcDbEntity
8
1
62
256
6
ByLayer
370
18
48
1
60
0
100
AcDbLine
10
46.124835
20
6.350041
30
0
11
48.611276
21
6.350041
31
0
39
0
210
0
220
0
230
1
0
LINE
5
AB
100
AcDbEntity
8
1
62
256
6
ByLayer
370
18
48
1
60
0
100
AcDbLine
10
48.611276
20
-6.349959
30
0
11
46.124835
21
-6.349959
31
0
39
0
210
0
220
0
230
1
0
LINE
5
AC
100
AcDbEntity
8
1
62
256
6
ByLayer
370
18
48
1
60
0
100
AcDbLine
10
49.152864
20
-6.215389
30
0
11
59.578834
21
-0.704246
31
0
39
0
210
0
220
0
230
1
0
LINE
5
AD
100
AcDbEntity
8
1
62
256
6
ByLayer
370
18
48
1
60
0
100
AcDbLine
10
34.418935
20
0.393714
30
0
11
32.500595
21
1.045483
31
0
39
0
210
0
220
0
230
1
0
LINE
5
AE
100
AcDbEntity
8
1
62
256
6
ByLayer
370
18
48
1
60
0
100
AcDbLine
10
47.65303
20
-2.346777
30
0
11
46.686031
21
-2.767402
31
0
39
0
210
0
220
0
230
1
0
LINE
5
AF
100
AcDbEntity
8
1
62
256
6
ByLayer
370
18
48
1
60
0
100
AcDbLine
10
33.330326
20
-2.767546
30
0
11
28.253835
21
-1.042773
31
0
39
0
210
0
220
0
230
1
0
LINE
5
B0
100
AcDbEntity
8
1
62
256
6
ByLayer
370
18
48
1
60
0
100
AcDbLine
10
49.083587
20
1.489621
30
0
11
48.990036
21
1.710757
31
0
39
0
210
0
220
0
230
1
0
LINE
5
B1
100
AcDbEntity
8
1
62
256
6
ByLayer
370
18
48
1
60
0
100
AcDbLine
10
26.9034
20
-0.586528
30
0
11
28.248084
21
-1.043394
31
0
39
0
210
0
220
0
230
1
0
LINE
5
B2
100
AcDbEntity
8
1
62
256
6
ByLayer
370
18
48
1
60
0
100
AcDbLine
10
49.332984
20
1.081722
30
0
11
49.223313
21
1.28288
31
0
39
0
210
0
220
0
230
1
0
LINE
5
B3
100
AcDbEntity
8
1
62
256
6
ByLayer
370
18
48
1
60
0
100
AcDbLine
10
27.066807
20
0.716924
30
0
11
34.19554
21
-1.705113
31
0
39
0
210
0
220
0
230
1
0
LINE
5
B4
100
AcDbEntity
8
1
62
256
6
ByLayer
370
18
48
1
60
0
100
AcDbLine
10
37.012553
20
8.2648
30
0
11
36.496151
21
8.334581
31
0
39
0
210
0
220
0
230
1
0
LINE
5
B5
100
AcDbEntity
8
1
62
256
6
ByLayer
370
18
48
1
60
0
100
AcDbLine
10
35.094213
20
8.91657
30
0
11
34.588126
21
8.984957
31
0
39
0
210
0
220
0
230
1
0
LINE
5
B6
100
AcDbEntity
8
1
62
256
6
ByLayer
370
18
48
1
60
0
100
AcDbLine
10
48.295311
20
-2.067398
30
0
11
48.089917
21
-2.15674
31
0
39
0
210
0
220
0
230
1
0
LINE
5
B7
100
AcDbEntity
8
1
62
256
6
ByLayer
370
18
48
1
60
0
100
AcDbLine
10
47.309854
20
0.248843
30
0
11
49.649666
21
-0.732933
31
0
39
0
210
0
220
0
230
1
0
LINE
5
B8
100
AcDbEntity
8
1
62
256
6
ByLayer
370
18
48
1
60
0
100
AcDbLine
10
48.990036
20
1.710757
30
0
11
48.473704
21
2.657812
31
0
39
0
210
0
220
0
230
1
0
LINE
5
B9
100
AcDbEntity
8
1
62
256
6
ByLayer
370
18
48
1
60
0
100
AcDbLine
10
35.094213
20
8.91657
30
0
11
37.012553
21
8.2648
31
0
39
0
210
0
220
0
230
1
0
LINE
5
BA
100
AcDbEntity
8
1
62
256
6
ByLayer
370
18
48
1
60
0
100
AcDbLine
10
28.476178
20
11.070828
30
0
11
25.851312
21
3.10491
31
0
39
0
210
0
220
0
230
1
0
LINE
5
BB
100
AcDbEntity
8
1
62
256
6
ByLayer
370
18
48
1
60
0
100
AcDbLine
10
28.248084
20
-1.043394
30
0
11
26.347534
21
-0.521801
31
0
39
0
210
0
220
0
230
1
0
LINE
5
BC
100
AcDbEntity
8
1
62
256
6
ByLayer
370
18
48
1
60
0
100
AcDbLine
10
28.248084
20
-1.043394
30
0
11
28.253835
21
-1.042773
31
0
39
0
210
0
220
0
230
1
0
LINE
5
BD
100
AcDbEntity
8
1
62
256
6
ByLayer
370
18
48
1
60
0
100
AcDbLine
10
30.865079
20
12.243884
30
0
11
37.993813
21
9.821847
31
0
39
0
210
0
220
0
230
1
0
LINE
5
BE
100
AcDbEntity
8
1
62
256
6
ByLayer
370
18
48
1
60
0
100
AcDbLine
10
32.747855
20
12.612467
30
0
11
31.40317
21
13.069333
31
0
39
0
210
0
220
0
230
1
0
LINE
5
BF
100
AcDbEntity
8
1
62
256
6
ByLayer
370
18
48
1
60
0
100
AcDbLine
10
34.588126
20
8.984957
30
0
11
36.496151
21
8.334581
31
0
39
0
210
0
220
0
230
1
0
LINE
5
C0
100
AcDbEntity
8
1
62
256
6
ByLayer
370
18
48
1
60
0
100
AcDbLine
10
23.952906
20
3.361439
30
0
11
26.577772
21
11.327357
31
0
39
0
210
0
220
0
230
1
0
LINE
5
C1
100
AcDbEntity
8
1
62
256
6
ByLayer
370
18
48
1
60
0
100
AcDbLine
10
37.828768
20
10.884281
30
0
11
32.752277
21
12.609054
31
0
39
0
210
0
220
0
230
1
0
LINE
5
C2
100
AcDbEntity
8
1
62
256
6
ByLayer
370
18
48
1
60
0
100
AcDbLine
10
28.546152
20
9.409445
30
0
11
26.921235
21
4.478162
31
0
39
0
210
0
220
0
230
1
0
LINE
5
C3
100
AcDbEntity
8
1
62
256
6
ByLayer
370
18
48
1
60
0
100
AcDbLine
10
30.456344
20
8.85918
30
0
11
29.966152
21
8.925419
31
0
39
0
210
0
220
0
230
1
0
LINE
5
C4
100
AcDbEntity
8
1
62
256
6
ByLayer
370
18
48
1
60
0
100
AcDbLine
10
25.851312
20
3.10491
30
0
11
23.952906
21
3.361439
31
0
39
0
210
0
220
0
230
1
0
LINE
5
C5
100
AcDbEntity
8
1
62
256
6
ByLayer
370
18
48
1
60
0
100
AcDbLine
10
29.966152
20
8.925419
30
0
11
28.546152
21
9.409445
31
0
39
0
210
0
220
0
230
1
0
LINE
5
C6
100
AcDbEntity
8
1
62
256
6
ByLayer
370
18
48
1
60
0
100
AcDbLine
10
28.476178
20
11.070828
30
0
11
26.577772
21
11.327357
31
0
39
0
210
0
220
0
230
1
0
LINE
5
C7
100
AcDbEntity
8
1
62
256
6
ByLayer
370
18
48
1
60
0
100
AcDbLine
10
26.9034
20
-0.586528
30
0
11
26.273406
21
-0.501398
31
0
39
0
210
0
220
0
230
1
0
LINE
5
C8
100
AcDbEntity
8
1
62
256
6
ByLayer
370
18
48
1
60
0
100
AcDbLine
10
32.747855
20
12.612467
30
0
11
32.752277
21
12.609054
31
0
39
0
210
0
220
0
230
1
0
LINE
5
C9
100
AcDbEntity
8
1
62
256
6
ByLayer
370
18
48
1
60
0
100
AcDbLine
10
47.65303
20
-2.346777
30
0
11
47.858803
21
-2.227339
31
0
39
0
210
0
220
0
230
1
0
LINE
5
CA
100
AcDbEntity
8
1
62
256
6
ByLayer
370
18
48
1
60
0
100
AcDbLine
10
35.29947
20
3.420884
30
0
11
35.577307
21
3.420884
31
0
39
0
210
0
220
0
230
1
0
LINE
5
CB
100
AcDbEntity
8
1
62
256
6
ByLayer
370
18
48
1
60
0
100
AcDbLine
10
33.955853
20
3.481381
30
0
11
34.23369
21
3.481381
31
0
39
0
210
0
220
0
230
1
0
LINE
5
CC
100
AcDbEntity
8
1
62
256
6
ByLayer
370
18
48
1
60
0
100
AcDbLine
10
36.022874
20
4.572192
30
0
11
36.300711
21
4.572192
31
0
39
0
210
0
220
0
230
1
0
LINE
5
CD
100
AcDbEntity
8
1
62
256
6
ByLayer
370
18
48
1
60
0
100
AcDbLine
10
35.892784
20
5.221468
30
0
11
36.170621
21
5.221468
31
0
39
0
210
0
220
0
230
1
0
LINE
5
CE
100
AcDbEntity
8
1
62
256
6
ByLayer
370
18
48
1
60
0
100
AcDbLine
10
34.783869
20
5.994236
30
0
11
35.061706
21
5.994236
31
0
39
0
210
0
220
0
230
1
0
LINE
5
CF
100
AcDbEntity
8
1
62
256
6
ByLayer
370
18
48
1
60
0
100
AcDbLine
10
20.920792
20
-24.995826
30
0
11
20.920792
21
-24.488619
31
0
39
0
210
0
220
0
230
1
0
LINE
5
D0
100
AcDbEntity
8
1
62
256
6
ByLayer
370
18
48
1
60
0
100
AcDbLine
10
17.476575
20
-8.171873
30
0
11
17.430319
21
-8.181668
31
0
39
0
210
0
220
0
230
1
0
LINE
5
D1
100
AcDbEntity
8
1
62
256
6
ByLayer
370
18
48
1
60
0
100
AcDbLine
10
21.415098
20
24.724586
30
0
11
21.673312
21
24.724586
31
0
39
0
210
0
220
0
230
1
0
LINE
5
D2
100
AcDbEntity
8
1
62
256
6
ByLayer
370
18
48
1
60
0
100
AcDbLine
10
11.894338
20
-14.368241
30
0
11
11.894338
21
-8.055848
31
0
39
0
210
0
220
0
230
1
0
LINE
5
D3
100
AcDbEntity
8
1
62
256
6
ByLayer
370
18
48
1
60
0
100
AcDbLine
10
25.941187
20
12.995831
30
0
11
22.412561
21
2.28719
31
0
39
0
210
0
220
0
230
1
0
LINE
5
D4
100
AcDbEntity
8
1
62
256
6
ByLayer
370
18
48
1
60
0
100
AcDbLine
10
8.105662
20
-23.666502
30
0
11
8.105662
21
-15.277633
31
0
39
0
210
0
220
0
230
1
0
LINE
5
D5
100
AcDbEntity
8
1
62
256
6
ByLayer
370
18
48
1
60
0
100
AcDbLine
10
11.894338
20
8.055848
30
0
11
11.894338
21
23.666502
31
0
39
0
210
0
220
0
230
1
0
LINE
5
D6
100
AcDbEntity
8
1
62
256
6
ByLayer
370
18
48
1
60
0
100
AcDbLine
10
21.752369
20
-24.724586
30
0
11
21.415098
21
-24.724586
31
0
39
0
210
0
220
0
230
1
0
LINE
5
D7
100
AcDbEntity
8
1
62
256
6
ByLayer
370
18
48
1
60
0
100
AcDbLine
10
8.538675
20
7.529667
30
0
11
11.461325
21
7.529667
31
0
39
0
210
0
220
0
230
1
0
LINE
5
D8
100
AcDbEntity
8
1
62
256
6
ByLayer
370
18
48
1
60
0
100
AcDbLine
10
11.461325
20
23.83913
30
0
11
8.538675
21
23.83913
31
0
39
0
210
0
220
0
230
1
0
LINE
5
D9
100
AcDbEntity
8
1
62
256
6
ByLayer
370
18
48
1
60
0
100
AcDbLine
10
21.673312
20
19.793011
30
0
11
25.911343
21
17.620349
31
0
39
0
210
0
220
0
230
1
0
LINE
5
DA
100
AcDbEntity
8
1
62
256
6
ByLayer
370
18
48
1
60
0
100
AcDbLine
10
21.673312
20
19.793011
30
0
11
21.673312
21
24.724586
31
0
39
0
210
0
220
0
230
1
0
LINE
5
DB
100
AcDbEntity
8
1
62
256
6
ByLayer
370
18
48
1
60
0
100
AcDbLine
10
16.963257
20
-15.855872
30
0
11
17.219666
21
-20.159795
31
0
39
0
210
0
220
0
230
1
0
LINE
5
DC
100
AcDbEntity
8
1
62
256
6
ByLayer
370
18
48
1
60
0
100
AcDbLine
10
32.831928
20
14.06728
30
0
11
32.507406
21
13.082425
31
0
39
0
210
0
220
0
230
1
0
LINE
5
DD
100
AcDbEntity
8
1
62
256
6
ByLayer
370
18
48
1
60
0
100
AcDbLine
10
17.430319
20
-15.010836
30
0
11
17.430319
21
-23.455355
31
0
39
0
210
0
220
0
230
1
0
LINE
5
DE
100
AcDbEntity
8
1
62
256
6
ByLayer
370
18
48
1
60
0
100
AcDbLine
10
8.105662
20
-14.368241
30
0
11
8.105662
21
-8.055848
31
0
39
0
210
0
220
0
230
1
0
LINE
5
DF
100
AcDbEntity
8
1
62
256
6
ByLayer
370
18
48
1
60
0
100
AcDbLine
10
8.538675
20
-23.83913
30
0
11
11.461325
21
-23.83913
31
0
39
0
210
0
220
0
230
1
0
LINE
5
E0
100
AcDbEntity
8
1
62
256
6
ByLayer
370
18
48
1
60
0
100
AcDbLine
10
17.430319
20
23.455355
30
0
11
17.430319
21
-8.181668
31
0
39
0
210
0
220
0
230
1
0
LINE
5
E1
100
AcDbEntity
8
1
62
256
6
ByLayer
370
18
48
1
60
0
100
AcDbLine
10
32.507406
20
-14.23874
30
0
11
27.248171
21
-16.934931
31
0
39
0
210
0
220
0
230
1
0
LINE
5
E2
100
AcDbEntity
8
1
62
256
6
ByLayer
370
18
48
1
60
0
100
AcDbLine
10
21.415098
20
24.724586
30
0
11
21.415098
21
5.180637
31
0
39
0
210
0
220
0
230
1
0
LINE
5
E3
100
AcDbEntity
8
1
62
256
6
ByLayer
370
18
48
1
60
0
100
AcDbLine
10
11.461325
20
-23.83913
30
0
11
11.461325
21
-15.626418
31
0
39
0
210
0
220
0
230
1
0
LINE
5
E4
100
AcDbEntity
8
1
62
256
6
ByLayer
370
18
48
1
60
0
100
AcDbLine
10
32.507406
20
-14.23874
30
0
11
46.474972
21
-6.855518
31
0
39
0
210
0
220
0
230
1
0
LINE
5
E5
100
AcDbEntity
8
1
62
256
6
ByLayer
370
18
48
1
60
0
100
AcDbLine
10
46.464161
20
6.861314
30
0
11
46.543441
21
6.764332
31
0
39
0
210
0
220
0
230
1
0
LINE
5
E6
100
AcDbEntity
8
1
62
256
6
ByLayer
370
18
48
1
60
0
100
AcDbLine
10
32.831928
20
14.06728
30
0
11
31.264839
21
14.759691
31
0
39
0
210
0
220
0
230
1
0
LINE
5
E7
100
AcDbEntity
8
1
62
256
6
ByLayer
370
18
48
1
60
0
100
AcDbLine
10
46.474972
20
-6.855518
30
0
11
46.554816
21
-6.758238
31
0
39
0
210
0
220
0
230
1
0
LINE
5
E8
100
AcDbEntity
8
1
62
256
6
ByLayer
370
18
48
1
60
0
100
AcDbLine
10
11.461325
20
-7.529667
30
0
11
8.538675
21
-7.529667
31
0
39
0
210
0
220
0
230
1
0
LINE
5
E9
100
AcDbEntity
8
1
62
256
6
ByLayer
370
18
48
1
60
0
100
AcDbLine
10
32.929955
20
-3.554214
30
0
11
32.793535
21
-3.28811
31
0
39
0
210
0
220
0
230
1
0
LINE
5
EA
100
AcDbEntity
8
1
62
256
6
ByLayer
370
18
48
1
60
0
100
AcDbLine
10
8.538675
20
-23.83913
30
0
11
8.538675
21
-15.626418
31
0
39
0
210
0
220
0
230
1
0
LINE
5
EB
100
AcDbEntity
8
1
62
256
6
ByLayer
370
18
48
1
60
0
100
AcDbLine
10
8.105662
20
8.055848
30
0
11
8.105662
21
23.666502
31
0
39
0
210
0
220
0
230
1
0
LINE
5
EC
100
AcDbEntity
8
1
62
256
6
ByLayer
370
18
48
1
60
0
100
AcDbLine
10
20.920792
20
24.488619
30
0
11
20.920792
21
24.989274
31
0
39
0
210
0
220
0
230
1
0
LINE
5
ED
100
AcDbEntity
8
1
62
256
6
ByLayer
370
18
48
1
60
0
100
AcDbLine
10
11.894338
20
-23.666502
30
0
11
11.894338
21
-15.277633
31
0
39
0
210
0
220
0
230
1
0
LINE
5
EE
100
AcDbEntity
8
1
62
256
6
ByLayer
370
18
48
1
60
0
100
AcDbLine
10
11.461325
20
-13.690625
30
0
11
11.461325
21
-7.529667
31
0
39
0
210
0
220
0
230
1
0
LINE
5
EF
100
AcDbEntity
8
1
62
256
6
ByLayer
370
18
48
1
60
0
100
AcDbLine
10
34.20569
20
-4.676334
30
0
11
36.076556
21
-4.561638
31
0
39
0
210
0
220
0
230
1
0
LINE
5
F0
100
AcDbEntity
8
1
62
256
6
ByLayer
370
18
48
1
60
0
100
AcDbLine
10
24.260216
20
15.111637
30
0
11
21.415098
21
5.180637
31
0
39
0
210
0
220
0
230
1
0
LINE
5
F1
100
AcDbEntity
8
1
62
256
6
ByLayer
370
18
48
1
60
0
100
AcDbLine
10
8.538675
20
7.529667
30
0
11
8.538675
21
23.83913
31
0
39
0
210
0
220
0
230
1
0
LINE
5
F2
100
AcDbEntity
8
1
62
256
6
ByLayer
370
18
48
1
60
0
100
AcDbLine
10
17.430319
20
-8.181668
30
0
11
16.826552
21
-8.309519
31
0
39
0
210
0
220
0
230
1
0
LINE
5
F3
100
AcDbEntity
8
1
62
256
6
ByLayer
370
18
48
1
60
0
100
AcDbLine
10
34.111433
20
-4.543282
30
0
11
34.20569
21
-4.676334
31
0
39
0
210
0
220
0
230
1
0
LINE
5
F4
100
AcDbEntity
8
1
62
256
6
ByLayer
370
18
48
1
60
0
100
AcDbLine
10
46.464161
20
6.861314
30
0
11
32.831928
21
14.06728
31
0
39
0
210
0
220
0
230
1
0
LINE
5
F5
100
AcDbEntity
8
1
62
256
6
ByLayer
370
18
48
1
60
0
100
AcDbLine
10
11.461325
20
7.529667
30
0
11
11.461325
21
23.83913
31
0
39
0
210
0
220
0
230
1
0
LINE
5
F6
100
AcDbEntity
8
1
62
256
6
ByLayer
370
18
48
1
60
0
100
AcDbLine
10
8.538675
20
-13.690625
30
0
11
8.538675
21
-7.529667
31
0
39
0
210
0
220
0
230
1
0
LINE
5
F7
100
AcDbEntity
8
SK1
62
256
6
ByLayer
370
18
48
1
60
0
100
AcDbLine
10
-1.307107
20
-3.918065
30
0
11
-1.307107
21
3.918065
31
0
39
0
210
0
220
0
230
1
0
MTEXT
5
1C2
100
AcDbEntity
8
SK6
62
256
6
ByLayer
370
18
48
1
60
0
100
AcDbMText
10
-6.625
20
-23.63309
30
0
210
0
220
0
230
1
1
\W0.7311;C5-DDNNN-00060-15
40
3.5
41
0
44
1.084337
50
0
71
7
72
5
7
iso_b_vert
0
DIMENSION
5
1E1
100
AcDbEntity
8
2
62
256
6
ByLayer
370
13
48
1
60
0
100
AcDbDimension
2
DimnDraft3D2
10
53.075636
20
4.141902
30
0
11
46.86278
21
22.285678
31
0
70
34
71
5
72
1
41
1
210
0
220
0
230
1
3
Standard
100
AcDb2LineAngularDimension
13
60
23
0.4817
33
0
14
60
24
-1.1058
34
0
15
60
25
0.4817
35
0
16
49.185134
26
18.431243
36
0
40
0
0
DIMENSION
5
1F7
100
AcDbEntity
8
SK2
62
256
6
ByLayer
370
13
48
1
60
0
100
AcDbDimension
2
DimnDraft3D3
10
-37.75
20
25
30
0
11
-37.75
21
-2.688158
31
0
70
32
71
5
72
1
41
1
210
0
220
0
230
1
3
Standard
100
AcDbAlignedDimension
13
-2
23
-25
33
0
14
-2
24
25
34
0
50
90
100
AcDbRotatedDimension
1001
ACAD
1000
DSTYLE
1002
{
1070
    74
1070
     0
1070
   279
1070
     0
1070
   172
1070
     1
1070
   173
1070
     1
1070
   340
1005
1C3
1070
    77
1070
     1
1070
    73
1070
     0
1070
   171
1070
     3
1070
   274
1070
     4
1070
   177
1070
     2
1070
   176
1070
     2
1070
   178
1070
     7
1070
    78
1070
     8
1070
    41
1041
3.175
1070
   147
1041
2.25
1070
    42
1041
2.0
1070
    44
1041
2.0
1070
   140
1041
4.5
1070
   343
1005
1E2
1070
   344
1005
1E2
1002
}
0
DIMENSION
5
205
100
AcDbEntity
8
2
62
256
6
ByLayer
370
13
48
1
60
0
100
AcDbDimension
2
DimnDraft3D4
10
82.25
20
0.4817
30
0
11
82.25
21
10.7367
31
0
70
32
71
5
72
1
41
1
210
0
220
0
230
1
3
Standard
100
AcDbAlignedDimension
13
62
23
0
33
0
14
62
24
0.4817
34
0
50
90
100
AcDbRotatedDimension
1001
ACAD
1000
DSTYLE
1002
{
1070
    74
1070
     0
1070
   279
1070
     0
1070
   172
1070
     1
1070
   173
1070
     1
1070
   340
1005
1C3
1070
    77
1070
     1
1070
    73
1070
     0
1070
   171
1070
     3
1070
   274
1070
     4
1070
   177
1070
     2
1070
   176
1070
     2
1070
   178
1070
     7
1070
    78
1070
     8
1070
    41
1041
3.175
1070
   147
1041
2.25
1070
    42
1041
2.0
1070
    44
1041
2.0
1070
   140
1041
4.5
1070
   343
1005
1E2
1070
   344
1005
1E2
1002
}
0
ENDSEC
0
SECTION
2
OBJECTS
0
DICTIONARY
5
270
330
0
100
AcDbDictionary
280
0
281
1
3
ACAD_GROUP
350
271
3
ACAD_MLINESTYLE
350
272
0
DICTIONARY
5
271
330
0
100
AcDbDictionary
280
0
281
1
0
DICTIONARY
5
272
330
0
100
AcDbDictionary
280
0
281
1
3
Standard
350
18
0
MLINESTYLE
5
18
330
272
100
AcDbMlineStyle
2
Standard
70
0
3

62
256
51
90
52
90
71
2
49
-0.5
62
256
6
ByLayer
49
0.5
62
256
6
ByLayer
0
RASTERVARIABLES
5
25e
330

100
AcDbRasterVariables
90
0
70
1
71
1
72
1
0
ENDSEC
0
EOF
