0
SECTION
2
HEADER
9
$ACADVER
1
AC1015
9
$DWGCODEPAGE
3
ANSI_1252
9
$HANDSEED
5
2b5
9
$ANGBASE
50
0
9
$ANGDIR
70
0
9
$ATTMODE
70
1
9
$AUNITS
70
0
9
$AUPREC
70
0
9
$CECOLOR
62
256
9
$CELTSCALE
40
1
9
$CELTYPE
6
ByLayer
9
$CELWEIGHT
370
18
9
$CLAYER
8
0
9
$CMLJUST
70
0
9
$CMLSCALE
40
1
9
$CMLSTYLE
2
Standard
9
$DIMSTYLE
2
Standard
9
$TEXTSIZE
40
0.2
9
$TEXTSTYLE
7
Standard
9
$LUNITS
70
2
9
$LUPREC
70
4
9
$EXTNAMES
290
1
9
$INSUNITS
70
4
9
$LTSCALE
40
1
9
$LWDISPLAY
290
1
9
$PDMODE
70
0
9
$PDSIZE
40
0
9
$PLINEGEN
70
0
0
ENDSEC
0
SECTION
2
CLASSES
0
CLASS
1
RASTERVARIABLES
2
AcDbRasterVariables
3
ISM
90
0
280
0
281
0
0
ENDSEC
0
SECTION
2
TABLES
0
TABLE
2
VPORT
5
2ab
100
AcDbSymbolTable
0
VPORT
5
1
100
AcDbSymbolTableRecord
100
AcDbViewportTableRecord
2
*Active
70
0
10
0
20
0
11
1
21
1
12
-1
22
1
13
0
23
0
14
0.5
24
0.5
15
10
25
10
16
0
26
0
36
1
17
0
27
0
37
0
0
ENDTAB
0
TABLE
2
LTYPE
5
2ac
100
AcDbSymbolTable
0
LTYPE
5
14
100
AcDbSymbolTableRecord
100
AcDbLinetypeTableRecord
70
0
2
ByBlock
3

72
65
73
0
40
0
0
LTYPE
5
15
100
AcDbSymbolTableRecord
100
AcDbLinetypeTableRecord
70
0
2
ByLayer
3

72
65
73
0
40
0
0
LTYPE
5
16
100
AcDbSymbolTableRecord
100
AcDbLinetypeTableRecord
70
0
2
CONTINUOUS
3
Solid line
72
65
73
0
40
0
0
LTYPE
5
6A
100
AcDbSymbolTableRecord
100
AcDbLinetypeTableRecord
70
0
2
CENTER
3
____ _ ____ _ ____ _ ____
72
65
73
4
40
47.5
49
22
74
0
49
-8.5
74
0
49
8.5
74
0
49
-8.5
74
0
0
LTYPE
5
6B
100
AcDbSymbolTableRecord
100
AcDbLinetypeTableRecord
70
0
2
DASHED
3
__ __ __ __ __ __ __ __ __
72
65
73
2
40
25.72
49
12.86
74
0
49
-12.86
74
0
0
ENDTAB
0
TABLE
2
LAYER
5
2ad
100
AcDbSymbolTable
0
LAYER
5
10
100
AcDbSymbolTableRecord
100
AcDbLayerTableRecord
2
0
70
0
62
7
6
CONTINUOUS
290
1
370
-3
390
0
0
LAYER
5
6D
100
AcDbSymbolTableRecord
100
AcDbLayerTableRecord
2
2
70
0
62
7
6
CONTINUOUS
290
1
370
-3
390
0
0
LAYER
5
6F
100
AcDbSymbolTableRecord
100
AcDbLayerTableRecord
2
80
70
0
62
-6
6
CONTINUOUS
290
1
370
-3
390
0
0
LAYER
5
71
100
AcDbSymbolTableRecord
100
AcDbLayerTableRecord
2
81
70
0
62
-3
6
CONTINUOUS
290
1
370
-3
390
0
0
LAYER
5
73
100
AcDbSymbolTableRecord
100
AcDbLayerTableRecord
2
1
70
0
62
4
6
CONTINUOUS
290
1
370
-3
390
0
0
LAYER
5
89
100
AcDbSymbolTableRecord
100
AcDbLayerTableRecord
2
4
70
0
62
-2
6
CENTER
290
1
370
-3
390
0
0
LAYER
5
297
100
AcDbSymbolTableRecord
100
AcDbLayerTableRecord
2
SK4
70
0
62
2
6
CENTER
290
1
370
-3
390
0
0
LAYER
5
298
100
AcDbSymbolTableRecord
100
AcDbLayerTableRecord
2
SK1
70
0
62
4
6
CONTINUOUS
290
1
370
-3
390
0
0
LAYER
5
299
100
AcDbSymbolTableRecord
100
AcDbLayerTableRecord
2
SK6
70
0
62
5
6
CONTINUOUS
290
1
370
-3
390
0
0
LAYER
5
29a
100
AcDbSymbolTableRecord
100
AcDbLayerTableRecord
2
SK2
70
0
62
7
6
CONTINUOUS
290
1
370
-3
390
0
0
ENDTAB
0
TABLE
2
STYLE
5
2ae
100
AcDbSymbolTable
0
STYLE
5
11
100
AcDbSymbolTableRecord
100
AcDbTextStyleTableRecord
2
Standard
3
txt
70
0
71
0
40
0
41
1
42
0
50
0
0
STYLE
5
1FB
100
AcDbSymbolTableRecord
100
AcDbTextStyleTableRecord
2
iso_b_vert
3
simplex.shx
70
0
71
0
40
0
41
1
42
0
50
0
0
STYLE
5
1FC
100
AcDbSymbolTableRecord
100
AcDbTextStyleTableRecord
2
DWGDirectTextStyle
3
simplex
70
0
71
0
40
0
41
1
42
0
50
0
0
ENDTAB
0
TABLE
2
DIMSTYLE
5
2af
100
AcDbSymbolTable
100
AcDbDimStyleTable
0
DIMSTYLE
105
27
100
AcDbSymbolTableRecord
100
AcDbDimStyleTableRecord
2
Standard
70
0
3
<>
41
0.18
42
0.0625
44
0.18
140
0.18
147
0.09
73
0
74
0
77
1
271
2
275
0
278
52
280
0
340
11
0
ENDTAB
0
TABLE
2
VIEW
5
2b0
100
AcDbSymbolTable
0
ENDTAB
0
TABLE
2
UCS
5
2b1
100
AcDbSymbolTable
0
ENDTAB
0
TABLE
2
APPID
5
2b2
100
AcDbSymbolTable
0
APPID
5
12
100
AcDbSymbolTableRecord
100
AcDbRegAppTableRecord
2
ACAD
70
0
0
ENDTAB
0
TABLE
2
BLOCK_RECORD
5
2b3
100
AcDbSymbolTable
0
BLOCK_RECORD
5
1F
100
AcDbSymbolTableRecord
100
AcDbBlockTableRecord
2
*Model_Space
340
0
70
0
0
BLOCK_RECORD
5
1B
100
AcDbSymbolTableRecord
100
AcDbBlockTableRecord
2
*Paper_Space
340
0
70
0
0
BLOCK_RECORD
5
23
100
AcDbSymbolTableRecord
100
AcDbBlockTableRecord
2
*Paper_Space0
340
0
70
0
0
BLOCK_RECORD
5
1FE
100
AcDbSymbolTableRecord
100
AcDbBlockTableRecord
2
DimnDraft3D11
340
0
70
0
0
BLOCK_RECORD
5
20C
100
AcDbSymbolTableRecord
100
AcDbBlockTableRecord
2
DimnDraft3D2
340
0
70
0
0
BLOCK_RECORD
5
21A
100
AcDbSymbolTableRecord
100
AcDbBlockTableRecord
2
_CLOSED
340
0
70
0
0
BLOCK_RECORD
5
221
100
AcDbSymbolTableRecord
100
AcDbBlockTableRecord
2
DimnDraft3D3
340
0
70
0
0
BLOCK_RECORD
5
230
100
AcDbSymbolTableRecord
100
AcDbBlockTableRecord
2
DimnDraft3D4
340
0
70
0
0
ENDTAB
0
ENDSEC
0
SECTION
2
BLOCKS
0
BLOCK
5
20
100
AcDbEntity
8
0
100
AcDbBlockBegin
2
*Model_Space
70
0
10
0
20
0
30
0
3
*Model_Space
0
ENDBLK
5
21
100
AcDbEntity
8
0
100
AcDbBlockEnd
0
BLOCK
5
1C
100
AcDbEntity
8
0
100
AcDbBlockBegin
2
*Paper_Space
70
0
10
0
20
0
30
0
3
*Paper_Space
0
ENDBLK
5
1D
100
AcDbEntity
8
0
100
AcDbBlockEnd
0
BLOCK
5
24
100
AcDbEntity
8
0
100
AcDbBlockBegin
2
*Paper_Space0
70
0
10
0
20
0
30
0
3
*Paper_Space0
0
ENDBLK
5
25
100
AcDbEntity
8
0
100
AcDbBlockEnd
0
BLOCK
5
1FF
100
AcDbEntity
8
0
100
AcDbBlockBegin
2
DimnDraft3D11
70
0
10
0
20
0
30
0
3
DimnDraft3D11
0
LINE
5
201
100
AcDbEntity
8
2
62
256
6
ByLayer
370
25
48
1
60
0
100
AcDbLine
10
60
20
2.3288
30
0
11
60
21
38.0788
31
0
39
0
210
0
220
0
230
1
0
LINE
5
202
100
AcDbEntity
8
2
62
256
6
ByLayer
370
25
48
1
60
0
100
AcDbLine
10
0
20
27
30
0
11
0
21
38.0788
31
0
39
0
210
0
220
0
230
1
0
LINE
5
203
100
AcDbEntity
8
2
62
256
6
ByLayer
370
25
48
1
60
0
100
AcDbLine
10
60
20
36.0788
30
0
11
0
21
36.0788
31
0
39
0
210
0
220
0
230
1
0
LINE
5
204
100
AcDbEntity
8
2
62
256
6
ByLayer
370
25
48
1
60
0
100
AcDbLine
10
60
20
36.0788
30
0
11
56.825002
21
35.660803
31
0
39
0
210
0
220
0
230
1
0
LINE
5
205
100
AcDbEntity
8
2
62
256
6
ByLayer
370
25
48
1
60
0
100
AcDbLine
10
60
20
36.0788
30
0
11
56.824998
21
36.496797
31
0
39
0
210
0
220
0
230
1
0
LINE
5
206
100
AcDbEntity
8
2
62
256
6
ByLayer
370
25
48
1
60
0
100
AcDbLine
10
56.825002
20
35.660803
30
0
11
56.824998
21
36.496797
31
0
39
0
210
0
220
0
230
1
0
LINE
5
207
100
AcDbEntity
8
2
62
256
6
ByLayer
370
25
48
1
60
0
100
AcDbLine
10
0
20
36.0788
30
0
11
3.174998
21
36.496797
31
0
39
0
210
0
220
0
230
1
0
LINE
5
208
100
AcDbEntity
8
2
62
256
6
ByLayer
370
25
48
1
60
0
100
AcDbLine
10
0
20
36.0788
30
0
11
3.175002
21
35.660803
31
0
39
0
210
0
220
0
230
1
0
LINE
5
209
100
AcDbEntity
8
2
62
256
6
ByLayer
370
25
48
1
60
0
100
AcDbLine
10
3.174998
20
36.496797
30
0
11
3.175002
21
35.660803
31
0
39
0
210
0
220
0
230
1
0
MTEXT
5
20A
100
AcDbEntity
8
2
62
256
6
ByLayer
370
18
48
1
60
0
100
AcDbMText
10
25.843421
20
37.2038
30
0
210
0
220
0
230
1
1
\W0.7346;60.0
40
4.5
41
0
44
1.084337
50
0
71
7
72
5
7
iso_b_vert
0
ENDBLK
5
200
100
AcDbEntity
8
0
100
AcDbBlockEnd
0
BLOCK
5
217
100
AcDbEntity
8
0
100
AcDbBlockBegin
2
DimnDraft3D2
70
0
10
0
20
0
30
0
3
DimnDraft3D2
0
MTEXT
5
20D
100
AcDbEntity
8
2
62
256
6
ByLayer
370
18
48
1
60
0
100
AcDbMText
10
48.686804
20
19.552096
30
0
210
0
220
0
230
1
1
\W0.7785;45%%d
40
4.5
41
0
44
1.084337
50
22.3434918550001
71
7
72
5
7
iso_b_vert
0
LINE
5
20E
100
AcDbEntity
8
2
62
256
6
ByLayer
370
13
48
1
60
0
100
AcDbLine
10
60
20
2.3288
30
0
11
60
21
23.284644
31
0
39
0
210
0
220
0
230
1
0
LINE
5
20F
100
AcDbEntity
8
2
62
256
6
ByLayer
370
13
48
1
60
0
100
AcDbLine
10
53.085646
20
7.319118
30
0
11
43.856688
21
16.64947
31
0
39
0
210
0
220
0
230
1
0
ARC
5
210
100
AcDbEntity
8
2
62
256
6
ByLayer
370
13
48
1
60
0
100
AcDbCircle
39
0
10
60
20
0.3288
30
0
40
20.9558441220057
210
0
220
0
230
1
100
AcDbArc
50
90
51
134.686984
0
LINE
5
211
100
AcDbEntity
8
2
62
256
6
ByLayer
370
13
48
1
60
0
100
AcDbLine
10
60
20
21.284644
30
0
11
56.843069
21
20.746944
31
0
39
0
210
0
220
0
230
1
0
LINE
5
212
100
AcDbEntity
8
2
62
256
6
ByLayer
370
13
48
1
60
0
100
AcDbLine
10
60
20
21.284644
30
0
11
56.811468
21
21.58234
31
0
39
0
210
0
220
0
230
1
0
LINE
5
213
100
AcDbEntity
8
2
62
256
6
ByLayer
370
13
48
1
60
0
100
AcDbLine
10
56.843069
20
20.746944
30
0
11
56.811468
21
21.58234
31
0
39
0
210
0
220
0
230
1
0
LINE
5
214
100
AcDbEntity
8
2
62
256
6
ByLayer
370
13
48
1
60
0
100
AcDbLine
10
45.263155
20
15.227551
30
0
11
47.320719
21
17.68148
31
0
39
0
210
0
220
0
230
1
0
LINE
5
215
100
AcDbEntity
8
2
62
256
6
ByLayer
370
13
48
1
60
0
100
AcDbLine
10
45.263155
20
15.227551
30
0
11
47.885735
21
17.065329
31
0
39
0
210
0
220
0
230
1
0
LINE
5
216
100
AcDbEntity
8
2
62
256
6
ByLayer
370
13
48
1
60
0
100
AcDbLine
10
47.320719
20
17.68148
30
0
11
47.885735
21
17.065329
31
0
39
0
210
0
220
0
230
1
0
ENDBLK
5
218
100
AcDbEntity
8
0
100
AcDbBlockEnd
0
BLOCK
5
21B
100
AcDbEntity
8
0
100
AcDbBlockBegin
2
_CLOSED
70
0
10
0
20
0
30
0
3
_CLOSED
0
LINE
5
21D
100
AcDbEntity
8
0
62
256
6
ByLayer
370
-2
48
1
60
0
100
AcDbLine
10
-1
20
0.166667
30
0
11
0
21
0
31
0
39
0
210
0
220
0
230
1
0
LINE
5
21E
100
AcDbEntity
8
0
62
256
6
ByLayer
370
-2
48
1
60
0
100
AcDbLine
10
0
20
0
30
0
11
-1
21
-0.166667
31
0
39
0
210
0
220
0
230
1
0
LINE
5
21F
100
AcDbEntity
8
0
62
256
6
ByLayer
370
-2
48
1
60
0
100
AcDbLine
10
-1
20
0.166667
30
0
11
-1
21
-0.166667
31
0
39
0
210
0
220
0
230
1
0
LINE
5
220
100
AcDbEntity
8
0
62
256
6
ByLayer
370
-2
48
1
60
0
100
AcDbLine
10
0
20
0
30
0
11
-1
21
0
31
0
39
0
210
0
220
0
230
1
0
ENDBLK
5
21C
100
AcDbEntity
8
0
100
AcDbBlockEnd
0
BLOCK
5
22D
100
AcDbEntity
8
0
100
AcDbBlockBegin
2
DimnDraft3D3
70
0
10
0
20
0
30
0
3
DimnDraft3D3
0
MTEXT
5
222
100
AcDbEntity
8
SK2
62
256
6
ByLayer
370
18
48
1
60
0
100
AcDbMText
10
-38.875
20
-1.563158
30
0
210
0
220
0
230
1
1
\W0.6740;50
40
4.5
41
0
44
1.084337
50
90
71
7
72
5
7
iso_b_vert
0
LINE
5
224
100
AcDbEntity
8
SK2
62
256
6
ByLayer
370
13
48
1
60
0
100
AcDbLine
10
-2
20
-25
30
0
11
-39.75
21
-25
31
0
39
0
210
0
220
0
230
1
0
LINE
5
225
100
AcDbEntity
8
SK2
62
256
6
ByLayer
370
13
48
1
60
0
100
AcDbLine
10
-2
20
25
30
0
11
-39.75
21
25
31
0
39
0
210
0
220
0
230
1
0
LINE
5
226
100
AcDbEntity
8
SK2
62
256
6
ByLayer
370
13
48
1
60
0
100
AcDbLine
10
-37.75
20
-25
30
0
11
-37.75
21
25
31
0
39
0
210
0
220
0
230
1
0
LINE
5
227
100
AcDbEntity
8
SK2
62
256
6
ByLayer
370
13
48
1
60
0
100
AcDbLine
10
-37.75
20
-25
30
0
11
-38.167997
21
-21.825002
31
0
39
0
210
0
220
0
230
1
0
LINE
5
228
100
AcDbEntity
8
SK2
62
256
6
ByLayer
370
13
48
1
60
0
100
AcDbLine
10
-37.75
20
-25
30
0
11
-37.332003
21
-21.824998
31
0
39
0
210
0
220
0
230
1
0
LINE
5
229
100
AcDbEntity
8
SK2
62
256
6
ByLayer
370
13
48
1
60
0
100
AcDbLine
10
-38.167997
20
-21.825002
30
0
11
-37.332003
21
-21.824998
31
0
39
0
210
0
220
0
230
1
0
LINE
5
22A
100
AcDbEntity
8
SK2
62
256
6
ByLayer
370
13
48
1
60
0
100
AcDbLine
10
-37.75
20
25
30
0
11
-37.332003
21
21.825002
31
0
39
0
210
0
220
0
230
1
0
LINE
5
22B
100
AcDbEntity
8
SK2
62
256
6
ByLayer
370
13
48
1
60
0
100
AcDbLine
10
-37.75
20
25
30
0
11
-38.167997
21
21.824998
31
0
39
0
210
0
220
0
230
1
0
LINE
5
22C
100
AcDbEntity
8
SK2
62
256
6
ByLayer
370
13
48
1
60
0
100
AcDbLine
10
-37.332003
20
21.825002
30
0
11
-38.167997
21
21.824998
31
0
39
0
210
0
220
0
230
1
0
ENDBLK
5
22E
100
AcDbEntity
8
0
100
AcDbBlockEnd
0
BLOCK
5
23B
100
AcDbEntity
8
0
100
AcDbBlockBegin
2
DimnDraft3D4
70
0
10
0
20
0
30
0
3
DimnDraft3D4
0
MTEXT
5
231
100
AcDbEntity
8
2
62
256
6
ByLayer
370
18
48
1
60
0
100
AcDbMText
10
81.125
20
11.7088
30
0
210
0
220
0
230
1
1
\W0.7121;0.3
40
4.5
41
0
44
1.084337
50
90
71
7
72
5
7
iso_b_vert
0
LINE
5
232
100
AcDbEntity
8
2
62
256
6
ByLayer
370
13
48
1
60
0
100
AcDbLine
10
62
20
0
30
0
11
84.25
21
0
31
0
39
0
210
0
220
0
230
1
0
LINE
5
233
100
AcDbEntity
8
2
62
256
6
ByLayer
370
13
48
1
60
0
100
AcDbLine
10
62
20
0.3288
30
0
11
84.25
21
0.3288
31
0
39
0
210
0
220
0
230
1
0
LINE
5
234
100
AcDbEntity
8
2
62
256
6
ByLayer
370
13
48
1
60
0
100
AcDbLine
10
82.25
20
17.7838
30
0
11
82.25
21
-11.25
31
0
39
0
210
0
220
0
230
1
0
LINE
5
235
100
AcDbEntity
8
2
62
256
6
ByLayer
370
13
48
1
60
0
100
AcDbLine
10
82.25
20
0
30
0
11
82.667997
21
-3.174998
31
0
39
0
210
0
220
0
230
1
0
LINE
5
236
100
AcDbEntity
8
2
62
256
6
ByLayer
370
13
48
1
60
0
100
AcDbLine
10
82.25
20
0
30
0
11
81.832003
21
-3.175002
31
0
39
0
210
0
220
0
230
1
0
LINE
5
237
100
AcDbEntity
8
2
62
256
6
ByLayer
370
13
48
1
60
0
100
AcDbLine
10
82.667997
20
-3.174998
30
0
11
81.832003
21
-3.175002
31
0
39
0
210
0
220
0
230
1
0
LINE
5
238
100
AcDbEntity
8
2
62
256
6
ByLayer
370
13
48
1
60
0
100
AcDbLine
10
82.25
20
0.3288
30
0
11
81.832003
21
3.503798
31
0
39
0
210
0
220
0
230
1
0
LINE
5
239
100
AcDbEntity
8
2
62
256
6
ByLayer
370
13
48
1
60
0
100
AcDbLine
10
82.25
20
0.3288
30
0
11
82.667997
21
3.503802
31
0
39
0
210
0
220
0
230
1
0
LINE
5
23A
100
AcDbEntity
8
2
62
256
6
ByLayer
370
13
48
1
60
0
100
AcDbLine
10
81.832003
20
3.503798
30
0
11
82.667997
21
3.503802
31
0
39
0
210
0
220
0
230
1
0
ENDBLK
5
23C
100
AcDbEntity
8
0
100
AcDbBlockEnd
0
ENDSEC
0
SECTION
2
ENTITIES
0
ARC
5
113
100
AcDbEntity
8
SK1
62
256
6
ByLayer
370
18
48
1
60
0
100
AcDbCircle
39
0
10
0.6
20
-18.75
30
0
40
1.00000000000001
210
0
220
0
230
-1
100
AcDbArc
50
113.578178
51
126.869898
0
ARC
5
114
100
AcDbEntity
8
SK1
62
256
6
ByLayer
370
18
48
1
60
0
100
AcDbCircle
39
0
10
0.6
20
18.75
30
0
40
1.00000000000001
210
0
220
0
230
-1
100
AcDbArc
50
233.130102
51
246.421822
0
ELLIPSE
5
115
100
AcDbEntity
8
1
62
256
6
ByLayer
370
18
48
1
60
0
100
AcDbEllipse
10
51.839507
20
1.8E-05
30
0
11
-8.77406667064607E-16
21
-4.77653718043597
31
0
210
0
220
0
230
1
40
0.989133
41
-0.634074492553614
42
-0.617126658661603
0
ELLIPSE
5
116
100
AcDbEntity
8
1
62
256
6
ByLayer
370
18
48
1
60
0
100
AcDbEllipse
10
51.839507
20
1.8E-05
30
0
11
-8.77406667064607E-16
21
-4.77653718043597
31
0
210
0
220
0
230
1
40
0.989133
41
-2.69899892012245
42
-2.68305959986407
0
ELLIPSE
5
117
100
AcDbEntity
8
1
62
256
6
ByLayer
370
18
48
1
60
0
100
AcDbEllipse
10
10
20
-14.421031
30
0
11
-1.65
21
2.02060048380692E-16
31
0
210
0
220
0
230
1
40
0.75471
41
-0.918523121078673
42
0
0
ELLIPSE
5
118
100
AcDbEntity
8
1
62
256
6
ByLayer
370
18
48
1
60
0
100
AcDbEllipse
10
10
20
-14.421031
30
0
11
-1.65
21
2.02060048380692E-16
31
0
210
0
220
0
230
1
40
0.75471
41
0
42
1.57079640208616
0
ELLIPSE
5
119
100
AcDbEntity
8
1
62
256
6
ByLayer
370
18
48
1
60
0
100
AcDbEllipse
10
10
20
-14.421031
30
0
11
-1.65
21
2.02060048380692E-16
31
0
210
0
220
0
230
1
40
0.75471
41
1.57079610092107
42
-2.22306969667175
0
ELLIPSE
5
11A
100
AcDbEntity
8
1
62
256
6
ByLayer
370
18
48
1
60
0
100
AcDbEllipse
10
21.415098
20
-62.757707
30
0
11
-0.859474501663875
21
144.754799236326
31
0
210
0
220
0
230
1
40
0.026988
41
1.22242850366714
42
1.23571691387461
0
ELLIPSE
5
11B
100
AcDbEntity
8
1
62
256
6
ByLayer
370
18
48
1
60
0
100
AcDbEllipse
10
21.415098
20
-62.757707
30
0
11
-0.859474501663875
21
144.754799236326
31
0
210
0
220
0
230
1
40
0.026988
41
1.18885453985518
42
1.18960580526736
0
ELLIPSE
5
11C
100
AcDbEntity
8
1
62
256
6
ByLayer
370
18
48
1
60
0
100
AcDbEllipse
10
51.442542
20
1.8E-05
30
0
11
3.36766747301154E-16
21
5.5
31
0
210
0
220
0
230
1
40
0.989133
41
2.43211909493983
42
2.61799387799408
0
ELLIPSE
5
11D
100
AcDbEntity
8
1
62
256
6
ByLayer
370
18
48
1
60
0
100
AcDbEllipse
10
10
20
-14.421031
30
0
11
-1.99999999999999
21
2.44921270764474E-16
31
0
210
0
220
0
230
1
40
0.75471
41
0.168271303406706
42
1.57079610092107
0
ELLIPSE
5
11E
100
AcDbEntity
8
1
62
256
6
ByLayer
370
18
48
1
60
0
100
AcDbEllipse
10
10
20
-14.421031
30
0
11
-1.99999999999999
21
2.44921270764474E-16
31
0
210
0
220
0
230
1
40
0.75471
41
1.57079610092107
42
2.97332075785602
0
ELLIPSE
5
11F
100
AcDbEntity
8
1
62
256
6
ByLayer
370
18
48
1
60
0
100
AcDbEllipse
10
37.455817
20
0.17854
30
0
11
2.32675207226252E-17
21
0.38
31
0
210
0
220
0
230
1
40
0.989133
41
-2.68594342089335
42
-2.33498694719273
0
ELLIPSE
5
120
100
AcDbEntity
8
1
62
256
6
ByLayer
370
18
48
1
60
0
100
AcDbEllipse
10
37.643211
20
2.343992
30
0
11
2.32675207226252E-17
21
0.38
31
0
210
0
220
0
230
1
40
0.989133
41
-0.981138631591338
42
-0.455610074533235
0
ELLIPSE
5
121
100
AcDbEntity
8
1
62
256
6
ByLayer
370
18
48
1
60
0
100
AcDbEllipse
10
38.030665
20
-0.378482
30
0
11
-7.80686550561765E-17
21
-0.425
31
0
210
0
220
0
230
1
40
0.989133
41
3.14158979446546
42
-2.33498694719276
0
ELLIPSE
5
122
100
AcDbEntity
8
1
62
256
6
ByLayer
370
18
48
1
60
0
100
AcDbEllipse
10
38.305
20
2.791634
30
0
11
-7.80686550561765E-17
21
-0.425
31
0
210
0
220
0
230
1
40
0.989133
41
-0.981138631591354
42
-1.43719275627848E-06
0
ELLIPSE
5
123
100
AcDbEntity
8
1
62
256
6
ByLayer
370
18
48
1
60
0
100
AcDbEllipse
10
38.692455
20
0.06916
30
0
11
2.32675207226252E-17
21
0.38
31
0
210
0
220
0
230
1
40
0.989133
41
-2.68594820057571
42
-1.28778939599617
0
ELLIPSE
5
124
100
AcDbEntity
8
1
62
256
6
ByLayer
370
18
48
1
60
0
100
AcDbEllipse
10
38.879849
20
2.234612
30
0
11
2.32675207226252E-17
21
0.38
31
0
210
0
220
0
230
1
40
0.989133
41
-2.02833618278795
42
-0.455695506750696
0
ELLIPSE
5
125
100
AcDbEntity
8
1
62
256
6
ByLayer
370
18
48
1
60
0
100
AcDbEllipse
10
38.013458
20
1.206576
30
0
11
-7.34763812293426E-16
21
-4
31
0
210
0
220
0
230
1
40
0.989133
41
-3.14150544065455
42
-2.24484073350127E-16
0
ELLIPSE
5
126
100
AcDbEntity
8
1
62
256
6
ByLayer
370
18
48
1
60
0
100
AcDbEllipse
10
38.013458
20
1.206576
30
0
11
-7.34763812293426E-16
21
-4
31
0
210
0
220
0
230
1
40
0.989133
41
0
42
0.0872664133769446
0
ELLIPSE
5
127
100
AcDbEntity
8
1
62
256
6
ByLayer
370
18
48
1
60
0
100
AcDbEllipse
10
38.167833
20
1.206576
30
0
11
-2.1124459603436E-16
21
-1.15
31
0
210
0
220
0
230
1
40
0.989133
41
-0.695284357855093
42
-1.95203542043589E-16
0
ELLIPSE
5
128
100
AcDbEntity
8
1
62
256
6
ByLayer
370
18
48
1
60
0
100
AcDbEllipse
10
38.167833
20
1.206576
30
0
11
-2.1124459603436E-16
21
-1.15
31
0
210
0
220
0
230
1
40
0.989133
41
-1.98618507993748
42
-1.3932093539295
0
ELLIPSE
5
129
100
AcDbEntity
8
1
62
256
6
ByLayer
370
18
48
1
60
0
100
AcDbEllipse
10
38.167833
20
1.206576
30
0
11
-2.1124459603436E-16
21
-1.15
31
0
210
0
220
0
230
1
40
0.989133
41
0
42
-2.63835957131961
0
ELLIPSE
5
12A
100
AcDbEntity
8
1
62
256
6
ByLayer
370
18
48
1
60
0
100
AcDbEllipse
10
38.042862
20
1.206576
30
0
11
-2.1124459603436E-16
21
-1.15
31
0
210
0
220
0
230
1
40
0.989133
41
3.08660344157559
42
-3.05432681821637
0
ELLIPSE
5
12B
100
AcDbEntity
8
1
62
256
6
ByLayer
370
18
48
1
60
0
100
AcDbEllipse
10
38.042862
20
1.206576
30
0
11
-2.1124459603436E-16
21
-1.15
31
0
210
0
220
0
230
1
40
0.989133
41
0.0549670171116421
42
3.08660432066492
0
ELLIPSE
5
12C
100
AcDbEntity
8
1
62
256
6
ByLayer
370
18
48
1
60
0
100
AcDbEllipse
10
25.628165
20
-10.094773
30
0
11
0.280818691593539
21
-2.18200386398643
31
0
210
0
220
0
230
1
40
0.2164
41
4.34028162190556E-05
42
3.14155377821266
0
ELLIPSE
5
12D
100
AcDbEntity
8
1
62
256
6
ByLayer
370
18
48
1
60
0
100
AcDbEllipse
10
25.870244
20
-10.063618
30
0
11
-0.248907476639725
21
1.93404887944252
31
0
210
0
220
0
230
1
40
0.2164
41
-2.91800714752659
42
-0.223588406456006
0
ELLIPSE
5
12E
100
AcDbEntity
8
1
62
256
6
ByLayer
370
18
48
1
60
0
100
AcDbEllipse
10
30.809741
20
6.060267
30
0
11
-0.173923713746869
21
-2.99506740399071
31
0
210
0
220
0
230
1
40
0.877443
41
3.12571721692435
42
-1.60306703523668
0
ELLIPSE
5
12F
100
AcDbEntity
8
1
62
256
6
ByLayer
370
18
48
1
60
0
100
AcDbEllipse
10
38.870586
20
1.193614
30
0
11
-0.0384424678862503
21
-4.14982194517582
31
0
210
0
220
0
230
1
40
0.986426
41
0.0847563485389387
42
3.06347705958977
0
ELLIPSE
5
130
100
AcDbEntity
8
1
62
256
6
ByLayer
370
18
48
1
60
0
100
AcDbEllipse
10
51.942424
20
1.8E-05
30
0
11
-6.16126126409623E-16
21
-3.35414518843274
31
0
210
0
220
0
230
1
40
0.989133
41
1.62867717546971
42
2.67908040181389
0
ELLIPSE
5
131
100
AcDbEntity
8
1
62
256
6
ByLayer
370
18
48
1
60
0
100
AcDbEllipse
10
51.942424
20
1.8E-05
30
0
11
-6.16126126409623E-16
21
-3.35414518843274
31
0
210
0
220
0
230
1
40
0.989133
41
0.287979326581658
42
1.32011310539427
0
ELLIPSE
5
132
100
AcDbEntity
8
1
62
256
6
ByLayer
370
18
48
1
60
0
100
AcDbEllipse
10
51.442542
20
1.8E-05
30
0
11
3.36766747301154E-16
21
5.5
31
0
210
0
220
0
230
1
40
0.989133
41
0.34906585040146
42
0.521340742964322
0
ELLIPSE
5
133
100
AcDbEntity
8
1
62
256
6
ByLayer
370
18
48
1
60
0
100
AcDbEllipse
10
10
20
-12.665093
30
0
11
-1.86732139084921
21
2.63482006209687
31
0
210
0
220
0
230
1
40
0.271866
41
-3.10180352726313
42
-2.44879159421084
0
ELLIPSE
5
134
100
AcDbEntity
8
1
62
256
6
ByLayer
370
18
48
1
60
0
100
AcDbEllipse
10
11.40515
20
0
30
0
11
-3.38203886692336
21
24.9889601750269
31
0
210
0
220
0
230
1
40
0.219655
41
-2.71376927852321
42
-2.62622306725467
0
ELLIPSE
5
135
100
AcDbEntity
8
1
62
256
6
ByLayer
370
18
48
1
60
0
100
AcDbEllipse
10
10
20
-14.658522
30
0
11
-1.99999999999996
21
2.02127811016469E-15
31
0
210
0
220
0
230
1
40
0.708833
41
0.751504621492298
42
2.39008803209751
0
ELLIPSE
5
136
100
AcDbEntity
8
1
62
256
6
ByLayer
370
18
48
1
60
0
100
AcDbEllipse
10
49.014221
20
4.477878
30
0
11
-1.29933666309731
21
-2.41003002234514
31
0
210
0
220
0
230
1
40
0.524248
41
-2.42348064165367
42
-2.08115015664944
0
ELLIPSE
5
137
100
AcDbEntity
8
1
62
256
6
ByLayer
370
18
48
1
60
0
100
AcDbEllipse
10
-1.056258
20
0
30
0
11
-11.709272349727
21
-24.677186440937
31
0
210
0
220
0
230
1
40
0.341999
41
2.0597599531005
42
2.97437958168081
0
ELLIPSE
5
138
100
AcDbEntity
8
1
62
256
6
ByLayer
370
18
48
1
60
0
100
AcDbEllipse
10
17.260972
20
-10.185062
30
0
11
-0.0159603832431447
21
16.5923546370569
31
0
210
0
220
0
230
1
40
0.011084
41
-2.47890576092027
42
-2.06674246137435
0
ELLIPSE
5
139
100
AcDbEntity
8
1
62
256
6
ByLayer
370
18
48
1
60
0
100
AcDbEllipse
10
21.056258
20
0
30
0
11
-11.7092723497278
21
-24.6771864409381
31
0
210
0
220
0
230
1
40
0.341999
41
-1.08183270048926
42
-0.167213071908978
0
ELLIPSE
5
13A
100
AcDbEntity
8
1
62
256
6
ByLayer
370
18
48
1
60
0
100
AcDbEllipse
10
21.056258
20
0
30
0
11
-11.7092723497275
21
24.6771864409378
31
0
210
0
220
0
230
1
40
0.341999
41
0.167213071908977
42
1.08183270048926
0
ELLIPSE
5
13B
100
AcDbEntity
8
1
62
256
6
ByLayer
370
18
48
1
60
0
100
AcDbEllipse
10
17.004725
20
-3.107991
30
0
11
-0.0159603832642505
21
16.5923546394111
31
0
210
0
220
0
230
1
40
0.011084
41
1.92782685486206
42
2.83689986441807
0
ELLIPSE
5
13C
100
AcDbEntity
8
1
62
256
6
ByLayer
370
18
48
1
60
0
100
AcDbEllipse
10
18.187217
20
0
30
0
11
1.53075794227797E-15
21
25
31
0
210
0
220
0
230
1
40
0.087489
41
0.353363115402326
42
2.59650347865364
0
ELLIPSE
5
13D
100
AcDbEntity
8
1
62
256
6
ByLayer
370
18
48
1
60
0
100
AcDbEllipse
10
10
20
-12.665093
30
0
11
-1.86732139085573
21
-2.63482006210443
31
0
210
0
220
0
230
1
40
0.271866
41
-0.692801059377754
42
-0.0397891263265755
0
ELLIPSE
5
13E
100
AcDbEntity
8
1
62
256
6
ByLayer
370
18
48
1
60
0
100
AcDbEllipse
10
18.187216
20
-1.3E-05
30
0
11
-4.19591324622833E-07
21
24.9999866393928
31
0
210
0
220
0
230
1
40
0.087489
41
2.76688892734641
42
2.7882294448801
0
ELLIPSE
5
13F
100
AcDbEntity
8
1
62
256
6
ByLayer
370
18
48
1
60
0
100
AcDbEllipse
10
10
20
-14.658522
30
0
11
-2
21
2.02127811016473E-15
31
0
210
0
220
0
230
1
40
0.708833
41
-2.39008803209748
42
-0.751504621492318
0
ELLIPSE
5
140
100
AcDbEntity
8
1
62
256
6
ByLayer
370
18
48
1
60
0
100
AcDbEllipse
10
-1.056258
20
0
30
0
11
-11.7092723497277
21
24.677186440938
31
0
210
0
220
0
230
1
40
0.341999
41
-2.97437958168082
42
-2.05975995310053
0
ELLIPSE
5
141
100
AcDbEntity
8
1
62
256
6
ByLayer
370
18
48
1
60
0
100
AcDbEllipse
10
28.450566
20
11.069984
30
0
11
-5.57311117464471
21
0.504073868095591
31
0
210
0
220
0
230
1
40
0.714753
41
-3.13881999186339
42
-2.44913518589592
0
ELLIPSE
5
142
100
AcDbEntity
8
1
62
256
6
ByLayer
370
18
48
1
60
0
100
AcDbEllipse
10
26.898811
20
-6.86152
30
0
11
-5.57311117463923
21
0.504073868086936
31
0
210
0
220
0
230
1
40
0.714753
41
2.45468050935213
42
-3.1388199918644
0
ELLIPSE
5
143
100
AcDbEntity
8
1
62
256
6
ByLayer
370
18
48
1
60
0
100
AcDbEllipse
10
39.404471
20
1.097196
30
0
11
2.32675207226252E-17
21
0.38
31
0
210
0
220
0
230
1
40
0.989133
41
-3.07553373398449
42
-0.240591844799551
0
ELLIPSE
5
144
100
AcDbEntity
8
1
62
256
6
ByLayer
370
18
48
1
60
0
100
AcDbEllipse
10
38.361469
20
-0.378482
30
0
11
-7.80686550561765E-17
21
-0.425
31
0
210
0
220
0
230
1
40
0.989133
41
2.16045402199844
42
2.87869047244422
0
ELLIPSE
5
145
100
AcDbEntity
8
1
62
256
6
ByLayer
370
18
48
1
60
0
100
AcDbEllipse
10
37.786621
20
0.17854
30
0
11
2.32675207226252E-17
21
0.38
31
0
210
0
220
0
230
1
40
0.989133
41
1.11325647080184
42
-2.33498694719273
0
ELLIPSE
5
146
100
AcDbEntity
8
1
62
256
6
ByLayer
370
18
48
1
60
0
100
AcDbEllipse
10
38.498637
20
1.206576
30
0
11
-2.15836869861194E-16
21
-1.175
31
0
210
0
220
0
230
1
40
0.989133
41
0.896687236900755
42
1.02317494029813
0
ELLIPSE
5
147
100
AcDbEntity
8
1
62
256
6
ByLayer
370
18
48
1
60
0
100
AcDbEllipse
10
38.498637
20
1.206576
30
0
11
1.40829730689573E-16
21
2.3
31
0
210
0
220
0
230
1
40
0.989133
41
0
42
6.28318530717959
0
ELLIPSE
5
148
100
AcDbEntity
8
1
62
256
6
ByLayer
370
18
48
1
60
0
100
AcDbEllipse
10
38.635804
20
2.791634
30
0
11
-7.80686550561765E-17
21
-0.425
31
0
210
0
220
0
230
1
40
0.989133
41
0.0883692559513321
42
0.806605706397035
0
ELLIPSE
5
149
100
AcDbEntity
8
1
62
256
6
ByLayer
370
18
48
1
60
0
100
AcDbEllipse
10
38.498637
20
1.206576
30
0
11
-2.15836869861194E-16
21
-1.175
31
0
210
0
220
0
230
1
40
0.989133
41
-1.19770786549247
42
-1.07122016209506
0
ELLIPSE
5
14A
100
AcDbEntity
8
1
62
256
6
ByLayer
370
18
48
1
60
0
100
AcDbEllipse
10
39.735275
20
1.097196
30
0
11
2.32675207226252E-17
21
0.38
31
0
210
0
220
0
230
1
40
0.989133
41
-3.07553373398449
42
-0.240591844799551
0
ELLIPSE
5
14B
100
AcDbEntity
8
1
62
256
6
ByLayer
370
18
48
1
60
0
100
AcDbEllipse
10
39.787836
20
0.293951
30
0
11
-7.80686550561765E-17
21
-0.425
31
0
210
0
220
0
230
1
40
0.989133
41
-2.00602584644192
42
-1.28778939599616
0
ELLIPSE
5
14C
100
AcDbEntity
8
1
62
256
6
ByLayer
370
18
48
1
60
0
100
AcDbEllipse
10
38.361469
20
-0.378482
30
0
11
-7.80686550561765E-17
21
-0.425
31
0
210
0
220
0
230
1
40
0.989133
41
-3.05322339763848
42
-2.33498694719278
0
ELLIPSE
5
14D
100
AcDbEntity
8
1
62
256
6
ByLayer
370
18
48
1
60
0
100
AcDbEllipse
10
39.925004
20
1.879009
30
0
11
-7.80686550561765E-17
21
-0.425
31
0
210
0
220
0
230
1
40
0.989133
41
-0.958828295245299
42
-0.240591844799508
0
ELLIPSE
5
14E
100
AcDbEntity
8
1
62
256
6
ByLayer
370
18
48
1
60
0
100
AcDbEllipse
10
37.209437
20
2.119201
30
0
11
-7.80686550561765E-17
21
-0.425
31
0
210
0
220
0
230
1
40
0.989133
41
1.13556680714789
42
1.85380325759361
0
ELLIPSE
5
14F
100
AcDbEntity
8
1
62
256
6
ByLayer
370
18
48
1
60
0
100
AcDbEllipse
10
39.457032
20
0.293951
30
0
11
-7.80686550561765E-17
21
-0.425
31
0
210
0
220
0
230
1
40
0.989133
41
-3.0755337339845
42
-1.28778939599616
0
ELLIPSE
5
150
100
AcDbEntity
8
1
62
256
6
ByLayer
370
18
48
1
60
0
100
AcDbEllipse
10
38.635804
20
2.791634
30
0
11
-7.80686550561765E-17
21
-0.425
31
0
210
0
220
0
230
1
40
0.989133
41
-0.981138631591354
42
-0.262902181145531
0
ELLIPSE
5
151
100
AcDbEntity
8
1
62
256
6
ByLayer
370
18
48
1
60
0
100
AcDbEllipse
10
37.209437
20
2.119201
30
0
11
-7.80686550561765E-17
21
-0.425
31
0
210
0
220
0
230
1
40
0.989133
41
0.066058919605289
42
0.784295370051004
0
ELLIPSE
5
152
100
AcDbEntity
8
1
62
256
6
ByLayer
370
18
48
1
60
0
100
AcDbEllipse
10
39.210653
20
2.234612
30
0
11
2.32675207226252E-17
21
0.38
31
0
210
0
220
0
230
1
40
0.989133
41
-2.02833618278793
42
0.806605706397019
0
ELLIPSE
5
153
100
AcDbEntity
8
1
62
256
6
ByLayer
370
18
48
1
60
0
100
AcDbEllipse
10
38.498637
20
1.206576
30
0
11
-2.15836869861194E-16
21
-1.175
31
0
210
0
220
0
230
1
40
0.989133
41
-2.24490541668905
42
-2.11841771329165
0
ELLIPSE
5
154
100
AcDbEntity
8
1
62
256
6
ByLayer
370
18
48
1
60
0
100
AcDbEllipse
10
37.974015
20
2.343992
30
0
11
2.32675207226252E-17
21
0.38
31
0
210
0
220
0
230
1
40
0.989133
41
-0.981138631591338
42
1.85380325759363
0
ELLIPSE
5
155
100
AcDbEntity
8
1
62
256
6
ByLayer
370
18
48
1
60
0
100
AcDbEllipse
10
37.261999
20
1.315957
30
0
11
2.32675207226252E-17
21
0.38
31
0
210
0
220
0
230
1
40
0.989133
41
0.0660589196052865
42
2.90100080879024
0
ELLIPSE
5
156
100
AcDbEntity
8
1
62
256
6
ByLayer
370
18
48
1
60
0
100
AcDbEllipse
10
38.371198
20
1.206576
30
0
11
2.44921270764475E-16
21
4
31
0
210
0
220
0
230
1
40
0.989133
41
0
42
6.28318530717959
0
ELLIPSE
5
157
100
AcDbEntity
8
1
62
256
6
ByLayer
370
18
48
1
60
0
100
AcDbEllipse
10
39.023259
20
0.06916
30
0
11
2.32675207226252E-17
21
0.38
31
0
210
0
220
0
230
1
40
0.989133
41
2.16045402199846
42
-1.28778939599618
0
ELLIPSE
5
158
100
AcDbEntity
8
1
62
256
6
ByLayer
370
18
48
1
60
0
100
AcDbEllipse
10
37.07227
20
0.534143
30
0
11
-7.80686550561765E-17
21
-0.425
31
0
210
0
220
0
230
1
40
0.989133
41
2.18276435834449
42
2.90100080879027
0
ELLIPSE
5
159
100
AcDbEntity
8
1
62
256
6
ByLayer
370
18
48
1
60
0
100
AcDbEllipse
10
39.787836
20
0.293951
30
0
11
-7.80686550561765E-17
21
-0.425
31
0
210
0
220
0
230
1
40
0.989133
41
-3.07553373398449
42
-2.35729728353874
0
ELLIPSE
5
15A
100
AcDbEntity
8
1
62
256
6
ByLayer
370
18
48
1
60
0
100
AcDbEllipse
10
38.498637
20
1.206576
30
0
11
-2.15836869861194E-16
21
-1.175
31
0
210
0
220
0
230
1
40
0.989133
41
1.94388478809733
42
2.07037249149474
0
ELLIPSE
5
15B
100
AcDbEntity
8
1
62
256
6
ByLayer
370
18
48
1
60
0
100
AcDbEllipse
10
37.07227
20
0.534143
30
0
11
-7.80686550561765E-17
21
-0.425
31
0
210
0
220
0
230
1
40
0.989133
41
1.11325647080184
42
1.83149292124757
0
ELLIPSE
5
15C
100
AcDbEntity
8
1
62
256
6
ByLayer
370
18
48
1
60
0
100
AcDbEllipse
10
39.925004
20
1.879009
30
0
11
-7.80686550561765E-17
21
-0.425
31
0
210
0
220
0
230
1
40
0.989133
41
-2.02833618278794
42
-1.3100997323422
0
ELLIPSE
5
15D
100
AcDbEntity
8
1
62
256
6
ByLayer
370
18
48
1
60
0
100
AcDbEllipse
10
38.498637
20
1.206576
30
0
11
-2.15836869861194E-16
21
-1.175
31
0
210
0
220
0
230
1
40
0.989133
41
2.99108233929398
42
3.11757004269137
0
ELLIPSE
5
15E
100
AcDbEntity
8
1
62
256
6
ByLayer
370
18
48
1
60
0
100
AcDbEllipse
10
39.5942
20
1.879009
30
0
11
-7.80686550561765E-17
21
-0.425
31
0
210
0
220
0
230
1
40
0.989133
41
-2.02833618278795
42
-0.240591844799508
0
ELLIPSE
5
15F
100
AcDbEntity
8
1
62
256
6
ByLayer
370
18
48
1
60
0
100
AcDbEllipse
10
38.498637
20
1.206576
30
0
11
-2.15836869861194E-16
21
-1.175
31
0
210
0
220
0
230
1
40
0.989133
41
-0.150510314295817
42
-0.0240226108984181
0
ELLIPSE
5
160
100
AcDbEntity
8
1
62
256
6
ByLayer
370
18
48
1
60
0
100
AcDbEllipse
10
25.678536
20
-4.894125
30
0
11
6.97393546380503
21
-0.603509856325888
31
0
210
0
220
0
230
1
40
0.012814
41
-1.21749192468992
42
-0.810230541128696
0
ELLIPSE
5
161
100
AcDbEntity
8
1
62
256
6
ByLayer
370
18
48
1
60
0
100
AcDbEllipse
10
28.247065
20
-2.19412
30
0
11
-0.505857341578251
21
2.95779940304023
31
0
210
0
220
0
230
1
40
0.996203
41
2.53367414841453
42
2.53978439592359
0
ELLIPSE
5
162
100
AcDbEntity
8
1
62
256
6
ByLayer
370
18
48
1
60
0
100
AcDbEllipse
10
28.967568
20
6.13414
30
0
11
-0.518688590934106
21
2.9550077723564
31
0
210
0
220
0
230
1
40
0.996273
41
0.0841232329606979
42
0.0902340975264287
0
ELLIPSE
5
163
100
AcDbEntity
8
1
62
256
6
ByLayer
370
18
48
1
60
0
100
AcDbEllipse
10
30.089037
20
-2.267921
30
0
11
-0.173923713746399
21
-2.99506740399103
31
0
210
0
220
0
230
1
40
0.877443
41
-1.60306703523688
42
-0.0322707084420018
0
ELLIPSE
5
164
100
AcDbEntity
8
1
62
256
6
ByLayer
370
18
48
1
60
0
100
AcDbEllipse
10
52.647614
20
-2.518821
30
0
11
-4.29475678129985
21
-5.17562121627293
31
0
210
0
220
0
230
1
40
0.54521
41
-0.831047051278027
42
-0.751308782377618
0
ELLIPSE
5
165
100
AcDbEntity
8
1
62
256
6
ByLayer
370
18
48
1
60
0
100
AcDbEllipse
10
39.461754
20
-2.982586
30
0
11
-9.74037966738678
21
-2.00708216014108
31
0
210
0
220
0
230
1
40
0.127363
41
-0.317686160525286
42
0.401514739419787
0
ELLIPSE
5
166
100
AcDbEntity
8
1
62
256
6
ByLayer
370
18
48
1
60
0
100
AcDbEllipse
10
34.033967
20
-0.164864
30
0
11
-5.39949258277913
21
-4.53066526976764
31
0
210
0
220
0
230
1
40
0.067254
41
0.993378953717699
42
1.45744248205668
0
ELLIPSE
5
167
100
AcDbEntity
8
1
62
256
6
ByLayer
370
18
48
1
60
0
100
AcDbEllipse
10
50.322297
20
3.81471
30
0
11
-0.957297264676699
21
0.501902836389889
31
0
210
0
220
0
230
1
40
0.185249
41
-1.34637214481988
42
-0.822773369222775
0
ELLIPSE
5
168
100
AcDbEntity
8
1
62
256
6
ByLayer
370
18
48
1
60
0
100
AcDbEllipse
10
33.960689
20
-1.011629
30
0
11
-4.98138247414645
21
0.431078468804207
31
0
210
0
220
0
230
1
40
0.012814
41
-1.34969895389096
42
-0.908667848528219
0
ELLIPSE
5
169
100
AcDbEntity
8
1
62
256
6
ByLayer
370
18
48
1
60
0
100
AcDbEllipse
10
40.182458
20
5.345602
30
0
11
-9.2661363983032
21
3.49000996458926
31
0
210
0
220
0
230
1
40
0.119825
41
-0.405787573005926
42
0.31341332693936
0
ELLIPSE
5
16A
100
AcDbEntity
8
1
62
256
6
ByLayer
370
18
48
1
60
0
100
AcDbEllipse
10
49.692364
20
-3.464554
30
0
11
-1.02882462423683
21
-0.334085461915011
31
0
210
0
220
0
230
1
40
0.206871
41
0.812876139169383
42
1.33647491477246
0
ELLIPSE
5
16B
100
AcDbEntity
8
1
62
256
6
ByLayer
370
18
48
1
60
0
100
AcDbEllipse
10
34.335697
20
3.321818
30
0
11
-4.53494207344612
21
5.40458953175232
31
0
210
0
220
0
230
1
40
0.079999
41
-1.44448844370382
42
-0.980424915385935
0
ELLIPSE
5
16C
100
AcDbEntity
8
1
62
256
6
ByLayer
370
18
48
1
60
0
100
AcDbEllipse
10
53.071569
20
2.380239
30
0
11
-3.65354592616925
21
5.25765770450046
31
0
210
0
220
0
230
1
40
0.537917
41
0.659280038484291
42
0.73901830592911
0
ELLIPSE
5
16D
100
AcDbEntity
8
1
62
256
6
ByLayer
370
18
48
1
60
0
100
AcDbEllipse
10
34.408974
20
4.168583
30
0
11
-4.98138247414645
21
0.431078468804207
31
0
210
0
220
0
230
1
40
0.012814
41
-1.34969895389097
42
-0.908667848528219
0
ELLIPSE
5
16E
100
AcDbEntity
8
1
62
256
6
ByLayer
370
18
48
1
60
0
100
AcDbEllipse
10
54.526557
20
-1.278785
30
0
11
-0.0248524644675207
21
2.14034093541279
31
0
210
0
220
0
230
1
40
0.674481
41
2.79152943719347
42
-2.47069830953945
0
ELLIPSE
5
16F
100
AcDbEntity
8
1
62
256
6
ByLayer
370
18
48
1
60
0
100
AcDbEllipse
10
49.141342
20
3.485503
30
0
11
-6.34174789203986
21
6.23820336936336
31
0
210
0
220
0
230
1
40
0.728952
41
2.18826676831869
42
2.25183742812502
0
ELLIPSE
5
170
100
AcDbEntity
8
1
62
256
6
ByLayer
370
18
48
1
60
0
100
AcDbEllipse
10
52.533645
20
-0.052275
30
0
11
2.19753941406071E-16
21
3.58897274573418
31
0
210
0
220
0
230
1
40
0.989133
41
-0.617363275153674
42
-0.523598775595706
0
ELLIPSE
5
171
100
AcDbEntity
8
1
62
256
6
ByLayer
370
18
48
1
60
0
100
AcDbEllipse
10
54.715258
20
0.901779
30
0
11
-0.214531436929282
21
-1.99073954528501
31
0
210
0
220
0
230
1
40
0.725015
41
2.35505002994143
42
-2.90717771679159
0
ELLIPSE
5
172
100
AcDbEntity
8
1
62
256
6
ByLayer
370
18
48
1
60
0
100
AcDbEllipse
10
52.033763
20
-0.052275
30
0
11
2.75536429610035E-16
21
4.5
31
0
210
0
220
0
230
1
40
0.989133
41
-2.26892802759006
42
-1.04719755119404
0
ELLIPSE
5
173
100
AcDbEntity
8
1
62
256
6
ByLayer
370
18
48
1
60
0
100
AcDbEllipse
10
48.558186
20
-3.253232
30
0
11
-7.10973229608606
21
-5.67645176215693
31
0
210
0
220
0
230
1
40
0.724034
41
-2.31227949259533
42
-2.24870883261129
0
ELLIPSE
5
174
100
AcDbEntity
8
1
62
256
6
ByLayer
370
18
48
1
60
0
100
AcDbEllipse
10
52.533645
20
-0.052275
30
0
11
-5.99291955472953E-16
21
-3.26250120349491
31
0
210
0
220
0
230
1
40
0.989133
41
0.872664625999729
42
2.09439510239576
0
ELLIPSE
5
175
100
AcDbEntity
8
1
62
256
6
ByLayer
370
18
48
1
60
0
100
AcDbEllipse
10
52.533645
20
-0.052275
30
0
11
2.19753941406071E-16
21
3.58897274573418
31
0
210
0
220
0
230
1
40
0.989133
41
-2.79252680318834
42
-2.69876230363038
0
ELLIPSE
5
176
100
AcDbEntity
8
1
62
256
6
ByLayer
370
18
48
1
60
0
100
AcDbEllipse
10
52.033763
20
-0.052275
30
0
11
2.75536429610035E-16
21
4.5
31
0
210
0
220
0
230
1
40
0.989133
41
-1.04719755119404
42
-0.523598775595709
0
ELLIPSE
5
177
100
AcDbEntity
8
1
62
256
6
ByLayer
370
18
48
1
60
0
100
AcDbEllipse
10
52.033763
20
-0.052275
30
0
11
2.75536429610035E-16
21
4.5
31
0
210
0
220
0
230
1
40
0.989133
41
-2.79252680318834
42
-2.26892802759006
0
ELLIPSE
5
178
100
AcDbEntity
8
1
62
256
6
ByLayer
370
18
48
1
60
0
100
AcDbEllipse
10
59.214876
20
1.8E-05
30
0
11
4.86015646673256E-17
21
0.79375
31
0
210
0
220
0
230
1
40
0.989133
41
-2.35619449018977
42
-0.785398163394879
0
ELLIPSE
5
179
100
AcDbEntity
8
1
62
256
6
ByLayer
370
18
48
1
60
0
100
AcDbEllipse
10
51.442542
20
-7.857706
30
0
11
4.86015646673256E-17
21
0.79375
31
0
210
0
220
0
230
1
40
0.989133
41
2.3561944901949
42
-2.35619449018976
0
ELLIPSE
5
17A
100
AcDbEntity
8
1
62
256
6
ByLayer
370
18
48
1
60
0
100
AcDbEllipse
10
51.442542
20
7.857742
30
0
11
4.86015646673256E-17
21
0.79375
31
0
210
0
220
0
230
1
40
0.989133
41
-0.785398163394881
42
0.78539816340002
0
POINT
5
6C
100
AcDbEntity
8
2
62
256
6
ByLayer
370
18
48
1
60
0
100
AcDbPoint
10
60
20
0.3288
30
0
39
0
210
0
220
0
230
1
50
360
0
POINT
5
6E
100
AcDbEntity
8
80
62
256
6
ByLayer
370
18
48
1
60
0
100
AcDbPoint
10
0
20
0
30
0
39
0
210
0
220
0
230
1
50
360
0
POINT
5
70
100
AcDbEntity
8
81
62
256
6
ByLayer
370
18
48
1
60
0
100
AcDbPoint
10
60
20
0.3288
30
0
39
0
210
0
220
0
230
1
50
360
0
SPLINE
5
17B
100
AcDbEntity
8
SK1
62
256
6
ByLayer
370
18
48
1
60
0
100
AcDbSpline
70
4
71
3
72
13
73
9
40
0
40
0
40
0
40
0
40
0.239456135733551
40
0.368359721896995
40
0.499998983985648
40
0.631638415256368
40
0.760542467762615
40
1
40
1
40
1
40
1
41
1
10
-2.19999999999999
20
-17.520098551796
30
0
41
1
10
-2.19909198642199
20
-17.4940410756898
30
0
41
1
10
-2.19103284106862
20
-17.4566684913666
30
0
41
1
10
-2.16563592203255
20
-17.4104493175479
30
0
41
1
10
-2.13886378679174
20
-17.3791677636994
30
0
41
1
10
-2.106277127498
20
-17.3540003935063
30
0
41
1
10
-2.05884064234166
20
-17.3309565910454
30
0
41
1
10
-2.02111030873061
20
-17.3247843360228
30
0
41
1
10
-1.99503997793928
20
-17.3251859759625
30
0
0
SPLINE
5
17C
100
AcDbEntity
8
SK1
62
256
6
ByLayer
370
18
48
1
60
0
100
AcDbSpline
70
4
71
3
72
13
73
9
40
0
40
0
40
0
40
0
40
0.2394575322828
40
0.368361584804615
40
0.500001016081333
40
0.631640278164845
40
0.760543864313148
40
1
40
1
40
1
40
1
41
1
10
-1.99503997793928
20
17.3251861589552
30
0
41
1
10
-2.02111030872965
20
17.324784519015
30
0
41
1
10
-2.05884064233982
20
17.3309567740351
30
0
41
1
10
-2.10627712749664
20
17.3540005764861
30
0
41
1
10
-2.13886378679047
20
17.3791679466684
30
0
41
1
10
-2.16563592203158
20
17.4104495005037
30
0
41
1
10
-2.19103284106788
20
17.4566686743027
30
0
41
1
10
-2.19909198642125
20
17.4940412586114
30
0
41
1
10
-2.19999999999999
20
17.5200987347078
30
0
0
SPLINE
5
17D
100
AcDbEntity
8
SK1
62
256
6
ByLayer
370
18
48
1
60
0
100
AcDbSpline
70
4
71
2
72
6
73
3
40
0
40
0
40
0
40
1
40
1
40
1
41
1
10
-28.5
20
-16.8542724489282
30
0
41
1
10
-15.3499999999286
20
-17.1845422635703
30
0
41
1
10
-2.19999999999999
20
-17.5148116792767
30
0
0
SPLINE
5
17E
100
AcDbEntity
8
SK1
62
256
6
ByLayer
370
18
48
1
60
0
100
AcDbSpline
70
4
71
2
72
6
73
3
40
0
40
0
40
0
40
1
40
1
40
1
41
1
10
-2.19999999999999
20
17.5148117187522
30
0
41
1
10
-15.3499999999294
20
17.1845422725478
30
0
41
1
10
-28.5
20
16.854272429841
30
0
0
SPLINE
5
17F
100
AcDbEntity
8
SK1
62
256
6
ByLayer
370
18
48
1
60
0
100
AcDbSpline
70
4
71
2
72
6
73
3
40
0
40
0
40
0
40
1
40
1
40
1
41
1
10
-1.99503997793928
20
-17.3199593099743
30
0
41
1
10
-1.19500843340703
20
-17.340052552406
30
0
41
1
10
-0.394976888875277
20
-17.3601457933935
30
0
0
SPLINE
5
180
100
AcDbEntity
8
SK1
62
256
6
ByLayer
370
18
48
1
60
0
100
AcDbSpline
70
4
71
2
72
6
73
3
40
0
40
0
40
0
40
1
40
1
40
1
41
1
10
-0.394976888875277
20
17.3601458189993
30
0
41
1
10
-1.19500843340703
20
17.3400525762132
30
0
41
1
10
-1.99503997793928
20
17.3199593319919
30
0
0
SPLINE
5
181
100
AcDbEntity
8
SK1
62
256
6
ByLayer
370
18
48
1
60
0
100
AcDbSpline
70
4
71
2
72
6
73
3
40
0
40
0
40
0
40
1
40
1
40
1
41
1
10
-30
20
-15.9924794145163
30
0
41
1
10
-29.2499999991495
20
-16.4254650261933
30
0
41
1
10
-28.5
20
-16.8584504491481
30
0
0
SPLINE
5
182
100
AcDbEntity
8
SK1
62
256
6
ByLayer
370
18
48
1
60
0
100
AcDbSpline
70
4
71
2
72
6
73
3
40
0
40
0
40
0
40
1
40
1
40
1
41
1
10
-28.5
20
16.8584505716142
30
0
41
1
10
-29.2499999991495
20
16.4254651505507
30
0
41
1
10
-30
20
15.99247954079
30
0
0
SPLINE
5
183
100
AcDbEntity
8
SK1
62
256
6
ByLayer
370
18
48
1
60
0
100
AcDbSpline
70
4
71
2
72
6
73
3
40
0
40
0
40
0
40
1
40
1
40
1
41
1
10
-0.394976888875277
20
-17.359696795897
30
0
41
1
10
-0.305277226309727
20
-17.3671842624703
30
0
41
1
10
-0.258658740615658
20
-17.4310145299902
30
0
0
SPLINE
5
184
100
AcDbEntity
8
SK1
62
256
6
ByLayer
370
18
48
1
60
0
100
AcDbSpline
70
4
71
2
72
6
73
3
40
0
40
0
40
0
40
1
40
1
40
1
41
1
10
-0.258442643302431
20
17.4312381196178
30
0
41
1
10
-0.305123774552612
20
17.3672404580573
30
0
41
1
10
-0.394976888875277
20
17.3596982935394
30
0
0
SPLINE
5
185
100
AcDbEntity
8
1
62
256
6
ByLayer
370
18
48
1
60
0
100
AcDbSpline
70
4
71
3
72
8
73
4
40
0
40
0
40
0
40
0
40
1
40
1
40
1
40
1
41
1
10
29.1564983132928
20
9.12867543978271
30
0
41
1
10
29.0555206955162
20
9.13271226306654
30
0
41
1
10
28.9539971097911
20
9.13286557381036
30
0
41
1
10
28.8519594987613
20
9.12883477958999
30
0
0
SPLINE
5
186
100
AcDbEntity
8
SK1
62
256
6
ByLayer
370
18
48
1
60
0
100
AcDbSpline
70
4
71
3
72
282
73
278
40
0
40
0
40
0
40
0
40
0.0031455677736994
40
0.0067200594370511
40
0.0102945511004027
40
0.0138690427637544
40
0.0174435344271061
40
0.0210180260904577
40
0.0245925177538094
40
0.028167009417161
40
0.0317415010805127
40
0.0353159927438644
40
0.0424649760705677
40
0.0460394677339193
40
0.049613959397271
40
0.0531884510606227
40
0.0567629427239743
40
0.0639119260506777
40
0.0674864177140293
40
0.071060909377381
40
0.0782098927040843
40
0.081784384367436
40
0.0853588760307876
40
0.0925078593574909
40
0.0960823510208426
40
0.0996568426841943
40
0.103231334347546
40
0.106805826010898
40
0.110380317674249
40
0.113954809337601
40
0.117529301000953
40
0.121103792664304
40
0.128252775991008
40
0.131827267654359
40
0.135401759317711
40
0.138976250981063
40
0.142550742644414
40
0.149699725971117
40
0.153274217634469
40
0.156848709297821
40
0.160423200961172
40
0.163997692624524
40
0.171146675951228
40
0.174721167614579
40
0.178295659277931
40
0.181870150941282
40
0.185444642604634
40
0.192593625931337
40
0.196168117594689
40
0.199742609258041
40
0.203317100921392
40
0.206891592584744
40
0.214040575911447
40
0.217615067574799
40
0.221189559238151
40
0.224764050901502
40
0.228338542564854
40
0.235487525891557
40
0.239062017554909
40
0.242636509218261
40
0.246211000881612
40
0.249785492544964
40
0.256934475871667
40
0.260508967535019
40
0.264083459198371
40
0.271232442525074
40
0.278381425851777
40
0.281955917515129
40
0.285530409178481
40
0.292679392505184
40
0.296253884168536
40
0.299828375831887
40
0.303402867495239
40
0.306977359158591
40
0.310551850821942
40
0.314126342485294
40
0.321275325811997
40
0.328424309138701
40
0.331998800802052
40
0.335573292465404
40
0.339147784128756
40
0.342722275792107
40
0.346296767455459
40
0.349871259118811
40
0.357020242445514
40
0.364169225772217
40
0.37131820909892
40
0.374892700762272
40
0.378467192425624
40
0.382041684088975
40
0.385616175752327
40
0.389190667415679
40
0.39276515907903
40
0.396339650742382
40
0.399914142405734
40
0.403488634069085
40
0.407063125732437
40
0.410637617395789
40
0.41421210905914
40
0.417786600722492
40
0.421361092385844
40
0.424935584049195
40
0.428510075712547
40
0.432084567375899
40
0.433871813207575
40
0.43565905903925
40
0.437446304870926
40
0.439233550702602
40
0.442808042365954
40
0.446382534029305
40
0.448169779860981
40
0.449957025692657
40
0.451744271524333
40
0.453531517356009
40
0.455318763187684
40
0.45710600901936
40
0.460680500682712
40
0.462467746514388
40
0.464254992346064
40
0.466042238177739
40
0.467829484009415
40
0.469616729841091
40
0.471403975672767
40
0.473191221504443
40
0.474978467336119
40
0.476765713167794
40
0.47855295899947
40
0.480340204831146
40
0.482127450662822
40
0.483914696494498
40
0.485701942326174
40
0.487489188157849
40
0.489276433989525
40
0.491063679821201
40
0.492850925652877
40
0.494638171484553
40
0.496425417316229
40
0.498212663147905
40
0.49999990897958
40
0.501787154811256
40
0.503574400642932
40
0.505361646474608
40
0.507148892306284
40
0.508936138137959
40
0.510723383969635
40
0.512510629801311
40
0.514297875632987
40
0.516085121464663
40
0.517872367296339
40
0.519659613128014
40
0.52144685895969
40
0.523234104791366
40
0.525021350623042
40
0.526808596454718
40
0.528595842286394
40
0.530383088118069
40
0.532170333949745
40
0.533957579781421
40
0.535744825613097
40
0.537532071444773
40
0.539319317276449
40
0.541106563108124
40
0.5428938089398
40
0.544681054771476
40
0.546468300603152
40
0.550042792266504
40
0.551830038098179
40
0.553617283929855
40
0.557191775593207
40
0.560766267256559
40
0.562553513088234
40
0.56434075891991
40
0.566128004751586
40
0.567915250583262
40
0.571489742246614
40
0.575064233909965
40
0.578638725573317
40
0.582213217236668
40
0.58578770890002
40
0.589362200563372
40
0.592936692226724
40
0.596511183890075
40
0.600085675553427
40
0.603660167216778
40
0.60723465888013
40
0.610809150543482
40
0.614383642206833
40
0.617958133870185
40
0.621532625533537
40
0.625107117196888
40
0.62868160886024
40
0.635830592186943
40
0.642979575513647
40
0.65012855884035
40
0.653703050503702
40
0.657277542167053
40
0.660852033830405
40
0.664426525493757
40
0.668001017157108
40
0.67157550882046
40
0.678724492147163
40
0.685873475473867
40
0.689447967137218
40
0.69302245880057
40
0.696596950463922
40
0.700171442127273
40
0.703745933790625
40
0.707320425453977
40
0.71446940878068
40
0.718043900444032
40
0.721618392107383
40
0.728767375434087
40
0.73591635876079
40
0.739490850424142
40
0.743065342087493
40
0.750214325414197
40
0.753788817077548
40
0.7573633087409
40
0.760937800404252
40
0.764512292067603
40
0.771661275394306
40
0.775235767057658
40
0.77881025872101
40
0.782384750384361
40
0.785959242047713
40
0.793108225374417
40
0.796682717037768
40
0.80025720870112
40
0.803831700364471
40
0.807406192027823
40
0.814555175354526
40
0.818129667017878
40
0.82170415868123
40
0.825278650344581
40
0.828853142007933
40
0.836002125334636
40
0.839576616997988
40
0.84315110866134
40
0.844938354493015
40
0.846725600324691
40
0.850300091988043
40
0.857449075314746
40
0.861023566978098
40
0.86459805864145
40
0.868172550304801
40
0.871747041968153
40
0.878896025294856
40
0.882470516958208
40
0.88604500862156
40
0.889619500284911
40
0.893193991948263
40
0.896768483611615
40
0.900342975274966
40
0.903917466938318
40
0.90749195860167
40
0.914640941928373
40
0.918215433591725
40
0.921789925255076
40
0.92893890858178
40
0.932513400245131
40
0.936087891908483
40
0.943236875235186
40
0.946811366898538
40
0.95038585856189
40
0.953960350225241
40
0.957534841888593
40
0.964683825215296
40
0.968258316878648
40
0.971832808541999
40
0.975407300205351
40
0.978981791868703
40
0.982556283532054
40
0.986130775195406
40
0.989705266858758
40
0.993279758522109
40
0.996854250185461
40
1
40
1
40
1
40
1
41
1
10
-2.19999999999996
20
17.5147448734422
30
0
41
1
10
-2.19999999999996
20
17.5132050089088
30
0
41
1
10
-2.20000000000002
20
17.5092143135444
30
0
41
1
10
-2.19999999999999
20
17.5008423359265
30
0
41
1
10
-2.19999999999999
20
17.4896606050755
30
0
41
1
10
-2.19999999999999
20
17.4760589345483
30
0
41
1
10
-2.19999999999999
20
17.4600756660116
30
0
41
1
10
-2.19999999999999
20
17.4417480829298
30
0
41
1
10
-2.19999999999999
20
17.4211116708093
30
0
41
1
10
-2.19999999999999
20
17.3981999720817
30
0
41
1
10
-2.19999999999999
20
17.373046254225
30
0
41
1
10
-2.19999999999999
20
17.3365615480365
30
0
41
1
10
-2.19999999999999
20
17.2957083393221
30
0
41
1
10
-2.19999999999999
20
17.2506132986913
30
0
41
1
10
-2.19999999999999
20
17.2146924230801
30
0
41
1
10
-2.19999999999999
20
17.1766986759847
30
0
41
1
10
-2.19999999999999
20
17.1233138560685
30
0
41
1
10
-2.19999999999999
20
17.0658713749173
30
0
41
1
10
-2.19999999999999
20
17.0044820563696
30
0
41
1
10
-2.19999999999999
20
16.9404819965209
30
0
41
1
10
-2.19999999999999
20
16.8725984751516
30
0
41
1
10
-2.19999999999999
20
16.8009296734765
30
0
41
1
10
-2.19999999999999
20
16.72675615712
30
0
41
1
10
-2.19999999999999
20
16.6488472996884
30
0
41
1
10
-2.19999999999999
20
16.5672977573629
30
0
41
1
10
-2.19999999999999
20
16.5043209819811
30
0
41
1
10
-2.19999999999999
20
16.4395493732765
30
0
41
1
10
-2.19999999999999
20
16.3729983406747
30
0
41
1
10
-2.19999999999999
20
16.3046816133433
30
0
41
1
10
-2.19999999999999
20
16.234614658763
30
0
41
1
10
-2.19999999999999
20
16.1628111167189
30
0
41
1
10
-2.19999999999999
20
16.0647793469533
30
0
41
1
10
-2.19999999999999
20
15.9633134995801
30
0
41
1
10
-2.19999999999999
20
15.8584913887799
30
0
41
1
10
-2.19999999999999
20
15.7781982427732
30
0
41
1
10
-2.19999999999999
20
15.6962433497342
30
0
41
1
10
-2.19999999999999
20
15.5847743861311
30
0
41
1
10
-2.19999999999999
20
15.4700110710185
30
0
41
1
10
-2.19999999999999
20
15.3520264687641
30
0
41
1
10
-2.19999999999999
20
15.2619258251736
30
0
41
1
10
-2.19999999999999
20
15.1702262286607
30
0
41
1
10
-2.19999999999999
20
15.0458463802595
30
0
41
1
10
-2.19999999999999
20
14.9182892137509
30
0
41
1
10
-2.19999999999999
20
14.7876243835494
30
0
41
1
10
-2.19999999999999
20
14.6880675684927
30
0
41
1
10
-2.19999999999999
20
14.5869647024964
30
0
41
1
10
-2.19999999999999
20
14.4501162009323
30
0
41
1
10
-2.19999999999999
20
14.310188578504
30
0
41
1
10
-2.19999999999999
20
14.1672492498436
30
0
41
1
10
-2.19999999999999
20
14.0585319196999
30
0
41
1
10
-2.19999999999999
20
13.9483131149779
30
0
41
1
10
-2.19999999999999
20
13.7993681823229
30
0
41
1
10
-2.19999999999999
20
13.6474264445925
30
0
41
1
10
-2.19999999999999
20
13.4925540283558
30
0
41
1
10
-2.19999999999999
20
13.3749248852381
30
0
41
1
10
-2.19999999999999
20
13.2558316845062
30
0
41
1
10
-2.19999999999999
20
13.0951031858018
30
0
41
1
10
-2.19999999999999
20
12.9314463879873
30
0
41
1
10
-2.19999999999999
20
12.7649271524075
30
0
41
1
10
-2.19999999999999
20
12.6385945304865
30
0
41
1
10
-2.19999999999999
20
12.510828990928
30
0
41
1
10
-2.19999999999999
20
12.3385783725546
30
0
41
1
10
-2.19999999999999
20
12.1634558634281
30
0
41
1
10
-2.19999999999999
20
11.9855279960913
30
0
41
1
10
-2.19999999999999
20
11.8057193844339
30
0
41
1
10
-2.19999999999999
20
11.5774197426994
30
0
41
1
10
-2.19999999999999
20
11.3444552561941
30
0
41
1
10
-2.19999999999999
20
11.1553144466797
30
0
41
1
10
-2.19999999999999
20
10.96432157968
30
0
41
1
10
-2.19999999999999
20
10.7705258372791
30
0
41
1
10
-2.19999999999999
20
10.5740001677826
30
0
41
1
10
-2.19999999999999
20
10.4252200954492
30
0
41
1
10
-2.19999999999999
20
10.2750653600417
30
0
41
1
10
-2.19999999999999
20
10.1235384488298
30
0
41
1
10
-2.19999999999999
20
9.9706412292081
30
0
41
1
10
-2.19999999999999
20
9.76496631801302
30
0
41
1
10
-2.19999999999999
20
9.50443392738597
30
0
41
1
10
-2.19999999999999
20
9.23936570098883
30
0
41
1
10
-2.19999999999999
20
9.02461799380217
30
0
41
1
10
-2.19999999999999
20
8.86219304475887
30
0
41
1
10
-2.19999999999999
20
8.69841428000512
30
0
41
1
10
-2.19999999999999
20
8.53328405958746
30
0
41
1
10
-2.19999999999999
20
8.36680339868337
30
0
41
1
10
-2.19999999999999
20
8.14304412571011
30
0
41
1
10
-2.19999999999999
20
7.85994707617317
30
0
41
1
10
-2.19999999999999
20
7.51487111531026
30
0
41
1
10
-2.19999999999999
20
7.22282329277962
30
0
41
1
10
-2.19999999999999
20
6.98653548716825
30
0
41
1
10
-2.19999999999999
20
6.80797157864473
30
0
41
1
10
-2.19999999999999
20
6.62807270531451
30
0
41
1
10
-2.19999999999999
20
6.44684086969582
30
0
41
1
10
-2.19999999999999
20
6.26427776637016
30
0
41
1
10
-2.19999999999999
20
6.0803858592752
30
0
41
1
10
-2.19999999999999
20
5.89516728223867
30
0
41
1
10
-2.19999999999999
20
5.70862469092603
30
0
41
1
10
-2.19999999999999
20
5.52076103085633
30
0
41
1
10
-2.19999999999999
20
5.33157993388585
30
0
41
1
10
-2.19999999999999
20
5.14108511996025
30
0
41
1
10
-2.19999999999999
20
4.94928086714648
30
0
41
1
10
-2.19999999999999
20
4.75617251627347
30
0
41
1
10
-2.19999999999999
20
4.56176620564526
30
0
41
1
10
-2.19999999999999
20
4.36606873641344
30
0
41
1
10
-2.19999999999999
20
4.16908849962459
30
0
41
1
10
-2.19999999999999
20
4.00386590607064
30
0
41
1
10
-2.19999999999999
20
3.87107810854147
30
0
41
1
10
-2.19999999999999
20
3.7711641857039
30
0
41
1
10
-2.19999999999999
20
3.67093805129474
30
0
41
1
10
-2.19999999999999
20
3.5369018254882
30
0
41
1
10
-2.19999999999999
20
3.36855658184018
30
0
41
1
10
-2.19999999999999
20
3.19919951970698
30
0
41
1
10
-2.19999999999999
20
3.06314133422208
30
0
41
1
10
-2.19999999999999
20
2.96079189341756
30
0
41
1
10
-2.19999999999999
20
2.85815023786418
30
0
41
1
10
-2.19999999999999
20
2.75522026664268
30
0
41
1
10
-2.19999999999999
20
2.65200561172494
30
0
41
1
10
-2.19999999999999
20
2.51402705629772
30
0
41
1
10
-2.19999999999999
20
2.375450816946
30
0
41
1
10
-2.19999999999999
20
2.23639085040648
30
0
41
1
10
-2.19999999999999
20
2.13182395998015
30
0
41
1
10
-2.19999999999999
20
2.02700348752293
30
0
41
1
10
-2.19999999999999
20
1.92193653735015
30
0
41
1
10
-2.19999999999999
20
1.81663008016324
30
0
41
1
10
-2.19999999999999
20
1.71109231328518
30
0
41
1
10
-2.19999999999999
20
1.60533155404698
30
0
41
1
10
-2.19999999999999
20
1.49935698477981
30
0
41
1
10
-2.19999999999999
20
1.39317847233161
30
0
41
1
10
-2.19999999999999
20
1.28680633401083
30
0
41
1
10
-2.19999999999999
20
1.18025197439016
30
0
41
1
10
-2.19999999999999
20
1.073527020087
30
0
41
1
10
-2.19999999999999
20
0.96664434311532
30
0
41
1
10
-2.19999999999999
20
0.859616995486334
30
0
41
1
10
-2.19999999999999
20
0.752459219961509
30
0
41
1
10
-2.19999999999999
20
0.645185453734172
30
0
41
1
10
-2.19999999999999
20
0.537811163545626
30
0
41
1
10
-2.19999999999999
20
0.430352024765995
30
0
41
1
10
-2.19999999999999
20
0.322824496958617
30
0
41
1
10
-2.19999999999999
20
0.215245213108545
30
0
41
1
10
-2.19999999999999
20
0.107631302158183
30
0
41
1
10
-2.19999999999999
20
-5.9909553E-09
30
0
41
1
10
-2.19999999999999
20
-0.107631313716837
30
0
41
1
10
-2.19999999999999
20
-0.21524522393176
30
0
41
1
10
-2.19999999999999
20
-0.322824507999513
30
0
41
1
10
-2.19999999999999
20
-0.430352036900842
30
0
41
1
10
-2.19999999999999
20
-0.537811175438549
30
0
41
1
10
-2.19999999999999
20
-0.645185463980482
30
0
41
1
10
-2.19999999999999
20
-0.752459230354134
30
0
41
1
10
-2.19999999999999
20
-0.859617007920519
30
0
41
1
10
-2.19999999999999
20
-0.966644355262389
30
0
41
1
10
-2.19999999999999
20
-1.07352702949097
30
0
41
1
10
-2.19999999999999
20
-1.18025198377217
30
0
41
1
10
-2.19999999999999
20
-1.2868063464968
30
0
41
1
10
-2.19999999999999
20
-1.39317848503856
30
0
41
1
10
-2.19999999999999
20
-1.49935699380708
30
0
41
1
10
-2.19999999999999
20
-1.60533156181745
30
0
41
1
10
-2.19999999999999
20
-1.71109232444707
30
0
41
1
10
-2.19999999999999
20
-1.81663009373557
30
0
41
1
10
-2.19999999999999
20
-1.92193654804359
30
0
41
1
10
-2.19999999999999
20
-2.02700349385552
30
0
41
1
10
-2.19999999999999
20
-2.13182396747069
30
0
41
1
10
-2.19999999999999
20
-2.23639086291988
30
0
41
1
10
-2.19999999999999
20
-2.34069812940876
30
0
41
1
10
-2.19999999999999
20
-2.44473977839391
30
0
41
1
10
-2.19999999999999
20
-2.54851063247165
30
0
41
1
10
-2.19999999999999
20
-2.65200559968281
30
0
41
1
10
-2.19999999999999
20
-2.78960994504098
30
0
41
1
10
-2.19999999999999
20
-2.92668912429065
30
0
41
1
10
-2.19999999999999
20
-3.06314133551615
30
0
41
1
10
-2.19999999999999
20
-3.19919952332836
30
0
41
1
10
-2.19999999999999
20
-3.36855659963138
30
0
41
1
10
-2.19999999999999
20
-3.53690183437428
30
0
41
1
10
-2.19999999999999
20
-3.67093805397229
30
0
41
1
10
-2.19999999999999
20
-3.77116418775421
30
0
41
1
10
-2.19999999999999
20
-3.87107811616198
30
0
41
1
10
-2.19999999999999
20
-4.00386592221614
30
0
41
1
10
-2.19999999999999
20
-4.169088511784
30
0
41
1
10
-2.19999999999999
20
-4.36606871643775
30
0
41
1
10
-2.19999999999999
20
-4.56176617271481
30
0
41
1
10
-2.19999999999999
20
-4.75617249379653
30
0
41
1
10
-2.19999999999999
20
-4.94928076863457
30
0
41
1
10
-2.19999999999999
20
-5.14108500618136
30
0
41
1
10
-2.19999999999999
20
-5.33157993903225
30
0
41
1
10
-2.19999999999999
20
-5.52076102284181
30
0
41
1
10
-2.19999999999999
20
-5.70862461825791
30
0
41
1
10
-2.19999999999999
20
-5.89516734859464
30
0
41
1
10
-2.19999999999999
20
-6.0803860968085
30
0
41
1
10
-2.19999999999999
20
-6.26427796235188
30
0
41
1
10
-2.19999999999999
20
-6.44684092947378
30
0
41
1
10
-2.19999999999999
20
-6.62807271786153
30
0
41
1
10
-2.19999999999999
20
-6.80797159432129
30
0
41
1
10
-2.19999999999999
20
-6.98653550324826
30
0
41
1
10
-2.19999999999999
20
-7.22282328452872
30
0
41
1
10
-2.19999999999999
20
-7.51487112820209
30
0
41
1
10
-2.19999999999999
20
-7.85994708827315
30
0
41
1
10
-2.19999999999999
20
-8.14304411844034
30
0
41
1
10
-2.19999999999999
20
-8.36680341033821
30
0
41
1
10
-2.19999999999999
20
-8.53328407858575
30
0
41
1
10
-2.19999999999999
20
-8.69841428877766
30
0
41
1
10
-2.19999999999999
20
-8.86219304073114
30
0
41
1
10
-2.19999999999999
20
-9.02461799205523
30
0
41
1
10
-2.19999999999999
20
-9.23936571773672
30
0
41
1
10
-2.19999999999999
20
-9.50443394039922
30
0
41
1
10
-2.19999999999999
20
-9.76496631110049
30
0
41
1
10
-2.19999999999999
20
-9.97064123613964
30
0
41
1
10
-2.19999999999999
20
-10.123538466054
30
0
41
1
10
-2.19999999999999
20
-10.2750653748105
30
0
41
1
10
-2.19999999999999
20
-10.4252201002359
30
0
41
1
10
-2.19999999999999
20
-10.5740001651574
30
0
41
1
10
-2.19999999999999
20
-10.7705258416001
30
0
41
1
10
-2.19999999999999
20
-10.9643215989582
30
0
41
1
10
-2.19999999999999
20
-11.1553144582602
30
0
41
1
10
-2.19999999999999
20
-11.3444552554371
30
0
41
1
10
-2.19999999999999
20
-11.5774197477568
30
0
41
1
10
-2.19999999999999
20
-11.8057194023465
30
0
41
1
10
-2.19999999999999
20
-11.9855280067157
30
0
41
1
10
-2.19999999999999
20
-12.1634558646822
30
0
41
1
10
-2.19999999999999
20
-12.3385783781737
30
0
41
1
10
-2.19999999999999
20
-12.510829004708
30
0
41
1
10
-2.19999999999999
20
-12.6385945454976
30
0
41
1
10
-2.19999999999999
20
-12.7649271637091
30
0
41
1
10
-2.19999999999999
20
-12.9314463925932
30
0
41
1
10
-2.19999999999999
20
-13.0951031927999
30
0
41
1
10
-2.19999999999999
20
-13.2558316973182
30
0
41
1
10
-2.19999999999999
20
-13.3749248996582
30
0
41
1
10
-2.19999999999999
20
-13.4925540411334
30
0
41
1
10
-2.19999999999999
20
-13.6474264531923
30
0
41
1
10
-2.19999999999999
20
-13.7993681905533
30
0
41
1
10
-2.19999999999999
20
-13.9483131264862
30
0
41
1
10
-2.19999999999999
20
-14.0585319334344
30
0
41
1
10
-2.19999999999999
20
-14.1672492642274
30
0
41
1
10
-2.19999999999999
20
-14.3101885914782
30
0
41
1
10
-2.19999999999999
20
-14.4501162106047
30
0
41
1
10
-2.19999999999999
20
-14.5869647126432
30
0
41
1
10
-2.19999999999999
20
-14.6880675812844
30
0
41
1
10
-2.19999999999999
20
-14.7876243995297
30
0
41
1
10
-2.19999999999999
20
-14.9182892218295
30
0
41
1
10
-2.19999999999999
20
-15.0458464314392
30
0
41
1
10
-2.19999999999999
20
-15.1702261509224
30
0
41
1
10
-2.19999999999999
20
-15.2466455133785
30
0
41
1
10
-2.19999999999999
20
-15.3069761679616
30
0
41
1
10
-2.19999999999999
20
-15.3667724139347
30
0
41
1
10
-2.19999999999999
20
-15.4700110929875
30
0
41
1
10
-2.19999999999999
20
-15.5847743990242
30
0
41
1
10
-2.19999999999999
20
-15.6962433571227
30
0
41
1
10
-2.19999999999999
20
-15.7781982539187
30
0
41
1
10
-2.19999999999999
20
-15.8584914079188
30
0
41
1
10
-2.19999999999999
20
-15.9633135259672
30
0
41
1
10
-2.19999999999999
20
-16.0647793597711
30
0
41
1
10
-2.19999999999999
20
-16.1628111223414
30
0
41
1
10
-2.19999999999999
20
-16.2346146707391
30
0
41
1
10
-2.19999999999999
20
-16.3046816359758
30
0
41
1
10
-2.19999999999999
20
-16.3729983688048
30
0
41
1
10
-2.19999999999999
20
-16.439549393056
30
0
41
1
10
-2.19999999999999
20
-16.5043209901434
30
0
41
1
10
-2.19999999999999
20
-16.5672977619412
30
0
41
1
10
-2.19999999999999
20
-16.6488473199257
30
0
41
1
10
-2.19999999999999
20
-16.7267561914694
30
0
41
1
10
-2.19999999999999
20
-16.8009296884544
30
0
41
1
10
-2.19999999999999
20
-16.8725984731113
30
0
41
1
10
-2.19999999999999
20
-16.9404820184079
30
0
41
1
10
-2.19999999999999
20
-17.0044820909957
30
0
41
1
10
-2.19999999999999
20
-17.0658713913631
30
0
41
1
10
-2.19999999999999
20
-17.123313852319
30
0
41
1
10
-2.19999999999999
20
-17.1766986986672
30
0
41
1
10
-2.19999999999999
20
-17.2146924603873
30
0
41
1
10
-2.19999999999999
20
-17.250613323192
30
0
41
1
10
-2.19999999999999
20
-17.2957083328928
30
0
41
1
10
-2.19999999999999
20
-17.3365615705832
30
0
41
1
10
-2.19999999999999
20
-17.3730462873428
30
0
41
1
10
-2.19999999999999
20
-17.398199993695
30
0
41
1
10
-2.19999999999999
20
-17.4211116738093
30
0
41
1
10
-2.19999999999999
20
-17.4417480876219
30
0
41
1
10
-2.19999999999999
20
-17.4600756994924
30
0
41
1
10
-2.19999999999999
20
-17.4760589706817
30
0
41
1
10
-2.19999999999999
20
-17.4896606126054
30
0
41
1
10
-2.19999999999999
20
-17.5008423321234
30
0
41
1
10
-2.19999999999999
20
-17.5092144814085
30
0
41
1
10
-2.19999999999999
20
-17.5132052307048
30
0
41
1
10
-2.19999999999999
20
-17.5147451262567
30
0
0
SPLINE
5
187
100
AcDbEntity
8
SK1
62
256
6
ByLayer
370
18
48
1
60
0
100
AcDbSpline
70
4
71
3
72
287
73
283
40
0
40
0
40
0
40
0
40
0.0019139572686184
40
0.0054376962931648
40
0.0089614353177112
40
0.0124851743422576
40
0.016008913366804
40
0.0195326523913504
40
0.0230563914158968
40
0.0265801304404432
40
0.0301038694649896
40
0.033627608489536
40
0.0371513475140824
40
0.0441988255631752
40
0.0477225645877216
40
0.051246303612268
40
0.0547700426368143
40
0.0582937816613608
40
0.0653412597104535
40
0.068864998735
40
0.0723887377595463
40
0.0794362158086391
40
0.0829599548331855
40
0.086483693857732
40
0.0935311719068247
40
0.0970549109313712
40
0.100578649955917
40
0.104102388980464
40
0.10762612800501
40
0.111149867029557
40
0.114673606054103
40
0.118197345078649
40
0.121721084103196
40
0.128768562152289
40
0.132292301176835
40
0.135816040201381
40
0.139339779225928
40
0.142863518250474
40
0.149910996299567
40
0.153434735324114
40
0.15695847434866
40
0.160482213373206
40
0.164005952397753
40
0.171053430446846
40
0.174577169471392
40
0.178100908495938
40
0.181624647520485
40
0.185148386545031
40
0.192195864594124
40
0.19571960361867
40
0.199243342643217
40
0.202767081667763
40
0.20629082069231
40
0.213338298741402
40
0.216862037765949
40
0.220385776790495
40
0.223909515815041
40
0.227433254839588
40
0.234480732888681
40
0.238004471913227
40
0.241528210937773
40
0.24505194996232
40
0.248575688986866
40
0.255623167035959
40
0.259146906060505
40
0.262670645085052
40
0.269718123134145
40
0.276765601183237
40
0.280289340207784
40
0.28381307923233
40
0.290860557281423
40
0.294384296305969
40
0.297908035330516
40
0.301431774355062
40
0.304955513379609
40
0.308479252404155
40
0.312002991428701
40
0.319050469477794
40
0.326097947526887
40
0.329621686551433
40
0.33314542557598
40
0.336669164600526
40
0.340192903625072
40
0.343716642649619
40
0.347240381674165
40
0.354287859723258
40
0.361335337772351
40
0.368382815821444
40
0.37190655484599
40
0.375430293870536
40
0.378954032895083
40
0.382477771919629
40
0.386001510944176
40
0.389525249968722
40
0.393048988993269
40
0.396572728017815
40
0.400096467042361
40
0.403620206066908
40
0.407143945091454
40
0.410667684116
40
0.414191423140547
40
0.417715162165093
40
0.42123890118964
40
0.424762640214186
40
0.428286379238732
40
0.430048248751006
40
0.431810118263279
40
0.433571987775552
40
0.435333857287825
40
0.438857596312372
40
0.442381335336918
40
0.444143204849191
40
0.445905074361464
40
0.447666943873738
40
0.449428813386011
40
0.451190682898284
40
0.452952552410557
40
0.456476291435104
40
0.458238160947377
40
0.46000003045965
40
0.461761899971923
40
0.463523769484196
40
0.46528563899647
40
0.467047508508743
40
0.468809378021016
40
0.470571247533289
40
0.472333117045562
40
0.474094986557836
40
0.475856856070109
40
0.477618725582382
40
0.479380595094655
40
0.481142464606928
40
0.482904334119202
40
0.484666203631475
40
0.486428073143748
40
0.488189942656021
40
0.489951812168294
40
0.491713681680568
40
0.493475551192841
40
0.495237420705114
40
0.496999290217387
40
0.49876115972966
40
0.500523029241933
40
0.502284898754207
40
0.50404676826648
40
0.505808637778753
40
0.507570507291026
40
0.509332376803299
40
0.511094246315573
40
0.512856115827846
40
0.514617985340119
40
0.516379854852392
40
0.518141724364665
40
0.519903593876939
40
0.521665463389212
40
0.523427332901485
40
0.525189202413758
40
0.526951071926031
40
0.528712941438305
40
0.530474810950578
40
0.532236680462851
40
0.533998549975124
40
0.535760419487398
40
0.537522288999671
40
0.539284158511944
40
0.541046028024217
40
0.544569767048763
40
0.546331636561037
40
0.54809350607331
40
0.551617245097856
40
0.555140984122403
40
0.556902853634676
40
0.558664723146949
40
0.560426592659222
40
0.562188462171495
40
0.565712201196042
40
0.569235940220588
40
0.572759679245135
40
0.576283418269681
40
0.579807157294227
40
0.583330896318774
40
0.58685463534332
40
0.590378374367866
40
0.593902113392413
40
0.597425852416959
40
0.600949591441506
40
0.604473330466052
40
0.607997069490598
40
0.611520808515145
40
0.615044547539691
40
0.618568286564238
40
0.622092025588784
40
0.629139503637877
40
0.63618698168697
40
0.643234459736062
40
0.646758198760609
40
0.650281937785155
40
0.653805676809702
40
0.657329415834248
40
0.660853154858794
40
0.664376893883341
40
0.671424371932434
40
0.678471849981526
40
0.681995589006073
40
0.685519328030619
40
0.689043067055165
40
0.692566806079712
40
0.696090545104258
40
0.699614284128805
40
0.706661762177898
40
0.710185501202444
40
0.71370924022699
40
0.720756718276083
40
0.727804196325176
40
0.731327935349722
40
0.734851674374269
40
0.741899152423362
40
0.745422891447908
40
0.748946630472454
40
0.752470369497001
40
0.755994108521547
40
0.76304158657064
40
0.766565325595186
40
0.770089064619733
40
0.773612803644279
40
0.777136542668825
40
0.784184020717918
40
0.787707759742465
40
0.791231498767011
40
0.794755237791558
40
0.798278976816104
40
0.805326454865196
40
0.808850193889743
40
0.812373932914289
40
0.815897671938836
40
0.819421410963382
40
0.826468889012475
40
0.829992628037021
40
0.833516367061568
40
0.835278236573841
40
0.837040106086114
40
0.840563845110661
40
0.847611323159753
40
0.8511350621843
40
0.854658801208846
40
0.858182540233393
40
0.861706279257939
40
0.868753757307032
40
0.872277496331578
40
0.875801235356125
40
0.879324974380671
40
0.882848713405217
40
0.886372452429764
40
0.88989619145431
40
0.893419930478856
40
0.896943669503403
40
0.903991147552496
40
0.907514886577042
40
0.911038625601589
40
0.918086103650681
40
0.921609842675228
40
0.925133581699774
40
0.932181059748867
40
0.935704798773413
40
0.93922853779796
40
0.942752276822506
40
0.946276015847053
40
0.953323493896145
40
0.956847232920692
40
0.960370971945238
40
0.963894710969785
40
0.967418449994331
40
0.970942189018877
40
0.974465928043424
40
0.97798966706797
40
0.981513406092516
40
0.985037145117063
40
0.988560884141609
40
0.992084623166156
40
0.995608362190702
40
0.999132101215248
40
1
40
1
40
1
40
1
41
1
10
-28.5
20
16.8570111678065
30
0
41
1
10
-28.5
20
16.856391377782
30
0
41
1
10
-28.5
20
16.85428400616
30
0
41
1
10
-28.5
20
16.8492032887544
30
0
41
1
10
-28.5
20
16.8407921788659
30
0
41
1
10
-28.5
20
16.8300011209595
30
0
41
1
10
-28.5
20
16.8168672741156
30
0
41
1
10
-28.5
20
16.8014255225769
30
0
41
1
10
-28.5
20
16.783709883521
30
0
41
1
10
-28.5
20
16.7637529731542
30
0
41
1
10
-28.5
20
16.7415855338906
30
0
41
1
10
-28.5
20
16.7172383450784
30
0
41
1
10
-28.5
20
16.6818353810987
30
0
41
1
10
-28.5
20
16.642411510514
30
0
41
1
10
-28.5
20
16.5986105790194
30
0
41
1
10
-28.5
20
16.5637763020887
30
0
41
1
10
-28.5
20
16.5269199075572
30
0
41
1
10
-28.5
20
16.4750169305147
30
0
41
1
10
-28.5
20
16.4194622625482
30
0
41
1
10
-28.5
20
16.3597331913305
30
0
41
1
10
-28.5
20
16.2974462059125
30
0
41
1
10
-28.5
20
16.2317181614777
30
0
41
1
10
-28.5
20
16.1619255301562
30
0
41
1
10
-28.5
20
16.0896767577218
30
0
41
1
10
-28.5
20
16.0141701499498
30
0
41
1
10
-28.5
20
15.9346970720351
30
0
41
1
10
-28.5
20
15.8734193498834
30
0
41
1
10
-28.5
20
15.8103844132608
30
0
41
1
10
-28.5
20
15.745608166167
30
0
41
1
10
-28.5
20
15.6791035033831
30
0
41
1
10
-28.5
20
15.6108850520675
30
0
41
1
10
-28.5
20
15.5409672008416
30
0
41
1
10
-28.5
20
15.4453363897878
30
0
41
1
10
-28.5
20
15.3468344295442
30
0
41
1
10
-28.5
20
15.2445501023872
30
0
41
1
10
-28.5
20
15.1663215412447
30
0
41
1
10
-28.5
20
15.0864673138636
30
0
41
1
10
-28.5
20
14.9776668598204
30
0
41
1
10
-28.5
20
14.8661866472663
30
0
41
1
10
-28.5
20
14.7510047173632
30
0
41
1
10
-28.5
20
14.6631805593238
30
0
41
1
10
-28.5
20
14.5737935545692
30
0
41
1
10
-28.5
20
14.4523474056541
30
0
41
1
10
-28.5
20
14.3283920102608
30
0
41
1
10
-28.5
20
14.2007962111626
30
0
41
1
10
-28.5
20
14.1037299196573
30
0
41
1
10
-28.5
20
14.0051547121626
30
0
41
1
10
-28.5
20
13.8715103774192
30
0
41
1
10
-28.5
20
13.7355116027341
30
0
41
1
10
-28.5
20
13.5959164295663
30
0
41
1
10
-28.5
20
13.4899116400767
30
0
41
1
10
-28.5
20
13.3824445287113
30
0
41
1
10
-28.5
20
13.2369867267196
30
0
41
1
10
-28.5
20
13.0893180063072
30
0
41
1
10
-28.5
20
12.9380809359595
30
0
41
1
10
-28.5
20
12.8234002792818
30
0
41
1
10
-28.5
20
12.7072977235968
30
0
41
1
10
-28.5
20
12.550359403554
30
0
41
1
10
-28.5
20
12.3913462445321
30
0
41
1
10
-28.5
20
12.2287775158425
30
0
41
1
10
-28.5
20
12.1056498288981
30
0
41
1
10
-28.5
20
11.9811355431936
30
0
41
1
10
-28.5
20
11.8130068133241
30
0
41
1
10
-28.5
20
11.642935768078
30
0
41
1
10
-28.5
20
11.4693068645233
30
0
41
1
10
-28.5
20
11.2938625434425
30
0
41
1
10
-28.5
20
11.0718089327865
30
0
41
1
10
-28.5
20
10.8452681360072
30
0
41
1
10
-28.5
20
10.6608198079832
30
0
41
1
10
-28.5
20
10.4745957683654
30
0
41
1
10
-28.5
20
10.2866518533399
30
0
41
1
10
-28.5
20
10.0951135357909
30
0
41
1
10
-28.5
20
9.9503895477591
30
0
41
1
10
-28.5
20
9.8043545776041
30
0
41
1
10
-28.5
20
9.65701503611822
30
0
41
1
10
-28.5
20
9.50837340526911
30
0
41
1
10
-28.5
20
9.30810992365679
30
0
41
1
10
-28.5
20
9.05534970701544
30
0
41
1
10
-28.5
20
8.79830464348922
30
0
41
1
10
-28.5
20
8.58944232029054
30
0
41
1
10
-28.5
20
8.43181572672981
30
0
41
1
10
-28.5
20
8.27292311790592
30
0
41
1
10
-28.5
20
8.11277014047184
30
0
41
1
10
-28.5
20
7.9513617118449
30
0
41
1
10
-28.5
20
7.73407184255308
30
0
41
1
10
-28.5
20
7.46030866767529
30
0
41
1
10
-28.5
20
7.12632140637373
30
0
41
1
10
-28.5
20
6.84437402550569
30
0
41
1
10
-28.5
20
6.61554359890371
30
0
41
1
10
-28.5
20
6.44309029411608
30
0
41
1
10
-28.5
20
6.26944364545889
30
0
41
1
10
-28.5
20
6.09461246091772
30
0
41
1
10
-28.5
20
5.91860523667609
30
0
41
1
10
-28.5
20
5.74143189937953
30
0
41
1
10
-28.5
20
5.56310357372001
30
0
41
1
10
-28.5
20
5.38363134733163
30
0
41
1
10
-28.5
20
5.20302692387261
30
0
41
1
10
-28.5
20
5.0213042232472
30
0
41
1
10
-28.5
20
4.83847919931264
30
0
41
1
10
-28.5
20
4.65456716028004
30
0
41
1
10
-28.5
20
4.46958486845949
30
0
41
1
10
-28.5
20
4.28355302808069
30
0
41
1
10
-28.5
20
4.09649275318182
30
0
41
1
10
-28.5
20
3.90842813226232
30
0
41
1
10
-28.5
20
3.75124940963562
30
0
41
1
10
-28.5
20
3.6243549796439
30
0
41
1
10
-28.5
20
3.52924315934183
30
0
41
1
10
-28.5
20
3.43390158445521
30
0
41
1
10
-28.5
20
3.30608717079301
30
0
41
1
10
-28.5
20
3.14669072023423
30
0
41
1
10
-28.5
20
2.9865693987912
30
0
41
1
10
-28.5
20
2.85729421649611
30
0
41
1
10
-28.5
20
2.76048089001324
30
0
41
1
10
-28.5
20
2.66347976206254
30
0
41
1
10
-28.5
20
2.56629526768592
30
0
41
1
10
-28.5
20
2.46893611478751
30
0
41
1
10
-28.5
20
2.33842740009587
30
0
41
1
10
-28.5
20
2.20905952740142
30
0
41
1
10
-28.5
20
2.07788039572898
30
0
41
1
10
-28.5
20
1.97974994874616
30
0
41
1
10
-28.5
20
1.88148715614122
30
0
41
1
10
-28.5
20
1.78310090101277
30
0
41
1
10
-28.5
20
1.68460072925305
30
0
41
1
10
-28.5
20
1.58599184128096
30
0
41
1
10
-28.5
20
1.48728649469356
30
0
41
1
10
-28.5
20
1.38848914320587
30
0
41
1
10
-28.5
20
1.28961139997082
30
0
41
1
10
-28.5
20
1.19065859360987
30
0
41
1
10
-28.5
20
1.09164071478048
30
0
41
1
10
-28.5
20
0.992564090788449
30
0
41
1
10
-28.5
20
0.893436923932512
30
0
41
1
10
-28.5
20
0.794265471937166
30
0
41
1
10
-28.5
20
0.695056741362833
30
0
41
1
10
-28.5
20
0.595816468507252
30
0
41
1
10
-28.5
20
0.49655061320999
30
0
41
1
10
-28.5
20
0.397263853181812
30
0
41
1
10
-28.5
20
0.297961366795107
30
0
41
1
10
-28.5
20
0.198647102840738
30
0
41
1
10
-28.5
20
0.0993254669347436
30
0
41
1
10
-28.5
20
5.4725149E-09
30
0
41
1
10
-28.5
20
-0.0993254684405827
30
0
41
1
10
-28.5
20
-0.198647127601248
30
0
41
1
10
-28.5
20
-0.297961388791691
30
0
41
1
10
-28.5
20
-0.397263840424017
30
0
41
1
10
-28.5
20
-0.496550594205559
30
0
41
1
10
-28.5
20
-0.595816495504096
30
0
41
1
10
-28.5
20
-0.695056784277028
30
0
41
1
10
-28.5
20
-0.794265459276176
30
0
41
1
10
-28.5
20
-0.89343688343348
30
0
41
1
10
-28.5
20
-0.992564112169902
30
0
41
1
10
-28.5
20
-1.0916407792042
30
0
41
1
10
-28.5
20
-1.19065859620264
30
0
41
1
10
-28.5
20
-1.28961134189751
30
0
41
1
10
-28.5
20
-1.38848913588993
30
0
41
1
10
-28.5
20
-1.48728656512978
30
0
41
1
10
-28.5
20
-1.58599188781932
30
0
41
1
10
-28.5
20
-1.6846006870125
30
0
41
1
10
-28.5
20
-1.78310084050699
30
0
41
1
10
-28.5
20
-1.88148718140701
30
0
41
1
10
-28.5
20
-1.9797500364362
30
0
41
1
10
-28.5
20
-2.0778804265363
30
0
41
1
10
-28.5
20
-2.17587292609082
30
0
41
1
10
-28.5
20
-2.27371679621319
30
0
41
1
10
-28.5
20
-2.37140757120352
30
0
41
1
10
-28.5
20
-2.46893613943033
30
0
41
1
10
-28.5
20
-2.59923374131699
30
0
41
1
10
-28.5
20
-2.72777279716706
30
0
41
1
10
-28.5
20
-2.8572942882393
30
0
41
1
10
-28.5
20
-2.98656948332388
30
0
41
1
10
-28.5
20
-3.14669074057869
30
0
41
1
10
-28.5
20
-3.30608709676798
30
0
41
1
10
-28.5
20
-3.43390157548936
30
0
41
1
10
-28.5
20
-3.52924322184191
30
0
41
1
10
-28.5
20
-3.62435506854831
30
0
41
1
10
-28.5
20
-3.75124942106058
30
0
41
1
10
-28.5
20
-3.90842799420625
30
0
41
1
10
-28.5
20
-4.09649259176146
30
0
41
1
10
-28.5
20
-4.28355297730505
30
0
41
1
10
-28.5
20
-4.4695846174555
30
0
41
1
10
-28.5
20
-4.65456683421039
30
0
41
1
10
-28.5
20
-4.83847943804494
30
0
41
1
10
-28.5
20
-5.0213044851898
30
0
41
1
10
-28.5
20
-5.2030267003301
30
0
41
1
10
-28.5
20
-5.38363156234237
30
0
41
1
10
-28.5
20
-5.56310445504442
30
0
41
1
10
-28.5
20
-5.74143237747984
30
0
41
1
10
-28.5
20
-5.91860495448572
30
0
41
1
10
-28.5
20
-6.09461208825527
30
0
41
1
10
-28.5
20
-6.26944357118299
30
0
41
1
10
-28.5
20
-6.4430903265563
30
0
41
1
10
-28.5
20
-6.61554357091572
30
0
41
1
10
-28.5
20
-6.84437400802861
30
0
41
1
10
-28.5
20
-7.12632144512301
30
0
41
1
10
-28.5
20
-7.46030865505762
30
0
41
1
10
-28.5
20
-7.73407184285279
30
0
41
1
10
-28.5
20
-7.95136176299604
30
0
41
1
10
-28.5
20
-8.11277014937085
30
0
41
1
10
-28.5
20
-8.27292308432649
30
0
41
1
10
-28.5
20
-8.43181570788789
30
0
41
1
10
-28.5
20
-8.5894423488798
30
0
41
1
10
-28.5
20
-8.79830467826932
30
0
41
1
10
-28.5
20
-9.05534969583792
30
0
41
1
10
-28.5
20
-9.30810991622684
30
0
41
1
10
-28.5
20
-9.50837344479851
30
0
41
1
10
-28.5
20
-9.65701506287493
30
0
41
1
10
-28.5
20
-9.80435457188474
30
0
41
1
10
-28.5
20
-9.95038952754788
30
0
41
1
10
-28.5
20
-10.095113531911
30
0
41
1
10
-28.5
20
-10.2866518813937
30
0
41
1
10
-28.5
20
-10.4745957936973
30
0
41
1
10
-28.5
20
-10.6608197986608
30
0
41
1
10
-28.5
20
-10.8452681286137
30
0
41
1
10
-28.5
20
-11.0718089525805
30
0
41
1
10
-28.5
20
-11.2938625632929
30
0
41
1
10
-28.5
20
-11.4693068596264
30
0
41
1
10
-28.5
20
-11.6429357656381
30
0
41
1
10
-28.5
20
-11.8130068303033
30
0
41
1
10
-28.5
20
-11.9811355648908
30
0
41
1
10
-28.5
20
-12.1056498404809
30
0
41
1
10
-28.5
20
-12.2287775174238
30
0
41
1
10
-28.5
20
-12.3913462461042
30
0
41
1
10
-28.5
20
-12.550359417297
30
0
41
1
10
-28.5
20
-12.7072977423403
30
0
41
1
10
-28.5
20
-12.8234002933141
30
0
41
1
10
-28.5
20
-12.9380809438717
30
0
41
1
10
-28.5
20
-13.0893180117675
30
0
41
1
10
-28.5
20
-13.2369867372074
30
0
41
1
10
-28.5
20
-13.3824445445542
30
0
41
1
10
-28.5
20
-13.4899116562855
30
0
41
1
10
-28.5
20
-13.5959164434403
30
0
41
1
10
-28.5
20
-13.7355116125921
30
0
41
1
10
-28.5
20
-13.8715103854275
30
0
41
1
10
-28.5
20
-14.0051547249398
30
0
41
1
10
-28.5
20
-14.1037299370701
30
0
41
1
10
-28.5
20
-14.2007962250068
30
0
41
1
10
-28.5
20
-14.328392039309
30
0
41
1
10
-28.5
20
-14.4523474054459
30
0
41
1
10
-28.5
20
-14.5737935062701
30
0
41
1
10
-28.5
20
-14.6481896525931
30
0
41
1
10
-28.5
20
-14.7070919001429
30
0
41
1
10
-28.5
20
-14.7654709460418
30
0
41
1
10
-28.5
20
-14.8661866667289
30
0
41
1
10
-28.5
20
-14.9776668655465
30
0
41
1
10
-28.5
20
-15.0864673213159
30
0
41
1
10
-28.5
20
-15.1663215599361
30
0
41
1
10
-28.5
20
-15.2445501295776
30
0
41
1
10
-28.5
20
-15.3468344527491
30
0
41
1
10
-28.5
20
-15.4453363938053
30
0
41
1
10
-28.5
20
-15.5409672073329
30
0
41
1
10
-28.5
20
-15.6108850733398
30
0
41
1
10
-28.5
20
-15.679103534252
30
0
41
1
10
-28.5
20
-15.7456081924762
30
0
41
1
10
-28.5
20
-15.810384423087
30
0
41
1
10
-28.5
20
-15.8734193510279
30
0
41
1
10
-28.5
20
-15.9346970807191
30
0
41
1
10
-28.5
20
-16.0141701800502
30
0
41
1
10
-28.5
20
-16.0896767899468
30
0
41
1
10
-28.5
20
-16.1619255341458
30
0
41
1
10
-28.5
20
-16.2317181619347
30
0
41
1
10
-28.5
20
-16.2974462376793
30
0
41
1
10
-28.5
20
-16.3597332242326
30
0
41
1
10
-28.5
20
-16.4194622696319
30
0
41
1
10
-28.5
20
-16.4750169286961
30
0
41
1
10
-28.5
20
-16.5269199399481
30
0
41
1
10
-28.5
20
-16.5637763395248
30
0
41
1
10
-28.5
20
-16.5986105943247
30
0
41
1
10
-28.5
20
-16.642411504334
30
0
41
1
10
-28.5
20
-16.6818354096897
30
0
41
1
10
-28.5
20
-16.7172383773105
30
0
41
1
10
-28.5
20
-16.741585550229
30
0
41
1
10
-28.5
20
-16.7637529737167
30
0
41
1
10
-28.5
20
-16.7837098927271
30
0
41
1
10
-28.5
20
-16.8014255596809
30
0
41
1
10
-28.5
20
-16.816867307208
30
0
41
1
10
-28.5
20
-16.8300011251081
30
0
41
1
10
-28.5
20
-16.8407921763224
30
0
41
1
10
-28.5
20
-16.8492033090471
30
0
41
1
10
-28.5
20
-16.8551966659016
30
0
41
1
10
-28.5
20
-16.8587319423621
30
0
41
1
10
-28.5
20
-16.8597680746869
30
0
41
1
10
-28.5
20
-16.8586398965759
30
0
41
1
10
-28.5
20
-16.8573438943238
30
0
41
1
10
-28.5
20
-16.8570614838238
30
0
0
SPLINE
5
188
100
AcDbEntity
8
SK1
62
256
6
ByLayer
370
18
48
1
60
0
100
AcDbSpline
70
4
71
3
72
284
73
280
40
0
40
0
40
0
40
0
40
0.0001430978153378
40
0.0037135053234409
40
0.0072839128315441
40
0.0108543203396472
40
0.0144247278477503
40
0.0179951353558535
40
0.0215655428639566
40
0.0251359503720598
40
0.0287063578801629
40
0.0322767653882661
40
0.0358471728963692
40
0.0429879879125755
40
0.0465583954206786
40
0.0501288029287818
40
0.0536992104368849
40
0.0572696179449881
40
0.0644104329611943
40
0.0679808404692975
40
0.0715512479774006
40
0.0786920629936069
40
0.0822624705017101
40
0.0858328780098132
40
0.0929736930260195
40
0.0965441005341226
40
0.100114508042226
40
0.103684915550329
40
0.107255323058432
40
0.110825730566535
40
0.114396138074638
40
0.117966545582742
40
0.121536953090845
40
0.128677768107051
40
0.132248175615154
40
0.135818583123257
40
0.13938899063136
40
0.142959398139464
40
0.15010021315567
40
0.153670620663773
40
0.157241028171876
40
0.160811435679979
40
0.164381843188082
40
0.171522658204289
40
0.175093065712392
40
0.178663473220495
40
0.182233880728598
40
0.185804288236701
40
0.192945103252908
40
0.196515510761011
40
0.200085918269114
40
0.203656325777217
40
0.20722673328532
40
0.214367548301526
40
0.217937955809629
40
0.221508363317733
40
0.225078770825836
40
0.228649178333939
40
0.235789993350145
40
0.239360400858248
40
0.242930808366352
40
0.246501215874455
40
0.250071623382558
40
0.257212438398764
40
0.260782845906867
40
0.26435325341497
40
0.271494068431177
40
0.278634883447383
40
0.282205290955486
40
0.285775698463589
40
0.292916513479796
40
0.296486920987899
40
0.300057328496002
40
0.303627736004105
40
0.307198143512208
40
0.310768551020311
40
0.314338958528414
40
0.321479773544621
40
0.328620588560827
40
0.33219099606893
40
0.335761403577033
40
0.339331811085136
40
0.342902218593239
40
0.346472626101343
40
0.350043033609446
40
0.357183848625652
40
0.364324663641858
40
0.371465478658065
40
0.375035886166168
40
0.378606293674271
40
0.382176701182374
40
0.385747108690477
40
0.38931751619858
40
0.392887923706684
40
0.396458331214787
40
0.40002873872289
40
0.403599146230993
40
0.407169553739096
40
0.410739961247199
40
0.414310368755302
40
0.417880776263405
40
0.421451183771509
40
0.425021591279612
40
0.428591998787715
40
0.432162406295818
40
0.43394761004987
40
0.435732813803921
40
0.437518017557973
40
0.439303221312024
40
0.442873628820128
40
0.446444036328231
40
0.448229240082282
40
0.450014443836334
40
0.451799647590385
40
0.453584851344437
40
0.455370055098488
40
0.45715525885254
40
0.460725666360643
40
0.462510870114695
40
0.464296073868746
40
0.466081277622798
40
0.46786648137685
40
0.469651685130901
40
0.471436888884953
40
0.473222092639004
40
0.475007296393056
40
0.476792500147107
40
0.478577703901159
40
0.480362907655211
40
0.482148111409262
40
0.483933315163314
40
0.485718518917365
40
0.487503722671417
40
0.489288926425468
40
0.49107413017952
40
0.492859333933572
40
0.494644537687623
40
0.496429741441675
40
0.498214945195726
40
0.500000148949778
40
0.501785352703829
40
0.503570556457881
40
0.505355760211933
40
0.507140963965984
40
0.508926167720036
40
0.510711371474087
40
0.512496575228139
40
0.51428177898219
40
0.516066982736242
40
0.517852186490294
40
0.519637390244345
40
0.521422593998397
40
0.523207797752448
40
0.5249930015065
40
0.526778205260551
40
0.528563409014603
40
0.530348612768655
40
0.532133816522706
40
0.533919020276758
40
0.535704224030809
40
0.537489427784861
40
0.539274631538912
40
0.541059835292964
40
0.542845039047016
40
0.544630242801067
40
0.546415446555119
40
0.549985854063222
40
0.551771057817273
40
0.553556261571325
40
0.557126669079428
40
0.560697076587531
40
0.562482280341583
40
0.564267484095634
40
0.566052687849686
40
0.567837891603738
40
0.571408299111841
40
0.574978706619944
40
0.578549114128047
40
0.58211952163615
40
0.585689929144253
40
0.589260336652356
40
0.59283074416046
40
0.596401151668563
40
0.599971559176666
40
0.603541966684769
40
0.607112374192872
40
0.610682781700975
40
0.614253189209078
40
0.617823596717182
40
0.621394004225285
40
0.624964411733388
40
0.628534819241491
40
0.635675634257697
40
0.642816449273904
40
0.64995726429011
40
0.653527671798213
40
0.657098079306316
40
0.660668486814419
40
0.664238894322522
40
0.667809301830626
40
0.671379709338729
40
0.678520524354935
40
0.685661339371141
40
0.689231746879244
40
0.692802154387348
40
0.696372561895451
40
0.699942969403554
40
0.703513376911657
40
0.70708378441976
40
0.714224599435967
40
0.71779500694407
40
0.721365414452173
40
0.728506229468379
40
0.735647044484585
40
0.739217451992689
40
0.742787859500792
40
0.749928674516998
40
0.753499082025101
40
0.757069489533204
40
0.760639897041307
40
0.764210304549411
40
0.771351119565617
40
0.77492152707372
40
0.778491934581823
40
0.782062342089926
40
0.785632749598029
40
0.792773564614236
40
0.796343972122339
40
0.799914379630442
40
0.803484787138545
40
0.807055194646648
40
0.814196009662854
40
0.817766417170958
40
0.821336824679061
40
0.824907232187164
40
0.828477639695267
40
0.835618454711473
40
0.839188862219576
40
0.84275926972768
40
0.844544473481731
40
0.846329677235783
40
0.849900084743886
40
0.857040899760092
40
0.860611307268195
40
0.864181714776298
40
0.867752122284402
40
0.871322529792505
40
0.878463344808711
40
0.882033752316814
40
0.885604159824917
40
0.88917456733302
40
0.892744974841124
40
0.896315382349227
40
0.89988578985733
40
0.903456197365433
40
0.907026604873536
40
0.914167419889742
40
0.917737827397846
40
0.921308234905949
40
0.928449049922155
40
0.932019457430258
40
0.935589864938361
40
0.942730679954568
40
0.946301087462671
40
0.949871494970774
40
0.953441902478877
40
0.95701230998698
40
0.964153125003186
40
0.96772353251129
40
0.971293940019393
40
0.974864347527496
40
0.978434755035599
40
0.982005162543702
40
0.985575570051805
40
0.989145977559908
40
0.992716385068012
40
0.996286792576115
40
0.999857200084218
40
1
40
1
40
1
40
1
41
1
10
-1.99503997793931
20
17.320689213583
30
0
41
1
10
-1.99503997793931
20
17.3206252206488
30
0
41
1
10
-1.99503997793931
20
17.3189470231646
30
0
41
1
10
-1.99503997793928
20
17.314763700365
30
0
41
1
10
-1.99503997793928
20
17.3061342577567
30
0
41
1
10
-1.99503997793928
20
17.295067771448
30
0
41
1
10
-1.99503997793928
20
17.2816041041457
30
0
41
1
10
-1.99503997793928
20
17.2657805776118
30
0
41
1
10
-1.99503997793928
20
17.2476335117891
30
0
41
1
10
-1.99503997793928
20
17.2271975457697
30
0
41
1
10
-1.99503997793928
20
17.2045053960087
30
0
41
1
10
-1.99503997793928
20
17.1795895960111
30
0
41
1
10
-1.99503997793928
20
17.143423992764
30
0
41
1
10
-1.99503997793928
20
17.1029924242497
30
0
41
1
10
-1.99503997793928
20
17.0582791326422
30
0
41
1
10
-1.99503997793928
20
17.0226787925821
30
0
41
1
10
-1.99503997793928
20
16.9850205529168
30
0
41
1
10
-1.99503997793928
20
16.9320728615657
30
0
41
1
10
-1.99503997793928
20
16.8751872660894
30
0
41
1
10
-1.99503997793928
20
16.8142877036056
30
0
41
1
10
-1.99503997793928
20
16.7507929832779
30
0
41
1
10
-1.99503997793928
20
16.6835453056651
30
0
41
1
10
-1.99503997793928
20
16.6124299551482
30
0
41
1
10
-1.99503997793928
20
16.5388242186582
30
0
41
1
10
-1.99503997793928
20
16.4616240004255
30
0
41
1
10
-1.99503997793928
20
16.3806869939664
30
0
41
1
10
-1.99503997793928
20
16.3182114219941
30
0
41
1
10
-1.99503997793928
20
16.2539521138773
30
0
41
1
10
-1.99503997793928
20
16.1879246249361
30
0
41
1
10
-1.99503997793928
20
16.1201424382026
30
0
41
1
10
-1.99503997793928
20
16.0506207732709
30
0
41
1
10
-1.99503997793928
20
15.979373490825
30
0
41
1
10
-1.99503997793928
20
15.8820499794418
30
0
41
1
10
-1.99503997793928
20
15.7814584486047
30
0
41
1
10
-1.99503997793928
20
15.677384958149
30
0
41
1
10
-1.99503997793928
20
15.5977008436634
30
0
41
1
10
-1.99503997793928
20
15.5163656256123
30
0
41
1
10
-1.99503997793928
20
15.4056838451686
30
0
41
1
10
-1.99503997793928
20
15.2918890118945
30
0
41
1
10
-1.99503997793928
20
15.1747311694574
30
0
41
1
10
-1.99503997793928
20
15.0853020659337
30
0
41
1
10
-1.99503997793928
20
14.9942846604514
30
0
41
1
10
-1.99503997793928
20
14.8707702235387
30
0
41
1
10
-1.99503997793928
20
14.7442755428493
30
0
41
1
10
-1.99503997793928
20
14.6145160455858
30
0
41
1
10
-1.99503997793928
20
14.5156939096276
30
0
41
1
10
-1.99503997793928
20
14.4153366771621
30
0
41
1
10
-1.99503997793928
20
14.2794333721973
30
0
41
1
10
-1.99503997793928
20
14.1406647198644
30
0
41
1
10
-1.99503997793928
20
13.9987118830366
30
0
41
1
10
-1.99503997793928
20
13.8907947247769
30
0
41
1
10
-1.99503997793928
20
13.7813876415877
30
0
41
1
10
-1.99503997793928
20
13.6334713769854
30
0
41
1
10
-1.99503997793928
20
13.482790135872
30
0
41
1
10
-1.99503997793928
20
13.328990109671
30
0
41
1
10
-1.99503997793928
20
13.2122307400427
30
0
41
1
10
-1.99503997793928
20
13.09401974916
30
0
41
1
10
-1.99503997793928
20
12.9344093145834
30
0
41
1
10
-1.99503997793928
20
12.7721223429484
30
0
41
1
10
-1.99503997793928
20
12.606768466692
30
0
41
1
10
-1.99503997793928
20
12.4813812679684
30
0
41
1
10
-1.99503997793928
20
12.3545748152048
30
0
41
1
10
-1.99503997793928
20
12.1835401119863
30
0
41
1
10
-1.99503997793928
20
12.0099077332894
30
0
41
1
10
-1.99503997793928
20
11.8332480165124
30
0
41
1
10
-1.99503997793928
20
11.6547268261542
30
0
41
1
10
-1.99503997793928
20
11.4282697000141
30
0
41
1
10
-1.99503997793928
20
11.1972001365959
30
0
41
1
10
-1.99503997793928
20
11.00944356136
30
0
41
1
10
-1.99503997793928
20
10.8198574498995
30
0
41
1
10
-1.99503997793928
20
10.627787937013
30
0
41
1
10
-1.99503997793928
20
10.4327334855784
30
0
41
1
10
-1.99503997793928
20
10.2851499168301
30
0
41
1
10
-1.99503997793928
20
10.13621047024
30
0
41
1
10
-1.99503997793928
20
9.98591879047714
30
0
41
1
10
-1.99503997793928
20
9.83427692622885
30
0
41
1
10
-1.99503997793928
20
9.63019833168175
30
0
41
1
10
-1.99503997793928
20
9.37195865327325
30
0
41
1
10
-1.99503997793928
20
9.1092571782612
30
0
41
1
10
-1.99503997793928
20
8.89624559944801
30
0
41
1
10
-1.99503997793928
20
8.73523611643316
30
0
41
1
10
-1.99503997793928
20
8.57289871794615
30
0
41
1
10
-1.99503997793928
20
8.40923673354897
30
0
41
1
10
-1.99503997793928
20
8.24425232954013
30
0
41
1
10
-1.99503997793928
20
8.0224014648056
30
0
41
1
10
-1.99503997793928
20
7.7420578132905
30
0
41
1
10
-1.99503997793928
20
7.40025290593451
30
0
41
1
10
-1.99503997793928
20
7.11118461088941
30
0
41
1
10
-1.99503997793928
20
6.87709665618266
30
0
41
1
10
-1.99503997793928
20
6.70033531356589
30
0
41
1
10
-1.99503997793928
20
6.52228078287746
30
0
41
1
10
-1.99503997793928
20
6.3429370741791
30
0
41
1
10
-1.99503997793928
20
6.16230788845579
30
0
41
1
10
-1.99503997793928
20
5.98039789106801
30
0
41
1
10
-1.99503997793928
20
5.79721186805691
30
0
41
1
10
-1.99503997793928
20
5.61275496243289
30
0
41
1
10
-1.99503997793928
20
5.42703270327695
30
0
41
1
10
-1.99503997793928
20
5.24005175731475
30
0
41
1
10
-1.99503997793928
20
5.05181945337139
30
0
41
1
10
-1.99503997793928
20
4.86234332329403
30
0
41
1
10
-1.99503997793928
20
4.67163207713236
30
0
41
1
10
-1.99503997793928
20
4.47969614999016
30
0
41
1
10
-1.99503997793928
20
4.28654656517494
30
0
41
1
10
-1.99503997793928
20
4.09219634432211
30
0
41
1
10
-1.99503997793928
20
3.92934661081907
30
0
41
1
10
-1.99503997793928
20
3.7982972967292
30
0
41
1
10
-1.99503997793928
20
3.69979994526253
30
0
41
1
10
-1.99503997793928
20
3.6010147061962
30
0
41
1
10
-1.99503997793928
20
3.46881385164499
30
0
41
1
10
-1.99503997793928
20
3.30310841087518
30
0
41
1
10
-1.99503997793928
20
3.13647579824178
30
0
41
1
10
-1.99503997793928
20
3.00241852965871
30
0
41
1
10
-1.99503997793928
20
2.90170218623106
30
0
41
1
10
-1.99503997793928
20
2.80072442890969
30
0
41
1
10
-1.99503997793928
20
2.69948931487846
30
0
41
1
10
-1.99503997793928
20
2.5980019734576
30
0
41
1
10
-1.99503997793928
20
2.46222694501739
30
0
41
1
10
-1.99503997793928
20
2.3263670801044
30
0
41
1
10
-1.99503997793928
20
2.18963187963746
30
0
41
1
10
-1.99503997793928
20
2.08696367451518
30
0
41
1
10
-1.99503997793928
20
1.98407765086858
30
0
41
1
10
-1.99503997793928
20
1.88098143773604
30
0
41
1
10
-1.99503997793928
20
1.77768276547397
30
0
41
1
10
-1.99503997793928
20
1.67418894734925
30
0
41
1
10
-1.99503997793928
20
1.57050946303122
30
0
41
1
10
-1.99503997793928
20
1.46665209995737
30
0
41
1
10
-1.99503997793928
20
1.36262724011792
30
0
41
1
10
-1.99503997793928
20
1.25844372920938
30
0
41
1
10
-1.99503997793928
20
1.15411255471386
30
0
41
1
10
-1.99503997793928
20
1.04964378000579
30
0
41
1
10
-1.99503997793928
20
0.945048899580655
30
0
41
1
10
-1.99503997793928
20
0.840338961204225
30
0
41
1
10
-1.99503997793928
20
0.735526073032332
30
0
41
1
10
-1.99503997793928
20
0.630622105582688
30
0
41
1
10
-1.99503997793928
20
0.525639721157262
30
0
41
1
10
-1.99503997793928
20
0.420591350928703
30
0
41
1
10
-1.99503997793928
20
0.315490126623814
30
0
41
1
10
-1.99503997793928
20
0.210348939519435
30
0
41
1
10
-1.99503997793928
20
0.105181165306249
30
0
41
1
10
-1.99503997793928
20
-2.6093687E-09
30
0
41
1
10
-1.99503997793928
20
-0.10518117389941
30
0
41
1
10
-1.99503997793928
20
-0.21034895445402
30
0
41
1
10
-1.99503997793928
20
-0.315490140896543
30
0
41
1
10
-1.99503997793928
20
-0.420591355720489
30
0
41
1
10
-1.99503997793928
20
-0.525639723935797
30
0
41
1
10
-1.99503997793928
20
-0.630622120770227
30
0
41
1
10
-1.99503997793928
20
-0.735526093018507
30
0
41
1
10
-1.99503997793928
20
-0.840338966235578
30
0
41
1
10
-1.99503997793928
20
-0.945048896197648
30
0
41
1
10
-1.99503997793928
20
-1.04964379294299
30
0
41
1
10
-1.99503997793928
20
-1.15411258033262
30
0
41
1
10
-1.99503997793928
20
-1.25844373877697
30
0
41
1
10
-1.99503997793928
20
-1.36262723194542
30
0
41
1
10
-1.99503997793928
20
-1.46665210416356
30
0
41
1
10
-1.99503997793928
20
-1.57050948928742
30
0
41
1
10
-1.99503997793928
20
-1.67418896894682
30
0
41
1
10
-1.99503997793928
20
-1.77768276258209
30
0
41
1
10
-1.99503997793928
20
-1.88098142742643
30
0
41
1
10
-1.99503997793928
20
-1.98407766278629
30
0
41
1
10
-1.99503997793928
20
-2.08696370566375
30
0
41
1
10
-1.99503997793928
20
-2.18963189754737
30
0
41
1
10
-1.99503997793928
20
-2.29207637206397
30
0
41
1
10
-1.99503997793928
20
-2.39428973936722
30
0
41
1
10
-1.99503997793928
20
-2.49626703199883
30
0
41
1
10
-1.99503997793928
20
-2.59800197223717
30
0
41
1
10
-1.99503997793928
20
-2.73345090264118
30
0
41
1
10
-1.99503997793928
20
-2.86801083241156
30
0
41
1
10
-1.99503997793928
20
-3.00241855173454
30
0
41
1
10
-1.99503997793928
20
-3.13647582573117
30
0
41
1
10
-1.99503997793928
20
-3.30310842941955
30
0
41
1
10
-1.99503997793928
20
-3.46881383607317
30
0
41
1
10
-1.99503997793928
20
-3.60101470543907
30
0
41
1
10
-1.99503997793928
20
-3.69979996514493
30
0
41
1
10
-1.99503997793928
20
-3.79829732832764
30
0
41
1
10
-1.99503997793928
20
-3.92934662557204
30
0
41
1
10
-1.99503997793928
20
-4.09219631216948
30
0
41
1
10
-1.99503997793928
20
-4.28654650347451
30
0
41
1
10
-1.99503997793928
20
-4.47969611179559
30
0
41
1
10
-1.99503997793928
20
-4.67163198724225
30
0
41
1
10
-1.99503997793928
20
-4.86234315765492
30
0
41
1
10
-1.99503997793928
20
-5.05181944357969
30
0
41
1
10
-1.99503997793928
20
-5.24005183821342
30
0
41
1
10
-1.99503997793928
20
-5.42703263168386
30
0
41
1
10
-1.99503997793928
20
-5.61275497462711
30
0
41
1
10
-1.99503997793928
20
-5.79721217482029
30
0
41
1
10
-1.99503997793928
20
-5.98039819956611
30
0
41
1
10
-1.99503997793928
20
-6.16230794338162
30
0
41
1
10
-1.99503997793928
20
-6.34293700639157
30
0
41
1
10
-1.99503997793928
20
-6.52228076981257
30
0
41
1
10
-1.99503997793928
20
-6.70033533418757
30
0
41
1
10
-1.99503997793928
20
-6.87709665926303
30
0
41
1
10
-1.99503997793928
20
-7.11118459991687
30
0
41
1
10
-1.99503997793928
20
-7.40025292645402
30
0
41
1
10
-1.99503997793928
20
-7.74205781809903
30
0
41
1
10
-1.99503997793928
20
-8.02240145976876
30
0
41
1
10
-1.99503997793928
20
-8.24425235284596
30
0
41
1
10
-1.99503997793928
20
-8.40923674956807
30
0
41
1
10
-1.99503997793928
20
-8.57289871422529
30
0
41
1
10
-1.99503997793928
20
-8.73523610803539
30
0
41
1
10
-1.99503997793928
20
-8.89624560664996
30
0
41
1
10
-1.99503997793928
20
-9.10925720032841
30
0
41
1
10
-1.99503997793928
20
-9.37195865915049
30
0
41
1
10
-1.99503997793928
20
-9.6301983246166
30
0
41
1
10
-1.99503997793928
20
-9.83427694277646
30
0
41
1
10
-1.99503997793928
20
-9.98591881051331
30
0
41
1
10
-1.99503997793928
20
-10.1362104789651
30
0
41
1
10
-1.99503997793928
20
-10.2851499142426
30
0
41
1
10
-1.99503997793928
20
-10.432733482583
30
0
41
1
10
-1.99503997793928
20
-10.6277879483349
30
0
41
1
10
-1.99503997793928
20
-10.8198574709635
30
0
41
1
10
-1.99503997793928
20
-11.0094435667743
30
0
41
1
10
-1.99503997793928
20
-11.1972001338813
30
0
41
1
10
-1.99503997793928
20
-11.4282697094187
30
0
41
1
10
-1.99503997793928
20
-11.6547268446385
30
0
41
1
10
-1.99503997793928
20
-11.8332480225582
30
0
41
1
10
-1.99503997793928
20
-12.0099077334538
30
0
41
1
10
-1.99503997793928
20
-12.1835401209566
30
0
41
1
10
-1.99503997793928
20
-12.3545748313203
30
0
41
1
10
-1.99503997793928
20
-12.4813812819682
30
0
41
1
10
-1.99503997793928
20
-12.6067684751262
30
0
41
1
10
-1.99503997793928
20
-12.7721223466594
30
0
41
1
10
-1.99503997793928
20
-12.9344093235711
30
0
41
1
10
-1.99503997793928
20
-13.0940197637218
30
0
41
1
10
-1.99503997793928
20
-13.2122307543484
30
0
41
1
10
-1.99503997793928
20
-13.3289901210133
30
0
41
1
10
-1.99503997793928
20
-13.4827901435456
30
0
41
1
10
-1.99503997793928
20
-13.6334713858817
30
0
41
1
10
-1.99503997793928
20
-13.7813876543746
30
0
41
1
10
-1.99503997793928
20
-13.8907947392413
30
0
41
1
10
-1.99503997793928
20
-13.99871189727
30
0
41
1
10
-1.99503997793928
20
-14.1406647319193
30
0
41
1
10
-1.99503997793928
20
-14.2794333813788
30
0
41
1
10
-1.99503997793928
20
-14.4153366880849
30
0
41
1
10
-1.99503997793928
20
-14.5156939237825
30
0
41
1
10
-1.99503997793928
20
-14.614516060936
30
0
41
1
10
-1.99503997793928
20
-14.7442755571137
30
0
41
1
10
-1.99503997793928
20
-14.8707702595594
30
0
41
1
10
-1.99503997793928
20
-14.9942845913974
30
0
41
1
10
-1.99503997793928
20
-15.070107125687
30
0
41
1
10
-1.99503997793928
20
-15.130016414734
30
0
41
1
10
-1.99503997793928
20
-15.1893946011099
30
0
41
1
10
-1.99503997793928
20
-15.2918890331241
30
0
41
1
10
-1.99503997793928
20
-15.4056838559475
30
0
41
1
10
-1.99503997793928
20
-15.5163656330196
30
0
41
1
10
-1.99503997793928
20
-15.5977008570348
30
0
41
1
10
-1.99503997793928
20
-15.677384979663
30
0
41
1
10
-1.99503997793928
20
-15.781458474053
30
0
41
1
10
-1.99503997793928
20
-15.8820499896637
30
0
41
1
10
-1.99503997793928
20
-15.9793734967038
30
0
41
1
10
-1.99503997793928
20
-16.0506207879892
30
0
41
1
10
-1.99503997793928
20
-16.1201424632647
30
0
41
1
10
-1.99503997793928
20
-16.1879246525291
30
0
41
1
10
-1.99503997793928
20
-16.2539521307207
30
0
41
1
10
-1.99503997793928
20
-16.3182114280861
30
0
41
1
10
-1.99503997793928
20
-16.3806869997558
30
0
41
1
10
-1.99503997793928
20
-16.4616240235723
30
0
41
1
10
-1.99503997793928
20
-16.538824252381
30
0
41
1
10
-1.99503997793928
20
-16.6124299668847
30
0
41
1
10
-1.99503997793928
20
-16.6835453043615
30
0
41
1
10
-1.99503997793928
20
-16.7507930080793
30
0
41
1
10
-1.99503997793928
20
-16.8142877377232
30
0
41
1
10
-1.99503997793928
20
-16.8751872797734
30
0
41
1
10
-1.99503997793928
20
-16.9320728583858
30
0
41
1
10
-1.99503997793928
20
-16.9850205784631
30
0
41
1
10
-1.99503997793928
20
-17.0226788299273
30
0
41
1
10
-1.99503997793928
20
-17.0582791544304
30
0
41
1
10
-1.99503997793928
20
-17.1029924178939
30
0
41
1
10
-1.99503997793928
20
-17.1434240170936
30
0
41
1
10
-1.99503997793928
20
-17.1795896288677
30
0
41
1
10
-1.99503997793928
20
-17.204505416066
30
0
41
1
10
-1.99503997793928
20
-17.2271975480507
30
0
41
1
10
-1.99503997793928
20
-17.2476335178127
30
0
41
1
10
-1.99503997793928
20
-17.2657806121613
30
0
41
1
10
-1.99503997793928
20
-17.2816041393821
30
0
41
1
10
-1.99503997793928
20
-17.2950677779805
30
0
41
1
10
-1.99503997793928
20
-17.3061342543252
30
0
41
1
10
-1.99503997793928
20
-17.3147637210185
30
0
41
1
10
-1.99503997793928
20
-17.3189468539726
30
0
41
1
10
-1.99503997793928
20
-17.3206249241511
30
0
41
1
10
-1.99503997793928
20
-17.3206887855241
30
0
0
SPLINE
5
189
100
AcDbEntity
8
SK1
62
256
6
ByLayer
370
18
48
1
60
0
100
AcDbSpline
70
4
71
3
72
107
73
103
40
0
40
0
40
0
40
0
40
0.0027087431767878
40
0.0112406780908275
40
0.0197726130048672
40
0.0283045479189069
40
0.0368364828329466
40
0.0453684177469863
40
0.053900352661026
40
0.0624322875750657
40
0.0709642224891054
40
0.0794961574031451
40
0.0965600272312245
40
0.113623897059304
40
0.130687766887383
40
0.139219701801423
40
0.147751636715463
40
0.156283571629502
40
0.164815506543542
40
0.173347441457582
40
0.181879376371621
40
0.198943246199701
40
0.21600711602778
40
0.22453905094182
40
0.23307098585586
40
0.241602920769899
40
0.250134855683939
40
0.258666790597979
40
0.267198725512019
40
0.284262595340098
40
0.292794530254138
40
0.301326465168177
40
0.318390334996257
40
0.335454204824336
40
0.343986139738376
40
0.352518074652416
40
0.369581944480495
40
0.378113879394535
40
0.386645814308574
40
0.395177749222614
40
0.403709684136654
40
0.420773553964733
40
0.429305488878773
40
0.437837423792812
40
0.446369358706852
40
0.454901293620892
40
0.471965163448971
40
0.480497098363011
40
0.489029033277051
40
0.49756096819109
40
0.50609290310513
40
0.52315677293321
40
0.531688707847249
40
0.540220642761289
40
0.548752577675328
40
0.557284512589368
40
0.574348382417448
40
0.582880317331487
40
0.591412252245527
40
0.595678219702547
40
0.599944187159567
40
0.608476122073606
40
0.625539991901686
40
0.634071926815725
40
0.642603861729765
40
0.651135796643805
40
0.659667731557844
40
0.676731601385924
40
0.685263536299964
40
0.693795471214003
40
0.702327406128043
40
0.710859341042083
40
0.719391275956122
40
0.727923210870162
40
0.736455145784202
40
0.744987080698241
40
0.762050950526321
40
0.770582885440361
40
0.7791148203544
40
0.79617869018248
40
0.804710625096519
40
0.813242560010559
40
0.830306429838638
40
0.838838364752678
40
0.847370299666718
40
0.855902234580758
40
0.864434169494797
40
0.881498039322877
40
0.890029974236916
40
0.898561909150956
40
0.907093844064996
40
0.915625778979036
40
0.924157713893075
40
0.932689648807115
40
0.941221583721155
40
0.949753518635194
40
0.958285453549234
40
0.966817388463274
40
0.975349323377314
40
0.983881258291353
40
0.992413193205393
40
1
40
1
40
1
40
1
41
1
10
-0.394976888875277
20
-5.38678189578289
30
0
41
1
10
-0.394976888875277
20
-5.4065930765673
30
0
41
1
10
-0.394976888875277
20
-5.48871660168982
30
0
41
1
10
-0.394976888875277
20
-5.63252719489225
30
0
41
1
10
-0.394976888875277
20
-5.8174145162354
30
0
41
1
10
-0.394976888875277
20
-6.00101977124669
30
0
41
1
10
-0.394976888875277
20
-6.18333830919048
30
0
41
1
10
-0.394976888875277
20
-6.3643662218949
30
0
41
1
10
-0.394976888875277
20
-6.54409937286439
30
0
41
1
10
-0.394976888875277
20
-6.72253430941348
30
0
41
1
10
-0.394976888875277
20
-6.89966740060396
30
0
41
1
10
-0.394976888875277
20
-7.13420903787926
30
0
41
1
10
-0.394976888875277
20
-7.42389186204957
30
0
41
1
10
-0.394976888875277
20
-7.76637138106329
30
0
41
1
10
-0.394976888875277
20
-8.04728288344248
30
0
41
1
10
-0.394976888875277
20
-8.26952736598562
30
0
41
1
10
-0.394976888875277
20
-8.434820354761
30
0
41
1
10
-0.394976888875277
20
-8.59878513137221
30
0
41
1
10
-0.394976888875277
20
-8.76141979186249
30
0
41
1
10
-0.394976888875277
20
-8.922721214403
30
0
41
1
10
-0.394976888875277
20
-9.1360908691222
30
0
41
1
10
-0.394976888875277
20
-9.39928045092248
30
0
41
1
10
-0.394976888875277
20
-9.65799296546987
30
0
41
1
10
-0.394976888875277
20
-9.86240080704218
30
0
41
1
10
-0.394976888875277
20
-10.0143015815252
30
0
41
1
10
-0.394976888875277
20
-10.1648480067744
30
0
41
1
10
-0.394976888875277
20
-10.3140380843155
30
0
41
1
10
-0.394976888875277
20
-10.4618684189216
30
0
41
1
10
-0.394976888875277
20
-10.6572263081632
30
0
41
1
10
-0.394976888875277
20
-10.8496518506122
30
0
41
1
10
-0.394976888875277
20
-11.0395280782787
30
0
41
1
10
-0.394976888875277
20
-11.2275701299333
30
0
41
1
10
-0.394976888875277
20
-11.4590305143918
30
0
41
1
10
-0.394976888875277
20
-11.685867652055
30
0
41
1
10
-0.394976888875277
20
-11.864654349678
30
0
41
1
10
-0.394976888875277
20
-12.0415756040849
30
0
41
1
10
-0.394976888875277
20
-12.2155153161813
30
0
41
1
10
-0.394976888875277
20
-12.3868007979199
30
0
41
1
10
-0.394976888875277
20
-12.5138050519686
30
0
41
1
10
-0.394976888875277
20
-12.6393872302303
30
0
41
1
10
-0.394976888875277
20
-12.8049814458532
30
0
41
1
10
-0.394976888875277
20
-12.9675509360494
30
0
41
1
10
-0.394976888875277
20
-13.1273919665529
30
0
41
1
10
-0.394976888875277
20
-13.2457849051211
30
0
41
1
10
-0.394976888875277
20
-13.3627236547323
30
0
41
1
10
-0.394976888875277
20
-13.5167448476072
30
0
41
1
10
-0.394976888875277
20
-13.6676860552913
30
0
41
1
10
-0.394976888875277
20
-13.8158144768541
30
0
41
1
10
-0.394976888875277
20
-13.9253889718329
30
0
41
1
10
-0.394976888875277
20
-14.0334711580348
30
0
41
1
10
-0.394976888875277
20
-14.1756274475866
30
0
41
1
10
-0.394976888875277
20
-14.3146351237356
30
0
41
1
10
-0.394976888875277
20
-14.4507333681675
30
0
41
1
10
-0.394976888875277
20
-14.5512443837086
30
0
41
1
10
-0.394976888875277
20
-14.6502180419884
30
0
41
1
10
-0.394976888875277
20
-14.780164253239
30
0
41
1
10
-0.394976888875277
20
-14.9068780878822
30
0
41
1
10
-0.394976888875277
20
-15.0305708978545
30
0
41
1
10
-0.394976888875277
20
-15.1065165223896
30
0
41
1
10
-0.394976888875277
20
-15.1665127141503
30
0
41
1
10
-0.394976888875277
20
-15.2259771214207
30
0
41
1
10
-0.394976888875277
20
-15.3286250474485
30
0
41
1
10
-0.394976888875277
20
-15.4426196109061
30
0
41
1
10
-0.394976888875277
20
-15.5534637367265
30
0
41
1
10
-0.394976888875277
20
-15.6349267624759
30
0
41
1
10
-0.394976888875277
20
-15.7147364921469
30
0
41
1
10
-0.394976888875277
20
-15.8189643831875
30
0
41
1
10
-0.394976888875277
20
-15.9197362187748
30
0
41
1
10
-0.394976888875277
20
-16.0172057969154
30
0
41
1
10
-0.394976888875277
20
-16.0885678110446
30
0
41
1
10
-0.394976888875277
20
-16.1582019472912
30
0
41
1
10
-0.394976888875277
20
-16.2260943811825
30
0
41
1
10
-0.394976888875277
20
-16.2922298358683
30
0
41
1
10
-0.394976888875277
20
-16.3565947902754
30
0
41
1
10
-0.394976888875277
20
-16.4191737297992
30
0
41
1
10
-0.394976888875277
20
-16.5002370830775
30
0
41
1
10
-0.394976888875277
20
-16.5775834628441
30
0
41
1
10
-0.394976888875277
20
-16.6513062771915
30
0
41
1
10
-0.394976888875277
20
-16.7225357579897
30
0
41
1
10
-0.394976888875277
20
-16.7899145981056
30
0
41
1
10
-0.394976888875277
20
-16.8535135500207
30
0
41
1
10
-0.394976888875277
20
-16.9145141001581
30
0
41
1
10
-0.394976888875277
20
-16.9715145305624
30
0
41
1
10
-0.394976888875277
20
-17.024552403858
30
0
41
1
10
-0.394976888875277
20
-17.0622798511847
30
0
41
1
10
-0.394976888875277
20
-17.0979462837243
30
0
41
1
10
-0.394976888875277
20
-17.1427382787905
30
0
41
1
10
-0.394976888875277
20
-17.1832568369982
30
0
41
1
10
-0.394976888875277
20
-17.2194882612007
30
0
41
1
10
-0.394976888875277
20
-17.2444531170066
30
0
41
1
10
-0.394976888875277
20
-17.2671905287463
30
0
41
1
10
-0.394976888875277
20
-17.2876678382251
30
0
41
1
10
-0.394976888875277
20
-17.3058521626298
30
0
41
1
10
-0.394976888875277
20
-17.3217086355548
30
0
41
1
10
-0.394976888875277
20
-17.3352007360526
30
0
41
1
10
-0.394976888875277
20
-17.3462909802274
30
0
41
1
10
-0.394976888875277
20
-17.3549392880652
30
0
41
1
10
-0.394976888875277
20
-17.3611046305144
30
0
41
1
10
-0.394976888875277
20
-17.3647432146661
30
0
41
1
10
-0.394976888875277
20
-17.3658102005923
30
0
41
1
10
-0.394976888875277
20
-17.3643150511008
30
0
41
1
10
-0.394976888875277
20
-17.3617494021291
30
0
41
1
10
-0.394976888875277
20
-17.3601838594862
30
0
0
SPLINE
5
18A
100
AcDbEntity
8
SK1
62
256
6
ByLayer
370
18
48
1
60
0
100
AcDbSpline
70
4
71
3
72
106
73
102
40
0
40
0
40
0
40
0
40
0.0075864939422497
40
0.0161184316738498
40
0.0246503694054499
40
0.03318230713705
40
0.0417142448686501
40
0.0502461826002502
40
0.0587781203318503
40
0.0673100580634503
40
0.0758419957950504
40
0.0843739335266505
40
0.0929058712582506
40
0.101437808989851
40
0.109969746721451
40
0.118501684453051
40
0.135565559916251
40
0.144097497647851
40
0.152629435379451
40
0.161161373111051
40
0.169693310842651
40
0.186757186305852
40
0.195289124037452
40
0.203821061769052
40
0.220884937232252
40
0.229416874963852
40
0.237948812695452
40
0.255012688158652
40
0.263544625890253
40
0.272076563621853
40
0.280608501353453
40
0.289140439085053
40
0.297672376816653
40
0.306204314548253
40
0.314736252279853
40
0.323268190011453
40
0.340332065474653
40
0.348864003206253
40
0.357395940937853
40
0.365927878669454
40
0.374459816401054
40
0.391523691864254
40
0.400055629595854
40
0.408587567327454
40
0.417119505059054
40
0.425651442790654
40
0.442715318253854
40
0.451247255985455
40
0.459779193717055
40
0.468311131448655
40
0.476843069180255
40
0.493906944643455
40
0.502438882375055
40
0.510970820106655
40
0.519502757838255
40
0.528034695569855
40
0.545098571033056
40
0.553630508764656
40
0.562162446496256
40
0.570694384227856
40
0.579226321959456
40
0.596290197422656
40
0.604822135154256
40
0.613354072885856
40
0.621886010617456
40
0.630417948349057
40
0.647481823812257
40
0.656013761543857
40
0.664545699275457
40
0.681609574738657
40
0.698673450201857
40
0.707205387933457
40
0.715737325665057
40
0.732801201128258
40
0.741333138859858
40
0.749865076591458
40
0.758397014323058
40
0.766928952054658
40
0.775460889786258
40
0.783992827517858
40
0.801056702981058
40
0.818120578444259
40
0.826652516175859
40
0.835184453907459
40
0.843716391639059
40
0.852248329370659
40
0.860780267102259
40
0.869312204833859
40
0.886376080297059
40
0.903439955760259
40
0.92050383122346
40
0.92903576895506
40
0.93756770668666
40
0.94609964441826
40
0.95463158214986
40
0.96316351988146
40
0.97169545761306
40
0.98022739534466
40
0.98875933307626
40
0.997291270807861
40
1
40
1
40
1
40
1
41
1
10
-0.39497688887522
20
17.3601838880465
30
0
41
1
10
-0.394976888875277
20
17.3617494125698
30
0
41
1
10
-0.394976888875277
20
17.3643151423946
30
0
41
1
10
-0.394976888875277
20
17.3658104187982
30
0
41
1
10
-0.394976888875277
20
17.364743357607
30
0
41
1
10
-0.394976888875277
20
17.3611046370287
30
0
41
1
10
-0.394976888875277
20
17.3549392673806
30
0
41
1
10
-0.394976888875277
20
17.3462909837355
30
0
41
1
10
-0.394976888875277
20
17.3352007293143
30
0
41
1
10
-0.394976888875277
20
17.3217086001335
30
0
41
1
10
-0.394976888875277
20
17.3058521283006
30
0
41
1
10
-0.394976888875277
20
17.2876678324761
30
0
41
1
10
-0.394976888875277
20
17.267190526317
30
0
41
1
10
-0.394976888875277
20
17.2444530966284
30
0
41
1
10
-0.394976888875277
20
17.2194882282903
30
0
41
1
10
-0.394976888875277
20
17.1832568130363
30
0
41
1
10
-0.394976888875277
20
17.1427382851614
30
0
41
1
10
-0.394976888875277
20
17.0979462613767
30
0
41
1
10
-0.394976888875277
20
17.0622798138473
30
0
41
1
10
-0.394976888875277
20
17.0245523789023
30
0
41
1
10
-0.394976888875277
20
16.9715145338597
30
0
41
1
10
-0.394976888875277
20
16.9145140859045
30
0
41
1
10
-0.394976888875277
20
16.8535135157982
30
0
41
1
10
-0.394976888875277
20
16.7899145739052
30
0
41
1
10
-0.394976888875277
20
16.7225357594453
30
0
41
1
10
-0.394976888875277
20
16.6513062647865
30
0
41
1
10
-0.394976888875277
20
16.577583428992
30
0
41
1
10
-0.394976888875277
20
16.5002370605308
30
0
41
1
10
-0.394976888875277
20
16.4191737242595
30
0
41
1
10
-0.394976888875277
20
16.3565947837564
30
0
41
1
10
-0.394976888875277
20
16.2922298184193
30
0
41
1
10
-0.394976888875277
20
16.2260943534788
30
0
41
1
10
-0.394976888875277
20
16.1582019227301
30
0
41
1
10
-0.394976888875277
20
16.0885677968918
30
0
41
1
10
-0.394976888875277
20
16.0172057910894
30
0
41
1
10
-0.394976888875277
20
15.9197362080175
30
0
41
1
10
-0.394976888875277
20
15.8189643575456
30
0
41
1
10
-0.394976888875277
20
15.7147364711228
30
0
41
1
10
-0.394976888875277
20
15.6349267495635
30
0
41
1
10
-0.394976888875277
20
15.553463729323
30
0
41
1
10
-0.394976888875277
20
15.4426195996911
30
0
41
1
10
-0.394976888875277
20
15.3286250260664
30
0
41
1
10
-0.394976888875277
20
15.2112966721243
30
0
41
1
10
-0.394976888875277
20
15.1217290697223
30
0
41
1
10
-0.394976888875277
20
15.0305709686995
30
0
41
1
10
-0.394976888875277
20
14.906878048735
30
0
41
1
10
-0.394976888875277
20
14.7801642402503
30
0
41
1
10
-0.394976888875277
20
14.6502180265082
30
0
41
1
10
-0.394976888875277
20
14.5512443698349
30
0
41
1
10
-0.394976888875277
20
14.4507333574048
30
0
41
1
10
-0.394976888875277
20
14.3146351144528
30
0
41
1
10
-0.394976888875277
20
14.1756274353422
30
0
41
1
10
-0.394976888875277
20
14.0334711437704
30
0
41
1
10
-0.394976888875277
20
13.9253889575191
30
0
41
1
10
-0.394976888875277
20
13.8158144643309
30
0
41
1
10
-0.394976888875277
20
13.6676860465324
30
0
41
1
10
-0.394976888875277
20
13.5167448397425
30
0
41
1
10
-0.394976888875277
20
13.3627236430939
30
0
41
1
10
-0.394976888875277
20
13.2457848907918
30
0
41
1
10
-0.394976888875277
20
13.127391952352
30
0
41
1
10
-0.394976888875277
20
12.9675509274721
30
0
41
1
10
-0.394976888875277
20
12.8049814419576
30
0
41
1
10
-0.394976888875277
20
12.6393872212047
30
0
41
1
10
-0.394976888875277
20
12.5138050377602
30
0
41
1
10
-0.394976888875277
20
12.3868007822861
30
0
41
1
10
-0.394976888875277
20
12.2155153079022
30
0
41
1
10
-0.394976888875277
20
12.0415756036957
30
0
41
1
10
-0.394976888875277
20
11.8646543426879
30
0
41
1
10
-0.394976888875277
20
11.6858676336886
30
0
41
1
10
-0.394976888875277
20
11.4590305058839
30
0
41
1
10
-0.394976888875277
20
11.2275701322441
30
0
41
1
10
-0.394976888875277
20
11.0395280715926
30
0
41
1
10
-0.394976888875277
20
10.8496518299165
30
0
41
1
10
-0.394976888875277
20
10.6572262982852
30
0
41
1
10
-0.394976888875277
20
10.4618684218406
30
0
41
1
10
-0.394976888875277
20
10.3140380853821
30
0
41
1
10
-0.394976888875277
20
10.1648479968029
30
0
41
1
10
-0.394976888875277
20
10.0143015620689
30
0
41
1
10
-0.394976888875277
20
9.86240079247779
30
0
41
1
10
-0.394976888875277
20
9.65799297250354
30
0
41
1
10
-0.394976888875277
20
9.3992804435735
30
0
41
1
10
-0.394976888875277
20
9.13609084815204
30
0
41
1
10
-0.394976888875277
20
8.92272120904667
30
0
41
1
10
-0.394976888875277
20
8.76141979935898
30
0
41
1
10
-0.394976888875277
20
8.59878513251641
30
0
41
1
10
-0.394976888875277
20
8.43482033812748
30
0
41
1
10
-0.394976888875277
20
8.26952734508268
30
0
41
1
10
-0.394976888875277
20
8.04728288893983
30
0
41
1
10
-0.394976888875277
20
7.76637137475095
30
0
41
1
10
-0.394976888875277
20
7.42389184310318
30
0
41
1
10
-0.394976888875277
20
7.13420904829047
30
0
41
1
10
-0.394976888875277
20
6.89966739484251
30
0
41
1
10
-0.394976888875277
20
6.7225342898117
30
0
41
1
10
-0.394976888875277
20
6.54409938064705
30
0
41
1
10
-0.394976888875277
20
6.36436626337326
30
0
41
1
10
-0.394976888875277
20
6.18333822517317
30
0
41
1
10
-0.394976888875277
20
6.0010194773844
30
0
41
1
10
-0.394976888875277
20
5.81741425905383
30
0
41
1
10
-0.394976888875277
20
5.63252720020009
30
0
41
1
10
-0.394976888875277
20
5.48871675629277
30
0
41
1
10
-0.394976888875277
20
5.40659331253005
30
0
41
1
10
-0.394976888875277
20
5.38678223324203
30
0
0
SPLINE
5
18B
100
AcDbEntity
8
SK1
62
256
6
ByLayer
370
18
48
1
60
0
100
AcDbSpline
70
4
71
3
72
288
73
284
40
0
40
0
40
0
40
0
40
0.0022851262206806
40
0.0057901668052814
40
0.0092952073898821
40
0.0128002479744829
40
0.0163052885590837
40
0.0198103291436845
40
0.0233153697282853
40
0.0268204103128861
40
0.0303254508974868
40
0.0338304914820877
40
0.0373355320666885
40
0.0408405726512892
40
0.04434561323589
40
0.0513556944050916
40
0.0548607349896924
40
0.0583657755742931
40
0.061870816158894
40
0.0653758567434947
40
0.0723859379126963
40
0.075890978497297
40
0.0793960190818979
40
0.0864061002510994
40
0.0899111408357002
40
0.093416181420301
40
0.100426262589503
40
0.103931303174103
40
0.107436343758704
40
0.110941384343305
40
0.114446424927906
40
0.117951465512507
40
0.121456506097107
40
0.124961546681708
40
0.128466587266309
40
0.135476668435511
40
0.138981709020111
40
0.142486749604712
40
0.145991790189313
40
0.149496830773914
40
0.156506911943115
40
0.160011952527716
40
0.163516993112317
40
0.167022033696918
40
0.170527074281518
40
0.17753715545072
40
0.181042196035321
40
0.184547236619922
40
0.188052277204522
40
0.191557317789123
40
0.198567398958325
40
0.202072439542925
40
0.205577480127526
40
0.209082520712127
40
0.212587561296728
40
0.219597642465929
40
0.22310268305053
40
0.226607723635131
40
0.230112764219732
40
0.233617804804332
40
0.240627885973534
40
0.244132926558135
40
0.247637967142736
40
0.251143007727336
40
0.254648048311937
40
0.261658129481139
40
0.265163170065739
40
0.26866821065034
40
0.275678291819542
40
0.282688372988743
40
0.286193413573344
40
0.289698454157945
40
0.296708535327147
40
0.300213575911747
40
0.303718616496348
40
0.307223657080949
40
0.31072869766555
40
0.314233738250151
40
0.317738778834751
40
0.324748860003953
40
0.331758941173154
40
0.335263981757755
40
0.338769022342356
40
0.342274062926957
40
0.345779103511558
40
0.349284144096158
40
0.352789184680759
40
0.359799265849961
40
0.366809347019162
40
0.373819428188364
40
0.377324468772965
40
0.380829509357565
40
0.384334549942166
40
0.387839590526767
40
0.391344631111368
40
0.394849671695969
40
0.398354712280569
40
0.40185975286517
40
0.405364793449771
40
0.408869834034372
40
0.412374874618972
40
0.415879915203573
40
0.419384955788174
40
0.422889996372775
40
0.426395036957376
40
0.429900077541976
40
0.433405118126577
40
0.435157638418878
40
0.436910158711178
40
0.438662679003478
40
0.440415199295779
40
0.443920239880379
40
0.44742528046498
40
0.449177800757281
40
0.450930321049581
40
0.452682841341882
40
0.454435361634182
40
0.456187881926482
40
0.457940402218783
40
0.461445442803384
40
0.463197963095684
40
0.464950483387984
40
0.466703003680285
40
0.468455523972585
40
0.470208044264885
40
0.471960564557186
40
0.473713084849486
40
0.475465605141787
40
0.477218125434087
40
0.478970645726387
40
0.480723166018688
40
0.482475686310988
40
0.484228206603289
40
0.485980726895589
40
0.487733247187889
40
0.48948576748019
40
0.49123828777249
40
0.492990808064791
40
0.494743328357091
40
0.496495848649391
40
0.498248368941692
40
0.500000889233992
40
0.501753409526292
40
0.503505929818593
40
0.505258450110893
40
0.507010970403194
40
0.508763490695494
40
0.510516010987794
40
0.512268531280095
40
0.514021051572395
40
0.515773571864696
40
0.517526092156996
40
0.519278612449296
40
0.521031132741597
40
0.522783653033897
40
0.524536173326198
40
0.526288693618498
40
0.528041213910798
40
0.529793734203099
40
0.531546254495399
40
0.5332987747877
40
0.53505129508
40
0.5368038153723
40
0.538556335664601
40
0.540308855956901
40
0.542061376249202
40
0.543813896541502
40
0.545566416833802
40
0.549071457418403
40
0.550823977710703
40
0.552576498003004
40
0.556081538587605
40
0.559586579172205
40
0.561339099464506
40
0.563091619756806
40
0.564844140049107
40
0.566596660341407
40
0.570101700926008
40
0.573606741510609
40
0.577111782095209
40
0.58061682267981
40
0.584121863264411
40
0.587626903849012
40
0.591131944433612
40
0.594636985018213
40
0.598142025602814
40
0.601647066187415
40
0.605152106772016
40
0.608657147356616
40
0.612162187941217
40
0.615667228525818
40
0.619172269110419
40
0.62267730969502
40
0.62618235027962
40
0.633192431448822
40
0.640202512618024
40
0.647212593787225
40
0.650717634371826
40
0.654222674956427
40
0.657727715541027
40
0.661232756125628
40
0.664737796710229
40
0.66824283729483
40
0.675252918464031
40
0.682262999633233
40
0.685768040217834
40
0.689273080802435
40
0.692778121387035
40
0.696283161971636
40
0.699788202556237
40
0.703293243140837
40
0.710303324310039
40
0.71380836489464
40
0.717313405479241
40
0.724323486648442
40
0.731333567817644
40
0.734838608402245
40
0.738343648986845
40
0.745353730156047
40
0.748858770740648
40
0.752363811325249
40
0.755868851909849
40
0.75937389249445
40
0.766383973663652
40
0.769889014248252
40
0.773394054832853
40
0.776899095417454
40
0.780404136002055
40
0.787414217171256
40
0.790919257755857
40
0.794424298340458
40
0.797929338925059
40
0.80143437950966
40
0.808444460678861
40
0.811949501263462
40
0.815454541848063
40
0.818959582432664
40
0.822464623017264
40
0.829474704186466
40
0.832979744771067
40
0.836484785355668
40
0.838237305647968
40
0.839989825940268
40
0.843494866524869
40
0.85050494769407
40
0.854009988278671
40
0.857515028863272
40
0.861020069447873
40
0.864525110032474
40
0.871535191201675
40
0.875040231786276
40
0.878545272370877
40
0.882050312955478
40
0.885555353540078
40
0.889060394124679
40
0.89256543470928
40
0.896070475293881
40
0.899575515878482
40
0.906585597047683
40
0.910090637632284
40
0.913595678216885
40
0.920605759386086
40
0.924110799970687
40
0.927615840555288
40
0.934625921724489
40
0.93813096230909
40
0.941636002893691
40
0.945141043478292
40
0.948646084062893
40
0.955656165232094
40
0.959161205816695
40
0.962666246401296
40
0.966171286985897
40
0.969676327570497
40
0.973181368155098
40
0.976686408739699
40
0.9801914493243
40
0.9836964899089
40
0.987201530493501
40
0.990706571078102
40
0.994211611662703
40
0.997716652247303
40
1
40
1
40
1
40
1
41
1
10
-30
20
15.9926656735517
30
0
41
1
10
-30
20
15.99305750334
30
0
41
1
10
-30
20
15.9936130017379
30
0
41
1
10
-30
20
15.992743696334
30
0
41
1
10
-30
20
15.9893850921089
30
0
41
1
10
-30
20
15.9836860314146
30
0
41
1
10
-30
20
15.9756808210229
30
0
41
1
10
-30
20
15.9654018084481
30
0
41
1
10
-30
20
15.9528811264941
30
0
41
1
10
-30
20
15.9381491278438
30
0
41
1
10
-30
20
15.9212355486336
30
0
41
1
10
-30
20
15.9021692443494
30
0
41
1
10
-30
20
15.8809772874923
30
0
41
1
10
-30
20
15.85768719628
30
0
41
1
10
-30
20
15.8237020449635
30
0
41
1
10
-30
20
15.786151572388
30
0
41
1
10
-30
20
15.7440467976174
30
0
41
1
10
-30
20
15.7106366986067
30
0
41
1
10
-30
20
15.6752710038507
30
0
41
1
10
-30
20
15.6253102414823
30
0
41
1
10
-30
20
15.5722298833996
30
0
41
1
10
-30
20
15.5146768571488
30
0
41
1
10
-30
20
15.454635155867
30
0
41
1
10
-30
20
15.3917322415494
30
0
41
1
10
-30
20
15.3243986601424
30
0
41
1
10
-30
20
15.2546726017927
30
0
41
1
10
-30
20
15.1823145630236
30
0
41
1
10
-30
20
15.1055630554725
30
0
41
1
10
-30
20
15.0465122402176
30
0
41
1
10
-30
20
14.985753516587
30
0
41
1
10
-30
20
14.9233034368069
30
0
41
1
10
-30
20
14.8591738020485
30
0
41
1
10
-30
20
14.7933781380804
30
0
41
1
10
-30
20
14.7259318150055
30
0
41
1
10
-30
20
14.6334478809413
30
0
41
1
10
-30
20
14.5388306139923
30
0
41
1
10
-30
20
14.4398724968665
30
0
41
1
10
-30
20
14.3643499358607
30
0
41
1
10
-30
20
14.2872489988171
30
0
41
1
10
-30
20
14.1819460940194
30
0
41
1
10
-30
20
14.0747689624993
30
0
41
1
10
-30
20
13.9632604256822
30
0
41
1
10
-30
20
13.8784200007502
30
0
41
1
10
-30
20
13.7920640526129
30
0
41
1
10
-30
20
13.674463030797
30
0
41
1
10
-30
20
13.5552283874056
30
0
41
1
10
-30
20
13.4316550911985
30
0
41
1
10
-30
20
13.337853067095
30
0
41
1
10
-30
20
13.2425907988595
30
0
41
1
10
-30
20
13.1131460860381
30
0
41
1
10
-30
20
12.9822967545723
30
0
41
1
10
-30
20
12.847084683004
30
0
41
1
10
-30
20
12.7446351532221
30
0
41
1
10
-30
20
12.6407746180399
30
0
41
1
10
-30
20
12.499887311655
30
0
41
1
10
-30
20
12.3578191289812
30
0
41
1
10
-30
20
12.2113468162578
30
0
41
1
10
-30
20
12.100530667573
30
0
41
1
10
-30
20
11.9883478761207
30
0
41
1
10
-30
20
11.836377249174
30
0
41
1
10
-30
20
11.6834503922585
30
0
41
1
10
-30
20
11.5260594948948
30
0
41
1
10
-30
20
11.4071324366749
30
0
41
1
10
-30
20
11.2868794886981
30
0
41
1
10
-30
20
11.1241532157817
30
0
41
1
10
-30
20
10.9607029988619
30
0
41
1
10
-30
20
10.7927086404326
30
0
41
1
10
-30
20
10.6229844866849
30
0
41
1
10
-30
20
10.4091173939315
30
0
41
1
10
-30
20
10.1909959678347
30
0
41
1
10
-30
20
10.0126979588287
30
0
41
1
10
-30
20
9.83272430289384
30
0
41
1
10
-30
20
9.65245023276196
30
0
41
1
10
-30
20
9.46744871362009
30
0
41
1
10
-30
20
9.32804093460692
30
0
41
1
10
-30
20
9.18740563851225
30
0
41
1
10
-30
20
9.0455543785921
30
0
41
1
10
-30
20
8.90249044231982
30
0
41
1
10
-30
20
8.70931958714519
30
0
41
1
10
-30
20
8.46674616603482
30
0
41
1
10
-30
20
8.22021686294167
30
0
41
1
10
-30
20
8.01906836645577
30
0
41
1
10
-30
20
7.86773085832667
30
0
41
1
10
-30
20
7.71524241280142
30
0
41
1
10
-30
20
7.56161298420645
30
0
41
1
10
-30
20
7.40685260452798
30
0
41
1
10
-30
20
7.19804202206524
30
0
41
1
10
-30
20
6.93651252502835
30
0
41
1
10
-30
20
6.61705894701072
30
0
41
1
10
-30
20
6.34834996432815
30
0
41
1
10
-30
20
6.12929373929515
30
0
41
1
10
-30
20
5.96484945115367
30
0
41
1
10
-30
20
5.7993974381898
30
0
41
1
10
-30
20
5.63295542814623
30
0
41
1
10
-30
20
5.46554083189747
30
0
41
1
10
-30
20
5.29717335727497
30
0
41
1
10
-30
20
5.12787591307327
30
0
41
1
10
-30
20
4.9576706384986
30
0
41
1
10
-30
20
4.78658071628459
30
0
41
1
10
-30
20
4.6146335506248
30
0
41
1
10
-30
20
4.44186113006069
30
0
41
1
10
-30
20
4.26829321973949
30
0
41
1
10
-30
20
4.09396155182321
30
0
41
1
10
-30
20
3.91890592173868
30
0
41
1
10
-30
20
3.74316620306936
30
0
41
1
10
-30
20
3.56678705857649
30
0
41
1
10
-30
20
3.42015123791836
30
0
41
1
10
-30
20
3.3009810984795
30
0
41
1
10
-30
20
3.21216327477833
30
0
41
1
10
-30
20
3.12322377081893
30
0
41
1
10
-30
20
3.00356413190352
30
0
41
1
10
-30
20
2.85589664233001
30
0
41
1
10
-30
20
2.70788037697056
30
0
41
1
10
-30
20
2.58749550859633
30
0
41
1
10
-30
20
2.49793822974365
30
0
41
1
10
-30
20
2.40833000131903
30
0
41
1
10
-30
20
2.31867596083526
30
0
41
1
10
-30
20
2.22899146909501
30
0
41
1
10
-30
20
2.10827328924756
30
0
41
1
10
-30
20
1.99097459417121
30
0
41
1
10
-30
20
1.87012467714987
30
0
41
1
10
-30
20
1.78043031683035
30
0
41
1
10
-30
20
1.69076251244053
30
0
41
1
10
-30
20
1.60113247848605
30
0
41
1
10
-30
20
1.51155313609783
30
0
41
1
10
-30
20
1.422025757727
30
0
41
1
10
-30
20
1.33256776537959
30
0
41
1
10
-30
20
1.24317741509074
30
0
41
1
10
-30
20
1.15386860885192
30
0
41
1
10
-30
20
1.06464013673647
30
0
41
1
10
-30
20
0.975500136218244
30
0
41
1
10
-30
20
0.886447988926847
30
0
41
1
10
-30
20
0.797485776681128
30
0
41
1
10
-30
20
0.708610852102623
30
0
41
1
10
-30
20
0.61982073744278
30
0
41
1
10
-30
20
0.531109764951253
30
0
41
1
10
-30
20
0.442471434007643
30
0
41
1
10
-30
20
0.35389600796347
30
0
41
1
10
-30
20
0.265373879214224
30
0
41
1
10
-30
20
0.176892371692162
30
0
41
1
10
-30
20
0.0884392148653887
30
0
41
1
10
-30
20
2.04973958E-08
30
0
41
1
10
-30
20
-0.0884392031952927
30
0
41
1
10
-30
20
-0.17689241471993
30
0
41
1
10
-30
20
-0.265373915570137
30
0
41
1
10
-30
20
-0.353895962579486
30
0
41
1
10
-30
20
-0.442471374506823
30
0
41
1
10
-30
20
-0.531109813902646
30
0
41
1
10
-30
20
-0.61982082298212
30
0
41
1
10
-30
20
-0.70861080655007
30
0
41
1
10
-30
20
-0.797485667180155
30
0
41
1
10
-30
20
-0.886448026006832
30
0
41
1
10
-30
20
-0.97550027278379
30
0
41
1
10
-30
20
-1.06464012636249
30
0
41
1
10
-30
20
-1.1538684580087
30
0
41
1
10
-30
20
-1.24317738635406
30
0
41
1
10
-30
20
-1.33256791795026
30
0
41
1
10
-30
20
-1.42202585063245
30
0
41
1
10
-30
20
-1.5115530207047
30
0
41
1
10
-30
20
-1.60113232466117
30
0
41
1
10
-30
20
-1.69076256252157
30
0
41
1
10
-30
20
-1.78043050963589
30
0
41
1
10
-30
20
-1.87012473193457
30
0
41
1
10
-30
20
-1.95984062320625
30
0
41
1
10
-30
20
-2.04956121840735
30
0
41
1
10
-30
20
-2.13928298465069
30
0
41
1
10
-30
20
-2.22899154181985
30
0
41
1
10
-30
20
-2.34971237639812
30
0
41
1
10
-30
20
-2.4670581044816
30
0
41
1
10
-30
20
-2.58749567267543
30
0
41
1
10
-30
20
-2.70788056755165
30
0
41
1
10
-30
20
-2.85589666602098
30
0
41
1
10
-30
20
-3.00356394920902
30
0
41
1
10
-30
20
-3.12322374659235
30
0
41
1
10
-30
20
-3.21216341650842
30
0
41
1
10
-30
20
-3.3009812939207
30
0
41
1
10
-30
20
-3.4201512431562
30
0
41
1
10
-30
20
-3.56678672363677
30
0
41
1
10
-30
20
-3.74316585626101
30
0
41
1
10
-30
20
-3.91890584757377
30
0
41
1
10
-30
20
-4.09396100129445
30
0
41
1
10
-30
20
-4.26829259541552
30
0
41
1
10
-30
20
-4.44186183082067
30
0
41
1
10
-30
20
-4.61463414914383
30
0
41
1
10
-30
20
-4.78658021025493
30
0
41
1
10
-30
20
-4.95767123056282
30
0
41
1
10
-30
20
-5.1278778625566
30
0
41
1
10
-30
20
-5.29717415068043
30
0
41
1
10
-30
20
-5.46553992297876
30
0
41
1
10
-30
20
-5.63295448869491
30
0
41
1
10
-30
20
-5.79939725011727
30
0
41
1
10
-30
20
-5.96484950556561
30
0
41
1
10
-30
20
-6.1292936535483
30
0
41
1
10
-30
20
-6.34834993475852
30
0
41
1
10
-30
20
-6.6170590196507
30
0
41
1
10
-30
20
-6.93651248001379
30
0
41
1
10
-30
20
-7.19804203228608
30
0
41
1
10
-30
20
-7.40685270744595
30
0
41
1
10
-30
20
-7.56161297986856
30
0
41
1
10
-30
20
-7.71524232371232
30
0
41
1
10
-30
20
-7.86773082006812
30
0
41
1
10
-30
20
-8.01906843480592
30
0
41
1
10
-30
20
-8.22021692135615
30
0
41
1
10
-30
20
-8.46674612315107
30
0
41
1
10
-30
20
-8.7093195790371
30
0
41
1
10
-30
20
-8.90249052457438
30
0
41
1
10
-30
20
-9.04555441784282
30
0
41
1
10
-30
20
-9.18740560593943
30
0
41
1
10
-30
20
-9.32804088163152
30
0
41
1
10
-30
20
-9.46744870809565
30
0
41
1
10
-30
20
-9.65245029192155
30
0
41
1
10
-30
20
-9.83272433616031
30
0
41
1
10
-30
20
-10.0126979221092
30
0
41
1
10
-30
20
-10.1909959517429
30
0
41
1
10
-30
20
-10.4091174330404
30
0
41
1
10
-30
20
-10.6229845090751
30
0
41
1
10
-30
20
-10.7927086151923
30
0
41
1
10
-30
20
-10.9607029915804
30
0
41
1
10
-30
20
-11.1241532476502
30
0
41
1
10
-30
20
-11.286879520772
30
0
41
1
10
-30
20
-11.4071324437642
30
0
41
1
10
-30
20
-11.526059483736
30
0
41
1
10
-30
20
-11.6834503898541
30
0
41
1
10
-30
20
-11.8363772717575
30
0
41
1
10
-30
20
-11.9883479026383
30
0
41
1
10
-30
20
-12.100530681097
30
0
41
1
10
-30
20
-12.2113468177929
30
0
41
1
10
-30
20
-12.3578191303265
30
0
41
1
10
-30
20
-12.4998873251013
30
0
41
1
10
-30
20
-12.640774639564
30
0
41
1
10
-30
20
-12.7446351726738
30
0
41
1
10
-30
20
-12.8470846962099
30
0
41
1
10
-30
20
-12.9822967603461
30
0
41
1
10
-30
20
-13.1131460918651
30
0
41
1
10
-30
20
-13.2425908150843
30
0
41
1
10
-30
20
-13.3378530905647
30
0
41
1
10
-30
20
-13.431655102243
30
0
41
1
10
-30
20
-13.5552284439381
30
0
41
1
10
-30
20
-13.6744629632361
30
0
41
1
10
-30
20
-13.7920640428987
30
0
41
1
10
-30
20
-13.8638084100541
30
0
41
1
10
-30
20
-13.9208384799595
30
0
41
1
10
-30
20
-13.9773600368974
30
0
41
1
10
-30
20
-14.0747689786766
30
0
41
1
10
-30
20
-14.1819460903518
30
0
41
1
10
-30
20
-14.2872490063531
30
0
41
1
10
-30
20
-14.3643499644422
30
0
41
1
10
-30
20
-14.4398725346097
30
0
41
1
10
-30
20
-14.5388306330265
30
0
41
1
10
-30
20
-14.6334478734244
30
0
41
1
10
-30
20
-14.7259318226356
30
0
41
1
10
-30
20
-14.793378171537
30
0
41
1
10
-30
20
-14.8591738437125
30
0
41
1
10
-30
20
-14.9233034607296
30
0
41
1
10
-30
20
-14.9857535133679
30
0
41
1
10
-30
20
-15.0465122321639
30
0
41
1
10
-30
20
-15.1055630695376
30
0
41
1
10
-30
20
-15.1823146060513
30
0
41
1
10
-30
20
-15.2546726312332
30
0
41
1
10
-30
20
-15.3243986497297
30
0
41
1
10
-30
20
-15.3917322452796
30
0
41
1
10
-30
20
-15.4546352005829
30
0
41
1
10
-30
20
-15.5146768877911
30
0
41
1
10
-30
20
-15.5722298782127
30
0
41
1
10
-30
20
-15.6253102421943
30
0
41
1
10
-30
20
-15.6752710489662
30
0
41
1
10
-30
20
-15.7106367362118
30
0
41
1
10
-30
20
-15.7440468008705
30
0
41
1
10
-30
20
-15.7861515665346
30
0
41
1
10
-30
20
-15.8237020814765
30
0
41
1
10
-30
20
-15.8576872273509
30
0
41
1
10
-30
20
-15.8809772969169
30
0
41
1
10
-30
20
-15.9021692417172
30
0
41
1
10
-30
20
-15.921235563756
30
0
41
1
10
-30
20
-15.9381491696965
30
0
41
1
10
-30
20
-15.9528811556007
30
0
41
1
10
-30
20
-15.9654018081648
30
0
41
1
10
-30
20
-15.9756808201301
30
0
41
1
10
-30
20
-15.9836860510364
30
0
41
1
10
-30
20
-15.989385071505
30
0
41
1
10
-30
20
-15.992743547039
30
0
41
1
10
-30
20
-15.993612628954
30
0
41
1
10
-30
20
-15.9930576915815
30
0
41
1
10
-30
20
-15.9926664659665
30
0
0
SPLINE
5
18C
100
AcDbEntity
8
1
62
256
6
ByLayer
370
18
48
1
60
0
100
AcDbSpline
70
4
71
2
72
7
73
4
40
0
40
0
40
0
40
0.377935022333237
40
1
40
1
40
1
41
1
10
26.4890871169142
20
-9.86732506508579
30
0
41
1
10
26.4307438645486
20
-9.81143258359458
30
0
41
1
10
26.279228824814
20
-9.65645048455934
30
0
41
1
10
26.1894266731568
20
-9.55434642106448
30
0
0
SPLINE
5
18D
100
AcDbEntity
8
1
62
256
6
ByLayer
370
18
48
1
60
0
100
AcDbSpline
70
4
71
2
72
9
73
6
40
0
40
0
40
0
40
0.141286000041141
40
0.484771600024685
40
0.656514400016457
40
1
40
1
40
1
41
1
10
25.1012311151766
20
-7.66338712161576
30
0
41
1
10
25.0117414662389
20
-7.39152715075917
30
0
41
1
10
24.7591306813661
20
-6.33236176998014
30
0
41
1
10
24.721196236716
20
-5.77440076977575
30
0
41
1
10
24.6996423933284
20
-5.13039579816876
30
0
41
1
10
24.7377513822715
20
-4.68953273389192
30
0
0
SPLINE
5
18E
100
AcDbEntity
8
1
62
256
6
ByLayer
370
18
48
1
60
0
100
AcDbSpline
70
4
71
2
72
8
73
5
40
0
40
0
40
0
40
0.516528816776594
40
0.774793225164891
40
1
40
1
40
1
41
1.02613459695995
10
31.7408683193416
20
-7.29820629721959
30
0
41
1.02613459695995
10
30.7663838873903
20
-7.22182663322912
30
0
41
1.02613459695995
10
29.4724864555605
20
-6.40633089968522
30
0
41
1.02613459695995
10
28.7555603512163
20
-5.67299965614008
30
0
41
1.02613459695995
10
28.4774740239247
20
-5.25990749929971
30
0
0
SPLINE
5
18F
100
AcDbEntity
8
1
62
256
6
ByLayer
370
18
48
1
60
0
100
AcDbSpline
70
4
71
2
72
8
73
5
40
0
40
0
40
0
40
0.520745144677729
40
0.781117717016594
40
1
40
1
40
1
41
1.02613459695995
10
33.2926233936883
20
10.6332982684358
30
0
41
1.02613459695995
10
32.3179021261694
20
10.706941148683
30
0
41
1.02613459695995
10
30.9009178520188
20
10.1000911064426
30
0
41
1.02613459695995
10
30.0813555784876
20
9.49637426733649
30
0
41
1.02613459695995
10
29.7468602723282
20
9.14713933564366
30
0
0
SPLINE
5
190
100
AcDbEntity
8
1
62
256
6
ByLayer
370
18
48
1
60
0
100
AcDbSpline
70
4
71
2
72
9
73
6
40
0
40
0
40
0
40
0.158785966355529
40
0.495271579813317
40
0.663514386542211
40
1
40
1
40
1
41
1.02613459695995
10
24.9500885332783
20
-7.72415845238342
30
0
41
1.02613459695995
10
24.8447420348199
20
-7.41849107719866
30
0
41
1.02613459695995
10
24.5812908470748
20
-6.31387324496575
30
0
41
1.02613459695995
10
24.5433564024246
20
-5.75591224476135
30
0
41
1.02613459695995
10
24.521802559037
20
-5.11190727315438
30
0
41
1.02613459695995
10
24.55991154798
20
-4.67104420887751
30
0
0
SPLINE
5
191
100
AcDbEntity
8
1
62
256
6
ByLayer
370
18
48
1
60
0
100
AcDbSpline
70
4
71
3
72
10
73
6
40
0
40
0
40
0
40
0
40
0.757475835388949
40
0.757475835388949
40
1
40
1
40
1
40
1
41
1
10
23.5232066587461
20
-4.12710499230218
30
0
41
1
10
23.4438781072414
20
-5.15978145346486
30
0
41
1
10
23.7058290208339
20
-6.1813600214978
30
0
41
1
10
24.2411321549954
20
-7.42427520521775
30
0
41
1
10
24.3966549653716
20
-7.71632366544679
30
0
41
1
10
24.5758098274799
20
-7.99469441307062
30
0
0
SPLINE
5
192
100
AcDbEntity
8
1
62
256
6
ByLayer
370
18
48
1
60
0
100
AcDbSpline
70
4
71
3
72
8
73
4
40
0
40
0
40
0
40
0
40
1
40
1
40
1
40
1
41
1
10
20.9477893668287
20
-25.1006855729565
30
0
41
1
10
20.9516686421999
20
-25.1152160210805
30
0
41
1
10
20.9561733018865
20
-25.129420888945
30
0
41
1
10
20.9613047991552
20
-25.1432994199674
30
0
0
SPLINE
5
193
100
AcDbEntity
8
1
62
256
6
ByLayer
370
18
48
1
60
0
100
AcDbSpline
70
4
71
3
72
8
73
4
40
0
40
0
40
0
40
0
40
1
40
1
40
1
40
1
41
1
10
20.9613044322029
20
25.143307103922
30
0
41
1
10
20.9561785694461
20
25.1294415213744
30
0
41
1
10
20.9516781357179
20
25.1152496453382
30
0
41
1
10
20.9478018335822
20
25.1007321527007
30
0
0
SPLINE
5
194
100
AcDbEntity
8
1
62
256
6
ByLayer
370
18
48
1
60
0
100
AcDbSpline
70
4
71
2
72
9
73
6
40
0
40
0
40
0
40
0.149360780341588
40
0.489616468204953
40
0.659744312136635
40
1
40
1
40
1
41
1
10
25.0244079295216
20
-7.69050758420937
30
0
41
1
10
24.9277680720786
20
-7.40302303956466
30
0
41
1
10
24.6702107642204
20
-6.32311750747294
30
0
41
1
10
24.6322763195703
20
-5.76515650726856
30
0
41
1
10
24.6107224761827
20
-5.12115153566157
30
0
41
1
10
24.6488314651258
20
-4.68028847138473
30
0
0
SPLINE
5
195
100
AcDbEntity
8
1
62
256
6
ByLayer
370
18
48
1
60
0
100
AcDbSpline
70
4
71
2
72
8
73
5
40
0
40
0
40
0
40
0.67631419351367
40
0.67631419351367
40
1
40
1
40
1
41
1
10
24.7377513822715
20
-4.68953273389192
30
0
41
1
10
25.1900421136158
20
-4.73655363072058
30
0
41
1
10
25.6347881576554
20
-4.50049502159479
30
0
41
1
10
25.8659050348181
20
-4.37782472626625
30
0
41
1
10
26.0775184345448
20
-4.18846413378378
30
0
0
SPLINE
5
196
100
AcDbEntity
8
1
62
256
6
ByLayer
370
18
48
1
60
0
100
AcDbSpline
70
4
71
2
72
7
73
4
40
0
40
0
40
0
40
0.325165465352956
40
1
40
1
40
1
41
1
10
27.191575484817
20
8.46633197849727
30
0
41
1
10
27.0231606978709
20
8.69154985281008
30
0
41
1
10
26.4163325616965
20
9.20815842232932
30
0
41
1
10
25.9446719956521
20
9.25719303939565
30
0
0
SPLINE
5
197
100
AcDbEntity
8
1
62
256
6
ByLayer
370
18
48
1
60
0
100
AcDbSpline
70
4
71
2
72
6
73
3
40
0
40
0
40
0
40
1
40
1
40
1
41
1
10
24.6488314651258
20
-4.68028847138473
30
0
41
1
10
24.6043715065529
20
-4.6756663401311
30
0
41
1
10
24.5599115479801
20
-4.6710442088775
30
0
0
SPLINE
5
198
100
AcDbEntity
8
1
62
256
6
ByLayer
370
18
48
1
60
0
100
AcDbSpline
70
4
71
3
72
8
73
4
40
0
40
0
40
0
40
0
40
1
40
1
40
1
40
1
41
1
10
28.72172598209
20
14.2034049281911
30
0
41
1
10
30.190139639528
20
14.6885389117606
30
0
41
1
10
31.8868057990662
20
14.3427265174806
30
0
41
1
10
32.970094217552
20
13.2251308727059
30
0
0
SPLINE
5
199
100
AcDbEntity
8
1
62
256
6
ByLayer
370
18
48
1
60
0
100
AcDbSpline
70
4
71
3
72
10
73
6
40
0
40
0
40
0
40
0
40
0.578104426482819
40
0.578104426482819
40
1
40
1
40
1
40
1
41
1
10
8.10566243270256
20
-14.3682408325648
30
0
41
1
10
8.15431207153046
20
-14.2109872636803
30
0
41
1
10
8.22377139565091
20
-14.0616626119233
30
0
41
1
10
8.37734423169181
20
-13.839273457025
30
0
41
1
10
8.45435152708336
20
-13.7545923235662
30
0
41
1
10
8.53867513459483
20
-13.6906253919194
30
0
0
SPLINE
5
19A
100
AcDbEntity
8
1
62
256
6
ByLayer
370
18
48
1
60
0
100
AcDbSpline
70
4
71
3
72
12
73
8
40
0
40
0
40
0
40
0
40
0.323508446938513
40
0.323508446938513
40
0.661742905177784
40
0.661742905177784
40
1
40
1
40
1
40
1
41
1
10
28.5046358425361
20
14.1287341728413
30
0
41
1
10
28.527948328828
20
14.1370726582811
30
0
41
1
10
28.5512933746001
20
14.1453186799759
30
0
41
1
10
28.5991103954081
20
14.1619964753665
30
0
41
1
10
28.6235856979145
20
14.170419759559
30
0
41
1
10
28.6726048598617
20
14.1870640779177
30
0
41
1
10
28.6971491336613
20
14.1952852377108
30
0
41
1
10
28.7217259790427
20
14.2034049271843
30
0
0
SPLINE
5
19B
100
AcDbEntity
8
1
62
256
6
ByLayer
370
18
48
1
60
0
100
AcDbSpline
70
4
71
3
72
8
73
4
40
0
40
0
40
0
40
0
40
1
40
1
40
1
40
1
41
1
10
27.3817480550922
20
13.5944873111876
30
0
41
1
10
27.6687409651418
20
13.7725828149683
30
0
41
1
10
27.9724029035384
20
13.9264263262789
30
0
41
1
10
28.2870068088718
20
14.0478360927448
30
0
0
SPLINE
5
19C
100
AcDbEntity
8
1
62
256
6
ByLayer
370
18
48
1
60
0
100
AcDbSpline
70
4
71
3
72
8
73
4
40
0
40
0
40
0
40
0
40
1
40
1
40
1
40
1
41
1
10
21.4150979665882
20
-24.7245863837165
30
0
41
1
10
21.2702770095114
20
-24.7245863837165
30
0
41
1
10
21.1252367380461
20
-24.7232355889817
30
0
41
1
10
20.9812951365585
20
-24.7205272986346
30
0
0
SPLINE
5
19D
100
AcDbEntity
8
1
62
256
6
ByLayer
370
18
48
1
60
0
100
AcDbSpline
70
4
71
3
72
10
73
6
40
0
40
0
40
0
40
0
40
0.420519290906201
40
0.420519290906201
40
1
40
1
40
1
40
1
41
1
10
11.4613248654052
20
-13.6906253919194
30
0
41
1
10
11.5453800896752
20
-13.7543887310852
30
0
41
1
10
11.6221668639081
20
-13.8387345203577
30
0
41
1
10
11.7759013620284
20
-14.060958439368
30
0
41
1
10
11.8455749346608
20
-14.2106220260311
30
0
41
1
10
11.8943375672975
20
-14.3682408325643
30
0
0
SPLINE
5
19E
100
AcDbEntity
8
1
62
256
6
ByLayer
370
18
48
1
60
0
100
AcDbSpline
70
4
71
3
72
8
73
4
40
0
40
0
40
0
40
0
40
1
40
1
40
1
40
1
41
1
10
20.9812951365586
20
-24.7205272986344
30
0
41
1
10
20.9611140269563
20
-24.6432235340532
30
0
41
1
10
20.9409462400292
20
-24.5659205225918
30
0
41
1
10
20.92079238
20
-24.4886190390076
30
0
0
SPLINE
5
19F
100
AcDbEntity
8
1
62
256
6
ByLayer
370
18
48
1
60
0
100
AcDbSpline
70
4
71
3
72
12
73
8
40
0
40
0
40
0
40
0
40
0.264053695796277
40
0.264053695796277
40
0.528107380634049
40
0.528107380634049
40
1
40
1
40
1
40
1
41
1
10
26.2523664558104
20
-9.71038247707224
30
0
41
1
10
26.27295747858
20
-9.72456074373636
30
0
41
1
10
26.2936146691564
20
-9.73864338602166
30
0
41
1
10
26.3350578877375
20
-9.76661682660907
30
0
41
1
10
26.3558444625773
20
-9.78050777861279
30
0
41
1
10
26.4139556924465
20
-9.81895288031467
30
0
41
1
10
26.4514222021715
20
-9.84329589229984
30
0
41
1
10
26.4890871139157
20
-9.86732506317287
30
0
0
SPLINE
5
1A0
100
AcDbEntity
8
1
62
256
6
ByLayer
370
18
48
1
60
0
100
AcDbSpline
70
4
71
3
72
8
73
4
40
0
40
0
40
0
40
0
40
1
40
1
40
1
40
1
41
1
10
26.4890871169142
20
-9.86732506508579
30
0
41
1
10
26.7703415686842
20
-10.0467576181133
30
0
41
1
10
27.0702258043726
20
-10.2005467441763
30
0
41
1
10
27.3817480550922
20
-10.3199368402184
30
0
0
SPLINE
5
1A1
100
AcDbEntity
8
1
62
256
6
ByLayer
370
18
48
1
60
0
100
AcDbSpline
70
4
71
3
72
16
73
12
40
0
40
0
40
0
40
0
40
0.461208588217094
40
0.461208588217094
40
0.643534962278546
40
0.643534962278546
40
0.828408472975285
40
0.828408472975285
40
0.943003644159988
40
0.943003644159988
40
1
40
1
40
1
40
1
41
1
10
8.10566243270259
20
-23.6665017920809
30
0
41
1
10
8.13394960848487
20
-23.7022583261632
30
0
41
1
10
8.17266608070923
20
-23.7370095736338
30
0
41
1
10
8.25268397516848
20
-23.7800170858174
30
0
41
1
10
8.27872153625231
20
-23.7917125768793
30
0
41
1
10
8.33934560108361
20
-23.8127037684951
30
0
41
1
10
8.37482777731262
20
-23.8222104320954
30
0
41
1
10
8.44007741480422
20
-23.8331586856493
30
0
41
1
10
8.46752172250564
20
-23.836332378473
30
0
41
1
10
8.50983152523006
20
-23.8387183279986
30
0
41
1
10
8.5242826069246
20
-23.8391299750505
30
0
41
1
10
8.53867513459474
20
-23.8391299750505
30
0
0
SPLINE
5
1A2
100
AcDbEntity
8
1
62
256
6
ByLayer
370
18
48
1
60
0
100
AcDbSpline
70
4
71
3
72
8
73
4
40
0
40
0
40
0
40
0
40
1
40
1
40
1
40
1
41
1
10
31.7408683193416
20
-7.29820629721959
30
0
41
1
10
31.6615926232414
20
-8.21428675995861
30
0
41
1
10
31.387524538537
20
-9.1067088775911
30
0
41
1
10
30.9795069058806
20
-9.77735583269825
30
0
0
SPLINE
5
1A3
100
AcDbEntity
8
1
62
256
6
ByLayer
370
18
48
1
60
0
100
AcDbSpline
70
4
71
3
72
8
73
4
40
0
40
0
40
0
40
0
40
1
40
1
40
1
40
1
41
1
10
20.9613044322029
20
25.143307103922
30
0
41
1
10
20.9627971927216
20
25.1120487643699
30
0
41
1
10
20.9695177627871
20
24.9721067925012
30
0
41
1
10
20.9812951365587
20
24.7205272986346
30
0
0
SPLINE
5
1A4
100
AcDbEntity
8
1
62
256
6
ByLayer
370
18
48
1
60
0
100
AcDbSpline
70
4
71
3
72
14
73
10
40
0
40
0
40
0
40
0
40
0.257146777765879
40
0.257146777765879
40
0.515043459777444
40
0.515043459777444
40
0.762218147059628
40
0.762218147059628
40
1
40
1
40
1
40
1
41
1
10
17.4303191742212
20
-23.4553549429959
30
0
41
1
10
17.4691434490962
20
-23.6190346355062
30
0
41
1
10
17.5852680371713
20
-23.7696203769467
30
0
41
1
10
17.9643662295079
20
-24.0254564367266
30
0
41
1
10
18.233500730627
20
-24.1343161849437
30
0
41
1
10
18.8755030997166
20
-24.301589819967
30
0
41
1
10
19.2526493539829
20
-24.3645598084091
30
0
41
1
10
20.053239606227
20
-24.4510990768829
30
0
41
1
10
20.4852178413433
20
-24.4774760852936
30
0
41
1
10
20.92079238
20
-24.4886190390076
30
0
0
SPLINE
5
1A5
100
AcDbEntity
8
1
62
256
6
ByLayer
370
18
48
1
60
0
100
AcDbSpline
70
4
71
2
72
11
73
8
40
0
40
0
40
0
40
0.0610623745708314
40
0.342743662199582
40
0.530531187285416
40
0.718318712371249
40
0.812212474914166
40
1
40
1
40
1
41
1
10
28.7217259820861
20
14.2034049281886
30
0
41
1
10
28.5740806263438
20
14.1100444964627
30
0
41
1
10
27.7614122402964
20
13.51140592425
30
0
41
1
10
26.8595182898205
20
12.3013588566825
30
0
41
1
10
26.2482211259035
20
10.8750136375961
30
0
41
1
10
26.1148580377072
20
10.3302367214041
30
0
41
1
10
25.9828651894055
20
9.69804962276601
30
0
41
1
10
25.9446719956523
20
9.25719303939562
30
0
0
SPLINE
5
1A6
100
AcDbEntity
8
1
62
256
6
ByLayer
370
18
48
1
60
0
100
AcDbSpline
70
4
71
2
72
11
73
8
40
0
40
0
40
0
40
0.0079111859471997
40
0.30553783016304
40
0.5039555929736
40
0.70237335578416
40
0.80158223718944
40
1
40
1
40
1
41
1.02613459695995
10
28.2870068078859
20
14.0478360920314
30
0
41
1.02613459695995
10
28.2692107737173
20
14.0349584834369
30
0
41
1.02613459695995
10
27.5835724060049
20
13.5298944492644
30
0
41
1.02613459695995
10
26.6816784555291
20
12.319847381697
30
0
41
1.02613459695995
10
26.0703812916121
20
10.8935021626105
30
0
41
1.02613459695995
10
25.9370182034157
20
10.3487252464185
30
0
41
1.02613459695995
10
25.805025355114
20
9.71653814778037
30
0
41
1.02613459695995
10
25.7668321613608
20
9.27568156441004
30
0
0
SPLINE
5
1A7
100
AcDbEntity
8
1
62
256
6
ByLayer
370
18
48
1
60
0
100
AcDbSpline
70
4
71
1
72
4
73
2
40
0
40
0
40
1
40
1
41
1
10
25.9446719956523
20
9.25719303939562
30
0
41
1
10
25.8557520785064
20
9.26643730190284
30
0
0
SPLINE
5
1A8
100
AcDbEntity
8
1
62
256
6
ByLayer
370
18
48
1
60
0
100
AcDbSpline
70
4
71
3
72
8
73
4
40
0
40
0
40
0
40
0
40
1
40
1
40
1
40
1
41
1
10
17.4303191742212
20
-18.0806108923592
30
0
41
1
10
17.435187454861
20
-17.1137358149254
30
0
41
1
10
17.4398108525073
20
-16.1459131229446
30
0
41
1
10
17.4431600772155
20
-15.1778402065465
30
0
0
SPLINE
5
1A9
100
AcDbEntity
8
1
62
256
6
ByLayer
370
18
48
1
60
0
100
AcDbSpline
70
4
71
3
72
8
73
4
40
0
40
0
40
0
40
0
40
1
40
1
40
1
40
1
41
1
10
20.9812951365587
20
24.7205272986346
30
0
41
1
10
21.1252367380463
20
24.7232355889817
30
0
41
1
10
21.2702770095114
20
24.7245863837164
30
0
41
1
10
21.4150979665882
20
24.7245863837164
30
0
0
SPLINE
5
1AA
100
AcDbEntity
8
1
62
256
6
ByLayer
370
18
48
1
60
0
100
AcDbSpline
70
4
71
3
72
16
73
12
40
0
40
0
40
0
40
0
40
0.111430279628047
40
0.111430279628047
40
0.248747543515475
40
0.248747543515475
40
0.465535329195272
40
0.465535329195272
40
0.883855351867603
40
0.883855351867603
40
1
40
1
40
1
40
1
41
1
10
11.4613248654052
20
7.52966679426504
30
0
41
1
10
11.4891847159942
20
7.52966679426504
30
0
41
1
10
11.5173911427755
20
7.53471706780854
30
0
41
1
10
11.5758492032393
20
7.55489210221029
30
0
41
1
10
11.6060413892306
20
7.57218953888446
30
0
41
1
10
11.6751537543576
20
7.62460019394089
30
0
41
1
10
11.7107854085705
20
7.66489294253907
30
0
41
1
10
11.798993890746
20
7.78941367630352
30
0
41
1
10
11.8397320068509
20
7.8824751100415
30
0
41
1
10
11.8792917015268
20
8.00269269538009
30
0
41
1
10
11.8871615985731
20
8.02920008991578
30
0
41
1
10
11.8943375672975
20
8.05584836782771
30
0
0
SPLINE
5
1AB
100
AcDbEntity
8
1
62
256
6
ByLayer
370
18
48
1
60
0
100
AcDbSpline
70
4
71
3
72
8
73
4
40
0
40
0
40
0
40
0
40
1
40
1
40
1
40
1
41
1
10
22.4005904068407
20
24.7245863837164
30
0
41
1
10
21.7445941698084
20
24.9629546145411
30
0
41
1
10
21.2501182443343
20
25.1107766305641
30
0
41
1
10
20.9613044322029
20
25.143307103922
30
0
0
SPLINE
5
1AC
100
AcDbEntity
8
1
62
256
6
ByLayer
370
18
48
1
60
0
100
AcDbSpline
70
4
71
2
72
11
73
8
40
0
40
0
40
0
40
0.0353878362406056
40
0.324771485368424
40
0.517693918120303
40
0.710616350872182
40
0.807077567248121
40
1
40
1
40
1
41
1
10
28.5046358429055
20
14.1287341732224
30
0
41
1
10
28.4220513396711
20
14.0728002976054
30
0
41
1
10
27.6724923231507
20
13.5206501867572
30
0
41
1
10
26.7705983726748
20
12.3106031191898
30
0
41
1
10
26.1593012087578
20
10.8842579001033
30
0
41
1
10
26.0259381205614
20
10.3394809839113
30
0
41
1
10
25.8939452722597
20
9.7072938852732
30
0
41
1
10
25.8557520785066
20
9.26643730190284
30
0
0
SPLINE
5
1AD
100
AcDbEntity
8
1
62
256
6
ByLayer
370
18
48
1
60
0
100
AcDbSpline
70
4
71
3
72
13
73
9
40
0
40
0
40
0
40
0
40
0.350319199330144
40
0.350319199330144
40
0.706762114766145
40
0.706762114766145
40
0.706762114766145
40
1
40
1
40
1
40
1
41
1
10
30.9795069058806
20
-9.77735583269825
30
0
41
1
10
30.622867657174
20
-10.0353005576908
30
0
41
1
10
30.2184056287384
20
-10.2359970949359
30
0
41
1
10
29.3707322420097
20
-10.4909264245024
30
0
41
1
10
28.9152350337861
20
-10.5452491458201
30
0
41
1
10
28.4699128741663
20
-10.52278598244
30
0
41
1
10
28.1015349605224
20
-10.5042040792469
30
0
41
1
10
27.7327917700645
20
-10.4343545190764
30
0
41
1
10
27.3817480550922
20
-10.3199368402184
30
0
0
SPLINE
5
1AE
100
AcDbEntity
8
1
62
256
6
ByLayer
370
18
48
1
60
0
100
AcDbSpline
70
4
71
3
72
8
73
4
40
0
40
0
40
0
40
0
40
1
40
1
40
1
40
1
41
1
10
32.9700941782089
20
13.2251309749893
30
0
41
1
10
33.2557979049644
20
12.4823635792192
30
0
41
1
10
33.3718990934279
20
11.5493787732311
30
0
41
1
10
33.2926233936883
20
10.6332982684358
30
0
0
SPLINE
5
1AF
100
AcDbEntity
8
1
62
256
6
ByLayer
370
18
48
1
60
0
100
AcDbSpline
70
4
71
2
72
8
73
5
40
0
40
0
40
0
40
0.18475537381275
40
0.18475537381275
40
1
40
1
40
1
41
1
10
23.5231133546876
20
-4.12753624723806
30
0
41
1
10
23.6137754954304
20
-4.22092363549862
30
0
41
1
10
23.7112975993094
20
-4.30052574336955
30
0
41
1
10
24.1076208166357
20
-4.62402331204885
30
0
41
1
10
24.5599115479801
20
-4.6710442088775
30
0
0
SPLINE
5
1B0
100
AcDbEntity
8
1
62
256
6
ByLayer
370
18
48
1
60
0
100
AcDbSpline
70
4
71
3
72
16
73
12
40
0
40
0
40
0
40
0
40
0.111430279628052
40
0.111430279628052
40
0.248747543515474
40
0.248747543515474
40
0.465535329195271
40
0.465535329195271
40
0.883855351867598
40
0.883855351867598
40
1
40
1
40
1
40
1
41
1
10
11.4613248654052
20
-23.8391299750503
30
0
41
1
10
11.4891847159942
20
-23.8391299750503
30
0
41
1
10
11.5173911427755
20
-23.8375361275706
30
0
41
1
10
11.5758492032393
20
-23.831150658589
30
0
41
1
10
11.6060413892306
20
-23.825666877018
30
0
41
1
10
11.6751537543576
20
-23.8089605749788
30
0
41
1
10
11.7107854085705
20
-23.796037970776
30
0
41
1
10
11.798993890746
20
-23.7556824246832
30
0
41
1
10
11.8397320068509
20
-23.7250165399981
30
0
41
1
10
11.8792917015268
20
-23.6845451449633
30
0
41
1
10
11.8871615985731
20
-23.6755726082078
30
0
41
1
10
11.8943375672975
20
-23.6665017920809
30
0
0
SPLINE
5
1B1
100
AcDbEntity
8
1
62
256
6
ByLayer
370
18
48
1
60
0
100
AcDbSpline
70
4
71
3
72
8
73
4
40
0
40
0
40
0
40
0
40
1
40
1
40
1
40
1
41
1
10
20.92079238
20
24.4886190390076
30
0
41
1
10
20.9409462400292
20
24.5659205225918
30
0
41
1
10
20.9611140269563
20
24.6432235340533
30
0
41
1
10
20.9812951365587
20
24.7205272986346
30
0
0
SPLINE
5
1B2
100
AcDbEntity
8
1
62
256
6
ByLayer
370
18
48
1
60
0
100
AcDbSpline
70
4
71
3
72
10
73
6
40
0
40
0
40
0
40
0
40
0.5
40
0.5
40
1
40
1
40
1
40
1
41
1
10
27.3817480550922
20
13.5944873111876
30
0
41
1
10
26.5905680408091
20
13.0570613662747
30
0
41
1
10
25.9363449404997
20
12.3534842718306
30
0
41
1
10
24.9734818153415
20
10.7127205135028
30
0
41
1
10
24.5963514307677
20
9.81412701741834
30
0
41
1
10
24.5223792342824
20
8.85489640547934
30
0
0
SPLINE
5
1B3
100
AcDbEntity
8
1
62
256
6
ByLayer
370
18
48
1
60
0
100
AcDbSpline
70
4
71
2
72
6
73
3
40
0
40
0
40
0
40
1
40
1
40
1
41
1
10
24.7377513822715
20
-4.68953273389192
30
0
41
1
10
24.6932914236986
20
-4.68491060263833
30
0
41
1
10
24.6488314651258
20
-4.68028847138473
30
0
0
SPLINE
5
1B4
100
AcDbEntity
8
1
62
256
6
ByLayer
370
18
48
1
60
0
100
AcDbSpline
70
4
71
3
72
12
73
8
40
0
40
0
40
0
40
0
40
0.319932024559257
40
0.319932024559257
40
0.659954131885586
40
0.659954131885586
40
1
40
1
40
1
40
1
41
1
10
28.2870068077559
20
14.0478360918854
30
0
41
1
10
28.31010940216
20
14.0567516855744
30
0
41
1
10
28.3332469397594
20
14.065575275617
30
0
41
1
10
28.3810446878219
20
14.0835861010852
30
0
41
1
10
28.4057096984403
20
14.0927615369452
30
0
41
1
10
28.4551160078404
20
14.1109041461303
30
0
41
1
10
28.4798577432258
20
14.1198714632913
30
0
41
1
10
28.5046358423614
20
14.1287341738657
30
0
0
SPLINE
5
1B5
100
AcDbEntity
8
1
62
256
6
ByLayer
370
18
48
1
60
0
100
AcDbSpline
70
4
71
3
72
16
73
12
40
0
40
0
40
0
40
0
40
0.11143027962805
40
0.11143027962805
40
0.248747543515472
40
0.248747543515472
40
0.465535329195252
40
0.465535329195252
40
0.88385535186756
40
0.88385535186756
40
1
40
1
40
1
40
1
41
1
10
8.53867513459483
20
23.8391299750503
30
0
41
1
10
8.51081528400579
20
23.8391299750503
30
0
41
1
10
8.48260885722448
20
23.8375361275706
30
0
41
1
10
8.42415079676073
20
23.831150658589
30
0
41
1
10
8.39395861076943
20
23.825666877018
30
0
41
1
10
8.32484624564245
20
23.8089605749788
30
0
41
1
10
8.28921459142956
20
23.796037970776
30
0
41
1
10
8.201006109254
20
23.7556824246832
30
0
41
1
10
8.16026799314912
20
23.7250165399981
30
0
41
1
10
8.1207082984732
20
23.6845451449633
30
0
41
1
10
8.1128384014269
20
23.6755726082078
30
0
41
1
10
8.10566243270245
20
23.6665017920809
30
0
0
SPLINE
5
1B6
100
AcDbEntity
8
1
62
256
6
ByLayer
370
18
48
1
60
0
100
AcDbSpline
70
4
71
3
72
16
73
12
40
0
40
0
40
0
40
0
40
0.461208588217066
40
0.461208588217066
40
0.643534962278522
40
0.643534962278522
40
0.828408472975271
40
0.828408472975271
40
0.943003644159981
40
0.943003644159981
40
1
40
1
40
1
40
1
41
1
10
11.8943375672974
20
-8.05584836782774
30
0
41
1
10
11.8660503915152
20
-7.95080268681445
30
0
41
1
10
11.8273339192908
20
-7.84628670970801
30
0
41
1
10
11.7473160248315
20
-7.71442469145123
30
0
41
1
10
11.7212784637477
20
-7.67825379650728
30
0
41
1
10
11.6606543989164
20
-7.61290523367228
30
0
41
1
10
11.6251722226874
20
-7.58305923051407
30
0
41
1
10
11.5599225851958
20
-7.54855881865589
30
0
41
1
10
11.5324782774944
20
-7.5385201810229
30
0
41
1
10
11.4901684747699
20
-7.53097042135255
30
0
41
1
10
11.4757173930754
20
-7.5296667942647
30
0
41
1
10
11.4613248654053
20
-7.5296667942647
30
0
0
SPLINE
5
1B7
100
AcDbEntity
8
1
62
256
6
ByLayer
370
18
48
1
60
0
100
AcDbSpline
70
4
71
3
72
16
73
12
40
0
40
0
40
0
40
0
40
0.111430279628047
40
0.111430279628047
40
0.248747543515467
40
0.248747543515467
40
0.465535329195252
40
0.465535329195252
40
0.883855351867553
40
0.883855351867553
40
1
40
1
40
1
40
1
41
1
10
8.53867513459483
20
-7.52966679426501
30
0
41
1
10
8.51081528400579
20
-7.52966679426501
30
0
41
1
10
8.48260885722448
20
-7.53471706780857
30
0
41
1
10
8.42415079676073
20
-7.55489210221029
30
0
41
1
10
8.39395861076943
20
-7.57218953888446
30
0
41
1
10
8.32484624564245
20
-7.62460019394089
30
0
41
1
10
8.28921459142956
20
-7.66489294253907
30
0
41
1
10
8.201006109254
20
-7.78941367630352
30
0
41
1
10
8.16026799314912
20
-7.88247511004147
30
0
41
1
10
8.12070829847318
20
-8.00269269538009
30
0
41
1
10
8.11283840142687
20
-8.02920008991578
30
0
41
1
10
8.10566243270245
20
-8.05584836782771
30
0
0
SPLINE
5
1B8
100
AcDbEntity
8
1
62
256
6
ByLayer
370
18
48
1
60
0
100
AcDbSpline
70
4
71
3
72
16
73
12
40
0
40
0
40
0
40
0
40
0.461208588217085
40
0.461208588217085
40
0.643534962278541
40
0.643534962278541
40
0.828408472975291
40
0.828408472975291
40
0.943003644159993
40
0.943003644159993
40
1
40
1
40
1
40
1
41
1
10
11.8943375672974
20
23.6665017920809
30
0
41
1
10
11.8660503915152
20
23.7022583261632
30
0
41
1
10
11.8273339192908
20
23.7370095736338
30
0
41
1
10
11.7473160248315
20
23.7800170858174
30
0
41
1
10
11.7212784637477
20
23.7917125768793
30
0
41
1
10
11.6606543989164
20
23.8127037684951
30
0
41
1
10
11.6251722226874
20
23.8222104320954
30
0
41
1
10
11.5599225851958
20
23.8331586856493
30
0
41
1
10
11.5324782774944
20
23.836332378473
30
0
41
1
10
11.4901684747699
20
23.8387183279986
30
0
41
1
10
11.4757173930754
20
23.8391299750505
30
0
41
1
10
11.4613248654053
20
23.8391299750505
30
0
0
SPLINE
5
1B9
100
AcDbEntity
8
1
62
256
6
ByLayer
370
18
48
1
60
0
100
AcDbSpline
70
4
71
3
72
14
73
10
40
0
40
0
40
0
40
0
40
0.0663215525684913
40
0.0663215525684913
40
0.414383943870411
40
0.414383943870411
40
0.785594399908693
40
0.785594399908693
40
1
40
1
40
1
40
1
41
1
10
17.3867024570004
20
-23.2654033597281
30
0
41
1
10
17.3531428919533
20
-23.2520512279739
30
0
41
1
10
17.3207177701626
20
-23.2382307742204
30
0
41
1
10
17.1270609478324
20
-23.1497767918581
30
0
41
1
10
16.9959117739144
20
-23.0624249751104
30
0
41
1
10
16.8052350350078
20
-22.8658742899653
30
0
41
1
10
16.7483048043065
20
-22.7529338481842
30
0
41
1
10
16.7290861983657
20
-22.568454005915
30
0
41
1
10
16.7369105673971
20
-22.4985451273268
30
0
41
1
10
16.7596823049155
20
-22.4285147085721
30
0
0
SPLINE
5
1BA
100
AcDbEntity
8
1
62
256
6
ByLayer
370
18
48
1
60
0
100
AcDbSpline
70
4
71
2
72
7
73
4
40
0
40
0
40
0
40
0.742500414936606
40
1
40
1
40
1
41
1
10
25.7668321613608
20
9.27568156441004
30
0
41
1
10
25.2951715953166
20
9.32471618147636
30
0
41
1
10
24.6729409617143
20
8.97721314951633
30
0
41
1
10
24.5223373250474
20
8.85552586342922
30
0
0
SPLINE
5
1BB
100
AcDbEntity
8
1
62
256
6
ByLayer
370
18
48
1
60
0
100
AcDbSpline
70
4
71
3
72
16
73
12
40
0
40
0
40
0
40
0
40
0.238664520516886
40
0.238664520516886
40
0.477243676809563
40
0.477243676809563
40
0.717175962218134
40
0.717175962218134
40
0.962955965218022
40
0.962955965218022
40
1
40
1
40
1
40
1
41
1
10
20.92079238
20
24.4886190390076
30
0
41
1
10
20.4840916723798
20
24.4774472754172
30
0
41
1
10
20.0509926695775
20
24.4509610891805
30
0
41
1
10
19.26391515033
20
24.3656718780195
30
0
41
1
10
18.8991880574146
20
24.3054862317241
30
0
41
1
10
18.2835116525487
20
24.1494135952404
30
0
41
1
10
18.0249815792796
20
24.0510028626092
30
0
41
1
10
17.6392199403027
20
23.8174123097642
30
0
41
1
10
17.5100639463551
20
23.6782359586606
30
0
41
1
10
17.4432353915025
20
23.5027996833027
30
0
41
1
10
17.4359824174511
20
23.4792306731536
30
0
41
1
10
17.4303191742212
20
23.4553549429959
30
0
0
SPLINE
5
1BC
100
AcDbEntity
8
1
62
256
6
ByLayer
370
18
48
1
60
0
100
AcDbSpline
70
4
71
3
72
8
73
4
40
0
40
0
40
0
40
0
40
1
40
1
40
1
40
1
41
1
10
20.9613047991582
20
-25.1432994199657
30
0
41
1
10
21.2457400914599
20
-25.1112476362893
30
0
41
1
10
21.7454987042496
20
-24.9626012853216
30
0
41
1
10
22.4005225690872
20
-24.7245863837164
30
0
0
SPLINE
5
1BD
100
AcDbEntity
8
1
62
256
6
ByLayer
370
18
48
1
60
0
100
AcDbSpline
70
4
71
3
72
16
73
12
40
0
40
0
40
0
40
0
40
0.461208588217088
40
0.461208588217088
40
0.643534962278544
40
0.643534962278544
40
0.82840847297529
40
0.82840847297529
40
0.943003644159989
40
0.943003644159989
40
1
40
1
40
1
40
1
41
1
10
8.10566243270262
20
8.05584836782774
30
0
41
1
10
8.13394960848487
20
7.95080268681445
30
0
41
1
10
8.17266608070923
20
7.84628670970801
30
0
41
1
10
8.25268397516848
20
7.71442469145123
30
0
41
1
10
8.27872153625231
20
7.67825379650728
30
0
41
1
10
8.33934560108361
20
7.61290523367228
30
0
41
1
10
8.37482777731262
20
7.58305923051407
30
0
41
1
10
8.44007741480422
20
7.54855881865589
30
0
41
1
10
8.46752172250564
20
7.5385201810229
30
0
41
1
10
8.50983152523006
20
7.53097042135255
30
0
41
1
10
8.5242826069246
20
7.52966679426473
30
0
41
1
10
8.53867513459474
20
7.52966679426473
30
0
0
SPLINE
5
1BE
100
AcDbEntity
8
1
62
256
6
ByLayer
370
18
48
1
60
0
100
AcDbSpline
70
4
71
3
72
10
73
6
40
0
40
0
40
0
40
0
40
0.402044102652632
40
0.402044102652632
40
1
40
1
40
1
40
1
41
1
10
8.5386751345948
20
-15.6264181175896
30
0
41
1
10
8.45565130451814
20
-15.5634371823532
30
0
41
1
10
8.38116512940178
20
-15.5084417956534
30
0
41
1
10
8.22555738648487
20
-15.3873530726881
30
0
41
1
10
8.1547844176815
20
-15.3245036331396
30
0
41
1
10
8.10566243270253
20
-15.2776332060813
30
0
0
SPLINE
5
1BF
100
AcDbEntity
8
1
62
256
6
ByLayer
370
18
48
1
60
0
100
AcDbSpline
70
4
71
1
72
4
73
2
40
0
40
0
40
1
40
1
41
1
10
25.8557520785066
20
9.26643730190281
30
0
41
1
10
25.7668321613607
20
9.27568156441004
30
0
0
SPLINE
5
1C0
100
AcDbEntity
8
1
62
256
6
ByLayer
370
18
48
1
60
0
100
AcDbSpline
70
4
71
3
72
10
73
6
40
0
40
0
40
0
40
0
40
0.557501663665877
40
0.557501663665877
40
1
40
1
40
1
40
1
41
1
10
11.8943375672974
20
-15.2776332060815
30
0
41
1
10
11.8484634024225
20
-15.3214046802911
30
0
41
1
10
11.7837991840743
20
-15.3793044422495
30
0
41
1
10
11.633322851829
20
-15.4976441747706
30
0
41
1
10
11.5524968190072
20
-15.5572561083222
30
0
41
1
10
11.4613248654052
20
-15.6264181175895
30
0
0
SPLINE
5
1C1
100
AcDbEntity
8
1
62
256
6
ByLayer
370
18
48
1
60
0
100
AcDbSpline
70
4
71
3
72
8
73
4
40
0
40
0
40
0
40
0
40
1
40
1
40
1
40
1
41
1
10
20.9812951365587
20
-24.7205272986344
30
0
41
1
10
20.9695668761364
20
-24.9710576696833
30
0
41
1
10
20.9628035649219
20
-25.1119153194747
30
0
41
1
10
20.9613047991547
20
-25.1432994199657
30
0
0
SPLINE
5
1C2
100
AcDbEntity
8
SK1
62
256
6
ByLayer
370
18
48
1
60
0
100
AcDbSpline
70
4
71
3
72
22
73
18
40
0
40
0
40
0
40
0
40
0.0394331151890913
40
0.0394331151890913
40
0.0795339708694829
40
0.0795339708694829
40
0.109637917244288
40
0.109637917244288
40
0.13957706301322
40
0.13957706301322
40
0.189266399657458
40
0.189266399657458
40
0.289571152403382
40
0.289571152403382
40
0.658284396834382
40
0.658284396834382
40
1
40
1
40
1
40
1
41
1
10
-0.394976888875306
20
-5.38678189578292
30
0
41
1
10
-0.415237014773396
20
-5.40399317028476
30
0
41
1
10
-0.437419275645453
20
-5.41977813092004
30
0
41
1
10
-0.486103141154984
20
-5.44521655864725
30
0
41
1
10
-0.51341298093098
20
-5.45496005292577
30
0
41
1
10
-0.562874322366525
20
-5.46212264681108
30
0
41
1
10
-0.585106616517606
20
-5.46199323188387
30
0
41
1
10
-0.627692822126733
20
-5.45533455005088
30
0
41
1
10
-0.648523068172722
20
-5.44883772858989
30
0
41
1
10
-0.699826196362153
20
-5.42613682765011
30
0
41
1
10
-0.728695564403438
20
-5.40623396070797
30
0
41
1
10
-0.806075449923839
20
-5.34007786619352
30
0
41
1
10
-0.847522380016557
20
-5.28655870152033
30
0
41
1
10
-1.01570466784384
20
-5.03084699030373
30
0
41
1
10
-1.09210771407481
20
-4.80149729085085
30
0
41
1
10
-1.21929875138233
20
-4.35887826398974
30
0
41
1
10
-1.26692602208391
20
-4.13998960128646
30
0
41
1
10
-1.30710678118655
20
-3.91806548057696
30
0
0
SPLINE
5
1C3
100
AcDbEntity
8
SK1
62
256
6
ByLayer
370
18
48
1
60
0
100
AcDbSpline
70
4
71
3
72
22
73
18
40
0
40
0
40
0
40
0
40
0.0260455644157247
40
0.0260455644157247
40
0.0526262165848557
40
0.0526262165848557
40
0.0706056579866929
40
0.0706056579866929
40
0.0884949509195805
40
0.0884949509195805
40
0.11748921873202
40
0.11748921873202
40
0.17459086731972
40
0.17459086731972
40
0.37652425293745
40
0.37652425293745
40
1
40
1
40
1
40
1
41
1
10
-0.394976888872947
20
5.38678223324206
30
0
41
1
10
-0.389612432086437
20
5.38222504185003
30
0
41
1
10
-0.383763200778958
20
5.37811700449893
30
0
41
1
10
-0.3709728888754
20
5.37184824531644
30
0
41
1
10
-0.363785592650885
20
5.36968256852501
30
0
41
1
10
-0.351475656346565
20
5.3691458249703
30
0
41
1
10
-0.346317238365032
20
5.36979468027801
30
0
41
1
10
-0.336550133197363
20
5.3727304206256
30
0
41
1
10
-0.331829865964124
20
5.3750241182685
30
0
41
1
10
-0.32051111143835
20
5.38234306083376
30
0
41
1
10
-0.314321448136155
20
5.3882440687963
30
0
41
1
10
-0.298260159254511
20
5.40702817233921
30
0
41
1
10
-0.290032841564653
20
5.42147709180321
30
0
41
1
10
-0.258449669573651
20
5.48745345024415
30
0
41
1
10
-0.24608390551893
20
5.5434138926733
30
0
41
1
10
-0.204764795451922
20
5.7670899064446
30
0
41
1
10
-0.200000000000358
20
5.93709576978202
30
0
41
1
10
-0.200000000000358
20
6.10344667966001
30
0
0
SPLINE
5
1C4
100
AcDbEntity
8
SK1
62
256
6
ByLayer
370
18
48
1
60
0
100
AcDbSpline
70
4
71
3
72
24
73
20
40
0
40
0
40
0
40
0
40
0.469770575826712
40
0.469770575826712
40
0.663612078687295
40
0.663612078687295
40
0.860454184613411
40
0.860454184613411
40
0.903064590395674
40
0.903064590395674
40
0.923089343972159
40
0.923089343972159
40
0.943389594779288
40
0.943389594779288
40
0.961332284531898
40
0.961332284531898
40
0.988068136377815
40
0.988068136377815
40
1
40
1
40
1
40
1
41
1
10
-0.199999999999989
20
-6.10344849123027
30
0
41
1
10
-0.199999999999989
20
-5.97798788494984
30
0
41
1
10
-0.204016575726513
20
-5.8509635670122
30
0
41
1
10
-0.223752631922082
20
-5.67079358995508
30
0
41
1
10
-0.231244965282229
20
-5.61789623093799
30
0
41
1
10
-0.253819137983157
20
-5.51250015101135
30
0
41
1
10
-0.267096215270385
20
-5.45724004647028
30
0
41
1
10
-0.303692478692511
20
-5.40035311573845
30
0
41
1
10
-0.311479622041333
20
-5.39039941672755
30
0
41
1
10
-0.32547775761438
20
-5.37891036834915
30
0
41
1
10
-0.330455622185014
20
-5.3756771312581
30
0
41
1
10
-0.341078704143143
20
-5.37102422840917
30
0
41
1
10
-0.346883276538165
20
-5.36960762575521
30
0
41
1
10
-0.357630415747764
20
-5.36914354197148
30
0
41
1
10
-0.362713068049572
20
-5.36981917830482
30
0
41
1
10
-0.37458340180882
20
-5.37316903610403
30
0
41
1
10
-0.3812109954861
20
-5.37664910167555
30
0
41
1
10
-0.38989246528871
20
-5.38265091141974
30
0
41
1
10
-0.392483363308571
20
-5.38466360919151
30
0
41
1
10
-0.394976888875334
20
-5.38678189578178
30
0
0
SPLINE
5
1C5
100
AcDbEntity
8
SK1
62
256
6
ByLayer
370
18
48
1
60
0
100
AcDbSpline
70
4
71
3
72
22
73
18
40
0
40
0
40
0
40
0
40
0.359503326352592
40
0.359503326352592
40
0.722215553677066
40
0.722215553677066
40
0.826527133697721
40
0.826527133697721
40
0.863141914878009
40
0.863141914878009
40
0.900378805007221
40
0.900378805007221
40
0.933500873078508
40
0.933500873078508
40
0.972947835056124
40
0.972947835056124
40
1
40
1
40
1
40
1
41
1
10
-1.30710678118655
20
3.91806548153781
30
0
41
1
10
-1.26486058419175
20
4.15139729989579
30
0
41
1
10
-1.21446435132796
20
4.38143232555947
30
0
41
1
10
-1.08204001032738
20
4.82987250608483
30
0
41
1
10
-1.00537527699572
20
5.05527264511531
30
0
41
1
10
-0.832356114396674
20
5.30654108347395
30
0
41
1
10
-0.78723829488635
20
5.36152992388779
30
0
41
1
10
-0.709490490588593
20
5.41877880440924
30
0
41
1
10
-0.687203973712826
20
5.43218986569767
30
0
41
1
10
-0.639076749164047
20
5.45244590583036
30
0
41
1
10
-0.612446414061708
20
5.45928056674788
30
0
41
1
10
-0.562058433231044
20
5.46233960302246
30
0
41
1
10
-0.537713914852588
20
5.45964677314575
30
0
41
1
10
-0.488053852696936
20
5.44628701250068
30
0
41
1
10
-0.462609559288751
20
5.43420976008088
30
0
41
1
10
-0.423860760477311
20
5.40985221311715
30
0
41
1
10
-0.408979654247759
20
5.39867780521598
30
0
41
1
10
-0.394976888875391
20
5.38678223323953
30
0
0
SPLINE
5
1C6
100
AcDbEntity
8
SK1
62
256
6
ByLayer
370
18
48
1
60
0
100
AcDbSpline
70
4
71
3
72
10
73
6
40
0
40
0
40
0
40
0
40
0.5
40
0.5
40
1
40
1
40
1
40
1
41
1
10
-1.30710678118655
20
3.91806548153784
30
0
41
1
10
-1.53227959010832
20
2.67440369212437
30
0
41
1
10
-1.71681589069689
20
1.34075776539186
30
0
41
1
10
-1.71598271729604
20
-1.35050010337164
30
0
41
1
10
-1.53230696904976
20
-2.67425240209695
30
0
41
1
10
-1.30710678118655
20
-3.91806548057698
30
0
0
SPLINE
5
1C7
100
AcDbEntity
8
1
62
256
6
ByLayer
370
18
48
1
60
0
100
AcDbSpline
70
4
71
3
72
12
73
8
40
0
40
0
40
0
40
0
40
0.392678099449952
40
0.392678099449952
40
0.791279335966108
40
0.791279335966108
40
1
40
1
40
1
40
1
41
1
10
38.4707196167495
20
0.0319151186226634
30
0
41
1
10
38.4519553185033
20
0.0367176986553659
30
0
41
1
10
38.4319674933905
20
0.040643002082021
30
0
41
1
10
38.3921429651501
20
0.0456776404524817
30
0
41
1
10
38.3718298242909
20
0.0467835866062956
30
0
41
1
10
38.3431673559748
20
0.0462898987415201
30
0
41
1
10
38.3335467205044
20
0.0457354971318864
30
0
41
1
10
38.3243686795074
20
0.0448598376875964
30
0
0
SPLINE
5
1C8
100
AcDbEntity
8
1
62
256
6
ByLayer
370
18
48
1
60
0
100
AcDbSpline
70
4
71
3
72
14
73
10
40
0
40
0
40
0
40
0
40
0.0829586012802185
40
0.0829586012802185
40
0.459195015075145
40
0.459195015075145
40
0.835474799669115
40
0.835474799669115
40
1
40
1
40
1
40
1
41
1
10
39.4909095158446
20
0.594803034099613
30
0
41
1
10
39.487916011986
20
0.592022579300249
30
0
41
1
10
39.4849443030255
20
0.589171071320663
30
0
41
1
10
39.4687723765188
20
0.573113424104093
30
0
41
1
10
39.4559887873501
20
0.558317021099128
30
0
41
1
10
39.4336314489583
20
0.527297099578647
30
0
41
1
10
39.4238156581536
20
0.510722631992621
30
0
41
1
10
39.4125314516315
20
0.487335547321862
30
0
41
1
10
39.4094223576816
20
0.480196983094174
30
0
41
1
10
39.406645416465
20
0.473139300294008
30
0
0
SPLINE
5
1C9
100
AcDbEntity
8
1
62
256
6
ByLayer
370
18
48
1
60
0
100
AcDbSpline
70
4
71
3
72
12
73
8
40
0
40
0
40
0
40
0
40
0.392678099452536
40
0.392678099452536
40
0.791279335968745
40
0.791279335968745
40
1
40
1
40
1
40
1
41
1
10
38.5265539016618
20
2.38123707537562
30
0
41
1
10
38.5430912298657
20
2.37643449534286
30
0
41
1
10
38.5615384008597
20
2.37250919191618
30
0
41
1
10
38.6002834384958
20
2.36747455354575
30
0
41
1
10
38.6210914080752
20
2.36636860739196
30
0
41
1
10
38.6519110063367
20
2.36686229525677
30
0
41
1
10
38.662531107049
20
2.3674166968664
30
0
41
1
10
38.672904838904
20
2.36829235631069
30
0
0
SPLINE
5
1CA
100
AcDbEntity
8
1
62
256
6
ByLayer
370
18
48
1
60
0
100
AcDbSpline
70
4
71
3
72
14
73
10
40
0
40
0
40
0
40
0
40
0.16452520033096
40
0.16452520033096
40
0.540804984924852
40
0.540804984924852
40
0.917041398719683
40
0.917041398719683
40
1
40
1
40
1
40
1
41
1
10
37.4784468601115
20
0.643688181522634
30
0
41
1
10
37.4759935103628
20
0.65120848279625
30
0
41
1
10
37.4733469965045
20
0.658856129695579
30
0
41
1
10
37.4640779290205
20
0.684061148456038
30
0
41
1
10
37.4565189849315
20
0.70217240881064
30
0
41
1
10
37.4402164878219
20
0.73661178714562
30
0
41
1
10
37.4312941375839
20
0.753328077326955
30
0
41
1
10
37.4203565686186
20
0.771783555466186
30
0
41
1
10
37.4183596937438
20
0.775074533961714
30
0
41
1
10
37.4163600222459
20
0.778296634393485
30
0
0
SPLINE
5
1CB
100
AcDbEntity
8
1
62
256
6
ByLayer
370
18
48
1
60
0
100
AcDbSpline
70
4
71
3
72
14
73
10
40
0
40
0
40
0
40
0
40
0.164525200330958
40
0.164525200330958
40
0.540804984924846
40
0.540804984924846
40
0.917041398719708
40
0.917041398719708
40
1
40
1
40
1
40
1
41
1
10
39.5188266582991
20
1.76946401247565
30
0
41
1
10
39.5203420511232
20
1.76194371120204
30
0
41
1
10
39.5221715771449
20
1.75429606430271
30
0
41
1
10
39.5292507241977
20
1.72909104554225
30
0
41
1
10
39.536064884317
20
1.71097978518765
30
0
41
1
10
39.552757511176
20
1.67654040685264
30
0
41
1
10
39.5628140574811
20
1.6598241166713
30
0
41
1
10
39.5759992899709
20
1.6413686385321
30
0
41
1
10
39.5784394409395
20
1.63807766003657
30
0
41
1
10
39.5809134961649
20
1.6348555596048
30
0
0
SPLINE
5
1CC
100
AcDbEntity
8
1
62
256
6
ByLayer
370
18
48
1
60
0
100
AcDbSpline
70
4
71
3
72
14
73
10
40
0
40
0
40
0
40
0
40
0.0829586012803177
40
0.0829586012803177
40
0.459195015075151
40
0.459195015075151
40
0.835474799669035
40
0.835474799669035
40
1
40
1
40
1
40
1
41
1
10
37.5063640025662
20
1.81834915989864
30
0
41
1
10
37.5088831226973
20
1.82112961469801
30
0
41
1
10
37.5114115555639
20
1.82398112267759
30
0
41
1
10
37.5253358185463
20
1.84003876989416
30
0
41
1
10
37.5369852116477
20
1.85483517289913
30
0
41
1
10
37.5589524202901
20
1.88585509441961
30
0
41
1
10
37.5695129950646
20
1.90242956200564
30
0
41
1
10
37.5829871220179
20
1.9258166466764
30
0
41
1
10
37.5869132038044
20
1.93295521090411
30
0
41
1
10
37.5906281019455
20
1.94001289370428
30
0
0
SPLINE
5
1CD
100
AcDbEntity
8
1
62
256
6
ByLayer
370
18
48
1
60
0
100
AcDbSpline
70
4
71
3
72
8
73
4
40
0
40
0
40
0
40
0
40
1
40
1
40
1
40
1
41
1
10
32.1704091388936
20
6.63177018070144
30
0
41
1
10
31.8454380160822
20
7.37902443246239
30
0
41
1
10
31.6320613754402
20
7.98226227165699
30
0
41
1
10
31.2387739614964
20
8.32328485546486
30
0
0
SPLINE
5
1CE
100
AcDbEntity
8
1
62
256
6
ByLayer
370
18
48
1
60
0
100
AcDbSpline
70
4
71
3
72
8
73
4
40
0
40
0
40
0
40
0
40
1
40
1
40
1
40
1
41
1
10
41.1451686376669
20
8.16505079716953
30
0
41
1
10
40.9321602069449
20
8.18447869511496
30
0
41
1
10
40.719639727351
20
8.20388276230204
30
0
41
1
10
40.5084736604079
20
8.2232145234056
30
0
0
SPLINE
5
1CF
100
AcDbEntity
8
1
62
256
6
ByLayer
370
18
48
1
60
0
100
AcDbSpline
70
4
71
3
72
16
73
12
40
0
40
0
40
0
40
0
40
0.25
40
0.25
40
0.5
40
0.5
40
0.749999999999999
40
0.749999999999999
40
0.875
40
0.875
40
1
40
1
40
1
40
1
41
1
10
54.3803418234484
20
1.87391245303223
30
0
41
1
10
53.3467047263237
20
2.22269432883445
30
0
41
1
10
52.271426244833
20
2.6140327009231
30
0
41
1
10
49.9500498548268
20
3.57128280337216
30
0
41
1
10
48.7809967888038
20
4.05582595889433
30
0
41
1
10
46.4156505175205
20
5.0753253186287
30
0
41
1
10
45.165652949438
20
5.6537834260557
30
0
41
1
10
43.4080502178162
20
6.60408338756284
30
0
41
1
10
42.8427218187184
20
6.93536971115546
30
0
41
1
10
41.8665469064794
20
7.57882300849218
30
0
41
1
10
41.4659791302934
20
7.88473422259742
30
0
41
1
10
41.1451686376625
20
8.16505079716956
30
0
0
SPLINE
5
1D0
100
AcDbEntity
8
1
62
256
6
ByLayer
370
18
48
1
60
0
100
AcDbSpline
70
4
71
3
72
10
73
6
40
0
40
0
40
0
40
0
40
0.494168352806879
40
0.494168352806879
40
1
40
1
40
1
40
1
41
1
10
27.6188904439026
20
-5.12005265921843
30
0
41
1
10
27.516519346052
20
-5.09878952205003
30
0
41
1
10
27.4111927877033
20
-5.07174830761912
30
0
41
1
10
27.2017120841648
20
-5.0047929931383
30
0
41
1
10
27.0962150348653
20
-4.96408748563897
30
0
41
1
10
26.9958972918316
20
-4.91756888571808
30
0
0
SPLINE
5
1D1
100
AcDbEntity
8
1
62
256
6
ByLayer
370
18
48
1
60
0
100
AcDbSpline
70
4
71
3
72
8
73
4
40
0
40
0
40
0
40
0
40
1
40
1
40
1
40
1
41
1
10
30.1289247298999
20
-4.50172012925557
30
0
41
1
10
30.5803831996391
20
-4.2105944068434
30
0
41
1
10
30.8888014786745
20
-3.64083908602933
30
0
41
1
10
31.3418939053631
20
-2.94224374609246
30
0
0
SPLINE
5
1D2
100
AcDbEntity
8
1
62
256
6
ByLayer
370
18
48
1
60
0
100
AcDbSpline
70
4
71
3
72
8
73
4
40
0
40
0
40
0
40
0
40
1
40
1
40
1
40
1
41
1
10
39.7940766404354
20
5.30523345665827
30
0
41
1
10
40.1836171505097
20
5.27077865532701
30
0
41
1
10
40.561622512998
20
5.18257317026433
30
0
41
1
10
40.92872162621
20
5.04558002580515
30
0
0
SPLINE
5
1D3
100
AcDbEntity
8
1
62
256
6
ByLayer
370
18
48
1
60
0
100
AcDbSpline
70
4
71
3
72
8
73
4
40
0
40
0
40
0
40
0
40
1
40
1
40
1
40
1
41
1
10
39.9072129227903
20
-6.14030506743043
30
0
41
1
10
39.6942044920712
20
-6.12087716948523
30
0
41
1
10
39.4816840124803
20
-6.1014731022984
30
0
41
1
10
39.2705179455402
20
-6.08214134119504
30
0
0
SPLINE
5
1D4
100
AcDbEntity
8
1
62
256
6
ByLayer
370
18
48
1
60
0
100
AcDbSpline
70
4
71
3
72
8
73
4
40
0
40
0
40
0
40
0
40
1
40
1
40
1
40
1
41
1
10
35.2476390773845
20
4.80926212327896
30
0
41
1
10
35.9698401358628
20
5.32500909811031
30
0
41
1
10
36.8473095954511
20
5.56587457222571
30
0
41
1
10
37.7700492421776
20
5.484258384984
30
0
0
SPLINE
5
1D5
100
AcDbEntity
8
1
62
256
6
ByLayer
370
18
48
1
60
0
100
AcDbSpline
70
4
71
2
72
6
73
3
40
0
40
0
40
0
40
1
40
1
40
1
41
1.02830968163241
10
40.508473660408
20
8.22321452340559
30
0
41
1.02830968163241
10
40.6234664158352
20
7.85312680343594
30
0
41
1.02830968163241
10
40.7384591712625
20
7.48303908346624
30
0
0
SPLINE
5
1D6
100
AcDbEntity
8
1
62
256
6
ByLayer
370
18
48
1
60
0
100
AcDbSpline
70
4
71
3
72
12
73
8
40
0
40
0
40
0
40
0
40
0.252749620142201
40
0.252749620142201
40
0.674711209428766
40
0.674711209428766
40
1
40
1
40
1
40
1
41
1
10
26.0184365411783
20
-4.03502464425955
30
0
41
1
10
26.0647457636783
20
-4.11936665568379
30
0
41
1
10
26.1196580347861
20
-4.20353955626987
30
0
41
1
10
26.2892617677572
20
-4.42170998632864
30
0
41
1
10
26.4221249223662
20
-4.55397670984803
30
0
41
1
10
26.6980529277447
20
-4.75980050983071
30
0
41
1
10
26.8346603041338
20
-4.84166103917684
30
0
41
1
10
26.9793297246507
20
-4.90982462576713
30
0
0
SPLINE
5
1D7
100
AcDbEntity
8
1
62
256
6
ByLayer
370
18
48
1
60
0
100
AcDbSpline
70
4
71
3
72
16
73
12
40
0
40
0
40
0
40
0
40
0.0076436986798987
40
0.0076436986798987
40
0.0409116539642742
40
0.0409116539642742
40
0.185161591066359
40
0.185161591066359
40
0.761039897349149
40
0.761039897349149
40
1
40
1
40
1
40
1
41
1
10
25.80550251976
20
-1.95237385861367
30
0
41
1
10
25.8051943311213
20
-1.95593517191159
30
0
41
1
10
25.8048388263444
20
-1.95949986139988
30
0
41
1
10
25.8027263123814
20
-1.9783184023587
30
0
41
1
10
25.8002198762605
20
-1.99317891065527
30
0
41
1
10
25.7861955167641
20
-2.06796649919542
30
0
41
1
10
25.7733864972602
20
-2.12209258070743
30
0
41
1
10
25.7201384691077
20
-2.39656584003097
30
0
41
1
10
25.6994557846047
20
-2.61419303913786
30
0
41
1
10
25.7073877961936
20
-2.92129241586758
30
0
41
1
10
25.7142228523851
20
-3.01145600540315
30
0
41
1
10
25.7258551347797
20
-3.10113062975452
30
0
0
SPLINE
5
1D8
100
AcDbEntity
8
1
62
256
6
ByLayer
370
18
48
1
60
0
100
AcDbSpline
70
4
71
3
72
12
73
8
40
0
40
0
40
0
40
0
40
0.499999999999997
40
0.499999999999997
40
0.749999999999998
40
0.749999999999998
40
1
40
1
40
1
40
1
41
1
10
31.3418939053561
20
-2.94224374608513
30
0
41
1
10
31.2364744972055
20
-2.83382151120574
30
0
41
1
10
31.1341318770132
20
-2.72519139483305
30
0
41
1
10
30.9854505835576
20
-2.56152667804102
30
0
41
1
10
30.9366536726156
20
-2.50692158236748
30
0
41
1
10
30.8415483104062
20
-2.39654166619613
30
0
41
1
10
30.7591112384447
20
-2.35329279215827
30
0
41
1
10
30.7662977331038
20
-2.27024833243624
30
0
0
SPLINE
5
1D9
100
AcDbEntity
8
1
62
256
6
ByLayer
370
18
48
1
60
0
100
AcDbSpline
70
4
71
3
72
10
73
6
40
0
40
0
40
0
40
0
40
0.494168352806878
40
0.494168352806878
40
1
40
1
40
1
40
1
41
1
10
28.8519594987613
20
9.12883477958999
30
0
41
1
10
28.7473908644193
20
9.12470400229441
30
0
41
1
10
28.638943251995
20
9.11567947649914
30
0
41
1
10
28.4210424286578
20
9.08533501789728
30
0
41
1
10
28.3101313639032
20
9.06347817618473
30
0
41
1
10
28.2033475854701
20
9.03527767564759
30
0
0
SPLINE
5
1DA
100
AcDbEntity
8
1
62
256
6
ByLayer
370
18
48
1
60
0
100
AcDbSpline
70
4
71
3
72
8
73
4
40
0
40
0
40
0
40
0
40
1
40
1
40
1
40
1
41
1
10
32.8736596213237
20
-0.854816075842479
30
0
41
1
10
33.1603906344538
20
-0.87879735396973
30
0
41
1
10
33.4509423435779
20
-0.938680506344838
30
0
41
1
10
33.7259721080501
20
-1.03813854948979
30
0
0
SPLINE
5
1DB
100
AcDbEntity
8
1
62
256
6
ByLayer
370
18
48
1
60
0
100
AcDbSpline
70
4
71
2
72
6
73
3
40
0
40
0
40
0
40
1
40
1
40
1
41
0.941103849192081
10
40.240737659643
20
-2.90450685637522
30
0
41
0.915286811754989
10
39.9591933603273
20
-4.65865062797512
30
0
41
1.02830968163241
10
39.628609939666
20
-5.34196590125418
30
0
0
SPLINE
5
1DC
100
AcDbEntity
8
1
62
256
6
ByLayer
370
18
48
1
60
0
100
AcDbSpline
70
4
71
3
72
10
73
6
40
0
40
0
40
0
40
0
40
0.465995854460558
40
0.465995854460558
40
1
40
1
40
1
40
1
41
1
10
35.2476390773846
20
4.80926212327896
30
0
41
1
10
35.1047586350143
20
4.70722660969182
30
0
41
1
10
34.9485144095022
20
4.61854999577724
30
0
41
1
10
34.5970476573925
20
4.46373345986345
30
0
41
1
10
34.3971527987089
20
4.40172256569227
30
0
41
1
10
34.1933361031047
20
4.36254597198536
30
0
0
SPLINE
5
1DD
100
AcDbEntity
8
1
62
256
6
ByLayer
370
18
48
1
60
0
100
AcDbSpline
70
4
71
3
72
8
73
4
40
0
40
0
40
0
40
0
40
1
40
1
40
1
40
1
41
1
10
54.9896646890551
20
-1.24307731287558
30
0
41
1
10
54.8940630500446
20
-1.38709888976425
30
0
41
1
10
54.780018916595
20
-1.52663699575666
30
0
41
1
10
54.6526665578164
20
-1.65148825077819
30
0
0
SPLINE
5
1DE
100
AcDbEntity
8
1
62
256
6
ByLayer
370
18
48
1
60
0
100
AcDbSpline
70
4
71
3
72
8
73
4
40
0
40
0
40
0
40
0
40
1
40
1
40
1
40
1
41
1
10
28.0842622912076
20
-5.18678333449341
30
0
41
1
10
27.9288214247635
20
-5.17407154141873
30
0
41
1
10
27.773594757848
20
-5.15218574284296
30
0
41
1
10
27.6188904439026
20
-5.12005265921843
30
0
0
SPLINE
5
1DF
100
AcDbEntity
8
1
62
256
6
ByLayer
370
18
48
1
60
0
100
AcDbSpline
70
4
71
3
72
16
73
12
40
0
40
0
40
0
40
0
40
0.125
40
0.125
40
0.250000000000001
40
0.250000000000001
40
0.500000000000001
40
0.500000000000001
40
0.75
40
0.75
40
1
40
1
40
1
40
1
41
1
10
39.9072129228006
20
-6.14030506743137
30
0
41
1
10
40.2730086247507
20
-5.90560371202969
30
0
41
1
10
40.7203917258919
20
-5.66156471929949
30
0
41
1
10
41.8037290367644
20
-5.17452740078554
30
0
41
1
10
42.418870354117
20
-4.94025020109621
30
0
41
1
10
44.3316744462297
20
-4.29451566211364
30
0
41
1
10
45.6467637527592
20
-3.95107954921173
30
0
41
1
10
48.1313107533229
20
-3.37773094386009
30
0
41
1
10
49.3512446127244
20
-3.11652879855873
30
0
41
1
10
51.7867080668391
20
-2.59914634890066
30
0
41
1
10
52.9396706440841
20
-2.40965522228527
30
0
41
1
10
54.0223802632823
20
-2.26255821596251
30
0
0
SPLINE
5
1E0
100
AcDbEntity
8
1
62
256
6
ByLayer
370
18
48
1
60
0
100
AcDbSpline
70
4
71
3
72
12
73
8
40
0
40
0
40
0
40
0
40
0.322961595764271
40
0.322961595764271
40
0.710971356423585
40
0.710971356423585
40
1
40
1
40
1
40
1
41
1
10
40.2407376618288
20
-2.90450684275657
30
0
41
1
10
40.6275633057026
20
-2.83086840373537
30
0
41
1
10
41.0093183317594
20
-2.70302140670012
30
0
41
1
10
41.7881315227589
20
-2.32170259766471
30
0
41
1
10
42.1851415276064
20
-2.04248165602465
30
0
41
1
10
42.7667275107852
20
-1.45627401920706
30
0
41
1
10
42.9846623925275
20
-1.1680364307947
30
0
41
1
10
43.1520834835302
20
-0.859261774947782
30
0
0
SPLINE
5
1E1
100
AcDbEntity
8
1
62
256
6
ByLayer
370
18
48
1
60
0
100
AcDbSpline
70
4
71
3
72
18
73
14
40
0
40
0
40
0
40
0
40
0.148865436690718
40
0.148865436690718
40
0.336868556410367
40
0.336868556410367
40
0.519491108027854
40
0.519491108027854
40
0.711563055534816
40
0.711563055534816
40
0.930180979444766
40
0.930180979444766
40
1
40
1
40
1
40
1
41
1
10
47.6682205232318
20
-4.27816996787058
30
0
41
1
10
47.6695310428986
20
-4.2725966674661
30
0
41
1
10
47.6736713757617
20
-4.26619602048319
30
0
41
1
10
47.6893666981958
20
-4.25049737836841
30
0
41
1
10
47.7028702460583
20
-4.24064749355688
30
0
41
1
10
47.7365308054886
20
-4.22075161422168
30
0
41
1
10
47.7568868299502
20
-4.21047282659987
30
0
41
1
10
47.8027106937826
20
-4.19000201494546
30
0
41
1
10
47.8289081629378
20
-4.17959673356032
30
0
41
1
10
47.886552528159
20
-4.15883910722849
30
0
41
1
10
47.9188866585583
20
-4.14844138504446
30
0
41
1
10
47.9611164138492
20
-4.13617631669527
30
0
41
1
10
47.9713810856894
20
-4.13329705286486
30
0
41
1
10
47.9816048905679
20
-4.13052641942431
30
0
0
SPLINE
5
1E2
100
AcDbEntity
8
1
62
256
6
ByLayer
370
18
48
1
60
0
100
AcDbSpline
70
4
71
2
72
6
73
3
40
0
40
0
40
0
40
1
40
1
40
1
41
1.02830968163241
10
40.7384591712625
20
7.48303908346624
30
0
41
0.915286811692243
10
40.9507772296817
20
6.79972380976238
30
0
41
0.941103849220746
10
40.9287216285933
20
5.04558003669513
30
0
0
SPLINE
5
1E3
100
AcDbEntity
8
1
62
256
6
ByLayer
370
18
48
1
60
0
100
AcDbSpline
70
4
71
3
72
8
73
4
40
0
40
0
40
0
40
0
40
1
40
1
40
1
40
1
41
1
10
54.0223802632823
20
-2.26255821596251
30
0
41
1
10
54.2323203186388
20
-2.06096035213554
30
0
41
1
10
54.442940579793
20
-1.85709536962506
30
0
41
1
10
54.6526665578164
20
-1.65148825077819
30
0
0
SPLINE
5
1E4
100
AcDbEntity
8
1
62
256
6
ByLayer
370
18
48
1
60
0
100
AcDbSpline
70
4
71
3
72
8
73
4
40
0
40
0
40
0
40
0
40
1
40
1
40
1
40
1
41
1
10
33.3219444205795
20
4.32539635423575
30
0
41
1
10
33.6086754337095
20
4.3014150761085
30
0
41
1
10
33.9052802332468
20
4.31147918549752
30
0
41
1
10
34.1933361031047
20
4.36254597198536
30
0
0
SPLINE
5
1E5
100
AcDbEntity
8
1
62
256
6
ByLayer
370
18
48
1
60
0
100
AcDbSpline
70
4
71
3
72
13
73
9
40
0
40
0
40
0
40
0
40
0.287856992129663
40
0.287856992129663
40
0.605626331970862
40
0.605626331970862
40
0.605626331970862
40
1
40
1
40
1
40
1
41
1
10
43.4453995565537
20
2.53018968524117
30
0
41
1
10
43.3340545456165
20
2.86260462368946
30
0
41
1
10
43.1698165509289
20
3.18289382806563
30
0
41
1
10
42.7470309982707
20
3.79057547853677
30
0
41
1
10
42.476157405898
20
4.07891030556371
30
0
41
1
10
42.1755470245778
20
4.32477429692318
30
0
41
1
10
41.8042139697001
20
4.6284811303166
30
0
41
1
10
41.3766498586226
20
4.87572332061342
30
0
41
1
10
40.9287216284459
20
5.04558002497072
30
0
0
SPLINE
5
1E6
100
AcDbEntity
8
1
62
256
6
ByLayer
370
18
48
1
60
0
100
AcDbSpline
70
4
71
3
72
12
73
8
40
0
40
0
40
0
40
0
40
0.5
40
0.5
40
0.75
40
0.75
40
1
40
1
40
1
40
1
41
1
10
32.1704091388854
20
6.6317701806953
30
0
41
1
10
32.0477896544416
20
6.54143473037081
30
0
41
1
10
31.9281562286033
20
6.45025872688041
30
0
41
1
10
31.7533300728656
20
6.31180313800851
30
0
41
1
10
31.6957959629329
20
6.26544441137449
30
0
41
1
10
31.5829752441371
20
6.17111225489873
30
0
41
1
10
31.4941882511782
20
6.14098380333357
30
0
41
1
10
31.4870017565215
20
6.05793934361151
30
0
0
SPLINE
5
1E7
100
AcDbEntity
8
1
62
256
6
ByLayer
370
18
48
1
60
0
100
AcDbSpline
70
4
71
3
72
12
73
8
40
0
40
0
40
0
40
0
40
0.407174084711919
40
0.407174084711919
40
0.699511272430929
40
0.699511272430929
40
1
40
1
40
1
40
1
41
1
10
55.1274711413802
20
-0.977543316038691
30
0
41
1
10
55.1129902626402
20
-1.01416058557149
30
0
41
1
10
55.0964921306414
20
-1.05135684167385
30
0
41
1
10
55.0653608445093
20
-1.11429836006454
30
0
41
1
10
55.0514177323133
20
-1.14051191859366
30
0
41
1
10
55.0217773678722
20
-1.19243634989439
30
0
41
1
10
55.0059281576036
20
-1.21830934386307
30
0
41
1
10
54.9896646890551
20
-1.24307731287558
30
0
0
SPLINE
5
1E8
100
AcDbEntity
8
1
62
256
6
ByLayer
370
18
48
1
60
0
100
AcDbSpline
70
4
71
3
72
8
73
4
40
0
40
0
40
0
40
0
40
1
40
1
40
1
40
1
41
1
10
54.8964874086083
20
1.16601482780516
30
0
41
1
10
55.0005190158747
20
1.02138015097336
30
0
41
1
10
55.0889625300054
20
0.865087020588021
30
0
41
1
10
55.1585042188225
20
0.707969504329157
30
0
0
SPLINE
5
1E9
100
AcDbEntity
8
1
62
256
6
ByLayer
370
18
48
1
60
0
100
AcDbSpline
70
4
71
3
72
18
73
14
40
0
40
0
40
0
40
0
40
0.038443051382879
40
0.038443051382879
40
0.294505767099363
40
0.294505767099363
40
0.50793167570871
40
0.50793167570871
40
0.723079147095951
40
0.723079147095951
40
0.912685296049713
40
0.912685296049713
40
1
40
1
40
1
40
1
41
1
10
48.750017110282
20
4.74895943107958
30
0
41
1
10
48.7447281906927
20
4.75145342270045
30
0
41
1
10
48.7394336150507
20
4.75397832161147
30
0
41
1
10
48.6991936358735
20
4.77338815048779
30
0
41
1
10
48.6637318704358
20
4.79178332205834
30
0
41
1
10
48.6031744163973
20
4.82603644686918
30
0
41
1
10
48.5766853737202
20
4.8421928640397
30
0
41
1
10
48.5307194744726
20
4.87311367978057
30
0
41
1
10
48.5106502915467
20
4.88832825297843
30
0
41
1
10
48.4831236381361
20
4.91324905442957
30
0
41
1
10
48.4740908777626
20
4.92372626880842
30
0
41
1
10
48.4675359273495
20
4.936015276614
30
0
41
1
10
48.4663916074501
20
4.93951903750153
30
0
41
1
10
48.4661647542943
20
4.94257682331212
30
0
0
SPLINE
5
1EA
100
AcDbEntity
8
1
62
256
6
ByLayer
370
18
48
1
60
0
100
AcDbSpline
70
4
71
3
72
10
73
6
40
0
40
0
40
0
40
0
40
0.474805431212331
40
0.474805431212331
40
1
40
1
40
1
40
1
41
1
10
33.7259721080501
20
-1.03813854948979
30
0
41
1
10
33.8986074564207
20
-1.10458031641247
30
0
41
1
10
34.0649649525456
20
-1.18830234312045
30
0
41
1
10
34.3902575501683
20
-1.39578404570224
30
0
41
1
10
34.5486171306776
20
-1.52426989300113
30
0
41
1
10
34.68722279257
20
-1.66670005396784
30
0
0
SPLINE
5
1EB
100
AcDbEntity
8
1
62
256
6
ByLayer
370
18
48
1
60
0
100
AcDbSpline
70
4
71
3
72
10
73
6
40
0
40
0
40
0
40
0
40
0.325288492889667
40
0.325288492889667
40
1
40
1
40
1
40
1
41
1
10
26.6433702979739
20
7.50133338654561
30
0
41
1
10
26.6763703079043
20
7.60590868388835
30
0
41
1
10
26.7139188971087
20
7.70619358522251
30
0
41
1
10
26.8444505346897
20
8.00149669910923
30
0
41
1
10
26.954709782542
20
8.18538375416748
30
0
41
1
10
27.0902666752037
20
8.35064578742205
30
0
0
SPLINE
5
1EC
100
AcDbEntity
8
1
62
256
6
ByLayer
370
18
48
1
60
0
100
AcDbSpline
70
4
71
3
72
11
73
7
40
0
40
0
40
0
40
0
40
0.379738014043153
40
0.569607021064729
40
0.759476028086305
40
1
40
1
40
1
40
1
41
1.02830968163241
10
40.7384591712625
20
7.48303908346624
30
0
41
1.02566133279165
10
43.1403535558349
20
6.57249898161963
30
0
41
1.02050308371814
10
46.1833782209533
20
5.07491799423351
30
0
41
1.01332460673153
10
50.835762092098
20
2.01641245874755
30
0
41
1.0120630214142
10
52.7891793863859
20
1.78611512555273
30
0
41
1.00944729087556
10
54.4378577913289
20
0.973920628869276
30
0
41
1.00885690313847
10
55.1585042117811
20
0.7079695069277
30
0
0
SPLINE
5
1ED
100
AcDbEntity
8
1
62
256
6
ByLayer
370
18
48
1
60
0
100
AcDbSpline
70
4
71
3
72
11
73
7
40
0
40
0
40
0
40
0
40
0.379738014043147
40
0.569607021064721
40
0.759476028086294
40
1
40
1
40
1
40
1
41
1.02830968163241
10
39.628609939666
20
-5.34196590125418
30
0
41
1.02566133279166
10
42.1514202787951
20
-4.85524619879849
30
0
41
1.02050308371814
10
45.4068426460432
20
-3.89843832770448
30
0
41
1.01332460673153
10
50.5136291120009
20
-1.70603646304473
30
0
41
1.0120630214142
10
52.4742294936728
20
-1.85332870974236
30
0
41
1.00944729087555
10
54.2355843523657
20
-1.36347600944258
30
0
41
1.00885690313847
10
54.9896646816871
20
-1.24307731405194
30
0
0
SPLINE
5
1EE
100
AcDbEntity
8
1
62
256
6
ByLayer
370
18
48
1
60
0
100
AcDbSpline
70
4
71
3
72
8
73
4
40
0
40
0
40
0
40
0
40
1
40
1
40
1
40
1
41
1
10
54.3803418234484
20
1.87391245303223
30
0
41
1
10
54.5526257600352
20
1.64037021206994
30
0
41
1
10
54.7251664312144
20
1.40420161402309
30
0
41
1
10
54.8964874086083
20
1.16601482780516
30
0
0
SPLINE
5
1EF
100
AcDbEntity
8
1
62
256
6
ByLayer
370
18
48
1
60
0
100
AcDbSpline
70
4
71
3
72
8
73
4
40
0
40
0
40
0
40
0
40
1
40
1
40
1
40
1
41
1
10
39.0785451339311
20
-2.96318253750505
30
0
41
1
10
39.4680856438777
20
-2.99763733882503
30
0
41
1
10
39.8555681880439
20
-2.97632803539463
30
0
41
1
10
40.2407376591038
20
-2.90450684326473
30
0
0
SPLINE
5
1F0
100
AcDbEntity
8
1
62
256
6
ByLayer
370
18
48
1
60
0
100
AcDbSpline
70
4
71
3
72
11
73
7
40
0
40
0
40
0
40
0
40
0.268536746558077
40
0.487975722590654
40
0.707414698623231
40
1
40
1
40
1
40
1
41
1.02490909094425
10
43.1520834204833
20
-0.859261770818261
30
0
41
1.02297680709541
10
44.4894865468874
20
-0.946859950892539
30
0
41
1.019109996622
10
46.8225205585732
20
-1.06610501275259
30
0
41
1.01332460673153
10
50.6081513828143
20
-1.01276566931073
30
0
41
1.01203732298747
10
52.631695039767
20
-1.11854200445884
30
0
41
1.00929221524307
10
54.3765329074965
20
-1.05112491749937
30
0
41
1.0087712828333
10
55.1410748740206
20
-0.976216680600822
30
0
0
SPLINE
5
1F1
100
AcDbEntity
8
1
62
256
6
ByLayer
370
18
48
1
60
0
100
AcDbSpline
70
4
71
3
72
8
73
4
40
0
40
0
40
0
40
0
40
1
40
1
40
1
40
1
41
1
10
25.7258551347798
20
-3.10113062975466
30
0
41
1
10
25.7699669844201
20
-3.44119403362836
30
0
41
1
10
25.8627401439142
20
-3.75145807568904
30
0
41
1
10
26.0184365411959
20
-4.03502464427342
30
0
0
SPLINE
5
1F2
100
AcDbEntity
8
1
62
256
6
ByLayer
370
18
48
1
60
0
100
AcDbSpline
70
4
71
3
72
12
73
8
40
0
40
0
40
0
40
0
40
0.252749620142198
40
0.252749620142198
40
0.674711209428766
40
0.674711209428766
40
1
40
1
40
1
40
1
41
1
10
27.090266675184
20
8.35064578741083
30
0
41
1
10
27.1501974568701
20
8.42370944829577
30
0
41
1
10
27.2185834462497
20
8.4952338253932
30
0
41
1
10
27.4227254849565
20
8.67617521215863
30
0
41
1
10
27.5761032085086
20
8.78096721829868
30
0
41
1
10
27.8829821968961
20
8.93280146777977
30
0
41
1
10
28.0315221323491
20
8.98882915344501
30
0
41
1
10
28.1857015540148
20
9.03055960350861
30
0
0
SPLINE
5
1F3
100
AcDbEntity
8
1
62
256
6
ByLayer
370
18
48
1
60
0
100
AcDbSpline
70
4
71
2
72
6
73
3
40
0
40
0
40
0
40
1
40
1
40
1
41
1.0087712828333
10
55.1410748740206
20
-0.976216680600822
30
0
41
1.0087712828333
10
55.2014209046896
20
-0.278880391936444
30
0
41
1.0087712828333
10
55.2617669353586
20
0.418455896727934
30
0
0
SPLINE
5
1F4
100
AcDbEntity
8
1
62
256
6
ByLayer
370
18
48
1
60
0
100
AcDbSpline
70
4
71
3
72
12
73
8
40
0
40
0
40
0
40
0
40
0.418782075282775
40
0.418782075282775
40
0.706182120811176
40
0.706182120811176
40
1
40
1
40
1
40
1
41
1
10
55.1585042188225
20
0.707969504329157
30
0
41
1
10
55.1748751234506
20
0.670424927917026
30
0
41
1
10
55.1900841937555
20
0.630737715608348
30
0
41
1
10
55.2126165266156
20
0.563224548936347
30
0
41
1
10
55.221010699863
20
0.535312826330454
30
0
41
1
10
55.2361365185098
20
0.479049492401856
30
0
41
1
10
55.2428695500857
20
0.450543016655814
30
0
41
1
10
55.2486225596907
20
0.422437419635031
30
0
0
SPLINE
5
1F5
100
AcDbEntity
8
1
62
256
6
ByLayer
370
18
48
1
60
0
100
AcDbSpline
70
4
71
2
72
6
73
3
40
0
40
0
40
0
40
1
40
1
40
1
41
1.02830968163241
10
39.628609939666
20
-5.34196590125418
30
0
41
1.02830968163241
10
39.4495639426031
20
-5.7120536212246
30
0
41
1.02830968163241
10
39.2705179455402
20
-6.08214134119505
30
0
0
SPLINE
5
1F6
100
AcDbEntity
8
1
62
256
6
ByLayer
370
18
48
1
60
0
100
AcDbSpline
70
4
71
3
72
13
73
9
40
0
40
0
40
0
40
0
40
0.250661764437226
40
0.250661764437226
40
0.250661764437226
40
0.653096502165463
40
0.653096502165463
40
1
40
1
40
1
40
1
41
1
10
43.1520834835302
20
-0.859261774947782
30
0
41
1
10
43.291035792104
20
-0.602912732374676
30
0
41
1
10
43.4039689716138
20
-0.329894730922121
30
0
41
1
10
43.4873940806508
20
-0.0493154293017994
30
0
41
1
10
43.6201738480078
20
0.397255810752768
30
0
41
1
10
43.6800413066689
20
0.873465135267423
30
0
41
1
10
43.6467507217854
20
1.7433776223121
30
0
41
1
10
43.5731608328797
20
2.14859400572519
30
0
41
1
10
43.4453995565537
20
2.53018968524117
30
0
0
SPLINE
5
1F7
100
AcDbEntity
8
1
62
256
6
ByLayer
370
18
48
1
60
0
100
AcDbSpline
70
4
71
3
72
11
73
7
40
0
40
0
40
0
40
0
40
0.268536746003808
40
0.487975722202665
40
0.707414698401523
40
1
40
1
40
1
40
1
41
1.0249090909279
10
43.4453995050238
20
2.53018969111387
30
0
41
1.0229768070834
10
44.7772478547162
20
2.37840262463163
30
0
41
1.0191099966158
10
47.0944255855801
20
2.07592831555733
30
0
41
1.01332460673153
10
50.8102821371697
20
1.32298215874532
30
0
41
1.01203732298747
10
52.8188291754645
20
1.04391047540956
30
0
41
1.00929221524307
10
54.5231037928953
20
0.642593726712341
30
0
41
1.0087712828333
10
55.2617669353586
20
0.418455896727934
30
0
0
SPLINE
5
1F8
100
AcDbEntity
8
1
62
256
6
ByLayer
370
18
48
1
60
0
100
AcDbSpline
70
4
71
3
72
8
73
4
40
0
40
0
40
0
40
0
40
1
40
1
40
1
40
1
41
1
10
37.0545177356733
20
-2.78415760917932
30
0
41
1
10
36.1499889404995
20
-2.7041521691028
30
0
41
1
10
35.3029295409956
20
-2.29939579012503
30
0
41
1
10
34.68722279257
20
-1.66670005396787
30
0
0
SPLINE
5
1F9
100
AcDbEntity
8
1
62
256
6
ByLayer
370
18
48
1
60
0
100
AcDbSpline
70
4
71
3
72
14
73
10
40
0
40
0
40
0
40
0
40
0.0151857536690277
40
0.0151857536690277
40
0.0655730315774964
40
0.0655730315774964
40
0.287642754348333
40
0.287642754348333
40
1
40
1
40
1
40
1
41
1
10
26.5262065431787
20
6.37581381743524
30
0
41
1
10
26.5268183746908
20
6.38288391485779
30
0
41
1
10
26.5272426941854
20
6.38998962195461
30
0
41
1
10
26.5283668493976
20
6.41980538008798
30
0
41
1
10
26.5277049609825
20
6.44124063414063
30
0
41
1
10
26.5240252514486
20
6.55226998987035
30
0
41
1
10
26.5207597661455
20
6.63557276890347
30
0
41
1
10
26.5256658239795
20
6.98753062084779
30
0
41
1
10
26.5641570508305
20
7.25031076894751
30
0
41
1
10
26.6433702979738
20
7.50133338654547
30
0
0
INSERT
5
20B
100
AcDbEntity
8
2
62
256
6
ByLayer
370
25
48
1
60
0
100
AcDbBlockReference
2
DimnDraft3D11
10
0
20
0
30
0
41
1
42
1
43
1
50
0
210
0
220
0
230
1
0
LINE
5
72
100
AcDbEntity
8
1
62
256
6
ByLayer
370
18
48
1
60
0
100
AcDbLine
10
0.3
20
-25
30
0
11
20.920792
21
-25
31
0
39
0
210
0
220
0
230
1
0
LINE
5
74
100
AcDbEntity
8
1
62
256
6
ByLayer
370
18
48
1
60
0
100
AcDbLine
10
0.3
20
25
30
0
11
0
21
24.7
31
0
39
0
210
0
220
0
230
1
0
LINE
5
75
100
AcDbEntity
8
1
62
256
6
ByLayer
370
18
48
1
60
0
100
AcDbLine
10
0
20
-24.7
30
0
11
0.3
21
-25
31
0
39
0
210
0
220
0
230
1
0
LINE
5
76
100
AcDbEntity
8
1
62
256
6
ByLayer
370
18
48
1
60
0
100
AcDbLine
10
20.947351
20
25.099119
30
0
11
20.920792
21
25
31
0
39
0
210
0
220
0
230
1
0
LINE
5
77
100
AcDbEntity
8
1
62
256
6
ByLayer
370
18
48
1
60
0
100
AcDbLine
10
20.920792
20
-25
30
0
11
20.947342
21
-25.099084
31
0
39
0
210
0
220
0
230
1
0
LINE
5
78
100
AcDbEntity
8
1
62
256
6
ByLayer
370
18
48
1
60
0
100
AcDbLine
10
50.81063
20
-8.651456
30
0
11
51.442542
21
-8.651456
31
0
39
0
210
0
220
0
230
1
0
LINE
5
79
100
AcDbEntity
8
1
62
256
6
ByLayer
370
18
48
1
60
0
100
AcDbLine
10
38.35992
20
0.046518
30
0
11
38.030665
21
0.046518
31
0
39
0
210
0
220
0
230
1
0
LINE
5
7A
100
AcDbEntity
8
1
62
256
6
ByLayer
370
18
48
1
60
0
100
AcDbLine
10
38.305
20
2.366634
30
0
11
38.634255
21
2.366634
31
0
39
0
210
0
220
0
230
1
0
LINE
5
7B
100
AcDbEntity
8
1
62
256
6
ByLayer
370
18
48
1
60
0
100
AcDbLine
10
38.013458
20
-2.793424
30
0
11
38.371198
21
-2.793424
31
0
39
0
210
0
220
0
230
1
0
LINE
5
7C
100
AcDbEntity
8
1
62
256
6
ByLayer
370
18
48
1
60
0
100
AcDbLine
10
38.371198
20
5.206576
30
0
11
38.013458
21
5.206576
31
0
39
0
210
0
220
0
230
1
0
LINE
5
7D
100
AcDbEntity
8
1
62
256
6
ByLayer
370
18
48
1
60
0
100
AcDbLine
10
31.768757
20
8.995851
30
0
11
31.025374
21
9.052533
31
0
39
0
210
0
220
0
230
1
0
LINE
5
7E
100
AcDbEntity
8
1
62
256
6
ByLayer
370
18
48
1
60
0
100
AcDbLine
10
26.532306
20
6.931756
30
0
11
25.715465
21
-2.507358
31
0
39
0
210
0
220
0
230
1
0
LINE
5
7F
100
AcDbEntity
8
1
62
256
6
ByLayer
370
18
48
1
60
0
100
AcDbLine
10
20.920792
20
25
30
0
11
0.3
21
25
31
0
39
0
210
0
220
0
230
1
0
LINE
5
80
100
AcDbEntity
8
1
62
256
6
ByLayer
370
18
48
1
60
0
100
AcDbLine
10
25.347346
20
-7.912769
30
0
11
16.838592
21
-9.007826
31
0
39
0
210
0
220
0
230
1
0
LINE
5
81
100
AcDbEntity
8
1
62
256
6
ByLayer
370
18
48
1
60
0
100
AcDbLine
10
9.669435
20
-14.366768
30
0
11
10.169575
21
-14.302401
31
0
39
0
210
0
220
0
230
1
0
LINE
5
82
100
AcDbEntity
8
1
62
256
6
ByLayer
370
18
48
1
60
0
100
AcDbLine
10
16.870542
20
-13.440003
30
0
11
25.908983
21
-12.276777
31
0
39
0
210
0
220
0
230
1
0
LINE
5
83
100
AcDbEntity
8
1
62
256
6
ByLayer
370
18
48
1
60
0
100
AcDbLine
10
26.006659
20
-12.209032
30
0
11
26.205728
21
-11.93762
31
0
39
0
210
0
220
0
230
1
0
LINE
5
84
100
AcDbEntity
8
1
62
256
6
ByLayer
370
18
48
1
60
0
100
AcDbLine
10
25.720296
20
-8.165738
30
0
11
25.458992
21
-7.953575
31
0
39
0
210
0
220
0
230
1
0
LINE
5
85
100
AcDbEntity
8
1
62
256
6
ByLayer
370
18
48
1
60
0
100
AcDbLine
10
30.941913
20
9.05738
30
0
11
29.15677
21
9.128658
31
0
39
0
210
0
220
0
230
1
0
LINE
5
86
100
AcDbEntity
8
1
62
256
6
ByLayer
370
18
48
1
60
0
100
AcDbLine
10
51.442542
20
8.651492
30
0
11
50.81063
21
8.651492
31
0
39
0
210
0
220
0
230
1
0
LINE
5
87
100
AcDbEntity
8
80
62
256
6
ByLayer
370
18
48
1
60
0
100
AcDbLine
10
0
20
0
30
0
11
-5
21
0
31
0
39
0
210
0
220
0
230
1
0
LINE
5
88
100
AcDbEntity
8
4
62
256
6
ByLayer
370
18
48
0.05
60
0
100
AcDbLine
10
0
20
0
30
0
11
60
21
0
31
0
39
0
210
0
220
0
230
1
0
LINE
5
8A
100
AcDbEntity
8
81
62
256
6
ByLayer
370
18
48
1
60
0
100
AcDbLine
10
60
20
0.3288
30
0
11
70
21
0.3288
31
0
39
0
210
0
220
0
230
1
0
LINE
5
8B
100
AcDbEntity
8
SK4
62
256
6
ByLayer
370
18
48
0.05
60
0
100
AcDbLine
10
-35
20
0
30
0
11
60
21
0
31
0
39
0
210
0
220
0
230
1
0
LINE
5
8D
100
AcDbEntity
8
1
62
256
6
ByLayer
370
18
48
1
60
0
100
AcDbLine
10
20.920792
20
25
30
0
11
20.920792
21
24.488619
31
0
39
0
210
0
220
0
230
1
0
LINE
5
8E
100
AcDbEntity
8
1
62
256
6
ByLayer
370
18
48
1
60
0
100
AcDbLine
10
20.920792
20
-24.488619
30
0
11
20.920792
21
-25
31
0
39
0
210
0
220
0
230
1
0
LINE
5
8F
100
AcDbEntity
8
1
62
256
6
ByLayer
370
18
48
1
60
0
100
AcDbLine
10
0.3
20
-25
30
0
11
0.3
21
25
31
0
39
0
210
0
220
0
230
1
0
LINE
5
90
100
AcDbEntity
8
1
62
256
6
ByLayer
370
18
48
1
60
0
100
AcDbLine
10
0
20
-24.7
30
0
11
0
21
24.7
31
0
39
0
210
0
220
0
230
1
0
LINE
5
91
100
AcDbEntity
8
SK1
62
256
6
ByLayer
370
18
48
1
60
0
100
AcDbLine
10
-0.2
20
6.103447
30
0
11
-0.2
21
17.833485
31
0
39
0
210
0
220
0
230
1
0
LINE
5
93
100
AcDbEntity
8
SK1
62
256
6
ByLayer
370
18
48
1
60
0
100
AcDbLine
10
-0.2
20
-17.833485
30
0
11
-0.2
21
-6.103448
31
0
39
0
210
0
220
0
230
1
0
LINE
5
94
100
AcDbEntity
8
1
62
256
6
ByLayer
370
18
48
1
60
0
100
AcDbLine
10
17.44316
20
-15.17784
30
0
11
17.213817
21
-13.39581
31
0
39
0
210
0
220
0
230
1
0
LINE
5
95
100
AcDbEntity
8
1
62
256
6
ByLayer
370
18
48
1
60
0
100
AcDbLine
10
21.415098
20
24.724586
30
0
11
21.415098
21
-8.418722
31
0
39
0
210
0
220
0
230
1
0
LINE
5
96
100
AcDbEntity
8
1
62
256
6
ByLayer
370
18
48
1
60
0
100
AcDbLine
10
21.415098
20
-12.854467
30
0
11
21.415098
21
-24.724586
31
0
39
0
210
0
220
0
230
1
0
LINE
5
97
100
AcDbEntity
8
1
62
256
6
ByLayer
370
18
48
1
60
0
100
AcDbLine
10
46.134607
20
3.835039
30
0
11
46.280667
21
3.982704
31
0
39
0
210
0
220
0
230
1
0
LINE
5
98
100
AcDbEntity
8
1
62
256
6
ByLayer
370
18
48
1
60
0
100
AcDbLine
10
47.881343
20
5.600966
30
0
11
50.854666
21
8.606955
31
0
39
0
210
0
220
0
230
1
0
LINE
5
99
100
AcDbEntity
8
1
62
256
6
ByLayer
370
18
48
1
60
0
100
AcDbLine
10
47.119136
20
-4.828537
30
0
11
50.871866
21
-8.589531
31
0
39
0
210
0
220
0
230
1
0
LINE
5
9A
100
AcDbEntity
8
1
62
256
6
ByLayer
370
18
48
1
60
0
100
AcDbLine
10
32.4729
20
-7.354548
30
0
11
32.630403
21
-5.5345
31
0
39
0
210
0
220
0
230
1
0
LINE
5
9B
100
AcDbEntity
8
1
62
256
6
ByLayer
370
18
48
1
60
0
100
AcDbLine
10
33.871759
20
8.810143
30
0
11
34.024655
21
10.576957
31
0
39
0
210
0
220
0
230
1
0
LINE
5
9C
100
AcDbEntity
8
1
62
256
6
ByLayer
370
18
48
1
60
0
100
AcDbLine
10
47.897456
20
5.593366
30
0
11
48.546476
21
6.249517
31
0
39
0
210
0
220
0
230
1
0
LINE
5
9D
100
AcDbEntity
8
1
62
256
6
ByLayer
370
18
48
1
60
0
100
AcDbLine
10
50.871866
20
-8.589531
30
0
11
50.900432
21
-8.481336
31
0
39
0
210
0
220
0
230
1
0
LINE
5
9E
100
AcDbEntity
8
1
62
256
6
ByLayer
370
18
48
1
60
0
100
AcDbLine
10
48.030314
20
5.530558
30
0
11
50.887375
21
8.419008
31
0
39
0
210
0
220
0
230
1
0
LINE
5
9F
100
AcDbEntity
8
1
62
256
6
ByLayer
370
18
48
1
60
0
100
AcDbLine
10
50.887375
20
-8.418972
30
0
11
47.289999
21
-4.782074
31
0
39
0
210
0
220
0
230
1
0
LINE
5
A0
100
AcDbEntity
8
1
62
256
6
ByLayer
370
18
48
1
60
0
100
AcDbLine
10
50.833603
20
-8.418972
30
0
11
50.887375
21
-8.418972
31
0
39
0
210
0
220
0
230
1
0
LINE
5
A1
100
AcDbEntity
8
1
62
256
6
ByLayer
370
18
48
1
60
0
100
AcDbLine
10
50.8212
20
8.419008
30
0
11
50.887375
21
8.419008
31
0
39
0
210
0
220
0
230
1
0
LINE
5
A2
100
AcDbEntity
8
1
62
256
6
ByLayer
370
18
48
1
60
0
100
AcDbLine
10
37.454954
20
5.485089
30
0
11
39.228352
21
5.327822
31
0
39
0
210
0
220
0
230
1
0
LINE
5
A3
100
AcDbEntity
8
1
62
256
6
ByLayer
370
18
48
1
60
0
100
AcDbLine
10
54.02238
20
-2.262558
30
0
11
53.576662
21
-2.586398
31
0
39
0
210
0
220
0
230
1
0
LINE
5
A4
100
AcDbEntity
8
1
62
256
6
ByLayer
370
18
48
1
60
0
100
AcDbLine
10
50.291525
20
-3.540253
30
0
11
49.520713
21
-3.749141
31
0
39
0
210
0
220
0
230
1
0
LINE
5
A5
100
AcDbEntity
8
1
62
256
6
ByLayer
370
18
48
1
60
0
100
AcDbLine
10
50.1999
20
4.099297
30
0
11
50.923123
21
3.758261
31
0
39
0
210
0
220
0
230
1
0
LINE
5
A6
100
AcDbEntity
8
1
62
256
6
ByLayer
370
18
48
1
60
0
100
AcDbLine
10
54.380342
20
1.873912
30
0
11
53.995113
21
2.249067
31
0
39
0
210
0
220
0
230
1
0
LINE
5
A7
100
AcDbEntity
8
1
62
256
6
ByLayer
370
18
48
1
60
0
100
AcDbLine
10
50.291543
20
-3.540247
30
0
11
49.105391
21
-3.895461
31
0
39
0
210
0
220
0
230
1
0
LINE
5
A8
100
AcDbEntity
8
1
62
256
6
ByLayer
370
18
48
1
60
0
100
AcDbLine
10
52.8847
20
-3.216003
30
0
11
52.692148
21
-2.871289
31
0
39
0
210
0
220
0
230
1
0
LINE
5
A9
100
AcDbEntity
8
1
62
256
6
ByLayer
370
18
48
1
60
0
100
AcDbLine
10
53.422772
20
3.001758
30
0
11
53.172546
21
2.680012
31
0
39
0
210
0
220
0
230
1
0
LINE
5
AA
100
AcDbEntity
8
1
62
256
6
ByLayer
370
18
48
1
60
0
100
AcDbLine
10
50.92314
20
3.758252
30
0
11
49.81602
21
4.316306
31
0
39
0
210
0
220
0
230
1
0
LINE
5
AB
100
AcDbEntity
8
1
62
256
6
ByLayer
370
18
48
1
60
0
100
AcDbLine
10
17.430319
20
-18.080611
30
0
11
17.430319
21
-23.455355
31
0
39
0
210
0
220
0
230
1
0
LINE
5
AC
100
AcDbEntity
8
1
62
256
6
ByLayer
370
18
48
1
60
0
100
AcDbLine
10
11.461325
20
7.529667
30
0
11
11.461325
21
23.83913
31
0
39
0
210
0
220
0
230
1
0
LINE
5
AD
100
AcDbEntity
8
1
62
256
6
ByLayer
370
18
48
1
60
0
100
AcDbLine
10
27.381748
20
22.083437
30
0
11
49.243929
21
10.235389
31
0
39
0
210
0
220
0
230
1
0
LINE
5
AE
100
AcDbEntity
8
1
62
256
6
ByLayer
370
18
48
1
60
0
100
AcDbLine
10
17.469677
20
-8.825782
30
0
11
17.430319
21
-8.830847
31
0
39
0
210
0
220
0
230
1
0
LINE
5
AF
100
AcDbEntity
8
1
62
256
6
ByLayer
370
18
48
1
60
0
100
AcDbLine
10
49.243929
20
-10.235353
30
0
11
50.871866
21
-8.589531
31
0
39
0
210
0
220
0
230
1
0
LINE
5
B0
100
AcDbEntity
8
1
62
256
6
ByLayer
370
18
48
1
60
0
100
AcDbLine
10
17.430319
20
-8.830847
30
0
11
16.837991
21
-8.907078
31
0
39
0
210
0
220
0
230
1
0
LINE
5
B1
100
AcDbEntity
8
1
62
256
6
ByLayer
370
18
48
1
60
0
100
AcDbLine
10
22.400523
20
-24.724586
30
0
11
21.415098
21
-24.724586
31
0
39
0
210
0
220
0
230
1
0
LINE
5
B2
100
AcDbEntity
8
1
62
256
6
ByLayer
370
18
48
1
60
0
100
AcDbLine
10
34.024655
20
10.576957
30
0
11
33.292623
21
10.633298
31
0
39
0
210
0
220
0
230
1
0
LINE
5
B3
100
AcDbEntity
8
1
62
256
6
ByLayer
370
18
48
1
60
0
100
AcDbLine
10
11.894338
20
8.055848
30
0
11
11.894338
21
23.666502
31
0
39
0
210
0
220
0
230
1
0
LINE
5
B4
100
AcDbEntity
8
1
62
256
6
ByLayer
370
18
48
1
60
0
100
AcDbLine
10
8.538675
20
-13.690625
30
0
11
8.538675
21
-7.529667
31
0
39
0
210
0
220
0
230
1
0
LINE
5
B5
100
AcDbEntity
8
1
62
256
6
ByLayer
370
18
48
1
60
0
100
AcDbLine
10
8.538675
20
-23.83913
30
0
11
11.461325
21
-23.83913
31
0
39
0
210
0
220
0
230
1
0
LINE
5
B6
100
AcDbEntity
8
1
62
256
6
ByLayer
370
18
48
1
60
0
100
AcDbLine
10
27.381748
20
-10.319937
30
0
11
27.381748
21
-22.083401
31
0
39
0
210
0
220
0
230
1
0
LINE
5
B7
100
AcDbEntity
8
1
62
256
6
ByLayer
370
18
48
1
60
0
100
AcDbLine
10
16.964778
20
-18.936141
30
0
11
17.053157
21
-21.377026
31
0
39
0
210
0
220
0
230
1
0
LINE
5
B8
100
AcDbEntity
8
1
62
256
6
ByLayer
370
18
48
1
60
0
100
AcDbLine
10
11.461325
20
-13.690625
30
0
11
11.461325
21
-7.529667
31
0
39
0
210
0
220
0
230
1
0
LINE
5
B9
100
AcDbEntity
8
1
62
256
6
ByLayer
370
18
48
1
60
0
100
AcDbLine
10
24.522434
20
8.855604
30
0
11
23.523169
21
-4.127594
31
0
39
0
210
0
220
0
230
1
0
LINE
5
BA
100
AcDbEntity
8
1
62
256
6
ByLayer
370
18
48
1
60
0
100
AcDbLine
10
27.381748
20
22.083437
30
0
11
27.381748
21
13.594487
31
0
39
0
210
0
220
0
230
1
0
LINE
5
BB
100
AcDbEntity
8
1
62
256
6
ByLayer
370
18
48
1
60
0
100
AcDbLine
10
8.105662
20
-14.368241
30
0
11
8.105662
21
-8.055848
31
0
39
0
210
0
220
0
230
1
0
LINE
5
BC
100
AcDbEntity
8
1
62
256
6
ByLayer
370
18
48
1
60
0
100
AcDbLine
10
8.538675
20
-23.83913
30
0
11
8.538675
21
-15.626418
31
0
39
0
210
0
220
0
230
1
0
LINE
5
BD
100
AcDbEntity
8
1
62
256
6
ByLayer
370
18
48
1
60
0
100
AcDbLine
10
17.430319
20
23.455355
30
0
11
17.430319
21
-8.830847
31
0
39
0
210
0
220
0
230
1
0
LINE
5
BE
100
AcDbEntity
8
1
62
256
6
ByLayer
370
18
48
1
60
0
100
AcDbLine
10
8.538675
20
7.529667
30
0
11
8.538675
21
23.83913
31
0
39
0
210
0
220
0
230
1
0
LINE
5
BF
100
AcDbEntity
8
1
62
256
6
ByLayer
370
18
48
1
60
0
100
AcDbLine
10
11.461325
20
-7.529667
30
0
11
8.538675
21
-7.529667
31
0
39
0
210
0
220
0
230
1
0
LINE
5
C0
100
AcDbEntity
8
1
62
256
6
ByLayer
370
18
48
1
60
0
100
AcDbLine
10
11.894338
20
-14.368241
30
0
11
11.894338
21
-8.055848
31
0
39
0
210
0
220
0
230
1
0
LINE
5
C1
100
AcDbEntity
8
1
62
256
6
ByLayer
370
18
48
1
60
0
100
AcDbLine
10
21.415098
20
24.724586
30
0
11
22.40059
21
24.724586
31
0
39
0
210
0
220
0
230
1
0
LINE
5
C2
100
AcDbEntity
8
1
62
256
6
ByLayer
370
18
48
1
60
0
100
AcDbLine
10
50.886785
20
8.485299
30
0
11
49.16138
21
6.740937
31
0
39
0
210
0
220
0
230
1
0
LINE
5
C3
100
AcDbEntity
8
1
62
256
6
ByLayer
370
18
48
1
60
0
100
AcDbLine
10
50.854666
20
8.606955
30
0
11
49.243929
21
10.235389
31
0
39
0
210
0
220
0
230
1
0
LINE
5
C4
100
AcDbEntity
8
1
62
256
6
ByLayer
370
18
48
1
60
0
100
AcDbLine
10
49.243929
20
-10.235353
30
0
11
27.381748
21
-22.083401
31
0
39
0
210
0
220
0
230
1
0
LINE
5
C5
100
AcDbEntity
8
1
62
256
6
ByLayer
370
18
48
1
60
0
100
AcDbLine
10
50.854666
20
8.606955
30
0
11
50.886785
21
8.485299
31
0
39
0
210
0
220
0
230
1
0
LINE
5
C6
100
AcDbEntity
8
1
62
256
6
ByLayer
370
18
48
1
60
0
100
AcDbLine
10
8.105662
20
8.055848
30
0
11
8.105662
21
23.666502
31
0
39
0
210
0
220
0
230
1
0
LINE
5
C7
100
AcDbEntity
8
1
62
256
6
ByLayer
370
18
48
1
60
0
100
AcDbLine
10
32.4729
20
-7.354548
30
0
11
31.740868
21
-7.298206
31
0
39
0
210
0
220
0
230
1
0
LINE
5
C8
100
AcDbEntity
8
1
62
256
6
ByLayer
370
18
48
1
60
0
100
AcDbLine
10
11.461325
20
-23.83913
30
0
11
11.461325
21
-15.626418
31
0
39
0
210
0
220
0
230
1
0
LINE
5
C9
100
AcDbEntity
8
1
62
256
6
ByLayer
370
18
48
1
60
0
100
AcDbLine
10
8.105662
20
-23.666502
30
0
11
8.105662
21
-15.277633
31
0
39
0
210
0
220
0
230
1
0
LINE
5
CA
100
AcDbEntity
8
1
62
256
6
ByLayer
370
18
48
1
60
0
100
AcDbLine
10
27.381748
20
22.083437
30
0
11
22.40059
21
24.724586
31
0
39
0
210
0
220
0
230
1
0
LINE
5
CB
100
AcDbEntity
8
1
62
256
6
ByLayer
370
18
48
1
60
0
100
AcDbLine
10
8.538675
20
7.529667
30
0
11
11.461325
21
7.529667
31
0
39
0
210
0
220
0
230
1
0
LINE
5
CC
100
AcDbEntity
8
1
62
256
6
ByLayer
370
18
48
1
60
0
100
AcDbLine
10
11.894338
20
-23.666502
30
0
11
11.894338
21
-15.277633
31
0
39
0
210
0
220
0
230
1
0
LINE
5
CD
100
AcDbEntity
8
1
62
256
6
ByLayer
370
18
48
1
60
0
100
AcDbLine
10
22.400523
20
-24.724586
30
0
11
27.381748
21
-22.083401
31
0
39
0
210
0
220
0
230
1
0
LINE
5
CE
100
AcDbEntity
8
1
62
256
6
ByLayer
370
18
48
1
60
0
100
AcDbLine
10
11.461325
20
23.83913
30
0
11
8.538675
21
23.83913
31
0
39
0
210
0
220
0
230
1
0
LINE
5
CF
100
AcDbEntity
8
SK1
62
256
6
ByLayer
370
18
48
1
60
0
100
AcDbLine
10
-1.307107
20
-3.918065
30
0
11
-1.307107
21
3.918065
31
0
39
0
210
0
220
0
230
1
0
LINE
5
D0
100
AcDbEntity
8
1
62
256
6
ByLayer
370
18
48
1
60
0
100
AcDbLine
10
59.770042
20
-0.561248
30
0
11
51.997709
21
-8.418972
31
0
39
0
210
0
220
0
230
1
0
LINE
5
D1
100
AcDbEntity
8
1
62
256
6
ByLayer
370
18
48
1
60
0
100
AcDbLine
10
39.429282
20
0.718024
30
0
11
39.760086
21
0.718024
31
0
39
0
210
0
220
0
230
1
0
LINE
5
D2
100
AcDbEntity
8
1
62
256
6
ByLayer
370
18
48
1
60
0
100
AcDbLine
10
37.955608
20
2.555301
30
0
11
38.286412
21
2.555301
31
0
39
0
210
0
220
0
230
1
0
LINE
5
D3
100
AcDbEntity
8
1
62
256
6
ByLayer
370
18
48
1
60
0
100
AcDbLine
10
39.053373
20
0.175273
30
0
11
39.384177
21
0.175273
31
0
39
0
210
0
220
0
230
1
0
LINE
5
D4
100
AcDbEntity
8
1
62
256
6
ByLayer
370
18
48
1
60
0
100
AcDbLine
10
37.727174
20
-0.084402
30
0
11
38.057978
21
-0.084402
31
0
39
0
210
0
220
0
230
1
0
LINE
5
D5
100
AcDbEntity
8
1
62
256
6
ByLayer
370
18
48
1
60
0
100
AcDbLine
10
39.494032
20
1.466251
30
0
11
39.824836
21
1.466251
31
0
39
0
210
0
220
0
230
1
0
LINE
5
D6
100
AcDbEntity
8
1
62
256
6
ByLayer
370
18
48
1
60
0
100
AcDbLine
10
39.217058
20
2.06675
30
0
11
39.547862
21
2.06675
31
0
39
0
210
0
220
0
230
1
0
LINE
5
D7
100
AcDbEntity
8
1
62
256
6
ByLayer
370
18
48
1
60
0
100
AcDbLine
10
30.766298
20
-2.270248
30
0
11
27.468018
21
-2.018756
31
0
39
0
210
0
220
0
230
1
0
LINE
5
D8
100
AcDbEntity
8
1
62
256
6
ByLayer
370
18
48
1
60
0
100
AcDbLine
10
30.595929
20
-5.314875
30
0
11
29.830412
21
-5.256505
31
0
39
0
210
0
220
0
230
1
0
LINE
5
D9
100
AcDbEntity
8
1
62
256
6
ByLayer
370
18
48
1
60
0
100
AcDbLine
10
31.238774
20
8.323285
30
0
11
40.738459
21
7.483039
31
0
39
0
210
0
220
0
230
1
0
LINE
5
DA
100
AcDbEntity
8
1
62
256
6
ByLayer
370
18
48
1
60
0
100
AcDbLine
10
25.805503
20
-1.952374
30
0
11
26.526207
21
6.375814
31
0
39
0
210
0
220
0
230
1
0
LINE
5
DB
100
AcDbEntity
8
1
62
256
6
ByLayer
370
18
48
1
60
0
100
AcDbLine
10
30.766298
20
-2.270248
30
0
11
30.902507
21
-0.696261
31
0
39
0
210
0
220
0
230
1
0
LINE
5
DC
100
AcDbEntity
8
1
62
256
6
ByLayer
370
18
48
1
60
0
100
AcDbLine
10
26.526207
20
6.375814
30
0
11
28.188722
21
6.309432
31
0
39
0
210
0
220
0
230
1
0
LINE
5
DD
100
AcDbEntity
8
1
62
256
6
ByLayer
370
18
48
1
60
0
100
AcDbLine
10
39.794077
20
5.305233
30
0
11
39.228352
21
5.327822
31
0
39
0
210
0
220
0
230
1
0
LINE
5
DE
100
AcDbEntity
8
1
62
256
6
ByLayer
370
18
48
1
60
0
100
AcDbLine
10
30.128925
20
-4.50172
30
0
11
39.62861
21
-5.341966
31
0
39
0
210
0
220
0
230
1
0
LINE
5
DF
100
AcDbEntity
8
1
62
256
6
ByLayer
370
18
48
1
60
0
100
AcDbLine
10
39.078545
20
-2.963183
30
0
11
37.054518
21
-2.784158
31
0
39
0
210
0
220
0
230
1
0
LINE
5
E0
100
AcDbEntity
8
1
62
256
6
ByLayer
370
18
48
1
60
0
100
AcDbLine
10
39.907213
20
-6.140305
30
0
11
41.597311
21
-6.324895
31
0
39
0
210
0
220
0
230
1
0
LINE
5
E1
100
AcDbEntity
8
1
62
256
6
ByLayer
370
18
48
1
60
0
100
AcDbLine
10
48.451287
20
5.332224
30
0
11
42.835266
21
7.980461
31
0
39
0
210
0
220
0
230
1
0
LINE
5
E2
100
AcDbEntity
8
1
62
256
6
ByLayer
370
18
48
1
60
0
100
AcDbLine
10
37.770049
20
5.484258
30
0
11
39.794077
21
5.305233
31
0
39
0
210
0
220
0
230
1
0
LINE
5
E3
100
AcDbEntity
8
1
62
256
6
ByLayer
370
18
48
1
60
0
100
AcDbLine
10
30.480287
20
-5.374882
30
0
11
32.827157
21
-5.549177
31
0
39
0
210
0
220
0
230
1
0
LINE
5
E4
100
AcDbEntity
8
1
62
256
6
ByLayer
370
18
48
1
60
0
100
AcDbLine
10
28.084262
20
-5.186783
30
0
11
29.830412
21
-5.256505
31
0
39
0
210
0
220
0
230
1
0
LINE
5
E5
100
AcDbEntity
8
1
62
256
6
ByLayer
370
18
48
1
60
0
100
AcDbLine
10
49.714789
20
4.294021
30
0
11
49.739307
21
4.286095
31
0
39
0
210
0
220
0
230
1
0
LINE
5
E6
100
AcDbEntity
8
1
62
256
6
ByLayer
370
18
48
1
60
0
100
AcDbLine
10
32.827157
20
-5.549177
30
0
11
41.597311
21
-6.324895
31
0
39
0
210
0
220
0
230
1
0
LINE
5
E7
100
AcDbEntity
8
1
62
256
6
ByLayer
370
18
48
1
60
0
100
AcDbLine
10
27.468018
20
-2.018756
30
0
11
28.188722
21
6.309432
31
0
39
0
210
0
220
0
230
1
0
LINE
5
E8
100
AcDbEntity
8
1
62
256
6
ByLayer
370
18
48
1
60
0
100
AcDbLine
10
30.265403
20
4.566712
30
0
11
31.350792
21
4.483952
31
0
39
0
210
0
220
0
230
1
0
LINE
5
E9
100
AcDbEntity
8
1
62
256
6
ByLayer
370
18
48
1
60
0
100
AcDbLine
10
37.770049
20
5.484258
30
0
11
37.213914
21
5.506464
31
0
39
0
210
0
220
0
230
1
0
LINE
5
EA
100
AcDbEntity
8
1
62
256
6
ByLayer
370
18
48
1
60
0
100
AcDbLine
10
31.833884
20
8.990481
30
0
11
40.508474
21
8.223215
31
0
39
0
210
0
220
0
230
1
0
LINE
5
EB
100
AcDbEntity
8
1
62
256
6
ByLayer
370
18
48
1
60
0
100
AcDbLine
10
30.265403
20
4.566712
30
0
11
29.817118
21
-0.6135
31
0
39
0
210
0
220
0
230
1
0
LINE
5
EC
100
AcDbEntity
8
1
62
256
6
ByLayer
370
18
48
1
60
0
100
AcDbLine
10
48.750017
20
4.748959
30
0
11
49.714789
21
4.294021
31
0
39
0
210
0
220
0
230
1
0
LINE
5
ED
100
AcDbEntity
8
1
62
256
6
ByLayer
370
18
48
1
60
0
100
AcDbLine
10
25.805503
20
-1.952374
30
0
11
27.468018
21
-2.018756
31
0
39
0
210
0
220
0
230
1
0
LINE
5
EE
100
AcDbEntity
8
1
62
256
6
ByLayer
370
18
48
1
60
0
100
AcDbLine
10
49.009861
20
-3.851871
30
0
11
47.981605
21
-4.130526
31
0
39
0
210
0
220
0
230
1
0
LINE
5
EF
100
AcDbEntity
8
1
62
256
6
ByLayer
370
18
48
1
60
0
100
AcDbLine
10
49.035332
20
-3.848783
30
0
11
49.009861
21
-3.851871
31
0
39
0
210
0
220
0
230
1
0
LINE
5
F0
100
AcDbEntity
8
1
62
256
6
ByLayer
370
18
48
1
60
0
100
AcDbLine
10
41.597311
20
-6.324895
30
0
11
47.582875
21
-4.702818
31
0
39
0
210
0
220
0
230
1
0
LINE
5
F1
100
AcDbEntity
8
1
62
256
6
ByLayer
370
18
48
1
60
0
100
AcDbLine
10
29.817118
20
-0.6135
30
0
11
30.902507
21
-0.696261
31
0
39
0
210
0
220
0
230
1
0
LINE
5
F2
100
AcDbEntity
8
1
62
256
6
ByLayer
370
18
48
1
60
0
100
AcDbLine
10
31.350792
20
4.483952
30
0
11
31.487002
21
6.057939
31
0
39
0
210
0
220
0
230
1
0
LINE
5
F3
100
AcDbEntity
8
1
62
256
6
ByLayer
370
18
48
1
60
0
100
AcDbLine
10
39.270518
20
-6.082141
30
0
11
30.595929
21
-5.314875
31
0
39
0
210
0
220
0
230
1
0
LINE
5
F4
100
AcDbEntity
8
1
62
256
6
ByLayer
370
18
48
1
60
0
100
AcDbLine
10
41.145169
20
8.165051
30
0
11
42.835266
21
7.980461
31
0
39
0
210
0
220
0
230
1
0
LINE
5
F5
100
AcDbEntity
8
1
62
256
6
ByLayer
370
18
48
1
60
0
100
AcDbLine
10
31.487002
20
6.057939
30
0
11
28.188722
21
6.309432
31
0
39
0
210
0
220
0
230
1
0
LINE
5
F6
100
AcDbEntity
8
1
62
256
6
ByLayer
370
18
48
1
60
0
100
AcDbLine
10
50.037618
20
-4.187049
30
0
11
49.903512
21
-4.108772
31
0
39
0
210
0
220
0
230
1
0
LINE
5
F7
100
AcDbEntity
8
1
62
256
6
ByLayer
370
18
48
1
60
0
100
AcDbLine
10
54.30863
20
3.055866
30
0
11
54.259313
21
3.844839
31
0
39
0
210
0
220
0
230
1
0
LINE
5
F8
100
AcDbEntity
8
1
62
256
6
ByLayer
370
18
48
1
60
0
100
AcDbLine
10
48.722427
20
-4.763122
30
0
11
49.260183
21
-5.077007
31
0
39
0
210
0
220
0
230
1
0
LINE
5
F9
100
AcDbEntity
8
1
62
256
6
ByLayer
370
18
48
1
60
0
100
AcDbLine
10
50.785732
20
4.457874
30
0
11
50.165374
21
5.383037
31
0
39
0
210
0
220
0
230
1
0
LINE
5
FA
100
AcDbEntity
8
1
62
256
6
ByLayer
370
18
48
1
60
0
100
AcDbLine
10
51.88454
20
5.230977
30
0
11
50.165374
21
5.383037
31
0
39
0
210
0
220
0
230
1
0
LINE
5
FB
100
AcDbEntity
8
1
62
256
6
ByLayer
370
18
48
1
60
0
100
AcDbLine
10
54.259313
20
3.844839
30
0
11
51.88454
21
5.230977
31
0
39
0
210
0
220
0
230
1
0
LINE
5
FC
100
AcDbEntity
8
1
62
256
6
ByLayer
370
18
48
1
60
0
100
AcDbLine
10
50.640218
20
4.40433
30
0
11
53.422772
21
3.001758
31
0
39
0
210
0
220
0
230
1
0
LINE
5
FD
100
AcDbEntity
8
1
62
256
6
ByLayer
370
18
48
1
60
0
100
AcDbLine
10
55.32835
20
1.578975
30
0
11
55.888528
21
2.197725
31
0
39
0
210
0
220
0
230
1
0
LINE
5
FE
100
AcDbEntity
8
1
62
256
6
ByLayer
370
18
48
1
60
0
100
AcDbLine
10
49.601204
20
-4.033641
30
0
11
49.903512
21
-4.108772
31
0
39
0
210
0
220
0
230
1
0
LINE
5
FF
100
AcDbEntity
8
1
62
256
6
ByLayer
370
18
48
1
60
0
100
AcDbLine
10
54.588678
20
2.8742
30
0
11
55.32835
21
1.578975
31
0
39
0
210
0
220
0
230
1
0
LINE
5
100
100
AcDbEntity
8
1
62
256
6
ByLayer
370
18
48
1
60
0
100
AcDbLine
10
50.329025
20
4.376794
30
0
11
49.581873
21
5.168327
31
0
39
0
210
0
220
0
230
1
0
LINE
5
101
100
AcDbEntity
8
1
62
256
6
ByLayer
370
18
48
1
60
0
100
AcDbLine
10
53.747807
20
-3.424807
30
0
11
53.556129
21
-4.280892
31
0
39
0
210
0
220
0
230
1
0
LINE
5
102
100
AcDbEntity
8
1
62
256
6
ByLayer
370
18
48
1
60
0
100
AcDbLine
10
49.903512
20
-4.108772
30
0
11
52.8847
21
-3.216003
31
0
39
0
210
0
220
0
230
1
0
LINE
5
103
100
AcDbEntity
8
1
62
256
6
ByLayer
370
18
48
1
60
0
100
AcDbLine
10
53.747807
20
-3.424807
30
0
11
51.358755
21
-4.303904
31
0
39
0
210
0
220
0
230
1
0
LINE
5
104
100
AcDbEntity
8
1
62
256
6
ByLayer
370
18
48
1
60
0
100
AcDbLine
10
51.358755
20
-4.303904
30
0
11
50.037618
21
-4.187049
31
0
39
0
210
0
220
0
230
1
0
LINE
5
105
100
AcDbEntity
8
1
62
256
6
ByLayer
370
18
48
1
60
0
100
AcDbLine
10
50.640218
20
4.40433
30
0
11
50.329025
21
4.376794
31
0
39
0
210
0
220
0
230
1
0
LINE
5
106
100
AcDbEntity
8
1
62
256
6
ByLayer
370
18
48
1
60
0
100
AcDbLine
10
50.785732
20
4.457874
30
0
11
50.640218
21
4.40433
31
0
39
0
210
0
220
0
230
1
0
LINE
5
107
100
AcDbEntity
8
1
62
256
6
ByLayer
370
18
48
1
60
0
100
AcDbLine
10
49.581873
20
5.168327
30
0
11
50.165374
21
5.383037
31
0
39
0
210
0
220
0
230
1
0
LINE
5
108
100
AcDbEntity
8
1
62
256
6
ByLayer
370
18
48
1
60
0
100
AcDbLine
10
53.556129
20
-4.280892
30
0
11
50.97935
21
-5.229067
31
0
39
0
210
0
220
0
230
1
0
LINE
5
109
100
AcDbEntity
8
1
62
256
6
ByLayer
370
18
48
1
60
0
100
AcDbLine
10
54.054802
20
-3.295065
30
0
11
55.005707
21
-2.149371
31
0
39
0
210
0
220
0
230
1
0
LINE
5
10A
100
AcDbEntity
8
1
62
256
6
ByLayer
370
18
48
1
60
0
100
AcDbLine
10
55.005707
20
-2.149371
30
0
11
55.443502
21
-2.94482
31
0
39
0
210
0
220
0
230
1
0
LINE
5
10B
100
AcDbEntity
8
1
62
256
6
ByLayer
370
18
48
1
60
0
100
AcDbLine
10
51.358755
20
-4.303904
30
0
11
50.97935
21
-5.229067
31
0
39
0
210
0
220
0
230
1
0
LINE
5
10C
100
AcDbEntity
8
1
62
256
6
ByLayer
370
18
48
1
60
0
100
AcDbLine
10
49.601204
20
-4.033641
30
0
11
48.722427
21
-4.763122
31
0
39
0
210
0
220
0
230
1
0
LINE
5
10D
100
AcDbEntity
8
1
62
256
6
ByLayer
370
18
48
1
60
0
100
AcDbLine
10
49.260183
20
-5.077007
30
0
11
50.037618
21
-4.187049
31
0
39
0
210
0
220
0
230
1
0
LINE
5
10E
100
AcDbEntity
8
1
62
256
6
ByLayer
370
18
48
1
60
0
100
AcDbLine
10
52.106869
20
4.34102
30
0
11
50.785732
21
4.457874
31
0
39
0
210
0
220
0
230
1
0
LINE
5
10F
100
AcDbEntity
8
1
62
256
6
ByLayer
370
18
48
1
60
0
100
AcDbLine
10
52.106869
20
4.34102
30
0
11
51.88454
21
5.230977
31
0
39
0
210
0
220
0
230
1
0
LINE
5
110
100
AcDbEntity
8
1
62
256
6
ByLayer
370
18
48
1
60
0
100
AcDbLine
10
50.97935
20
-5.229067
30
0
11
49.260183
21
-5.077007
31
0
39
0
210
0
220
0
230
1
0
LINE
5
111
100
AcDbEntity
8
1
62
256
6
ByLayer
370
18
48
1
60
0
100
AcDbLine
10
54.30863
20
3.055866
30
0
11
52.106869
21
4.34102
31
0
39
0
210
0
220
0
230
1
0
LINE
5
112
100
AcDbEntity
8
1
62
256
6
ByLayer
370
18
48
1
60
0
100
AcDbLine
10
51.997709
20
8.419008
30
0
11
59.770042
21
0.561284
31
0
39
0
210
0
220
0
230
1
0
MTEXT
5
1FA
100
AcDbEntity
8
SK6
62
256
6
ByLayer
370
18
48
1
60
0
100
AcDbMText
10
-6.625
20
-23.664359
30
0
210
0
220
0
230
1
1
\W0.7277;C5-CSDNN-00060-12-4
40
3.5
41
0
44
1.084337
50
0
71
7
72
5
7
iso_b_vert
0
DIMENSION
5
219
100
AcDbEntity
8
2
62
256
6
ByLayer
370
13
48
1
60
0
100
AcDbDimension
2
DimnDraft3D2
10
54.492113
20
5.897199
30
0
11
50.322748
21
23.873455
31
0
70
34
71
5
72
1
41
1
210
0
220
0
230
1
3
Standard
100
AcDb2LineAngularDimension
13
60
23
0.3288
33
0
14
60
24
-1.2587
34
0
15
60
25
0.3288
35
0
16
52.033461
26
19.711309
36
0
40
0
0
DIMENSION
5
22F
100
AcDbEntity
8
SK2
62
256
6
ByLayer
370
13
48
1
60
0
100
AcDbDimension
2
DimnDraft3D3
10
-37.75
20
25
30
0
11
-37.75
21
-2.688158
31
0
70
32
71
5
72
1
41
1
210
0
220
0
230
1
3
Standard
100
AcDbAlignedDimension
13
-2
23
-25
33
0
14
-2
24
25
34
0
50
90
100
AcDbRotatedDimension
1001
ACAD
1000
DSTYLE
1002
{
1070
    74
1070
     0
1070
   279
1070
     0
1070
   172
1070
     1
1070
   173
1070
     1
1070
   340
1005
1FB
1070
    77
1070
     1
1070
    73
1070
     0
1070
   171
1070
     3
1070
   274
1070
     4
1070
   177
1070
     2
1070
   176
1070
     2
1070
   178
1070
     7
1070
    78
1070
     8
1070
    41
1041
3.175
1070
   147
1041
2.25
1070
    42
1041
2.0
1070
    44
1041
2.0
1070
   140
1041
4.5
1070
   343
1005
21A
1070
   344
1005
21A
1002
}
0
DIMENSION
5
23D
100
AcDbEntity
8
2
62
256
6
ByLayer
370
13
48
1
60
0
100
AcDbDimension
2
DimnDraft3D4
10
82.25
20
0.3288
30
0
11
82.25
21
10.5838
31
0
70
32
71
5
72
1
41
1
210
0
220
0
230
1
3
Standard
100
AcDbAlignedDimension
13
62
23
0
33
0
14
62
24
0.3288
34
0
50
90
100
AcDbRotatedDimension
1001
ACAD
1000
DSTYLE
1002
{
1070
    74
1070
     0
1070
   279
1070
     0
1070
   172
1070
     1
1070
   173
1070
     1
1070
   340
1005
1FB
1070
    77
1070
     1
1070
    73
1070
     0
1070
   171
1070
     3
1070
   274
1070
     4
1070
   177
1070
     2
1070
   176
1070
     2
1070
   178
1070
     7
1070
    78
1070
     8
1070
    41
1041
3.175
1070
   147
1041
2.25
1070
    42
1041
2.0
1070
    44
1041
2.0
1070
   140
1041
4.5
1070
   343
1005
21A
1070
   344
1005
21A
1002
}
0
ENDSEC
0
SECTION
2
OBJECTS
0
DICTIONARY
5
2a8
330
0
100
AcDbDictionary
280
0
281
1
3
ACAD_GROUP
350
2a9
3
ACAD_MLINESTYLE
350
2aa
0
DICTIONARY
5
2a9
330
0
100
AcDbDictionary
280
0
281
1
0
DICTIONARY
5
2aa
330
0
100
AcDbDictionary
280
0
281
1
3
Standard
350
18
0
MLINESTYLE
5
18
330
2aa
100
AcDbMlineStyle
2
Standard
70
0
3

62
256
51
90
52
90
71
2
49
-0.5
62
256
6
ByLayer
49
0.5
62
256
6
ByLayer
0
RASTERVARIABLES
5
296
330

100
AcDbRasterVariables
90
0
70
1
71
1
72
1
0
ENDSEC
0
EOF
