0
SECTION
2
HEADER
9
$ACADVER
1
AC1015
9
$DWGCODEPAGE
3
ANSI_1252
9
$HANDSEED
5
200
9
$ANGBASE
50
0
9
$ANGDIR
70
0
9
$ATTMODE
70
1
9
$AUNITS
70
0
9
$AUPREC
70
0
9
$CECOLOR
62
256
9
$CELTSCALE
40
1
9
$CELTYPE
6
ByLayer
9
$CELWEIGHT
370
18
9
$CLAYER
8
0
9
$CMLJUST
70
0
9
$CMLSCALE
40
1
9
$CMLSTYLE
2
Standard
9
$DIMSTYLE
2
Standard
9
$TEXTSIZE
40
0.2
9
$TEXTSTYLE
7
Standard
9
$LUNITS
70
2
9
$LUPREC
70
4
9
$EXTNAMES
290
1
9
$INSUNITS
70
4
9
$LTSCALE
40
1
9
$LWDISPLAY
290
1
9
$PDMODE
70
0
9
$PDSIZE
40
0
9
$PLINEGEN
70
0
0
ENDSEC
0
SECTION
2
CLASSES
0
CLASS
1
RASTERVARIABLES
2
AcDbRasterVariables
3
ISM
90
0
280
0
281
0
0
ENDSEC
0
SECTION
2
TABLES
0
TABLE
2
VPORT
5
1f6
100
AcDbSymbolTable
0
VPORT
5
1
100
AcDbSymbolTableRecord
100
AcDbViewportTableRecord
2
*Active
70
0
10
0
20
0
11
1
21
1
12
-1
22
1
13
0
23
0
14
0.5
24
0.5
15
10
25
10
16
0
26
0
36
1
17
0
27
0
37
0
0
ENDTAB
0
TABLE
2
LTYPE
5
1f7
100
AcDbSymbolTable
0
LTYPE
5
14
100
AcDbSymbolTableRecord
100
AcDbLinetypeTableRecord
70
0
2
ByBlock
3

72
65
73
0
40
0
0
LTYPE
5
15
100
AcDbSymbolTableRecord
100
AcDbLinetypeTableRecord
70
0
2
ByLayer
3

72
65
73
0
40
0
0
LTYPE
5
16
100
AcDbSymbolTableRecord
100
AcDbLinetypeTableRecord
70
0
2
CONTINUOUS
3
Solid line
72
65
73
0
40
0
0
LTYPE
5
6A
100
AcDbSymbolTableRecord
100
AcDbLinetypeTableRecord
70
0
2
CENTER
3
____ _ ____ _ ____ _ ____
72
65
73
4
40
47.5
49
22
74
0
49
-8.5
74
0
49
8.5
74
0
49
-8.5
74
0
0
LTYPE
5
6B
100
AcDbSymbolTableRecord
100
AcDbLinetypeTableRecord
70
0
2
DASHED
3
__ __ __ __ __ __ __ __ __
72
65
73
2
40
25.72
49
12.86
74
0
49
-12.86
74
0
0
ENDTAB
0
TABLE
2
LAYER
5
1f8
100
AcDbSymbolTable
0
LAYER
5
10
100
AcDbSymbolTableRecord
100
AcDbLayerTableRecord
2
0
70
0
62
7
6
CONTINUOUS
290
1
370
-3
390
0
0
LAYER
5
6D
100
AcDbSymbolTableRecord
100
AcDbLayerTableRecord
2
80
70
0
62
-6
6
CONTINUOUS
290
1
370
-3
390
0
0
LAYER
5
6F
100
AcDbSymbolTableRecord
100
AcDbLayerTableRecord
2
81
70
0
62
-3
6
CONTINUOUS
290
1
370
-3
390
0
0
LAYER
5
71
100
AcDbSymbolTableRecord
100
AcDbLayerTableRecord
2
1
70
0
62
4
6
CONTINUOUS
290
1
370
-3
390
0
0
LAYER
5
161
100
AcDbSymbolTableRecord
100
AcDbLayerTableRecord
2
2
70
0
62
7
6
CONTINUOUS
290
1
370
-3
390
0
0
LAYER
5
1e3
100
AcDbSymbolTableRecord
100
AcDbLayerTableRecord
2
SK1
70
0
62
4
6
CONTINUOUS
290
1
370
-3
390
0
0
LAYER
5
1e4
100
AcDbSymbolTableRecord
100
AcDbLayerTableRecord
2
SK6
70
0
62
5
6
CONTINUOUS
290
1
370
-3
390
0
0
LAYER
5
1e5
100
AcDbSymbolTableRecord
100
AcDbLayerTableRecord
2
SK2
70
0
62
7
6
CONTINUOUS
290
1
370
-3
390
0
0
ENDTAB
0
TABLE
2
STYLE
5
1f9
100
AcDbSymbolTable
0
STYLE
5
11
100
AcDbSymbolTableRecord
100
AcDbTextStyleTableRecord
2
Standard
3
txt
70
0
71
0
40
0
41
1
42
0
50
0
0
STYLE
5
146
100
AcDbSymbolTableRecord
100
AcDbTextStyleTableRecord
2
iso_b_vert
3
simplex.shx
70
0
71
0
40
0
41
1
42
0
50
0
0
STYLE
5
147
100
AcDbSymbolTableRecord
100
AcDbTextStyleTableRecord
2
DWGDirectTextStyle
3
simplex
70
0
71
0
40
0
41
1
42
0
50
0
0
ENDTAB
0
TABLE
2
DIMSTYLE
5
1fa
100
AcDbSymbolTable
100
AcDbDimStyleTable
0
DIMSTYLE
105
27
100
AcDbSymbolTableRecord
100
AcDbDimStyleTableRecord
2
Standard
70
0
3
<>
41
0.18
42
0.0625
44
0.18
140
0.18
147
0.09
73
0
74
0
77
1
271
2
275
0
278
52
280
0
340
11
0
ENDTAB
0
TABLE
2
VIEW
5
1fb
100
AcDbSymbolTable
0
ENDTAB
0
TABLE
2
UCS
5
1fc
100
AcDbSymbolTable
0
ENDTAB
0
TABLE
2
APPID
5
1fd
100
AcDbSymbolTable
0
APPID
5
12
100
AcDbSymbolTableRecord
100
AcDbRegAppTableRecord
2
ACAD
70
0
0
ENDTAB
0
TABLE
2
BLOCK_RECORD
5
1fe
100
AcDbSymbolTable
0
BLOCK_RECORD
5
1F
100
AcDbSymbolTableRecord
100
AcDbBlockTableRecord
2
*Model_Space
340
0
70
0
0
BLOCK_RECORD
5
1B
100
AcDbSymbolTableRecord
100
AcDbBlockTableRecord
2
*Paper_Space
340
0
70
0
0
BLOCK_RECORD
5
23
100
AcDbSymbolTableRecord
100
AcDbBlockTableRecord
2
*Paper_Space0
340
0
70
0
0
BLOCK_RECORD
5
149
100
AcDbSymbolTableRecord
100
AcDbBlockTableRecord
2
DimnDraft3D1
340
0
70
0
0
BLOCK_RECORD
5
158
100
AcDbSymbolTableRecord
100
AcDbBlockTableRecord
2
_CLOSED
340
0
70
0
0
BLOCK_RECORD
5
15F
100
AcDbSymbolTableRecord
100
AcDbBlockTableRecord
2
DimnDraft3D2
340
0
70
0
0
BLOCK_RECORD
5
16E
100
AcDbSymbolTableRecord
100
AcDbBlockTableRecord
2
DimnDraft3D3
340
0
70
0
0
BLOCK_RECORD
5
17C
100
AcDbSymbolTableRecord
100
AcDbBlockTableRecord
2
DimnDraft3D4
340
0
70
0
0
ENDTAB
0
ENDSEC
0
SECTION
2
BLOCKS
0
BLOCK
5
20
100
AcDbEntity
8
0
100
AcDbBlockBegin
2
*Model_Space
70
0
10
0
20
0
30
0
3
*Model_Space
0
ENDBLK
5
21
100
AcDbEntity
8
0
100
AcDbBlockEnd
0
BLOCK
5
1C
100
AcDbEntity
8
0
100
AcDbBlockBegin
2
*Paper_Space
70
0
10
0
20
0
30
0
3
*Paper_Space
0
ENDBLK
5
1D
100
AcDbEntity
8
0
100
AcDbBlockEnd
0
BLOCK
5
24
100
AcDbEntity
8
0
100
AcDbBlockBegin
2
*Paper_Space0
70
0
10
0
20
0
30
0
3
*Paper_Space0
0
ENDBLK
5
25
100
AcDbEntity
8
0
100
AcDbBlockEnd
0
BLOCK
5
155
100
AcDbEntity
8
0
100
AcDbBlockBegin
2
DimnDraft3D1
70
0
10
0
20
0
30
0
3
DimnDraft3D1
0
MTEXT
5
14A
100
AcDbEntity
8
SK2
62
256
6
ByLayer
370
13
48
1
60
0
100
AcDbMText
10
-37.975
20
-4.156579
30
0
210
0
220
0
230
1
1
\W0.7346;50.0
40
4.5
41
0
44
1.084337
50
90
71
7
72
5
7
iso_b_vert
0
LINE
5
14C
100
AcDbEntity
8
SK2
62
256
6
ByLayer
370
13
48
1
60
0
100
AcDbLine
10
-1.5875
20
25
30
0
11
-40.025
21
25
31
0
39
0
210
0
220
0
230
1
0
LINE
5
14D
100
AcDbEntity
8
SK2
62
256
6
ByLayer
370
13
48
1
60
0
100
AcDbLine
10
-1.5875
20
-25
30
0
11
-40.025
21
-25
31
0
39
0
210
0
220
0
230
1
0
LINE
5
14E
100
AcDbEntity
8
SK2
62
256
6
ByLayer
370
13
48
1
60
0
100
AcDbLine
10
-36.85
20
25
30
0
11
-36.85
21
-25
31
0
39
0
210
0
220
0
230
1
0
LINE
5
14F
100
AcDbEntity
8
SK2
62
256
6
ByLayer
370
13
48
1
60
0
100
AcDbLine
10
-36.85
20
25
30
0
11
-35.999261
21
21.825003
31
0
39
0
210
0
220
0
230
1
0
LINE
5
150
100
AcDbEntity
8
SK2
62
256
6
ByLayer
370
13
48
1
60
0
100
AcDbLine
10
-36.85
20
25
30
0
11
-37.700739
21
21.824997
31
0
39
0
210
0
220
0
230
1
0
LINE
5
151
100
AcDbEntity
8
SK2
62
256
6
ByLayer
370
13
48
1
60
0
100
AcDbLine
10
-35.999261
20
21.825003
30
0
11
-37.700739
21
21.824997
31
0
39
0
210
0
220
0
230
1
0
LINE
5
152
100
AcDbEntity
8
SK2
62
256
6
ByLayer
370
13
48
1
60
0
100
AcDbLine
10
-36.85
20
-25
30
0
11
-37.700739
21
-21.825003
31
0
39
0
210
0
220
0
230
1
0
LINE
5
153
100
AcDbEntity
8
SK2
62
256
6
ByLayer
370
13
48
1
60
0
100
AcDbLine
10
-36.85
20
-25
30
0
11
-35.999261
21
-21.824997
31
0
39
0
210
0
220
0
230
1
0
LINE
5
154
100
AcDbEntity
8
SK2
62
256
6
ByLayer
370
13
48
1
60
0
100
AcDbLine
10
-37.700739
20
-21.825003
30
0
11
-35.999261
21
-21.824997
31
0
39
0
210
0
220
0
230
1
0
ENDBLK
5
156
100
AcDbEntity
8
0
100
AcDbBlockEnd
0
BLOCK
5
159
100
AcDbEntity
8
0
100
AcDbBlockBegin
2
_CLOSED
70
0
10
0
20
0
30
0
3
_CLOSED
0
LINE
5
15B
100
AcDbEntity
8
0
62
256
6
ByLayer
370
-2
48
1
60
0
100
AcDbLine
10
-1
20
0.166667
30
0
11
0
21
0
31
0
39
0
210
0
220
0
230
1
0
LINE
5
15C
100
AcDbEntity
8
0
62
256
6
ByLayer
370
-2
48
1
60
0
100
AcDbLine
10
0
20
0
30
0
11
-1
21
-0.166667
31
0
39
0
210
0
220
0
230
1
0
LINE
5
15D
100
AcDbEntity
8
0
62
256
6
ByLayer
370
-2
48
1
60
0
100
AcDbLine
10
-1
20
0.166667
30
0
11
-1
21
-0.166667
31
0
39
0
210
0
220
0
230
1
0
LINE
5
15E
100
AcDbEntity
8
0
62
256
6
ByLayer
370
-2
48
1
60
0
100
AcDbLine
10
0
20
0
30
0
11
-1
21
0
31
0
39
0
210
0
220
0
230
1
0
ENDBLK
5
15A
100
AcDbEntity
8
0
100
AcDbBlockEnd
0
BLOCK
5
16B
100
AcDbEntity
8
0
100
AcDbBlockBegin
2
DimnDraft3D2
70
0
10
0
20
0
30
0
3
DimnDraft3D2
0
MTEXT
5
160
100
AcDbEntity
8
2
62
256
6
ByLayer
370
13
48
1
60
0
100
AcDbMText
10
84.725
20
-21.656579
30
0
210
0
220
0
230
1
1
\W0.7346;35.0
40
4.5
41
0
44
1.084337
50
90
71
7
72
5
7
iso_b_vert
0
LINE
5
162
100
AcDbEntity
8
2
62
256
6
ByLayer
370
13
48
1
60
0
100
AcDbLine
10
61.5875
20
-35
30
0
11
89.025
21
-35
31
0
39
0
210
0
220
0
230
1
0
LINE
5
163
100
AcDbEntity
8
2
62
256
6
ByLayer
370
13
48
1
60
0
100
AcDbLine
10
61.5875
20
0
30
0
11
89.025
21
0
31
0
39
0
210
0
220
0
230
1
0
LINE
5
164
100
AcDbEntity
8
2
62
256
6
ByLayer
370
13
48
1
60
0
100
AcDbLine
10
85.85
20
-35
30
0
11
85.85
21
0
31
0
39
0
210
0
220
0
230
1
0
LINE
5
165
100
AcDbEntity
8
2
62
256
6
ByLayer
370
13
48
1
60
0
100
AcDbLine
10
85.85
20
-35
30
0
11
84.999261
21
-31.825003
31
0
39
0
210
0
220
0
230
1
0
LINE
5
166
100
AcDbEntity
8
2
62
256
6
ByLayer
370
13
48
1
60
0
100
AcDbLine
10
85.85
20
-35
30
0
11
86.700739
21
-31.824997
31
0
39
0
210
0
220
0
230
1
0
LINE
5
167
100
AcDbEntity
8
2
62
256
6
ByLayer
370
13
48
1
60
0
100
AcDbLine
10
84.999261
20
-31.825003
30
0
11
86.700739
21
-31.824997
31
0
39
0
210
0
220
0
230
1
0
LINE
5
168
100
AcDbEntity
8
2
62
256
6
ByLayer
370
13
48
1
60
0
100
AcDbLine
10
85.85
20
0
30
0
11
86.700739
21
-3.174997
31
0
39
0
210
0
220
0
230
1
0
LINE
5
169
100
AcDbEntity
8
2
62
256
6
ByLayer
370
13
48
1
60
0
100
AcDbLine
10
85.85
20
0
30
0
11
84.999261
21
-3.175003
31
0
39
0
210
0
220
0
230
1
0
LINE
5
16A
100
AcDbEntity
8
2
62
256
6
ByLayer
370
13
48
1
60
0
100
AcDbLine
10
86.700739
20
-3.174997
30
0
11
84.999261
21
-3.175003
31
0
39
0
210
0
220
0
230
1
0
ENDBLK
5
16C
100
AcDbEntity
8
0
100
AcDbBlockEnd
0
BLOCK
5
179
100
AcDbEntity
8
0
100
AcDbBlockBegin
2
DimnDraft3D3
70
0
10
0
20
0
30
0
3
DimnDraft3D3
0
MTEXT
5
16F
100
AcDbEntity
8
2
62
256
6
ByLayer
370
13
48
1
60
0
100
AcDbMText
10
25.843421
20
-60.375
30
0
210
0
220
0
230
1
1
\W0.7346;60.0
40
4.5
41
0
44
1.084337
50
0
71
7
72
5
7
iso_b_vert
0
LINE
5
170
100
AcDbEntity
8
2
62
256
6
ByLayer
370
13
48
1
60
0
100
AcDbLine
10
0
20
-26.5875
30
0
11
0
21
-64.675
31
0
39
0
210
0
220
0
230
1
0
LINE
5
171
100
AcDbEntity
8
2
62
256
6
ByLayer
370
13
48
1
60
0
100
AcDbLine
10
60
20
-36.5875
30
0
11
60
21
-64.675
31
0
39
0
210
0
220
0
230
1
0
LINE
5
172
100
AcDbEntity
8
2
62
256
6
ByLayer
370
13
48
1
60
0
100
AcDbLine
10
0
20
-61.5
30
0
11
60
21
-61.5
31
0
39
0
210
0
220
0
230
1
0
LINE
5
173
100
AcDbEntity
8
2
62
256
6
ByLayer
370
13
48
1
60
0
100
AcDbLine
10
0
20
-61.5
30
0
11
3.174997
21
-60.649261
31
0
39
0
210
0
220
0
230
1
0
LINE
5
174
100
AcDbEntity
8
2
62
256
6
ByLayer
370
13
48
1
60
0
100
AcDbLine
10
0
20
-61.5
30
0
11
3.175003
21
-62.350739
31
0
39
0
210
0
220
0
230
1
0
LINE
5
175
100
AcDbEntity
8
2
62
256
6
ByLayer
370
13
48
1
60
0
100
AcDbLine
10
3.174997
20
-60.649261
30
0
11
3.175003
21
-62.350739
31
0
39
0
210
0
220
0
230
1
0
LINE
5
176
100
AcDbEntity
8
2
62
256
6
ByLayer
370
13
48
1
60
0
100
AcDbLine
10
60
20
-61.5
30
0
11
56.825003
21
-62.350739
31
0
39
0
210
0
220
0
230
1
0
LINE
5
177
100
AcDbEntity
8
2
62
256
6
ByLayer
370
13
48
1
60
0
100
AcDbLine
10
60
20
-61.5
30
0
11
56.824997
21
-60.649261
31
0
39
0
210
0
220
0
230
1
0
LINE
5
178
100
AcDbEntity
8
2
62
256
6
ByLayer
370
13
48
1
60
0
100
AcDbLine
10
56.825003
20
-62.350739
30
0
11
56.824997
21
-60.649261
31
0
39
0
210
0
220
0
230
1
0
ENDBLK
5
17A
100
AcDbEntity
8
0
100
AcDbBlockEnd
0
BLOCK
5
187
100
AcDbEntity
8
0
100
AcDbBlockBegin
2
DimnDraft3D4
70
0
10
0
20
0
30
0
3
DimnDraft3D4
0
MTEXT
5
17D
100
AcDbEntity
8
2
62
256
6
ByLayer
370
13
48
1
60
0
100
AcDbMText
10
48.157337
20
0.191821
30
0
210
0
220
0
230
1
1
\W0.7346;30.0
40
4.5
41
0
44
1.084337
50
12.5000000000002
71
7
72
5
7
iso_b_vert
0
LINE
5
17E
100
AcDbEntity
8
2
62
256
6
ByLayer
370
13
48
1
60
0
100
AcDbLine
10
60
20
-31.8125
30
0
11
60
21
3.994023
31
0
39
0
210
0
220
0
230
1
0
LINE
5
17F
100
AcDbEntity
8
2
62
256
6
ByLayer
370
13
48
1
60
0
100
AcDbLine
10
57.141048
20
-27.891603
30
0
11
43.933462
21
0.432157
31
0
39
0
210
0
220
0
230
1
0
ARC
5
180
100
AcDbEntity
8
2
62
256
6
ByLayer
370
13
48
1
60
0
100
AcDbCircle
39
0
10
60
20
-34.022644
30
0
40
34.8416670441663
210
0
220
0
230
1
100
AcDbArc
50
90
51
115
0
LINE
5
181
100
AcDbEntity
8
2
62
256
6
ByLayer
370
13
48
1
60
0
100
AcDbLine
10
60
20
0.819023
30
0
11
56.845192
21
-0.103771
31
0
39
0
210
0
220
0
230
1
0
LINE
5
182
100
AcDbEntity
8
2
62
256
6
ByLayer
370
13
48
1
60
0
100
AcDbLine
10
60
20
0.819023
30
0
11
56.806453
21
1.597265
31
0
39
0
210
0
220
0
230
1
0
LINE
5
183
100
AcDbEntity
8
2
62
256
6
ByLayer
370
13
48
1
60
0
100
AcDbLine
10
56.845192
20
-0.103771
30
0
11
56.806453
21
1.597265
31
0
39
0
210
0
220
0
230
1
0
LINE
5
184
100
AcDbEntity
8
2
62
256
6
ByLayer
370
13
48
1
60
0
100
AcDbLine
10
45.275275
20
-2.44537
30
0
11
47.840706
21
-0.390394
31
0
39
0
210
0
220
0
230
1
0
LINE
5
185
100
AcDbEntity
8
2
62
256
6
ByLayer
370
13
48
1
60
0
100
AcDbLine
10
45.275275
20
-2.44537
30
0
11
48.524497
21
-1.948423
31
0
39
0
210
0
220
0
230
1
0
LINE
5
186
100
AcDbEntity
8
2
62
256
6
ByLayer
370
13
48
1
60
0
100
AcDbLine
10
47.840706
20
-0.390394
30
0
11
48.524497
21
-1.948423
31
0
39
0
210
0
220
0
230
1
0
ENDBLK
5
188
100
AcDbEntity
8
0
100
AcDbBlockEnd
0
ENDSEC
0
SECTION
2
ENTITIES
0
ARC
5
BA
100
AcDbEntity
8
1
62
256
6
ByLayer
370
13
48
1
60
0
100
AcDbCircle
39
0
10
-32.078114
20
-63.132914
30
0
40
40.1277816385189
210
0
220
0
230
-1
100
AcDbArc
50
72.0828
51
100.477727
0
ARC
5
BB
100
AcDbEntity
8
1
62
256
6
ByLayer
370
13
48
1
60
0
100
AcDbCircle
39
0
10
32.078114
20
-63.132914
30
0
40
38.5338701215721
210
0
220
0
230
1
100
AcDbArc
50
79.522273
51
104.15517
0
ARC
5
BC
100
AcDbEntity
8
1
62
256
6
ByLayer
370
13
48
1
60
0
100
AcDbCircle
39
0
10
89.700335
20
-77.302671
30
0
40
148.979744495558
210
0
220
0
230
-1
100
AcDbArc
50
146.117502
51
154.164491
0
ARC
5
BD
100
AcDbEntity
8
1
62
256
6
ByLayer
370
13
48
1
60
0
100
AcDbCircle
39
0
10
-14.880913
20
6.410961
30
0
40
41.4661298784279
210
0
220
0
230
-1
100
AcDbArc
50
217.938988
51
227.457864
0
ARC
5
BE
100
AcDbEntity
8
1
62
256
6
ByLayer
370
13
48
1
60
0
100
AcDbCircle
39
0
10
39.897805
20
-20.84991
30
0
40
2.87221836148108
210
0
220
0
230
1
100
AcDbArc
50
259.522273
51
312.542136
0
ARC
5
BF
100
AcDbEntity
8
1
62
256
6
ByLayer
370
13
48
1
60
0
100
AcDbCircle
39
0
10
-89.700335
20
-77.302671
30
0
40
149.872218361481
210
0
220
0
230
1
100
AcDbArc
50
24.502275
51
37.691243
0
ARC
5
C0
100
AcDbEntity
8
1
62
256
6
ByLayer
370
13
48
1
60
0
100
AcDbCircle
39
0
10
-39.897805
20
-20.84991
30
0
40
4.46612987842788
210
0
220
0
230
-1
100
AcDbArc
50
227.457864
51
280.477727
0
ARC
5
C1
100
AcDbEntity
8
1
62
256
6
ByLayer
370
13
48
1
60
0
100
AcDbCircle
39
0
10
14.880913
20
6.410961
30
0
40
39.8722183614811
210
0
220
0
230
1
100
AcDbArc
50
312.542136
51
322.061012
0
ARC
5
C2
100
AcDbEntity
8
1
62
256
6
ByLayer
370
13
48
1
60
0
100
AcDbCircle
39
0
10
89.700335
20
-77.302671
30
0
40
151.466129878428
210
0
220
0
230
-1
100
AcDbArc
50
147.454206
51
155.497725
0
ARC
5
C3
100
AcDbEntity
8
1
62
256
6
ByLayer
370
13
48
1
60
0
100
AcDbCircle
39
0
10
-44.061551
20
-16.337453
30
0
40
4.46612987842788
210
0
220
0
230
-1
100
AcDbArc
50
155.497725
51
217.938988
0
ARC
5
C4
100
AcDbEntity
8
1
62
256
6
ByLayer
370
13
48
1
60
0
100
AcDbCircle
39
0
10
44.061551
20
-16.337453
30
0
40
2.87221836148108
210
0
220
0
230
1
100
AcDbArc
50
322.061012
51
24.502275
0
ARC
5
C5
100
AcDbEntity
8
1
62
256
6
ByLayer
370
13
48
1
60
0
100
AcDbCircle
39
0
10
32.078114
20
-63.132914
30
0
40
41.0202555044422
210
0
220
0
230
1
100
AcDbArc
50
85.425541
51
100.18654
0
ARC
5
C6
100
AcDbEntity
8
1
62
256
6
ByLayer
370
13
48
1
60
0
100
AcDbCircle
39
0
10
-50.38968
20
-26.12683
30
0
40
1.6764
210
0
220
0
230
-1
100
AcDbArc
50
192.5
51
252.5
0
ARC
5
C8
100
AcDbEntity
8
1
62
256
6
ByLayer
370
13
48
1
60
0
100
AcDbCircle
39
0
10
-50.38968
20
-26.12683
30
0
40
1.6764
210
0
220
0
230
-1
100
AcDbArc
50
312.5
51
12.5
0
ARC
5
CA
100
AcDbEntity
8
1
62
256
6
ByLayer
370
13
48
1
60
0
100
AcDbCircle
39
0
10
-50.38968
20
-26.12683
30
0
40
1.2903
210
0
220
0
230
-1
100
AcDbArc
50
342.5
51
42.5
0
ARC
5
CB
100
AcDbEntity
8
1
62
256
6
ByLayer
370
13
48
1
60
0
100
AcDbCircle
39
0
10
50.38968
20
-26.12683
30
0
40
1.2903
210
0
220
0
230
1
100
AcDbArc
50
257.5
51
317.5
0
ARC
5
CC
100
AcDbEntity
8
1
62
256
6
ByLayer
370
13
48
1
60
0
100
AcDbCircle
39
0
10
-50.38968
20
-26.12683
30
0
40
1.6764
210
0
220
0
230
-1
100
AcDbArc
50
132.5
51
192.5
0
ARC
5
CD
100
AcDbEntity
8
1
62
256
6
ByLayer
370
13
48
1
60
0
100
AcDbCircle
39
0
10
-50.38968
20
-26.12683
30
0
40
1.2903
210
0
220
0
230
-1
100
AcDbArc
50
42.5
51
102.5
0
ARC
5
CE
100
AcDbEntity
8
1
62
256
6
ByLayer
370
13
48
1
60
0
100
AcDbCircle
39
0
10
-50.38968
20
-26.12683
30
0
40
1.6764
210
0
220
0
230
-1
100
AcDbArc
50
12.5
51
72.5
0
ARC
5
CF
100
AcDbEntity
8
1
62
256
6
ByLayer
370
13
48
1
60
0
100
AcDbCircle
39
0
10
-50.38968
20
-26.12683
30
0
40
1.6764
210
0
220
0
230
-1
100
AcDbArc
50
72.5
51
132.5
0
ARC
5
D0
100
AcDbEntity
8
1
62
256
6
ByLayer
370
13
48
1
60
0
100
AcDbCircle
39
0
10
-50.38968
20
-26.12683
30
0
40
1.2903
210
0
220
0
230
-1
100
AcDbArc
50
162.5
51
222.5
0
ARC
5
D1
100
AcDbEntity
8
1
62
256
6
ByLayer
370
13
48
1
60
0
100
AcDbCircle
39
0
10
-50.38968
20
-26.12683
30
0
40
1.6764
210
0
220
0
230
-1
100
AcDbArc
50
252.5
51
312.5
0
ARC
5
D2
100
AcDbEntity
8
1
62
256
6
ByLayer
370
13
48
1
60
0
100
AcDbCircle
39
0
10
-50.38968
20
-26.12683
30
0
40
1.2903
210
0
220
0
230
-1
100
AcDbArc
50
282.5
51
342.5
0
ARC
5
D3
100
AcDbEntity
8
1
62
256
6
ByLayer
370
13
48
1
60
0
100
AcDbCircle
39
0
10
-50.38968
20
-26.12683
30
0
40
1.2903
210
0
220
0
230
-1
100
AcDbArc
50
102.5
51
162.5
0
ARC
5
D4
100
AcDbEntity
8
1
62
256
6
ByLayer
370
13
48
1
60
0
100
AcDbCircle
39
0
10
64.357734
20
-25.533458
30
0
40
8
210
0
220
0
230
1
100
AcDbArc
50
197.5
51
210
0
ARC
5
D5
100
AcDbEntity
8
1
62
256
6
ByLayer
370
13
48
1
60
0
100
AcDbCircle
39
0
10
37.981094
20
-19.685898
30
0
40
8
210
0
220
0
230
1
100
AcDbArc
50
305
51
317.5
0
ARC
5
D6
100
AcDbEntity
8
1
62
256
6
ByLayer
370
13
48
1
60
0
100
AcDbCircle
39
0
10
43.919529
20
-38.520205
30
0
40
8
210
0
220
0
230
1
100
AcDbArc
50
77.5
51
90
0
ARC
5
D8
100
AcDbEntity
8
1
62
256
6
ByLayer
370
13
48
1
60
0
100
AcDbCircle
39
0
10
42.891779
20
-14.326826
30
0
40
8
210
0
220
0
230
1
100
AcDbArc
50
317.5
51
330
0
ARC
5
D9
100
AcDbEntity
8
1
62
256
6
ByLayer
370
13
48
1
60
0
100
AcDbCircle
39
0
10
-59.2
20
-34.2
30
0
40
0.8
210
0
220
0
230
-1
100
AcDbArc
50
150
51
295
0
ARC
5
DB
100
AcDbEntity
8
1
62
256
6
ByLayer
370
13
48
1
60
0
100
AcDbCircle
39
0
10
51.015963
20
-40.093446
30
0
40
8
210
0
220
0
230
1
100
AcDbArc
50
65
51
77.5
0
ARC
5
DC
100
AcDbEntity
8
1
62
256
6
ByLayer
370
13
48
1
60
0
100
AcDbCircle
39
0
10
-52.976091
20
-14.460284
30
0
40
0.8
210
0
220
0
230
-1
100
AcDbArc
50
30
51
175
0
ARC
5
DD
100
AcDbEntity
8
1
62
256
6
ByLayer
370
13
48
1
60
0
100
AcDbCircle
39
0
10
-38.99295
20
-29.720205
30
0
40
0.8
210
0
220
0
230
-1
100
AcDbArc
50
270
51
55
0
ARC
5
DE
100
AcDbEntity
8
1
62
256
6
ByLayer
370
13
48
1
60
0
100
AcDbCircle
39
0
10
62.171984
20
-18.601145
30
0
40
8
210
0
220
0
230
1
100
AcDbArc
50
185
51
197.5
0
CIRCLE
5
C7
100
AcDbEntity
8
1
62
256
6
ByLayer
370
13
48
1
60
0
100
AcDbCircle
10
50.38968
20
-26.12683
30
0
40
1.8
39
0
210
0
220
0
230
1
0
CIRCLE
5
C9
100
AcDbEntity
8
1
62
256
6
ByLayer
370
13
48
1
60
0
100
AcDbCircle
10
50.38968
20
-26.12683
30
0
40
2.625
39
0
210
0
220
0
230
1
0
CIRCLE
5
D7
100
AcDbEntity
8
1
62
256
6
ByLayer
370
13
48
1
60
0
100
AcDbCircle
10
-50.38968
20
-26.12683
30
0
40
3
39
0
210
0
220
0
230
-1
0
CIRCLE
5
DA
100
AcDbEntity
8
1
62
256
6
ByLayer
370
13
48
1
60
0
100
AcDbCircle
10
-50.38968
20
-26.12683
30
0
40
2.87330486655119
39
0
210
0
220
0
230
-1
0
CIRCLE
5
DF
100
AcDbEntity
8
1
62
256
6
ByLayer
370
13
48
1
60
0
100
AcDbCircle
10
50.38968
20
-26.12683
30
0
40
3.06293413074916
39
0
210
0
220
0
230
1
0
ELLIPSE
5
E0
100
AcDbEntity
8
1
62
256
6
ByLayer
370
13
48
1
60
0
100
AcDbEllipse
10
48.117786
20
-21.404348
30
0
11
0.861629160441522
21
-0.507538362960708
31
0
210
0
220
0
230
1
40
0.082518
41
2.25900058762331
42
2.53699692127967
0
ELLIPSE
5
E1
100
AcDbEntity
8
1
62
256
6
ByLayer
370
13
48
1
60
0
100
AcDbEllipse
10
45.487161
20
-24.275171
30
0
11
-0.580702955710936
21
0.81411551835632
31
0
210
0
220
0
230
1
40
0.082518
41
0.604595897445892
42
0.882592188079079
0
ELLIPSE
5
E2
100
AcDbEntity
8
1
62
256
6
ByLayer
370
13
48
1
60
0
100
AcDbEllipse
10
-1.056258
20
0
30
0
11
11.7092723497257
21
24.6771864409357
31
0
210
0
220
0
230
-1
40
0.341999
41
0.167213071908995
42
1.08183270048933
0
ELLIPSE
5
E3
100
AcDbEntity
8
1
62
256
6
ByLayer
370
13
48
1
60
0
100
AcDbEllipse
10
22.187217
20
0
30
0
11
-1.53075794227603E-15
21
24.9999999999683
31
0
210
0
220
0
230
-1
40
0.087489
41
-2.08161267440765
42
-1.40298827953538
0
ELLIPSE
5
E4
100
AcDbEntity
8
1
62
256
6
ByLayer
370
13
48
1
60
0
100
AcDbEllipse
10
-1.056258
20
0
30
0
11
11.7092723497262
21
-24.6771864409362
31
0
210
0
220
0
230
-1
40
0.341999
41
-1.08183270048931
42
-0.16721307190899
0
ELLIPSE
5
E5
100
AcDbEntity
8
1
62
256
6
ByLayer
370
13
48
1
60
0
100
AcDbEllipse
10
21.056258
20
0
30
0
11
11.7092723497287
21
24.6771864409391
31
0
210
0
220
0
230
-1
40
0.341999
41
-2.97437958168082
42
-2.05975995310058
0
ELLIPSE
5
E6
100
AcDbEntity
8
1
62
256
6
ByLayer
370
13
48
1
60
0
100
AcDbEllipse
10
21.056258
20
0
30
0
11
11.7092723497266
21
-24.6771864409364
31
0
210
0
220
0
230
-1
40
0.341999
41
2.0597599531005
42
2.97437958168081
0
POINT
5
6C
100
AcDbEntity
8
80
62
256
6
ByLayer
370
18
48
1
60
0
100
AcDbPoint
10
0
20
0
30
0
39
0
210
0
220
0
230
1
50
360
0
POINT
5
6E
100
AcDbEntity
8
81
62
256
6
ByLayer
370
18
48
1
60
0
100
AcDbPoint
10
60
20
-35
30
0
39
0
210
0
220
0
230
1
50
360
0
SPLINE
5
E7
100
AcDbEntity
8
SK1
62
256
6
ByLayer
370
13
48
1
60
0
100
AcDbSpline
70
4
71
2
72
6
73
3
40
0
40
0
40
0
40
1
40
1
40
1
41
1
10
-0.0343899074271121
20
17.4680398861275
30
0
41
1
10
-0.0576203724863262
20
17.3761042177238
30
0
41
1
10
-0.194976888875288
20
17.3704796738454
30
0
0
SPLINE
5
E8
100
AcDbEntity
8
SK1
62
256
6
ByLayer
370
13
48
1
60
0
100
AcDbSpline
70
4
71
2
72
6
73
3
40
0
40
0
40
0
40
1
40
1
40
1
41
1
10
-0.194976888875288
20
-17.3704795286247
30
0
41
1
10
-0.059146384879881
20
-17.3755255798858
30
0
41
1
10
-0.0356373997137212
20
-17.4655268511456
30
0
0
SPLINE
5
E9
100
AcDbEntity
8
SK1
62
256
6
ByLayer
370
13
48
1
60
0
100
AcDbSpline
70
4
71
2
72
6
73
3
40
0
40
0
40
0
40
1
40
1
40
1
41
1
10
-30
20
-15.9932493559076
30
0
41
1
10
-29.2499990770911
20
-16.4260287704419
30
0
41
1
10
-28.5
20
-16.8588006436881
30
0
0
SPLINE
5
EA
100
AcDbEntity
8
SK1
62
256
6
ByLayer
370
13
48
1
60
0
100
AcDbSpline
70
4
71
2
72
6
73
3
40
0
40
0
40
0
40
1
40
1
40
1
41
1
10
-28.5
20
16.8588008432385
30
0
41
1
10
-29.2499990770552
20
16.4260289695447
30
0
41
1
10
-30
20
15.9932495545753
30
0
0
SPLINE
5
EB
100
AcDbEntity
8
SK1
62
256
6
ByLayer
370
13
48
1
60
0
100
AcDbSpline
70
4
71
2
72
6
73
3
40
0
40
0
40
0
40
1
40
1
40
1
41
1
10
-0.194976888875288
20
17.3652369633
30
0
41
1
10
-0.995008433403029
20
17.3451508243471
30
0
41
1
10
-1.7950399779393
20
17.3250646819564
30
0
0
SPLINE
5
EC
100
AcDbEntity
8
SK1
62
256
6
ByLayer
370
13
48
1
60
0
100
AcDbSpline
70
4
71
2
72
6
73
3
40
0
40
0
40
0
40
1
40
1
40
1
41
1
10
-1.7950399779393
20
-17.3250643989562
30
0
41
1
10
-0.995008433403029
20
-17.3451505413153
30
0
41
1
10
-0.194976888875288
20
-17.3652366802367
30
0
0
SPLINE
5
ED
100
AcDbEntity
8
SK1
62
256
6
ByLayer
370
13
48
1
60
0
100
AcDbSpline
70
4
71
3
72
13
73
9
40
0
40
0
40
0
40
0
40
0.239503416449037
40
0.368423133641911
40
0.500068561308489
40
0.631702599247869
40
0.760590900632782
40
1
40
1
40
1
40
1
41
1
10
-1.7950399779393
20
17.3302974649007
30
0
41
1
10
-1.82110932008982
20
17.3298953840654
30
0
41
1
10
-1.85883875467888
20
17.3360651360603
30
0
41
1
10
-1.90627575278674
20
17.3590990612904
30
0
41
1
10
-1.93886250822575
20
17.3842556209573
30
0
41
1
10
-1.9656349589192
20
17.4155240253433
30
0
41
1
10
-1.99103211472607
20
17.4617233046648
30
0
41
1
10
-1.99909125719799
20
17.4990813944884
30
0
41
1
10
-2
20
17.525129116923
30
0
0
SPLINE
5
EE
100
AcDbEntity
8
SK1
62
256
6
ByLayer
370
13
48
1
60
0
100
AcDbSpline
70
4
71
3
72
13
73
9
40
0
40
0
40
0
40
0
40
0.239409099712846
40
0.368297401209776
40
0.499931439185207
40
0.631576866803764
40
0.760496583878372
40
1
40
1
40
1
40
1
41
1
10
-2
20
-17.5251289721744
30
0
41
1
10
-1.99909125720339
20
-17.4990812496681
30
0
41
1
10
-1.99103211473138
20
-17.4617231597379
30
0
41
1
10
-1.96563495892644
20
-17.4155238802705
30
0
41
1
10
-1.93886250823533
20
-17.3842554757878
30
0
41
1
10
-1.90627575279683
20
-17.3590989160412
30
0
41
1
10
-1.85883875469076
20
-17.336064990738
30
0
41
1
10
-1.82110932009616
20
-17.3298952387249
30
0
41
1
10
-1.7950399779393
20
-17.3302973195575
30
0
0
SPLINE
5
EF
100
AcDbEntity
8
SK1
62
256
6
ByLayer
370
13
48
1
60
0
100
AcDbSpline
70
4
71
2
72
6
73
3
40
0
40
0
40
0
40
1
40
1
40
1
41
1
10
-2
20
17.5198482068775
30
0
41
1
10
-15.2499999987993
20
17.1871851888411
30
0
41
1
10
-28.5
20
16.8545212066649
30
0
0
SPLINE
5
F0
100
AcDbEntity
8
SK1
62
256
6
ByLayer
370
13
48
1
60
0
100
AcDbSpline
70
4
71
2
72
6
73
3
40
0
40
0
40
0
40
1
40
1
40
1
41
1
10
-28.5
20
-16.8545209244112
30
0
41
1
10
-15.2499999987995
20
-17.1871849060498
30
0
41
1
10
-2
20
-17.5198479235724
30
0
0
SPLINE
5
F1
100
AcDbEntity
8
SK1
62
256
6
ByLayer
370
13
48
1
60
0
100
AcDbSpline
70
4
71
3
72
39
73
35
40
0
40
0
40
0
40
0
40
0.0138689810387482
40
0.0424649186617989
40
0.0710608562848497
40
0.0996567939079004
40
0.156848669154002
40
0.214040544400103
40
0.242636482023154
40
0.271232419646205
40
0.328424294892306
40
0.357020232515357
40
0.385616170138408
40
0.414212107761459
40
0.442808045384509
40
0.47140398300756
40
0.485701951819085
40
0.499999920630611
40
0.514297889442136
40
0.528595858253662
40
0.557191795876712
40
0.585787733499763
40
0.614383671122814
40
0.642979608745865
40
0.671575546368915
40
0.728767421615017
40
0.757363359238068
40
0.785959296861118
40
0.84315117210722
40
0.900343047353321
40
0.928938984976372
40
0.957534922599423
40
0.986130860222474
40
1
40
1
40
1
40
1
41
1
10
-2
20
-17.5197847606228
30
0
41
1
10
-2
20
-17.5129943770304
30
0
41
1
10
-2
20
-17.4726243004154
30
0
41
1
10
-2
20
-17.3116343538074
30
0
41
1
10
-2
20
-16.9815888329671
30
0
41
1
10
-2
20
-16.3767064197525
30
0
41
1
10
-2
20
-15.3340294930174
30
0
41
1
10
-2
20
-13.9519092247439
30
0
41
1
10
-2
20
-12.6575651420821
30
0
41
1
10
-2
20
-11.241205620246
30
0
41
1
10
-2
20
-9.64534783198889
30
0
41
1
10
-2
20
-7.8763818413079
30
0
41
1
10
-2
20
-6.46346246032286
30
0
41
1
10
-2
20
-4.96520999967441
30
0
41
1
10
-2
20
-3.38314408231224
30
0
41
1
10
-2
20
-1.99851186782058
30
0
41
1
10
-2
20
-0.861482441955218
30
0
41
1
10
-2
20
-1.76095512E-08
30
0
41
1
10
-2
20
0.861482365135799
30
0
41
1
10
-2
20
1.99851187450375
30
0
41
1
10
-2
20
3.38314406709782
30
0
41
1
10
-2
20
4.96520967393047
30
0
41
1
10
-2
20
6.46346255594887
30
0
41
1
10
-2
20
7.87638169367139
30
0
41
1
10
-2
20
9.64534763909765
30
0
41
1
10
-2
20
11.2412056085041
30
0
41
1
10
-2
20
12.6575649796177
30
0
41
1
10
-2
20
13.951909601472
30
0
41
1
10
-2
20
15.3340290660617
30
0
41
1
10
-2
20
16.3767071899766
30
0
41
1
10
-2
20
16.9815887046989
30
0
41
1
10
-2
20
17.3116346702719
30
0
41
1
10
-2
20
17.4726252183191
30
0
41
1
10
-1.99999999999997
20
17.5129949963673
30
0
41
1
10
-1.99999999999997
20
17.5197852392193
30
0
0
SPLINE
5
F2
100
AcDbEntity
8
SK1
62
256
6
ByLayer
370
13
48
1
60
0
100
AcDbSpline
70
4
71
3
72
39
73
35
40
0
40
0
40
0
40
0
40
0.0162087900352768
40
0.0446671246268271
40
0.0731254592183773
40
0.101583793809928
40
0.158500462993028
40
0.215417132176128
40
0.243875466767679
40
0.272333801359229
40
0.329250470542329
40
0.357708805133879
40
0.38616713972543
40
0.41462547431698
40
0.44308380890853
40
0.47154214350008
40
0.485771310795856
40
0.500000478091631
40
0.514229645387406
40
0.528458812683181
40
0.556917147274731
40
0.585375481866281
40
0.613833816457831
40
0.642292151049382
40
0.670750485640932
40
0.727667154824032
40
0.756125489415583
40
0.784583824007133
40
0.841500493190233
40
0.898417162373334
40
0.926875496964884
40
0.955333831556434
40
0.983792166147984
40
1
40
1
40
1
40
1
41
1
10
-28.5
20
16.8573070633952
30
0
41
1
10
-28.5
20
16.8521221943336
30
0
41
1
10
-28.5
20
16.8141674022863
30
0
41
1
10
-28.5
20
16.653119129773
30
0
41
1
10
-28.5
20
16.3328855300395
30
0
41
1
10
-28.5
20
15.7436777114931
30
0
41
1
10
-28.5
20
14.7294539424714
30
0
41
1
10
-28.5
20
13.3839109677473
30
0
41
1
10
-28.5
20
12.120280876233
30
0
41
1
10
-28.5
20
10.73839291766
30
0
41
1
10
-28.5
20
9.19217366708202
30
0
41
1
10
-28.5
20
7.4733617642672
30
0
41
1
10
-28.5
20
6.10816680103
30
0
41
1
10
-28.5
20
4.66779609215368
30
0
41
1
10
-28.5
20
3.1590972918861
30
0
41
1
10
-28.5
20
1.85825200188583
30
0
41
1
10
-28.5
20
0.795563863901208
30
0
41
1
10
-28.5
20
-1.286700808E-07
30
0
41
1
10
-28.5
20
-0.795563889584969
30
0
41
1
10
-28.5
20
-1.85825194532134
30
0
41
1
10
-28.5
20
-3.15909751485594
30
0
41
1
10
-28.5
20
-4.66779636016514
30
0
41
1
10
-28.5
20
-6.10816664300194
30
0
41
1
10
-28.5
20
-7.47336198687177
30
0
41
1
10
-28.5
20
-9.19217383455458
30
0
41
1
10
-28.5
20
-10.7383929245239
30
0
41
1
10
-28.5
20
-12.1202809967187
30
0
41
1
10
-28.5
20
-13.3839106046769
30
0
41
1
10
-28.5
20
-14.7294543359371
30
0
41
1
10
-28.5
20
-15.7436769514769
30
0
41
1
10
-28.5
20
-16.3328856609547
30
0
41
1
10
-28.5
20
-16.6531187925377
30
0
41
1
10
-28.5
20
-16.8141647399251
30
0
41
1
10
-28.5
20
-16.8521202822721
30
0
41
1
10
-28.4999999999999
20
-16.857305936492
30
0
0
SPLINE
5
F3
100
AcDbEntity
8
SK1
62
256
6
ByLayer
370
13
48
1
60
0
100
AcDbSpline
70
4
71
3
72
39
73
35
40
0
40
0
40
0
40
0
40
0.0143966644429435
40
0.0429615552060011
40
0.0715264459690587
40
0.100091336732116
40
0.157221118258232
40
0.214350899784347
40
0.242915790547404
40
0.271480681310462
40
0.328610462836577
40
0.357175353599635
40
0.385740244362692
40
0.41430513512575
40
0.442870025888807
40
0.471434916651865
40
0.485717362033394
40
0.499999807414923
40
0.514282252796451
40
0.52856469817798
40
0.557129588941038
40
0.585694479704095
40
0.614259370467153
40
0.642824261230211
40
0.671389151993268
40
0.728518933519383
40
0.757083824282441
40
0.785648715045498
40
0.842778496571614
40
0.899908278097729
40
0.928473168860786
40
0.957038059623844
40
0.985602950386902
40
1
40
1
40
1
40
1
41
1
10
-1.7950399779393
20
-17.3257551215152
30
0
41
1
10
-1.7950399779393
20
-17.3192800107942
30
0
41
1
10
-1.7950399779393
20
-17.279519531629
30
0
41
1
10
-1.7950399779393
20
-17.1188450441766
30
0
41
1
10
-1.7950399779393
20
-16.7916722325964
30
0
41
1
10
-1.7950399779393
20
-16.1913785074865
30
0
41
1
10
-1.7950399779393
20
-15.1570319640165
30
0
41
1
10
-1.7950399779393
20
-13.7856199701319
30
0
41
1
10
-1.7950399779393
20
-12.500267964077
30
0
41
1
10
-1.7950399779393
20
-11.0940004239178
30
0
41
1
10
-1.7950399779393
20
-9.51267503388596
30
0
41
1
10
-1.7950399779393
20
-7.75839234481913
30
0
41
1
10
-1.7950399779393
20
-6.35944481918477
30
0
41
1
10
-1.7950399779393
20
-4.8781381465428
30
0
41
1
10
-1.7950399779393
20
-3.31755142876619
30
0
41
1
10
-1.7950399779393
20
-1.95744888431969
30
0
41
1
10
-1.7950399779393
20
-0.842183896938593
30
0
41
1
10
-1.7950399779393
20
-5.01240152E-08
30
0
41
1
10
-1.7950399779393
20
0.842183835089799
30
0
41
1
10
-1.7950399779393
20
1.9574489056063
30
0
41
1
10
-1.7950399779393
20
3.31755135272857
30
0
41
1
10
-1.7950399779393
20
4.87813783770082
30
0
41
1
10
-1.7950399779393
20
6.3594449330798
30
0
41
1
10
-1.7950399779393
20
7.75839217523472
30
0
41
1
10
-1.7950399779393
20
9.51267484843638
30
0
41
1
10
-1.7950399779393
20
11.0940004136041
30
0
41
1
10
-1.7950399779393
20
12.5002678139024
30
0
41
1
10
-1.7950399779393
20
13.7856203428615
30
0
41
1
10
-1.7950399779393
20
15.1570315468654
30
0
41
1
10
-1.7950399779393
20
16.1913792747221
30
0
41
1
10
-1.7950399779393
20
16.7916721035533
30
0
41
1
10
-1.7950399779393
20
17.1188453667221
30
0
41
1
10
-1.7950399779393
20
17.2795209542918
30
0
41
1
10
-1.79503997793927
20
17.3192810343081
30
0
41
1
10
-1.7950399779393
20
17.325755878136
30
0
0
SPLINE
5
F4
100
AcDbEntity
8
SK1
62
256
6
ByLayer
370
13
48
1
60
0
100
AcDbSpline
70
4
71
3
72
19
73
15
40
0
40
0
40
0
40
0
40
0.0664184391923171
40
0.133795131432063
40
0.201171823671809
40
0.268548515911555
40
0.403301900391047
40
0.538055284870539
40
0.605431977110285
40
0.672808669350031
40
0.807562053829523
40
0.874938746069269
40
0.942315438309015
40
1
40
1
40
1
40
1
41
1
10
-0.194976888875288
20
-17.3652986040472
30
0
41
1
10
-0.194976888875345
20
-17.3791351963565
30
0
41
1
10
-0.194976888875317
20
-17.3505752186736
30
0
41
1
10
-0.194976888875288
20
-17.1586060420318
30
0
41
1
10
-0.194976888875288
20
-16.8308407609472
30
0
41
1
10
-0.194976888875288
20
-16.2296006616932
30
0
41
1
10
-0.194976888875288
20
-15.1935360543338
30
0
41
1
10
-0.194976888875288
20
-13.8199155786832
30
0
41
1
10
-0.194976888875288
20
-12.5327090406557
30
0
41
1
10
-0.194976888875288
20
-11.124360123357
30
0
41
1
10
-0.194976888875288
20
-9.54003756166779
30
0
41
1
10
-0.194976888875288
20
-7.78272657852642
30
0
41
1
10
-0.194976888875288
20
-6.44811514688843
30
0
41
1
10
-0.194976888875288
20
-5.53313598467676
30
0
41
1
10
-0.194976888875288
20
-5.10125345321859
30
0
0
SPLINE
5
F5
100
AcDbEntity
8
SK1
62
256
6
ByLayer
370
13
48
1
60
0
100
AcDbSpline
70
4
71
3
72
19
73
15
40
0
40
0
40
0
40
0
40
0.0576847343356964
40
0.125061503288726
40
0.192438272241756
40
0.327191810147815
40
0.394568579100845
40
0.461945348053874
40
0.596698885959934
40
0.731452423865993
40
0.798829192819022
40
0.866205961772052
40
0.933582730725082
40
1
40
1
40
1
40
1
41
1
10
-0.194976888875288
20
5.10125086896116
30
0
41
1
10
-0.194976888875288
20
5.53313428608726
30
0
41
1
10
-0.194976888875288
20
6.44811450197781
30
0
41
1
10
-0.194976888875288
20
7.78272641346857
30
0
41
1
10
-0.194976888875288
20
9.54003737468344
30
0
41
1
10
-0.194976888875288
20
11.1243601127487
30
0
41
1
10
-0.194976888875288
20
12.5327088879465
30
0
41
1
10
-0.194976888875288
20
13.8199159522374
30
0
41
1
10
-0.194976888875288
20
15.1935356351606
30
0
41
1
10
-0.194976888875288
20
16.2296014295452
30
0
41
1
10
-0.194976888875288
20
16.8308406320639
30
0
41
1
10
-0.194976888875288
20
17.1586063633231
30
0
41
1
10
-0.194976888875288
20
17.3505746336369
30
0
41
1
10
-0.194976888875288
20
17.3791347769719
30
0
41
1
10
-0.19497688887526
20
17.3652994788145
30
0
0
SPLINE
5
F6
100
AcDbEntity
8
SK1
62
256
6
ByLayer
370
13
48
1
60
0
100
AcDbSpline
70
4
71
3
72
39
73
35
40
0
40
0
40
0
40
0
40
0.0181813871329989
40
0.0465236658519977
40
0.0748659445709964
40
0.103208223289995
40
0.159892780727993
40
0.21657733816599
40
0.244919616884989
40
0.273261895603988
40
0.329946453041985
40
0.358288731760984
40
0.386631010479983
40
0.414973289198981
40
0.44331556791798
40
0.471657846636979
40
0.485828985996478
40
0.500000125355978
40
0.514171264715477
40
0.528342404074976
40
0.556684682793975
40
0.585026961512974
40
0.613369240231972
40
0.641711518950971
40
0.67005379766997
40
0.726738355107967
40
0.755080633826966
40
0.783422912545965
40
0.840107469983962
40
0.89679202742196
40
0.925134306140958
40
0.953476584859957
40
0.981818863578956
40
1
40
1
40
1
40
1
41
1
10
-30
20
15.993205159593
30
0
41
1
10
-30
20
15.9899210890907
30
0
41
1
10
-30
20
15.9548416118691
30
0
41
1
10
-30
20
15.7965331178349
30
0
41
1
10
-30
20
15.4890632796305
30
0
41
1
10
-30
20
14.9202435431778
30
0
41
1
10
-30
20
13.9430327235571
30
0
41
1
10
-30
20
12.6450678356931
30
0
41
1
10
-30
20
11.4213906920358
30
0
41
1
10
-30
20
10.0843425709124
30
0
41
1
10
-30
20
8.60269253637253
30
0
41
1
10
-30
20
6.94912017416232
30
0
41
1
10
-30
20
5.64600401967195
30
0
41
1
10
-30
20
4.28092547446499
30
0
41
1
10
-30
20
2.86766099029055
30
0
41
1
10
-30
20
1.67580430318804
30
0
41
1
10
-30
20
0.709818178928145
30
0
41
1
10
-30
20
-2.731357824E-07
30
0
41
1
10
-30
20
-0.709818138095528
30
0
41
1
10
-30
20
-1.67580418173881
30
0
41
1
10
-30
20
-2.86766148350514
30
0
41
1
10
-30
20
-4.28092566737899
30
0
41
1
10
-30
20
-5.64600378047228
30
0
41
1
10
-30
20
-6.94912049428407
30
0
41
1
10
-30
20
-8.60269267078093
30
0
41
1
10
-30
20
-10.084342571431
30
0
41
1
10
-30
20
-11.4213907579162
30
0
41
1
10
-30
20
-12.6450674903883
30
0
41
1
10
-30
20
-13.9430330734596
30
0
41
1
10
-30
20
-14.9202427964398
30
0
41
1
10
-30
20
-15.4890634139888
30
0
41
1
10
-30
20
-15.7965327535813
30
0
41
1
10
-30
20
-15.9548405332025
30
0
41
1
10
-30
20
-15.9899204508331
30
0
41
1
10
-30
20
-15.9932048409378
30
0
0
SPLINE
5
F7
100
AcDbEntity
8
1
62
256
6
ByLayer
370
13
48
1
60
0
100
AcDbSpline
70
4
71
3
72
8
73
4
40
0
40
0
40
0
40
0
40
1
40
1
40
1
40
1
41
1
10
52.9983266942356
20
-12.6758678229888
30
0
41
1
10
53.0024914175982
20
-12.6804100916471
30
0
41
1
10
53.0066328870993
20
-12.6849925356196
30
0
41
1
10
53.010751103602
20
-12.6896151534152
30
0
0
SPLINE
5
F8
100
AcDbEntity
8
1
62
256
6
ByLayer
370
13
48
1
60
0
100
AcDbSpline
70
4
71
3
72
50
73
46
40
0
40
0
40
0
40
0
40
0.0380386344746195
40
0.0380386344746195
40
0.0633534072516033
40
0.0633534072516033
40
0.088668180028587
40
0.088668180028587
40
0.139297725582555
40
0.139297725582555
40
0.189927271136522
40
0.189927271136522
40
0.24055681669049
40
0.24055681669049
40
0.291186362244457
40
0.291186362244457
40
0.392445453352392
40
0.392445453352392
40
0.417760226129376
40
0.417760226129376
40
0.443074998906359
40
0.443074998906359
40
0.493704544460327
40
0.493704544460327
40
0.544334090014294
40
0.544334090014294
40
0.594963635568261
40
0.594963635568261
40
0.645593181122229
40
0.645593181122229
40
0.696222726676196
40
0.696222726676196
40
0.746852272230163
40
0.746852272230163
40
0.772167045007147
40
0.772167045007147
40
0.797481817784131
40
0.797481817784131
40
0.848111363338098
40
0.848111363338098
40
0.898740908892065
40
0.898740908892065
40
0.949370454446033
40
0.949370454446033
40
1
40
1
40
1
40
1
41
1
10
19.4336327310256
20
25.0000025910066
30
0
41
1
10
19.4336329187194
20
24.9999597496313
30
0
41
1
10
19.4336961597163
20
24.9880533783698
30
0
41
1
10
19.4339075680044
20
24.94837859736
30
0
41
1
10
19.4340204871228
20
24.9272138347104
30
0
41
1
10
19.4343031374438
20
24.874435839176
30
0
41
1
10
19.4344728590635
20
24.8428242438386
30
0
41
1
10
19.435068698215
20
24.7324039243606
30
0
41
1
10
19.4355811339903
20
24.6380292284552
30
0
41
1
10
19.4368524891769
20
24.4077222949169
30
0
41
1
10
19.4376132746147
20
24.2714549977774
30
0
41
1
10
19.4393969594321
20
23.9588948541532
30
0
41
1
10
19.4404196579232
20
23.7826149208167
30
0
41
1
10
19.4427594559894
20
23.3902179113187
30
0
41
1
10
19.4440774974437
20
23.1739274113354
30
0
41
1
10
19.4485399294103
20
22.4657365173074
30
0
41
1
10
19.452153019637
20
21.9190237988637
30
0
41
1
10
19.4578177498266
20
21.1426666989659
30
0
41
1
10
19.4590102116422
20
20.9825921062306
30
0
41
1
10
19.4615162060533
20
20.654246929824
30
0
41
1
10
19.4628304356946
20
20.4858736554062
30
0
41
1
10
19.4669775500911
20
19.96821558705
30
0
41
1
10
19.470013121913
20
19.6064082824217
30
0
41
1
10
19.4767716872894
20
18.8493492224082
30
0
41
1
10
19.4805022167921
20
18.4533101338478
30
0
41
1
10
19.4888023401088
20
17.6329542932427
30
0
41
1
10
19.4933722452614
20
17.2083605053511
30
0
41
1
10
19.5036278412782
20
16.3304497843767
30
0
41
1
10
19.5093173372191
20
15.8766809947846
30
0
41
1
10
19.5222013721581
20
14.9420511340978
30
0
41
1
10
19.529367095523
20
14.4629992062777
30
0
41
1
10
19.5457395596509
20
13.4816324633947
30
0
41
1
10
19.554938682929
20
12.9793174556888
30
0
41
1
10
19.5709853960906
20
12.2082946214998
30
0
41
1
10
19.5767170537931
20
11.9481956608341
30
0
41
1
10
19.5890681307997
20
11.4241148565469
30
0
41
1
10
19.5956909944861
20
11.1599177959108
30
0
41
1
10
19.6172336554841
20
10.3608985551395
30
0
41
1
10
19.6337675043475
20
9.81965455785513
30
0
41
1
10
19.6740200775943
20
8.72009799175754
30
0
41
1
10
19.6977432872876
20
8.16047251880875
30
0
41
1
10
19.7573466381167
20
7.03442123552625
30
0
41
1
10
19.793040201892
20
6.46723978709096
30
0
41
1
10
19.8878917855629
20
5.32592299123462
30
0
41
1
10
19.9464460217291
20
4.75172118594617
30
0
41
1
10
20.0307233094843
20
4.17553972836316
30
0
0
SPLINE
5
F9
100
AcDbEntity
8
1
62
256
6
ByLayer
370
13
48
1
60
0
100
AcDbSpline
70
4
71
3
72
12
73
8
40
0
40
0
40
0
40
0
40
0.104253977438993
40
0.104253977438993
40
0.402835984959338
40
0.402835984959338
40
1
40
1
40
1
40
1
41
1
10
45.2032088347182
20
-23.6427352667618
30
0
41
1
10
45.200713798945
20
-23.6348147967535
30
0
41
1
10
45.1986794006233
20
-23.626877281965
30
0
41
1
10
45.1924789881109
20
-23.5964380029389
30
0
41
1
10
45.1912407456558
20
-23.5740683452582
30
0
41
1
10
45.195649054731
20
-23.5084650428794
30
0
41
1
10
45.2089237359858
20
-23.4688091600495
30
0
41
1
10
45.2301192387499
20
-23.433475318524
30
0
0
SPLINE
5
FA
100
AcDbEntity
8
1
62
256
6
ByLayer
370
13
48
1
60
0
100
AcDbSpline
70
4
71
3
72
12
73
8
40
0
40
0
40
0
40
0
40
0.597164015022932
40
0.597164015022932
40
0.895746022534417
40
0.895746022534417
40
1
40
1
40
1
40
1
41
1
10
47.2568898615968
20
-21.2216433080938
30
0
41
1
10
47.2902419374014
20
-21.1974489134144
30
0
41
1
10
47.3285899529202
20
-21.1807685084072
30
0
41
1
10
47.3935594054756
20
-21.1706592697334
30
0
41
1
10
47.4159518597961
20
-21.1699431561719
30
0
41
1
10
47.4468157097358
20
-21.1734670162709
30
0
41
1
10
47.4549003293832
20
-21.1748018730962
30
0
41
1
10
47.4630081163102
20
-21.1765971000594
30
0
0
SPLINE
5
FB
100
AcDbEntity
8
1
62
256
6
ByLayer
370
13
48
1
60
0
100
AcDbSpline
70
4
71
3
72
14
73
10
40
0
40
0
40
0
40
0
40
0.125
40
0.125
40
0.249999999999999
40
0.249999999999999
40
0.5
40
0.5
40
1
40
1
40
1
40
1
41
1
10
20.2792076144162
20
-24.4405404746458
30
0
41
1
10
20.3202926762072
20
-24.4187496518039
30
0
41
1
10
20.3575129839849
20
-24.3980979197069
30
0
41
1
10
20.4283032071197
20
-24.3579005345747
30
0
41
1
10
20.4617608126334
20
-24.3383870535025
30
0
41
1
10
20.5585579251469
20
-24.2809554280915
30
0
41
1
10
20.618396486344
20
-24.2441250163569
30
0
41
1
10
20.7898764055752
20
-24.1362162396885
30
0
41
1
10
20.8935242812568
20
-24.0677152287945
30
0
41
1
10
20.9883692336787
20
-24.0018886604499
30
0
0
SPLINE
5
FC
100
AcDbEntity
8
1
62
256
6
ByLayer
370
13
48
1
60
0
100
AcDbSpline
70
4
71
3
72
14
73
10
40
0
40
0
40
0
40
0
40
0.5
40
0.5
40
0.75
40
0.75
40
0.875
40
0.875
40
1
40
1
40
1
40
1
41
1
10
20.8387581210559
20
-19.8590600151382
30
0
41
1
10
20.7261893504325
20
-18.7853468662593
30
0
41
1
10
20.6227296105911
20
-17.6155726428544
30
0
41
1
10
20.4821732701286
20
-15.7065932901214
30
0
41
1
10
20.4377612442965
20
-15.0445344152311
30
0
41
1
10
20.3750028822569
20
-14.0107431235329
30
0
41
1
10
20.3547880828778
20
-13.660319994098
30
0
41
1
10
20.3158767038803
20
-12.9493124233805
30
0
41
1
10
20.2971648680588
20
-12.58847886927
30
0
41
1
10
20.2792076144253
20
-12.222238675804
30
0
0
SPLINE
5
FD
100
AcDbEntity
8
1
62
256
6
ByLayer
370
13
48
1
60
0
100
AcDbSpline
70
4
71
3
72
20
73
16
40
0
40
0
40
0
40
0
40
0.250000000000006
40
0.250000000000006
40
0.375000000000005
40
0.375000000000005
40
0.500000000000004
40
0.500000000000004
40
0.625000000000003
40
0.625000000000003
40
0.750000000000002
40
0.750000000000002
40
0.875000000000001
40
0.875000000000001
40
1
40
1
40
1
40
1
41
1
10
39.4959674425293
20
-23.0227470009795
30
0
41
1
10
39.6515064700955
20
-23.0598049677641
30
0
41
1
10
39.8126530973898
20
-23.0800385241553
30
0
41
1
10
40.0637016856142
20
-23.0814312760984
30
0
41
1
10
40.1482529885351
20
-23.0769713747055
30
0
41
1
10
40.3170536368701
20
-23.0578730945129
30
0
41
1
10
40.401610377947
20
-23.0432433433436
30
0
41
1
10
40.571013431981
20
-23.0030595293171
30
0
41
1
10
40.6563342533301
20
-22.977278337891
30
0
41
1
10
40.8228673203304
20
-22.9152701052189
30
0
41
1
10
40.9044940331508
20
-22.8790084283305
30
0
41
1
10
41.0643000456306
20
-22.7955173585005
30
0
41
1
10
41.1430253421566
20
-22.7478990806686
30
0
41
1
10
41.2940048806892
20
-22.642570759446
30
0
41
1
10
41.3657292092043
20
-22.5853438860131
30
0
41
1
10
41.4337119652029
20
-22.5235856354222
30
0
0
SPLINE
5
FE
100
AcDbEntity
8
1
62
256
6
ByLayer
370
13
48
1
60
0
100
AcDbSpline
70
4
71
3
72
12
73
8
40
0
40
0
40
0
40
0
40
0.25
40
0.25
40
0.5
40
0.5
40
1
40
1
40
1
40
1
41
1
10
22.4960050160343
20
-22.4434833702024
30
0
41
1
10
22.3205772529335
20
-22.281655338605
30
0
41
1
10
22.1530712632771
20
-22.1245060273182
30
0
41
1
10
21.8398884157948
20
-21.8120949166379
30
0
41
1
10
21.6936552962623
20
-21.6559529353458
30
0
41
1
10
21.306669842055
20
-21.1927484385639
30
0
41
1
10
21.1131882714914
20
-20.88627103662
30
0
41
1
10
20.9883692336888
20
-20.5610671114702
30
0
0
SPLINE
5
FF
100
AcDbEntity
8
1
62
256
6
ByLayer
370
13
48
1
60
0
100
AcDbSpline
70
4
71
3
72
24
73
20
40
0
40
0
40
0
40
0
40
0.125000000000002
40
0.125000000000002
40
0.187500000000001
40
0.187500000000001
40
0.250000000000001
40
0.250000000000001
40
0.375000000000002
40
0.375000000000002
40
0.437500000000003
40
0.437500000000003
40
0.500000000000004
40
0.500000000000004
40
0.750000000000003
40
0.750000000000003
40
0.875000000000002
40
0.875000000000002
40
1
40
1
40
1
40
1
41
1
10
45.8541280349708
20
-17.734896303995
30
0
41
1
10
45.9211849774303
20
-17.6480518638059
30
0
41
1
10
45.9811660101014
20
-17.5566968149228
30
0
41
1
10
46.0605854341721
20
-17.4129436448634
30
0
41
1
10
46.0854106759241
20
-17.3636167325373
30
0
41
1
10
46.1306349918468
20
-17.2645336284941
30
0
41
1
10
46.1511008354288
20
-17.2147141768909
30
0
41
1
10
46.2064340637572
20
-17.0644787296722
30
0
41
1
10
46.2352695057797
20
-16.963289568393
30
0
41
1
10
46.2672244582369
20
-16.8100952650539
30
0
41
1
10
46.2759843413327
20
-16.7587943335796
30
0
41
1
10
46.2897559549165
20
-16.6557317071723
30
0
41
1
10
46.2947602022621
20
-16.6038347690974
30
0
41
1
10
46.3102348609971
20
-16.347788250495
30
0
41
1
10
46.2932672675806
20
-16.150386811091
30
0
41
1
10
46.2298612808112
20
-15.8643729961034
30
0
41
1
10
46.2025156037272
20
-15.7719865412347
30
0
41
1
10
46.137346629362
20
-15.5949769009467
30
0
41
1
10
46.099426669392
20
-15.5099454993058
30
0
41
1
10
46.0565120670304
20
-15.4282016806855
30
0
0
SPLINE
5
100
100
AcDbEntity
8
1
62
256
6
ByLayer
370
13
48
1
60
0
100
AcDbSpline
70
4
71
3
72
16
73
12
40
0
40
0
40
0
40
0
40
0.249999999999998
40
0.249999999999998
40
0.499999999999997
40
0.499999999999997
40
0.749999999999996
40
0.749999999999996
40
0.874999999999998
40
0.874999999999998
40
1
40
1
40
1
40
1
41
1
10
8.1056624327025
20
23.6665017920808
30
0
41
1
10
8.12111376292626
20
23.686033116806
30
0
41
1
10
8.13975567725333
20
23.7051129235882
30
0
41
1
10
8.1851219392768
20
23.7416171457991
30
0
41
1
10
8.21173961735192
20
23.7591079584197
30
0
41
1
10
8.27807345100135
20
23.7919105160782
30
0
41
1
10
8.31704385770792
20
23.807014118376
30
0
41
1
10
8.39103491659969
20
23.8249896713849
30
0
41
1
10
8.41759599948895
20
23.8299833264009
30
0
41
1
10
8.47600932946898
20
23.8371392949585
30
0
41
1
10
8.50692224136543
20
23.8391299750502
30
0
41
1
10
8.53867513459483
20
23.8391299750502
30
0
0
SPLINE
5
101
100
AcDbEntity
8
1
62
256
6
ByLayer
370
13
48
1
60
0
100
AcDbSpline
70
4
71
3
72
16
73
12
40
0
40
0
40
0
40
0
40
0.125000000000002
40
0.125000000000002
40
0.250000000000004
40
0.250000000000004
40
0.500000000000003
40
0.500000000000003
40
0.750000000000002
40
0.750000000000002
40
1
40
1
40
1
40
1
41
1
10
8.53867513459477
20
7.52966679426495
30
0
41
1
10
8.50697323176121
20
7.52966679426495
30
0
41
1
10
8.47563983861085
20
7.53610198950864
30
0
41
1
10
8.4177007223274
20
7.55854989603606
30
0
41
1
10
8.39058907041832
20
7.57464889660915
30
0
41
1
10
8.31777781748551
20
7.63015704912715
30
0
41
1
10
8.27812666032534
20
7.67767014498912
30
0
41
1
10
8.2117121049007
20
7.77870179643048
30
0
41
1
10
8.18485781079318
20
7.83248598676826
30
0
41
1
10
8.13959628273548
20
7.94218253951274
30
0
41
1
10
8.12110769698506
20
7.9984916943493
30
0
41
1
10
8.10566243270267
20
8.05584836782793
30
0
0
SPLINE
5
102
100
AcDbEntity
8
1
62
256
6
ByLayer
370
13
48
1
60
0
100
AcDbSpline
70
4
71
3
72
10
73
6
40
0
40
0
40
0
40
0
40
0.5
40
0.5
40
1
40
1
40
1
40
1
41
1
10
47.1457202132316
20
-21.2595275007397
30
0
41
1
10
47.1368718027698
20
-21.2691838462976
30
0
41
1
10
47.1302484551517
20
-21.2830474223512
30
0
41
1
10
47.121347986467
20
-21.3177295712497
30
0
41
1
10
47.1191048052793
20
-21.3388486766188
30
0
41
1
10
47.1192163989491
20
-21.3624607002231
30
0
0
SPLINE
5
103
100
AcDbEntity
8
1
62
256
6
ByLayer
370
13
48
1
60
0
100
AcDbSpline
70
4
71
3
72
8
73
4
40
0
40
0
40
0
40
0
40
1
40
1
40
1
40
1
41
1
10
24.5962666587139
20
-27.2930911459506
30
0
41
1
10
25.1723451871625
20
-27.9796394100449
30
0
41
1
10
25.7484238860046
20
-28.666187531168
30
0
41
1
10
26.3245027217234
20
-29.3527355374428
30
0
0
SPLINE
5
104
100
AcDbEntity
8
1
62
256
6
ByLayer
370
13
48
1
60
0
100
AcDbSpline
70
4
71
3
72
8
73
4
40
0
40
0
40
0
40
0
40
1
40
1
40
1
40
1
41
1
10
22.5406762034625
20
-23.3201363488489
30
0
41
1
10
23.1298882515539
20
-23.1461765610434
30
0
41
1
10
23.7411272199635
20
-22.9856988792651
30
0
41
1
10
24.3702709249574
20
-22.841036222882
30
0
0
SPLINE
5
105
100
AcDbEntity
8
1
62
256
6
ByLayer
370
13
48
1
60
0
100
AcDbSpline
70
4
71
3
72
30
73
26
40
0
40
0
40
0
40
0
40
0.0078125
40
0.0078125
40
0.015625
40
0.015625
40
0.0312499999999999
40
0.0312499999999999
40
0.0624999999999999
40
0.0624999999999999
40
0.0937499999999998
40
0.0937499999999998
40
0.125
40
0.125
40
0.187499999999999
40
0.187499999999999
40
0.249999999999999
40
0.249999999999999
40
0.374999999999999
40
0.374999999999999
40
0.5
40
0.5
40
0.75
40
0.75
40
1
40
1
40
1
40
1
41
1
10
28.8960972766285
20
14.3301183373012
30
0
41
1
10
28.9104444615796
20
14.3159072762783
30
0
41
1
10
28.9290654751105
20
14.2964095055224
30
0
41
1
10
28.9688761673794
20
14.254236239269
30
0
41
1
10
28.9900260856582
20
14.2315548155758
30
0
41
1
10
29.0546339137828
20
14.1618975015308
30
0
41
1
10
29.0996643420185
20
14.112863257247
30
0
41
1
10
29.2357226424289
20
13.9641657439691
30
0
41
1
10
29.3285896334111
20
13.8619328350376
30
0
41
1
10
29.5149204294015
20
13.6563131674567
30
0
41
1
10
29.6087020041403
20
13.5525376339236
30
0
41
1
10
29.7966731798622
20
13.3442258767168
30
0
41
1
10
29.8908821774005
20
13.2396626472023
30
0
41
1
10
30.1739436840646
20
12.925178015876
30
0
41
1
10
30.3632334982862
20
12.7144643725859
30
0
41
1
10
30.7421224082733
20
12.2922413529459
30
0
41
1
10
30.931787154709
20
12.0806506296228
30
0
41
1
10
31.5012411780122
20
11.4448994900492
30
0
41
1
10
31.8813501109361
20
11.0199243568296
30
0
41
1
10
32.6420153151361
20
10.1687927537609
30
0
41
1
10
33.022675152826
20
9.7425088582188
30
0
41
1
10
34.1650178130227
20
8.46258743480553
30
0
41
1
10
34.9270903201062
20
7.60786452280996
30
0
41
1
10
36.452919850313
20
5.89592185082947
30
0
41
1
10
37.2162023341705
20
5.03923767215241
30
0
41
1
10
37.9798170793865
20
4.18209604403438
30
0
0
SPLINE
5
106
100
AcDbEntity
8
1
62
256
6
ByLayer
370
13
48
1
60
0
100
AcDbSpline
70
4
71
3
72
10
73
6
40
0
40
0
40
0
40
0
40
0.5
40
0.5
40
1
40
1
40
1
40
1
41
1
10
20.9883692337011
20
-24.0018886604442
30
0
41
1
10
21.2465737669921
20
-23.882521263297
30
0
41
1
10
21.5077597173521
20
-23.7654509667831
30
0
41
1
10
22.0276599466202
20
-23.5377652141147
30
0
41
1
10
22.2864396387961
20
-23.4271282195548
30
0
41
1
10
22.5406762034618
20
-23.3201363488491
30
0
0
SPLINE
5
107
100
AcDbEntity
8
1
62
256
6
ByLayer
370
13
48
1
60
0
100
AcDbSpline
70
4
71
3
72
16
73
12
40
0
40
0
40
0
40
0
40
0.249999999999999
40
0.249999999999999
40
0.499999999999999
40
0.499999999999999
40
0.749999999999998
40
0.749999999999998
40
0.874999999999999
40
0.874999999999999
40
1
40
1
40
1
40
1
41
1
10
8.1056624327025
20
-8.05584836782791
30
0
41
1
10
8.12111376292623
20
-7.99846916820727
30
0
41
1
10
8.13975567725333
20
-7.94172327888208
30
0
41
1
10
8.1851219392768
20
-7.83191947486068
30
0
41
1
10
8.21173961735192
20
-7.77866338250476
30
0
41
1
10
8.27807345100135
20
-7.67774765104255
30
0
41
1
10
8.31704385770792
20
-7.63070347545363
30
0
41
1
10
8.39103491659969
20
-7.57431556968135
30
0
41
1
10
8.41759599948895
20
-7.55857361750128
30
0
41
1
10
8.47600932946898
20
-7.53597576299669
30
0
41
1
10
8.50692224136543
20
-7.5296667942653
30
0
41
1
10
8.53867513459483
20
-7.52966679426527
30
0
0
SPLINE
5
108
100
AcDbEntity
8
1
62
256
6
ByLayer
370
13
48
1
60
0
100
AcDbSpline
70
4
71
3
72
8
73
4
40
0
40
0
40
0
40
0
40
1
40
1
40
1
40
1
41
1
10
39.4959674425293
20
-23.0227470009795
30
0
41
1
10
38.1017316148023
20
-22.6905632024672
30
0
41
1
10
36.7198362579624
20
-22.4333087483613
30
0
41
1
10
35.3496675539532
20
-22.2433276954675
30
0
0
SPLINE
5
109
100
AcDbEntity
8
1
62
256
6
ByLayer
370
13
48
1
60
0
100
AcDbSpline
70
4
71
3
72
16
73
12
40
0
40
0
40
0
40
0
40
0.250000000000002
40
0.250000000000002
40
0.500000000000004
40
0.500000000000004
40
0.625000000000004
40
0.625000000000004
40
0.750000000000004
40
0.750000000000004
40
1
40
1
40
1
40
1
41
1
10
22.6547032068106
20
-25.7690485057529
30
0
41
1
10
22.8412055884602
20
-25.8610638403864
30
0
41
1
10
23.0231899028189
20
-25.9629650327064
30
0
41
1
10
23.3741153985085
20
-26.1840909293034
30
0
41
1
10
23.5437017214688
20
-26.3036261506575
30
0
41
1
10
23.7891717727712
20
-26.4965321288972
30
0
41
1
10
23.8695318415684
20
-26.5631481229614
30
0
41
1
10
24.025764886348
20
-26.6996467618844
30
0
41
1
10
24.1018363232217
20
-26.7696788892017
30
0
41
1
10
24.3240195012876
20
-26.9850329243976
30
0
41
1
10
24.4641157900446
20
-27.135598816341
30
0
41
1
10
24.5962666587139
20
-27.2930911459506
30
0
0
SPLINE
5
10A
100
AcDbEntity
8
1
62
256
6
ByLayer
370
13
48
1
60
0
100
AcDbSpline
70
4
71
3
72
8
73
4
40
0
40
0
40
0
40
0
40
1
40
1
40
1
40
1
41
1
10
47.2101345669972
20
-21.2632409305306
30
0
41
1
10
47.2241469647368
20
-21.247949081757
30
0
41
1
10
47.2397337927827
20
-21.2340887313552
30
0
41
1
10
47.2568898615968
20
-21.2216433080937
30
0
0
SPLINE
5
10B
100
AcDbEntity
8
1
62
256
6
ByLayer
370
13
48
1
60
0
100
AcDbSpline
70
4
71
3
72
14
73
10
40
0
40
0
40
0
40
0
40
0.25
40
0.25
40
0.375
40
0.375
40
0.5
40
0.5
40
1
40
1
40
1
40
1
41
1
10
20.2792076144162
20
-24.4405404746458
30
0
41
1
10
20.1612427890398
20
-24.503107025585
30
0
41
1
10
20.0606308979759
20
-24.561619541673
30
0
41
1
10
19.9363061508081
20
-24.6424543511995
30
0
41
1
10
19.8992658262229
20
-24.6682818970775
30
0
41
1
10
19.8348208253679
20
-24.7170254955131
30
0
41
1
10
19.8073162305816
20
-24.7400003689205
30
0
41
1
10
19.6930486322429
20
-24.8478057691734
30
0
41
1
10
19.6752601998526
20
-24.9114594762239
30
0
41
1
10
19.7331124915352
20
-24.9512460844023
30
0
0
SPLINE
5
10C
100
AcDbEntity
8
1
62
256
6
ByLayer
370
13
48
1
60
0
100
AcDbSpline
70
4
71
3
72
8
73
4
40
0
40
0
40
0
40
0
40
1
40
1
40
1
40
1
41
1
10
24.8235369134229
20
-22.7592537720722
30
0
41
1
10
24.671391159191
20
-22.7865922175426
30
0
41
1
10
24.5203113179695
20
-22.8138577480748
30
0
41
1
10
24.3702709249574
20
-22.841036222882
30
0
0
SPLINE
5
10D
100
AcDbEntity
8
1
62
256
6
ByLayer
370
13
48
1
60
0
100
AcDbSpline
70
4
71
3
72
25
73
21
40
0
40
0
40
0
40
0
40
0.125
40
0.125
40
0.1875
40
0.1875
40
0.25
40
0.312500000000001
40
0.312500000000001
40
0.375000000000001
40
0.375000000000001
40
0.500000000000001
40
0.500000000000001
40
0.750000000000001
40
0.750000000000001
40
0.8125
40
0.8125
40
0.875
40
0.875
40
1
40
1
40
1
40
1
41
1
10
20.0307233094803
20
4.17553972836348
30
0
41
1
10
20.0434474199944
20
4.87883711745988
30
0
41
1
10
20.0589396290577
20
5.57450208452025
30
0
41
1
10
20.0864431750254
20
6.60623909632153
30
0
41
1
10
20.0963291002169
20
6.94831561971128
30
0
41
1
10
20.1174438711765
20
7.62510586318933
30
0
41
1
10
20.1399221522277
20
8.2953715725219
30
0
41
1
10
20.1651433508098
20
8.95251214314229
30
0
41
1
10
20.1917521948028
20
9.60301268966546
30
0
41
1
10
20.2057774854179
20
9.92551749611772
30
0
41
1
10
20.2497681499327
20
10.878542236168
30
0
41
1
10
20.28154760706
20
11.4928181943684
30
0
41
1
10
20.3841075758801
20
13.2735883883901
30
0
41
1
10
20.4620515612948
20
14.378524420797
30
0
41
1
10
20.5718605179551
20
15.6533176552976
30
0
41
1
10
20.594495138641
20
15.9034148574008
30
0
41
1
10
20.6407298889875
20
16.3894347965732
30
0
41
1
10
20.664334798334
20
16.6254776779517
30
0
41
1
10
20.7366009366794
20
17.3128649993581
30
0
41
1
10
20.786710673698
20
17.7435095916694
30
0
41
1
10
20.838758121056
20
18.1464634094727
30
0
0
SPLINE
5
10E
100
AcDbEntity
8
1
62
256
6
ByLayer
370
13
48
1
60
0
100
AcDbSpline
70
4
71
3
72
10
73
6
40
0
40
0
40
0
40
0
40
0.5
40
0.5
40
1
40
1
40
1
40
1
41
1
10
45.3584017452946
20
-23.2840527005636
30
0
41
1
10
45.3348698465396
20
-23.2859994549964
30
0
41
1
10
45.314026611865
20
-23.290074751517
30
0
41
1
10
45.2802521659728
20
-23.3019640996786
30
0
41
1
10
45.2670186077929
20
-23.3097705337275
30
0
41
1
10
45.258170197331
20
-23.3194268792854
30
0
0
SPLINE
5
10F
100
AcDbEntity
8
1
62
256
6
ByLayer
370
13
48
1
60
0
100
AcDbSpline
70
4
71
3
72
14
73
10
40
0
40
0
40
0
40
0
40
0.125
40
0.125
40
0.250000000000001
40
0.250000000000001
40
0.500000000000002
40
0.500000000000002
40
1
40
1
40
1
40
1
41
1
10
22.6547032068105
20
-25.7690485057531
30
0
41
1
10
22.5871125992453
20
-25.7357010904644
30
0
41
1
10
22.5184210385681
20
-25.7034002257379
30
0
41
1
10
22.3807984563919
20
-25.6418141685238
30
0
41
1
10
22.311925458195
20
-25.6125391672641
30
0
41
1
10
22.1050343647877
20
-25.529034998785
30
0
41
1
10
21.9667392628635
20
-25.4791150333161
30
0
41
1
10
21.550311730733
20
-25.3452782981258
30
0
41
1
10
21.2705928167394
20
-25.2771873505984
30
0
41
1
10
20.9883692336967
20
-25.2284760326229
30
0
0
SPLINE
5
110
100
AcDbEntity
8
1
62
256
6
ByLayer
370
13
48
1
60
0
100
AcDbSpline
70
4
71
3
72
12
73
8
40
0
40
0
40
0
40
0
40
0.5
40
0.5
40
0.75
40
0.75
40
1
40
1
40
1
40
1
41
1
10
24.3702709249574
20
-22.841036222882
30
0
41
1
10
24.0262555206852
20
-22.8202367385462
30
0
41
1
10
23.6943074521484
20
-22.7765916559174
30
0
41
1
10
23.2143298558211
20
-22.6750155333499
30
0
41
1
10
23.0609230049725
20
-22.6357581967237
30
0
41
1
10
22.7684241587953
20
-22.5472793212021
30
0
41
1
10
22.6289541200376
20
-22.4979719722027
30
0
41
1
10
22.4960050160343
20
-22.4434833702024
30
0
0
SPLINE
5
111
100
AcDbEntity
8
1
62
256
6
ByLayer
370
13
48
1
60
0
100
AcDbSpline
70
4
71
3
72
8
73
4
40
0
40
0
40
0
40
0
40
1
40
1
40
1
40
1
41
1
10
44.3887147038804
20
-12.378938699186
30
0
41
1
10
44.9450859438753
20
-13.3553206761445
30
0
41
1
10
45.5018352684324
20
-14.3716522284633
30
0
41
1
10
46.0565120670303
20
-15.4282016806855
30
0
0
SPLINE
5
112
100
AcDbEntity
8
1
62
256
6
ByLayer
370
13
48
1
60
0
100
AcDbSpline
70
4
71
3
72
14
73
10
40
0
40
0
40
0
40
0
40
0.25
40
0.25
40
0.5
40
0.5
40
0.75
40
0.75
40
1
40
1
40
1
40
1
41
1
10
52.9591124402559
20
-13.1964428646793
30
0
41
1
10
52.9557468807327
20
-13.2022721847694
30
0
41
1
10
52.9566012435486
20
-13.212886450012
30
0
41
1
10
52.9659305816146
20
-13.2417995117104
30
0
41
1
10
52.9744216030473
20
-13.2602745270583
30
0
41
1
10
52.9985072321966
20
-13.3041424547774
30
0
41
1
10
53.0137171453862
20
-13.3288847685532
30
0
41
1
10
53.0501405455345
20
-13.3836228085312
30
0
41
1
10
53.0714429458841
20
-13.413682609802
30
0
41
1
10
53.0946602140312
20
-13.444779092321
30
0
0
SPLINE
5
113
100
AcDbEntity
8
1
62
256
6
ByLayer
370
13
48
1
60
0
100
AcDbSpline
70
4
71
3
72
8
73
4
40
0
40
0
40
0
40
0
40
1
40
1
40
1
40
1
41
1
10
45.2301192387499
20
-23.433475318524
30
0
41
1
10
45.2410220534984
20
-23.4152998436231
30
0
41
1
10
45.2534711795069
20
-23.3985643190297
30
0
41
1
10
45.2674835772465
20
-23.3832724702561
30
0
0
SPLINE
5
114
100
AcDbEntity
8
1
62
256
6
ByLayer
370
13
48
1
60
0
100
AcDbSpline
70
4
71
3
72
16
73
12
40
0
40
0
40
0
40
0
40
0.250000000000002
40
0.250000000000002
40
0.500000000000003
40
0.500000000000003
40
0.750000000000004
40
0.750000000000004
40
0.875000000000002
40
0.875000000000002
40
1
40
1
40
1
40
1
41
1
10
11.8943375672976
20
8.05584836782785
30
0
41
1
10
11.8788862370739
20
7.99846916820721
30
0
41
1
10
11.8602443227468
20
7.94172327888202
30
0
41
1
10
11.8148780607233
20
7.8319194748606
30
0
41
1
10
11.7882603826482
20
7.7786633825047
30
0
41
1
10
11.7219265489987
20
7.67774765104247
30
0
41
1
10
11.6829561422922
20
7.63070347545354
30
0
41
1
10
11.6089650834004
20
7.57431556968123
30
0
41
1
10
11.5824040005111
20
7.5585736175012
30
0
41
1
10
11.5239906705311
20
7.5359757629966
30
0
41
1
10
11.4930777586347
20
7.52966679426521
30
0
41
1
10
11.4613248654053
20
7.52966679426521
30
0
0
SPLINE
5
115
100
AcDbEntity
8
1
62
256
6
ByLayer
370
13
48
1
60
0
100
AcDbSpline
70
4
71
3
72
16
73
12
40
0
40
0
40
0
40
0
40
0.124999999999996
40
0.124999999999996
40
0.249999999999992
40
0.249999999999992
40
0.499999999999995
40
0.499999999999995
40
0.749999999999997
40
0.749999999999997
40
1
40
1
40
1
40
1
41
1
10
11.4613248654053
20
-7.5296667942649
30
0
41
1
10
11.4930267682389
20
-7.5296667942649
30
0
41
1
10
11.5243601613892
20
-7.53610198950855
30
0
41
1
10
11.5822992776727
20
-7.558549896036
30
0
41
1
10
11.6094109295818
20
-7.57464889660909
30
0
41
1
10
11.6822221825146
20
-7.63015704912709
30
0
41
1
10
11.7218733396747
20
-7.67767014498907
30
0
41
1
10
11.7882878950994
20
-7.77870179643042
30
0
41
1
10
11.8151421892069
20
-7.83248598676821
30
0
41
1
10
11.8604037172646
20
-7.94218253951269
30
0
41
1
10
11.878892303015
20
-7.99849169434927
30
0
41
1
10
11.8943375672974
20
-8.05584836782791
30
0
0
SPLINE
5
116
100
AcDbEntity
8
1
62
256
6
ByLayer
370
13
48
1
60
0
100
AcDbSpline
70
4
71
3
72
10
73
6
40
0
40
0
40
0
40
0
40
0.5
40
0.5
40
1
40
1
40
1
40
1
41
1
10
20.9883692336859
20
-20.5610671114818
30
0
41
1
10
20.9514277175735
20
-20.4391802659726
30
0
41
1
10
20.9198937316869
20
-20.3208396651461
30
0
41
1
10
20.8695434367733
20
-20.087736762843
30
0
41
1
10
20.8507016636144
20
-19.9729809420385
30
0
41
1
10
20.8387581210558
20
-19.8590600151379
30
0
0
SPLINE
5
117
100
AcDbEntity
8
1
62
256
6
ByLayer
370
13
48
1
60
0
100
AcDbSpline
70
4
71
3
72
18
73
14
40
0
40
0
40
0
40
0
40
0.125
40
0.125
40
0.25
40
0.25
40
0.375000000000001
40
0.375000000000001
40
0.500000000000001
40
0.500000000000001
40
0.75
40
0.75
40
1
40
1
40
1
40
1
41
1
10
19.7331124915352
20
-24.9512460844023
30
0
41
1
10
19.7363754174188
20
-24.9534900880515
30
0
41
1
10
19.7439170898488
20
-24.9556507590401
30
0
41
1
10
19.7665196993182
20
-24.9596943125258
30
0
41
1
10
19.781306915369
20
-24.961549413878
30
0
41
1
10
19.8164643373012
20
-24.9649978569828
30
0
41
1
10
19.8369636450724
20
-24.9665951484413
30
0
41
1
10
19.8812304201597
20
-24.9694980870931
30
0
41
1
10
19.9051217958645
20
-24.9708179030922
30
0
41
1
10
19.9808695592435
20
-24.9744796741852
30
0
41
1
10
20.0370688451017
20
-24.9765369321749
30
0
41
1
10
20.1545331487193
20
-24.9800952786704
30
0
41
1
10
20.21593993861
20
-24.9816024705744
30
0
41
1
10
20.2792076144251
20
-24.9829324852897
30
0
0
SPLINE
5
118
100
AcDbEntity
8
1
62
256
6
ByLayer
370
13
48
1
60
0
100
AcDbSpline
70
4
71
3
72
14
73
10
40
0
40
0
40
0
40
0
40
0.25
40
0.25
40
0.5
40
0.5
40
0.75
40
0.75
40
1
40
1
40
1
40
1
41
1
10
20.98836923369
20
-25.2284760326377
30
0
41
1
10
20.935550406918
20
-25.1891209512656
30
0
41
1
10
20.8809568563662
20
-25.154919385212
30
0
41
1
10
20.7682600936977
20
-25.0955697631766
30
0
41
1
10
20.7102065016156
20
-25.0705188051044
30
0
41
1
10
20.5925827094404
20
-25.0297999509245
30
0
41
1
10
20.5327249221372
20
-25.0139460702852
30
0
41
1
10
20.4094781300285
20
-24.9912490868917
30
0
41
1
10
20.3461914359696
20
-24.9843406209165
30
0
41
1
10
20.2792076144253
20
-24.9829324852897
30
0
0
SPLINE
5
119
100
AcDbEntity
8
1
62
256
6
ByLayer
370
13
48
1
60
0
100
AcDbSpline
70
4
71
3
72
10
73
6
40
0
40
0
40
0
40
0
40
0.5
40
0.5
40
1
40
1
40
1
40
1
41
1
10
52.9446431482068
20
-13.121504413658
30
0
41
1
10
52.941905320197
20
-13.1262464708735
30
0
41
1
10
52.9422846798021
20
-13.1345349867442
30
0
41
1
10
52.9487998025068
20
-13.1570397700848
30
0
41
1
10
52.9548802511042
20
-13.1712461620691
30
0
41
1
10
52.9637702007487
20
-13.1883753868563
30
0
0
SPLINE
5
11A
100
AcDbEntity
8
1
62
256
6
ByLayer
370
13
48
1
60
0
100
AcDbSpline
70
4
71
3
72
8
73
4
40
0
40
0
40
0
40
0
40
1
40
1
40
1
40
1
41
1
10
22.5406762034612
20
-23.320136348849
30
0
41
1
10
22.5269836419725
20
-23.0477716118532
30
0
41
1
10
22.5121110005717
20
-22.7553931425355
30
0
41
1
10
22.4960050160343
20
-22.4434833702024
30
0
0
SPLINE
5
11B
100
AcDbEntity
8
1
62
256
6
ByLayer
370
13
48
1
60
0
100
AcDbSpline
70
4
71
3
72
9
73
5
40
0
40
0
40
0
40
0
40
0.5
40
1
40
1
40
1
40
1
41
1
10
45.8541280349708
20
-17.734896303995
30
0
41
1
10
45.1876012759292
20
-18.5981051103748
30
0
41
1
10
43.7838654600085
20
-20.2589880634794
30
0
41
1
10
42.2406351078961
20
-21.7905444263378
30
0
41
1
10
41.4337119652029
20
-22.5235856354222
30
0
0
SPLINE
5
11C
100
AcDbEntity
8
1
62
256
6
ByLayer
370
13
48
1
60
0
100
AcDbSpline
70
4
71
3
72
16
73
12
40
0
40
0
40
0
40
0
40
0.250000000000001
40
0.250000000000001
40
0.500000000000001
40
0.500000000000001
40
0.750000000000002
40
0.750000000000002
40
0.875000000000001
40
0.875000000000001
40
1
40
1
40
1
40
1
41
1
10
11.8943375672976
20
-23.6665017920808
30
0
41
1
10
11.8788862370739
20
-23.6860331168061
30
0
41
1
10
11.8602443227468
20
-23.7051129235882
30
0
41
1
10
11.8148780607233
20
-23.7416171457991
30
0
41
1
10
11.7882603826482
20
-23.7591079584197
30
0
41
1
10
11.7219265489987
20
-23.7919105160782
30
0
41
1
10
11.6829561422922
20
-23.8070141183761
30
0
41
1
10
11.6089650834004
20
-23.8249896713849
30
0
41
1
10
11.5824040005111
20
-23.8299833264009
30
0
41
1
10
11.5239906705311
20
-23.8371392949586
30
0
41
1
10
11.4930777586347
20
-23.8391299750503
30
0
41
1
10
11.4613248654053
20
-23.8391299750503
30
0
0
SPLINE
5
11D
100
AcDbEntity
8
1
62
256
6
ByLayer
370
13
48
1
60
0
100
AcDbSpline
70
4
71
3
72
16
73
12
40
0
40
0
40
0
40
0
40
0.125
40
0.125
40
0.25
40
0.25
40
0.5
40
0.5
40
0.75
40
0.75
40
1
40
1
40
1
40
1
41
1
10
11.4613248654053
20
23.8391299750504
30
0
41
1
10
11.4930267682389
20
23.8391299750504
30
0
41
1
10
11.5243601613892
20
23.8370993498304
30
0
41
1
10
11.5822992776727
20
23.8299908115613
30
0
41
1
10
11.6094109295818
20
23.8248834464053
30
0
41
1
10
11.6822221825146
20
23.8071882416308
30
0
41
1
10
11.7218733396747
20
23.7919356634172
30
0
41
1
10
11.7882878950994
20
23.7590955179201
30
0
41
1
10
11.8151421892069
20
23.7414301198899
30
0
41
1
10
11.8604037172646
20
23.704958919593
30
0
41
1
10
11.878892303015
20
23.6860254491251
30
0
41
1
10
11.8943375672974
20
23.6665017920808
30
0
0
SPLINE
5
11E
100
AcDbEntity
8
1
62
256
6
ByLayer
370
13
48
1
60
0
100
AcDbSpline
70
2053
71
3
72
93
73
89
40
0
40
0
40
0
40
0
40
0.0156249999999999
40
0.0156249999999999
40
0.03125
40
0.03125
40
0.0624999999999986
40
0.0624999999999986
40
0.0937499999999972
40
0.0937499999999972
40
0.124999999999996
40
0.124999999999996
40
0.140624999999995
40
0.140624999999995
40
0.156249999999995
40
0.171874999999995
40
0.171874999999995
40
0.187499999999994
40
0.187499999999994
40
0.218749999999994
40
0.218749999999994
40
0.249999999999995
40
0.249999999999995
40
0.281249999999995
40
0.281249999999995
40
0.296874999999995
40
0.296874999999995
40
0.312499999999995
40
0.312499999999995
40
0.343749999999995
40
0.343749999999995
40
0.359374999999995
40
0.359374999999995
40
0.374999999999995
40
0.374999999999995
40
0.406249999999995
40
0.406249999999995
40
0.437499999999995
40
0.437499999999995
40
0.453124999999995
40
0.453124999999995
40
0.468749999999995
40
0.468749999999995
40
0.499999999999995
40
0.499999999999995
40
0.515624999999995
40
0.515624999999995
40
0.531249999999994
40
0.531249999999994
40
0.562499999999995
40
0.562499999999995
40
0.593749999999996
40
0.593749999999996
40
0.609374999999996
40
0.609374999999996
40
0.624999999999996
40
0.624999999999996
40
0.656249999999996
40
0.656249999999996
40
0.671874999999996
40
0.671874999999996
40
0.687499999999996
40
0.687499999999996
40
0.718749999999997
40
0.718749999999997
40
0.749999999999998
40
0.749999999999998
40
0.765624999999998
40
0.765624999999998
40
0.781249999999998
40
0.781249999999998
40
0.812499999999999
40
0.812499999999999
40
0.828124999999999
40
0.828124999999999
40
0.843749999999999
40
0.843749999999999
40
0.874999999999999
40
0.874999999999999
40
0.906249999999999
40
0.906249999999999
40
0.937499999999999
40
0.937499999999999
40
0.953125
40
0.953125
40
0.96875
40
0.96875
40
1
40
1
40
1
40
1
41
1
10
45.090572479445
20
-19.4627404887544
30
0
41
1
10
45.0587051383678
20
-19.5061652864045
30
0
41
1
10
45.0251879611928
20
-19.5509728186822
30
0
41
1
10
44.9548928263408
20
-19.6432041525933
30
0
41
1
10
44.9179391439003
20
-19.6908512133749
30
0
41
1
10
44.8031600983732
20
-19.8362981250016
30
0
41
1
10
44.7218431525647
20
-19.9361128741972
30
0
41
1
10
44.5493201053763
20
-20.1412869230585
30
0
41
1
10
44.4573510817748
20
-20.2474394736689
30
0
41
1
10
44.2714118097145
20
-20.4557105500724
30
0
41
1
10
44.1765595682772
20
-20.5589242596483
30
0
41
1
10
44.0313699369582
20
-20.712321562197
30
0
41
1
10
43.9829836774084
20
-20.7626835550317
30
0
41
1
10
43.887433793872
20
-20.8606954048357
30
0
41
1
10
43.7927254949185
20
-20.9563981159815
30
0
41
1
10
43.6997031093985
20
-21.0476152912354
30
0
41
1
10
43.6075561869831
20
-21.1365943483963
30
0
41
1
10
43.5616946373819
20
-21.1801705373331
30
0
41
1
10
43.4285149115256
20
-21.3046922548755
30
0
41
1
10
43.3447735853911
20
-21.380276413266
30
0
41
1
10
43.1871252752892
20
-21.5176161860307
30
0
41
1
10
43.1125963641865
20
-21.579826992849
30
0
41
1
10
42.9794496811382
20
-21.6858647440093
30
0
41
1
10
42.9202046825343
20
-21.7302877988561
30
0
41
1
10
42.8422827836397
20
-21.78449172622
30
0
41
1
10
42.8180525491364
20
-21.8005294795932
30
0
41
1
10
42.7738600943994
20
-21.8280468624277
30
0
41
1
10
42.7540020851672
20
-21.8394710057552
30
0
41
1
10
42.700953284205
20
-21.8670023117143
30
0
41
1
10
42.6742311896388
20
-21.8764319376805
30
0
41
1
10
42.6474213099319
20
-21.8770297354002
30
0
41
1
10
42.640719710439
20
-21.8749207312975
30
0
41
1
10
42.6320939629046
20
-21.8661813827606
30
0
41
1
10
42.6301153073329
20
-21.8595657467661
30
0
41
1
10
42.6310895322619
20
-21.8330602646578
30
0
41
1
10
42.6409064062547
20
-21.8065483076484
30
0
41
1
10
42.6797487170989
20
-21.7348789087417
30
0
41
1
10
42.7081946847717
20
-21.6907752351955
30
0
41
1
10
42.7640370182766
20
-21.6122631581443
30
0
41
1
10
42.7848611412244
20
-21.5840186208499
30
0
41
1
10
42.8310488862914
20
-21.523206455383
30
0
41
1
10
42.856469828451
20
-21.4905754753653
30
0
41
1
10
42.9379750015319
20
-21.3881216622112
30
0
41
1
10
42.9997092814609
20
-21.3131673995477
30
0
41
1
10
43.103382090166
20
-21.1903467052219
30
0
41
1
10
43.1400192406758
20
-21.1474071415293
30
0
41
1
10
43.2158738210317
20
-21.0593155247703
30
0
41
1
10
43.2550586520655
20
-21.0141951679669
30
0
41
1
10
43.3762672765416
20
-20.875616304716
30
0
41
1
10
43.4621023141409
20
-20.7787524948061
30
0
41
1
10
43.6429363013301
20
-20.5767064414822
30
0
41
1
10
43.7351676941121
20
-20.4746080894188
30
0
41
1
10
43.8760607344857
20
-20.3198120008914
30
0
41
1
10
43.9234537370604
20
-20.2679374392039
30
0
41
1
10
44.0191202216039
20
-20.1636163109446
30
0
41
1
10
44.0671290624592
20
-20.1114605970874
30
0
41
1
10
44.2092143231619
20
-19.9576911880582
30
0
41
1
10
44.3023380924618
20
-19.8576824428643
30
0
41
1
10
44.4397222728372
20
-19.7115278798115
30
0
41
1
10
44.4853537475474
20
-19.6632264673774
30
0
41
1
10
44.573902341036
20
-19.5700380579348
30
0
41
1
10
44.6170052047979
20
-19.5249509688263
30
0
41
1
10
44.742952117034
20
-19.3941216020614
30
0
41
1
10
44.822515831767
20
-19.3127146216199
30
0
41
1
10
44.9725836362454
20
-19.1624592600104
30
0
41
1
10
45.0405512139967
20
-19.0961544587424
30
0
41
1
10
45.1328070179058
20
-19.0092982443562
30
0
41
1
10
45.161929841939
20
-18.9824621814915
30
0
41
1
10
45.2169215280482
20
-18.9330970614269
30
0
41
1
10
45.2429013297659
20
-18.9104803021702
30
0
41
1
10
45.3144435392673
20
-18.8505102335242
30
0
41
1
10
45.3540896941775
20
-18.820561369697
30
0
41
1
10
45.40212943012
20
-18.7901988804298
30
0
41
1
10
45.4162233639694
20
-18.7825212148377
30
0
41
1
10
45.4405097665521
20
-18.7721672342894
30
0
41
1
10
45.4506343557002
20
-18.7695389702706
30
0
41
1
10
45.4746025523476
20
-18.7692570030747
30
0
41
1
10
45.4823517790962
20
-18.7790236286638
30
0
41
1
10
45.4815644992672
20
-18.8182331606307
30
0
41
1
10
45.4727790488215
20
-18.8480809177468
30
0
41
1
10
45.4391006713653
20
-18.9254921941696
30
0
41
1
10
45.4143014632577
20
-18.9731255321466
30
0
41
1
10
45.3646281680508
20
-19.0582457243468
30
0
41
1
10
45.3458961441953
20
-19.089029148547
30
0
41
1
10
45.3048897191501
20
-19.1539924648211
30
0
41
1
10
45.282548706959
20
-19.1882945443058
30
0
41
1
10
45.2099928337236
20
-19.2965816371492
30
0
41
1
10
45.1543071615995
20
-19.3758908934542
30
0
41
1
10
45.090572479445
20
-19.4627404887544
30
0
0
SPLINE
5
11F
100
AcDbEntity
8
1
62
256
6
ByLayer
370
13
48
1
60
0
100
AcDbSpline
70
4
71
3
72
36
73
32
40
0
40
0
40
0
40
0
40
0.25
40
0.25
40
0.375
40
0.375
40
0.5
40
0.5
40
0.5625
40
0.5625
40
0.625
40
0.625
40
0.6875
40
0.6875
40
0.71875
40
0.71875
40
0.75
40
0.75
40
0.8125
40
0.8125
40
0.84375
40
0.84375
40
0.875
40
0.875
40
0.890625
40
0.890625
40
0.90625
40
0.90625
40
0.9375
40
0.9375
40
1
40
1
40
1
40
1
41
1
10
33.9800596370512
20
5.75227615596424
30
0
41
1
10
33.3724447003012
20
6.75104883594153
30
0
41
1
10
32.7608915651889
20
7.73400998119649
30
0
41
1
10
31.8463884146705
20
9.17765317068023
30
0
41
1
10
31.5420831583114
20
9.65368114203457
30
0
41
1
10
30.9378682547966
20
10.5924661827978
30
0
41
1
10
30.6378487246349
20
11.0553242192049
30
0
41
1
10
30.1961008886386
20
11.7352161577108
30
0
41
1
10
30.0504572791167
20
11.9591222587782
30
0
41
1
10
29.7651627919478
20
12.3982407706597
30
0
41
1
10
29.6253531669977
20
12.6136842777788
30
0
41
1
10
29.3544964563499
20
13.0332521676829
30
0
41
1
10
29.2233855774412
20
13.2374423234777
30
0
41
1
10
29.0373583938165
20
13.5311328841867
30
0
41
1
10
28.9771454869404
20
13.6269071471064
30
0
41
1
10
28.8614767394774
20
13.813025547712
30
0
41
1
10
28.8058409694064
20
13.9036628505571
30
0
41
1
10
28.6498539609381
20
14.1628047417861
30
0
41
1
10
28.5611475453875
20
14.3170462286349
30
0
41
1
10
28.4680836465357
20
14.5014839666722
30
0
41
1
10
28.4439286761896
20
14.5550342085227
30
0
41
1
10
28.4146680930508
20
14.6380969621495
30
0
41
1
10
28.4092559096665
20
14.6681689260984
30
0
41
1
10
28.4169206949982
20
14.6937219231297
30
0
41
1
10
28.4221513819101
20
14.6989313383757
30
0
41
1
10
28.4376586924017
20
14.7025563233658
30
0
41
1
10
28.4479382903058
20
14.7010378710826
30
0
41
1
10
28.4859504385429
20
14.6870141846005
30
0
41
1
10
28.5210028057965
20
14.6649285085859
30
0
41
1
10
28.6505399145738
20
14.5658265466717
30
0
41
1
10
28.7651585142272
20
14.4598147724596
30
0
41
1
10
28.8960972766324
20
14.3301183372964
30
0
0
SPLINE
5
120
100
AcDbEntity
8
1
62
256
6
ByLayer
370
13
48
1
60
0
100
AcDbSpline
70
4
71
3
72
16
73
12
40
0
40
0
40
0
40
0
40
0.124999999999997
40
0.124999999999997
40
0.249999999999994
40
0.249999999999994
40
0.499999999999996
40
0.499999999999996
40
0.749999999999998
40
0.749999999999998
40
1
40
1
40
1
40
1
41
1
10
8.53867513459477
20
-23.8391299750504
30
0
41
1
10
8.50697323176121
20
-23.8391299750504
30
0
41
1
10
8.47563983861085
20
-23.8370993498304
30
0
41
1
10
8.4177007223274
20
-23.8299908115612
30
0
41
1
10
8.39058907041832
20
-23.8248834464052
30
0
41
1
10
8.31777781748551
20
-23.8071882416307
30
0
41
1
10
8.27812666032534
20
-23.7919356634171
30
0
41
1
10
8.21171210490067
20
-23.75909551792
30
0
41
1
10
8.18485781079318
20
-23.7414301198899
30
0
41
1
10
8.13959628273548
20
-23.704958919593
30
0
41
1
10
8.12110769698506
20
-23.6860254491251
30
0
41
1
10
8.10566243270267
20
-23.6665017920808
30
0
0
SPLINE
5
121
100
AcDbEntity
8
1
62
256
6
ByLayer
370
13
48
1
60
0
100
AcDbSpline
70
4
71
3
72
40
73
36
40
0
40
0
40
0
40
0
40
0.0625000000000013
40
0.0625000000000013
40
0.125000000000003
40
0.125000000000003
40
0.156250000000003
40
0.156250000000003
40
0.187500000000003
40
0.187500000000003
40
0.250000000000004
40
0.250000000000004
40
0.281250000000004
40
0.281250000000004
40
0.312500000000005
40
0.312500000000005
40
0.375000000000005
40
0.375000000000005
40
0.406250000000004
40
0.406250000000004
40
0.437500000000004
40
0.437500000000004
40
0.500000000000004
40
0.500000000000004
40
0.562500000000003
40
0.562500000000003
40
0.625000000000003
40
0.625000000000003
40
0.687500000000003
40
0.687500000000003
40
0.750000000000003
40
0.750000000000003
40
0.875000000000001
40
0.875000000000001
40
1
40
1
40
1
40
1
41
1
10
20.838758121056
20
18.1464634094725
30
0
41
1
10
20.849395345208
20
18.2288173057815
30
0
41
1
10
20.8659207139594
20
18.3053223942362
30
0
41
1
10
20.912828160547
20
18.4431575955056
30
0
41
1
10
20.942983246245
20
18.5039378948329
30
0
41
1
10
20.9999213141832
20
18.5811538498708
30
0
41
1
10
21.0208582409807
20
18.6045598177174
30
0
41
1
10
21.0670282615278
20
18.6463052536044
30
0
41
1
10
21.0922074628634
20
18.664544129825
30
0
41
1
10
21.1730469115228
20
18.7102831120008
30
0
41
1
10
21.2343926783458
20
18.7292235522958
30
0
41
1
10
21.3382670811248
20
18.7397306677647
30
0
41
1
10
21.3750333759539
20
18.7402300660687
30
0
41
1
10
21.4519606500703
20
18.7351303487208
30
0
41
1
10
21.4918011366728
20
18.7295803536259
30
0
41
1
10
21.6152663668655
20
18.7044966794209
30
0
41
1
10
21.7028215181278
20
18.6765607218062
30
0
41
1
10
21.8415597421086
20
18.6194194643058
30
0
41
1
10
21.8891707341889
20
18.5977458576301
30
0
41
1
10
21.9850764447346
20
18.5504056592453
30
0
41
1
10
22.0335659929906
20
18.5246692723307
30
0
41
1
10
22.1805380655584
20
18.4418721883902
30
0
41
1
10
22.2805181826357
20
18.3792535557301
30
0
41
1
10
22.4840925410388
20
18.2414693344191
30
0
41
1
10
22.5881622895121
20
18.1658970965112
30
0
41
1
10
22.7955146589663
20
18.0069752337396
30
0
41
1
10
22.8992069269859
20
17.9233831181895
30
0
41
1
10
23.1067386884702
20
17.7492782074203
30
0
41
1
10
23.2105775208965
20
17.658757767515
30
0
41
1
10
23.4184777328432
20
17.4716575150177
30
0
41
1
10
23.5225685717353
20
17.3750229619202
30
0
41
1
10
23.8310566132805
20
17.0810234894983
30
0
41
1
10
24.0332396193331
20
16.878269946262
30
0
41
1
10
24.4322613380393
20
16.4620536323239
30
0
41
1
10
24.6290795965317
20
16.2485562587773
30
0
41
1
10
24.8235369134229
20
16.0302819755163
30
0
0
SPLINE
5
122
100
AcDbEntity
8
SK1
62
256
6
ByLayer
370
13
48
1
60
0
100
AcDbSpline
70
4
71
3
72
24
73
20
40
0
40
0
40
0
40
0
40
0.249999999999997
40
0.249999999999997
40
0.499999999999994
40
0.499999999999994
40
0.624999999999992
40
0.624999999999992
40
0.687499999999993
40
0.687499999999993
40
0.749999999999994
40
0.749999999999994
40
0.781249999999994
40
0.781249999999994
40
0.812499999999995
40
0.812499999999995
40
0.874999999999996
40
0.874999999999996
40
1
40
1
40
1
40
1
41
1
10
0
20
5.57923036606758
30
0
41
1
10
0
20
5.51779833593815
30
0
41
1
10
-0.0010407946611792
20
5.4561428430427
30
0
41
1
10
-0.0066100287585016
20
5.33222467485115
30
0
41
1
10
-0.0109086182200713
20
5.26998240259837
30
0
41
1
10
-0.0236290455403037
20
5.1758032881194
30
0
41
1
10
-0.0289274789974456
20
5.14400542585562
30
0
41
1
10
-0.0406106017669572
20
5.09708097823383
30
0
41
1
10
-0.0451125402901766
20
5.08157844540844
30
0
41
1
10
-0.0567618109963064
20
5.05119051958263
30
0
41
1
10
-0.0637941514040392
20
5.0359758456878
30
0
41
1
10
-0.0793983841521992
20
5.01728646661778
30
0
41
1
10
-0.0855293065042986
20
5.01193328599709
30
0
41
1
10
-0.0991967475965509
20
5.00573299924022
30
0
41
1
10
-0.10669251631586
20
5.00512851447206
30
0
41
1
10
-0.127007712652244
20
5.00942384168746
30
0
41
1
10
-0.138200686556445
20
5.01872263284184
30
0
41
1
10
-0.167487576580783
20
5.04962218612667
30
0
41
1
10
-0.18180259581078
20
5.07493537237929
30
0
41
1
10
-0.194976888870229
20
5.10125086895565
30
0
0
SPLINE
5
123
100
AcDbEntity
8
SK1
62
256
6
ByLayer
370
13
48
1
60
0
100
AcDbSpline
70
4
71
3
72
34
73
30
40
0
40
0
40
0
40
0
40
0.0625000000000012
40
0.0625000000000012
40
0.125000000000002
40
0.125000000000002
40
0.156250000000003
40
0.156250000000003
40
0.187500000000003
40
0.187500000000003
40
0.218750000000003
40
0.218750000000003
40
0.250000000000003
40
0.250000000000003
40
0.281250000000004
40
0.281250000000004
40
0.312500000000004
40
0.312500000000004
40
0.375000000000004
40
0.375000000000004
40
0.437500000000003
40
0.437500000000003
40
0.500000000000003
40
0.500000000000003
40
0.625000000000003
40
0.625000000000003
40
0.750000000000002
40
0.750000000000002
40
1
40
1
40
1
40
1
41
1
10
-0.194976888875288
20
5.10125086895559
30
0
41
1
10
-0.216563104839508
20
5.14436908332726
30
0
41
1
10
-0.239876465412465
20
5.18652378521389
30
0
41
1
10
-0.292013626272791
20
5.26792158235068
30
0
41
1
10
-0.320990702940776
20
5.30753561172011
30
0
41
1
10
-0.371183836287372
20
5.36154618724734
30
0
41
1
10
-0.389032265538759
20
5.37862958681873
30
0
41
1
10
-0.428179185034452
20
5.4099910632236
30
0
41
1
10
-0.449618380543768
20
5.42431377396909
30
0
41
1
10
-0.495865519359256
20
5.44696237803706
30
0
41
1
10
-0.521367960365069
20
5.4554708081634
30
0
41
1
10
-0.574009113603324
20
5.46273288050187
30
0
41
1
10
-0.601430926503127
20
5.46139579386309
30
0
41
1
10
-0.653473515396456
20
5.44938705292518
30
0
41
1
10
-0.678029058965421
20
5.43899493154706
30
0
41
1
10
-0.723288902803802
20
5.41312231488862
30
0
41
1
10
-0.743967752761876
20
5.39773949255181
30
0
41
1
10
-0.801173829768601
20
5.34799023305283
30
0
41
1
10
-0.833684183778274
20
5.3095864008383
30
0
41
1
10
-0.891735345197702
20
5.22983347150023
30
0
41
1
10
-0.917563850545008
20
5.18780113018784
30
0
41
1
10
-0.964510307389105
20
5.10284807391153
30
0
41
1
10
-0.985719330348644
20
5.05973229274716
30
0
41
1
10
-1.04491752447228
20
4.9290225043666
30
0
41
1
10
-1.07856037778879
20
4.84008619679173
30
0
41
1
10
-1.13933058662863
20
4.65979587009875
30
0
41
1
10
-1.16633518942871
20
4.56841194087292
30
0
41
1
10
-1.24041994682241
20
4.2912308194276
30
0
41
1
10
-1.28068167434884
20
4.10243137050429
30
0
41
1
10
-1.31543506509496
20
3.91026939581312
30
0
0
SPLINE
5
124
100
AcDbEntity
8
SK1
62
256
6
ByLayer
370
13
48
1
60
0
100
AcDbSpline
70
4
71
3
72
22
73
18
40
0
40
0
40
0
40
0
40
0.125
40
0.125
40
0.25
40
0.25
40
0.5
40
0.5
40
0.5625
40
0.5625
40
0.625
40
0.625
40
0.75
40
0.75
40
0.875
40
0.875
40
1
40
1
40
1
40
1
41
1
10
-1.31543506509496
20
3.91026939581312
30
0
41
1
10
-1.37156891012913
20
3.59988844370488
30
0
41
1
10
-1.42485023497019
20
3.28523180779956
30
0
41
1
10
-1.52254592972014
20
2.64577663756873
30
0
41
1
10
-1.56698033508394
20
2.31970691194101
30
0
41
1
10
-1.67816871178564
20
1.33819893460003
30
0
41
1
10
-1.72297865089004
20
0.676397987705457
30
0
41
1
10
-1.72324535258096
20
-0.162964032578543
30
0
41
1
10
-1.72056385768457
20
-0.331436710844429
30
0
41
1
10
-1.7098742282711
20
-0.669573168778555
30
0
41
1
10
-1.70179947711227
20
-0.839901074147889
30
0
41
1
10
-1.67034734323971
20
-1.34548891205583
30
0
41
1
10
-1.63998375816561
20
-1.67664697885553
30
0
41
1
10
-1.56572248544325
20
-2.32939130826392
30
0
41
1
10
-1.52178762804093
20
-2.65096151379691
30
0
41
1
10
-1.42466622483195
20
-3.28621377555194
30
0
41
1
10
-1.37156266283256
20
-3.59992488097876
30
0
41
1
10
-1.31543506509496
20
-3.91027172665429
30
0
0
SPLINE
5
125
100
AcDbEntity
8
SK1
62
256
6
ByLayer
370
13
48
1
60
0
100
AcDbSpline
70
4
71
3
72
24
73
20
40
0
40
0
40
0
40
0
40
0.125000000000015
40
0.125000000000015
40
0.187500000000019
40
0.187500000000019
40
0.218750000000017
40
0.218750000000017
40
0.250000000000015
40
0.250000000000015
40
0.312500000000015
40
0.312500000000015
40
0.375000000000014
40
0.375000000000014
40
0.500000000000011
40
0.500000000000011
40
0.750000000000006
40
0.750000000000006
40
1
40
1
40
1
40
1
41
1
10
-0.194976888875288
20
-5.10125345321094
30
0
41
1
10
-0.181865427407701
20
-5.07506349573964
30
0
41
1
10
-0.167305467318897
20
-5.04951740146478
30
0
41
1
10
-0.138595346987984
20
-5.01910002951084
30
0
41
1
10
-0.127552525149696
20
-5.00976548032864
30
0
41
1
10
-0.107289868157807
20
-5.00515271046447
30
0
41
1
10
-0.100017181826672
20
-5.0055673333344
30
0
41
1
10
-0.0862894749968177
20
-5.01140955660901
30
0
41
1
10
-0.0800854915175933
20
-5.01665185918861
30
0
41
1
10
-0.064561999564944
20
-5.03472361857911
30
0
41
1
10
-0.0573834989396005
20
-5.04983097867373
30
0
41
1
10
-0.0455625036967149
20
-5.08017041530633
30
0
41
1
10
-0.0410080780262376
20
-5.09566827191264
30
0
41
1
10
-0.0291934375087237
20
-5.14260105512545
30
0
41
1
10
-0.0238612985442899
20
-5.17432930306168
30
0
41
1
10
-0.0109763675535817
20
-5.26901205584701
30
0
41
1
10
-0.0066530226186785
20
-5.33149708294096
30
0
41
1
10
-0.0010447609299433
20
-5.45583201094908
30
0
41
1
10
0
20
-5.51765621422388
30
0
41
1
10
0
20
-5.57923236301667
30
0
0
SPLINE
5
126
100
AcDbEntity
8
SK1
62
256
6
ByLayer
370
13
48
1
60
0
100
AcDbSpline
70
4
71
3
72
32
73
28
40
0
40
0
40
0
40
0
40
0.250000000000001
40
0.250000000000001
40
0.375000000000002
40
0.375000000000002
40
0.500000000000002
40
0.500000000000002
40
0.625000000000003
40
0.625000000000003
40
0.687500000000004
40
0.687500000000004
40
0.718750000000004
40
0.718750000000004
40
0.750000000000004
40
0.750000000000004
40
0.781250000000004
40
0.781250000000004
40
0.812500000000004
40
0.812500000000004
40
0.843750000000004
40
0.843750000000004
40
0.875000000000003
40
0.875000000000003
40
0.937500000000002
40
0.937500000000002
40
1
40
1
40
1
40
1
41
1
10
-1.3154350650953
20
-3.9102717266544
30
0
41
1
10
-1.28057279922606
20
-4.10303597600293
30
0
41
1
10
-1.24012857901269
20
-4.29271555372668
30
0
41
1
10
-1.16537958408065
20
-4.57178986572762
30
0
41
1
10
-1.13808783877656
20
-4.66390143596871
30
0
41
1
10
-1.07645434927807
20
-4.8458981155494
30
0
41
1
10
-1.04214225535935
20
-4.93593902808891
30
0
41
1
10
-0.962464700665095
20
-5.11023045105989
30
0
41
1
10
-0.917775144179274
20
-5.19501418522131
30
0
41
1
10
-0.830408896230011
20
-5.313571881754
30
0
41
1
10
-0.797934201555904
20
-5.35142877323202
30
0
41
1
10
-0.740368480272224
20
-5.40051809921425
30
0
41
1
10
-0.71936155470425
20
-5.4157502088056
30
0
41
1
10
-0.674120182693684
20
-5.44077848246101
30
0
41
1
10
-0.649220595717566
20
-5.4508327921487
30
0
41
1
10
-0.597299834838367
20
-5.46180745076146
30
0
41
1
10
-0.56981158113021
20
-5.46259066748192
30
0
41
1
10
-0.517782809634298
20
-5.45447309167375
30
0
41
1
10
-0.492509215309809
20
-5.44564758559568
30
0
41
1
10
-0.446559607626909
20
-5.42244198036281
30
0
41
1
10
-0.425331014623822
20
-5.4079341113783
30
0
41
1
10
-0.386890792994905
20
-5.376662585822
30
0
41
1
10
-0.369356495412518
20
-5.3597075192298
30
0
41
1
10
-0.320035559340766
20
-5.30624073125674
30
0
41
1
10
-0.291353206896446
20
-5.26696540111769
30
0
41
1
10
-0.239562956691515
20
-5.18596288302246
30
0
41
1
10
-0.216411510706422
20
-5.14406880492331
30
0
41
1
10
-0.194976888875288
20
-5.10125345321302
30
0
0
SPLINE
5
127
100
AcDbEntity
8
1
62
256
6
ByLayer
370
13
48
1
60
0
100
AcDbSpline
70
4
71
3
72
16
73
12
40
0
40
0
40
0
40
0
40
0.250000000000002
40
0.250000000000002
40
0.500000000000004
40
0.500000000000004
40
0.750000000000006
40
0.750000000000006
40
0.875000000000003
40
0.875000000000003
40
1
40
1
40
1
40
1
41
1
10
52.0263431046987
20
-26.4896689380754
30
0
41
1
10
52.0167711416309
20
-26.532845273282
30
0
41
1
10
52.0036580145909
20
-26.5754305018099
30
0
41
1
10
51.9699515967299
20
-26.6572352162507
30
0
41
1
10
51.9493621227543
20
-26.6967018547855
30
0
41
1
10
51.8982413449495
20
-26.768000942526
30
0
41
1
10
51.8676972087499
20
-26.8003617558115
30
0
41
1
10
51.8121218163291
20
-26.8292964307103
30
0
41
1
10
51.7917237674025
20
-26.83518401566
30
0
41
1
10
51.7523698410542
20
-26.8346267159101
30
0
41
1
10
51.7335892661014
20
-26.8281950817342
30
0
41
1
10
51.7175745563991
20
-26.8171644898651
30
0
0
SPLINE
5
128
100
AcDbEntity
8
1
62
256
6
ByLayer
370
13
48
1
60
0
100
AcDbSpline
70
4
71
3
72
16
73
12
40
0
40
0
40
0
40
0
40
0.25
40
0.25
40
0.5
40
0.5
40
0.75
40
0.75
40
0.875
40
0.875
40
1
40
1
40
1
40
1
41
1
10
50.8937836806518
20
-27.7256406655039
30
0
41
1
10
50.8516058959867
20
-27.7389392699264
30
0
41
1
10
50.8081694427355
20
-27.7488755830507
30
0
41
1
10
50.7204712729499
20
-27.7605873261329
30
0
41
1
10
50.6759974243891
20
-27.7624896378869
30
0
41
1
10
50.5886902142367
20
-27.7538672895169
30
0
41
1
10
50.5453928597446
20
-27.7435956982741
30
0
41
1
10
50.4925470000215
20
-27.7099333340618
30
0
41
1
10
50.4772491774249
20
-27.6952118979786
30
0
41
1
10
50.4580548499916
20
-27.6608517481474
30
0
41
1
10
50.4542345210994
20
-27.6413714760526
30
0
41
1
10
50.4557799390257
20
-27.6219870346817
30
0
0
SPLINE
5
129
100
AcDbEntity
8
1
62
256
6
ByLayer
370
13
48
1
60
0
100
AcDbSpline
70
4
71
3
72
8
73
4
40
0
40
0
40
0
40
0
40
1
40
1
40
1
40
1
41
1
10
51.0676324785482
20
-24.8141406677018
30
0
41
1
10
51.0722448511375
20
-24.8093236655613
30
0
41
1
10
51.0768566117478
20
-24.8045073025503
30
0
41
1
10
51.0814677833416
20
-24.7996915546879
30
0
0
SPLINE
5
12A
100
AcDbEntity
8
1
62
256
6
ByLayer
370
13
48
1
60
0
100
AcDbSpline
70
4
71
3
72
8
73
4
40
0
40
0
40
0
40
0
40
1
40
1
40
1
40
1
41
1
10
51.6514750957363
20
-25.322007024453
30
0
41
1
10
51.6470795633335
20
-25.3270203692285
30
0
41
1
10
51.6426834694593
20
-25.332034354393
30
0
41
1
10
51.638286792225
20
-25.3370490049114
30
0
0
SPLINE
5
12B
100
AcDbEntity
8
1
62
256
6
ByLayer
370
13
48
1
60
0
100
AcDbSpline
70
4
71
3
72
18
73
14
40
0
40
0
40
0
40
0
40
0.124999999999998
40
0.124999999999998
40
0.249999999999995
40
0.249999999999995
40
0.499999999999997
40
0.499999999999997
40
0.749999999999998
40
0.749999999999998
40
0.874999999999999
40
0.874999999999999
40
1
40
1
40
1
40
1
41
1
10
50.3300136031446
20
-24.6506144999602
30
0
41
1
10
50.3402919072713
20
-24.6808816001346
30
0
41
1
10
50.3606553550365
20
-24.7072488152102
30
0
41
1
10
50.409288125227
20
-24.7538467483794
30
0
41
1
10
50.4377852436837
20
-24.7739717879575
30
0
41
1
10
50.5292502745741
20
-24.8265362599831
30
0
41
1
10
50.5979244007506
20
-24.8513614667344
30
0
41
1
10
50.7398369297011
20
-24.8828363327441
30
0
41
1
10
50.8128265072044
20
-24.8893653282269
30
0
41
1
10
50.917722271069
20
-24.8804048743411
30
0
41
1
10
50.9519861824879
20
-24.874245233385
30
0
41
1
10
51.0159120243692
20
-24.8525350728364
30
0
41
1
10
51.0455365545648
20
-24.8372168852158
30
0
41
1
10
51.0676324785482
20
-24.8141406677018
30
0
0
SPLINE
5
12C
100
AcDbEntity
8
1
62
256
6
ByLayer
370
13
48
1
60
0
100
AcDbSpline
70
4
71
3
72
16
73
12
40
0
40
0
40
0
40
0
40
0.249999999999996
40
0.249999999999996
40
0.499999999999992
40
0.499999999999992
40
0.749999999999987
40
0.749999999999987
40
0.874999999999994
40
0.874999999999994
40
1
40
1
40
1
40
1
41
1
10
51.5222399024098
20
-24.890857841841
30
0
41
1
10
51.5548457240071
20
-24.9207355726251
30
0
41
1
10
51.5851690502182
20
-24.9533844880288
30
0
41
1
10
51.6391608021428
20
-25.0234774593874
30
0
41
1
10
51.6630451767281
20
-25.0610417861682
30
0
41
1
10
51.6992316090756
20
-25.1409632222787
30
0
41
1
10
51.7119848273682
20
-25.1835956268069
30
0
41
1
10
51.7092552946704
20
-25.246192665918
30
0
41
1
10
51.7041550683405
20
-25.2668016869509
30
0
41
1
10
51.6839954694254
20
-25.3006045370323
30
0
41
1
10
51.6690352233648
20
-25.3136531749511
30
0
41
1
10
51.6514750957363
20
-25.322007024453
30
0
0
SPLINE
5
12D
100
AcDbEntity
8
1
62
256
6
ByLayer
370
13
48
1
60
0
100
AcDbSpline
70
4
71
3
72
16
73
12
40
0
40
0
40
0
40
0
40
0.124999999999993
40
0.124999999999993
40
0.249999999999986
40
0.249999999999986
40
0.499999999999991
40
0.499999999999991
40
0.749999999999995
40
0.749999999999995
40
1
40
1
40
1
40
1
41
1
10
49.1278858609894
20
-26.9316521140861
30
0
41
1
10
49.1103910095688
20
-26.9399749098492
30
0
41
1
10
49.0955045069907
20
-26.9529372542044
30
0
41
1
10
49.0753730026941
20
-26.9864632359592
30
0
41
1
10
49.0702026186505
20
-27.006782653869
30
0
41
1
10
49.0672529452052
20
-27.0698656634418
30
0
41
1
10
49.0800585794942
20
-27.1125166966779
30
0
41
1
10
49.1163081401637
20
-27.192623350382
30
0
41
1
10
49.1401807367097
20
-27.2301585363251
30
0
41
1
10
49.1942357766235
20
-27.300329536702
30
0
41
1
10
49.2244926671177
20
-27.3329028883504
30
0
41
1
10
49.257121054316
20
-27.362801296698
30
0
0
SPLINE
5
12E
100
AcDbEntity
8
1
62
256
6
ByLayer
370
13
48
1
60
0
100
AcDbSpline
70
4
71
3
72
8
73
4
40
0
40
0
40
0
40
0
40
1
40
1
40
1
40
1
41
1
10
51.865478414479
20
-26.0576087731927
30
0
41
1
10
51.8719562469975
20
-26.0591947039565
30
0
41
1
10
51.878433220024
20
-26.0607804242957
30
0
41
1
10
51.884909365808
20
-26.0623659421059
30
0
0
SPLINE
5
12F
100
AcDbEntity
8
1
62
256
6
ByLayer
370
13
48
1
60
0
100
AcDbSpline
70
4
71
3
72
8
73
4
40
0
40
0
40
0
40
0
40
1
40
1
40
1
40
1
41
1
10
51.1875264142936
20
-27.3702976747604
30
0
41
1
10
51.1893918742228
20
-27.3767006076647
30
0
41
1
10
51.191257086639
20
-27.3831026910149
30
0
41
1
10
51.1931220608292
20
-27.3895039566875
30
0
0
SPLINE
5
130
100
AcDbEntity
8
1
62
256
6
ByLayer
370
13
48
1
60
0
100
AcDbSpline
70
4
71
3
72
18
73
14
40
0
40
0
40
0
40
0
40
0.124999999999998
40
0.124999999999998
40
0.249999999999997
40
0.249999999999997
40
0.499999999999993
40
0.499999999999993
40
0.74999999999999
40
0.74999999999999
40
0.874999999999995
40
0.874999999999995
40
1
40
1
40
1
40
1
41
1
10
51.638286792225
20
-25.3370490049114
30
0
41
1
10
51.6172138666384
20
-25.3610838274802
30
0
41
1
10
51.6045609124385
20
-25.3919026980913
30
0
41
1
10
51.5885223036454
20
-25.4573188791173
30
0
41
1
10
51.585342067347
20
-25.4920606274245
30
0
41
1
10
51.5855524146814
20
-25.5975539037464
30
0
41
1
10
51.5983902180689
20
-25.6694400449735
30
0
41
1
10
51.642088448999
20
-25.8080773331648
30
0
41
1
10
51.6729289618013
20
-25.8745526592355
30
0
41
1
10
51.7331368244282
20
-25.9609148285487
30
0
41
1
10
51.7556031856839
20
-25.9875084257925
30
0
41
1
10
51.8063676571798
20
-26.0320147485457
30
0
41
1
10
51.834445861897
20
-26.05001125046
30
0
41
1
10
51.865478414479
20
-26.0576087731927
30
0
0
SPLINE
5
131
100
AcDbEntity
8
1
62
256
6
ByLayer
370
13
48
1
60
0
100
AcDbSpline
70
4
71
3
72
18
73
14
40
0
40
0
40
0
40
0
40
0.124999999999998
40
0.124999999999998
40
0.249999999999995
40
0.249999999999995
40
0.49999999999999
40
0.49999999999999
40
0.749999999999985
40
0.749999999999985
40
0.874999999999992
40
0.874999999999992
40
1
40
1
40
1
40
1
41
1
10
51.6979536674432
20
-26.8132640742208
30
0
41
1
10
51.66660243773
20
-26.8070317966151
30
0
41
1
10
51.6335860357648
20
-26.8114834521506
30
0
41
1
10
51.5689146567812
20
-26.8303017000074
30
0
41
1
10
51.5372373020261
20
-26.8449184087365
30
0
41
1
10
51.4459826184701
20
-26.8978472130328
30
0
41
1
10
51.3901462956811
20
-26.9449081475086
30
0
41
1
10
51.2919319976607
20
-27.0520705696902
30
0
41
1
10
51.2497829329598
20
-27.1120169002781
30
0
41
1
10
51.2050950317221
20
-27.2073395234771
30
0
41
1
10
51.1932974815588
20
-27.2400927616771
30
0
41
1
10
51.1801361111734
20
-27.3063092449789
30
0
41
1
10
51.178589785695
20
-27.3396239345137
30
0
41
1
10
51.1875264142936
20
-27.3702976747604
30
0
0
SPLINE
5
132
100
AcDbEntity
8
1
62
256
6
ByLayer
370
13
48
1
60
0
100
AcDbSpline
70
4
71
3
72
16
73
12
40
0
40
0
40
0
40
0
40
0.125000000000005
40
0.125000000000005
40
0.250000000000011
40
0.250000000000011
40
0.500000000000007
40
0.500000000000007
40
0.750000000000004
40
0.750000000000004
40
1
40
1
40
1
40
1
41
1
10
51.884909365808
20
-26.0623659421059
30
0
41
1
10
51.9040140686479
20
-26.0591489427371
30
0
41
1
10
51.9236432729492
20
-26.061228526516
30
0
41
1
10
51.9593637489884
20
-26.0771444465144
30
0
41
1
10
51.9752538189609
20
-26.0908235287797
30
0
41
1
10
52.0138529778187
20
-26.140806241848
30
0
41
1
10
52.0278268439627
20
-26.1830889329951
30
0
41
1
10
52.0440802311953
20
-26.269500355966
30
0
41
1
10
52.0460542431232
20
-26.3139401391175
30
0
41
1
10
52.042023379005
20
-26.4024255546865
30
0
41
1
10
52.0359216922613
20
-26.4464627217034
30
0
41
1
10
52.0263431046987
20
-26.4896689380754
30
0
0
SPLINE
5
133
100
AcDbEntity
8
1
62
256
6
ByLayer
370
13
48
1
60
0
100
AcDbSpline
70
4
71
3
72
18
73
14
40
0
40
0
40
0
40
0
40
0.124999999999999
40
0.124999999999999
40
0.249999999999998
40
0.249999999999998
40
0.499999999999995
40
0.499999999999995
40
0.749999999999993
40
0.749999999999993
40
0.874999999999996
40
0.874999999999996
40
1
40
1
40
1
40
1
41
1
10
49.0814072892824
20
-25.4403950643183
30
0
41
1
10
49.1127585189957
20
-25.446627341924
30
0
41
1
10
49.1457749209608
20
-25.4421756863885
30
0
41
1
10
49.2104462999445
20
-25.4233574385317
30
0
41
1
10
49.2421236546995
20
-25.4087407298026
30
0
41
1
10
49.3333783382555
20
-25.3558119255063
30
0
41
1
10
49.3892146610446
20
-25.3087509910304
30
0
41
1
10
49.4874289590649
20
-25.2015885688489
30
0
41
1
10
49.5295780237658
20
-25.1416422382609
30
0
41
1
10
49.5742659250036
20
-25.0463196150619
30
0
41
1
10
49.5860634751669
20
-25.013566376862
30
0
41
1
10
49.5992248455522
20
-24.9473498935602
30
0
41
1
10
49.6007711710307
20
-24.9140352040254
30
0
41
1
10
49.591834542432
20
-24.8833614637787
30
0
0
SPLINE
5
134
100
AcDbEntity
8
1
62
256
6
ByLayer
370
13
48
1
60
0
100
AcDbSpline
70
4
71
3
72
8
73
4
40
0
40
0
40
0
40
0
40
1
40
1
40
1
40
1
41
1
10
50.3235810177
20
-24.6316721038574
30
0
41
1
10
50.3257249354322
20
-24.6379854189691
30
0
41
1
10
50.3278691270217
20
-24.6442995405238
30
0
41
1
10
50.3300136031446
20
-24.6506144999602
30
0
0
SPLINE
5
135
100
AcDbEntity
8
1
62
256
6
ByLayer
370
13
48
1
60
0
100
AcDbSpline
70
4
71
3
72
8
73
4
40
0
40
0
40
0
40
0
40
1
40
1
40
1
40
1
41
1
10
48.9138825422466
20
-26.1960503653464
30
0
41
1
10
48.9074047097282
20
-26.1944644345826
30
0
41
1
10
48.9009277367016
20
-26.1928787142434
30
0
41
1
10
48.8944515909177
20
-26.1912931964332
30
0
0
SPLINE
5
136
100
AcDbEntity
8
1
62
256
6
ByLayer
370
13
48
1
60
0
100
AcDbSpline
70
4
71
3
72
20
73
16
40
0
40
0
40
0
40
0
40
0.124999999999986
40
0.124999999999986
40
0.249999999999972
40
0.249999999999972
40
0.499999999999967
40
0.499999999999967
40
0.624999999999975
40
0.624999999999975
40
0.749999999999984
40
0.749999999999984
40
0.874999999999992
40
0.874999999999992
40
1
40
1
40
1
40
1
41
1
10
49.7117284781774
20
-27.4395184708372
30
0
41
1
10
49.7338608359041
20
-27.416404203184
30
0
41
1
10
49.7635014967553
20
-27.4011041217341
30
0
41
1
10
49.8273577097809
20
-27.3794217939814
30
0
41
1
10
49.8617343376282
20
-27.3732325488281
30
0
41
1
10
49.9669798680815
20
-27.3642829739572
30
0
41
1
10
50.0400903210868
20
-27.3708889380189
30
0
41
1
10
50.146619710792
20
-27.3946057529236
30
0
41
1
10
50.1810720909117
20
-27.4047543134469
30
0
41
1
10
50.2478355007311
20
-27.4296645221455
30
0
41
1
10
50.2804881655522
20
-27.4445975176017
30
0
41
1
10
50.3412872481488
20
-27.479504822561
30
0
41
1
10
50.3695967918596
20
-27.4994296966962
30
0
41
1
10
50.4184629232487
20
-27.5461054440099
30
0
41
1
10
50.4390284588517
20
-27.572658008974
30
0
41
1
10
50.4493473535811
20
-27.6030446385789
30
0
0
SPLINE
5
137
100
AcDbEntity
8
1
62
256
6
ByLayer
370
13
48
1
60
0
100
AcDbSpline
70
4
71
3
72
8
73
4
40
0
40
0
40
0
40
0
40
1
40
1
40
1
40
1
41
1
10
49.1410741645007
20
-26.9166101336276
30
0
41
1
10
49.1366774872663
20
-26.9216247841461
30
0
41
1
10
49.1322813933921
20
-26.9266387693105
30
0
41
1
10
49.1278858609894
20
-26.9316521140861
30
0
0
SPLINE
5
138
100
AcDbEntity
8
1
62
256
6
ByLayer
370
13
48
1
60
0
100
AcDbSpline
70
4
71
3
72
8
73
4
40
0
40
0
40
0
40
0
40
1
40
1
40
1
40
1
41
1
10
51.7175745563991
20
-26.8171644898651
30
0
41
1
10
51.7110351062642
20
-26.815864519529
30
0
41
1
10
51.7044948208004
20
-26.8145643831387
30
0
41
1
10
51.6979536674432
20
-26.8132640742208
30
0
0
SPLINE
5
139
100
AcDbEntity
8
1
62
256
6
ByLayer
370
13
48
1
60
0
100
AcDbSpline
70
4
71
3
72
8
73
4
40
0
40
0
40
0
40
0
40
1
40
1
40
1
40
1
41
1
10
49.0617864003265
20
-25.4364946486739
30
0
41
1
10
49.0683258504615
20
-25.4377946190101
30
0
41
1
10
49.0748661359252
20
-25.4390947554004
30
0
41
1
10
49.0814072892824
20
-25.4403950643183
30
0
0
SPLINE
5
13A
100
AcDbEntity
8
1
62
256
6
ByLayer
370
13
48
1
60
0
100
AcDbSpline
70
4
71
3
72
16
73
12
40
0
40
0
40
0
40
0
40
0.249999999999998
40
0.249999999999998
40
0.499999999999995
40
0.499999999999995
40
0.749999999999992
40
0.749999999999992
40
0.874999999999996
40
0.874999999999996
40
1
40
1
40
1
40
1
41
1
10
49.8855772760739
20
-24.5280184730352
30
0
41
1
10
49.927755060739
20
-24.5147198686127
30
0
41
1
10
49.9711915139902
20
-24.5047835554884
30
0
41
1
10
50.0588896837758
20
-24.4930718124062
30
0
41
1
10
50.1033635323366
20
-24.4911695006522
30
0
41
1
10
50.190670742489
20
-24.4997918490222
30
0
41
1
10
50.2339680969811
20
-24.510063440265
30
0
41
1
10
50.2868139567042
20
-24.5437258044773
30
0
41
1
10
50.3021117793008
20
-24.5584472405604
30
0
41
1
10
50.3213061067341
20
-24.5928073903917
30
0
41
1
10
50.3251264356262
20
-24.6122876624864
30
0
41
1
10
50.3235810177
20
-24.6316721038574
30
0
0
SPLINE
5
13B
100
AcDbEntity
8
1
62
256
6
ByLayer
370
13
48
1
60
0
100
AcDbSpline
70
4
71
3
72
8
73
4
40
0
40
0
40
0
40
0
40
1
40
1
40
1
40
1
41
1
10
50.4557799390257
20
-27.6219870346817
30
0
41
1
10
50.4536360212935
20
-27.61567371957
30
0
41
1
10
50.451491829704
20
-27.6093595980152
30
0
41
1
10
50.4493473535811
20
-27.6030446385789
30
0
0
SPLINE
5
13C
100
AcDbEntity
8
1
62
256
6
ByLayer
370
13
48
1
60
0
100
AcDbSpline
70
4
71
3
72
16
73
12
40
0
40
0
40
0
40
0
40
0.249999999999991
40
0.249999999999991
40
0.499999999999982
40
0.499999999999982
40
0.749999999999972
40
0.749999999999972
40
0.874999999999986
40
0.874999999999986
40
1
40
1
40
1
40
1
41
1
10
49.257121054316
20
-27.362801296698
30
0
41
1
10
49.2897268759133
20
-27.3926790274821
30
0
41
1
10
49.3248944043554
20
-27.4200414238103
30
0
41
1
10
49.3994263420376
20
-27.4677187158381
30
0
41
1
10
49.438929385621
20
-27.4882382563658
30
0
41
1
10
49.5217005519268
20
-27.5173213762876
30
0
41
1
10
49.5652822434974
20
-27.5263104058524
30
0
41
1
10
49.6274031875266
20
-27.5181355684131
30
0
41
1
10
49.6474892709984
20
-27.5112585554487
30
0
41
1
10
49.6794064662129
20
-27.4882295573881
30
0
41
1
10
49.6911015787678
20
-27.4721889758507
30
0
41
1
10
49.6978931733841
20
-27.4539675838512
30
0
0
SPLINE
5
13D
100
AcDbEntity
8
1
62
256
6
ByLayer
370
13
48
1
60
0
100
AcDbSpline
70
4
71
3
72
16
73
12
40
0
40
0
40
0
40
0
40
0.124999999999985
40
0.124999999999985
40
0.249999999999971
40
0.249999999999971
40
0.499999999999981
40
0.499999999999981
40
0.74999999999999
40
0.74999999999999
40
1
40
1
40
1
40
1
41
1
10
51.0814677833416
20
-24.7996915546879
30
0
41
1
10
51.0882341315843
20
-24.7815378970124
30
0
41
1
10
51.0998497061167
20
-24.7655782993209
30
0
41
1
10
51.1314935351796
20
-24.7426014196347
30
0
41
1
10
51.151285002908
20
-24.7356797565033
30
0
41
1
10
51.2138708816041
20
-24.7272432609019
30
0
41
1
10
51.2574756993498
20
-24.7362828834058
30
0
41
1
10
51.3404368804362
20
-24.7654127486501
30
0
41
1
10
51.3799098675479
20
-24.785923095749
30
0
41
1
10
51.454525053236
20
-24.8336566342591
30
0
41
1
10
51.4896115152115
20
-24.8609594334934
30
0
41
1
10
51.5222399024098
20
-24.890857841841
30
0
0
SPLINE
5
13E
100
AcDbEntity
8
1
62
256
6
ByLayer
370
13
48
1
60
0
100
AcDbSpline
70
4
71
3
72
16
73
12
40
0
40
0
40
0
40
0
40
0.125000000000005
40
0.125000000000005
40
0.25000000000001
40
0.25000000000001
40
0.500000000000007
40
0.500000000000007
40
0.750000000000003
40
0.750000000000003
40
1
40
1
40
1
40
1
41
1
10
49.5862388958965
20
-24.8641551818515
30
0
41
1
10
49.5739005412992
20
-24.8492185235447
30
0
41
1
10
49.5658869115304
20
-24.8311793420744
30
0
41
1
10
49.5618102645539
20
-24.7922865423899
30
0
41
1
10
49.5657116623099
20
-24.7716857969932
30
0
41
1
10
49.5896983821482
20
-24.7132665883235
30
0
41
1
10
49.61932933375
20
-24.6800235196802
30
0
41
1
10
49.6860371276037
20
-24.6227419619536
30
0
41
1
10
49.7235361027876
20
-24.598812525901
30
0
41
1
10
49.8021821525939
20
-24.5580606488421
30
0
41
1
10
49.843370301313
20
-24.5413262810596
30
0
41
1
10
49.8855772760739
20
-24.5280184730352
30
0
0
SPLINE
5
13F
100
AcDbEntity
8
1
62
256
6
ByLayer
370
13
48
1
60
0
100
AcDbSpline
70
4
71
3
72
8
73
4
40
0
40
0
40
0
40
0
40
1
40
1
40
1
40
1
41
1
10
49.6978931733841
20
-27.4539675838512
30
0
41
1
10
49.7025043449778
20
-27.4491518359887
30
0
41
1
10
49.7071161055882
20
-27.4443354729778
30
0
41
1
10
49.7117284781774
20
-27.4395184708372
30
0
0
SPLINE
5
140
100
AcDbEntity
8
1
62
256
6
ByLayer
370
13
48
1
60
0
100
AcDbSpline
70
4
71
3
72
18
73
14
40
0
40
0
40
0
40
0
40
0.125000000000004
40
0.125000000000004
40
0.250000000000007
40
0.250000000000007
40
0.500000000000001
40
0.500000000000001
40
0.749999999999995
40
0.749999999999995
40
0.874999999999997
40
0.874999999999997
40
1
40
1
40
1
40
1
41
1
10
48.9138825422466
20
-26.1960503653464
30
0
41
1
10
48.9451109803126
20
-26.2036958456041
30
0
41
1
10
48.9733973620766
20
-26.2219596209465
30
0
41
1
10
49.0237754859607
20
-26.2662055913476
30
0
41
1
10
49.0463648883373
20
-26.2929379607996
30
0
41
1
10
49.106278973453
20
-26.3789035112029
30
0
41
1
10
49.1370221173854
20
-26.4449662202373
30
0
41
1
10
49.1808646766187
20
-26.5837052451296
30
0
41
1
10
49.1937768805746
20
-26.6559260340311
30
0
41
1
10
49.1940339009489
20
-26.7613185113433
30
0
41
1
10
49.1908935147205
20
-26.7960264825588
30
0
41
1
10
49.1748411158439
20
-26.8616784017431
30
0
41
1
10
49.1621582767045
20
-26.8925625521109
30
0
41
1
10
49.1410741645007
20
-26.9166101336276
30
0
0
SPLINE
5
141
100
AcDbEntity
8
1
62
256
6
ByLayer
370
13
48
1
60
0
100
AcDbSpline
70
4
71
3
72
16
73
12
40
0
40
0
40
0
40
0
40
0.250000000000002
40
0.250000000000002
40
0.500000000000004
40
0.500000000000004
40
0.750000000000006
40
0.750000000000006
40
0.875000000000003
40
0.875000000000003
40
1
40
1
40
1
40
1
41
1
10
48.753017852027
20
-25.7639902004637
30
0
41
1
10
48.7625898150948
20
-25.7208138652571
30
0
41
1
10
48.7757029421348
20
-25.6782286367292
30
0
41
1
10
48.8094093599958
20
-25.5964239222883
30
0
41
1
10
48.8299988339713
20
-25.5569572837536
30
0
41
1
10
48.8811196117762
20
-25.485658196013
30
0
41
1
10
48.9116637479758
20
-25.4532973827276
30
0
41
1
10
48.9672391403966
20
-25.4243627078288
30
0
41
1
10
48.9876371893231
20
-25.4184751228791
30
0
41
1
10
49.0269911156715
20
-25.4190324226289
30
0
41
1
10
49.0457716906242
20
-25.4254640568049
30
0
41
1
10
49.0617864003265
20
-25.4364946486739
30
0
0
SPLINE
5
142
100
AcDbEntity
8
1
62
256
6
ByLayer
370
13
48
1
60
0
100
AcDbSpline
70
4
71
3
72
16
73
12
40
0
40
0
40
0
40
0
40
0.125000000000003
40
0.125000000000003
40
0.250000000000006
40
0.250000000000006
40
0.500000000000004
40
0.500000000000004
40
0.750000000000002
40
0.750000000000002
40
1
40
1
40
1
40
1
41
1
10
48.8944515909177
20
-26.1912931964332
30
0
41
1
10
48.8753468880778
20
-26.1945101958019
30
0
41
1
10
48.8557176837765
20
-26.1924306120231
30
0
41
1
10
48.8199972077372
20
-26.1765146920246
30
0
41
1
10
48.8041071377648
20
-26.1628356097594
30
0
41
1
10
48.765507978907
20
-26.1128528966911
30
0
41
1
10
48.751534112763
20
-26.070570205544
30
0
41
1
10
48.7352807255303
20
-25.9841587825731
30
0
41
1
10
48.7333067136025
20
-25.9397189994216
30
0
41
1
10
48.7373375777207
20
-25.8512335838525
30
0
41
1
10
48.7434392644643
20
-25.8071964168357
30
0
41
1
10
48.753017852027
20
-25.7639902004637
30
0
0
SPLINE
5
143
100
AcDbEntity
8
1
62
256
6
ByLayer
370
13
48
1
60
0
100
AcDbSpline
70
4
71
3
72
8
73
4
40
0
40
0
40
0
40
0
40
1
40
1
40
1
40
1
41
1
10
49.591834542432
20
-24.8833614637787
30
0
41
1
10
49.5899690825028
20
-24.8769585308744
30
0
41
1
10
49.5881038700867
20
-24.8705564475241
30
0
41
1
10
49.5862388958965
20
-24.8641551818515
30
0
0
SPLINE
5
144
100
AcDbEntity
8
1
62
256
6
ByLayer
370
13
48
1
60
0
100
AcDbSpline
70
4
71
3
72
16
73
12
40
0
40
0
40
0
40
0
40
0.125000000000012
40
0.125000000000012
40
0.250000000000023
40
0.250000000000023
40
0.500000000000016
40
0.500000000000016
40
0.750000000000008
40
0.750000000000008
40
1
40
1
40
1
40
1
41
1
10
51.1931220608292
20
-27.3895039566875
30
0
41
1
10
51.2054604154265
20
-27.4044406149943
30
0
41
1
10
51.2134740451953
20
-27.4224797964647
30
0
41
1
10
51.2175506921717
20
-27.4613725961492
30
0
41
1
10
51.2136492944158
20
-27.4819733415459
30
0
41
1
10
51.1896625745774
20
-27.5403925502156
30
0
41
1
10
51.1600316229756
20
-27.5736356188589
30
0
41
1
10
51.093323829122
20
-27.6309171765854
30
0
41
1
10
51.0558248539381
20
-27.654846612638
30
0
41
1
10
50.9771788041318
20
-27.695598489697
30
0
41
1
10
50.9359906554126
20
-27.7123328574795
30
0
41
1
10
50.8937836806518
20
-27.7256406655039
30
0
0
LINE
5
70
100
AcDbEntity
8
1
62
256
6
ByLayer
370
13
48
1
60
0
100
AcDbLine
10
0.3
20
-25
30
0
11
20.279208
21
-25
31
0
39
0
210
0
220
0
230
1
0
LINE
5
72
100
AcDbEntity
8
1
62
256
6
ByLayer
370
13
48
1
60
0
100
AcDbLine
10
53.010798
20
-12.689667
30
0
11
19.43793
21
24.995176
31
0
39
0
210
0
220
0
230
1
0
LINE
5
73
100
AcDbEntity
8
1
62
256
6
ByLayer
370
13
48
1
60
0
100
AcDbLine
10
0
20
-24.7
30
0
11
0.3
21
-25
31
0
39
0
210
0
220
0
230
1
0
LINE
5
74
100
AcDbEntity
8
1
62
256
6
ByLayer
370
13
48
1
60
0
100
AcDbLine
10
0.3
20
25
30
0
11
0
21
24.7
31
0
39
0
210
0
220
0
230
1
0
LINE
5
75
100
AcDbEntity
8
81
62
256
6
ByLayer
370
18
48
1
60
0
100
AcDbLine
10
60
20
-35
30
0
11
70
21
-35
31
0
39
0
210
0
220
0
230
1
0
LINE
5
76
100
AcDbEntity
8
80
62
256
6
ByLayer
370
18
48
1
60
0
100
AcDbLine
10
0
20
0
30
0
11
-10
21
0
31
0
39
0
210
0
220
0
230
1
0
LINE
5
77
100
AcDbEntity
8
1
62
256
6
ByLayer
370
13
48
1
60
0
100
AcDbLine
10
19.433679
20
25
30
0
11
0.3
21
25
31
0
39
0
210
0
220
0
230
1
0
LINE
5
78
100
AcDbEntity
8
1
62
256
6
ByLayer
370
13
48
1
60
0
100
AcDbLine
10
24.596267
20
-27.293274
30
0
11
26.325509
21
-29.354105
31
0
39
0
210
0
220
0
230
1
0
LINE
5
79
100
AcDbEntity
8
1
62
256
6
ByLayer
370
13
48
1
60
0
100
AcDbLine
10
45.230119
20
-23.433475
30
0
11
45.321274
21
-23.517004
31
0
39
0
210
0
220
0
230
1
0
LINE
5
7A
100
AcDbEntity
8
1
62
256
6
ByLayer
370
13
48
1
60
0
100
AcDbLine
10
0
20
-24.7
30
0
11
0
21
24.7
31
0
39
0
210
0
220
0
230
1
0
LINE
5
7B
100
AcDbEntity
8
1
62
256
6
ByLayer
370
13
48
1
60
0
100
AcDbLine
10
0.3
20
25
30
0
11
0.3
21
-25
31
0
39
0
210
0
220
0
230
1
0
LINE
5
7C
100
AcDbEntity
8
1
62
256
6
ByLayer
370
13
48
1
60
0
100
AcDbLine
10
20.279208
20
-25
30
0
11
20.279208
21
-24.982932
31
0
39
0
210
0
220
0
230
1
0
LINE
5
7D
100
AcDbEntity
8
1
62
256
6
ByLayer
370
13
48
1
60
0
100
AcDbLine
10
20.988369
20
-25.228476
30
0
11
20.988369
21
-25.231966
31
0
39
0
210
0
220
0
230
1
0
LINE
5
7E
100
AcDbEntity
8
1
62
256
6
ByLayer
370
13
48
1
60
0
100
AcDbLine
10
24.596267
20
-27.293274
30
0
11
24.596267
21
-27.293091
31
0
39
0
210
0
220
0
230
1
0
LINE
5
7F
100
AcDbEntity
8
1
62
256
6
ByLayer
370
13
48
1
60
0
100
AcDbLine
10
26.324503
20
-29.352736
30
0
11
26.324355
21
-29.35273
31
0
39
0
210
0
220
0
230
1
0
LINE
5
80
100
AcDbEntity
8
1
62
256
6
ByLayer
370
13
48
1
60
0
100
AcDbLine
10
42.214919
20
-26.487539
30
0
11
42.16653
21
-26.432363
31
0
39
0
210
0
220
0
230
1
0
LINE
5
81
100
AcDbEntity
8
1
62
256
6
ByLayer
370
13
48
1
60
0
100
AcDbLine
10
38.271208
20
-29.375152
30
0
11
37.659548
21
-29.803441
31
0
39
0
210
0
220
0
230
1
0
LINE
5
82
100
AcDbEntity
8
1
62
256
6
ByLayer
370
13
48
1
60
0
100
AcDbLine
10
49.977356
20
-17.908342
30
0
11
50.03654
21
-17.951737
31
0
39
0
210
0
220
0
230
1
0
LINE
5
83
100
AcDbEntity
8
1
62
256
6
ByLayer
370
13
48
1
60
0
100
AcDbLine
10
49.797254
20
-18.365886
30
0
11
42.606636
21
-26.213068
31
0
39
0
210
0
220
0
230
1
0
LINE
5
84
100
AcDbEntity
8
1
62
256
6
ByLayer
370
13
48
1
60
0
100
AcDbLine
10
53.050358
20
-12.938401
30
0
11
52.569434
21
-13.771387
31
0
39
0
210
0
220
0
230
1
0
LINE
5
85
100
AcDbEntity
8
1
62
256
6
ByLayer
370
13
48
1
60
0
100
AcDbLine
10
37.742036
20
-29.806721
30
0
11
38.236215
21
-29.460694
31
0
39
0
210
0
220
0
230
1
0
LINE
5
86
100
AcDbEntity
8
1
62
256
6
ByLayer
370
13
48
1
60
0
100
AcDbLine
10
52.651597
20
-13.729076
30
0
11
52.96377
21
-13.188375
31
0
39
0
210
0
220
0
230
1
0
LINE
5
87
100
AcDbEntity
8
1
62
256
6
ByLayer
370
13
48
1
60
0
100
AcDbLine
10
53.11457
20
-13.672354
30
0
11
53.09466
21
-13.444779
31
0
39
0
210
0
220
0
230
1
0
LINE
5
88
100
AcDbEntity
8
1
62
256
6
ByLayer
370
13
48
1
60
0
100
AcDbLine
10
37.742036
20
-29.806721
30
0
11
38.199826
21
-29.824924
31
0
39
0
210
0
220
0
230
1
0
LINE
5
89
100
AcDbEntity
8
1
62
256
6
ByLayer
370
13
48
1
60
0
100
AcDbLine
10
47.348045
20
-21.305172
30
0
11
47.25689
21
-21.221643
31
0
39
0
210
0
220
0
230
1
0
LINE
5
8A
100
AcDbEntity
8
1
62
256
6
ByLayer
370
13
48
1
60
0
100
AcDbLine
10
20.279208
20
-12.222239
30
0
11
20.279208
21
-24.44054
31
0
39
0
210
0
220
0
230
1
0
LINE
5
8B
100
AcDbEntity
8
1
62
256
6
ByLayer
370
13
48
1
60
0
100
AcDbLine
10
45.358402
20
-23.284053
30
0
11
45.267484
21
-23.383272
31
0
39
0
210
0
220
0
230
1
0
LINE
5
8C
100
AcDbEntity
8
1
62
256
6
ByLayer
370
13
48
1
60
0
100
AcDbLine
10
8.538675
20
-23.83913
30
0
11
8.538675
21
-7.529667
31
0
39
0
210
0
220
0
230
1
0
LINE
5
8D
100
AcDbEntity
8
1
62
256
6
ByLayer
370
13
48
1
60
0
100
AcDbLine
10
53.050358
20
-12.938401
30
0
11
53.030585
21
-12.712401
31
0
39
0
210
0
220
0
230
1
0
LINE
5
8E
100
AcDbEntity
8
1
62
256
6
ByLayer
370
13
48
1
60
0
100
AcDbLine
10
47.210135
20
-21.263241
30
0
11
47.119216
21
-21.362461
31
0
39
0
210
0
220
0
230
1
0
LINE
5
8F
100
AcDbEntity
8
1
62
256
6
ByLayer
370
13
48
1
60
0
100
AcDbLine
10
46.326772
20
-18.103356
30
0
11
45.854128
21
-17.734896
31
0
39
0
210
0
220
0
230
1
0
LINE
5
90
100
AcDbEntity
8
1
62
256
6
ByLayer
370
13
48
1
60
0
100
AcDbLine
10
42.16653
20
-26.432363
30
0
11
37.36865
21
-29.791875
31
0
39
0
210
0
220
0
230
1
0
LINE
5
91
100
AcDbEntity
8
1
62
256
6
ByLayer
370
13
48
1
60
0
100
AcDbLine
10
11.894338
20
8.055848
30
0
11
11.894338
21
23.666502
31
0
39
0
210
0
220
0
230
1
0
LINE
5
92
100
AcDbEntity
8
1
62
256
6
ByLayer
370
13
48
1
60
0
100
AcDbLine
10
20.988369
20
-24.001889
30
0
11
20.988369
21
-20.561067
31
0
39
0
210
0
220
0
230
1
0
LINE
5
93
100
AcDbEntity
8
1
62
256
6
ByLayer
370
13
48
1
60
0
100
AcDbLine
10
37.659548
20
-29.803441
30
0
11
37.742036
21
-29.806721
31
0
39
0
210
0
220
0
230
1
0
LINE
5
94
100
AcDbEntity
8
1
62
256
6
ByLayer
370
13
48
1
60
0
100
AcDbLine
10
41.839805
20
-22.966104
30
0
11
42.9175
21
-24.140467
31
0
39
0
210
0
220
0
230
1
0
LINE
5
95
100
AcDbEntity
8
1
62
256
6
ByLayer
370
13
48
1
60
0
100
AcDbLine
10
8.538675
20
-7.529667
30
0
11
11.461325
21
-7.529667
31
0
39
0
210
0
220
0
230
1
0
LINE
5
96
100
AcDbEntity
8
1
62
256
6
ByLayer
370
13
48
1
60
0
100
AcDbLine
10
24.823537
20
16.030282
30
0
11
33.98006
21
5.752276
31
0
39
0
210
0
220
0
230
1
0
LINE
5
97
100
AcDbEntity
8
1
62
256
6
ByLayer
370
13
48
1
60
0
100
AcDbLine
10
8.538675
20
23.83913
30
0
11
11.461325
21
23.83913
31
0
39
0
210
0
220
0
230
1
0
LINE
5
98
100
AcDbEntity
8
1
62
256
6
ByLayer
370
13
48
1
60
0
100
AcDbLine
10
35.349668
20
-22.243328
30
0
11
44.388715
21
-12.378939
31
0
39
0
210
0
220
0
230
1
0
LINE
5
99
100
AcDbEntity
8
1
62
256
6
ByLayer
370
13
48
1
60
0
100
AcDbLine
10
11.461325
20
-23.83913
30
0
11
8.538675
21
-23.83913
31
0
39
0
210
0
220
0
230
1
0
LINE
5
9A
100
AcDbEntity
8
1
62
256
6
ByLayer
370
13
48
1
60
0
100
AcDbLine
10
41.433712
20
-22.523586
30
0
11
41.839805
21
-22.966104
31
0
39
0
210
0
220
0
230
1
0
LINE
5
9B
100
AcDbEntity
8
1
62
256
6
ByLayer
370
13
48
1
60
0
100
AcDbLine
10
11.461325
20
-23.83913
30
0
11
11.461325
21
-7.529667
31
0
39
0
210
0
220
0
230
1
0
LINE
5
9C
100
AcDbEntity
8
1
62
256
6
ByLayer
370
13
48
1
60
0
100
AcDbLine
10
8.105662
20
8.055848
30
0
11
8.105662
21
23.666502
31
0
39
0
210
0
220
0
230
1
0
LINE
5
9D
100
AcDbEntity
8
1
62
256
6
ByLayer
370
13
48
1
60
0
100
AcDbLine
10
24.823537
20
16.030282
30
0
11
24.823537
21
-22.759254
31
0
39
0
210
0
220
0
230
1
0
LINE
5
9E
100
AcDbEntity
8
1
62
256
6
ByLayer
370
13
48
1
60
0
100
AcDbLine
10
37.36865
20
-29.791875
30
0
11
26.324503
21
-29.352736
31
0
39
0
210
0
220
0
230
1
0
LINE
5
9F
100
AcDbEntity
8
1
62
256
6
ByLayer
370
13
48
1
60
0
100
AcDbLine
10
39.375483
20
-23.674236
30
0
11
39.085625
21
-25.241571
31
0
39
0
210
0
220
0
230
1
0
LINE
5
A0
100
AcDbEntity
8
1
62
256
6
ByLayer
370
13
48
1
60
0
100
AcDbLine
10
52.998327
20
-12.675868
30
0
11
49.977356
21
-17.908342
31
0
39
0
210
0
220
0
230
1
0
LINE
5
A1
100
AcDbEntity
8
1
62
256
6
ByLayer
370
13
48
1
60
0
100
AcDbLine
10
11.461325
20
7.529667
30
0
11
8.538675
21
7.529667
31
0
39
0
210
0
220
0
230
1
0
LINE
5
A2
100
AcDbEntity
8
1
62
256
6
ByLayer
370
13
48
1
60
0
100
AcDbLine
10
49.977356
20
-17.908342
30
0
11
42.16653
21
-26.432363
31
0
39
0
210
0
220
0
230
1
0
LINE
5
A3
100
AcDbEntity
8
1
62
256
6
ByLayer
370
13
48
1
60
0
100
AcDbLine
10
45.358402
20
-23.284053
30
0
11
47.119216
21
-21.362461
31
0
39
0
210
0
220
0
230
1
0
LINE
5
A4
100
AcDbEntity
8
1
62
256
6
ByLayer
370
13
48
1
60
0
100
AcDbLine
10
46.056512
20
-15.428202
30
0
11
46.675111
21
-15.14626
31
0
39
0
210
0
220
0
230
1
0
LINE
5
A5
100
AcDbEntity
8
1
62
256
6
ByLayer
370
13
48
1
60
0
100
AcDbLine
10
46.326772
20
-18.103356
30
0
11
47.583836
21
-19.083328
31
0
39
0
210
0
220
0
230
1
0
LINE
5
A6
100
AcDbEntity
8
1
62
256
6
ByLayer
370
13
48
1
60
0
100
AcDbLine
10
8.538675
20
7.529667
30
0
11
8.538675
21
23.83913
31
0
39
0
210
0
220
0
230
1
0
LINE
5
A7
100
AcDbEntity
8
1
62
256
6
ByLayer
370
13
48
1
60
0
100
AcDbLine
10
37.36865
20
-29.791875
30
0
11
37.659548
21
-29.803441
31
0
39
0
210
0
220
0
230
1
0
LINE
5
A8
100
AcDbEntity
8
1
62
256
6
ByLayer
370
13
48
1
60
0
100
AcDbLine
10
20.838758
20
-19.85906
30
0
11
20.838758
21
18.146463
31
0
39
0
210
0
220
0
230
1
0
LINE
5
A9
100
AcDbEntity
8
1
62
256
6
ByLayer
370
13
48
1
60
0
100
AcDbLine
10
48.125483
20
-14.485218
30
0
11
46.675111
21
-15.14626
31
0
39
0
210
0
220
0
230
1
0
LINE
5
AA
100
AcDbEntity
8
1
62
256
6
ByLayer
370
13
48
1
60
0
100
AcDbLine
10
8.105662
20
-23.666502
30
0
11
8.105662
21
-8.055848
31
0
39
0
210
0
220
0
230
1
0
LINE
5
AB
100
AcDbEntity
8
1
62
256
6
ByLayer
370
13
48
1
60
0
100
AcDbLine
10
39.375483
20
-23.674236
30
0
11
39.495967
21
-23.022747
31
0
39
0
210
0
220
0
230
1
0
LINE
5
AC
100
AcDbEntity
8
1
62
256
6
ByLayer
370
13
48
1
60
0
100
AcDbLine
10
52.998327
20
-12.675868
30
0
11
37.979817
21
4.182096
31
0
39
0
210
0
220
0
230
1
0
LINE
5
AD
100
AcDbEntity
8
1
62
256
6
ByLayer
370
13
48
1
60
0
100
AcDbLine
10
11.894338
20
-23.666502
30
0
11
11.894338
21
-8.055848
31
0
39
0
210
0
220
0
230
1
0
LINE
5
AE
100
AcDbEntity
8
1
62
256
6
ByLayer
370
13
48
1
60
0
100
AcDbLine
10
11.461325
20
7.529667
30
0
11
11.461325
21
23.83913
31
0
39
0
210
0
220
0
230
1
0
LINE
5
AF
100
AcDbEntity
8
SK1
62
256
6
ByLayer
370
13
48
1
60
0
100
AcDbLine
10
-1.315435
20
3.910269
30
0
11
-1.315435
21
-3.910272
31
0
39
0
210
0
220
0
230
1
0
LINE
5
B1
100
AcDbEntity
8
1
62
256
6
ByLayer
370
13
48
1
60
0
100
AcDbLine
10
49.819982
20
-18.326826
30
0
11
52.283271
21
-14.060284
31
0
39
0
210
0
220
0
230
1
0
LINE
5
B2
100
AcDbEntity
8
1
62
256
6
ByLayer
370
13
48
1
60
0
100
AcDbLine
10
54.542249
20
-21.006791
30
0
11
56.727999
21
-27.939104
31
0
39
0
210
0
220
0
230
1
0
LINE
5
B3
100
AcDbEntity
8
1
62
256
6
ByLayer
370
13
48
1
60
0
100
AcDbLine
10
57.429531
20
-29.533458
30
0
11
59.89282
21
-33.8
31
0
39
0
210
0
220
0
230
1
0
LINE
5
B4
100
AcDbEntity
8
1
62
256
6
ByLayer
370
13
48
1
60
0
100
AcDbLine
10
58.861905
20
-34.925046
30
0
11
54.396909
21
-32.842984
31
0
39
0
210
0
220
0
230
1
0
LINE
5
B5
100
AcDbEntity
8
1
62
256
6
ByLayer
370
13
48
1
60
0
100
AcDbLine
10
38.534089
20
-29.064883
30
0
11
42.569706
21
-26.239114
31
0
39
0
210
0
220
0
230
1
0
LINE
5
B6
100
AcDbEntity
8
1
62
256
6
ByLayer
370
13
48
1
60
0
100
AcDbLine
10
43.919529
20
-30.520205
30
0
11
38.99295
21
-30.520205
31
0
39
0
210
0
220
0
230
1
0
LINE
5
B7
100
AcDbEntity
8
1
62
256
6
ByLayer
370
13
48
1
60
0
100
AcDbLine
10
43.879313
20
-25.090619
30
0
11
48.789997
21
-19.731548
31
0
39
0
210
0
220
0
230
1
0
LINE
5
B8
100
AcDbEntity
8
1
62
256
6
ByLayer
370
13
48
1
60
0
100
AcDbLine
10
52.74748
20
-32.283078
30
0
11
45.651046
21
-30.709837
31
0
39
0
210
0
220
0
230
1
0
LINE
5
B9
100
AcDbEntity
8
1
62
256
6
ByLayer
370
13
48
1
60
0
100
AcDbLine
10
53.773047
20
-14.390559
30
0
11
54.202427
21
-19.298391
31
0
39
0
210
0
220
0
230
1
0
MTEXT
5
145
100
AcDbEntity
8
SK6
62
256
6
ByLayer
370
13
48
1
60
0
100
AcDbMText
10
0.902534
20
33.350079
30
0
210
0
220
0
230
1
1
\W0.7234;C5-CP-30AL-35060-11C
40
3.5
41
0
44
1.084337
50
0
71
7
72
5
7
iso_b_vert
0
DIMENSION
5
157
100
AcDbEntity
8
SK2
62
256
6
ByLayer
370
13
48
1
60
0
100
AcDbDimension
2
DimnDraft3D1
10
-36.85
20
-25
30
0
11
-36.85
21
0
31
0
70
32
71
5
72
1
41
1
210
0
220
0
230
1
3
Standard
100
AcDbAlignedDimension
13
-1.5875
23
25
33
0
14
-1.5875
24
-25
34
0
50
90
100
AcDbRotatedDimension
1001
ACAD
1000
DSTYLE
1002
{
1070
    74
1070
     0
1070
   279
1070
     0
1070
   172
1070
     1
1070
   173
1070
     1
1070
   340
1005
146
1070
   271
1070
     1
1070
   272
1070
     2
1070
    77
1070
     1
1070
    73
1070
     0
1070
   171
1070
     3
1070
   274
1070
     4
1070
   177
1070
   150
1070
   176
1070
     9
1070
   178
1070
    43
1070
    78
1070
     8
1070
    48
1040
-0.005
1070
    41
1041
3.175
1070
   147
1041
2.25
1070
    42
1041
1.5875
1070
    44
1041
3.175
1070
   140
1041
4.5
1070
   343
1005
158
1070
   344
1005
158
1002
}
0
DIMENSION
5
16D
100
AcDbEntity
8
2
62
256
6
ByLayer
370
13
48
1
60
0
100
AcDbDimension
2
DimnDraft3D2
10
85.85
20
0
30
0
11
85.85
21
-17.5
31
0
70
32
71
5
72
1
41
1
210
0
220
0
230
1
3
Standard
100
AcDbAlignedDimension
13
61.5875
23
-35
33
0
14
61.5875
24
0
34
0
50
90
100
AcDbRotatedDimension
1001
ACAD
1000
DSTYLE
1002
{
1070
    74
1070
     0
1070
   279
1070
     0
1070
   172
1070
     1
1070
   173
1070
     1
1070
   340
1005
146
1070
   271
1070
     1
1070
   272
1070
     2
1070
    77
1070
     1
1070
    73
1070
     0
1070
   171
1070
     3
1070
   274
1070
     4
1070
   177
1070
   150
1070
   176
1070
     9
1070
   178
1070
    43
1070
    78
1070
     8
1070
    48
1040
-0.005
1070
    41
1041
3.175
1070
   147
1041
2.25
1070
    42
1041
1.5875
1070
    44
1041
3.175
1070
   140
1041
4.5
1070
   343
1005
158
1070
   344
1005
158
1002
}
0
DIMENSION
5
17B
100
AcDbEntity
8
2
62
256
6
ByLayer
370
13
48
1
60
0
100
AcDbDimension
2
DimnDraft3D3
10
60
20
-61.5
30
0
11
30
21
-61.5
31
0
70
32
71
5
72
1
41
1
210
0
220
0
230
1
3
Standard
100
AcDbAlignedDimension
13
0
23
-26.5875
33
0
14
60
24
-36.5875
34
0
50
0
100
AcDbRotatedDimension
1001
ACAD
1000
DSTYLE
1002
{
1070
   279
1070
     0
1070
   172
1070
     1
1070
   173
1070
     1
1070
   340
1005
146
1070
   271
1070
     1
1070
   272
1070
     2
1070
    77
1070
     1
1070
    73
1070
     0
1070
   171
1070
     3
1070
   274
1070
     4
1070
   177
1070
   150
1070
   176
1070
     9
1070
   178
1070
    43
1070
    78
1070
     8
1070
    48
1040
-0.005
1070
    41
1041
3.175
1070
   147
1041
2.25
1070
    42
1041
1.5875
1070
    44
1041
3.175
1070
   140
1041
4.5
1070
   343
1005
158
1070
   344
1005
158
1002
}
0
DIMENSION
5
189
100
AcDbEntity
8
2
62
256
6
ByLayer
370
13
48
1
60
0
100
AcDbDimension
2
DimnDraft3D4
10
57.811955
20
-29.330366
30
0
11
51.484905
21
4.386468
31
0
70
34
71
5
72
1
41
1
210
0
220
0
230
1
3
Standard
100
AcDb2LineAngularDimension
13
60
23
-35
33
0
14
60
24
-33.4
34
0
15
59.925046
25
-33.861905
35
0
16
52.458883
26
-0.006864
36
0
40
0
0
ENDSEC
0
SECTION
2
OBJECTS
0
DICTIONARY
5
1f3
330
0
100
AcDbDictionary
280
0
281
1
3
ACAD_GROUP
350
1f4
3
ACAD_MLINESTYLE
350
1f5
0
DICTIONARY
5
1f4
330
0
100
AcDbDictionary
280
0
281
1
0
DICTIONARY
5
1f5
330
0
100
AcDbDictionary
280
0
281
1
3
Standard
350
18
0
MLINESTYLE
5
18
330
1f5
100
AcDbMlineStyle
2
Standard
70
0
3

62
256
51
90
52
90
71
2
49
-0.5
62
256
6
ByLayer
49
0.5
62
256
6
ByLayer
0
RASTERVARIABLES
5
1e2
330

100
AcDbRasterVariables
90
0
70
1
71
1
72
1
0
ENDSEC
0
EOF
