0
SECTION
2
HEADER
9
$ACADVER
1
AC1015
9
$DWGCODEPAGE
3
ANSI_1252
9
$HANDSEED
5
1c6
9
$ANGBASE
50
0
9
$ANGDIR
70
0
9
$ATTMODE
70
1
9
$AUNITS
70
0
9
$AUPREC
70
0
9
$CECOLOR
62
256
9
$CELTSCALE
40
1
9
$CELTYPE
6
ByLayer
9
$CELWEIGHT
370
18
9
$CLAYER
8
0
9
$CMLJUST
70
0
9
$CMLSCALE
40
1
9
$CMLSTYLE
2
Standard
9
$DIMSTYLE
2
Standard
9
$TEXTSIZE
40
0.2
9
$TEXTSTYLE
7
Standard
9
$LUNITS
70
2
9
$LUPREC
70
4
9
$EXTNAMES
290
1
9
$INSUNITS
70
4
9
$LTSCALE
40
1
9
$LWDISPLAY
290
1
9
$PDMODE
70
0
9
$PDSIZE
40
0
9
$PLINEGEN
70
0
0
ENDSEC
0
SECTION
2
CLASSES
0
CLASS
1
RASTERVARIABLES
2
AcDbRasterVariables
3
ISM
90
0
280
0
281
0
0
ENDSEC
0
SECTION
2
TABLES
0
TABLE
2
VPORT
5
1bc
100
AcDbSymbolTable
0
VPORT
5
1
100
AcDbSymbolTableRecord
100
AcDbViewportTableRecord
2
*Active
70
0
10
0
20
0
11
1
21
1
12
-1
22
1
13
0
23
0
14
0.5
24
0.5
15
10
25
10
16
0
26
0
36
1
17
0
27
0
37
0
0
ENDTAB
0
TABLE
2
LTYPE
5
1bd
100
AcDbSymbolTable
0
LTYPE
5
14
100
AcDbSymbolTableRecord
100
AcDbLinetypeTableRecord
70
0
2
ByBlock
3

72
65
73
0
40
0
0
LTYPE
5
15
100
AcDbSymbolTableRecord
100
AcDbLinetypeTableRecord
70
0
2
ByLayer
3

72
65
73
0
40
0
0
LTYPE
5
16
100
AcDbSymbolTableRecord
100
AcDbLinetypeTableRecord
70
0
2
CONTINUOUS
3
Solid line
72
65
73
0
40
0
0
LTYPE
5
6A
100
AcDbSymbolTableRecord
100
AcDbLinetypeTableRecord
70
0
2
CENTER
3
____ _ ____ _ ____ _ ____
72
65
73
4
40
47.5
49
22
74
0
49
-8.5
74
0
49
8.5
74
0
49
-8.5
74
0
0
LTYPE
5
6B
100
AcDbSymbolTableRecord
100
AcDbLinetypeTableRecord
70
0
2
DASHED
3
__ __ __ __ __ __ __ __ __
72
65
73
2
40
25.72
49
12.86
74
0
49
-12.86
74
0
0
ENDTAB
0
TABLE
2
LAYER
5
1be
100
AcDbSymbolTable
0
LAYER
5
10
100
AcDbSymbolTableRecord
100
AcDbLayerTableRecord
2
0
70
0
62
7
6
CONTINUOUS
290
1
370
-3
390
0
0
LAYER
5
6D
100
AcDbSymbolTableRecord
100
AcDbLayerTableRecord
2
81
70
0
62
-3
6
CONTINUOUS
290
1
370
-3
390
0
0
LAYER
5
6F
100
AcDbSymbolTableRecord
100
AcDbLayerTableRecord
2
80
70
0
62
-6
6
CONTINUOUS
290
1
370
-3
390
0
0
LAYER
5
72
100
AcDbSymbolTableRecord
100
AcDbLayerTableRecord
2
1
70
0
62
4
6
CONTINUOUS
290
1
370
-3
390
0
0
LAYER
5
B7
100
AcDbSymbolTableRecord
100
AcDbLayerTableRecord
2
4
70
0
62
-2
6
CENTER
290
1
370
-3
390
0
0
LAYER
5
141
100
AcDbSymbolTableRecord
100
AcDbLayerTableRecord
2
2
70
0
62
7
6
CONTINUOUS
290
1
370
-3
390
0
0
LAYER
5
1a7
100
AcDbSymbolTableRecord
100
AcDbLayerTableRecord
2
SK1
70
0
62
4
6
CONTINUOUS
290
1
370
-3
390
0
0
LAYER
5
1a8
100
AcDbSymbolTableRecord
100
AcDbLayerTableRecord
2
SK4
70
0
62
2
6
CENTER
290
1
370
-3
390
0
0
LAYER
5
1a9
100
AcDbSymbolTableRecord
100
AcDbLayerTableRecord
2
SK3
70
0
62
1
6
DASHED
290
1
370
-3
390
0
0
LAYER
5
1aa
100
AcDbSymbolTableRecord
100
AcDbLayerTableRecord
2
SK6
70
0
62
5
6
CONTINUOUS
290
1
370
-3
390
0
0
LAYER
5
1ab
100
AcDbSymbolTableRecord
100
AcDbLayerTableRecord
2
SK2
70
0
62
7
6
CONTINUOUS
290
1
370
-3
390
0
0
ENDTAB
0
TABLE
2
STYLE
5
1bf
100
AcDbSymbolTable
0
STYLE
5
11
100
AcDbSymbolTableRecord
100
AcDbTextStyleTableRecord
2
Standard
3
txt
70
0
71
0
40
0
41
1
42
0
50
0
0
STYLE
5
DF
100
AcDbSymbolTableRecord
100
AcDbTextStyleTableRecord
2
iso_b_vert
3
simplex.shx
70
0
71
0
40
0
41
1
42
0
50
0
0
STYLE
5
E0
100
AcDbSymbolTableRecord
100
AcDbTextStyleTableRecord
2
DWGDirectTextStyle
3
simplex
70
0
71
0
40
0
41
1
42
0
50
0
0
ENDTAB
0
TABLE
2
DIMSTYLE
5
1c0
100
AcDbSymbolTable
100
AcDbDimStyleTable
0
DIMSTYLE
105
27
100
AcDbSymbolTableRecord
100
AcDbDimStyleTableRecord
2
Standard
70
0
3
<>
41
0.18
42
0.0625
44
0.18
140
0.18
147
0.09
73
0
74
0
77
1
271
2
275
0
278
52
280
0
340
11
0
ENDTAB
0
TABLE
2
VIEW
5
1c1
100
AcDbSymbolTable
0
ENDTAB
0
TABLE
2
UCS
5
1c2
100
AcDbSymbolTable
0
ENDTAB
0
TABLE
2
APPID
5
1c3
100
AcDbSymbolTable
0
APPID
5
12
100
AcDbSymbolTableRecord
100
AcDbRegAppTableRecord
2
ACAD
70
0
0
ENDTAB
0
TABLE
2
BLOCK_RECORD
5
1c4
100
AcDbSymbolTable
0
BLOCK_RECORD
5
1F
100
AcDbSymbolTableRecord
100
AcDbBlockTableRecord
2
*Model_Space
340
0
70
0
0
BLOCK_RECORD
5
1B
100
AcDbSymbolTableRecord
100
AcDbBlockTableRecord
2
*Paper_Space
340
0
70
0
0
BLOCK_RECORD
5
23
100
AcDbSymbolTableRecord
100
AcDbBlockTableRecord
2
*Paper_Space0
340
0
70
0
0
BLOCK_RECORD
5
E2
100
AcDbSymbolTableRecord
100
AcDbBlockTableRecord
2
DimnDraft3D1
340
0
70
0
0
BLOCK_RECORD
5
F1
100
AcDbSymbolTableRecord
100
AcDbBlockTableRecord
2
_CLOSED
340
0
70
0
0
BLOCK_RECORD
5
F8
100
AcDbSymbolTableRecord
100
AcDbBlockTableRecord
2
DimnDraft3D2
340
0
70
0
0
BLOCK_RECORD
5
106
100
AcDbSymbolTableRecord
100
AcDbBlockTableRecord
2
DimnDraft3D3
340
0
70
0
0
BLOCK_RECORD
5
115
100
AcDbSymbolTableRecord
100
AcDbBlockTableRecord
2
DimnDraft3D4
340
0
70
0
0
BLOCK_RECORD
5
123
100
AcDbSymbolTableRecord
100
AcDbBlockTableRecord
2
DimnDraft3D5
340
0
70
0
0
BLOCK_RECORD
5
131
100
AcDbSymbolTableRecord
100
AcDbBlockTableRecord
2
DimnDraft3D6
340
0
70
0
0
BLOCK_RECORD
5
13F
100
AcDbSymbolTableRecord
100
AcDbBlockTableRecord
2
DimnDraft3D7
340
0
70
0
0
ENDTAB
0
ENDSEC
0
SECTION
2
BLOCKS
0
BLOCK
5
20
100
AcDbEntity
8
0
100
AcDbBlockBegin
2
*Model_Space
70
0
10
0
20
0
30
0
3
*Model_Space
0
ENDBLK
5
21
100
AcDbEntity
8
0
100
AcDbBlockEnd
0
BLOCK
5
1C
100
AcDbEntity
8
0
100
AcDbBlockBegin
2
*Paper_Space
70
0
10
0
20
0
30
0
3
*Paper_Space
0
ENDBLK
5
1D
100
AcDbEntity
8
0
100
AcDbBlockEnd
0
BLOCK
5
24
100
AcDbEntity
8
0
100
AcDbBlockBegin
2
*Paper_Space0
70
0
10
0
20
0
30
0
3
*Paper_Space0
0
ENDBLK
5
25
100
AcDbEntity
8
0
100
AcDbBlockEnd
0
BLOCK
5
EE
100
AcDbEntity
8
0
100
AcDbBlockBegin
2
DimnDraft3D1
70
0
10
0
20
0
30
0
3
DimnDraft3D1
0
MTEXT
5
E3
100
AcDbEntity
8
SK2
62
256
6
ByLayer
370
18
48
1
60
0
100
AcDbMText
10
111.166938
20
-17.841842
30
0
210
0
220
0
230
1
1
\W0.6676;10.95
40
3
41
0
44
1.084337
50
90
71
7
72
5
7
iso_b_vert
0
LINE
5
E5
100
AcDbEntity
8
SK2
62
256
6
ByLayer
370
13
48
1
60
0
100
AcDbLine
10
90
20
10.95
30
0
11
113.916938
21
10.95
31
0
39
0
210
0
220
0
230
1
0
LINE
5
E6
100
AcDbEntity
8
SK2
62
256
6
ByLayer
370
13
48
1
60
0
100
AcDbLine
10
103.841108
20
0
30
0
11
113.916938
21
0
31
0
39
0
210
0
220
0
230
1
0
LINE
5
E7
100
AcDbEntity
8
SK2
62
256
6
ByLayer
370
13
48
1
60
0
100
AcDbLine
10
111.916938
20
10.95
30
0
11
111.916938
21
-18.591842
31
0
39
0
210
0
220
0
230
1
0
LINE
5
E8
100
AcDbEntity
8
SK2
62
256
6
ByLayer
370
13
48
1
60
0
100
AcDbLine
10
111.916938
20
10.95
30
0
11
112.334935
21
7.775002
31
0
39
0
210
0
220
0
230
1
0
LINE
5
E9
100
AcDbEntity
8
SK2
62
256
6
ByLayer
370
13
48
1
60
0
100
AcDbLine
10
111.916938
20
10.95
30
0
11
111.498941
21
7.774998
31
0
39
0
210
0
220
0
230
1
0
LINE
5
EA
100
AcDbEntity
8
SK2
62
256
6
ByLayer
370
13
48
1
60
0
100
AcDbLine
10
112.334935
20
7.775002
30
0
11
111.498941
21
7.774998
31
0
39
0
210
0
220
0
230
1
0
LINE
5
EB
100
AcDbEntity
8
SK2
62
256
6
ByLayer
370
13
48
1
60
0
100
AcDbLine
10
111.916938
20
0
30
0
11
111.498941
21
3.174998
31
0
39
0
210
0
220
0
230
1
0
LINE
5
EC
100
AcDbEntity
8
SK2
62
256
6
ByLayer
370
13
48
1
60
0
100
AcDbLine
10
111.916938
20
0
30
0
11
112.334935
21
3.175002
31
0
39
0
210
0
220
0
230
1
0
LINE
5
ED
100
AcDbEntity
8
SK2
62
256
6
ByLayer
370
13
48
1
60
0
100
AcDbLine
10
111.498941
20
3.174998
30
0
11
112.334935
21
3.175002
31
0
39
0
210
0
220
0
230
1
0
ENDBLK
5
EF
100
AcDbEntity
8
0
100
AcDbBlockEnd
0
BLOCK
5
F2
100
AcDbEntity
8
0
100
AcDbBlockBegin
2
_CLOSED
70
0
10
0
20
0
30
0
3
_CLOSED
0
LINE
5
F4
100
AcDbEntity
8
0
62
256
6
ByLayer
370
-2
48
1
60
0
100
AcDbLine
10
-1
20
0.166667
30
0
11
0
21
0
31
0
39
0
210
0
220
0
230
1
0
LINE
5
F5
100
AcDbEntity
8
0
62
256
6
ByLayer
370
-2
48
1
60
0
100
AcDbLine
10
0
20
0
30
0
11
-1
21
-0.166667
31
0
39
0
210
0
220
0
230
1
0
LINE
5
F6
100
AcDbEntity
8
0
62
256
6
ByLayer
370
-2
48
1
60
0
100
AcDbLine
10
-1
20
0.166667
30
0
11
-1
21
-0.166667
31
0
39
0
210
0
220
0
230
1
0
LINE
5
F7
100
AcDbEntity
8
0
62
256
6
ByLayer
370
-2
48
1
60
0
100
AcDbLine
10
0
20
0
30
0
11
-1
21
0
31
0
39
0
210
0
220
0
230
1
0
ENDBLK
5
F3
100
AcDbEntity
8
0
100
AcDbBlockEnd
0
BLOCK
5
103
100
AcDbEntity
8
0
100
AcDbBlockBegin
2
DimnDraft3D2
70
0
10
0
20
0
30
0
3
DimnDraft3D2
0
MTEXT
5
F9
100
AcDbEntity
8
SK2
62
256
6
ByLayer
370
18
48
1
60
0
100
AcDbMText
10
124.558428
20
13.997368
30
0
210
0
220
0
230
1
1
\W0.6562;30
40
3
41
0
44
1.084337
50
90
71
7
72
5
7
iso_b_vert
0
LINE
5
FA
100
AcDbEntity
8
SK2
62
256
6
ByLayer
370
13
48
1
60
0
100
AcDbLine
10
95
20
30
30
0
11
127.308428
21
30
31
0
39
0
210
0
220
0
230
1
0
LINE
5
FB
100
AcDbEntity
8
SK2
62
256
6
ByLayer
370
13
48
1
60
0
100
AcDbLine
10
103.841108
20
0
30
0
11
127.308428
21
0
31
0
39
0
210
0
220
0
230
1
0
LINE
5
FC
100
AcDbEntity
8
SK2
62
256
6
ByLayer
370
13
48
1
60
0
100
AcDbLine
10
125.308428
20
30
30
0
11
125.308428
21
0
31
0
39
0
210
0
220
0
230
1
0
LINE
5
FD
100
AcDbEntity
8
SK2
62
256
6
ByLayer
370
13
48
1
60
0
100
AcDbLine
10
125.308428
20
30
30
0
11
125.726425
21
26.825002
31
0
39
0
210
0
220
0
230
1
0
LINE
5
FE
100
AcDbEntity
8
SK2
62
256
6
ByLayer
370
13
48
1
60
0
100
AcDbLine
10
125.308428
20
30
30
0
11
124.890431
21
26.824998
31
0
39
0
210
0
220
0
230
1
0
LINE
5
FF
100
AcDbEntity
8
SK2
62
256
6
ByLayer
370
13
48
1
60
0
100
AcDbLine
10
125.726425
20
26.825002
30
0
11
124.890431
21
26.824998
31
0
39
0
210
0
220
0
230
1
0
LINE
5
100
100
AcDbEntity
8
SK2
62
256
6
ByLayer
370
13
48
1
60
0
100
AcDbLine
10
125.308428
20
0
30
0
11
124.890431
21
3.174998
31
0
39
0
210
0
220
0
230
1
0
LINE
5
101
100
AcDbEntity
8
SK2
62
256
6
ByLayer
370
13
48
1
60
0
100
AcDbLine
10
125.308428
20
0
30
0
11
125.726425
21
3.175002
31
0
39
0
210
0
220
0
230
1
0
LINE
5
102
100
AcDbEntity
8
SK2
62
256
6
ByLayer
370
13
48
1
60
0
100
AcDbLine
10
124.890431
20
3.174998
30
0
11
125.726425
21
3.175002
31
0
39
0
210
0
220
0
230
1
0
ENDBLK
5
104
100
AcDbEntity
8
0
100
AcDbBlockEnd
0
BLOCK
5
112
100
AcDbEntity
8
0
100
AcDbBlockBegin
2
DimnDraft3D3
70
0
10
0
20
0
30
0
3
DimnDraft3D3
0
MTEXT
5
107
100
AcDbEntity
8
SK2
62
256
6
ByLayer
370
18
48
1
60
0
100
AcDbMText
10
-40.760951
20
3.497368
30
0
210
0
220
0
230
1
1
\W0.6563;50
40
3
41
0
44
1.084337
50
90
71
7
72
5
7
iso_b_vert
0
MTEXT
5
108
100
AcDbEntity
8
SK2
62
256
6
ByLayer
370
18
48
1
60
0
100
AcDbMText
10
-40.760951
20
-3.979194
30
0
210
0
220
0
230
1
1
%%c
40
3
41
0
44
1.084337
50
90
71
7
72
5
7
iso_b_vert
0
LINE
5
109
100
AcDbEntity
8
SK2
62
256
6
ByLayer
370
13
48
1
60
0
100
AcDbLine
10
-1.7
20
-25
30
0
11
-41.260951
21
-25
31
0
39
0
210
0
220
0
230
1
0
LINE
5
10A
100
AcDbEntity
8
SK2
62
256
6
ByLayer
370
13
48
1
60
0
100
AcDbLine
10
-1.7
20
25
30
0
11
-41.260951
21
25
31
0
39
0
210
0
220
0
230
1
0
LINE
5
10B
100
AcDbEntity
8
SK2
62
256
6
ByLayer
370
13
48
1
60
0
100
AcDbLine
10
-39.260951
20
-25
30
0
11
-39.260951
21
25
31
0
39
0
210
0
220
0
230
1
0
LINE
5
10C
100
AcDbEntity
8
SK2
62
256
6
ByLayer
370
13
48
1
60
0
100
AcDbLine
10
-39.260951
20
-25
30
0
11
-39.678948
21
-21.825002
31
0
39
0
210
0
220
0
230
1
0
LINE
5
10D
100
AcDbEntity
8
SK2
62
256
6
ByLayer
370
13
48
1
60
0
100
AcDbLine
10
-39.260951
20
-25
30
0
11
-38.842954
21
-21.824998
31
0
39
0
210
0
220
0
230
1
0
LINE
5
10E
100
AcDbEntity
8
SK2
62
256
6
ByLayer
370
13
48
1
60
0
100
AcDbLine
10
-39.678948
20
-21.825002
30
0
11
-38.842954
21
-21.824998
31
0
39
0
210
0
220
0
230
1
0
LINE
5
10F
100
AcDbEntity
8
SK2
62
256
6
ByLayer
370
13
48
1
60
0
100
AcDbLine
10
-39.260951
20
25
30
0
11
-38.842954
21
21.825002
31
0
39
0
210
0
220
0
230
1
0
LINE
5
110
100
AcDbEntity
8
SK2
62
256
6
ByLayer
370
13
48
1
60
0
100
AcDbLine
10
-39.260951
20
25
30
0
11
-39.678948
21
21.824998
31
0
39
0
210
0
220
0
230
1
0
LINE
5
111
100
AcDbEntity
8
SK2
62
256
6
ByLayer
370
13
48
1
60
0
100
AcDbLine
10
-38.842954
20
21.825002
30
0
11
-39.678948
21
21.824998
31
0
39
0
210
0
220
0
230
1
0
ENDBLK
5
113
100
AcDbEntity
8
0
100
AcDbBlockEnd
0
BLOCK
5
120
100
AcDbEntity
8
0
100
AcDbBlockBegin
2
DimnDraft3D4
70
0
10
0
20
0
30
0
3
DimnDraft3D4
0
MTEXT
5
116
100
AcDbEntity
8
SK2
62
256
6
ByLayer
370
18
48
1
60
0
100
AcDbMText
10
8.957895
20
42.233991
30
0
210
0
220
0
230
1
1
\W0.6740;20
40
3
41
0
44
1.084337
50
0
71
7
72
5
7
iso_b_vert
0
LINE
5
117
100
AcDbEntity
8
SK2
62
256
6
ByLayer
370
13
48
1
60
0
100
AcDbLine
10
0
20
26.7
30
0
11
0
21
43.483991
31
0
39
0
210
0
220
0
230
1
0
LINE
5
118
100
AcDbEntity
8
SK2
62
256
6
ByLayer
370
13
48
1
60
0
100
AcDbLine
10
20
20
27
30
0
11
20
21
43.483991
31
0
39
0
210
0
220
0
230
1
0
LINE
5
119
100
AcDbEntity
8
SK2
62
256
6
ByLayer
370
13
48
1
60
0
100
AcDbLine
10
0
20
41.483991
30
0
11
20
21
41.483991
31
0
39
0
210
0
220
0
230
1
0
LINE
5
11A
100
AcDbEntity
8
SK2
62
256
6
ByLayer
370
13
48
1
60
0
100
AcDbLine
10
0
20
41.483991
30
0
11
3.174998
21
41.901987
31
0
39
0
210
0
220
0
230
1
0
LINE
5
11B
100
AcDbEntity
8
SK2
62
256
6
ByLayer
370
13
48
1
60
0
100
AcDbLine
10
0
20
41.483991
30
0
11
3.175002
21
41.065994
31
0
39
0
210
0
220
0
230
1
0
LINE
5
11C
100
AcDbEntity
8
SK2
62
256
6
ByLayer
370
13
48
1
60
0
100
AcDbLine
10
3.174998
20
41.901987
30
0
11
3.175002
21
41.065994
31
0
39
0
210
0
220
0
230
1
0
LINE
5
11D
100
AcDbEntity
8
SK2
62
256
6
ByLayer
370
13
48
1
60
0
100
AcDbLine
10
20
20
41.483991
30
0
11
16.825002
21
41.065994
31
0
39
0
210
0
220
0
230
1
0
LINE
5
11E
100
AcDbEntity
8
SK2
62
256
6
ByLayer
370
13
48
1
60
0
100
AcDbLine
10
20
20
41.483991
30
0
11
16.824998
21
41.901987
31
0
39
0
210
0
220
0
230
1
0
LINE
5
11F
100
AcDbEntity
8
SK2
62
256
6
ByLayer
370
13
48
1
60
0
100
AcDbLine
10
16.825002
20
41.065994
30
0
11
16.824998
21
41.901987
31
0
39
0
210
0
220
0
230
1
0
ENDBLK
5
121
100
AcDbEntity
8
0
100
AcDbBlockEnd
0
BLOCK
5
12E
100
AcDbEntity
8
0
100
AcDbBlockBegin
2
DimnDraft3D5
70
0
10
0
20
0
30
0
3
DimnDraft3D5
0
MTEXT
5
124
100
AcDbEntity
8
SK2
62
256
6
ByLayer
370
18
48
1
60
0
100
AcDbMText
10
9.978947
20
52.35576
30
0
210
0
220
0
230
1
1
\W0.7346;25.5
40
3
41
0
44
1.084337
50
0
71
7
72
5
7
iso_b_vert
0
LINE
5
125
100
AcDbEntity
8
SK2
62
256
6
ByLayer
370
13
48
1
60
0
100
AcDbLine
10
0
20
26.7
30
0
11
0
21
53.60576
31
0
39
0
210
0
220
0
230
1
0
LINE
5
126
100
AcDbEntity
8
SK2
62
256
6
ByLayer
370
13
48
1
60
0
100
AcDbLine
10
25.5
20
32
30
0
11
25.5
21
53.60576
31
0
39
0
210
0
220
0
230
1
0
LINE
5
127
100
AcDbEntity
8
SK2
62
256
6
ByLayer
370
13
48
1
60
0
100
AcDbLine
10
0
20
51.60576
30
0
11
25.5
21
51.60576
31
0
39
0
210
0
220
0
230
1
0
LINE
5
128
100
AcDbEntity
8
SK2
62
256
6
ByLayer
370
13
48
1
60
0
100
AcDbLine
10
0
20
51.60576
30
0
11
3.174998
21
52.023757
31
0
39
0
210
0
220
0
230
1
0
LINE
5
129
100
AcDbEntity
8
SK2
62
256
6
ByLayer
370
13
48
1
60
0
100
AcDbLine
10
0
20
51.60576
30
0
11
3.175002
21
51.187763
31
0
39
0
210
0
220
0
230
1
0
LINE
5
12A
100
AcDbEntity
8
SK2
62
256
6
ByLayer
370
13
48
1
60
0
100
AcDbLine
10
3.174998
20
52.023757
30
0
11
3.175002
21
51.187763
31
0
39
0
210
0
220
0
230
1
0
LINE
5
12B
100
AcDbEntity
8
SK2
62
256
6
ByLayer
370
13
48
1
60
0
100
AcDbLine
10
25.5
20
51.60576
30
0
11
22.325002
21
51.187763
31
0
39
0
210
0
220
0
230
1
0
LINE
5
12C
100
AcDbEntity
8
SK2
62
256
6
ByLayer
370
13
48
1
60
0
100
AcDbLine
10
25.5
20
51.60576
30
0
11
22.324998
21
52.023757
31
0
39
0
210
0
220
0
230
1
0
LINE
5
12D
100
AcDbEntity
8
SK2
62
256
6
ByLayer
370
13
48
1
60
0
100
AcDbLine
10
22.325002
20
51.187763
30
0
11
22.324998
21
52.023757
31
0
39
0
210
0
220
0
230
1
0
ENDBLK
5
12F
100
AcDbEntity
8
0
100
AcDbBlockEnd
0
BLOCK
5
13C
100
AcDbEntity
8
0
100
AcDbBlockBegin
2
DimnDraft3D6
70
0
10
0
20
0
30
0
3
DimnDraft3D6
0
MTEXT
5
132
100
AcDbEntity
8
SK2
62
256
6
ByLayer
370
18
48
1
60
0
100
AcDbMText
10
42.957895
20
62.725662
30
0
210
0
220
0
230
1
1
\W0.6740;88
40
3
41
0
44
1.084337
50
0
71
7
72
5
7
iso_b_vert
0
LINE
5
133
100
AcDbEntity
8
SK2
62
256
6
ByLayer
370
13
48
1
60
0
100
AcDbLine
10
0
20
26.7
30
0
11
0
21
63.975661
31
0
39
0
210
0
220
0
230
1
0
LINE
5
134
100
AcDbEntity
8
SK2
62
256
6
ByLayer
370
13
48
1
60
0
100
AcDbLine
10
88
20
26
30
0
11
88
21
63.975661
31
0
39
0
210
0
220
0
230
1
0
LINE
5
135
100
AcDbEntity
8
SK2
62
256
6
ByLayer
370
13
48
1
60
0
100
AcDbLine
10
0
20
61.975662
30
0
11
88
21
61.975662
31
0
39
0
210
0
220
0
230
1
0
LINE
5
136
100
AcDbEntity
8
SK2
62
256
6
ByLayer
370
13
48
1
60
0
100
AcDbLine
10
0
20
61.975662
30
0
11
3.174998
21
62.393658
31
0
39
0
210
0
220
0
230
1
0
LINE
5
137
100
AcDbEntity
8
SK2
62
256
6
ByLayer
370
13
48
1
60
0
100
AcDbLine
10
0
20
61.975662
30
0
11
3.175002
21
61.557665
31
0
39
0
210
0
220
0
230
1
0
LINE
5
138
100
AcDbEntity
8
SK2
62
256
6
ByLayer
370
13
48
1
60
0
100
AcDbLine
10
3.174998
20
62.393658
30
0
11
3.175002
21
61.557665
31
0
39
0
210
0
220
0
230
1
0
LINE
5
139
100
AcDbEntity
8
SK2
62
256
6
ByLayer
370
13
48
1
60
0
100
AcDbLine
10
88
20
61.975662
30
0
11
84.825002
21
61.557665
31
0
39
0
210
0
220
0
230
1
0
LINE
5
13A
100
AcDbEntity
8
SK2
62
256
6
ByLayer
370
13
48
1
60
0
100
AcDbLine
10
88
20
61.975662
30
0
11
84.824998
21
62.393658
31
0
39
0
210
0
220
0
230
1
0
LINE
5
13B
100
AcDbEntity
8
SK2
62
256
6
ByLayer
370
13
48
1
60
0
100
AcDbLine
10
84.825002
20
61.557665
30
0
11
84.824998
21
62.393658
31
0
39
0
210
0
220
0
230
1
0
ENDBLK
5
13D
100
AcDbEntity
8
0
100
AcDbBlockEnd
0
BLOCK
5
14B
100
AcDbEntity
8
0
100
AcDbBlockBegin
2
DimnDraft3D7
70
0
10
0
20
0
30
0
3
DimnDraft3D7
0
MTEXT
5
140
100
AcDbEntity
8
2
62
256
6
ByLayer
370
18
48
1
60
0
100
AcDbMText
10
46.457895
20
72.127722
30
0
210
0
220
0
230
1
1
\W0.6740;95
40
3
41
0
44
1.084337
50
0
71
7
72
5
7
iso_b_vert
0
LINE
5
142
100
AcDbEntity
8
2
62
256
6
ByLayer
370
13
48
1
60
0
100
AcDbLine
10
0
20
26.7
30
0
11
0
21
73.377722
31
0
39
0
210
0
220
0
230
1
0
LINE
5
143
100
AcDbEntity
8
2
62
256
6
ByLayer
370
13
48
1
60
0
100
AcDbLine
10
95
20
30
30
0
11
95
21
73.377722
31
0
39
0
210
0
220
0
230
1
0
LINE
5
144
100
AcDbEntity
8
2
62
256
6
ByLayer
370
13
48
1
60
0
100
AcDbLine
10
0
20
71.377722
30
0
11
95
21
71.377722
31
0
39
0
210
0
220
0
230
1
0
LINE
5
145
100
AcDbEntity
8
2
62
256
6
ByLayer
370
13
48
1
60
0
100
AcDbLine
10
0
20
71.377722
30
0
11
3.174998
21
71.795719
31
0
39
0
210
0
220
0
230
1
0
LINE
5
146
100
AcDbEntity
8
2
62
256
6
ByLayer
370
13
48
1
60
0
100
AcDbLine
10
0
20
71.377722
30
0
11
3.175002
21
70.959726
31
0
39
0
210
0
220
0
230
1
0
LINE
5
147
100
AcDbEntity
8
2
62
256
6
ByLayer
370
13
48
1
60
0
100
AcDbLine
10
3.174998
20
71.795719
30
0
11
3.175002
21
70.959726
31
0
39
0
210
0
220
0
230
1
0
LINE
5
148
100
AcDbEntity
8
2
62
256
6
ByLayer
370
13
48
1
60
0
100
AcDbLine
10
95
20
71.377722
30
0
11
91.825002
21
70.959726
31
0
39
0
210
0
220
0
230
1
0
LINE
5
149
100
AcDbEntity
8
2
62
256
6
ByLayer
370
13
48
1
60
0
100
AcDbLine
10
95
20
71.377722
30
0
11
91.824998
21
71.795719
31
0
39
0
210
0
220
0
230
1
0
LINE
5
14A
100
AcDbEntity
8
2
62
256
6
ByLayer
370
13
48
1
60
0
100
AcDbLine
10
91.825002
20
70.959726
30
0
11
91.824998
21
71.795719
31
0
39
0
210
0
220
0
230
1
0
ENDBLK
5
14C
100
AcDbEntity
8
0
100
AcDbBlockEnd
0
ENDSEC
0
SECTION
2
ENTITIES
0
ARC
5
B9
100
AcDbEntity
8
1
62
256
6
ByLayer
370
18
48
1
60
0
100
AcDbCircle
39
0
10
20
20
26.2
30
0
40
1.2
210
0
220
0
230
1
100
AcDbArc
50
270
51
345
0
ARC
5
C3
100
AcDbEntity
8
1
62
256
6
ByLayer
370
18
48
1
60
0
100
AcDbCircle
39
0
10
92.2
20
9.8
30
0
40
0.799999999999766
210
0
220
0
230
1
100
AcDbArc
50
270
51
0
0
ARC
5
C4
100
AcDbEntity
8
1
62
256
6
ByLayer
370
18
48
1
60
0
100
AcDbCircle
39
0
10
20
20
-26.2
30
0
40
1.2
210
0
220
0
230
1
100
AcDbArc
50
35.685335
51
90
0
CIRCLE
5
BA
100
AcDbEntity
8
1
62
256
6
ByLayer
370
18
48
1
60
0
100
AcDbCircle
10
50
20
20
30
0
40
5
39
0
210
0
220
0
230
1
0
CIRCLE
5
BB
100
AcDbEntity
8
1
62
256
6
ByLayer
370
18
48
1
60
0
100
AcDbCircle
10
65
20
20
30
0
40
5
39
0
210
0
220
0
230
1
0
CIRCLE
5
BC
100
AcDbEntity
8
1
62
256
6
ByLayer
370
18
48
1
60
0
100
AcDbCircle
10
80
20
20
30
0
40
5
39
0
210
0
220
0
230
1
0
CIRCLE
5
BD
100
AcDbEntity
8
1
62
256
6
ByLayer
370
18
48
1
60
0
100
AcDbCircle
10
-65.5
20
1.5
30
0
40
2.5
39
0
210
0
220
0
230
-1
0
CIRCLE
5
BE
100
AcDbEntity
8
1
62
256
6
ByLayer
370
18
48
1
60
0
100
AcDbCircle
10
-65
20
20
30
0
40
4.25
39
0
210
0
220
0
230
-1
0
CIRCLE
5
BF
100
AcDbEntity
8
1
62
256
6
ByLayer
370
18
48
1
60
0
100
AcDbCircle
10
65
20
20
30
0
40
4.25
39
0
210
0
220
0
230
1
0
CIRCLE
5
C0
100
AcDbEntity
8
1
62
256
6
ByLayer
370
18
48
1
60
0
100
AcDbCircle
10
-80
20
20
30
0
40
4.25
39
0
210
0
220
0
230
-1
0
CIRCLE
5
C1
100
AcDbEntity
8
1
62
256
6
ByLayer
370
18
48
1
60
0
100
AcDbCircle
10
80
20
20
30
0
40
4.25
39
0
210
0
220
0
230
1
0
CIRCLE
5
C2
100
AcDbEntity
8
1
62
256
6
ByLayer
370
18
48
1
60
0
100
AcDbCircle
10
50
20
20
30
0
40
4.25
39
0
210
0
220
0
230
1
0
ELLIPSE
5
C5
100
AcDbEntity
8
1
62
256
6
ByLayer
370
18
48
1
60
0
100
AcDbEllipse
10
85
20
17.146668
30
0
11
-5.33759005867215E-16
21
8.71723397810549
31
0
210
0
220
0
230
-1
40
0.573576
41
0.322911013284782
42
1.69843740493341
0
POINT
5
6C
100
AcDbEntity
8
81
62
256
6
ByLayer
370
18
48
1
60
0
100
AcDbPoint
10
95
20
20.475
30
0
39
0
210
0
220
0
230
1
50
360
0
POINT
5
6E
100
AcDbEntity
8
80
62
256
6
ByLayer
370
18
48
1
60
0
100
AcDbPoint
10
0
20
0
30
0
39
0
210
0
220
0
230
1
50
360
0
SPLINE
5
C6
100
AcDbEntity
8
SK1
62
256
6
ByLayer
370
18
48
1
60
0
100
AcDbSpline
70
4
71
3
72
25
73
21
40
0
40
0
40
0
40
0
40
0.0451445804044697
40
0.0662501195616739
40
0.0847063781534514
40
0.107495934815105
40
0.124566772688833
40
0.155724716153843
40
0.209432321905484
40
0.270968920265238
40
0.777325582072208
40
0.823981739083715
40
0.868622954119697
40
0.888504157433833
40
0.91692126716435
40
0.94455241892927
40
0.965239501055916
40
0.982713944124361
40
0.998519826946533
40
1
40
1
40
1
40
1
41
1
10
-2.09429771640848
20
-17.5282918765558
30
-2.743E-13
41
1
10
-2.09323584167041
20
-17.4922273244913
30
-1.206E-13
41
1
10
-2.08086137782286
20
-17.4447170351552
30
2.55E-14
41
1
10
-2.05055075515602
20
-17.385776148508
30
-3.9E-15
41
1
10
-2.01130783298257
20
-17.3583843669192
30
1.3E-15
41
1
10
-1.97552284998508
20
-17.3308981130099
30
-3E-16
41
1
10
-1.92130290428455
20
-17.3217640868509
30
1E-16
41
1
10
-1.84416548606541
20
-17.3207678563589
30
-1E-16
41
1
10
-1.7329741301476
20
-17.3259198948029
30
0
41
1
10
-1.26124388047273
20
-17.328122394936
30
-1E-16
41
1
10
-0.794119646310065
20
-17.3285311453373
30
0
41
1
10
-0.341475383465223
20
-17.3590550476057
30
0
41
1
10
-0.257020587207563
20
-17.3609602867826
30
0
41
1
10
-0.186652540263509
20
-17.3634974799853
30
0
41
1
10
-0.128730736166261
20
-17.3717599369431
30
0
41
1
10
-0.077086566061439
20
-17.4004015342079
30
0
41
1
10
-0.0377394188390099
20
-17.4320052232884
30
0
41
1
10
-0.0153292696451217
20
-17.4667953585687
30
0
41
1
10
-0.0043067091462774
20
-17.4909396472681
30
0
41
1
10
-0.0003296777914557
20
-17.5033976985446
30
0
41
1
10
-2.84E-14
20
-17.5044677669611
30
0
0
SPLINE
5
C7
100
AcDbEntity
8
SK1
62
256
6
ByLayer
370
18
48
1
60
0
100
AcDbSpline
70
4
71
3
72
25
73
21
40
0
40
0
40
0
40
0
40
0.0451445804044697
40
0.0662501195616739
40
0.0847063781534514
40
0.107495934815105
40
0.124566772688833
40
0.155724716153843
40
0.209432321905484
40
0.270968920265238
40
0.777325582072208
40
0.823981739083715
40
0.868622954119697
40
0.888504157433833
40
0.91692126716435
40
0.94455241892927
40
0.965239501055916
40
0.982713944124361
40
0.998519826946533
40
1
40
1
40
1
40
1
41
1
10
-2.09429771640848
20
17.5282918765558
30
-2.743E-13
41
1
10
-2.09323584167041
20
17.4922273244913
30
-1.206E-13
41
1
10
-2.08086137782286
20
17.4447170351553
30
2.55E-14
41
1
10
-2.05055075515602
20
17.3857761485081
30
-3.9E-15
41
1
10
-2.01130783298257
20
17.3583843669192
30
1.3E-15
41
1
10
-1.97552284998508
20
17.3308981130099
30
-3E-16
41
1
10
-1.92130290428455
20
17.3217640868509
30
1E-16
41
1
10
-1.84416548606541
20
17.3207678563589
30
-1E-16
41
1
10
-1.7329741301476
20
17.3259198948029
30
0
41
1
10
-1.26124388047273
20
17.3281223949361
30
-1E-16
41
1
10
-0.794119646310065
20
17.3285311453373
30
0
41
1
10
-0.341475383465223
20
17.3590550476057
30
0
41
1
10
-0.257020587207563
20
17.3609602867826
30
0
41
1
10
-0.186652540263509
20
17.3634974799853
30
0
41
1
10
-0.128730736166261
20
17.3717599369431
30
0
41
1
10
-0.077086566061439
20
17.4004015342079
30
0
41
1
10
-0.0377394188390099
20
17.4320052232884
30
0
41
1
10
-0.0153292696451217
20
17.4667953585686
30
0
41
1
10
-0.0043067091462774
20
17.4909396472681
30
0
41
1
10
-0.0003296777914557
20
17.5033976985446
30
0
41
1
10
-2.84E-14
20
17.5044677669611
30
0
0
SPLINE
5
C8
100
AcDbEntity
8
1
62
256
6
ByLayer
370
18
48
1
60
0
100
AcDbSpline
70
4
71
3
72
9
73
5
40
0
40
0
40
0
40
0
40
0.494949494949496
40
1
40
1
40
1
40
1
41
1
10
8.53867513459474
20
-23.8391299750504
30
0
41
1
10
9.02086313732102
20
-23.8391299750504
30
0
41
1
10
9.9950797142578
20
-23.8391299750504
30
0
41
1
10
10.9692962911946
20
-23.8391299750504
30
0
41
1
10
11.4613248654051
20
-23.8391299750504
30
0
0
SPLINE
5
C9
100
AcDbEntity
8
1
62
256
6
ByLayer
370
18
48
1
60
0
100
AcDbSpline
70
4
71
3
72
14
73
10
40
0
40
0
40
0
40
0
40
0.239397111289125
40
0.239397111289125
40
0.612781250184906
40
0.612781250184906
40
0.805943621259814
40
0.805943621259814
40
1
40
1
40
1
40
1
41
1
10
8.10566243270247
20
-23.6665017920826
30
0
41
1
10
8.09095796262548
20
-23.6479145393459
30
0
41
1
10
8.13798361688694
20
-23.7032843924784
30
0
41
1
10
8.19265323173053
20
-23.7481959874034
30
0
41
1
10
8.23529756799635
20
-23.7746429958952
30
0
41
1
10
8.32413879135677
20
-23.8081529301735
30
0
41
1
10
8.35956779838867
20
-23.8185995294702
30
0
41
1
10
8.44116088643747
20
-23.8340785151528
30
0
41
1
10
8.4904221007188
20
-23.8391299750504
30
0
41
1
10
8.53867513459474
20
-23.8391299750504
30
0
0
SPLINE
5
CA
100
AcDbEntity
8
1
62
256
6
ByLayer
370
18
48
1
60
0
100
AcDbSpline
70
4
71
3
72
9
73
5
40
0
40
0
40
0
40
0
40
0.505050505050505
40
1
40
1
40
1
40
1
41
1
10
11.4613248654052
20
7.52966679426507
30
0
41
1
10
10.9692962911947
20
7.52966679426507
30
0
41
1
10
9.99507971425791
20
7.52966679401155
30
0
41
1
10
9.02086313732107
20
7.52966679426507
30
0
41
1
10
8.5386751345948
20
7.52966679426507
30
0
0
SPLINE
5
CB
100
AcDbEntity
8
1
62
256
6
ByLayer
370
18
48
1
60
0
100
AcDbSpline
70
4
71
3
72
14
73
10
40
0
40
0
40
0
40
0
40
0.239397111289486
40
0.239397111289486
40
0.61278125018505
40
0.61278125018505
40
0.805943621259882
40
0.805943621259882
40
1
40
1
40
1
40
1
41
1
10
8.10566243270259
20
8.05584836782779
30
0
41
1
10
8.12036690277975
20
8.00124266646392
30
0
41
1
10
8.13798361688575
20
7.94714297480041
30
0
41
1
10
8.19265323172928
20
7.8121945116919
30
0
41
1
10
8.23529756799516
20
7.73121702125243
30
0
41
1
10
8.32413879135581
20
7.62715004590015
30
0
41
1
10
8.35956779838776
20
7.59440752379587
30
0
41
1
10
8.44116088643696
20
7.54568860481041
30
0
41
1
10
8.49042210071858
20
7.52966679426507
30
0
41
1
10
8.5386751345948
20
7.52966679426507
30
0
0
SPLINE
5
CC
100
AcDbEntity
8
1
62
256
6
ByLayer
370
18
48
1
60
0
100
AcDbSpline
70
4
71
3
72
9
73
5
40
0
40
0
40
0
40
0
40
0.505050505050505
40
1
40
1
40
1
40
1
41
1
10
11.4613248654051
20
-7.52966679426513
30
0
41
1
10
10.9692962911946
20
-7.52966679426513
30
0
41
1
10
9.99507971425786
20
-7.5296667940116
30
0
41
1
10
9.02086313732107
20
-7.52966679426513
30
0
41
1
10
8.53867513459474
20
-7.52966679426513
30
0
0
SPLINE
5
CD
100
AcDbEntity
8
1
62
256
6
ByLayer
370
18
48
1
60
0
100
AcDbSpline
70
4
71
3
72
14
73
10
40
0
40
0
40
0
40
0
40
0.239397111284482
40
0.239397111284482
40
0.612781250183029
40
0.612781250183029
40
0.805943621258938
40
0.805943621258938
40
1
40
1
40
1
40
1
41
1
10
11.8943375672974
20
-8.05584836775992
30
0
41
1
10
11.9090420373729
20
-8.11045406911771
30
0
41
1
10
11.8620163830965
20
-7.94714297475085
30
0
41
1
10
11.8073467682528
20
-7.812194511657
30
0
41
1
10
11.7647024319871
20
-7.73121702122572
30
0
41
1
10
11.6758612086292
20
-7.62715004588577
30
0
41
1
10
11.6404322015987
20
-7.5944075237858
30
0
41
1
10
11.5588391135546
20
-7.54568860480751
30
0
41
1
10
11.5095778992772
20
-7.52966679426513
30
0
41
1
10
11.4613248654051
20
-7.52966679426513
30
0
0
SPLINE
5
CE
100
AcDbEntity
8
1
62
256
6
ByLayer
370
18
48
1
60
0
100
AcDbSpline
70
4
71
3
72
9
73
5
40
0
40
0
40
0
40
0
40
0.494949494949496
40
1
40
1
40
1
40
1
41
1
10
8.53867513459485
20
23.8391299750503
30
0
41
1
10
9.02086313732113
20
23.8391299750503
30
0
41
1
10
9.99507971425797
20
23.8391299750503
30
0
41
1
10
10.9692962911948
20
23.8391299750503
30
0
41
1
10
11.4613248654052
20
23.8391299750503
30
0
0
SPLINE
5
CF
100
AcDbEntity
8
1
62
256
6
ByLayer
370
18
48
1
60
0
100
AcDbSpline
70
4
71
3
72
14
73
10
40
0
40
0
40
0
40
0
40
0.239397111289475
40
0.239397111289475
40
0.612781250185036
40
0.612781250185036
40
0.805943621259863
40
0.805943621259863
40
1
40
1
40
1
40
1
41
1
10
11.8943375672975
20
23.6665017920809
30
0
41
1
10
11.8796330972203
20
23.6850890448177
30
0
41
1
10
11.8620163831143
20
23.7032843924772
30
0
41
1
10
11.8073467682707
20
23.7481959874025
30
0
41
1
10
11.7647024320049
20
23.7746429958945
30
0
41
1
10
11.6758612086442
20
23.8081529301731
30
0
41
1
10
11.6404322016122
20
23.8185995294699
30
0
41
1
10
11.5588391135631
20
23.8340785151526
30
0
41
1
10
11.5095778992814
20
23.8391299750503
30
0
41
1
10
11.4613248654052
20
23.8391299750503
30
0
0
SPLINE
5
D0
100
AcDbEntity
8
1
62
256
6
ByLayer
370
18
48
1
60
0
100
AcDbSpline
70
4
71
3
72
14
73
10
40
0
40
0
40
0
40
0
40
0.194056378740118
40
0.194056378740118
40
0.38721874981495
40
0.38721874981495
40
0.760602888710514
40
0.760602888710514
40
1
40
1
40
1
40
1
41
1
10
8.53867513459474
20
-7.52966679426513
30
0
41
1
10
8.49042210071858
20
-7.52966679426513
30
0
41
1
10
8.4411608864369
20
-7.54568860481047
30
0
41
1
10
8.35956779838776
20
-7.59440752379592
30
0
41
1
10
8.32413879135575
20
-7.62715004590021
30
0
41
1
10
8.2352975679951
20
-7.73121702125249
30
0
41
1
10
8.19265323172928
20
-7.81219451169196
30
0
41
1
10
8.13798361688569
20
-7.94714297480047
30
0
41
1
10
8.12036690277969
20
-8.00124266646398
30
0
41
1
10
8.10566243270253
20
-8.05584836782779
30
0
0
SPLINE
5
D1
100
AcDbEntity
8
1
62
256
6
ByLayer
370
18
48
1
60
0
100
AcDbSpline
70
4
71
3
72
22
73
18
40
0
40
0
40
0
40
0
40
0.0927329942908315
40
0.0927329942908315
40
0.27264918198952
40
0.27264918198952
40
0.452570056386563
40
0.452570056386563
40
0.499999999865918
40
0.499999999865918
40
0.547429965265412
40
0.547429965265412
40
0.727350800142234
40
0.727350800142234
40
0.907266948324966
40
0.907266948324966
40
1
40
1
40
1
40
1
41
1
10
11.8943251760255
20
-8.05577151319622
30
0
41
1
10
12.0706484064858
20
-8.71055133708828
30
0
41
1
10
12.233144661003
20
-9.36013402757604
30
0
41
1
10
12.6661477002149
20
-11.2421946384421
30
0
41
1
10
12.8958937771284
20
-12.4561410744481
30
0
41
1
10
13.2264736254722
20
-14.7629252173354
30
0
41
1
10
13.3286268201944
20
-15.8655949123492
30
0
41
1
10
13.3728620709723
20
-17.1556170367999
30
0
41
1
10
13.3774990747597
20
-17.419517307873
30
0
41
1
10
13.3774990747588
20
-17.9358218708413
30
0
41
1
10
13.372862066681
20
-18.1883903930923
30
0
41
1
10
13.3286267989055
20
-19.3700586065419
30
0
41
1
10
13.2264736256549
20
-20.2224447815151
30
0
41
1
10
12.8958938748646
20
-21.7194766871193
30
0
41
1
10
12.666147874967
20
-22.3707154959903
30
0
41
1
10
12.2331448622437
20
-23.1921397598921
30
0
41
1
10
12.0706485156054
20
-23.4436702769933
30
0
41
1
10
11.8943251760353
20
-23.6665482943798
30
0
0
SPLINE
5
D2
100
AcDbEntity
8
1
62
256
6
ByLayer
370
18
48
1
60
0
100
AcDbSpline
70
4
71
3
72
14
73
10
40
0
40
0
40
0
40
0
40
0.194056378740186
40
0.194056378740186
40
0.387218749815094
40
0.387218749815094
40
0.760602888710875
40
0.760602888710875
40
1
40
1
40
1
40
1
41
1
10
8.53867513459485
20
23.8391299750503
30
0
41
1
10
8.49042210071892
20
23.8391299750503
30
0
41
1
10
8.44116088643759
20
23.8340785151527
30
0
41
1
10
8.35956779838878
20
23.8185995294702
30
0
41
1
10
8.32413879135694
20
23.8081529301734
30
0
41
1
10
8.23529756799647
20
23.7746429958951
30
0
41
1
10
8.19265323173065
20
23.7481959874033
30
0
41
1
10
8.13798361688706
20
23.7032843924783
30
0
41
1
10
8.09095796262559
20
23.6479145393459
30
0
41
1
10
8.10566243270264
20
23.6665017920825
30
0
0
SPLINE
5
D3
100
AcDbEntity
8
1
62
256
6
ByLayer
370
18
48
1
60
0
100
AcDbSpline
70
4
71
3
72
22
73
18
40
0
40
0
40
0
40
0
40
0.0927329942909223
40
0.0927329942909223
40
0.272649181989615
40
0.272649181989615
40
0.452570056386663
40
0.452570056386663
40
0.499999999866018
40
0.499999999866018
40
0.547429965265511
40
0.547429965265511
40
0.72735080014235
40
0.72735080014235
40
0.907266948325098
40
0.907266948325098
40
1
40
1
40
1
40
1
41
1
10
8.10567482397445
20
8.05577151319616
30
0
41
1
10
7.92935159351399
20
8.71055133708884
30
0
41
1
10
7.76685533899669
20
9.36013402757723
30
0
41
1
10
7.3338522997847
20
11.2421946384439
30
0
41
1
10
7.10410622287125
20
12.4561410744499
30
0
41
1
10
6.77352637452756
20
14.7629252173371
30
0
41
1
10
6.67137317980539
20
15.8655949123509
30
0
41
1
10
6.62713792902755
20
17.1556170368016
30
0
41
1
10
6.62250092524019
20
17.4195173078746
30
0
41
1
10
6.62250092524121
20
17.9358218708428
30
0
41
1
10
6.62713793331895
20
18.1883903930938
30
0
41
1
10
6.67137320109467
20
19.3700586065434
30
0
41
1
10
6.77352637434527
20
20.2224447815165
30
0
41
1
10
7.1041061251357
20
21.7194766871207
30
0
41
1
10
7.33385212503342
20
22.3707154959915
30
0
41
1
10
7.76685513775672
20
23.1921397598927
30
0
41
1
10
7.9293514843948
20
23.4436702769936
30
0
41
1
10
8.10567482396462
20
23.6665482943797
30
0
0
SPLINE
5
D4
100
AcDbEntity
8
1
62
256
6
ByLayer
370
18
48
1
60
0
100
AcDbSpline
70
4
71
3
72
14
73
10
40
0
40
0
40
0
40
0
40
0.194056378740137
40
0.194056378740137
40
0.387218749814964
40
0.387218749814964
40
0.760602888710525
40
0.760602888710525
40
1
40
1
40
1
40
1
41
1
10
11.4613248654051
20
-23.8391299750504
30
0
41
1
10
11.5095778992813
20
-23.8391299750504
30
0
41
1
10
11.5588391135629
20
-23.8340785151527
30
0
41
1
10
11.6404322016121
20
-23.81859952947
30
0
41
1
10
11.6758612086441
20
-23.8081529301731
30
0
41
1
10
11.7647024320048
20
-23.7746429958945
30
0
41
1
10
11.8073467682706
20
-23.7481959874026
30
0
41
1
10
11.8620163831142
20
-23.7032843924772
30
0
41
1
10
11.8796330972202
20
-23.6850890448178
30
0
41
1
10
11.8943375672973
20
-23.6665017920809
30
0
0
SPLINE
5
D5
100
AcDbEntity
8
1
62
256
6
ByLayer
370
18
48
1
60
0
100
AcDbSpline
70
4
71
3
72
22
73
18
40
0
40
0
40
0
40
0
40
0.0927329942908315
40
0.0927329942908315
40
0.27264918198952
40
0.27264918198952
40
0.452570056386563
40
0.452570056386563
40
0.499999999865918
40
0.499999999865918
40
0.547429965265412
40
0.547429965265412
40
0.727350800142234
40
0.727350800142234
40
0.907266948324966
40
0.907266948324966
40
1
40
1
40
1
40
1
41
1
10
11.8943251760256
20
8.05577151319611
30
0
41
1
10
12.0706484064858
20
8.71055133708822
30
0
41
1
10
12.233144661003
20
9.36013402757592
30
0
41
1
10
12.666147700215
20
11.242194638442
30
0
41
1
10
12.8958937771285
20
12.456141074448
30
0
41
1
10
13.2264736254723
20
14.7629252173353
30
0
41
1
10
13.3286268201945
20
15.8655949123491
30
0
41
1
10
13.3728620709725
20
17.1556170367999
30
0
41
1
10
13.3774990747598
20
17.4195173078729
30
0
41
1
10
13.3774990747588
20
17.9358218708412
30
0
41
1
10
13.3728620666812
20
18.1883903930922
30
0
41
1
10
13.3286267989056
20
19.3700586065418
30
0
41
1
10
13.226473625655
20
20.222444781515
30
0
41
1
10
12.8958938748648
20
21.7194766871193
30
0
41
1
10
12.6661478749672
20
22.3707154959903
30
0
41
1
10
12.2331448622438
20
23.192139759892
30
0
41
1
10
12.0706485156055
20
23.4436702769932
30
0
41
1
10
11.8943251760355
20
23.6665482943797
30
0
0
SPLINE
5
D6
100
AcDbEntity
8
1
62
256
6
ByLayer
370
18
48
1
60
0
100
AcDbSpline
70
4
71
3
72
14
73
10
40
0
40
0
40
0
40
0
40
0.194056378741062
40
0.194056378741062
40
0.387218749816971
40
0.387218749816971
40
0.760602888715518
40
0.760602888715518
40
1
40
1
40
1
40
1
41
1
10
11.4613248654052
20
7.52966679426507
30
0
41
1
10
11.5095778992772
20
7.52966679426507
30
0
41
1
10
11.5588391135546
20
7.54568860480745
30
0
41
1
10
11.6404322015988
20
7.59440752378575
30
0
41
1
10
11.6758612086292
20
7.62715004588571
30
0
41
1
10
11.7647024319871
20
7.73121702122566
30
0
41
1
10
11.8073467682528
20
7.81219451165694
30
0
41
1
10
11.8620163830966
20
7.94714297475079
30
0
41
1
10
11.909042037373
20
8.11045406911765
30
0
41
1
10
11.8943375672974
20
8.05584836775986
30
0
0
SPLINE
5
D7
100
AcDbEntity
8
1
62
256
6
ByLayer
370
18
48
1
60
0
100
AcDbSpline
70
4
71
3
72
22
73
18
40
0
40
0
40
0
40
0
40
0.0927329942909223
40
0.0927329942909223
40
0.272649181989615
40
0.272649181989615
40
0.452570056386663
40
0.452570056386663
40
0.499999999866018
40
0.499999999866018
40
0.547429965265511
40
0.547429965265511
40
0.72735080014235
40
0.72735080014235
40
0.907266948325098
40
0.907266948325098
40
1
40
1
40
1
40
1
41
1
10
8.1056748239744
20
-8.05577151319616
30
0
41
1
10
7.92935159351393
20
-8.7105513370889
30
0
41
1
10
7.76685533899663
20
-9.36013402757729
30
0
41
1
10
7.33385229978464
20
-11.242194638444
30
0
41
1
10
7.1041062228712
20
-12.45614107445
30
0
41
1
10
6.77352637452745
20
-14.7629252173371
30
0
41
1
10
6.67137317980533
20
-15.8655949123509
30
0
41
1
10
6.62713792902744
20
-17.1556170368017
30
0
41
1
10
6.62250092524013
20
-17.4195173078747
30
0
41
1
10
6.6225009252411
20
-17.9358218708429
30
0
41
1
10
6.62713793331883
20
-18.1883903930938
30
0
41
1
10
6.67137320109455
20
-19.3700586065434
30
0
41
1
10
6.77352637434515
20
-20.2224447815166
30
0
41
1
10
7.10410612513559
20
-21.7194766871207
30
0
41
1
10
7.33385212503325
20
-22.3707154959916
30
0
41
1
10
7.76685513775661
20
-23.1921397598927
30
0
41
1
10
7.92935148439469
20
-23.4436702769936
30
0
41
1
10
8.10567482396451
20
-23.6665482943798
30
0
0
SPLINE
5
D8
100
AcDbEntity
8
1
62
256
6
ByLayer
370
18
48
1
60
0
100
AcDbSpline
70
4
71
3
72
17
73
13
40
0
40
0
40
0
40
0
40
0.250000000000002
40
0.250000000000002
40
0.375000000000002
40
0.375000000000002
40
0.500000000000002
40
0.625000000000002
40
0.625000000000002
40
0.750000000000002
40
0.750000000000002
40
1
40
1
40
1
40
1
41
1
10
21.4383186059721
20
-14.8680030296053
30
0
41
1
10
21.4037849784933
20
-15.3954182297748
30
0
41
1
10
21.3550256923375
20
-15.9222919334766
30
0
41
1
10
21.2983330478052
20
-16.7132285131224
30
0
41
1
10
21.2821503010785
20
-16.9769240061209
30
0
41
1
10
21.2599011361516
20
-17.5042383108618
30
0
41
1
10
21.2478646621708
20
-18.0315259307462
30
0
41
1
10
21.2599179721714
20
-18.5587506061598
30
0
41
1
10
21.2821743980706
20
-19.0859486217356
30
0
41
1
10
21.2983541082972
20
-19.3495344304087
30
0
41
1
10
21.3550373948814
20
-20.1402705764705
30
0
41
1
10
21.4037901820774
20
-20.6671070825344
30
0
41
1
10
21.4383186059721
20
-21.1944428109086
30
0
0
SPLINE
5
D9
100
AcDbEntity
8
1
62
256
6
ByLayer
370
18
48
1
60
0
100
AcDbSpline
70
4
71
3
72
12
73
8
40
0
40
0
40
0
40
0
40
0.25
40
0.25
40
0.5
40
0.5
40
1
40
1
40
1
40
1
41
1
10
21.4383186059721
20
-21.1944428109086
30
0
41
1
10
21.4617899658637
20
-21.5529094093872
30
0
41
1
10
21.4891598300811
20
-21.9117576028042
30
0
41
1
10
21.5514739621258
20
-22.6301953904006
30
0
41
1
10
21.5864478836329
20
-22.9900405975263
30
0
41
1
10
21.7019950427413
20
-24.0679247347705
30
0
41
1
10
21.7932145132257
20
-24.7847428054167
30
0
41
1
10
21.896936146257
20
-25.5000000000114
30
0
0
SPLINE
5
DA
100
AcDbEntity
8
1
62
256
6
ByLayer
370
18
48
1
60
0
100
AcDbSpline
70
4
71
3
72
14
73
10
40
0
40
0
40
0
40
0
40
0.25
40
0.25
40
0.375
40
0.375
40
0.5
40
0.5
40
1
40
1
40
1
40
1
41
1
10
23.1444633353229
20
-4.06244584051391
30
0
41
1
10
23.1020864006068
20
-2.80667247263751
30
0
41
1
10
23.0790372064666
20
-1.54872125524295
30
0
41
1
10
23.0744706677198
20
0.341586787606281
30
0
41
1
10
23.077942851888
20
0.971624969084244
30
0
41
1
10
23.0947921104439
20
2.23014676302189
30
0
41
1
10
23.1081681474099
20
2.85885311232756
30
0
41
1
10
23.1993345820103
20
5.99966484792073
30
0
41
1
10
23.3506403107497
20
8.50353666556724
30
0
41
1
10
23.568094403606
20
11
30
0
0
SPLINE
5
DB
100
AcDbEntity
8
1
62
256
6
ByLayer
370
18
48
1
60
0
100
AcDbSpline
70
4
71
3
72
12
73
8
40
0
40
0
40
0
40
0
40
0.5
40
0.5
40
0.75
40
0.75
40
1
40
1
40
1
40
1
41
1
10
23.1444633353229
20
-4.06244584051392
30
0
41
1
10
22.7294893569628
20
-5.85058698061602
30
0
41
1
10
22.3626452048181
20
-7.6434391833555
30
0
41
1
10
21.9226944593426
20
-10.3435154310671
30
0
41
1
10
21.7945543079791
20
-11.2453526596005
30
0
41
1
10
21.5820877711567
20
-13.0533157129867
30
0
41
1
10
21.4978082936571
20
-13.9594461293027
30
0
41
1
10
21.4383186059721
20
-14.8680030296053
30
0
0
SPLINE
5
DC
100
AcDbEntity
8
1
62
256
6
ByLayer
370
18
48
1
60
0
100
AcDbSpline
70
4
71
3
72
14
73
10
40
0
40
0
40
0
40
0
40
0.25
40
0.25
40
0.5
40
0.5
40
0.75
40
0.75
40
1
40
1
40
1
40
1
41
1
10
23.568094403606
20
11
30
0
41
1
10
23.3693151801225
20
12.5836509232839
30
0
41
1
10
23.2150117145044
20
14.1672322653034
30
0
41
1
10
23.0102292629478
20
17.3342325184156
30
0
41
1
10
22.9599292633915
20
18.9176511494884
30
0
41
1
10
22.9690449470521
20
22.0843167640603
30
0
41
1
10
23.0284504645765
20
23.6675637634634
30
0
41
1
10
23.2503921345692
20
26.8338964168464
30
0
41
1
10
23.412739801594
20
28.4169823657073
30
0
41
1
10
23.6187535647773
20
30.0000000000003
30
0
0
SPLINE
5
DD
100
AcDbEntity
8
1
62
256
6
ByLayer
370
18
48
1
60
0
100
AcDbSpline
70
4
71
3
72
20
73
16
40
0
40
0
40
0
40
0
40
0.250000000000016
40
0.250000000000016
40
0.375000000000013
40
0.375000000000013
40
0.500000000000011
40
0.500000000000011
40
0.625000000000008
40
0.625000000000008
40
0.750000000000005
40
0.750000000000005
40
0.875000000000003
40
0.875000000000003
40
1
40
1
40
1
40
1
41
1
10
89.9593246573314
20
16.0370096704472
30
0
41
1
10
89.9548370021229
20
15.9760461321067
30
0
41
1
10
89.9410385949612
20
15.9174538518287
30
0
41
1
10
89.9067812769619
20
15.8330188114735
30
0
41
1
10
89.8930577238591
20
15.80562646335
30
0
41
1
10
89.8618117275733
20
15.7540793030742
30
0
41
1
10
89.8441977501503
20
15.7296699244883
30
0
41
1
10
89.8046796396599
20
15.683790744361
30
0
41
1
10
89.7826220976028
20
15.6622607166067
30
0
41
1
10
89.7355396103987
20
15.6242583101554
30
0
41
1
10
89.7103488967841
20
15.6075350178889
30
0
41
1
10
89.6561728530474
20
15.5793287823539
30
0
41
1
10
89.6277267199995
20
15.5681795455629
30
0
41
1
10
89.5690962703081
20
15.5528967311951
30
0
41
1
10
89.5384669579249
20
15.5486998349426
30
0
41
1
10
89.5077625868509
20
15.5486998349426
30
0
0
LINE
5
70
100
AcDbEntity
8
81
62
256
6
ByLayer
370
13
48
1
60
0
100
AcDbLine
10
95
20
20.475
30
0
11
101
21
20.475
31
0
39
0
210
0
220
0
230
1
0
LINE
5
71
100
AcDbEntity
8
1
62
256
6
ByLayer
370
18
48
1
60
0
100
AcDbLine
10
0
20
-24.7
30
0
11
0
21
24.7
31
0
39
0
210
0
220
0
230
1
0
LINE
5
73
100
AcDbEntity
8
SK1
62
256
6
ByLayer
370
18
48
1
60
0
100
AcDbLine
10
-30
20
-15.970112
30
0
11
-30
21
15.970112
31
0
39
0
210
0
220
0
230
1
0
LINE
5
75
100
AcDbEntity
8
SK1
62
256
6
ByLayer
370
18
48
1
60
0
100
AcDbLine
10
-2.1
20
17.528142
30
0
11
-2.1
21
-17.528142
31
0
39
0
210
0
220
0
230
1
0
LINE
5
76
100
AcDbEntity
8
SK1
62
256
6
ByLayer
370
18
48
1
60
0
100
AcDbLine
10
-28.5
20
-16.836137
30
0
11
-28.5
21
16.836137
31
0
39
0
210
0
220
0
230
1
0
LINE
5
77
100
AcDbEntity
8
SK1
62
256
6
ByLayer
370
18
48
1
60
0
100
AcDbLine
10
-28.5
20
-16.836137
30
0
11
-2.094298
21
-17.528292
31
0
39
0
210
0
220
0
230
1
0
LINE
5
78
100
AcDbEntity
8
SK1
62
256
6
ByLayer
370
18
48
1
60
0
100
AcDbLine
10
-28.5
20
16.836137
30
0
11
-2.094298
21
17.528292
31
0
39
0
210
0
220
0
230
1
0
LINE
5
79
100
AcDbEntity
8
SK1
62
256
6
ByLayer
370
18
48
1
60
0
100
AcDbLine
10
-30
20
15.970112
30
0
11
-28.5
21
16.836137
31
0
39
0
210
0
220
0
230
1
0
LINE
5
7A
100
AcDbEntity
8
SK1
62
256
6
ByLayer
370
18
48
1
60
0
100
AcDbLine
10
-30
20
-15.970112
30
0
11
-28.5
21
-16.836137
31
0
39
0
210
0
220
0
230
1
0
LINE
5
7B
100
AcDbEntity
8
1
62
256
6
ByLayer
370
18
48
1
60
0
100
AcDbLine
10
0
20
24.7
30
0
11
0.3
21
25
31
0
39
0
210
0
220
0
230
1
0
LINE
5
7C
100
AcDbEntity
8
1
62
256
6
ByLayer
370
18
48
1
60
0
100
AcDbLine
10
0
20
-24.7
30
0
11
0.3
21
-25
31
0
39
0
210
0
220
0
230
1
0
LINE
5
7D
100
AcDbEntity
8
1
62
256
6
ByLayer
370
18
48
1
60
0
100
AcDbLine
10
8.538675
20
-7.529667
30
0
11
8.538675
21
-23.83913
31
0
39
0
210
0
220
0
230
1
0
LINE
5
7E
100
AcDbEntity
8
1
62
256
6
ByLayer
370
18
48
1
60
0
100
AcDbLine
10
8.538675
20
7.529667
30
0
11
8.538675
21
23.83913
31
0
39
0
210
0
220
0
230
1
0
LINE
5
7F
100
AcDbEntity
8
1
62
256
6
ByLayer
370
18
48
1
60
0
100
AcDbLine
10
11.461325
20
-7.529667
30
0
11
11.461325
21
-23.83913
31
0
39
0
210
0
220
0
230
1
0
LINE
5
80
100
AcDbEntity
8
1
62
256
6
ByLayer
370
18
48
1
60
0
100
AcDbLine
10
11.461325
20
7.529667
30
0
11
11.461325
21
23.83913
31
0
39
0
210
0
220
0
230
1
0
LINE
5
81
100
AcDbEntity
8
1
62
256
6
ByLayer
370
18
48
1
60
0
100
AcDbLine
10
20
20
25
30
0
11
20
21
-25
31
0
39
0
210
0
220
0
230
1
0
LINE
5
82
100
AcDbEntity
8
1
62
256
6
ByLayer
370
18
48
1
60
0
100
AcDbLine
10
20
20
25
30
0
11
0.3
21
25
31
0
39
0
210
0
220
0
230
1
0
LINE
5
83
100
AcDbEntity
8
1
62
256
6
ByLayer
370
18
48
1
60
0
100
AcDbLine
10
0.3
20
-25
30
0
11
20
21
-25
31
0
39
0
210
0
220
0
230
1
0
LINE
5
84
100
AcDbEntity
8
1
62
256
6
ByLayer
370
18
48
1
60
0
100
AcDbLine
10
21.159111
20
25.889417
30
0
11
22.260538
21
30
31
0
39
0
210
0
220
0
230
1
0
LINE
5
85
100
AcDbEntity
8
SK4
62
256
6
ByLayer
370
13
48
0.05
60
0
100
AcDbLine
10
-32.495586
20
0
30
0
11
101.841108
21
0
31
0
39
0
210
0
220
0
230
1
0
LINE
5
87
100
AcDbEntity
8
80
62
256
6
ByLayer
370
13
48
1
60
0
100
AcDbLine
10
0
20
0
30
0
11
-10
21
0
31
0
39
0
210
0
220
0
230
1
0
LINE
5
88
100
AcDbEntity
8
1
62
256
6
ByLayer
370
18
48
1
60
0
100
AcDbLine
10
21.438319
20
-14.868003
30
0
11
21.438319
21
25.889417
31
0
39
0
210
0
220
0
230
1
0
LINE
5
89
100
AcDbEntity
8
1
62
256
6
ByLayer
370
18
48
1
60
0
100
AcDbLine
10
87
20
13.235306
30
0
11
87
21
25
31
0
39
0
210
0
220
0
230
1
0
LINE
5
8A
100
AcDbEntity
8
1
62
256
6
ByLayer
370
18
48
1
60
0
100
AcDbLine
10
88
20
-6.274438
30
0
11
88
21
-6.206039
31
0
39
0
210
0
220
0
230
1
0
LINE
5
8B
100
AcDbEntity
8
1
62
256
6
ByLayer
370
18
48
1
60
0
100
AcDbLine
10
28.829804
20
-25.5
30
0
11
88
21
-6.274438
31
0
39
0
210
0
220
0
230
1
0
LINE
5
8C
100
AcDbEntity
8
1
62
256
6
ByLayer
370
18
48
1
60
0
100
AcDbLine
10
80
20
-4.062446
30
0
11
23.144463
21
-4.062446
31
0
39
0
210
0
220
0
230
1
0
LINE
5
8D
100
AcDbEntity
8
1
62
256
6
ByLayer
370
18
48
1
60
0
100
AcDbLine
10
80
20
11
30
0
11
23.568094
21
11
31
0
39
0
210
0
220
0
230
1
0
LINE
5
8E
100
AcDbEntity
8
1
62
256
6
ByLayer
370
18
48
1
60
0
100
AcDbLine
10
88
20
11.998911
30
0
11
87
21
13.235306
31
0
39
0
210
0
220
0
230
1
0
LINE
5
8F
100
AcDbEntity
8
1
62
256
6
ByLayer
370
18
48
1
60
0
100
AcDbLine
10
88
20
-6.206039
30
0
11
80
21
-4.062446
31
0
39
0
210
0
220
0
230
1
0
LINE
5
90
100
AcDbEntity
8
1
62
256
6
ByLayer
370
18
48
1
60
0
100
AcDbLine
10
80
20
-4.062446
30
0
11
80
21
11
31
0
39
0
210
0
220
0
230
1
0
LINE
5
91
100
AcDbEntity
8
1
62
256
6
ByLayer
370
18
48
1
60
0
100
AcDbLine
10
87
20
13.235306
30
0
11
80
21
11
31
0
39
0
210
0
220
0
230
1
0
LINE
5
92
100
AcDbEntity
8
1
62
256
6
ByLayer
370
18
48
1
60
0
100
AcDbLine
10
92
20
-4.974759
30
0
11
95
21
-4
31
0
39
0
210
0
220
0
230
1
0
LINE
5
93
100
AcDbEntity
8
1
62
256
6
ByLayer
370
18
48
1
60
0
100
AcDbLine
10
95
20
-4
30
0
11
95
21
28
31
0
39
0
210
0
220
0
230
1
0
LINE
5
94
100
AcDbEntity
8
1
62
256
6
ByLayer
370
18
48
1
60
0
100
AcDbLine
10
93.25
20
29.75
30
0
11
93
21
29.5
31
0
39
0
210
0
220
0
230
1
0
LINE
5
95
100
AcDbEntity
8
1
62
256
6
ByLayer
370
18
48
1
60
0
100
AcDbLine
10
92.2
20
9
30
0
11
92
21
9
31
0
39
0
210
0
220
0
230
1
0
LINE
5
96
100
AcDbEntity
8
1
62
256
6
ByLayer
370
18
48
1
60
0
100
AcDbLine
10
93
20
9.8
30
0
11
93
21
29.5
31
0
39
0
210
0
220
0
230
1
0
LINE
5
97
100
AcDbEntity
8
1
62
256
6
ByLayer
370
18
48
1
60
0
100
AcDbLine
10
92
20
-4.974759
30
0
11
92
21
9
31
0
39
0
210
0
220
0
230
1
0
LINE
5
98
100
AcDbEntity
8
1
62
256
6
ByLayer
370
18
48
1
60
0
100
AcDbLine
10
20.974679
20
-25.5
30
0
11
28.829804
21
-25.5
31
0
39
0
210
0
220
0
230
1
0
LINE
5
99
100
AcDbEntity
8
1
62
256
6
ByLayer
370
18
48
1
60
0
100
AcDbLine
10
88
20
-6.206039
30
0
11
88
21
24
31
0
39
0
210
0
220
0
230
1
0
LINE
5
9A
100
AcDbEntity
8
1
62
256
6
ByLayer
370
18
48
1
60
0
100
AcDbLine
10
88
20
24
30
0
11
82
21
30
31
0
39
0
210
0
220
0
230
1
0
LINE
5
9B
100
AcDbEntity
8
1
62
256
6
ByLayer
370
18
48
1
60
0
100
AcDbLine
10
89.507763
20
15.5487
30
0
11
88
21
15.5487
31
0
39
0
210
0
220
0
230
1
0
LINE
5
9C
100
AcDbEntity
8
1
62
256
6
ByLayer
370
18
48
1
60
0
100
AcDbLine
10
93
20
29.5
30
0
11
82.5
21
29.5
31
0
39
0
210
0
220
0
230
1
0
LINE
5
9D
100
AcDbEntity
8
1
62
256
6
ByLayer
370
18
48
1
60
0
100
AcDbLine
10
93
20
30
30
0
11
23.618754
21
30
31
0
39
0
210
0
220
0
230
1
0
LINE
5
9E
100
AcDbEntity
8
1
62
256
6
ByLayer
370
18
48
1
60
0
100
AcDbLine
10
95
20
28
30
0
11
93
21
30
31
0
39
0
210
0
220
0
230
1
0
LINE
5
9F
100
AcDbEntity
8
1
62
256
6
ByLayer
370
18
48
1
60
0
100
AcDbLine
10
22.260538
20
30
30
0
11
25.809671
21
30
31
0
39
0
210
0
220
0
230
1
0
LINE
5
A0
100
AcDbEntity
8
1
62
256
6
ByLayer
370
18
48
1
60
0
100
AcDbLine
10
92
20
9
30
0
11
88
21
9
31
0
39
0
210
0
220
0
230
1
0
LINE
5
A1
100
AcDbEntity
8
1
62
256
6
ByLayer
370
18
48
1
60
0
100
AcDbLine
10
88
20
-6.274438
30
0
11
92
21
-4.974759
31
0
39
0
210
0
220
0
230
1
0
LINE
5
A2
100
AcDbEntity
8
SK3
62
256
6
ByLayer
370
18
48
0.05
60
0
100
AcDbLine
10
25.5
20
10.95
30
0
11
88
21
10.95
31
0
39
0
210
0
220
0
230
1
0
LINE
5
A4
100
AcDbEntity
8
1
62
256
6
ByLayer
370
18
48
1
60
0
100
AcDbLine
10
63.539465
20
22.529721
30
0
11
66.460535
21
22.529721
31
0
39
0
210
0
220
0
230
1
0
LINE
5
A5
100
AcDbEntity
8
1
62
256
6
ByLayer
370
18
48
1
60
0
100
AcDbLine
10
62.078929
20
20
30
0
11
63.539465
21
22.529721
31
0
39
0
210
0
220
0
230
1
0
LINE
5
A6
100
AcDbEntity
8
1
62
256
6
ByLayer
370
18
48
1
60
0
100
AcDbLine
10
62.078929
20
20
30
0
11
63.539465
21
17.470279
31
0
39
0
210
0
220
0
230
1
0
LINE
5
A7
100
AcDbEntity
8
1
62
256
6
ByLayer
370
18
48
1
60
0
100
AcDbLine
10
63.539465
20
17.470279
30
0
11
66.460535
21
17.470279
31
0
39
0
210
0
220
0
230
1
0
LINE
5
A8
100
AcDbEntity
8
1
62
256
6
ByLayer
370
18
48
1
60
0
100
AcDbLine
10
66.460535
20
17.470279
30
0
11
67.921071
21
20
31
0
39
0
210
0
220
0
230
1
0
LINE
5
A9
100
AcDbEntity
8
1
62
256
6
ByLayer
370
18
48
1
60
0
100
AcDbLine
10
66.460535
20
22.529721
30
0
11
67.921071
21
20
31
0
39
0
210
0
220
0
230
1
0
LINE
5
AA
100
AcDbEntity
8
1
62
256
6
ByLayer
370
18
48
1
60
0
100
AcDbLine
10
48.539465
20
22.529721
30
0
11
51.460535
21
22.529721
31
0
39
0
210
0
220
0
230
1
0
LINE
5
AB
100
AcDbEntity
8
1
62
256
6
ByLayer
370
18
48
1
60
0
100
AcDbLine
10
47.078929
20
20
30
0
11
48.539465
21
22.529721
31
0
39
0
210
0
220
0
230
1
0
LINE
5
AC
100
AcDbEntity
8
1
62
256
6
ByLayer
370
18
48
1
60
0
100
AcDbLine
10
47.078929
20
20
30
0
11
48.539465
21
17.470279
31
0
39
0
210
0
220
0
230
1
0
LINE
5
AD
100
AcDbEntity
8
1
62
256
6
ByLayer
370
18
48
1
60
0
100
AcDbLine
10
48.539465
20
17.470279
30
0
11
51.460535
21
17.470279
31
0
39
0
210
0
220
0
230
1
0
LINE
5
AE
100
AcDbEntity
8
1
62
256
6
ByLayer
370
18
48
1
60
0
100
AcDbLine
10
51.460535
20
17.470279
30
0
11
52.921071
21
20
31
0
39
0
210
0
220
0
230
1
0
LINE
5
AF
100
AcDbEntity
8
1
62
256
6
ByLayer
370
18
48
1
60
0
100
AcDbLine
10
51.460535
20
22.529721
30
0
11
52.921071
21
20
31
0
39
0
210
0
220
0
230
1
0
LINE
5
B0
100
AcDbEntity
8
1
62
256
6
ByLayer
370
18
48
1
60
0
100
AcDbLine
10
78.539465
20
22.529721
30
0
11
81.460535
21
22.529721
31
0
39
0
210
0
220
0
230
1
0
LINE
5
B1
100
AcDbEntity
8
1
62
256
6
ByLayer
370
18
48
1
60
0
100
AcDbLine
10
77.078929
20
20
30
0
11
78.539465
21
22.529721
31
0
39
0
210
0
220
0
230
1
0
LINE
5
B2
100
AcDbEntity
8
1
62
256
6
ByLayer
370
18
48
1
60
0
100
AcDbLine
10
77.078929
20
20
30
0
11
78.539465
21
17.470279
31
0
39
0
210
0
220
0
230
1
0
LINE
5
B3
100
AcDbEntity
8
1
62
256
6
ByLayer
370
18
48
1
60
0
100
AcDbLine
10
78.539465
20
17.470279
30
0
11
81.460535
21
17.470279
31
0
39
0
210
0
220
0
230
1
0
LINE
5
B4
100
AcDbEntity
8
1
62
256
6
ByLayer
370
18
48
1
60
0
100
AcDbLine
10
81.460535
20
17.470279
30
0
11
82.921071
21
20
31
0
39
0
210
0
220
0
230
1
0
LINE
5
B5
100
AcDbEntity
8
1
62
256
6
ByLayer
370
18
48
1
60
0
100
AcDbLine
10
81.460535
20
22.529721
30
0
11
82.921071
21
20
31
0
39
0
210
0
220
0
230
1
0
LINE
5
B6
100
AcDbEntity
8
4
62
256
6
ByLayer
370
13
48
0.05
60
0
100
AcDbLine
10
95
20
0
30
0
11
0
21
0
31
0
39
0
210
0
220
0
230
1
0
LINE
5
B8
100
AcDbEntity
8
SK3
62
256
6
ByLayer
370
18
48
0.05
60
0
100
AcDbLine
10
25.5
20
10.95
30
0
11
25.5
21
30
31
0
39
0
210
0
220
0
230
1
0
MTEXT
5
DE
100
AcDbEntity
8
SK6
62
256
6
ByLayer
370
18
48
1
60
0
100
AcDbMText
10
5.028155
20
-36.124527
30
0
210
0
220
0
230
1
1
\W0.7562;C5-ASHR-095-12AHP
40
3.5
41
0
44
1.084337
50
0
71
7
72
5
7
iso_b_vert
0
DIMENSION
5
F0
100
AcDbEntity
8
SK2
62
256
6
ByLayer
370
13
48
1
60
0
100
AcDbDimension
2
DimnDraft3D1
10
0
20
-111.916938
30
0
11
-10.255
21
-111.916938
31
0
70
32
71
5
72
1
41
1
210
0
220
0
230
1
3
Standard
100
AcDbAlignedDimension
13
10.95
23
-90
33
0
14
0
24
-103.841108
34
0
50
0
100
AcDbRotatedDimension
1001
ACAD
1000
DSTYLE
1002
{
1070
   279
1070
     0
1070
   172
1070
     1
1070
   173
1070
     1
1070
   340
1005
DF
1070
    77
1070
     1
1070
    73
1070
     0
1070
   171
1070
     3
1070
   274
1070
     4
1070
   177
1070
     7
1070
   176
1070
     7
1070
   178
1070
     7
1070
    78
1070
     8
1070
    41
1041
3.175
1070
   147
1041
1.5
1070
    42
1041
2.0
1070
    44
1041
2.0
1070
   140
1041
3.0
1070
   343
1005
F1
1070
   344
1005
F1
1002
}
0
DIMENSION
5
105
100
AcDbEntity
8
SK2
62
256
6
ByLayer
370
13
48
1
60
0
100
AcDbDimension
2
DimnDraft3D2
10
0
20
-125.308428
30
0
11
16.752632
21
-125.308428
31
0
70
32
71
5
72
1
41
1
210
0
220
0
230
1
3
Standard
100
AcDbAlignedDimension
13
30
23
-95
33
0
14
0
24
-103.841108
34
0
50
0
100
AcDbRotatedDimension
1001
ACAD
1000
DSTYLE
1002
{
1070
   279
1070
     0
1070
   172
1070
     1
1070
   173
1070
     1
1070
   340
1005
DF
1070
   271
1070
     0
1070
    77
1070
     1
1070
    73
1070
     0
1070
   171
1070
     3
1070
   274
1070
     4
1070
   177
1070
     7
1070
   176
1070
     7
1070
   178
1070
     7
1070
    78
1070
     8
1070
    41
1041
3.175
1070
   147
1041
1.5
1070
    42
1041
2.0
1070
    44
1041
2.0
1070
   140
1041
3.0
1070
   343
1005
F1
1070
   344
1005
F1
1002
}
0
DIMENSION
5
114
100
AcDbEntity
8
SK2
62
256
6
ByLayer
370
13
48
1
60
0
100
AcDbDimension
2
DimnDraft3D3
10
-41.260951
20
25
30
0
11
-41.510951
21
2.747368
31
0
70
33
71
5
72
1
41
1
210
0
220
0
230
1
3
Standard
100
AcDbAlignedDimension
13
-1.7
23
-25
33
0
14
-1.7
24
25
34
0
1001
ACAD
1000
DSTYLE
1002
{
1070
   279
1070
     0
1070
    74
1070
     0
1070
   173
1070
     1
1070
   340
1005
DF
1070
   271
1070
     0
1070
    77
1070
     1
1070
    73
1070
     0
1070
   171
1070
     3
1070
   274
1070
     4
1070
   177
1070
     7
1070
   176
1070
     7
1070
   178
1070
     7
1070
    78
1070
     8
1070
    41
1041
3.175
1070
   147
1041
1.5
1070
    42
1041
2.0
1070
    44
1041
2.0
1070
   140
1041
3.0
1070
   343
1005
0
1070
   344
1005
0
1002
}
0
DIMENSION
5
122
100
AcDbEntity
8
SK2
62
256
6
ByLayer
370
13
48
1
60
0
100
AcDbDimension
2
DimnDraft3D4
10
20
20
41.483991
30
0
11
8.207895
21
41.483991
31
0
70
32
71
5
72
1
41
1
210
0
220
0
230
1
3
Standard
100
AcDbAlignedDimension
13
0
23
26.7
33
0
14
20
24
27
34
0
50
0
100
AcDbRotatedDimension
1001
ACAD
1000
DSTYLE
1002
{
1070
   279
1070
     0
1070
   172
1070
     1
1070
   173
1070
     1
1070
   340
1005
DF
1070
   271
1070
     2
1070
    77
1070
     1
1070
    73
1070
     0
1070
   171
1070
     3
1070
   274
1070
     4
1070
   177
1070
     7
1070
   176
1070
     7
1070
   178
1070
     7
1070
    78
1070
     8
1070
    41
1041
3.175
1070
   147
1041
1.5
1070
    42
1041
2.0
1070
    44
1041
2.0
1070
   140
1041
3.0
1070
   343
1005
F1
1070
   344
1005
F1
1002
}
0
DIMENSION
5
130
100
AcDbEntity
8
SK2
62
256
6
ByLayer
370
13
48
1
60
0
100
AcDbDimension
2
DimnDraft3D5
10
25.5
20
51.60576
30
0
11
9.228947
21
51.60576
31
0
70
32
71
5
72
1
41
1
210
0
220
0
230
1
3
Standard
100
AcDbAlignedDimension
13
0
23
26.7
33
0
14
25.5
24
32
34
0
50
0
100
AcDbRotatedDimension
1001
ACAD
1000
DSTYLE
1002
{
1070
   279
1070
     0
1070
   172
1070
     1
1070
   173
1070
     1
1070
   340
1005
DF
1070
   271
1070
     3
1070
    77
1070
     1
1070
    73
1070
     0
1070
   171
1070
     3
1070
   274
1070
     4
1070
   177
1070
     7
1070
   176
1070
     7
1070
   178
1070
     7
1070
    78
1070
     8
1070
    41
1041
3.175
1070
   147
1041
1.5
1070
    42
1041
2.0
1070
    44
1041
2.0
1070
   140
1041
3.0
1070
   343
1005
F1
1070
   344
1005
F1
1002
}
0
DIMENSION
5
13E
100
AcDbEntity
8
SK2
62
256
6
ByLayer
370
13
48
1
60
0
100
AcDbDimension
2
DimnDraft3D6
10
88
20
61.975662
30
0
11
42.207895
21
61.975662
31
0
70
32
71
5
72
1
41
1
210
0
220
0
230
1
3
Standard
100
AcDbAlignedDimension
13
0
23
26.7
33
0
14
88
24
26
34
0
50
0
100
AcDbRotatedDimension
1001
ACAD
1000
DSTYLE
1002
{
1070
   279
1070
     0
1070
   172
1070
     1
1070
   173
1070
     1
1070
   340
1005
DF
1070
   271
1070
     0
1070
    77
1070
     1
1070
    73
1070
     0
1070
   171
1070
     3
1070
   274
1070
     4
1070
   177
1070
     7
1070
   176
1070
     7
1070
   178
1070
     7
1070
    78
1070
     8
1070
    41
1041
3.175
1070
   147
1041
1.5
1070
    42
1041
2.0
1070
    44
1041
2.0
1070
   140
1041
3.0
1070
   343
1005
0
1070
   344
1005
0
1002
}
0
DIMENSION
5
14D
100
AcDbEntity
8
2
62
256
6
ByLayer
370
13
48
1
60
0
100
AcDbDimension
2
DimnDraft3D7
10
95
20
71.377722
30
0
11
45.707895
21
71.377722
31
0
70
32
71
5
72
1
41
1
210
0
220
0
230
1
3
Standard
100
AcDbAlignedDimension
13
0
23
26.7
33
0
14
95
24
30
34
0
50
0
100
AcDbRotatedDimension
1001
ACAD
1000
DSTYLE
1002
{
1070
   279
1070
     0
1070
   172
1070
     1
1070
   173
1070
     1
1070
   340
1005
DF
1070
   271
1070
     0
1070
    77
1070
     1
1070
    73
1070
     0
1070
   171
1070
     3
1070
   274
1070
     4
1070
   177
1070
     7
1070
   176
1070
     7
1070
   178
1070
     7
1070
    78
1070
     8
1070
    41
1041
3.175
1070
   147
1041
1.5
1070
    42
1041
2.0
1070
    44
1041
2.0
1070
   140
1041
3.0
1070
   343
1005
0
1070
   344
1005
0
1002
}
0
ENDSEC
0
SECTION
2
OBJECTS
0
DICTIONARY
5
1b9
330
0
100
AcDbDictionary
280
0
281
1
3
ACAD_GROUP
350
1ba
3
ACAD_MLINESTYLE
350
1bb
0
DICTIONARY
5
1ba
330
0
100
AcDbDictionary
280
0
281
1
0
DICTIONARY
5
1bb
330
0
100
AcDbDictionary
280
0
281
1
3
Standard
350
18
0
MLINESTYLE
5
18
330
1bb
100
AcDbMlineStyle
2
Standard
70
0
3

62
256
51
90
52
90
71
2
49
-0.5
62
256
6
ByLayer
49
0.5
62
256
6
ByLayer
0
RASTERVARIABLES
5
1a6
330

100
AcDbRasterVariables
90
0
70
1
71
1
72
1
0
ENDSEC
0
EOF
