0
SECTION
2
HEADER
9
$ACADVER
1
AC1015
9
$DWGCODEPAGE
3
ANSI_1252
9
$HANDSEED
5
1fd
9
$ANGBASE
50
0
9
$ANGDIR
70
0
9
$ATTMODE
70
1
9
$AUNITS
70
0
9
$AUPREC
70
0
9
$CECOLOR
62
256
9
$CELTSCALE
40
1
9
$CELTYPE
6
ByLayer
9
$CELWEIGHT
370
18
9
$CLAYER
8
0
9
$CMLJUST
70
0
9
$CMLSCALE
40
1
9
$CMLSTYLE
2
Standard
9
$DIMSTYLE
2
Standard
9
$TEXTSIZE
40
0.2
9
$TEXTSTYLE
7
Standard
9
$LUNITS
70
2
9
$LUPREC
70
4
9
$EXTNAMES
290
1
9
$INSUNITS
70
4
9
$LTSCALE
40
1
9
$LWDISPLAY
290
1
9
$PDMODE
70
0
9
$PDSIZE
40
0
9
$PLINEGEN
70
0
0
ENDSEC
0
SECTION
2
CLASSES
0
CLASS
1
RASTERVARIABLES
2
AcDbRasterVariables
3
ISM
90
0
280
0
281
0
0
ENDSEC
0
SECTION
2
TABLES
0
TABLE
2
VPORT
5
1f3
100
AcDbSymbolTable
0
VPORT
5
1
100
AcDbSymbolTableRecord
100
AcDbViewportTableRecord
2
*Active
70
0
10
0
20
0
11
1
21
1
12
-1
22
1
13
0
23
0
14
0.5
24
0.5
15
10
25
10
16
0
26
0
36
1
17
0
27
0
37
0
0
ENDTAB
0
TABLE
2
LTYPE
5
1f4
100
AcDbSymbolTable
0
LTYPE
5
14
100
AcDbSymbolTableRecord
100
AcDbLinetypeTableRecord
70
0
2
ByBlock
3

72
65
73
0
40
0
0
LTYPE
5
15
100
AcDbSymbolTableRecord
100
AcDbLinetypeTableRecord
70
0
2
ByLayer
3

72
65
73
0
40
0
0
LTYPE
5
16
100
AcDbSymbolTableRecord
100
AcDbLinetypeTableRecord
70
0
2
CONTINUOUS
3
Solid line
72
65
73
0
40
0
0
LTYPE
5
6A
100
AcDbSymbolTableRecord
100
AcDbLinetypeTableRecord
70
0
2
CENTER
3
____ _ ____ _ ____ _ ____
72
65
73
4
40
47.5
49
22
74
0
49
-8.5
74
0
49
8.5
74
0
49
-8.5
74
0
0
LTYPE
5
6B
100
AcDbSymbolTableRecord
100
AcDbLinetypeTableRecord
70
0
2
DASHED
3
__ __ __ __ __ __ __ __ __
72
65
73
2
40
25.72
49
12.86
74
0
49
-12.86
74
0
0
ENDTAB
0
TABLE
2
LAYER
5
1f5
100
AcDbSymbolTable
0
LAYER
5
10
100
AcDbSymbolTableRecord
100
AcDbLayerTableRecord
2
0
70
0
62
7
6
CONTINUOUS
290
1
370
-3
390
0
0
LAYER
5
6D
100
AcDbSymbolTableRecord
100
AcDbLayerTableRecord
2
80
70
0
62
-6
6
CONTINUOUS
290
1
370
-3
390
0
0
LAYER
5
6F
100
AcDbSymbolTableRecord
100
AcDbLayerTableRecord
2
81
70
0
62
-3
6
CONTINUOUS
290
1
370
-3
390
0
0
LAYER
5
71
100
AcDbSymbolTableRecord
100
AcDbLayerTableRecord
2
1
70
0
62
4
6
CONTINUOUS
290
1
370
-3
390
0
0
LAYER
5
E1
100
AcDbSymbolTableRecord
100
AcDbLayerTableRecord
2
4
70
0
62
-2
6
CENTER
290
1
370
-3
390
0
0
LAYER
5
155
100
AcDbSymbolTableRecord
100
AcDbLayerTableRecord
2
2
70
0
62
7
6
CONTINUOUS
290
1
370
-3
390
0
0
LAYER
5
1de
100
AcDbSymbolTableRecord
100
AcDbLayerTableRecord
2
SK1
70
0
62
4
6
CONTINUOUS
290
1
370
-3
390
0
0
LAYER
5
1df
100
AcDbSymbolTableRecord
100
AcDbLayerTableRecord
2
SK3
70
0
62
1
6
DASHED
290
1
370
-3
390
0
0
LAYER
5
1e0
100
AcDbSymbolTableRecord
100
AcDbLayerTableRecord
2
SK4
70
0
62
2
6
CENTER
290
1
370
-3
390
0
0
LAYER
5
1e1
100
AcDbSymbolTableRecord
100
AcDbLayerTableRecord
2
SK6
70
0
62
5
6
CONTINUOUS
290
1
370
-3
390
0
0
LAYER
5
1e2
100
AcDbSymbolTableRecord
100
AcDbLayerTableRecord
2
SK2
70
0
62
7
6
CONTINUOUS
290
1
370
-3
390
0
0
ENDTAB
0
TABLE
2
STYLE
5
1f6
100
AcDbSymbolTable
0
STYLE
5
11
100
AcDbSymbolTableRecord
100
AcDbTextStyleTableRecord
2
Standard
3
txt
70
0
71
0
40
0
41
1
42
0
50
0
0
STYLE
5
132
100
AcDbSymbolTableRecord
100
AcDbTextStyleTableRecord
2
iso_b_vert
3
simplex.shx
70
0
71
0
40
0
41
1
42
0
50
0
0
STYLE
5
133
100
AcDbSymbolTableRecord
100
AcDbTextStyleTableRecord
2
DWGDirectTextStyle
3
simplex
70
0
71
0
40
0
41
1
42
0
50
0
0
ENDTAB
0
TABLE
2
DIMSTYLE
5
1f7
100
AcDbSymbolTable
100
AcDbDimStyleTable
0
DIMSTYLE
105
27
100
AcDbSymbolTableRecord
100
AcDbDimStyleTableRecord
2
Standard
70
0
3
<>
41
0.18
42
0.0625
44
0.18
140
0.18
147
0.09
73
0
74
0
77
1
271
2
275
0
278
52
280
0
340
11
0
ENDTAB
0
TABLE
2
VIEW
5
1f8
100
AcDbSymbolTable
0
ENDTAB
0
TABLE
2
UCS
5
1f9
100
AcDbSymbolTable
0
ENDTAB
0
TABLE
2
APPID
5
1fa
100
AcDbSymbolTable
0
APPID
5
12
100
AcDbSymbolTableRecord
100
AcDbRegAppTableRecord
2
ACAD
70
0
0
ENDTAB
0
TABLE
2
BLOCK_RECORD
5
1fb
100
AcDbSymbolTable
0
BLOCK_RECORD
5
1F
100
AcDbSymbolTableRecord
100
AcDbBlockTableRecord
2
*Model_Space
340
0
70
0
0
BLOCK_RECORD
5
1B
100
AcDbSymbolTableRecord
100
AcDbBlockTableRecord
2
*Paper_Space
340
0
70
0
0
BLOCK_RECORD
5
23
100
AcDbSymbolTableRecord
100
AcDbBlockTableRecord
2
*Paper_Space0
340
0
70
0
0
BLOCK_RECORD
5
135
100
AcDbSymbolTableRecord
100
AcDbBlockTableRecord
2
DimnDraft3D1
340
0
70
0
0
BLOCK_RECORD
5
145
100
AcDbSymbolTableRecord
100
AcDbBlockTableRecord
2
DimnDraft3D2
340
0
70
0
0
BLOCK_RECORD
5
153
100
AcDbSymbolTableRecord
100
AcDbBlockTableRecord
2
DimnDraft3D3
340
0
70
0
0
BLOCK_RECORD
5
162
100
AcDbSymbolTableRecord
100
AcDbBlockTableRecord
2
_CLOSED
340
0
70
0
0
BLOCK_RECORD
5
169
100
AcDbSymbolTableRecord
100
AcDbBlockTableRecord
2
DimnDraft3D4
340
0
70
0
0
BLOCK_RECORD
5
177
100
AcDbSymbolTableRecord
100
AcDbBlockTableRecord
2
DimnDraft3D5
340
0
70
0
0
ENDTAB
0
ENDSEC
0
SECTION
2
BLOCKS
0
BLOCK
5
20
100
AcDbEntity
8
0
100
AcDbBlockBegin
2
*Model_Space
70
0
10
0
20
0
30
0
3
*Model_Space
0
ENDBLK
5
21
100
AcDbEntity
8
0
100
AcDbBlockEnd
0
BLOCK
5
1C
100
AcDbEntity
8
0
100
AcDbBlockBegin
2
*Paper_Space
70
0
10
0
20
0
30
0
3
*Paper_Space
0
ENDBLK
5
1D
100
AcDbEntity
8
0
100
AcDbBlockEnd
0
BLOCK
5
24
100
AcDbEntity
8
0
100
AcDbBlockBegin
2
*Paper_Space0
70
0
10
0
20
0
30
0
3
*Paper_Space0
0
ENDBLK
5
25
100
AcDbEntity
8
0
100
AcDbBlockEnd
0
BLOCK
5
142
100
AcDbEntity
8
0
100
AcDbBlockBegin
2
DimnDraft3D1
70
0
10
0
20
0
30
0
3
DimnDraft3D1
0
MTEXT
5
136
100
AcDbEntity
8
SK2
62
256
6
ByLayer
370
18
48
1
60
0
100
AcDbMText
10
-42.285639
20
3.457895
30
0
210
0
220
0
230
1
1
\W0.6740;50
40
3
41
0
44
1.084337
50
90
71
7
72
5
7
iso_b_vert
0
MTEXT
5
138
100
AcDbEntity
8
SK2
62
256
6
ByLayer
370
18
48
1
60
0
100
AcDbMText
10
-42.285639
20
-4.018668
30
0
210
0
220
0
230
1
1
%%c
40
3
41
0
44
1.084337
50
90
71
7
72
5
7
iso_b_vert
0
LINE
5
139
100
AcDbEntity
8
SK2
62
256
6
ByLayer
370
13
48
1
60
0
100
AcDbLine
10
-1.7
20
25
30
0
11
-42.785639
21
25
31
0
39
0
210
0
220
0
230
1
0
LINE
5
13A
100
AcDbEntity
8
SK2
62
256
6
ByLayer
370
13
48
1
60
0
100
AcDbLine
10
-1.7
20
-25
30
0
11
-42.785639
21
-25
31
0
39
0
210
0
220
0
230
1
0
LINE
5
13B
100
AcDbEntity
8
SK2
62
256
6
ByLayer
370
13
48
1
60
0
100
AcDbLine
10
-40.785639
20
25
30
0
11
-40.785639
21
-25
31
0
39
0
210
0
220
0
230
1
0
LINE
5
13C
100
AcDbEntity
8
SK2
62
256
6
ByLayer
370
13
48
1
60
0
100
AcDbLine
10
-40.785639
20
25
30
0
11
-40.367642
21
21.825002
31
0
39
0
210
0
220
0
230
1
0
LINE
5
13D
100
AcDbEntity
8
SK2
62
256
6
ByLayer
370
13
48
1
60
0
100
AcDbLine
10
-40.785639
20
25
30
0
11
-41.203635
21
21.824998
31
0
39
0
210
0
220
0
230
1
0
LINE
5
13E
100
AcDbEntity
8
SK2
62
256
6
ByLayer
370
13
48
1
60
0
100
AcDbLine
10
-40.367642
20
21.825002
30
0
11
-41.203635
21
21.824998
31
0
39
0
210
0
220
0
230
1
0
LINE
5
13F
100
AcDbEntity
8
SK2
62
256
6
ByLayer
370
13
48
1
60
0
100
AcDbLine
10
-40.785639
20
-25
30
0
11
-41.203635
21
-21.825002
31
0
39
0
210
0
220
0
230
1
0
LINE
5
140
100
AcDbEntity
8
SK2
62
256
6
ByLayer
370
13
48
1
60
0
100
AcDbLine
10
-40.785639
20
-25
30
0
11
-40.367642
21
-21.824998
31
0
39
0
210
0
220
0
230
1
0
LINE
5
141
100
AcDbEntity
8
SK2
62
256
6
ByLayer
370
13
48
1
60
0
100
AcDbLine
10
-41.203635
20
-21.825002
30
0
11
-40.367642
21
-21.824998
31
0
39
0
210
0
220
0
230
1
0
ENDBLK
5
143
100
AcDbEntity
8
0
100
AcDbBlockEnd
0
BLOCK
5
150
100
AcDbEntity
8
0
100
AcDbBlockBegin
2
DimnDraft3D2
70
0
10
0
20
0
30
0
3
DimnDraft3D2
0
MTEXT
5
146
100
AcDbEntity
8
SK2
62
256
6
ByLayer
370
18
48
1
60
0
100
AcDbMText
10
8.957895
20
38.361218
30
0
210
0
220
0
230
1
1
\W0.6740;20
40
3
41
0
44
1.084337
50
0
71
7
72
5
7
iso_b_vert
0
LINE
5
147
100
AcDbEntity
8
SK2
62
256
6
ByLayer
370
13
48
1
60
0
100
AcDbLine
10
0
20
26.7
30
0
11
0
21
39.611218
31
0
39
0
210
0
220
0
230
1
0
LINE
5
148
100
AcDbEntity
8
SK2
62
256
6
ByLayer
370
13
48
1
60
0
100
AcDbLine
10
20
20
27
30
0
11
20
21
39.611218
31
0
39
0
210
0
220
0
230
1
0
LINE
5
149
100
AcDbEntity
8
SK2
62
256
6
ByLayer
370
13
48
1
60
0
100
AcDbLine
10
0
20
37.611218
30
0
11
20
21
37.611218
31
0
39
0
210
0
220
0
230
1
0
LINE
5
14A
100
AcDbEntity
8
SK2
62
256
6
ByLayer
370
13
48
1
60
0
100
AcDbLine
10
0
20
37.611218
30
0
11
3.174998
21
38.029215
31
0
39
0
210
0
220
0
230
1
0
LINE
5
14B
100
AcDbEntity
8
SK2
62
256
6
ByLayer
370
13
48
1
60
0
100
AcDbLine
10
0
20
37.611218
30
0
11
3.175002
21
37.193222
31
0
39
0
210
0
220
0
230
1
0
LINE
5
14C
100
AcDbEntity
8
SK2
62
256
6
ByLayer
370
13
48
1
60
0
100
AcDbLine
10
3.174998
20
38.029215
30
0
11
3.175002
21
37.193222
31
0
39
0
210
0
220
0
230
1
0
LINE
5
14D
100
AcDbEntity
8
SK2
62
256
6
ByLayer
370
13
48
1
60
0
100
AcDbLine
10
20
20
37.611218
30
0
11
16.825002
21
37.193222
31
0
39
0
210
0
220
0
230
1
0
LINE
5
14E
100
AcDbEntity
8
SK2
62
256
6
ByLayer
370
13
48
1
60
0
100
AcDbLine
10
20
20
37.611218
30
0
11
16.824998
21
38.029215
31
0
39
0
210
0
220
0
230
1
0
LINE
5
14F
100
AcDbEntity
8
SK2
62
256
6
ByLayer
370
13
48
1
60
0
100
AcDbLine
10
16.825002
20
37.193222
30
0
11
16.824998
21
38.029215
31
0
39
0
210
0
220
0
230
1
0
ENDBLK
5
151
100
AcDbEntity
8
0
100
AcDbBlockEnd
0
BLOCK
5
15F
100
AcDbEntity
8
0
100
AcDbBlockBegin
2
DimnDraft3D3
70
0
10
0
20
0
30
0
3
DimnDraft3D3
0
MTEXT
5
154
100
AcDbEntity
8
2
62
256
6
ByLayer
370
18
48
1
60
0
100
AcDbMText
10
41.458735
20
50.741057
30
0
210
0
220
0
230
1
1
\W0.6740;85
40
3
41
0
44
1.084337
50
0
71
7
72
5
7
iso_b_vert
0
LINE
5
156
100
AcDbEntity
8
2
62
256
6
ByLayer
370
13
48
1
60
0
100
AcDbLine
10
0
20
26.7
30
0
11
0
21
51.991057
31
0
39
0
210
0
220
0
230
1
0
LINE
5
157
100
AcDbEntity
8
2
62
256
6
ByLayer
370
13
48
1
60
0
100
AcDbLine
10
85.001681
20
2
30
0
11
85.001681
21
51.991057
31
0
39
0
210
0
220
0
230
1
0
LINE
5
158
100
AcDbEntity
8
2
62
256
6
ByLayer
370
13
48
1
60
0
100
AcDbLine
10
0
20
49.991057
30
0
11
85.001681
21
49.991057
31
0
39
0
210
0
220
0
230
1
0
LINE
5
159
100
AcDbEntity
8
2
62
256
6
ByLayer
370
13
48
1
60
0
100
AcDbLine
10
0
20
49.991057
30
0
11
3.174998
21
50.409053
31
0
39
0
210
0
220
0
230
1
0
LINE
5
15A
100
AcDbEntity
8
2
62
256
6
ByLayer
370
13
48
1
60
0
100
AcDbLine
10
0
20
49.991057
30
0
11
3.175002
21
49.57306
31
0
39
0
210
0
220
0
230
1
0
LINE
5
15B
100
AcDbEntity
8
2
62
256
6
ByLayer
370
13
48
1
60
0
100
AcDbLine
10
3.174998
20
50.409053
30
0
11
3.175002
21
49.57306
31
0
39
0
210
0
220
0
230
1
0
LINE
5
15C
100
AcDbEntity
8
2
62
256
6
ByLayer
370
13
48
1
60
0
100
AcDbLine
10
85.001681
20
49.991057
30
0
11
81.826683
21
49.57306
31
0
39
0
210
0
220
0
230
1
0
LINE
5
15D
100
AcDbEntity
8
2
62
256
6
ByLayer
370
13
48
1
60
0
100
AcDbLine
10
85.001681
20
49.991057
30
0
11
81.82668
21
50.409053
31
0
39
0
210
0
220
0
230
1
0
LINE
5
15E
100
AcDbEntity
8
2
62
256
6
ByLayer
370
13
48
1
60
0
100
AcDbLine
10
81.826683
20
49.57306
30
0
11
81.82668
21
50.409053
31
0
39
0
210
0
220
0
230
1
0
ENDBLK
5
160
100
AcDbEntity
8
0
100
AcDbBlockEnd
0
BLOCK
5
163
100
AcDbEntity
8
0
100
AcDbBlockBegin
2
_CLOSED
70
0
10
0
20
0
30
0
3
_CLOSED
0
LINE
5
165
100
AcDbEntity
8
0
62
256
6
ByLayer
370
-2
48
1
60
0
100
AcDbLine
10
-1
20
0.166667
30
0
11
0
21
0
31
0
39
0
210
0
220
0
230
1
0
LINE
5
166
100
AcDbEntity
8
0
62
256
6
ByLayer
370
-2
48
1
60
0
100
AcDbLine
10
0
20
0
30
0
11
-1
21
-0.166667
31
0
39
0
210
0
220
0
230
1
0
LINE
5
167
100
AcDbEntity
8
0
62
256
6
ByLayer
370
-2
48
1
60
0
100
AcDbLine
10
-1
20
0.166667
30
0
11
-1
21
-0.166667
31
0
39
0
210
0
220
0
230
1
0
LINE
5
168
100
AcDbEntity
8
0
62
256
6
ByLayer
370
-2
48
1
60
0
100
AcDbLine
10
0
20
0
30
0
11
-1
21
0
31
0
39
0
210
0
220
0
230
1
0
ENDBLK
5
164
100
AcDbEntity
8
0
100
AcDbBlockEnd
0
BLOCK
5
174
100
AcDbEntity
8
0
100
AcDbBlockBegin
2
DimnDraft3D4
70
0
10
0
20
0
30
0
3
DimnDraft3D4
0
MTEXT
5
16A
100
AcDbEntity
8
SK2
62
256
6
ByLayer
370
18
48
1
60
0
100
AcDbMText
10
100.048977
20
14.957895
30
0
210
0
220
0
230
1
1
\W0.6740;32
40
3
41
0
44
1.084337
50
90
71
7
72
5
7
iso_b_vert
0
LINE
5
16B
100
AcDbEntity
8
SK2
62
256
6
ByLayer
370
13
48
1
60
0
100
AcDbLine
10
90.820948
20
0
30
0
11
102.798977
21
0
31
0
39
0
210
0
220
0
230
1
0
LINE
5
16C
100
AcDbEntity
8
SK2
62
256
6
ByLayer
370
13
48
1
60
0
100
AcDbLine
10
55.001681
20
32
30
0
11
102.798977
21
32
31
0
39
0
210
0
220
0
230
1
0
LINE
5
16D
100
AcDbEntity
8
SK2
62
256
6
ByLayer
370
13
48
1
60
0
100
AcDbLine
10
100.798977
20
0
30
0
11
100.798977
21
32
31
0
39
0
210
0
220
0
230
1
0
LINE
5
16E
100
AcDbEntity
8
SK2
62
256
6
ByLayer
370
13
48
1
60
0
100
AcDbLine
10
100.798977
20
0
30
0
11
100.380981
21
3.174998
31
0
39
0
210
0
220
0
230
1
0
LINE
5
16F
100
AcDbEntity
8
SK2
62
256
6
ByLayer
370
13
48
1
60
0
100
AcDbLine
10
100.798977
20
0
30
0
11
101.216974
21
3.175002
31
0
39
0
210
0
220
0
230
1
0
LINE
5
170
100
AcDbEntity
8
SK2
62
256
6
ByLayer
370
13
48
1
60
0
100
AcDbLine
10
100.380981
20
3.174998
30
0
11
101.216974
21
3.175002
31
0
39
0
210
0
220
0
230
1
0
LINE
5
171
100
AcDbEntity
8
SK2
62
256
6
ByLayer
370
13
48
1
60
0
100
AcDbLine
10
100.798977
20
32
30
0
11
101.216974
21
28.825002
31
0
39
0
210
0
220
0
230
1
0
LINE
5
172
100
AcDbEntity
8
SK2
62
256
6
ByLayer
370
13
48
1
60
0
100
AcDbLine
10
100.798977
20
32
30
0
11
100.380981
21
28.824998
31
0
39
0
210
0
220
0
230
1
0
LINE
5
173
100
AcDbEntity
8
SK2
62
256
6
ByLayer
370
13
48
1
60
0
100
AcDbLine
10
101.216974
20
28.825002
30
0
11
100.380981
21
28.824998
31
0
39
0
210
0
220
0
230
1
0
ENDBLK
5
175
100
AcDbEntity
8
0
100
AcDbBlockEnd
0
BLOCK
5
182
100
AcDbEntity
8
0
100
AcDbBlockBegin
2
DimnDraft3D5
70
0
10
0
20
0
30
0
3
DimnDraft3D5
0
MTEXT
5
178
100
AcDbEntity
8
SK2
62
256
6
ByLayer
370
18
48
1
60
0
100
AcDbMText
10
100.048977
20
-17.042105
30
0
210
0
220
0
230
1
1
\W0.6740;32
40
3
41
0
44
1.084337
50
90
71
7
72
5
7
iso_b_vert
0
LINE
5
179
100
AcDbEntity
8
SK2
62
256
6
ByLayer
370
13
48
1
60
0
100
AcDbLine
10
90.820948
20
0
30
0
11
102.798977
21
0
31
0
39
0
210
0
220
0
230
1
0
LINE
5
17A
100
AcDbEntity
8
SK2
62
256
6
ByLayer
370
13
48
1
60
0
100
AcDbLine
10
45.102186
20
-32
30
0
11
102.798977
21
-32
31
0
39
0
210
0
220
0
230
1
0
LINE
5
17B
100
AcDbEntity
8
SK2
62
256
6
ByLayer
370
13
48
1
60
0
100
AcDbLine
10
100.798977
20
0
30
0
11
100.798977
21
-32
31
0
39
0
210
0
220
0
230
1
0
LINE
5
17C
100
AcDbEntity
8
SK2
62
256
6
ByLayer
370
13
48
1
60
0
100
AcDbLine
10
100.798977
20
0
30
0
11
101.216974
21
-3.174998
31
0
39
0
210
0
220
0
230
1
0
LINE
5
17D
100
AcDbEntity
8
SK2
62
256
6
ByLayer
370
13
48
1
60
0
100
AcDbLine
10
100.798977
20
0
30
0
11
100.380981
21
-3.175002
31
0
39
0
210
0
220
0
230
1
0
LINE
5
17E
100
AcDbEntity
8
SK2
62
256
6
ByLayer
370
13
48
1
60
0
100
AcDbLine
10
101.216974
20
-3.174998
30
0
11
100.380981
21
-3.175002
31
0
39
0
210
0
220
0
230
1
0
LINE
5
17F
100
AcDbEntity
8
SK2
62
256
6
ByLayer
370
13
48
1
60
0
100
AcDbLine
10
100.798977
20
-32
30
0
11
100.380981
21
-28.825002
31
0
39
0
210
0
220
0
230
1
0
LINE
5
180
100
AcDbEntity
8
SK2
62
256
6
ByLayer
370
13
48
1
60
0
100
AcDbLine
10
100.798977
20
-32
30
0
11
101.216974
21
-28.824998
31
0
39
0
210
0
220
0
230
1
0
LINE
5
181
100
AcDbEntity
8
SK2
62
256
6
ByLayer
370
13
48
1
60
0
100
AcDbLine
10
100.380981
20
-28.825002
30
0
11
101.216974
21
-28.824998
31
0
39
0
210
0
220
0
230
1
0
ENDBLK
5
183
100
AcDbEntity
8
0
100
AcDbBlockEnd
0
ENDSEC
0
SECTION
2
ENTITIES
0
ARC
5
E7
100
AcDbEntity
8
SK1
62
256
6
ByLayer
370
18
48
1
60
0
100
AcDbCircle
39
0
10
-0.6
20
-18.75
30
0
40
1
210
0
220
0
230
1
100
AcDbArc
50
53.129154
51
66.421822
0
ARC
5
E8
100
AcDbEntity
8
SK1
62
256
6
ByLayer
370
18
48
1
60
0
100
AcDbCircle
39
0
10
-0.6
20
18.75
30
0
40
1
210
0
220
0
230
1
100
AcDbArc
50
293.578178
51
306.870846
0
ARC
5
E9
100
AcDbEntity
8
SK1
62
256
6
ByLayer
370
18
48
1
60
0
100
AcDbCircle
39
0
10
-0.6
20
-18.75
30
0
40
1
210
0
220
0
230
1
100
AcDbArc
50
53.129154
51
66.421822
0
ARC
5
EA
100
AcDbEntity
8
SK1
62
256
6
ByLayer
370
18
48
1
60
0
100
AcDbCircle
39
0
10
-0.6
20
18.75
30
0
40
1
210
0
220
0
230
1
100
AcDbArc
50
293.578178
51
306.870846
0
ARC
5
ED
100
AcDbEntity
8
1
62
256
6
ByLayer
370
18
48
1
60
0
100
AcDbCircle
39
0
10
46.110808
20
24.748737
30
0
40
5.25
210
0
220
0
230
1
100
AcDbArc
50
294.340301
51
198.525063
0
ARC
5
EE
100
AcDbEntity
8
1
62
256
6
ByLayer
370
18
48
1
60
0
100
AcDbCircle
39
0
10
46.110808
20
24.748737
30
0
40
5.25000000000014
210
0
220
0
230
1
100
AcDbArc
50
198.525063
51
294.340301
0
ARC
5
F5
100
AcDbEntity
8
1
62
256
6
ByLayer
370
18
48
1
60
0
100
AcDbCircle
39
0
10
-20.279208
20
-26.2
30
0
40
1.2
210
0
220
0
230
-1
100
AcDbArc
50
90
51
165
0
ARC
5
F6
100
AcDbEntity
8
1
62
256
6
ByLayer
370
18
48
1
60
0
100
AcDbCircle
39
0
10
20.279208
20
26.2
30
0
40
1.2
210
0
220
0
230
1
100
AcDbArc
50
270
51
345
0
ARC
5
F7
100
AcDbEntity
8
1
62
256
6
ByLayer
370
18
48
1
60
0
100
AcDbCircle
39
0
10
63.081371
20
-28.991378
30
0
40
11.999999999999
210
0
220
0
230
1
100
AcDbArc
50
69.624318
51
109.158067
0
CIRCLE
5
EB
100
AcDbEntity
8
1
62
256
6
ByLayer
370
18
48
1
60
0
100
AcDbCircle
10
67.324012
20
3.535534
30
0
40
5.25
39
0
210
0
220
0
230
1
0
CIRCLE
5
EC
100
AcDbEntity
8
1
62
256
6
ByLayer
370
18
48
1
60
0
100
AcDbCircle
10
56.71741
20
14.142136
30
0
40
5.25
39
0
210
0
220
0
230
1
0
CIRCLE
5
EF
100
AcDbEntity
8
1
62
256
6
ByLayer
370
18
48
1
60
0
100
AcDbCircle
10
-46.110808
20
24.748737
30
0
40
5.25
39
0
210
0
220
0
230
-1
0
CIRCLE
5
F0
100
AcDbEntity
8
1
62
256
6
ByLayer
370
18
48
1
60
0
100
AcDbCircle
10
-46.110808
20
24.748737
30
0
40
5
39
0
210
1.21448983499673E-16
220
1.21448983499673E-16
230
-1
0
CIRCLE
5
F1
100
AcDbEntity
8
1
62
256
6
ByLayer
370
18
48
1
60
0
100
AcDbCircle
10
-56.71741
20
14.142136
30
0
40
5.25
39
0
210
0
220
0
230
-1
0
CIRCLE
5
F2
100
AcDbEntity
8
1
62
256
6
ByLayer
370
18
48
1
60
0
100
AcDbCircle
10
-56.71741
20
14.142136
30
0
40
5
39
0
210
1.21448983499673E-16
220
1.21448983499673E-16
230
-1
0
CIRCLE
5
F3
100
AcDbEntity
8
1
62
256
6
ByLayer
370
18
48
1
60
0
100
AcDbCircle
10
-67.324012
20
3.535534
30
0
40
5.25
39
0
210
0
220
0
230
-1
0
CIRCLE
5
F4
100
AcDbEntity
8
1
62
256
6
ByLayer
370
18
48
1
60
0
100
AcDbCircle
10
-67.324012
20
3.535534
30
0
40
5
39
0
210
1.21448983499673E-16
220
1.21448983499673E-16
230
-1
0
ELLIPSE
5
F8
100
AcDbEntity
8
1
62
256
6
ByLayer
370
18
48
1
60
0
100
AcDbEllipse
10
21.056258
20
0
30
0
11
11.709272349727
21
24.6771864409372
31
0
210
0
220
0
230
1
40
0.341999
41
2.05975995310051
42
2.97437958168081
0
ELLIPSE
5
F9
100
AcDbEntity
8
1
62
256
6
ByLayer
370
18
48
1
60
0
100
AcDbEllipse
10
-1.056258
20
0
30
0
11
11.7092723497274
21
-24.6771864409376
31
0
210
0
220
0
230
1
40
0.341999
41
0.167213071908978
42
1.08183270048927
0
ELLIPSE
5
FA
100
AcDbEntity
8
1
62
256
6
ByLayer
370
18
48
1
60
0
100
AcDbEllipse
10
21.056258
20
0
30
0
11
11.7092723497267
21
-24.6771864409369
31
0
210
0
220
0
230
1
40
0.341999
41
-2.97437958168081
42
-2.0597599531005
0
ELLIPSE
5
FB
100
AcDbEntity
8
1
62
256
6
ByLayer
370
18
48
1
60
0
100
AcDbEllipse
10
-1.056258
20
0
30
0
11
11.7092723497269
21
24.677186440937
31
0
210
0
220
0
230
1
40
0.341999
41
-1.08183270048929
42
-0.16721307190898
0
ELLIPSE
5
FC
100
AcDbEntity
8
1
62
256
6
ByLayer
370
18
48
1
60
0
100
AcDbEllipse
10
-1.056258
20
0
30
0
11
11.7092723497272
21
-24.6771864409374
31
0
210
0
220
0
230
1
40
0.341999
41
0.167213071908979
42
1.08183270048928
0
ELLIPSE
5
FD
100
AcDbEntity
8
1
62
256
6
ByLayer
370
18
48
1
60
0
100
AcDbEllipse
10
-1.056258
20
0
30
0
11
11.7092723497269
21
24.677186440937
31
0
210
0
220
0
230
1
40
0.341999
41
-1.08183270048929
42
-0.16721307190898
0
ELLIPSE
5
FE
100
AcDbEntity
8
1
62
256
6
ByLayer
370
18
48
1
60
0
100
AcDbEllipse
10
21.056258
20
0
30
0
11
11.7092723497279
21
-24.6771864409383
31
0
210
0
220
0
230
1
40
0.341999
41
-2.97437958168082
42
-2.05975995310054
0
ELLIPSE
5
FF
100
AcDbEntity
8
1
62
256
6
ByLayer
370
18
48
1
60
0
100
AcDbEllipse
10
21.056258
20
0
30
0
11
11.7092723497286
21
24.6771864409392
31
0
210
0
220
0
230
1
40
0.341999
41
2.05975995310057
42
2.97437958168082
0
ELLIPSE
5
100
100
AcDbEntity
8
1
62
256
6
ByLayer
370
18
48
1
60
0
100
AcDbEllipse
10
48.444261
20
5.16188
30
0
11
-2.58965397004033
21
-2.58965397004033
31
0
210
0
220
0
230
-1
40
0.819152
41
0
42
6.28318530717959
0
ELLIPSE
5
101
100
AcDbEntity
8
1
62
256
6
ByLayer
370
18
48
1
60
0
100
AcDbEllipse
10
66.424905
20
-10.987841
30
0
11
1.05654565435176
21
2.26576946759162
31
0
210
0
220
0
230
1
40
0.258819
41
0
42
6.28318530717959
0
ELLIPSE
5
102
100
AcDbEntity
8
1
62
256
6
ByLayer
370
18
48
1
60
0
100
AcDbEllipse
10
66.59999
20
-11.069484
30
0
11
0.972022002003616
21
2.08450791018429
31
0
210
0
220
0
230
1
40
0.258819
41
0
42
6.28318530717959
0
ELLIPSE
5
103
100
AcDbEntity
8
1
62
256
6
ByLayer
370
18
48
1
60
0
100
AcDbEllipse
10
68.841935
20
-2.01761
30
0
11
6.1640152591082
21
6.16401525910814
31
1.49722677499032E-15
210
1.21448983499673E-16
220
1.21448983499673E-16
230
-1
40
0.573576
41
0.643501108808092
42
1.69843740493328
0
POINT
5
6C
100
AcDbEntity
8
80
62
256
6
ByLayer
370
18
48
0.05
60
0
100
AcDbPoint
10
0
20
0
30
0
39
0
210
0
220
0
230
1
50
360
0
POINT
5
6E
100
AcDbEntity
8
81
62
256
6
ByLayer
370
18
48
0.05
60
0
100
AcDbPoint
10
77.930614
20
-7.071068
30
0
39
0
210
0
220
0
230
1
50
360
0
SPLINE
5
104
100
AcDbEntity
8
SK1
62
256
6
ByLayer
370
18
48
1
60
0
100
AcDbSpline
70
4
71
2
72
6
73
3
40
0
40
0
40
0
40
1
40
1
40
1
41
1
10
-3
20
-17.5000000000527
30
0
41
1
10
-15.7502365839532
20
-17.1796696772131
30
0
41
1
10
-28.5004731679065
20
-16.8593393543735
30
0
0
SPLINE
5
105
100
AcDbEntity
8
SK1
62
256
6
ByLayer
370
18
48
1
60
0
100
AcDbSpline
70
4
71
2
72
6
73
3
40
0
40
0
40
0
40
1
40
1
40
1
41
1
10
-28.5004731679065
20
16.8593393543424
30
0
41
1
10
-15.7502365839532
20
17.1796696771814
30
0
41
1
10
-3
20
17.5000000000204
30
0
0
SPLINE
5
106
100
AcDbEntity
8
SK1
62
256
6
ByLayer
370
18
48
1
60
0
100
AcDbSpline
70
4
71
2
72
6
73
3
40
0
40
0
40
0
40
1
40
1
40
1
41
1
10
-2.19492113517947
20
-17.5202263833814
30
0
41
1
10
-2.59746056758974
20
-17.5101131917171
30
0
41
1
10
-3
20
-17.5000000000527
30
0
0
SPLINE
5
107
100
AcDbEntity
8
SK1
62
256
6
ByLayer
370
18
48
1
60
0
100
AcDbSpline
70
4
71
2
72
6
73
3
40
0
40
0
40
0
40
1
40
1
40
1
41
1
10
-3
20
17.5000000000204
30
0
41
1
10
-2.59746056758974
20
17.5101131916847
30
0
41
1
10
-2.19492113517947
20
17.5202263833491
30
0
0
SPLINE
5
108
100
AcDbEntity
8
SK1
62
256
6
ByLayer
370
18
48
1
60
0
100
AcDbSpline
70
4
71
2
72
6
73
3
40
0
40
0
40
0
40
1
40
1
40
1
41
1
10
-0.400000000000006
20
-17.3251501409625
30
0
41
1
10
-1.20000000000002
20
-17.3251501409625
30
0
41
1
10
-2
20
-17.3251501409625
30
0
0
SPLINE
5
109
100
AcDbEntity
8
SK1
62
256
6
ByLayer
370
18
48
1
60
0
100
AcDbSpline
70
4
71
2
72
6
73
3
40
0
40
0
40
0
40
1
40
1
40
1
41
1
10
-2
20
17.3251501414068
30
0
41
1
10
-1.20000000000002
20
17.3251501414067
30
0
41
1
10
-0.400000000000006
20
17.3251501414068
30
0
0
SPLINE
5
10A
100
AcDbEntity
8
SK1
62
256
6
ByLayer
370
18
48
1
60
0
100
AcDbSpline
70
4
71
2
72
6
73
3
40
0
40
0
40
0
40
1
40
1
40
1
41
1
10
-28.5003904504266
20
-16.8597456617469
30
0
41
1
10
-29.2501952787077
20
-16.4010253845871
30
0
41
1
10
-30
20
-15.9423013487186
30
0
0
SPLINE
5
10B
100
AcDbEntity
8
SK1
62
256
6
ByLayer
370
18
48
1
60
0
100
AcDbSpline
70
4
71
2
72
6
73
3
40
0
40
0
40
0
40
1
40
1
40
1
41
1
10
-30
20
15.9408160639395
30
0
41
1
10
-29.250201613525
20
16.3993636736336
30
0
41
1
10
-28.5004032853135
20
16.8579102610954
30
0
0
SPLINE
5
10C
100
AcDbEntity
8
SK1
62
256
6
ByLayer
370
18
48
1
60
0
100
AcDbSpline
70
4
71
3
72
11
73
7
40
0
40
0
40
0
40
0
40
0.245755007744134
40
0.501794198211091
40
0.756953870258506
40
1
40
1
40
1
40
1
41
1
10
-0.200000000000017
20
-17.5191731511753
30
0
41
1
10
-0.199994647676391
20
-17.493844966999
30
0
41
1
10
-0.209350242264549
20
-17.445622853432
30
0
41
1
10
-0.254178184246683
20
-17.3766360753192
30
0
41
1
10
-0.324420736760857
20
-17.33275982811
30
0
41
1
10
-0.373991067023695
20
-17.3239685556464
30
0
41
1
10
-0.400000000000006
20
-17.3241476526065
30
0
0
SPLINE
5
10D
100
AcDbEntity
8
SK1
62
256
6
ByLayer
370
18
48
1
60
0
100
AcDbSpline
70
4
71
3
72
11
73
7
40
0
40
0
40
0
40
0
40
0.24304695085406
40
0.498204668191837
40
0.75424246970437
40
1
40
1
40
1
40
1
41
1
10
-0.400000000000006
20
17.3241468641747
30
0
41
1
10
-0.373991174654037
20
17.3239674893689
30
0
41
1
10
-0.324421202648097
20
17.3327583040748
30
0
41
1
10
-0.254178044541391
20
17.3766339294128
30
0
41
1
10
-0.209350044376123
20
17.4456203921354
30
0
41
1
10
-0.199994500672233
20
17.4938412312525
30
0
41
1
10
-0.200000000000017
20
17.5191688355708
30
0
0
SPLINE
5
10E
100
AcDbEntity
8
SK1
62
256
6
ByLayer
370
18
48
1
60
0
100
AcDbSpline
70
4
71
2
72
6
73
3
40
0
40
0
40
0
40
1
40
1
40
1
41
1
10
-3
20
-17.5000000000527
30
0
41
1
10
-15.7502365839532
20
-17.1796696772131
30
0
41
1
10
-28.5004731679065
20
-16.8593393543735
30
0
0
SPLINE
5
10F
100
AcDbEntity
8
SK1
62
256
6
ByLayer
370
18
48
1
60
0
100
AcDbSpline
70
4
71
2
72
6
73
3
40
0
40
0
40
0
40
1
40
1
40
1
41
1
10
-28.5004731679065
20
16.8593393543424
30
0
41
1
10
-15.7502365839532
20
17.1796696771814
30
0
41
1
10
-3
20
17.5000000000204
30
0
0
SPLINE
5
110
100
AcDbEntity
8
SK1
62
256
6
ByLayer
370
18
48
1
60
0
100
AcDbSpline
70
4
71
2
72
6
73
3
40
0
40
0
40
0
40
1
40
1
40
1
41
1
10
-2.19492113517947
20
-17.5202263833814
30
0
41
1
10
-2.59746056758974
20
-17.5101131917171
30
0
41
1
10
-3
20
-17.5000000000527
30
0
0
SPLINE
5
111
100
AcDbEntity
8
SK1
62
256
6
ByLayer
370
18
48
1
60
0
100
AcDbSpline
70
4
71
2
72
6
73
3
40
0
40
0
40
0
40
1
40
1
40
1
41
1
10
-3
20
17.5000000000204
30
0
41
1
10
-2.59746056758974
20
17.5101131916847
30
0
41
1
10
-2.19492113517947
20
17.5202263833491
30
0
0
SPLINE
5
112
100
AcDbEntity
8
SK1
62
256
6
ByLayer
370
18
48
1
60
0
100
AcDbSpline
70
4
71
2
72
6
73
3
40
0
40
0
40
0
40
1
40
1
40
1
41
1
10
-0.400000000000006
20
-17.3251501409625
30
0
41
1
10
-1.20000000000002
20
-17.3251501409625
30
0
41
1
10
-2
20
-17.3251501409625
30
0
0
SPLINE
5
113
100
AcDbEntity
8
SK1
62
256
6
ByLayer
370
18
48
1
60
0
100
AcDbSpline
70
4
71
2
72
6
73
3
40
0
40
0
40
0
40
1
40
1
40
1
41
1
10
-2
20
17.3251501414068
30
0
41
1
10
-1.20000000000002
20
17.3251501414067
30
0
41
1
10
-0.400000000000006
20
17.3251501414068
30
0
0
SPLINE
5
114
100
AcDbEntity
8
SK1
62
256
6
ByLayer
370
18
48
1
60
0
100
AcDbSpline
70
4
71
2
72
6
73
3
40
0
40
0
40
0
40
1
40
1
40
1
41
1
10
-28.5003904504266
20
-16.8597456617469
30
0
41
1
10
-29.2501952787077
20
-16.4010253845872
30
0
41
1
10
-30
20
-15.9423013487186
30
0
0
SPLINE
5
115
100
AcDbEntity
8
SK1
62
256
6
ByLayer
370
18
48
1
60
0
100
AcDbSpline
70
4
71
2
72
6
73
3
40
0
40
0
40
0
40
1
40
1
40
1
41
1
10
-30
20
15.9408160639395
30
0
41
1
10
-29.250201613525
20
16.3993636736336
30
0
41
1
10
-28.5004032853135
20
16.8579102610954
30
0
0
SPLINE
5
116
100
AcDbEntity
8
SK1
62
256
6
ByLayer
370
18
48
1
60
0
100
AcDbSpline
70
4
71
3
72
11
73
7
40
0
40
0
40
0
40
0
40
0.245755007744091
40
0.501794198211014
40
0.756953870258398
40
1
40
1
40
1
40
1
41
1
10
-0.200000000000017
20
-17.5191731511753
30
0
41
1
10
-0.199994647676391
20
-17.493844966999
30
0
41
1
10
-0.209350242264549
20
-17.445622853432
30
0
41
1
10
-0.254178184246655
20
-17.3766360753193
30
0
41
1
10
-0.3244207367608
20
-17.33275982811
30
0
41
1
10
-0.373991067023667
20
-17.3239685556464
30
0
41
1
10
-0.400000000000006
20
-17.3241476526065
30
0
0
SPLINE
5
117
100
AcDbEntity
8
SK1
62
256
6
ByLayer
370
18
48
1
60
0
100
AcDbSpline
70
4
71
3
72
11
73
7
40
0
40
0
40
0
40
0
40
0.243046950855205
40
0.49820466819263
40
0.754242469704771
40
1
40
1
40
1
40
1
41
1
10
-0.400000000000006
20
17.3241468641747
30
0
41
1
10
-0.373991174653753
20
17.3239674893689
30
0
41
1
10
-0.324421202647557
20
17.332758304075
30
0
41
1
10
-0.254178044541106
20
17.3766339294131
30
0
41
1
10
-0.209350044376066
20
17.4456203921356
30
0
41
1
10
-0.199994500672233
20
17.4938412312525
30
0
41
1
10
-0.200000000000017
20
17.5191688355708
30
0
0
SPLINE
5
118
100
AcDbEntity
8
1
62
256
6
ByLayer
370
18
48
1
60
0
100
AcDbSpline
70
4
71
3
72
16
73
12
40
0
40
0
40
0
40
0
40
0.0773436766578766
40
0.0773436766578766
40
0.18158829067262
40
0.18158829067262
40
0.353924998170012
40
0.353924998170012
40
0.659870482236094
40
0.659870482236094
40
1
40
1
40
1
40
1
41
1
10
11.4613248654052
20
23.8391299750503
30
0
41
1
10
11.480691273438
20
23.8391299750503
30
0
41
1
10
11.5001920479834
20
23.8383766644784
30
0
41
1
10
11.5443643455559
20
23.8350242537625
30
0
41
1
10
11.5688999660418
20
23.8318379431383
30
0
41
1
10
11.6286300521075
20
23.8212426939765
30
0
41
1
10
11.66158714279
20
23.812328084785
30
0
41
1
10
11.7407360052433
20
23.7850663392819
30
0
41
1
10
11.7798892743245
20
23.7642694363116
30
0
41
1
10
11.8468244213921
20
23.7185457490814
30
0
41
1
10
11.8734747805012
20
23.692873493267
30
0
41
1
10
11.8943375672974
20
23.6665017920809
30
0
0
SPLINE
5
119
100
AcDbEntity
8
SK1
62
256
6
ByLayer
370
18
48
1
60
0
100
AcDbSpline
70
4
71
3
72
20
73
16
40
0
40
0
40
0
40
0
40
0.048214291504519
40
0.048214291504519
40
0.324895566596873
40
0.324895566596873
40
0.462917931598611
40
0.462917931598611
40
0.600949767396243
40
0.600949767396243
40
0.738995437055998
40
0.738995437055998
40
0.877061363974596
40
0.877061363974596
40
1
40
1
40
1
40
1
41
1
10
-2.20000000000002
20
-15.0247809138972
30
0
41
1
10
-2.20000000000002
20
-15.0987632316059
30
0
41
1
10
-2.19999999163144
20
-15.1713153633958
30
0
41
1
10
-2.19999985652709
20
-15.6498272161843
30
0
41
1
10
-2.19999939887509
20
-16.0101821224506
30
0
41
1
10
-2.19999683011551
20
-16.4712024133173
30
0
41
1
10
-2.19999564996832
20
-16.6117543332689
30
0
41
1
10
-2.19999230715834
20
-16.8650200442632
30
0
41
1
10
-2.19999013861346
20
-16.9778482087754
30
0
41
1
10
-2.19998437020209
20
-17.1737303581388
30
0
41
1
10
-2.19998076728288
20
-17.2568757984567
30
0
41
1
10
-2.19997155592219
20
-17.390896629152
30
0
41
1
10
-2.19996594630393
20
-17.4418577268988
30
0
41
1
10
-2.19995278239722
20
-17.5046282196893
30
0
41
1
10
-2.19994549394477
20
-17.5201645225441
30
0
41
1
10
-2.19993683202816
20
-17.5201014540432
30
0
0
SPLINE
5
11A
100
AcDbEntity
8
SK1
62
256
6
ByLayer
370
18
48
1
60
0
100
AcDbSpline
70
4
71
3
72
20
73
16
40
0
40
0
40
0
40
0
40
0.106713268043342
40
0.106713268043342
40
0.253973588632732
40
0.253973588632732
40
0.401204679365666
40
0.401204679365666
40
0.548416466828055
40
0.548416466828055
40
0.695615491384178
40
0.695615491384178
40
0.842806095182948
40
0.842806095182948
40
1
40
1
40
1
40
1
41
1
10
-2.19993679437144
20
17.5201067466238
30
0
41
1
10
-2.19994431777533
20
17.5202028706431
30
0
41
1
10
-2.1999508055147
20
17.5085225600387
30
0
41
1
10
-2.19996422500265
20
17.4552443316022
30
0
41
1
10
-2.19997041029708
20
17.4038992989506
30
0
41
1
10
-2.19998045819511
20
17.2645372816575
30
0
41
1
10
-2.19998432672412
20
17.1764163911093
30
0
41
1
10
-2.19999043378135
20
16.9665639550929
30
0
41
1
10
-2.19999267824221
20
16.8447172876608
30
0
41
1
10
-2.19999607391784
20
16.569798663462
30
0
41
1
10
-2.1999972302832
20
16.4165791409565
30
0
41
1
10
-2.1999988585969
20
16.0808080953317
30
0
41
1
10
-2.19999933084273
20
15.8980848535623
30
0
41
1
10
-2.19999991533382
20
15.4916218225696
30
0
41
1
10
-2.20000000000002
20
15.265754171787
30
0
41
1
10
-2.20000000000002
20
15.0247808645649
30
0
0
SPLINE
5
11B
100
AcDbEntity
8
1
62
256
6
ByLayer
370
18
48
1
60
0
100
AcDbSpline
70
4
71
3
72
18
73
14
40
0
40
0
40
0
40
0
40
0.0809805960320921
40
0.0809805960320921
40
0.544227292214084
40
0.544227292214084
40
0.69931826562167
40
0.69931826562167
40
0.856346274356485
40
0.856346274356485
40
0.966571999538831
40
0.966571999538831
40
1
40
1
40
1
40
1
41
1
10
8.10566243270259
20
-8.05584836782774
30
0
41
1
10
8.11065289887435
20
-8.03731605051118
30
0
41
1
10
8.11597900857612
20
-8.01885383673363
30
0
41
1
10
8.15400172089508
20
-7.89611164850155
30
0
41
1
10
8.19777443618253
20
-7.7921939727409
30
0
41
1
10
8.28487257800725
20
-7.67169814060125
30
0
41
1
10
8.30967508046021
20
-7.64266520230268
30
0
41
1
10
8.36604668219428
20
-7.59122859579529
30
0
41
1
10
8.3983775068167
20
-7.56839473241365
30
0
41
1
10
8.45889576423619
20
-7.54154007085771
30
0
41
1
10
8.48604318765894
20
-7.53384342094336
30
0
41
1
10
8.52183069664622
20
-7.53010833377257
30
0
41
1
10
8.53025906116031
20
-7.52966679426501
30
0
41
1
10
8.5386751345948
20
-7.52966679426501
30
0
0
SPLINE
5
11C
100
AcDbEntity
8
1
62
256
6
ByLayer
370
18
48
1
60
0
100
AcDbSpline
70
4
71
3
72
18
73
14
40
0
40
0
40
0
40
0
40
0.0809805960320617
40
0.0809805960320617
40
0.544227292213939
40
0.544227292213939
40
0.699318265621571
40
0.699318265621571
40
0.85634627435643
40
0.85634627435643
40
0.966571999538782
40
0.966571999538782
40
1
40
1
40
1
40
1
41
1
10
11.8943375672974
20
8.05584836782771
30
0
41
1
10
11.8893471011257
20
8.03731605051115
30
0
41
1
10
11.8840209914239
20
8.01885383673363
30
0
41
1
10
11.845998279105
20
7.89611164850155
30
0
41
1
10
11.8022255638175
20
7.79219397274093
30
0
41
1
10
11.7151274219928
20
7.67169814060131
30
0
41
1
10
11.6903249195398
20
7.64266520230271
30
0
41
1
10
11.6339533178057
20
7.59122859579532
30
0
41
1
10
11.6016224931833
20
7.56839473241365
30
0
41
1
10
11.5411042357638
20
7.54154007085771
30
0
41
1
10
11.5139568123411
20
7.53384342094336
30
0
41
1
10
11.4781693033538
20
7.53010833377257
30
0
41
1
10
11.4697409388397
20
7.52966679426501
30
0
41
1
10
11.4613248654052
20
7.52966679426501
30
0
0
SPLINE
5
11D
100
AcDbEntity
8
1
62
256
6
ByLayer
370
18
48
1
60
0
100
AcDbSpline
70
4
71
3
72
18
73
14
40
0
40
0
40
0
40
0
40
0.0809805960320804
40
0.0809805960320804
40
0.544227292214066
40
0.544227292214066
40
0.699318265621657
40
0.699318265621657
40
0.856346274356474
40
0.856346274356474
40
0.966571999538822
40
0.966571999538822
40
1
40
1
40
1
40
1
41
1
10
8.10566243270259
20
23.6665017920809
30
0
41
1
10
8.11065289887435
20
23.672810013698
30
0
41
1
10
8.11597900857612
20
23.6790700603507
30
0
41
1
10
8.15400172089508
20
23.7205303134149
30
0
41
1
10
8.19777443618253
20
23.7548029562659
30
0
41
1
10
8.28487257800725
20
23.7938243006291
30
0
41
1
10
8.30967508046021
20
23.8031592998669
30
0
41
1
10
8.36604668219428
20
23.8196134016841
30
0
41
1
10
8.3983775068167
20
23.8268687494612
30
0
41
1
10
8.45889576423616
20
23.8353793525422
30
0
41
1
10
8.48604318765894
20
23.8378105604685
30
0
41
1
10
8.52183069664622
20
23.8389905264494
30
0
41
1
10
8.53025906116031
20
23.8391299750503
30
0
41
1
10
8.5386751345948
20
23.8391299750503
30
0
0
SPLINE
5
11E
100
AcDbEntity
8
1
62
256
6
ByLayer
370
18
48
1
60
0
100
AcDbSpline
70
4
71
3
72
16
73
12
40
0
40
0
40
0
40
0
40
0.0773436766578275
40
0.0773436766578275
40
0.181588290672558
40
0.181588290672558
40
0.353924998169923
40
0.353924998169923
40
0.659870482235913
40
0.659870482235913
40
1
40
1
40
1
40
1
41
1
10
8.5386751345948
20
-23.8391299750503
30
0
41
1
10
8.51930872656195
20
-23.8391299750503
30
0
41
1
10
8.4998079520166
20
-23.8383766644784
30
0
41
1
10
8.45563565444411
20
-23.8350242537625
30
0
41
1
10
8.43110003395827
20
-23.8318379431383
30
0
41
1
10
8.37136994789253
20
-23.8212426939765
30
0
41
1
10
8.33841285720999
20
-23.812328084785
30
0
41
1
10
8.25926399475676
20
-23.7850663392819
30
0
41
1
10
8.2201107256756
20
-23.7642694363116
30
0
41
1
10
8.15317557860794
20
-23.7185457490814
30
0
41
1
10
8.12652521949875
20
-23.692873493267
30
0
41
1
10
8.10566243270259
20
-23.6665017920809
30
0
0
SPLINE
5
11F
100
AcDbEntity
8
1
62
256
6
ByLayer
370
18
48
1
60
0
100
AcDbSpline
70
4
71
3
72
16
73
12
40
0
40
0
40
0
40
0
40
0.077343676657813
40
0.077343676657813
40
0.181588290672543
40
0.181588290672543
40
0.353924998169896
40
0.353924998169896
40
0.65987048223586
40
0.65987048223586
40
1
40
1
40
1
40
1
41
1
10
8.5386751345948
20
7.52966679426501
30
0
41
1
10
8.51930872656195
20
7.52966679426501
30
0
41
1
10
8.4998079520166
20
7.53205286469702
30
0
41
1
10
8.45563565444414
20
7.54265601007379
30
0
41
1
10
8.43110003395827
20
7.55272636772355
30
0
41
1
10
8.37136994789256
20
7.58609718460599
30
0
41
1
10
8.33841285720999
20
7.61407037421819
30
0
41
1
10
8.25926399475679
20
7.69895209889248
30
0
41
1
10
8.22011072567562
20
7.76300791758402
30
0
41
1
10
8.15317557860797
20
7.90167589305835
30
0
41
1
10
8.12652521949877
20
7.97837348437849
30
0
41
1
10
8.10566243270259
20
8.05584836782774
30
0
0
SPLINE
5
120
100
AcDbEntity
8
1
62
256
6
ByLayer
370
18
48
1
60
0
100
AcDbSpline
70
4
71
3
72
16
73
12
40
0
40
0
40
0
40
0
40
0.0773436766578823
40
0.0773436766578823
40
0.181588290672624
40
0.181588290672624
40
0.353924998170027
40
0.353924998170027
40
0.659870482236128
40
0.659870482236128
40
1
40
1
40
1
40
1
41
1
10
11.4613248654052
20
-7.52966679426498
30
0
41
1
10
11.480691273438
20
-7.52966679426498
30
0
41
1
10
11.5001920479834
20
-7.53205286469702
30
0
41
1
10
11.5443643455559
20
-7.54265601007381
30
0
41
1
10
11.5688999660418
20
-7.55272636772358
30
0
41
1
10
11.6286300521075
20
-7.58609718460602
30
0
41
1
10
11.6615871427901
20
-7.61407037421822
30
0
41
1
10
11.7407360052433
20
-7.69895209889256
30
0
41
1
10
11.7798892743245
20
-7.76300791758413
30
0
41
1
10
11.8468244213921
20
-7.90167589305847
30
0
41
1
10
11.8734747805012
20
-7.97837348437852
30
0
41
1
10
11.8943375672974
20
-8.05584836782771
30
0
0
SPLINE
5
121
100
AcDbEntity
8
1
62
256
6
ByLayer
370
18
48
1
60
0
100
AcDbSpline
70
4
71
3
72
18
73
14
40
0
40
0
40
0
40
0
40
0.0809805960321048
40
0.0809805960321048
40
0.544227292214095
40
0.544227292214095
40
0.699318265621678
40
0.699318265621678
40
0.856346274356484
40
0.856346274356484
40
0.966571999538835
40
0.966571999538835
40
1
40
1
40
1
40
1
41
1
10
11.8943375672974
20
-23.6665017920809
30
0
41
1
10
11.8893471011257
20
-23.672810013698
30
0
41
1
10
11.8840209914239
20
-23.6790700603507
30
0
41
1
10
11.8459982791049
20
-23.7205303134149
30
0
41
1
10
11.8022255638175
20
-23.7548029562659
30
0
41
1
10
11.7151274219927
20
-23.7938243006291
30
0
41
1
10
11.6903249195398
20
-23.8031592998669
30
0
41
1
10
11.6339533178057
20
-23.8196134016841
30
0
41
1
10
11.6016224931833
20
-23.8268687494612
30
0
41
1
10
11.5411042357638
20
-23.8353793525422
30
0
41
1
10
11.5139568123411
20
-23.8378105604685
30
0
41
1
10
11.4781693033538
20
-23.8389905264494
30
0
41
1
10
11.4697409388397
20
-23.8391299750503
30
0
41
1
10
11.4613248654052
20
-23.8391299750503
30
0
0
SPLINE
5
122
100
AcDbEntity
8
1
62
256
6
ByLayer
370
18
48
1
60
0
100
AcDbSpline
70
4
71
3
72
18
73
14
40
0
40
0
40
0
40
0
40
0.0809805960320918
40
0.0809805960320918
40
0.544227292214084
40
0.544227292214084
40
0.699318265621671
40
0.699318265621671
40
0.856346274356483
40
0.856346274356483
40
0.966571999538831
40
0.966571999538831
40
1
40
1
40
1
40
1
41
1
10
8.10566243270259
20
-8.05584836782774
30
0
41
1
10
8.11065289887435
20
-8.03731605051118
30
0
41
1
10
8.11597900857612
20
-8.01885383673363
30
0
41
1
10
8.15400172089508
20
-7.89611164850155
30
0
41
1
10
8.19777443618253
20
-7.7921939727409
30
0
41
1
10
8.28487257800725
20
-7.67169814060125
30
0
41
1
10
8.30967508046021
20
-7.64266520230268
30
0
41
1
10
8.36604668219428
20
-7.59122859579529
30
0
41
1
10
8.3983775068167
20
-7.56839473241365
30
0
41
1
10
8.45889576423619
20
-7.54154007085771
30
0
41
1
10
8.48604318765894
20
-7.53384342094336
30
0
41
1
10
8.52183069664622
20
-7.53010833377257
30
0
41
1
10
8.53025906116031
20
-7.52966679426501
30
0
41
1
10
8.5386751345948
20
-7.52966679426501
30
0
0
SPLINE
5
123
100
AcDbEntity
8
1
62
256
6
ByLayer
370
18
48
1
60
0
100
AcDbSpline
70
4
71
3
72
16
73
12
40
0
40
0
40
0
40
0
40
0.0773436766578125
40
0.0773436766578125
40
0.181588290672542
40
0.181588290672542
40
0.353924998169895
40
0.353924998169895
40
0.659870482235859
40
0.659870482235859
40
1
40
1
40
1
40
1
41
1
10
8.5386751345948
20
7.52966679426501
30
0
41
1
10
8.51930872656195
20
7.52966679426501
30
0
41
1
10
8.4998079520166
20
7.53205286469702
30
0
41
1
10
8.45563565444411
20
7.54265601007379
30
0
41
1
10
8.43110003395827
20
7.55272636772355
30
0
41
1
10
8.37136994789256
20
7.58609718460599
30
0
41
1
10
8.33841285720999
20
7.61407037421819
30
0
41
1
10
8.25926399475676
20
7.69895209889248
30
0
41
1
10
8.22011072567562
20
7.76300791758402
30
0
41
1
10
8.15317557860797
20
7.90167589305835
30
0
41
1
10
8.12652521949875
20
7.97837348437849
30
0
41
1
10
8.10566243270259
20
8.05584836782774
30
0
0
SPLINE
5
124
100
AcDbEntity
8
1
62
256
6
ByLayer
370
18
48
1
60
0
100
AcDbSpline
70
4
71
3
72
18
73
14
40
0
40
0
40
0
40
0
40
0.0809805960320615
40
0.0809805960320615
40
0.544227292213941
40
0.544227292213941
40
0.699318265621571
40
0.699318265621571
40
0.856346274356429
40
0.856346274356429
40
0.966571999538782
40
0.966571999538782
40
1
40
1
40
1
40
1
41
1
10
11.8943375672974
20
8.05584836782771
30
0
41
1
10
11.8893471011257
20
8.03731605051115
30
0
41
1
10
11.8840209914239
20
8.01885383673363
30
0
41
1
10
11.845998279105
20
7.89611164850155
30
0
41
1
10
11.8022255638175
20
7.79219397274093
30
0
41
1
10
11.7151274219928
20
7.67169814060131
30
0
41
1
10
11.6903249195398
20
7.64266520230271
30
0
41
1
10
11.6339533178057
20
7.59122859579532
30
0
41
1
10
11.6016224931833
20
7.56839473241365
30
0
41
1
10
11.5411042357638
20
7.54154007085771
30
0
41
1
10
11.5139568123411
20
7.53384342094336
30
0
41
1
10
11.4781693033538
20
7.53010833377257
30
0
41
1
10
11.4697409388397
20
7.52966679426501
30
0
41
1
10
11.4613248654052
20
7.52966679426501
30
0
0
SPLINE
5
125
100
AcDbEntity
8
1
62
256
6
ByLayer
370
18
48
1
60
0
100
AcDbSpline
70
4
71
3
72
18
73
14
40
0
40
0
40
0
40
0
40
0.0809805960320801
40
0.0809805960320801
40
0.544227292214068
40
0.544227292214068
40
0.699318265621658
40
0.699318265621658
40
0.856346274356475
40
0.856346274356475
40
0.966571999538822
40
0.966571999538822
40
1
40
1
40
1
40
1
41
1
10
8.10566243270259
20
23.6665017920809
30
0
41
1
10
8.11065289887435
20
23.672810013698
30
0
41
1
10
8.11597900857612
20
23.6790700603507
30
0
41
1
10
8.15400172089508
20
23.7205303134149
30
0
41
1
10
8.19777443618253
20
23.7548029562659
30
0
41
1
10
8.28487257800725
20
23.7938243006291
30
0
41
1
10
8.30967508046021
20
23.8031592998669
30
0
41
1
10
8.36604668219428
20
23.8196134016841
30
0
41
1
10
8.3983775068167
20
23.8268687494612
30
0
41
1
10
8.45889576423616
20
23.8353793525422
30
0
41
1
10
8.48604318765894
20
23.8378105604685
30
0
41
1
10
8.52183069664622
20
23.8389905264494
30
0
41
1
10
8.53025906116031
20
23.8391299750503
30
0
41
1
10
8.5386751345948
20
23.8391299750503
30
0
0
SPLINE
5
126
100
AcDbEntity
8
1
62
256
6
ByLayer
370
18
48
1
60
0
100
AcDbSpline
70
4
71
3
72
16
73
12
40
0
40
0
40
0
40
0
40
0.0773436766578767
40
0.0773436766578767
40
0.181588290672618
40
0.181588290672618
40
0.35392499817001
40
0.35392499817001
40
0.659870482236094
40
0.659870482236094
40
1
40
1
40
1
40
1
41
1
10
11.4613248654052
20
23.8391299750503
30
0
41
1
10
11.480691273438
20
23.8391299750503
30
0
41
1
10
11.5001920479834
20
23.8383766644784
30
0
41
1
10
11.5443643455559
20
23.8350242537625
30
0
41
1
10
11.5688999660418
20
23.8318379431383
30
0
41
1
10
11.6286300521075
20
23.8212426939765
30
0
41
1
10
11.66158714279
20
23.812328084785
30
0
41
1
10
11.7407360052433
20
23.7850663392819
30
0
41
1
10
11.7798892743244
20
23.7642694363116
30
0
41
1
10
11.8468244213921
20
23.7185457490814
30
0
41
1
10
11.8734747805012
20
23.692873493267
30
0
41
1
10
11.8943375672974
20
23.6665017920809
30
0
0
SPLINE
5
127
100
AcDbEntity
8
SK1
62
256
6
ByLayer
370
18
48
1
60
0
100
AcDbSpline
70
4
71
3
72
20
73
16
40
0
40
0
40
0
40
0
40
0.0482142915045603
40
0.0482142915045603
40
0.32489556659692
40
0.32489556659692
40
0.46291793159866
40
0.46291793159866
40
0.600949767396294
40
0.600949767396294
40
0.738995437056052
40
0.738995437056052
40
0.877061363974651
40
0.877061363974651
40
1
40
1
40
1
40
1
41
1
10
-2.20000000000002
20
-15.024780913897
30
0
41
1
10
-2.20000000000002
20
-15.0987632316058
30
0
41
1
10
-2.19999999163144
20
-15.1713153633957
30
0
41
1
10
-2.19999985652709
20
-15.6498272161843
30
0
41
1
10
-2.19999939887509
20
-16.0101821224506
30
0
41
1
10
-2.19999683011551
20
-16.4712024133173
30
0
41
1
10
-2.19999564996832
20
-16.6117543332689
30
0
41
1
10
-2.19999230715834
20
-16.8650200442632
30
0
41
1
10
-2.19999013861346
20
-16.9778482087754
30
0
41
1
10
-2.19998437020209
20
-17.1737303581388
30
0
41
1
10
-2.19998076728288
20
-17.2568757984567
30
0
41
1
10
-2.19997155592219
20
-17.390896629152
30
0
41
1
10
-2.19996594630393
20
-17.4418577268988
30
0
41
1
10
-2.19995278239722
20
-17.5046282196892
30
0
41
1
10
-2.19994549394477
20
-17.5201645225441
30
0
41
1
10
-2.19993683202816
20
-17.5201014540432
30
0
0
SPLINE
5
128
100
AcDbEntity
8
SK1
62
256
6
ByLayer
370
18
48
1
60
0
100
AcDbSpline
70
4
71
3
72
20
73
16
40
0
40
0
40
0
40
0
40
0.106713268043439
40
0.106713268043439
40
0.253973588632826
40
0.253973588632826
40
0.401204679365763
40
0.401204679365763
40
0.548416466828152
40
0.548416466828152
40
0.695615491384278
40
0.695615491384278
40
0.842806095183049
40
0.842806095183049
40
1
40
1
40
1
40
1
41
1
10
-2.19993679437144
20
17.5201067466238
30
0
41
1
10
-2.19994431777533
20
17.5202028706431
30
0
41
1
10
-2.1999508055147
20
17.5085225600388
30
0
41
1
10
-2.19996422500265
20
17.4552443316022
30
0
41
1
10
-2.19997041029711
20
17.4038992989506
30
0
41
1
10
-2.19998045819511
20
17.2645372816575
30
0
41
1
10
-2.19998432672412
20
17.1764163911093
30
0
41
1
10
-2.19999043378135
20
16.9665639550929
30
0
41
1
10
-2.19999267824221
20
16.8447172876608
30
0
41
1
10
-2.19999607391784
20
16.569798663462
30
0
41
1
10
-2.1999972302832
20
16.4165791409565
30
0
41
1
10
-2.1999988585969
20
16.0808080953317
30
0
41
1
10
-2.19999933084273
20
15.8980848535623
30
0
41
1
10
-2.19999991533382
20
15.4916218225697
30
0
41
1
10
-2.20000000000002
20
15.2657541717873
30
0
41
1
10
-2.20000000000002
20
15.0247808645654
30
0
0
SPLINE
5
129
100
AcDbEntity
8
1
62
256
6
ByLayer
370
18
48
1
60
0
100
AcDbSpline
70
4
71
3
72
18
73
14
40
0
40
0
40
0
40
0
40
0.0809805960321051
40
0.0809805960321051
40
0.544227292214096
40
0.544227292214096
40
0.69931826562168
40
0.69931826562168
40
0.856346274356486
40
0.856346274356486
40
0.966571999538835
40
0.966571999538835
40
1
40
1
40
1
40
1
41
1
10
11.8943375672974
20
-23.6665017920809
30
0
41
1
10
11.8893471011257
20
-23.672810013698
30
0
41
1
10
11.8840209914239
20
-23.6790700603507
30
0
41
1
10
11.8459982791049
20
-23.7205303134149
30
0
41
1
10
11.8022255638175
20
-23.7548029562659
30
0
41
1
10
11.7151274219927
20
-23.7938243006291
30
0
41
1
10
11.6903249195398
20
-23.8031592998669
30
0
41
1
10
11.6339533178057
20
-23.8196134016841
30
0
41
1
10
11.6016224931833
20
-23.8268687494612
30
0
41
1
10
11.5411042357638
20
-23.8353793525422
30
0
41
1
10
11.5139568123411
20
-23.8378105604685
30
0
41
1
10
11.4781693033538
20
-23.8389905264494
30
0
41
1
10
11.4697409388397
20
-23.8391299750503
30
0
41
1
10
11.4613248654052
20
-23.8391299750503
30
0
0
SPLINE
5
12A
100
AcDbEntity
8
1
62
256
6
ByLayer
370
18
48
1
60
0
100
AcDbSpline
70
4
71
3
72
16
73
12
40
0
40
0
40
0
40
0
40
0.0773436766578272
40
0.0773436766578272
40
0.181588290672557
40
0.181588290672557
40
0.353924998169922
40
0.353924998169922
40
0.659870482235914
40
0.659870482235914
40
1
40
1
40
1
40
1
41
1
10
8.5386751345948
20
-23.8391299750503
30
0
41
1
10
8.51930872656195
20
-23.8391299750503
30
0
41
1
10
8.4998079520166
20
-23.8383766644784
30
0
41
1
10
8.45563565444411
20
-23.8350242537625
30
0
41
1
10
8.43110003395827
20
-23.8318379431383
30
0
41
1
10
8.37136994789253
20
-23.8212426939765
30
0
41
1
10
8.33841285720999
20
-23.812328084785
30
0
41
1
10
8.25926399475676
20
-23.7850663392819
30
0
41
1
10
8.2201107256756
20
-23.7642694363116
30
0
41
1
10
8.15317557860794
20
-23.7185457490814
30
0
41
1
10
8.12652521949875
20
-23.692873493267
30
0
41
1
10
8.10566243270259
20
-23.6665017920809
30
0
0
SPLINE
5
12B
100
AcDbEntity
8
1
62
256
6
ByLayer
370
18
48
1
60
0
100
AcDbSpline
70
4
71
3
72
16
73
12
40
0
40
0
40
0
40
0
40
0.0773436766578804
40
0.0773436766578804
40
0.181588290672623
40
0.181588290672623
40
0.353924998170025
40
0.353924998170025
40
0.659870482236127
40
0.659870482236127
40
1
40
1
40
1
40
1
41
1
10
11.4613248654052
20
-7.52966679426498
30
0
41
1
10
11.480691273438
20
-7.52966679426498
30
0
41
1
10
11.5001920479834
20
-7.53205286469702
30
0
41
1
10
11.5443643455559
20
-7.54265601007381
30
0
41
1
10
11.5688999660418
20
-7.55272636772358
30
0
41
1
10
11.6286300521075
20
-7.58609718460602
30
0
41
1
10
11.6615871427901
20
-7.61407037421822
30
0
41
1
10
11.7407360052433
20
-7.69895209889256
30
0
41
1
10
11.7798892743245
20
-7.76300791758413
30
0
41
1
10
11.8468244213921
20
-7.90167589305847
30
0
41
1
10
11.8734747805012
20
-7.97837348437852
30
0
41
1
10
11.8943375672974
20
-8.05584836782771
30
0
0
SPLINE
5
12C
100
AcDbEntity
8
1
62
256
6
ByLayer
370
18
48
1
60
0
100
AcDbSpline
70
4
71
3
72
10
73
6
40
0
40
0
40
0
40
0
40
0.5
40
0.5
40
1
40
1
40
1
40
1
41
1
10
25.1986836101023
20
23.8614357137371
30
0
41
1
10
25.1417151201367
20
24.9042152940369
30
0
41
1
10
25.1062554086518
20
25.9469575146008
30
0
41
1
10
25.0796453603655
20
28.0323649924304
30
0
41
1
10
25.0884980212794
20
29.0750302444892
30
0
41
1
10
25.1193386984253
20
30.1176573043988
30
0
0
SPLINE
5
12D
100
AcDbEntity
8
1
62
256
6
ByLayer
370
18
48
1
60
0
100
AcDbSpline
70
4
71
3
72
14
73
10
40
0
40
0
40
0
40
0
40
0.25
40
0.25
40
0.5
40
0.5
40
0.75
40
0.75
40
1
40
1
40
1
40
1
41
1
10
23.3468382288173
20
-28.3451568347895
30
0
41
1
10
23.2300945408287
20
-27.087629931552
30
0
41
1
10
23.1497631469334
20
-25.8301030283145
30
0
41
1
10
23.0681357244376
20
-23.3150492218394
30
0
41
1
10
23.0668832095431
20
-22.0575223186019
30
0
41
1
10
23.1436028886582
20
-19.5424685121268
30
0
41
1
10
23.2215340033408
20
-18.2849416088893
30
0
41
1
10
23.4504937276029
20
-15.7698878024142
30
0
41
1
10
23.6014294723048
20
-14.5123608991767
30
0
41
1
10
23.7837872940367
20
-13.2548339959391
30
0
0
SPLINE
5
12E
100
AcDbEntity
8
1
62
256
6
ByLayer
370
18
48
1
60
0
100
AcDbSpline
70
4
71
3
72
26
73
22
40
0
40
0
40
0
40
0
40
0.125
40
0.125
40
0.25
40
0.25
40
0.375
40
0.375
40
0.5
40
0.5
40
0.625
40
0.625
40
0.75
40
0.75
40
0.78125
40
0.78125
40
0.8125
40
0.8125
40
0.875
40
0.875
40
1
40
1
40
1
40
1
41
1
10
23.7837872940368
20
-13.2548339959391
30
0
41
1
10
23.6258037134349
20
-11.7141277627898
30
0
41
1
10
23.4912952709473
20
-10.1726049255315
30
0
41
1
10
23.2760577056905
20
-7.08768848828521
30
0
41
1
10
23.1953764346859
20
-5.54429322372987
30
0
41
1
10
23.0927221686936
20
-2.45546047364514
30
0
41
1
10
23.0707813432432
20
-0.910021869069018
30
0
41
1
10
23.0872617869037
20
2.18295509064506
30
0
41
1
10
23.1256802563633
20
3.73049334839459
30
0
41
1
10
23.2607576491911
20
6.82759581124861
30
0
41
1
10
23.3573806061449
20
8.37715876522854
30
0
41
1
10
23.6035825463779
20
11.4781267969059
30
0
41
1
10
23.753113425839
20
13.0295302012681
30
0
41
1
10
23.9686893132729
20
14.9697815005775
30
0
41
1
10
24.0132352221675
20
15.3578815297375
30
0
41
1
10
24.1050722310559
20
16.1341770820358
30
0
41
1
10
24.1523692362511
20
16.5224131827632
30
0
41
1
10
24.2980232852682
20
17.6858663623393
30
0
41
1
10
24.4001950409577
20
18.4602937158499
30
0
41
1
10
24.7204402661651
20
20.7803035389108
30
0
41
1
10
24.9522063699179
20
22.3226226663326
30
0
41
1
10
25.1986836101023
20
23.8614357137371
30
0
0
SPLINE
5
12F
100
AcDbEntity
8
1
62
256
6
ByLayer
370
18
48
1
60
0
100
AcDbSpline
70
4
71
3
72
25
73
21
40
0
40
0
40
0
40
0
40
0.124999999999996
40
0.124999999999996
40
0.249999999999993
40
0.249999999999993
40
0.374999999999989
40
0.374999999999989
40
0.43749999999999
40
0.43749999999999
40
0.499999999999991
40
0.499999999999991
40
0.749999999999993
40
0.749999999999993
40
0.874999999999997
40
0.874999999999997
40
0.937499999999996
40
0.968749999999998
40
0.968749999999998
40
1
40
1
40
1
40
1
41
1
10
59.1432663422116
20
-17.6559763900524
30
0
41
1
10
58.9219537921828
20
-17.7328640073694
30
0
41
1
10
58.705104805862
20
-17.8154466618192
30
0
41
1
10
58.2790736714339
20
-17.991783129969
30
0
41
1
10
58.0699049366342
20
-18.0855369285538
30
0
41
1
10
57.6585460004401
20
-18.2841313665459
30
0
41
1
10
57.4563608921623
20
-18.3889720468202
30
0
41
1
10
57.1580031886044
20
-18.5545849388701
30
0
41
1
10
57.0592305689884
20
-18.6112687115828
30
0
41
1
10
56.864234717771
20
-18.7268731119891
30
0
41
1
10
56.7679673256941
20
-18.7858117352153
30
0
41
1
10
56.2924851974629
20
-19.0861545504768
30
0
41
1
10
55.9306857375171
20
-19.3444310798897
30
0
41
1
10
55.4122741906177
20
-19.7591560137579
30
0
41
1
10
55.2435477326404
20
-19.9019643753482
30
0
41
1
10
54.996335378023
20
-20.123208806498
30
0
41
1
10
54.8742003110868
20
-20.2355905598992
30
0
41
1
10
54.7542419505121
20
-20.3506608682453
30
0
41
1
10
54.674751028961
20
-20.4279784766447
30
0
41
1
10
54.6350641167509
20
-20.4671223406655
30
0
41
1
10
54.5960898030063
20
-20.50609665441
30
0
0
SPLINE
5
130
100
AcDbEntity
8
1
62
256
6
ByLayer
370
18
48
1
60
0
100
AcDbSpline
70
4
71
3
72
20
73
16
40
0
40
0
40
0
40
0
40
0.25000000000004
40
0.25000000000004
40
0.375000000000033
40
0.375000000000033
40
0.500000000000026
40
0.500000000000026
40
0.62500000000002
40
0.62500000000002
40
0.750000000000013
40
0.750000000000013
40
0.875000000000007
40
0.875000000000007
40
1
40
1
40
1
40
1
41
1
10
71.5640605297989
20
-6.3090294311075
30
0
41
1
10
71.5177795470038
20
-6.3489639110436
30
0
41
1
10
71.4665916010203
20
-6.38063796247973
30
0
41
1
10
71.3826634295528
20
-6.41611897022209
30
0
41
1
10
71.3535900969811
20
-6.42578426787185
30
0
41
1
10
71.2950464945406
20
-6.4401393585952
30
0
41
1
10
71.2653314945384
20
-6.44494443283843
30
0
41
1
10
71.2049464912477
20
-6.44944238831419
30
0
41
1
10
71.1741254250586
20
-6.4490693793735
30
0
41
1
10
71.1139613197784
20
-6.44264879269954
30
0
41
1
10
71.0843236419931
20
-6.43666142164512
30
0
41
1
10
71.0260705736705
20
-6.41829799415958
30
0
41
1
10
70.9980724191538
20
-6.4060672415228
30
0
41
1
10
70.945807848918
20
-6.37541583463714
30
0
41
1
10
70.9211820006286
20
-6.356725293948
30
0
41
1
10
70.8994707316302
20
-6.33501402494954
30
0
0
LINE
5
70
100
AcDbEntity
8
1
62
256
6
ByLayer
370
18
48
1
60
0
100
AcDbLine
10
20
20
-25
30
0
11
0.3
21
-25
31
0
39
0
210
0
220
0
230
1
0
LINE
5
72
100
AcDbEntity
8
1
62
256
6
ByLayer
370
18
48
1
60
0
100
AcDbLine
10
0.3
20
25
30
0
11
19.079208
21
25
31
0
39
0
210
0
220
0
230
1
0
LINE
5
73
100
AcDbEntity
8
1
62
256
6
ByLayer
370
18
48
1
60
0
100
AcDbLine
10
0.3
20
-25
30
0
11
0
21
-24.7
31
0
39
0
210
0
220
0
230
1
0
LINE
5
74
100
AcDbEntity
8
1
62
256
6
ByLayer
370
18
48
1
60
0
100
AcDbLine
10
0
20
24.7
30
0
11
0.3
21
25
31
0
39
0
210
0
220
0
230
1
0
LINE
5
75
100
AcDbEntity
8
1
62
256
6
ByLayer
370
18
48
1
60
0
100
AcDbLine
10
0.3
20
-25
30
0
11
0
21
-24.7
31
0
39
0
210
0
220
0
230
1
0
LINE
5
76
100
AcDbEntity
8
1
62
256
6
ByLayer
370
18
48
1
60
0
100
AcDbLine
10
0
20
24.7
30
0
11
0.3
21
25
31
0
39
0
210
0
220
0
230
1
0
LINE
5
77
100
AcDbEntity
8
1
62
256
6
ByLayer
370
13
48
1
60
0
100
AcDbLine
10
11.894338
20
-8.055848
30
0
11
11.894338
21
-23.666502
31
0
39
0
210
0
220
0
230
1
0
LINE
5
78
100
AcDbEntity
8
1
62
256
6
ByLayer
370
18
48
1
60
0
100
AcDbLine
10
0.3
20
-25
30
0
11
0.3
21
25
31
0
39
0
210
0
220
0
230
1
0
LINE
5
79
100
AcDbEntity
8
1
62
256
6
ByLayer
370
18
48
1
60
0
100
AcDbLine
10
11.461325
20
-7.529667
30
0
11
8.538675
21
-7.529667
31
0
39
0
210
0
220
0
230
1
0
LINE
5
7A
100
AcDbEntity
8
1
62
256
6
ByLayer
370
13
48
1
60
0
100
AcDbLine
10
11.461325
20
-7.529667
30
0
11
11.461325
21
-23.83913
31
0
39
0
210
0
220
0
230
1
0
LINE
5
7B
100
AcDbEntity
8
SK1
62
256
6
ByLayer
370
18
48
1
60
0
100
AcDbLine
10
-2.2
20
-10.241692
30
0
11
-2.2
21
-15.024781
31
0
39
0
210
0
220
0
230
1
0
LINE
5
7D
100
AcDbEntity
8
1
62
256
6
ByLayer
370
18
48
1
60
0
100
AcDbLine
10
8.538675
20
-23.83913
30
0
11
11.461325
21
-23.83913
31
0
39
0
210
0
220
0
230
1
0
LINE
5
7E
100
AcDbEntity
8
1
62
256
6
ByLayer
370
13
48
1
60
0
100
AcDbLine
10
11.894338
20
23.666502
30
0
11
11.894338
21
8.055848
31
0
39
0
210
0
220
0
230
1
0
LINE
5
7F
100
AcDbEntity
8
SK1
62
256
6
ByLayer
370
18
48
1
60
0
100
AcDbLine
10
-28.500473
20
-16.859339
30
0
11
-28.500473
21
16.859339
31
0
39
0
210
0
220
0
230
1
0
LINE
5
80
100
AcDbEntity
8
SK1
62
256
6
ByLayer
370
18
48
1
60
0
100
AcDbLine
10
-2.2
20
10.241692
30
0
11
-2.2
21
-10.241692
31
0
39
0
210
0
220
0
230
1
0
LINE
5
81
100
AcDbEntity
8
1
62
256
6
ByLayer
370
13
48
1
60
0
100
AcDbLine
10
8.538675
20
-7.529667
30
0
11
8.538675
21
-23.83913
31
0
39
0
210
0
220
0
230
1
0
LINE
5
82
100
AcDbEntity
8
1
62
256
6
ByLayer
370
18
48
1
60
0
100
AcDbLine
10
11.461325
20
23.83913
30
0
11
8.538675
21
23.83913
31
0
39
0
210
0
220
0
230
1
0
LINE
5
83
100
AcDbEntity
8
SK1
62
256
6
ByLayer
370
13
48
1
60
0
100
AcDbLine
10
-2
20
-17.32515
30
0
11
-2
21
17.32515
31
0
39
0
210
0
220
0
230
1
0
LINE
5
84
100
AcDbEntity
8
1
62
256
6
ByLayer
370
18
48
1
60
0
100
AcDbLine
10
0
20
24.7
30
0
11
0
21
-24.7
31
0
39
0
210
0
220
0
230
1
0
LINE
5
85
100
AcDbEntity
8
1
62
256
6
ByLayer
370
13
48
1
60
0
100
AcDbLine
10
11.461325
20
23.83913
30
0
11
11.461325
21
7.529667
31
0
39
0
210
0
220
0
230
1
0
LINE
5
86
100
AcDbEntity
8
1
62
256
6
ByLayer
370
18
48
1
60
0
100
AcDbLine
10
20
20
25
30
0
11
20
21
-25
31
0
39
0
210
0
220
0
230
1
0
LINE
5
87
100
AcDbEntity
8
1
62
256
6
ByLayer
370
13
48
1
60
0
100
AcDbLine
10
8.538675
20
23.83913
30
0
11
8.538675
21
7.529667
31
0
39
0
210
0
220
0
230
1
0
LINE
5
88
100
AcDbEntity
8
1
62
256
6
ByLayer
370
13
48
1
60
0
100
AcDbLine
10
8.105662
20
-8.055848
30
0
11
8.105662
21
-23.666502
31
0
39
0
210
0
220
0
230
1
0
LINE
5
89
100
AcDbEntity
8
1
62
256
6
ByLayer
370
18
48
1
60
0
100
AcDbLine
10
8.538675
20
7.529667
30
0
11
11.461325
21
7.529667
31
0
39
0
210
0
220
0
230
1
0
LINE
5
8A
100
AcDbEntity
8
SK1
62
256
6
ByLayer
370
18
48
1
60
0
100
AcDbLine
10
-30
20
15.939357
30
0
11
-30
21
-15.940851
31
0
39
0
210
0
220
0
230
1
0
LINE
5
8B
100
AcDbEntity
8
SK1
62
256
6
ByLayer
370
18
48
1
60
0
100
AcDbLine
10
-2.2
20
15.024781
30
0
11
-2.2
21
10.241692
31
0
39
0
210
0
220
0
230
1
0
LINE
5
8C
100
AcDbEntity
8
1
62
256
6
ByLayer
370
13
48
1
60
0
100
AcDbLine
10
8.105662
20
23.666502
30
0
11
8.105662
21
8.055848
31
0
39
0
210
0
220
0
230
1
0
LINE
5
8D
100
AcDbEntity
8
SK1
62
256
6
ByLayer
370
18
48
1
60
0
100
AcDbLine
10
-30
20
15.939357
30
0
11
-30
21
-15.940851
31
0
39
0
210
0
220
0
230
1
0
LINE
5
8E
100
AcDbEntity
8
SK1
62
256
6
ByLayer
370
13
48
1
60
0
100
AcDbLine
10
-2
20
-17.32515
30
0
11
-2
21
17.32515
31
0
39
0
210
0
220
0
230
1
0
LINE
5
8F
100
AcDbEntity
8
1
62
256
6
ByLayer
370
18
48
1
60
0
100
AcDbLine
10
0
20
24.7
30
0
11
0
21
-24.7
31
0
39
0
210
0
220
0
230
1
0
LINE
5
90
100
AcDbEntity
8
1
62
256
6
ByLayer
370
18
48
1
60
0
100
AcDbLine
10
8.538675
20
7.529667
30
0
11
11.461325
21
7.529667
31
0
39
0
210
0
220
0
230
1
0
LINE
5
91
100
AcDbEntity
8
1
62
256
6
ByLayer
370
13
48
1
60
0
100
AcDbLine
10
8.105662
20
23.666502
30
0
11
8.105662
21
8.055848
31
0
39
0
210
0
220
0
230
1
0
LINE
5
92
100
AcDbEntity
8
1
62
256
6
ByLayer
370
18
48
1
60
0
100
AcDbLine
10
11.461325
20
23.83913
30
0
11
8.538675
21
23.83913
31
0
39
0
210
0
220
0
230
1
0
LINE
5
93
100
AcDbEntity
8
1
62
256
6
ByLayer
370
13
48
1
60
0
100
AcDbLine
10
11.461325
20
23.83913
30
0
11
11.461325
21
7.529667
31
0
39
0
210
0
220
0
230
1
0
LINE
5
94
100
AcDbEntity
8
1
62
256
6
ByLayer
370
13
48
1
60
0
100
AcDbLine
10
8.538675
20
23.83913
30
0
11
8.538675
21
7.529667
31
0
39
0
210
0
220
0
230
1
0
LINE
5
95
100
AcDbEntity
8
1
62
256
6
ByLayer
370
18
48
1
60
0
100
AcDbLine
10
8.538675
20
-23.83913
30
0
11
11.461325
21
-23.83913
31
0
39
0
210
0
220
0
230
1
0
LINE
5
96
100
AcDbEntity
8
1
62
256
6
ByLayer
370
13
48
1
60
0
100
AcDbLine
10
11.894338
20
23.666502
30
0
11
11.894338
21
8.055848
31
0
39
0
210
0
220
0
230
1
0
LINE
5
97
100
AcDbEntity
8
1
62
256
6
ByLayer
370
18
48
1
60
0
100
AcDbLine
10
20
20
25
30
0
11
20
21
-25
31
0
39
0
210
0
220
0
230
1
0
LINE
5
98
100
AcDbEntity
8
SK1
62
256
6
ByLayer
370
18
48
1
60
0
100
AcDbLine
10
-28.500473
20
-16.859339
30
0
11
-28.500473
21
16.859339
31
0
39
0
210
0
220
0
230
1
0
LINE
5
99
100
AcDbEntity
8
SK1
62
256
6
ByLayer
370
18
48
1
60
0
100
AcDbLine
10
-2.2
20
10.241692
30
0
11
-2.2
21
-10.241692
31
0
39
0
210
0
220
0
230
1
0
LINE
5
9A
100
AcDbEntity
8
1
62
256
6
ByLayer
370
18
48
1
60
0
100
AcDbLine
10
11.461325
20
-7.529667
30
0
11
8.538675
21
-7.529667
31
0
39
0
210
0
220
0
230
1
0
LINE
5
9B
100
AcDbEntity
8
1
62
256
6
ByLayer
370
13
48
1
60
0
100
AcDbLine
10
11.461325
20
-7.529667
30
0
11
11.461325
21
-23.83913
31
0
39
0
210
0
220
0
230
1
0
LINE
5
9C
100
AcDbEntity
8
SK1
62
256
6
ByLayer
370
18
48
1
60
0
100
AcDbLine
10
-2.2
20
-10.241692
30
0
11
-2.2
21
-15.024781
31
0
39
0
210
0
220
0
230
1
0
LINE
5
9D
100
AcDbEntity
8
SK1
62
256
6
ByLayer
370
18
48
1
60
0
100
AcDbLine
10
-0.2
20
5.881424
30
0
11
-0.2
21
17.833485
31
0
39
0
210
0
220
0
230
1
0
LINE
5
9E
100
AcDbEntity
8
1
62
256
6
ByLayer
370
13
48
1
60
0
100
AcDbLine
10
8.105662
20
-8.055848
30
0
11
8.105662
21
-23.666502
31
0
39
0
210
0
220
0
230
1
0
LINE
5
9F
100
AcDbEntity
8
1
62
256
6
ByLayer
370
13
48
1
60
0
100
AcDbLine
10
11.894338
20
-8.055848
30
0
11
11.894338
21
-23.666502
31
0
39
0
210
0
220
0
230
1
0
LINE
5
A0
100
AcDbEntity
8
1
62
256
6
ByLayer
370
18
48
1
60
0
100
AcDbLine
10
0.3
20
-25
30
0
11
0.3
21
25
31
0
39
0
210
0
220
0
230
1
0
LINE
5
A1
100
AcDbEntity
8
1
62
256
6
ByLayer
370
13
48
1
60
0
100
AcDbLine
10
8.538675
20
-7.529667
30
0
11
8.538675
21
-23.83913
31
0
39
0
210
0
220
0
230
1
0
LINE
5
A2
100
AcDbEntity
8
SK1
62
256
6
ByLayer
370
18
48
1
60
0
100
AcDbLine
10
-2.2
20
15.024781
30
0
11
-2.2
21
10.241692
31
0
39
0
210
0
220
0
230
1
0
LINE
5
A3
100
AcDbEntity
8
SK1
62
256
6
ByLayer
370
18
48
1
60
0
100
AcDbLine
10
-0.2
20
-17.833485
30
0
11
-0.2
21
-5.881425
31
0
39
0
210
0
220
0
230
1
0
LINE
5
A4
100
AcDbEntity
8
81
62
256
6
ByLayer
370
13
48
1
60
0
100
AcDbLine
10
77.930614
20
-7.071068
30
0
11
85.001681
21
-14.142136
31
0
39
0
210
0
220
0
230
1
0
LINE
5
A5
100
AcDbEntity
8
80
62
256
6
ByLayer
370
13
48
1
60
0
100
AcDbLine
10
0
20
0
30
0
11
-10
21
0
31
0
39
0
210
0
220
0
230
1
0
LINE
5
A6
100
AcDbEntity
8
1
62
256
6
ByLayer
370
18
48
1
60
0
100
AcDbLine
10
60.847352
20
-14.254834
30
0
11
60.433139
21
-13.254834
31
0
39
0
210
0
220
0
230
1
0
LINE
5
A7
100
AcDbEntity
8
1
62
256
6
ByLayer
370
18
48
1
60
0
100
AcDbLine
10
43.102186
20
-32
30
0
11
60.847352
21
-14.254834
31
0
39
0
210
0
220
0
230
1
0
LINE
5
A8
100
AcDbEntity
8
1
62
256
6
ByLayer
370
18
48
1
60
0
100
AcDbLine
10
27.001681
20
-32
30
0
11
43.102186
21
-32
31
0
39
0
210
0
220
0
230
1
0
LINE
5
A9
100
AcDbEntity
8
1
62
256
6
ByLayer
370
18
48
1
60
0
100
AcDbLine
10
23.346838
20
-28.345157
30
0
11
27.001681
21
-32
31
0
39
0
210
0
220
0
230
1
0
LINE
5
AA
100
AcDbEntity
8
1
62
256
6
ByLayer
370
18
48
1
60
0
100
AcDbLine
10
37.805722
20
23.861436
30
0
11
25.198684
21
23.861436
31
0
39
0
210
0
220
0
230
1
0
LINE
5
AB
100
AcDbEntity
8
1
62
256
6
ByLayer
370
18
48
1
60
0
100
AcDbLine
10
60.433139
20
-13.254834
30
0
11
67.677565
21
-6.010408
31
0
39
0
210
0
220
0
230
1
0
LINE
5
AC
100
AcDbEntity
8
1
62
256
6
ByLayer
370
18
48
1
60
0
100
AcDbLine
10
21.44
20
-25.889417
30
0
11
21.44
21
25.889417
31
0
39
0
210
0
220
0
230
1
0
LINE
5
AD
100
AcDbEntity
8
1
62
256
6
ByLayer
370
18
48
1
60
0
100
AcDbLine
10
21.640948
20
26.639266
30
0
11
25.811353
21
30.809671
31
0
39
0
210
0
220
0
230
1
0
LINE
5
AE
100
AcDbEntity
8
1
62
256
6
ByLayer
370
18
48
1
60
0
100
AcDbLine
10
21.640912
20
-26.639231
30
0
11
23.346838
21
-28.345157
31
0
39
0
210
0
220
0
230
1
0
LINE
5
AF
100
AcDbEntity
8
1
62
256
6
ByLayer
370
18
48
1
60
0
100
AcDbLine
10
60.433139
20
-13.254834
30
0
11
23.783787
21
-13.254834
31
0
39
0
210
0
220
0
230
1
0
LINE
5
B0
100
AcDbEntity
8
1
62
256
6
ByLayer
370
18
48
1
60
0
100
AcDbLine
10
27.001681
20
32
30
0
11
41.176826
21
32
31
0
39
0
210
0
220
0
230
1
0
LINE
5
B1
100
AcDbEntity
8
1
62
256
6
ByLayer
370
18
48
1
60
0
100
AcDbLine
10
25.119339
20
30.117657
30
0
11
27.001681
21
32
31
0
39
0
210
0
220
0
230
1
0
LINE
5
B2
100
AcDbEntity
8
1
62
256
6
ByLayer
370
18
48
1
60
0
100
AcDbLine
10
41.176826
20
32
30
0
11
53.001681
21
32
31
0
39
0
210
0
220
0
230
1
0
LINE
5
B3
100
AcDbEntity
8
1
62
256
6
ByLayer
370
18
48
1
60
0
100
AcDbLine
10
75.809293
20
9.192388
30
0
11
53.001681
21
32
31
0
39
0
210
0
220
0
230
1
0
LINE
5
B4
100
AcDbEntity
8
1
62
256
6
ByLayer
370
18
48
1
60
0
100
AcDbLine
10
75.809293
20
2.12132
30
0
11
75.809293
21
9.192388
31
0
39
0
210
0
220
0
230
1
0
LINE
5
B5
100
AcDbEntity
8
1
62
256
6
ByLayer
370
18
48
1
60
0
100
AcDbLine
10
67.677565
20
-6.010408
30
0
11
75.809293
21
2.12132
31
0
39
0
210
0
220
0
230
1
0
LINE
5
B6
100
AcDbEntity
8
1
62
256
6
ByLayer
370
18
48
1
60
0
100
AcDbLine
10
37.805722
20
23.861436
30
0
11
41.176826
21
32
31
0
39
0
210
0
220
0
230
1
0
LINE
5
B7
100
AcDbEntity
8
1
62
256
6
ByLayer
370
18
48
1
60
0
100
AcDbLine
10
67.677565
20
-6.010408
30
0
11
37.805722
21
23.861436
31
0
39
0
210
0
220
0
230
1
0
LINE
5
B8
100
AcDbEntity
8
1
62
256
6
ByLayer
370
18
48
1
60
0
100
AcDbLine
10
75.809293
20
0.707107
30
0
11
68.091779
21
-7.010408
31
0
39
0
210
0
220
0
230
1
0
LINE
5
B9
100
AcDbEntity
8
1
62
256
6
ByLayer
370
18
48
1
60
0
100
AcDbLine
10
75.809293
20
0.707107
30
0
11
75.809293
21
2.12132
31
0
39
0
210
0
220
0
230
1
0
LINE
5
BA
100
AcDbEntity
8
1
62
256
6
ByLayer
370
18
48
1
60
0
100
AcDbLine
10
68.091779
20
-7.010408
30
0
11
67.677565
21
-6.010408
31
0
39
0
210
0
220
0
230
1
0
LINE
5
BB
100
AcDbEntity
8
1
62
256
6
ByLayer
370
18
48
1
60
0
100
AcDbLine
10
60.847352
20
-14.254834
30
0
11
68.091779
21
-7.010408
31
0
39
0
210
0
220
0
230
1
0
LINE
5
BC
100
AcDbEntity
8
1
62
256
6
ByLayer
370
18
48
1
60
0
100
AcDbLine
10
67.746847
20
-17.254834
30
0
11
83.587468
21
-1.414214
31
0
39
0
210
0
220
0
230
1
0
LINE
5
BD
100
AcDbEntity
8
1
62
256
6
ByLayer
370
18
48
1
60
0
100
AcDbLine
10
69.303911
20
-12.869343
30
0
11
83.233914
21
1.06066
31
0
39
0
210
0
220
0
230
1
0
LINE
5
BE
100
AcDbEntity
8
1
62
256
6
ByLayer
370
18
48
1
60
0
100
AcDbLine
10
26.501681
20
31.5
30
0
11
52.794575
21
31.5
31
0
39
0
210
0
220
0
230
1
0
LINE
5
BF
100
AcDbEntity
8
1
62
256
6
ByLayer
370
18
48
1
60
0
100
AcDbLine
10
25.718124
20
30.716443
30
0
11
26.501681
21
31.5
31
0
39
0
210
0
220
0
230
1
0
LINE
5
C0
100
AcDbEntity
8
1
62
256
6
ByLayer
370
18
48
1
60
0
100
AcDbLine
10
83.233914
20
1.06066
30
0
11
52.794575
21
31.5
31
0
39
0
210
0
220
0
230
1
0
LINE
5
C1
100
AcDbEntity
8
1
62
256
6
ByLayer
370
18
48
1
60
0
100
AcDbLine
10
83.233914
20
1.06066
30
0
11
83.587468
21
1.06066
31
0
39
0
210
0
220
0
230
1
0
LINE
5
C2
100
AcDbEntity
8
1
62
256
6
ByLayer
370
18
48
1
60
0
100
AcDbLine
10
67.259462
20
-17.74222
30
0
11
67.746847
21
-17.254834
31
0
39
0
210
0
220
0
230
1
0
LINE
5
C3
100
AcDbEntity
8
1
62
256
6
ByLayer
370
18
48
1
60
0
100
AcDbLine
10
45.363662
20
21.96035
30
0
11
43.322421
21
24.001591
31
0
39
0
210
0
220
0
230
1
0
LINE
5
C4
100
AcDbEntity
8
1
62
256
6
ByLayer
370
18
48
1
60
0
100
AcDbLine
10
43.322421
20
24.001591
30
0
11
44.069567
21
26.789979
31
0
39
0
210
0
220
0
230
1
0
LINE
5
C5
100
AcDbEntity
8
1
62
256
6
ByLayer
370
18
48
1
60
0
100
AcDbLine
10
44.069567
20
26.789979
30
0
11
46.857955
21
27.537125
31
0
39
0
210
0
220
0
230
1
0
LINE
5
C6
100
AcDbEntity
8
1
62
256
6
ByLayer
370
18
48
1
60
0
100
AcDbLine
10
46.857955
20
27.537125
30
0
11
48.899196
21
25.495884
31
0
39
0
210
0
220
0
230
1
0
LINE
5
C7
100
AcDbEntity
8
1
62
256
6
ByLayer
370
18
48
1
60
0
100
AcDbLine
10
48.899196
20
25.495884
30
0
11
48.15205
21
22.707496
31
0
39
0
210
0
220
0
230
1
0
LINE
5
C8
100
AcDbEntity
8
1
62
256
6
ByLayer
370
18
48
1
60
0
100
AcDbLine
10
48.15205
20
22.707496
30
0
11
45.363662
21
21.96035
31
0
39
0
210
0
220
0
230
1
0
LINE
5
C9
100
AcDbEntity
8
1
62
256
6
ByLayer
370
18
48
1
60
0
100
AcDbLine
10
57.464556
20
16.930523
30
0
11
54.676169
21
16.183377
31
0
39
0
210
0
220
0
230
1
0
LINE
5
CA
100
AcDbEntity
8
1
62
256
6
ByLayer
370
18
48
1
60
0
100
AcDbLine
10
54.676169
20
16.183377
30
0
11
53.929022
21
13.394989
31
0
39
0
210
0
220
0
230
1
0
LINE
5
CB
100
AcDbEntity
8
1
62
256
6
ByLayer
370
18
48
1
60
0
100
AcDbLine
10
53.929022
20
13.394989
30
0
11
55.970264
21
11.353748
31
0
39
0
210
0
220
0
230
1
0
LINE
5
CC
100
AcDbEntity
8
1
62
256
6
ByLayer
370
18
48
1
60
0
100
AcDbLine
10
55.970264
20
11.353748
30
0
11
58.758652
21
12.100894
31
0
39
0
210
0
220
0
230
1
0
LINE
5
CD
100
AcDbEntity
8
1
62
256
6
ByLayer
370
18
48
1
60
0
100
AcDbLine
10
58.758652
20
12.100894
30
0
11
59.505798
21
14.889282
31
0
39
0
210
0
220
0
230
1
0
LINE
5
CE
100
AcDbEntity
8
1
62
256
6
ByLayer
370
18
48
1
60
0
100
AcDbLine
10
59.505798
20
14.889282
30
0
11
57.464556
21
16.930523
31
0
39
0
210
0
220
0
230
1
0
LINE
5
CF
100
AcDbEntity
8
1
62
256
6
ByLayer
370
18
48
1
60
0
100
AcDbLine
10
66.576866
20
0.747146
30
0
11
64.535624
21
2.788388
31
0
39
0
210
0
220
0
230
1
0
LINE
5
D0
100
AcDbEntity
8
1
62
256
6
ByLayer
370
18
48
1
60
0
100
AcDbLine
10
64.535624
20
2.788388
30
0
11
65.28277
21
5.576775
31
0
39
0
210
0
220
0
230
1
0
LINE
5
D1
100
AcDbEntity
8
1
62
256
6
ByLayer
370
18
48
1
60
0
100
AcDbLine
10
65.28277
20
5.576775
30
0
11
68.071158
21
6.323922
31
0
39
0
210
0
220
0
230
1
0
LINE
5
D2
100
AcDbEntity
8
1
62
256
6
ByLayer
370
18
48
1
60
0
100
AcDbLine
10
68.071158
20
6.323922
30
0
11
70.1124
21
4.28268
31
0
39
0
210
0
220
0
230
1
0
LINE
5
D3
100
AcDbEntity
8
1
62
256
6
ByLayer
370
18
48
1
60
0
100
AcDbLine
10
70.1124
20
4.28268
30
0
11
69.365253
21
1.494292
31
0
39
0
210
0
220
0
230
1
0
LINE
5
D4
100
AcDbEntity
8
1
62
256
6
ByLayer
370
18
48
1
60
0
100
AcDbLine
10
69.365253
20
1.494292
30
0
11
66.576866
21
0.747146
31
0
39
0
210
0
220
0
230
1
0
LINE
5
D5
100
AcDbEntity
8
1
62
256
6
ByLayer
370
18
48
1
60
0
100
AcDbLine
10
21.438319
20
-25.889417
30
0
11
21.638615
21
-26.636934
31
0
39
0
210
0
220
0
230
1
0
LINE
5
D6
100
AcDbEntity
8
1
62
256
6
ByLayer
370
18
48
1
60
0
100
AcDbLine
10
0.3
20
25
30
0
11
20.279208
21
25
31
0
39
0
210
0
220
0
230
1
0
LINE
5
D7
100
AcDbEntity
8
1
62
256
6
ByLayer
370
18
48
1
60
0
100
AcDbLine
10
21.438319
20
25.889417
30
0
11
21.638615
21
26.636934
31
0
39
0
210
0
220
0
230
1
0
LINE
5
D8
100
AcDbEntity
8
1
62
256
6
ByLayer
370
18
48
1
60
0
100
AcDbLine
10
20.279208
20
-25
30
0
11
0.3
21
-25
31
0
39
0
210
0
220
0
230
1
0
LINE
5
D9
100
AcDbEntity
8
1
62
256
6
ByLayer
370
18
48
1
60
0
100
AcDbLine
10
70.899471
20
-6.335014
30
0
11
69.833322
21
-5.268865
31
0
39
0
210
0
220
0
230
1
0
LINE
5
DA
100
AcDbEntity
8
SK3
62
256
6
ByLayer
370
13
48
0.05
60
0
100
AcDbLine
10
25.859546
20
30.857864
30
0
11
65.909798
21
-9.192388
31
0
39
0
210
0
220
0
230
1
0
LINE
5
DC
100
AcDbEntity
8
1
62
256
6
ByLayer
370
18
48
1
60
0
100
AcDbLine
10
70.718124
20
-14.283557
30
0
11
67.326061
21
-10.891493
31
0
39
0
210
0
220
0
230
1
0
LINE
5
DD
100
AcDbEntity
8
SK1
62
256
6
ByLayer
370
18
48
1
60
0
100
AcDbLine
10
-0.2
20
-17.833485
30
0
11
-0.2
21
17.833485
31
0
39
0
210
0
220
0
230
1
0
LINE
5
DE
100
AcDbEntity
8
1
62
256
6
ByLayer
370
18
48
1
60
0
100
AcDbLine
10
62.96792
20
-12.134267
30
0
11
65.368359
21
-13.25361
31
0
39
0
210
0
220
0
230
1
0
LINE
5
DF
100
AcDbEntity
8
1
62
256
6
ByLayer
370
18
48
1
60
0
100
AcDbLine
10
67.481451
20
-8.722071
30
0
11
66.730356
21
-8.37183
31
0
39
0
210
0
220
0
230
1
0
LINE
5
E0
100
AcDbEntity
8
4
62
256
6
ByLayer
370
18
48
0.05
60
0
100
AcDbLine
10
0
20
0
30
0
11
83.587468
21
0
31
0
39
0
210
0
220
0
230
1
0
LINE
5
E2
100
AcDbEntity
8
1
62
256
6
ByLayer
370
18
48
1
60
0
100
AcDbLine
10
83.587468
20
-1.414214
30
0
11
70.718124
21
-14.283557
31
0
39
0
210
0
220
0
230
1
0
LINE
5
E3
100
AcDbEntity
8
1
62
256
6
ByLayer
370
18
48
1
60
0
100
AcDbLine
10
53.001681
20
32
30
0
11
83.587468
21
1.414214
31
0
39
0
210
0
220
0
230
1
0
LINE
5
E4
100
AcDbEntity
8
1
62
256
6
ByLayer
370
18
48
1
60
0
100
AcDbLine
10
83.587468
20
1.414214
30
0
11
83.587468
21
-1.414214
31
0
39
0
210
0
220
0
230
1
0
LINE
5
E5
100
AcDbEntity
8
SK4
62
256
6
ByLayer
370
18
48
0.05
60
0
100
AcDbLine
10
88.820948
20
0
30
0
11
-32.295964
21
0
31
0
39
0
210
0
220
0
230
1
0
MTEXT
5
131
100
AcDbEntity
8
SK6
62
256
6
ByLayer
370
18
48
1
60
0
100
AcDbMText
10
4.070391
20
-43.315968
30
0
210
0
220
0
230
1
1
\W0.7627;C5-ASHL45-085-20HP
40
3.5
41
0
44
1.084337
50
0
71
7
72
5
7
iso_b_vert
0
DIMENSION
5
144
100
AcDbEntity
8
SK2
62
256
6
ByLayer
370
13
48
1
60
0
100
AcDbDimension
2
DimnDraft3D1
10
-42.785639
20
-25
30
0
11
-43.035639
21
2.707895
31
0
70
33
71
5
72
1
41
1
210
0
220
0
230
1
3
Standard
100
AcDbAlignedDimension
13
-1.7
23
25
33
0
14
-1.7
24
-25
34
0
1001
ACAD
1000
DSTYLE
1002
{
1070
   279
1070
     0
1070
    74
1070
     0
1070
   173
1070
     1
1070
   340
1005
132
1070
   271
1070
     2
1070
    77
1070
     1
1070
    73
1070
     0
1070
   171
1070
     3
1070
   274
1070
     3
1070
   177
1070
     7
1070
   176
1070
     7
1070
   178
1070
     7
1070
    78
1070
     8
1070
    41
1041
3.175
1070
   147
1041
1.5
1070
    42
1041
2.0
1070
    44
1041
2.0
1070
   140
1041
3.0
1070
   343
1005
0
1070
   344
1005
0
1002
}
0
DIMENSION
5
152
100
AcDbEntity
8
SK2
62
256
6
ByLayer
370
13
48
1
60
0
100
AcDbDimension
2
DimnDraft3D2
10
20
20
37.611218
30
0
11
8.207895
21
37.611218
31
0
70
32
71
5
72
1
41
1
210
0
220
0
230
1
3
Standard
100
AcDbAlignedDimension
13
0
23
26.7
33
0
14
20
24
27
34
0
50
0
100
AcDbRotatedDimension
1001
ACAD
1000
DSTYLE
1002
{
1070
   279
1070
     0
1070
   172
1070
     1
1070
   173
1070
     1
1070
   340
1005
132
1070
   271
1070
     2
1070
    77
1070
     1
1070
    73
1070
     0
1070
   171
1070
     3
1070
   274
1070
     3
1070
   177
1070
     7
1070
   176
1070
     7
1070
   178
1070
     7
1070
    78
1070
     8
1070
    41
1041
3.175
1070
   147
1041
1.5
1070
    42
1041
2.0
1070
    44
1041
2.0
1070
   140
1041
3.0
1070
   343
1005
0
1070
   344
1005
0
1002
}
0
DIMENSION
5
161
100
AcDbEntity
8
2
62
256
6
ByLayer
370
13
48
1
60
0
100
AcDbDimension
2
DimnDraft3D3
10
85.001681
20
49.991057
30
0
11
40.708735
21
49.991057
31
0
70
32
71
5
72
1
41
1
210
0
220
0
230
1
3
Standard
100
AcDbAlignedDimension
13
0
23
26.7
33
0
14
85.001681
24
2
34
0
50
0
100
AcDbRotatedDimension
1001
ACAD
1000
DSTYLE
1002
{
1070
   279
1070
     0
1070
   172
1070
     1
1070
   173
1070
     1
1070
   340
1005
132
1070
   271
1070
     1
1070
    77
1070
     1
1070
    73
1070
     0
1070
   171
1070
     3
1070
   274
1070
     3
1070
   177
1070
     7
1070
   176
1070
     7
1070
   178
1070
     7
1070
    78
1070
     8
1070
    41
1041
3.175
1070
   147
1041
1.5
1070
    42
1041
2.0
1070
    44
1041
2.0
1070
   140
1041
3.0
1070
   343
1005
162
1070
   344
1005
162
1002
}
0
DIMENSION
5
176
100
AcDbEntity
8
SK2
62
256
6
ByLayer
370
13
48
1
60
0
100
AcDbDimension
2
DimnDraft3D4
10
100.798977
20
32
30
0
11
100.798977
21
14.207895
31
0
70
32
71
5
72
1
41
1
210
0
220
0
230
1
3
Standard
100
AcDbAlignedDimension
13
90.820948
23
0
33
0
14
55.001681
24
32
34
0
50
90
100
AcDbRotatedDimension
1001
ACAD
1000
DSTYLE
1002
{
1070
    74
1070
     0
1070
   279
1070
     0
1070
   172
1070
     1
1070
   173
1070
     1
1070
   340
1005
132
1070
   271
1070
     2
1070
    77
1070
     1
1070
    73
1070
     0
1070
   171
1070
     3
1070
   274
1070
     3
1070
   177
1070
     7
1070
   176
1070
     7
1070
   178
1070
     7
1070
    78
1070
     8
1070
    41
1041
3.175
1070
   147
1041
1.5
1070
    42
1041
2.0
1070
    44
1041
2.0
1070
   140
1041
3.0
1070
   343
1005
162
1070
   344
1005
162
1002
}
0
DIMENSION
5
184
100
AcDbEntity
8
SK2
62
256
6
ByLayer
370
13
48
1
60
0
100
AcDbDimension
2
DimnDraft3D5
10
100.798977
20
-32
30
0
11
100.798977
21
4.401046
31
0
70
32
71
5
72
1
41
1
210
0
220
0
230
1
3
Standard
100
AcDbAlignedDimension
13
90.820948
23
0
33
0
14
45.102186
24
-32
34
0
50
90
100
AcDbRotatedDimension
1001
ACAD
1000
DSTYLE
1002
{
1070
    74
1070
     0
1070
   279
1070
     0
1070
   172
1070
     1
1070
   173
1070
     1
1070
   340
1005
132
1070
   271
1070
     1
1070
    77
1070
     1
1070
    73
1070
     0
1070
   171
1070
     3
1070
   274
1070
     3
1070
   177
1070
     7
1070
   176
1070
     7
1070
   178
1070
     7
1070
    78
1070
     8
1070
    41
1041
3.175
1070
   147
1041
1.5
1070
    42
1041
2.0
1070
    44
1041
2.0
1070
   140
1041
3.0
1070
   343
1005
0
1070
   344
1005
0
1002
}
0
ENDSEC
0
SECTION
2
OBJECTS
0
DICTIONARY
5
1f0
330
0
100
AcDbDictionary
280
0
281
1
3
ACAD_GROUP
350
1f1
3
ACAD_MLINESTYLE
350
1f2
0
DICTIONARY
5
1f1
330
0
100
AcDbDictionary
280
0
281
1
0
DICTIONARY
5
1f2
330
0
100
AcDbDictionary
280
0
281
1
3
Standard
350
18
0
MLINESTYLE
5
18
330
1f2
100
AcDbMlineStyle
2
Standard
70
0
3

62
256
51
90
52
90
71
2
49
-0.5
62
256
6
ByLayer
49
0.5
62
256
6
ByLayer
0
RASTERVARIABLES
5
1dd
330

100
AcDbRasterVariables
90
0
70
1
71
1
72
1
0
ENDSEC
0
EOF
