0
SECTION
2
HEADER
9
$ACADVER
1
AC1015
9
$DWGCODEPAGE
3
ANSI_1252
9
$HANDSEED
5
27f
9
$ANGBASE
50
0
9
$ANGDIR
70
0
9
$ATTMODE
70
1
9
$AUNITS
70
0
9
$AUPREC
70
0
9
$CECOLOR
62
256
9
$CELTSCALE
40
1
9
$CELTYPE
6
ByLayer
9
$CELWEIGHT
370
18
9
$CLAYER
8
0
9
$CMLJUST
70
0
9
$CMLSCALE
40
1
9
$CMLSTYLE
2
Standard
9
$DIMSTYLE
2
Standard
9
$TEXTSIZE
40
0.2
9
$TEXTSTYLE
7
Standard
9
$LUNITS
70
2
9
$LUPREC
70
4
9
$EXTNAMES
290
1
9
$INSUNITS
70
4
9
$LTSCALE
40
1
9
$LWDISPLAY
290
1
9
$PDMODE
70
0
9
$PDSIZE
40
0
9
$PLINEGEN
70
0
0
ENDSEC
0
SECTION
2
CLASSES
0
CLASS
1
RASTERVARIABLES
2
AcDbRasterVariables
3
ISM
90
0
280
0
281
0
0
ENDSEC
0
SECTION
2
TABLES
0
TABLE
2
VPORT
5
275
100
AcDbSymbolTable
0
VPORT
5
1
100
AcDbSymbolTableRecord
100
AcDbViewportTableRecord
2
*Active
70
0
10
0
20
0
11
1
21
1
12
-1
22
1
13
0
23
0
14
0.5
24
0.5
15
10
25
10
16
0
26
0
36
1
17
0
27
0
37
0
0
ENDTAB
0
TABLE
2
LTYPE
5
276
100
AcDbSymbolTable
0
LTYPE
5
14
100
AcDbSymbolTableRecord
100
AcDbLinetypeTableRecord
70
0
2
ByBlock
3

72
65
73
0
40
0
0
LTYPE
5
15
100
AcDbSymbolTableRecord
100
AcDbLinetypeTableRecord
70
0
2
ByLayer
3

72
65
73
0
40
0
0
LTYPE
5
16
100
AcDbSymbolTableRecord
100
AcDbLinetypeTableRecord
70
0
2
CONTINUOUS
3
Solid line
72
65
73
0
40
0
0
LTYPE
5
6A
100
AcDbSymbolTableRecord
100
AcDbLinetypeTableRecord
70
0
2
CENTER
3
____ _ ____ _ ____ _ ____
72
65
73
4
40
47.5
49
22
74
0
49
-8.5
74
0
49
8.5
74
0
49
-8.5
74
0
0
LTYPE
5
6B
100
AcDbSymbolTableRecord
100
AcDbLinetypeTableRecord
70
0
2
DASHED
3
__ __ __ __ __ __ __ __ __
72
65
73
2
40
25.72
49
12.86
74
0
49
-12.86
74
0
0
ENDTAB
0
TABLE
2
LAYER
5
277
100
AcDbSymbolTable
0
LAYER
5
10
100
AcDbSymbolTableRecord
100
AcDbLayerTableRecord
2
0
70
0
62
7
6
CONTINUOUS
290
1
370
-3
390
0
0
LAYER
5
6D
100
AcDbSymbolTableRecord
100
AcDbLayerTableRecord
2
81
70
0
62
-3
6
CONTINUOUS
290
1
370
-3
390
0
0
LAYER
5
6F
100
AcDbSymbolTableRecord
100
AcDbLayerTableRecord
2
80
70
0
62
-6
6
CONTINUOUS
290
1
370
-3
390
0
0
LAYER
5
71
100
AcDbSymbolTableRecord
100
AcDbLayerTableRecord
2
1
70
0
62
4
6
CONTINUOUS
290
1
370
-3
390
0
0
LAYER
5
E2
100
AcDbSymbolTableRecord
100
AcDbLayerTableRecord
2
4
70
0
62
-2
6
CENTER
290
1
370
-3
390
0
0
LAYER
5
1B9
100
AcDbSymbolTableRecord
100
AcDbLayerTableRecord
2
2
70
0
62
7
6
CONTINUOUS
290
1
370
-3
390
0
0
LAYER
5
261
100
AcDbSymbolTableRecord
100
AcDbLayerTableRecord
2
SK1
70
0
62
4
6
CONTINUOUS
290
1
370
-3
390
0
0
LAYER
5
262
100
AcDbSymbolTableRecord
100
AcDbLayerTableRecord
2
SK4
70
0
62
2
6
CENTER
290
1
370
-3
390
0
0
LAYER
5
263
100
AcDbSymbolTableRecord
100
AcDbLayerTableRecord
2
SK6
70
0
62
5
6
CONTINUOUS
290
1
370
-3
390
0
0
LAYER
5
264
100
AcDbSymbolTableRecord
100
AcDbLayerTableRecord
2
SK2
70
0
62
7
6
CONTINUOUS
290
1
370
-3
390
0
0
ENDTAB
0
TABLE
2
STYLE
5
278
100
AcDbSymbolTable
0
STYLE
5
11
100
AcDbSymbolTableRecord
100
AcDbTextStyleTableRecord
2
Standard
3
txt
70
0
71
0
40
0
41
1
42
0
50
0
0
STYLE
5
1B4
100
AcDbSymbolTableRecord
100
AcDbTextStyleTableRecord
2
iso_b_vert
3
simplex.shx
70
0
71
0
40
0
41
1
42
0
50
0
0
STYLE
5
1B5
100
AcDbSymbolTableRecord
100
AcDbTextStyleTableRecord
2
DWGDirectTextStyle
3
simplex
70
0
71
0
40
0
41
1
42
0
50
0
0
ENDTAB
0
TABLE
2
DIMSTYLE
5
279
100
AcDbSymbolTable
100
AcDbDimStyleTable
0
DIMSTYLE
105
27
100
AcDbSymbolTableRecord
100
AcDbDimStyleTableRecord
2
Standard
70
0
3
<>
41
0.18
42
0.0625
44
0.18
140
0.18
147
0.09
73
0
74
0
77
1
271
2
275
0
278
52
280
0
340
11
0
ENDTAB
0
TABLE
2
VIEW
5
27a
100
AcDbSymbolTable
0
ENDTAB
0
TABLE
2
UCS
5
27b
100
AcDbSymbolTable
0
ENDTAB
0
TABLE
2
APPID
5
27c
100
AcDbSymbolTable
0
APPID
5
12
100
AcDbSymbolTableRecord
100
AcDbRegAppTableRecord
2
ACAD
70
0
0
ENDTAB
0
TABLE
2
BLOCK_RECORD
5
27d
100
AcDbSymbolTable
0
BLOCK_RECORD
5
1F
100
AcDbSymbolTableRecord
100
AcDbBlockTableRecord
2
*Model_Space
340
0
70
0
0
BLOCK_RECORD
5
1B
100
AcDbSymbolTableRecord
100
AcDbBlockTableRecord
2
*Paper_Space
340
0
70
0
0
BLOCK_RECORD
5
23
100
AcDbSymbolTableRecord
100
AcDbBlockTableRecord
2
*Paper_Space0
340
0
70
0
0
BLOCK_RECORD
5
1B7
100
AcDbSymbolTableRecord
100
AcDbBlockTableRecord
2
DimnDraft3D1
340
0
70
0
0
BLOCK_RECORD
5
1C2
100
AcDbSymbolTableRecord
100
AcDbBlockTableRecord
2
DimnDraft3D2
340
0
70
0
0
BLOCK_RECORD
5
1CD
100
AcDbSymbolTableRecord
100
AcDbBlockTableRecord
2
DimnDraft3D3
340
0
70
0
0
BLOCK_RECORD
5
1D7
100
AcDbSymbolTableRecord
100
AcDbBlockTableRecord
2
DimnDraft3D4
340
0
70
0
0
BLOCK_RECORD
5
1E5
100
AcDbSymbolTableRecord
100
AcDbBlockTableRecord
2
_CLOSED
340
0
70
0
0
BLOCK_RECORD
5
1EC
100
AcDbSymbolTableRecord
100
AcDbBlockTableRecord
2
DimnDraft3D5
340
0
70
0
0
BLOCK_RECORD
5
1FA
100
AcDbSymbolTableRecord
100
AcDbBlockTableRecord
2
DimnDraft3D6
340
0
70
0
0
ENDTAB
0
ENDSEC
0
SECTION
2
BLOCKS
0
BLOCK
5
20
100
AcDbEntity
8
0
100
AcDbBlockBegin
2
*Model_Space
70
0
10
0
20
0
30
0
3
*Model_Space
0
ENDBLK
5
21
100
AcDbEntity
8
0
100
AcDbBlockEnd
0
BLOCK
5
1C
100
AcDbEntity
8
0
100
AcDbBlockBegin
2
*Paper_Space
70
0
10
0
20
0
30
0
3
*Paper_Space
0
ENDBLK
5
1D
100
AcDbEntity
8
0
100
AcDbBlockEnd
0
BLOCK
5
24
100
AcDbEntity
8
0
100
AcDbBlockBegin
2
*Paper_Space0
70
0
10
0
20
0
30
0
3
*Paper_Space0
0
ENDBLK
5
25
100
AcDbEntity
8
0
100
AcDbBlockEnd
0
BLOCK
5
1BF
100
AcDbEntity
8
0
100
AcDbBlockBegin
2
DimnDraft3D1
70
0
10
0
20
0
30
0
3
DimnDraft3D1
0
MTEXT
5
1B8
100
AcDbEntity
8
2
62
256
6
ByLayer
370
18
48
1
60
0
100
AcDbMText
10
18.839471
20
52.85389
30
0
210
0
220
0
230
1
1
\W0.7183;40
40
3.000007
41
0
44
1.084337
50
0
71
7
72
5
7
iso_b_vert
0
LINE
5
1BA
100
AcDbEntity
8
2
62
256
6
ByLayer
370
13
48
1
60
0
100
AcDbLine
10
0
20
1.5875
30
0
11
0
21
55.278888
31
0
39
0
210
0
220
0
230
1
0
LINE
5
1BB
100
AcDbEntity
8
2
62
256
6
ByLayer
370
13
48
1
60
0
100
AcDbLine
10
40
20
12.5875
30
0
11
40
21
55.278888
31
0
39
0
210
0
220
0
230
1
0
LINE
5
1BC
100
AcDbEntity
8
2
62
256
6
ByLayer
370
13
48
1
60
0
100
AcDbLine
10
0
20
52.103888
30
0
11
40
21
52.103888
31
0
39
0
210
0
220
0
230
1
0
SOLID
5
1BD
100
AcDbEntity
8
2
62
256
6
ByLayer
370
13
48
1
60
0
100
AcDbTrace
10
0
20
52.103888
30
0
11
3.174998
21
52.606758
31
0
12
3.175002
22
51.601017
32
0
13
0
23
52.103888
33
0
39
0
210
0
220
0
230
1
0
SOLID
5
1BE
100
AcDbEntity
8
2
62
256
6
ByLayer
370
13
48
1
60
0
100
AcDbTrace
10
40
20
52.103888
30
0
11
36.825002
21
51.601017
31
0
12
36.824998
22
52.606758
32
0
13
40
23
52.103888
33
0
39
0
210
0
220
0
230
1
0
ENDBLK
5
1C0
100
AcDbEntity
8
0
100
AcDbBlockEnd
0
BLOCK
5
1CA
100
AcDbEntity
8
0
100
AcDbBlockBegin
2
DimnDraft3D2
70
0
10
0
20
0
30
0
3
DimnDraft3D2
0
MTEXT
5
1C3
100
AcDbEntity
8
SK2
62
256
6
ByLayer
370
18
48
1
60
0
100
AcDbMText
10
3.909626
20
62.774214
30
0
210
0
220
0
230
1
1
\W0.6563;70
40
3.000007
41
0
44
1.084337
50
0
71
7
72
5
7
iso_b_vert
0
LINE
5
1C5
100
AcDbEntity
8
SK2
62
256
6
ByLayer
370
13
48
1
60
0
100
AcDbLine
10
39.824519
20
27.8241
30
0
11
39.824519
21
65.199212
31
0
39
0
210
0
220
0
230
1
0
LINE
5
1C6
100
AcDbEntity
8
SK2
62
256
6
ByLayer
370
13
48
1
60
0
100
AcDbLine
10
-30
20
17.557612
30
0
11
-30
21
65.199212
31
0
39
0
210
0
220
0
230
1
0
LINE
5
1C7
100
AcDbEntity
8
SK2
62
256
6
ByLayer
370
13
48
1
60
0
100
AcDbLine
10
39.824519
20
62.024212
30
0
11
-30
21
62.024212
31
0
39
0
210
0
220
0
230
1
0
SOLID
5
1C8
100
AcDbEntity
8
SK2
62
256
6
ByLayer
370
13
48
1
60
0
100
AcDbTrace
10
39.824519
20
62.024212
30
0
11
36.649521
21
61.521342
31
0
12
36.649517
22
62.527083
32
0
13
39.824519
23
62.024212
33
0
39
0
210
0
220
0
230
1
0
SOLID
5
1C9
100
AcDbEntity
8
SK2
62
256
6
ByLayer
370
13
48
1
60
0
100
AcDbTrace
10
-30
20
62.024212
30
0
11
-26.825002
21
62.527083
31
0
12
-26.824998
22
61.521342
32
0
13
-30
23
62.024212
33
0
39
0
210
0
220
0
230
1
0
ENDBLK
5
1CB
100
AcDbEntity
8
0
100
AcDbBlockEnd
0
BLOCK
5
1D4
100
AcDbEntity
8
0
100
AcDbBlockBegin
2
DimnDraft3D3
70
0
10
0
20
0
30
0
3
DimnDraft3D3
0
MTEXT
5
1CE
100
AcDbEntity
8
SK2
62
256
6
ByLayer
370
18
48
1
60
0
100
AcDbMText
10
64.743314
20
7.518413
30
0
210
0
220
0
230
1
1
\W0.8203;%%c 40
40
3.000007
41
0
44
1.084337
50
90
71
7
72
5
7
iso_b_vert
0
LINE
5
1CF
100
AcDbEntity
8
SK2
62
256
6
ByLayer
370
13
48
1
60
0
100
AcDbLine
10
40.912019
20
31
30
0
11
68.668315
21
31
31
0
39
0
210
0
220
0
230
1
0
LINE
5
1D0
100
AcDbEntity
8
SK2
62
256
6
ByLayer
370
13
48
1
60
0
100
AcDbLine
10
40.912019
20
-9
30
0
11
68.668315
21
-9
31
0
39
0
210
0
220
0
230
1
0
LINE
5
1D1
100
AcDbEntity
8
SK2
62
256
6
ByLayer
370
13
48
1
60
0
100
AcDbLine
10
65.493315
20
31
30
0
11
65.493315
21
-9
31
0
39
0
210
0
220
0
230
1
0
SOLID
5
1D2
100
AcDbEntity
8
SK2
62
256
6
ByLayer
370
13
48
1
60
0
100
AcDbTrace
10
65.493315
20
31
30
0
11
65.996186
21
27.825002
31
0
12
64.990445
22
27.824998
32
0
13
65.493315
23
31
33
0
39
0
210
0
220
0
230
1
0
SOLID
5
1D3
100
AcDbEntity
8
SK2
62
256
6
ByLayer
370
13
48
1
60
0
100
AcDbTrace
10
65.493315
20
-9
30
0
11
64.990445
21
-5.825002
31
0
12
65.996186
22
-5.824998
32
0
13
65.493315
23
-9
33
0
39
0
210
0
220
0
230
1
0
ENDBLK
5
1D5
100
AcDbEntity
8
0
100
AcDbBlockEnd
0
BLOCK
5
1E2
100
AcDbEntity
8
0
100
AcDbBlockBegin
2
DimnDraft3D4
70
0
10
0
20
0
30
0
3
DimnDraft3D4
0
MTEXT
5
1D8
100
AcDbEntity
8
SK2
62
256
6
ByLayer
370
18
48
1
60
0
100
AcDbMText
10
-41.793796
20
-3.323684
30
0
210
0
220
0
230
1
1
\W0.7884;%%c 50
40
3
41
0
44
1.084337
50
90
71
7
72
5
7
iso_b_vert
0
LINE
5
1D9
100
AcDbEntity
8
SK2
62
256
6
ByLayer
370
13
48
1
60
0
100
AcDbLine
10
-1.2
20
-25
30
0
11
-44.043796
21
-25
31
0
39
0
210
0
220
0
230
1
0
LINE
5
1DA
100
AcDbEntity
8
SK2
62
256
6
ByLayer
370
13
48
1
60
0
100
AcDbLine
10
-1.2
20
25
30
0
11
-44.043796
21
25
31
0
39
0
210
0
220
0
230
1
0
LINE
5
1DB
100
AcDbEntity
8
SK2
62
256
6
ByLayer
370
13
48
1
60
0
100
AcDbLine
10
-41.043796
20
-25
30
0
11
-41.043796
21
25
31
0
39
0
210
0
220
0
230
1
0
LINE
5
1DC
100
AcDbEntity
8
SK2
62
256
6
ByLayer
370
13
48
1
60
0
100
AcDbLine
10
-41.043796
20
-25
30
0
11
-41.572777
21
-22.000002
31
0
39
0
210
0
220
0
230
1
0
LINE
5
1DD
100
AcDbEntity
8
SK2
62
256
6
ByLayer
370
13
48
1
60
0
100
AcDbLine
10
-41.043796
20
-25
30
0
11
-40.514815
21
-21.999998
31
0
39
0
210
0
220
0
230
1
0
LINE
5
1DE
100
AcDbEntity
8
SK2
62
256
6
ByLayer
370
13
48
1
60
0
100
AcDbLine
10
-41.572777
20
-22.000002
30
0
11
-40.514815
21
-21.999998
31
0
39
0
210
0
220
0
230
1
0
LINE
5
1DF
100
AcDbEntity
8
SK2
62
256
6
ByLayer
370
13
48
1
60
0
100
AcDbLine
10
-41.043796
20
25
30
0
11
-40.514815
21
22.000002
31
0
39
0
210
0
220
0
230
1
0
LINE
5
1E0
100
AcDbEntity
8
SK2
62
256
6
ByLayer
370
13
48
1
60
0
100
AcDbLine
10
-41.043796
20
25
30
0
11
-41.572777
21
21.999998
31
0
39
0
210
0
220
0
230
1
0
LINE
5
1E1
100
AcDbEntity
8
SK2
62
256
6
ByLayer
370
13
48
1
60
0
100
AcDbLine
10
-40.514815
20
22.000002
30
0
11
-41.572777
21
21.999998
31
0
39
0
210
0
220
0
230
1
0
ENDBLK
5
1E3
100
AcDbEntity
8
0
100
AcDbBlockEnd
0
BLOCK
5
1E6
100
AcDbEntity
8
0
100
AcDbBlockBegin
2
_CLOSED
70
0
10
0
20
0
30
0
3
_CLOSED
0
LINE
5
1E8
100
AcDbEntity
8
0
62
256
6
ByLayer
370
-2
48
1
60
0
100
AcDbLine
10
-1
20
0.166667
30
0
11
0
21
0
31
0
39
0
210
0
220
0
230
1
0
LINE
5
1E9
100
AcDbEntity
8
0
62
256
6
ByLayer
370
-2
48
1
60
0
100
AcDbLine
10
0
20
0
30
0
11
-1
21
-0.166667
31
0
39
0
210
0
220
0
230
1
0
LINE
5
1EA
100
AcDbEntity
8
0
62
256
6
ByLayer
370
-2
48
1
60
0
100
AcDbLine
10
-1
20
0.166667
30
0
11
-1
21
-0.166667
31
0
39
0
210
0
220
0
230
1
0
LINE
5
1EB
100
AcDbEntity
8
0
62
256
6
ByLayer
370
-2
48
1
60
0
100
AcDbLine
10
0
20
0
30
0
11
-1
21
0
31
0
39
0
210
0
220
0
230
1
0
ENDBLK
5
1E7
100
AcDbEntity
8
0
100
AcDbBlockEnd
0
BLOCK
5
1F7
100
AcDbEntity
8
0
100
AcDbBlockBegin
2
DimnDraft3D5
70
0
10
0
20
0
30
0
3
DimnDraft3D5
0
MTEXT
5
1ED
100
AcDbEntity
8
SK2
62
256
6
ByLayer
370
18
48
1
60
0
100
AcDbMText
10
13.497368
20
37.962291
30
0
210
0
220
0
230
1
1
\W0.6745;29
40
3
41
0
44
1.084337
50
0
71
7
72
5
7
iso_b_vert
0
LINE
5
1EE
100
AcDbEntity
8
SK2
62
256
6
ByLayer
370
18
48
1
60
0
100
AcDbLine
10
0
20
26.7
30
0
11
0
21
39.212291
31
0
39
0
210
0
220
0
230
1
0
LINE
5
1EF
100
AcDbEntity
8
SK2
62
256
6
ByLayer
370
18
48
1
60
0
100
AcDbLine
10
29
20
33
30
0
11
29
21
39.212291
31
0
39
0
210
0
220
0
230
1
0
LINE
5
1F0
100
AcDbEntity
8
SK2
62
256
6
ByLayer
370
18
48
1
60
0
100
AcDbLine
10
0
20
37.212291
30
0
11
29
21
37.212291
31
0
39
0
210
0
220
0
230
1
0
LINE
5
1F1
100
AcDbEntity
8
SK2
62
256
6
ByLayer
370
18
48
1
60
0
100
AcDbLine
10
0
20
37.212291
30
0
11
3.174998
21
37.630287
31
0
39
0
210
0
220
0
230
1
0
LINE
5
1F2
100
AcDbEntity
8
SK2
62
256
6
ByLayer
370
18
48
1
60
0
100
AcDbLine
10
0
20
37.212291
30
0
11
3.175002
21
36.794294
31
0
39
0
210
0
220
0
230
1
0
LINE
5
1F3
100
AcDbEntity
8
SK2
62
256
6
ByLayer
370
18
48
1
60
0
100
AcDbLine
10
3.174998
20
37.630287
30
0
11
3.175002
21
36.794294
31
0
39
0
210
0
220
0
230
1
0
LINE
5
1F4
100
AcDbEntity
8
SK2
62
256
6
ByLayer
370
18
48
1
60
0
100
AcDbLine
10
29
20
37.212291
30
0
11
25.825002
21
36.794294
31
0
39
0
210
0
220
0
230
1
0
LINE
5
1F5
100
AcDbEntity
8
SK2
62
256
6
ByLayer
370
18
48
1
60
0
100
AcDbLine
10
29
20
37.212291
30
0
11
25.824998
21
37.630287
31
0
39
0
210
0
220
0
230
1
0
LINE
5
1F6
100
AcDbEntity
8
SK2
62
256
6
ByLayer
370
18
48
1
60
0
100
AcDbLine
10
25.825002
20
36.794294
30
0
11
25.824998
21
37.630287
31
0
39
0
210
0
220
0
230
1
0
ENDBLK
5
1F8
100
AcDbEntity
8
0
100
AcDbBlockEnd
0
BLOCK
5
205
100
AcDbEntity
8
0
100
AcDbBlockBegin
2
DimnDraft3D6
70
0
10
0
20
0
30
0
3
DimnDraft3D6
0
MTEXT
5
1FB
100
AcDbEntity
8
SK2
62
256
6
ByLayer
370
18
48
1
60
0
100
AcDbMText
10
49.836038
20
39.799783
30
0
210
0
220
0
230
1
1
\W0.8385;35%%d
40
3
41
0
44
1.084337
50
287.569996611524
71
7
72
5
7
iso_b_vert
0
LINE
5
1FC
100
AcDbEntity
8
SK2
62
256
6
ByLayer
370
18
48
1
60
0
100
AcDbLine
10
41.324519
20
31
30
0
11
52.748225
21
31
31
0
39
0
210
0
220
0
230
1
0
LINE
5
1FD
100
AcDbEntity
8
SK2
62
256
6
ByLayer
370
18
48
1
60
0
100
AcDbLine
10
30.480787
20
32.376973
30
0
11
48.333399
21
44.942624
31
0
39
0
210
0
220
0
230
1
0
ARC
5
1FE
100
AcDbEntity
8
SK2
62
256
6
ByLayer
370
18
48
1
60
0
100
AcDbCircle
39
0
10
28.524457
20
31
30
0
40
22.2237685841154
210
0
220
0
230
1
100
AcDbArc
50
0
51
35.139993
0
LINE
5
1FF
100
AcDbEntity
8
SK2
62
256
6
ByLayer
370
18
48
1
60
0
100
AcDbLine
10
50.748225
20
31
30
0
11
50.217312
21
34.15808
31
0
39
0
210
0
220
0
230
1
0
LINE
5
200
100
AcDbEntity
8
SK2
62
256
6
ByLayer
370
18
48
1
60
0
100
AcDbLine
10
50.748225
20
31
30
0
11
51.052773
21
34.187884
31
0
39
0
210
0
220
0
230
1
0
LINE
5
201
100
AcDbEntity
8
SK2
62
256
6
ByLayer
370
18
48
1
60
0
100
AcDbLine
10
50.217312
20
34.15808
30
0
11
51.052773
21
34.187884
31
0
39
0
210
0
220
0
230
1
0
LINE
5
202
100
AcDbEntity
8
SK2
62
256
6
ByLayer
370
18
48
1
60
0
100
AcDbLine
10
46.697903
20
43.791472
30
0
11
48.781815
21
41.359879
31
0
39
0
210
0
220
0
230
1
0
LINE
5
203
100
AcDbEntity
8
SK2
62
256
6
ByLayer
370
18
48
1
60
0
100
AcDbLine
10
46.697903
20
43.791472
30
0
11
48.081466
21
40.903374
31
0
39
0
210
0
220
0
230
1
0
LINE
5
204
100
AcDbEntity
8
SK2
62
256
6
ByLayer
370
18
48
1
60
0
100
AcDbLine
10
48.781815
20
41.359879
30
0
11
48.081466
21
40.903374
31
0
39
0
210
0
220
0
230
1
0
ENDBLK
5
206
100
AcDbEntity
8
0
100
AcDbBlockEnd
0
ENDSEC
0
SECTION
2
ENTITIES
0
ARC
5
F1
100
AcDbEntity
8
1
62
256
6
ByLayer
370
18
48
1
60
0
100
AcDbCircle
39
0
10
-26.1819
20
-15.4
30
0
40
6.39999999999998
210
0
220
0
230
-1
100
AcDbArc
50
15
51
90
0
POINT
5
6C
100
AcDbEntity
8
81
62
256
6
ByLayer
370
18
48
1
60
0
100
AcDbPoint
10
40
20
11
30
0
39
0
210
0
220
0
230
1
50
360
0
POINT
5
6E
100
AcDbEntity
8
80
62
256
6
ByLayer
370
13
48
1
60
0
100
AcDbPoint
10
0
20
0
30
0
39
0
210
0
220
0
230
1
50
360
0
SPLINE
5
F2
100
AcDbEntity
8
1
62
256
6
ByLayer
370
18
48
1
60
0
100
AcDbSpline
70
4
71
3
72
29
73
25
40
0
40
0
40
0
40
0
40
0.0304706643282696
40
0.0739855655105012
40
0.117328475744764
40
0.157480488805096
40
0.197744691296923
40
0.238060034839145
40
0.278349117023815
40
0.318522056239563
40
0.363548681929761
40
0.408699211819965
40
0.45393771856183
40
0.499204946014711
40
0.544421855898574
40
0.589492867437043
40
0.639934461132272
40
0.69043481127683
40
0.740945580222047
40
0.791401397383983
40
0.843524971503266
40
0.895693070806009
40
0.947867621378739
40
1
40
1
40
1
40
1
41
1
10
39.5204809471128
20
30.804038105726
30
0
41
1
10
39.5204894851182
20
30.8040294705728
30
0
41
1
10
39.5205938856646
20
30.8039241350272
30
0
41
1
10
39.5210650456193
20
30.8034489837128
30
0
41
1
10
39.5220203302388
20
30.8024855610806
30
0
41
1
10
39.5233571734547
20
30.8011373702256
30
0
41
1
10
39.5250170216548
20
30.7994635627644
30
0
41
1
10
39.5270148371996
20
30.7974491368589
30
0
41
1
10
39.5293287462966
20
30.7951162458799
30
0
41
1
10
39.532047760174
20
30.7923752516795
30
0
41
1
10
39.5352023594443
20
30.7891956162844
30
0
41
1
10
39.5388056442886
20
30.7855643656201
30
0
41
1
10
39.5427128606132
20
30.7816275416433
30
0
41
1
10
39.5468925609645
20
30.7774169907815
30
0
41
1
10
39.551313384089
20
30.7729644683554
30
0
41
1
10
39.5561377347887
20
30.7681066234573
30
0
41
1
10
39.5613780479747
20
30.762831281319
30
0
41
1
10
39.5670399675217
20
30.7571330758647
30
0
41
1
10
39.5729054420295
20
30.7512316830464
30
0
41
1
10
39.5790168485709
20
30.7450846680696
30
0
41
1
10
39.5853627226939
20
30.7387038318869
30
0
41
1
10
39.5919320144877
20
30.7321004825825
30
0
41
1
10
39.5986389674608
20
30.7253609622094
30
0
41
1
10
39.6031872307026
20
30.7207921877914
30
0
41
1
10
39.6054809471617
20
30.718488502244
30
0
0
SPLINE
5
F3
100
AcDbEntity
8
1
62
256
6
ByLayer
370
18
48
1
60
0
100
AcDbSpline
70
4
71
3
72
25
73
21
40
0
40
0
40
0
40
0
40
0.0569503691896748
40
0.113904080159259
40
0.170858421545269
40
0.227809650442408
40
0.284755836072364
40
0.34170446431612
40
0.39865325380843
40
0.455599659332086
40
0.512905345841287
40
0.570213463609776
40
0.627521399601703
40
0.684826838223107
40
0.737328213009232
40
0.789830661059506
40
0.842331679458511
40
0.894887661280988
40
0.947445212013181
40
1
40
1
40
1
40
1
41
1
10
40.2495190528383
20
15.5716567789491
30
0
41
1
10
40.2522421636033
20
15.5539104282997
30
0
41
1
10
40.2575274302266
20
15.5184050702866
30
0
41
1
10
40.2649626154492
20
15.465108108485
30
0
41
1
10
40.2719333676499
20
15.4117827491679
30
0
41
1
10
40.2784580134444
20
15.3584368532897
30
0
41
1
10
40.2845565620299
20
15.3050751746739
30
0
41
1
10
40.2902336459373
20
15.2517012664728
30
0
41
1
10
40.2954955299527
20
15.1983187241809
30
0
41
1
10
40.3003578183244
20
15.1448202087489
30
0
41
1
10
40.3048239834691
20
15.0912088600852
30
0
41
1
10
40.3088840539822
20
15.0374886059578
30
0
41
1
10
40.3125205913298
20
14.9837774765364
30
0
41
1
10
40.3156362718422
20
14.931581910468
30
0
41
1
10
40.3182646503243
20
14.8809052259904
30
0
41
1
10
40.3204244115077
20
14.8317515185881
30
0
41
1
10
40.3221716496901
20
14.7826109152678
30
0
41
1
10
40.3234866404714
20
14.7334912238032
30
0
41
1
10
40.3243244107194
20
14.6844042933231
30
0
41
1
10
40.3245129682097
20
14.6517289649414
30
0
41
1
10
40.3245190528383
20
14.6354027023458
30
0
0
SPLINE
5
F4
100
AcDbEntity
8
1
62
256
6
ByLayer
370
18
48
1
60
0
100
AcDbSpline
70
4
71
3
72
31
73
27
40
0
40
0
40
0
40
0
40
0.0415873295200745
40
0.083175477421993
40
0.124764017350461
40
0.166352536889455
40
0.207940637738295
40
0.249527935889037
40
0.291115553424422
40
0.332704045332782
40
0.37429295754002
40
0.415881849681428
40
0.457470295283544
40
0.49905788194746
40
0.540645780329794
40
0.582234607385998
40
0.623823882552373
40
0.665413138431333
40
0.707001920977624
40
0.748589789686025
40
0.790490676209519
40
0.832392565189226
40
0.874294939797381
40
0.916197295853251
40
0.958099142019491
40
1
40
1
40
1
40
1
41
1
10
39.6054809471617
20
18.7148372207045
30
0
41
1
10
39.6164590541889
20
18.671869559381
30
0
41
1
10
39.6382527290222
20
18.5858789749309
30
0
41
1
10
39.6704567710634
20
18.4567283098047
30
0
41
1
10
39.7021696476352
20
18.3274145748507
30
0
41
1
10
39.7333879266168
20
18.1979404629662
30
0
41
1
10
39.7641077188285
20
18.0683088675417
30
0
41
1
10
39.7943256244148
20
17.9385210781623
30
0
41
1
10
39.8240383778469
20
17.808577436338
30
0
41
1
10
39.8532429720249
20
17.6784784818755
30
0
41
1
10
39.8819360129661
20
17.5482264238565
30
0
41
1
10
39.9101138582015
20
17.4178245345288
30
0
41
1
10
39.937772865024
20
17.2872760862504
30
0
41
1
10
39.9649097378137
20
17.1565827094526
30
0
41
1
10
39.9915213413946
20
17.0257449712282
30
0
41
1
10
40.0176048564503
20
16.894763646381
30
0
41
1
10
40.0431571011175
20
16.7636412663654
30
0
41
1
10
40.0681746508511
20
16.6323815258893
30
0
41
1
10
40.092654081083
20
16.5009881191507
30
0
41
1
10
40.1166522880105
20
16.369133351982
30
0
41
1
10
40.1401615363999
20
16.2368168474985
30
0
41
1
10
40.1631743861257
20
16.1040385158671
30
0
41
1
10
40.1856292617807
20
15.9711312281305
30
0
41
1
10
40.2075228727335
20
15.8380992609423
30
0
41
1
10
40.2288523322408
20
15.7049465308202
30
0
41
1
10
40.2426931605919
20
15.6160996661649
30
0
41
1
10
40.2495190528383
20
15.5716567789491
30
0
0
SPLINE
5
F5
100
AcDbEntity
8
1
62
256
6
ByLayer
370
18
48
1
60
0
100
AcDbSpline
70
4
71
3
72
38
73
34
40
0
40
0
40
0
40
0
40
0.0280624111240487
40
0.0561907595988438
40
0.0842811520239622
40
0.112291670306769
40
0.131675211058268
40
0.151116325500009
40
0.170538816677485
40
0.18989688209723
40
0.209441815500432
40
0.229079032983711
40
0.248713689885321
40
0.268255115013562
40
0.290834495234439
40
0.313480316085728
40
0.336081665245261
40
0.363249317047849
40
0.390509905786727
40
0.417813721807244
40
0.445040504097153
40
0.47959291902471
40
0.514206740209112
40
0.548895006374315
40
0.583631425910627
40
0.618356507735331
40
0.652983267683273
40
0.707656711922119
40
0.762369682380376
40
0.81710146231747
40
0.871800572776462
40
0.944545393773376
40
1
40
1
40
1
40
1
41
1
10
39.6054809471617
20
19.3737007520068
30
0
41
1
10
39.6039851221917
20
19.3753893650397
30
0
41
1
10
39.6009456846155
20
19.3786665401751
30
0
41
1
10
39.5962546840969
20
19.383301529709
30
0
41
1
10
39.5914319166207
20
19.3875575373773
30
0
41
1
10
39.5869971722055
20
19.3909683493433
30
0
41
1
10
39.5830011456358
20
19.3936102719834
30
0
41
1
10
39.5794806673165
20
19.3956056109766
30
0
41
1
10
39.5759416823603
20
19.3972567468201
30
0
41
1
10
39.5723983168643
20
19.3985254963534
30
0
41
1
10
39.5688755537943
20
19.3993478282222
30
0
41
1
10
39.5654038080724
20
19.3997129590962
30
0
41
1
10
39.5620300606196
20
19.3996198303901
30
0
41
1
10
39.5586263196523
20
19.3990276171818
30
0
41
1
10
39.5552547094078
20
19.3978437472888
30
0
41
1
10
39.5519592951656
20
19.3960627367713
30
0
41
1
10
39.5487050739798
20
19.3936425794594
30
0
41
1
10
39.5455559249291
20
19.3905332892434
30
0
41
1
10
39.5425535785281
20
19.3867327102656
30
0
41
1
10
39.5398619934435
20
19.3825168260083
30
0
41
1
10
39.5372401516597
20
19.3775574447718
30
0
41
1
10
39.5347288978579
20
19.3718357258033
30
0
41
1
10
39.5323726497148
20
19.3653266259082
30
0
41
1
10
39.5303306661171
20
19.3585184345585
30
0
41
1
10
39.5285672599878
20
19.3514696047326
30
0
41
1
10
39.5270488282297
20
19.3442365325873
30
0
41
1
10
39.525483232937
20
19.3354417335058
30
0
41
1
10
39.5239801453433
20
19.3250128246929
30
0
41
1
10
39.5226695507313
20
19.3128758551402
30
0
41
1
10
39.5217074065731
20
19.300535128304
30
0
41
1
10
39.5209693049647
20
19.286661687545
30
0
41
1
10
39.5205585758083
20
19.2725652297034
30
0
41
1
10
39.5204762474748
20
19.2625915758181
30
0
41
1
10
39.5204809498914
20
19.2582581967162
30
0
0
SPLINE
5
F6
100
AcDbEntity
8
1
62
256
6
ByLayer
370
18
48
1
60
0
100
AcDbSpline
70
4
71
3
72
13
73
9
40
0
40
0
40
0
40
0
40
0.166655895385702
40
0.333312293668031
40
0.499968101828385
40
0.666645232266318
40
0.833322980959062
40
1
40
1
40
1
40
1
41
1
10
39.6054809471617
20
19.3737007520068
30
0
41
1
10
39.6416524901801
20
19.3330486174986
30
0
41
1
10
39.7138692283637
20
19.2515954308836
30
0
41
1
10
39.8218216002016
20
19.1289757522045
30
0
41
1
10
39.9293857506616
20
19.0058916537363
30
0
41
1
10
40.0365479896531
20
18.8823304297535
30
0
41
1
10
40.1432928252733
20
18.7582775594113
30
0
41
1
10
40.2141589991134
20
18.6752369902682
30
0
41
1
10
40.2495190528383
20
18.63363333884
30
0
0
SPLINE
5
F7
100
AcDbEntity
8
1
62
256
6
ByLayer
370
18
48
1
60
0
100
AcDbSpline
70
4
71
3
72
36
73
32
40
0
40
0
40
0
40
0
40
0.0267557926030454
40
0.0535713493494635
40
0.0803508341244848
40
0.10705731552017
40
0.131312143067981
40
0.155615025955141
40
0.179832589613737
40
0.204322615872495
40
0.228915829750425
40
0.253396464761162
40
0.274218672101815
40
0.295103847920112
40
0.315946572744745
40
0.340589583261478
40
0.365316925795539
40
0.39008354396639
40
0.41478027956777
40
0.452526679171577
40
0.490359562192801
40
0.52828110125235
40
0.566223292775767
40
0.604061601377055
40
0.653181615147406
40
0.702335527599752
40
0.751505593287599
40
0.800647648075386
40
0.86708941952921
40
0.933549566641457
40
1
40
1
40
1
40
1
41
1
10
40.2495190528383
20
18.63363333884
30
0
41
1
10
40.2507795174971
20
18.632143319949
30
0
41
1
10
40.2533435285414
20
18.6292456101822
30
0
41
1
10
40.2573077060956
20
18.6251290425042
30
0
41
1
10
40.2613952821849
20
18.6213272695922
30
0
41
1
10
40.2654695581354
20
18.6180109397897
30
0
41
1
10
40.2695111615255
20
18.615223808935
30
0
41
1
10
40.2734866709705
20
18.6129975901353
30
0
41
1
10
40.2775076450282
20
18.6113133893138
30
0
41
1
10
40.2815209468359
20
18.6103054898046
30
0
41
1
10
40.2854550630692
20
18.6099985558351
30
0
41
1
10
40.2890406243009
20
18.6103936900837
30
0
41
1
10
40.2922348631579
20
18.6113904792631
30
0
41
1
10
40.2950668267393
20
18.612794952665
30
0
41
1
10
40.2978595937151
20
18.6147276619525
30
0
41
1
10
40.3005635417484
20
18.6172230707843
30
0
41
1
10
40.3031482203952
20
18.6202757863173
30
0
41
1
10
40.3054837813192
20
18.6236750158671
30
0
41
1
10
40.3079594089901
20
18.6280024724663
30
0
41
1
10
40.3104701547112
20
18.6333571162975
30
0
41
1
10
40.3129076329101
20
18.6398192221442
30
0
41
1
10
40.3149907276351
20
18.6466132439181
30
0
41
1
10
40.3167678693326
20
18.6536556705651
30
0
41
1
10
40.3184440020312
20
18.6615970733456
30
0
41
1
10
40.3199829029489
20
18.6704511496466
30
0
41
1
10
40.3213247262883
20
18.6802488248533
30
0
41
1
10
40.3223841271409
20
18.6902129524246
30
0
41
1
10
40.3232964381252
20
18.7014915734838
30
0
41
1
10
40.3240035851827
20
18.7141053918188
30
0
41
1
10
40.3244305205816
20
18.7280786672489
30
0
41
1
10
40.3245236849411
20
18.7374732452115
30
0
41
1
10
40.3245190528383
20
18.7421921583254
30
0
0
SPLINE
5
F8
100
AcDbEntity
8
1
62
256
6
ByLayer
370
18
48
1
60
0
100
AcDbSpline
70
4
71
3
72
26
73
22
40
0
40
0
40
0
40
0
40
0.0413037723571767
40
0.0826256089148604
40
0.123960828470467
40
0.165296343587692
40
0.206611593607472
40
0.258171578617491
40
0.309743169912547
40
0.361317539065945
40
0.412881312880153
40
0.466624104530969
40
0.520375474886116
40
0.574127808310223
40
0.627871913442266
40
0.689786878004104
40
0.751707532871259
40
0.813622561984106
40
0.875746707113747
40
0.937876620178026
40
1
40
1
40
1
40
1
41
1
10
40.3245190528383
20
19.180039359129
30
0
41
1
10
40.3245150057576
20
19.1857850140185
30
0
41
1
10
40.3243772010547
20
19.1973265097943
30
0
41
1
10
40.3237642627116
20
19.2147975772783
30
0
41
1
10
40.322795476087
20
19.2323910432389
30
0
41
1
10
40.3215025440763
20
19.2500821297494
30
0
41
1
10
40.3197929375369
20
19.2693164766145
30
0
41
1
10
40.3176145435805
20
19.2901014082506
30
0
41
1
10
40.3148974601282
20
19.3124457639797
30
0
41
1
10
40.3118234303463
20
19.3348578895711
30
0
41
1
10
40.3083694331109
20
19.3576389469313
30
0
41
1
10
40.3045424320841
20
19.3807805764952
30
0
41
1
10
40.3003360180439
20
19.4042774764805
30
0
41
1
10
40.2958143670594
20
19.4278026740826
30
0
41
1
10
40.2907441810573
20
19.4525399770775
30
0
41
1
10
40.2850803579339
20
19.4784854614487
30
0
41
1
10
40.2787676789136
20
19.5056320682383
30
0
41
1
10
40.272063074111
20
19.5328068836187
30
0
41
1
10
40.2649682132421
20
19.5599998816406
30
0
41
1
10
40.2574759567487
20
19.5872019569451
30
0
41
1
10
40.2522152187203
20
19.6053122222598
30
0
41
1
10
40.2495190528383
20
19.6143615771271
30
0
0
SPLINE
5
F9
100
AcDbEntity
8
1
62
256
6
ByLayer
370
18
48
1
60
0
100
AcDbSpline
70
4
71
3
72
22
73
18
40
0
40
0
40
0
40
0
40
0.066626168426018
40
0.133253277801706
40
0.19988072642288
40
0.266507884266632
40
0.333134093343854
40
0.399759926812783
40
0.466386632296412
40
0.533013653078587
40
0.599640405198328
40
0.666266277781928
40
0.733012460794878
40
0.799759454145963
40
0.866506741265169
40
0.93325377941416
40
1
40
1
40
1
40
1
41
1
10
40.2495190528383
20
19.6143615771271
30
0
41
1
10
40.2364243345696
20
19.6582924515626
30
0
41
1
10
40.210067922842
20
19.7460874379714
30
0
41
1
10
40.170030684381
20
19.877578775916
30
0
41
1
10
40.1294970329242
20
20.0088676593664
30
0
41
1
10
40.0884713263026
20
20.1399519915744
30
0
41
1
10
40.046958258517
20
20.2708303583751
30
0
41
1
10
40.0049619500665
20
20.4015026644341
30
0
41
1
10
39.9624866232376
20
20.5319689663314
30
0
41
1
10
39.919536678909
20
20.6622286060574
30
0
41
1
10
39.8761168994925
20
20.7922797651337
30
0
41
1
10
39.832205311342
20
20.9221997630806
30
0
41
1
10
39.7878050635872
20
21.0519882784458
30
0
41
1
10
39.742919307591
20
21.1816451277999
30
0
41
1
10
39.6975792837593
20
21.3110916459419
30
0
41
1
10
39.6517892589513
20
21.4403263991962
30
0
41
1
10
39.6209665621037
20
21.5263414370952
30
0
41
1
10
39.6054809471617
20
21.5693134260414
30
0
0
SPLINE
5
FA
100
AcDbEntity
8
1
62
256
6
ByLayer
370
18
48
1
60
0
100
AcDbSpline
70
4
71
3
72
27
73
23
40
0
40
0
40
0
40
0
40
0.0670055616534624
40
0.134031035482076
40
0.201056661843111
40
0.268062431557025
40
0.321675342883947
40
0.375306512387661
40
0.428941619222238
40
0.48256866461488
40
0.536178115853362
40
0.582956595928424
40
0.629766879215681
40
0.676586065019968
40
0.723396673507117
40
0.770187156847153
40
0.816952428912053
40
0.855939444863597
40
0.894987047441213
40
0.934045100918581
40
0.973078310707619
40
1
40
1
40
1
40
1
41
1
10
39.6054809471617
20
21.5693134260414
30
0
41
1
10
39.6023392098572
20
21.5780327351573
30
0
41
1
10
39.5961950140498
20
21.5954794441458
30
0
41
1
10
39.5873974801357
20
21.6216747303068
30
0
41
1
10
39.5790237170578
20
21.6478717387812
30
0
41
1
10
39.5716074657524
20
21.6723096781951
30
0
41
1
10
39.5650568687703
20
21.6949805780197
30
0
41
1
10
39.5592958662346
20
21.7158850788823
30
0
41
1
10
39.5538340005306
20
21.7367547925478
30
0
41
1
10
39.5486849112296
20
21.7575745623407
30
0
41
1
10
39.5440679060544
20
21.7774505787305
30
0
41
1
10
39.5399428663461
20
21.7963861222152
30
0
41
1
10
39.5362828830568
20
21.8143833506625
30
0
41
1
10
39.5329220640043
20
21.8323057730406
30
0
41
1
10
39.5298864775043
20
21.8501307635161
30
0
41
1
10
39.5272017118076
20
21.8678358700483
30
0
41
1
10
39.5250239290142
20
21.8844269238206
30
0
41
1
10
39.5232959521788
20
21.8999220743933
30
0
41
1
10
39.5219849355445
20
21.9143302350069
30
0
41
1
10
39.5210373896989
20
21.9285784011353
30
0
41
1
10
39.520541520864
20
21.9411796352958
30
0
41
1
10
39.5204722561412
20
21.9489617715171
30
0
41
1
10
39.520480949964
20
21.9521188154647
30
0
0
SPLINE
5
FB
100
AcDbEntity
8
1
62
256
6
ByLayer
370
18
48
1
60
0
100
AcDbSpline
70
4
71
3
72
11
73
7
40
0
40
0
40
0
40
0
40
0.249998546865872
40
0.499997103610211
40
0.749998547678361
40
1
40
1
40
1
40
1
41
1
10
40.2495190528388
20
21.4146616975716
30
0
41
1
10
40.1959995281171
20
21.4652689481708
30
0
41
1
10
40.088884416438
20
21.5663757640078
30
0
41
1
10
39.9279789030681
20
21.7177082736915
30
0
41
1
10
39.7668526729626
20
21.8687287744606
30
0
41
1
10
39.6592951844467
20
21.9692104089359
30
0
41
1
10
39.6054809471617
20
22.0194006791821
30
0
0
SPLINE
5
FC
100
AcDbEntity
8
1
62
256
6
ByLayer
370
18
48
1
60
0
100
AcDbSpline
70
4
71
3
72
32
73
28
40
0
40
0
40
0
40
0
40
0.0634399937808602
40
0.126900660383639
40
0.190322652478011
40
0.23909344474569
40
0.287928798075465
40
0.336729212919243
40
0.385452292454899
40
0.417910895569113
40
0.450422370281078
40
0.482911235391859
40
0.515338953054625
40
0.548149165897139
40
0.581087841410279
40
0.61398197542016
40
0.646731196576761
40
0.680448448356674
40
0.714272226700555
40
0.747985334760576
40
0.781600419044212
40
0.815317717894674
40
0.848963685325269
40
0.886628081717265
40
0.924418973031972
40
0.96226296687197
40
1
40
1
40
1
40
1
41
1
10
40.3245190528383
20
21.4759079944298
30
0
41
1
10
40.3245243881624
20
21.472434844096
30
0
41
1
10
40.3244136278809
20
21.4655592397264
30
0
41
1
10
40.323906249158
20
21.4554404789873
30
0
41
1
10
40.3230592847146
20
21.4463417680487
30
0
41
1
10
40.3219454015544
20
21.4382341509308
30
0
41
1
10
40.3206249358277
20
21.4310911452622
30
0
41
1
10
40.318952012901
20
21.4242345688829
30
0
41
1
10
40.3171142908158
20
21.4184531832396
30
0
41
1
10
40.3152203592943
20
21.4136730340844
30
0
41
1
10
40.3133780178505
20
21.4098006208683
30
0
41
1
10
40.3112975872685
20
21.4061942991091
30
0
41
1
10
40.3089540792553
20
21.4028852613306
30
0
41
1
10
40.3063145519636
20
21.3999356476858
30
0
41
1
10
40.3033642126948
20
21.3974062987793
30
0
41
1
10
40.3001153834604
20
21.3953680390692
30
0
41
1
10
40.2965365225067
20
21.3938767852211
30
0
41
1
10
40.2926170349972
20
21.3930378354286
30
0
41
1
10
40.288402633289
20
21.3928707169653
30
0
41
1
10
40.2839846142634
20
21.3933914914482
30
0
41
1
10
40.2794172954443
20
21.3946135096731
30
0
41
1
10
40.2747685463302
20
21.3964469427067
30
0
41
1
10
40.2698972801847
20
21.3989288659626
30
0
41
1
10
40.2648449541568
20
21.4020736743524
30
0
41
1
10
40.2596498947577
20
21.4058484346472
30
0
41
1
10
40.2545280378355
20
21.4100581193069
30
0
41
1
10
40.2511772448252
20
21.4130878916423
30
0
41
1
10
40.2495190528388
20
21.4146616975716
30
0
0
SPLINE
5
FD
100
AcDbEntity
8
1
62
256
6
ByLayer
370
18
48
1
60
0
100
AcDbSpline
70
4
71
3
72
24
73
20
40
0
40
0
40
0
40
0
40
0.0686681501438173
40
0.137362263773589
40
0.206057246029935
40
0.274726581109661
40
0.34340467345119
40
0.412110777293248
40
0.480813132552706
40
0.549486111054839
40
0.607623432421423
40
0.66580834660235
40
0.723995832792476
40
0.782155000722837
40
0.840270711547679
40
0.880117297529752
40
0.919962744978416
40
0.959982471299729
40
1
40
1
40
1
40
1
41
1
10
40.2495190528383
20
22.0911859175859
30
0
41
1
10
40.252427505896
20
22.0838329681722
30
0
41
1
10
40.2581032413541
20
22.0691150469985
30
0
41
1
10
40.2661915183641
20
22.0470012007105
30
0
41
1
10
40.2738507916811
20
22.0248749818501
30
0
41
1
10
40.2810776873965
20
22.0027525868296
30
0
41
1
10
40.2878706835043
20
21.9806471555374
30
0
41
1
10
40.2942110409806
20
21.9585735028504
30
0
41
1
10
40.3000762672154
20
21.9365550295874
30
0
41
1
10
40.3051669408261
20
21.9157380673771
30
0
41
1
10
40.3095556363621
20
21.8961228572196
30
0
41
1
10
40.3132935715985
20
21.8777095809842
30
0
41
1
10
40.3165887195602
20
21.8594099388212
30
0
41
1
10
40.3193978373751
20
21.8412636748195
30
0
41
1
10
40.3214412763909
20
21.8251863180023
30
0
41
1
10
40.3228602152597
20
21.8111450147608
30
0
41
1
10
40.3237850686408
20
21.7990784183317
30
0
41
1
10
40.3243796715382
20
21.787146077255
30
0
41
1
10
40.3245140889791
20
21.7793158678413
30
0
41
1
10
40.3245190528383
20
21.7754320110877
30
0
0
SPLINE
5
FE
100
AcDbEntity
8
1
62
256
6
ByLayer
370
18
48
1
60
0
100
AcDbSpline
70
4
71
3
72
19
73
15
40
0
40
0
40
0
40
0
40
0.083308790128694
40
0.166618115923546
40
0.249927423291662
40
0.333236188292831
40
0.416545174773547
40
0.499854738238998
40
0.583164282056277
40
0.666473241743854
40
0.749854632382875
40
0.833236645636775
40
0.916618637935896
40
1
40
1
40
1
40
1
41
1
10
39.6054809471617
20
23.6254528336146
30
0
41
1
10
39.6241749842147
20
23.5833079721173
30
0
41
1
10
39.6614326552798
20
23.498941565761
30
0
41
1
10
39.7169296790812
20
23.3721628370493
30
0
41
1
10
39.7720310591385
20
23.2451543919057
30
0
41
1
10
39.8267327708426
20
23.1179159692657
30
0
41
1
10
39.8810303732765
20
22.9904468103435
30
0
41
1
10
39.9349194917708
20
22.8627462306953
30
0
41
1
10
39.9883953976339
20
22.7348142632322
30
0
41
1
10
40.041468761082
20
22.6066137288451
30
0
41
1
10
40.0941347137122
20
22.4781437732014
30
0
41
1
10
40.1463881284654
20
22.3494036076341
30
0
41
1
10
40.1982094080973
20
22.2204305670553
30
0
41
1
10
40.2324643850121
20
22.1342932513343
30
0
41
1
10
40.2495190528383
20
22.0911859175859
30
0
0
SPLINE
5
FF
100
AcDbEntity
8
1
62
256
6
ByLayer
370
18
48
1
60
0
100
AcDbSpline
70
4
71
3
72
33
73
29
40
0
40
0
40
0
40
0
40
0.0391223622133688
40
0.0783217471846426
40
0.117492781546508
40
0.156576402551473
40
0.18845337800925
40
0.220464878271333
40
0.252497629843575
40
0.284462072351403
40
0.316299417953955
40
0.352950312607314
40
0.389766339521498
40
0.426591789484937
40
0.46325559102464
40
0.495952428498324
40
0.528733849719753
40
0.561534925185835
40
0.594258630250998
40
0.638152469109676
40
0.682170716416514
40
0.726282215195497
40
0.770395631172505
40
0.814369528666659
40
0.863003939383215
40
0.911687046757256
40
0.960386484272293
40
1
40
1
40
1
40
1
41
1
10
39.6054809471617
20
23.9705635333407
30
0
41
1
10
39.6036111873852
20
23.972173386227
30
0
41
1
10
39.5998544681731
20
23.9752865458279
30
0
41
1
10
39.5941705477952
20
23.979649510868
30
0
41
1
10
39.5884633902624
20
23.9836368307189
30
0
41
1
10
39.5831091735316
20
23.9869792936384
30
0
41
1
10
39.5781286216251
20
23.9897047172699
30
0
41
1
10
39.5735324210125
20
23.9918787684851
30
0
41
1
10
39.5689994801693
20
23.9936664380403
30
0
41
1
10
39.5645704217025
20
23.9950307559631
30
0
41
1
10
39.5600627160373
20
23.9959841477676
30
0
41
1
10
39.5555384908828
20
23.9963920998274
30
0
41
1
10
39.5510618745236
20
23.9961793070004
30
0
41
1
10
39.5468762803796
20
23.9953479284919
30
0
41
1
10
39.5431620253283
20
23.9939575967624
30
0
41
1
10
39.5399049688744
20
23.9920955783328
30
0
41
1
10
39.5370465837075
20
23.9898859845046
30
0
41
1
10
39.534459473604
20
23.9872948146533
30
0
41
1
10
39.5318773250815
20
23.9840246689816
30
0
41
1
10
39.5294007203814
20
23.9799695958367
30
0
41
1
10
39.5271184540057
20
23.9750568962241
30
0
41
1
10
39.5252291414162
20
23.9697283394919
30
0
41
1
10
39.5237020259648
20
23.9640560990744
30
0
41
1
10
39.5224626349331
20
23.9578859287751
30
0
41
1
10
39.5215156273867
20
23.9512287844699
30
0
41
1
10
39.5208667692345
20
23.9440897769157
30
0
41
1
10
39.5205423538112
20
23.9371810441387
30
0
41
1
10
39.5204787285895
20
23.9326276753953
30
0
41
1
10
39.5204809478335
20
23.9305634774664
30
0
0
SPLINE
5
100
100
AcDbEntity
8
1
62
256
6
ByLayer
370
18
48
1
60
0
100
AcDbSpline
70
4
71
2
72
6
73
3
40
0
40
0
40
0
40
1
40
1
40
1
41
1
10
39.6054809471617
20
23.9705635333408
30
0
41
1
10
39.9277531848467
20
23.6936928186849
30
0
41
1
10
40.2495190528383
20
23.4160379589426
30
0
0
SPLINE
5
101
100
AcDbEntity
8
1
62
256
6
ByLayer
370
18
48
1
60
0
100
AcDbSpline
70
4
71
3
72
31
73
27
40
0
40
0
40
0
40
0
40
0.0387562707940303
40
0.07758852231419
40
0.11639256545354
40
0.15511028969194
40
0.194658259786462
40
0.234369236057531
40
0.274039797757671
40
0.313532419350137
40
0.349847404247765
40
0.386325074478384
40
0.422812744852998
40
0.459141426694657
40
0.491640607514895
40
0.524223118518146
40
0.556825264408749
40
0.589351285732645
40
0.633345724426077
40
0.677464525119186
40
0.721677035689779
40
0.765891873030148
40
0.809967100013136
40
0.873279693727487
40
0.936657670078349
40
1
40
1
40
1
40
1
41
1
10
40.2495190528383
20
23.4160379589426
30
0
41
1
10
40.2511514531953
20
23.4146262153249
30
0
41
1
10
40.2544320497058
20
23.4118959057408
30
0
41
1
10
40.2593977480892
20
23.4080685694946
30
0
41
1
10
40.2643865220786
20
23.404570037839
30
0
41
1
10
40.269411474107
20
23.4014221920408
30
0
41
1
10
40.2744510760317
20
23.3987016835614
30
0
41
1
10
40.2794679519855
20
23.3964676068921
30
0
41
1
10
40.2843755158647
20
23.3947876097429
30
0
41
1
10
40.2889879189254
20
23.3937497250695
30
0
41
1
10
40.2932636669781
20
23.3933630419611
30
0
41
1
10
40.2971989477447
20
23.3935464433921
30
0
41
1
10
40.3008823468068
20
23.3942699565285
30
0
41
1
10
40.3041585296228
20
23.3954819805177
30
0
41
1
10
40.307038716446
20
23.3971071324696
30
0
41
1
10
40.3095726513194
20
23.399038106522
30
0
41
1
10
40.3118697348167
20
23.4013024325428
30
0
41
1
10
40.3141744448004
20
23.4041691821413
30
0
41
1
10
40.3163954520023
20
23.4077342483527
30
0
41
1
10
40.3184509594409
20
23.4120644095821
30
0
41
1
10
40.3201568363321
20
23.4167616971922
30
0
41
1
10
40.3215402209732
20
23.4217618114147
30
0
41
1
10
40.3227875406056
20
23.4277782547676
30
0
41
1
10
40.3237783720312
20
23.4348978078145
30
0
41
1
10
40.3243912192305
20
23.4431915080623
30
0
41
1
10
40.3245251070725
20
23.4489082414174
30
0
41
1
10
40.3245190528383
20
23.4518174255441
30
0
0
SPLINE
5
102
100
AcDbEntity
8
1
62
256
6
ByLayer
370
18
48
1
60
0
100
AcDbSpline
70
4
71
3
72
25
73
21
40
0
40
0
40
0
40
0
40
0.044601430958853
40
0.0892510146940773
40
0.1339180505408
40
0.178543303820839
40
0.224298854958845
40
0.270078931228569
40
0.315865106620691
40
0.361628978999427
40
0.424614609648804
40
0.487651118902903
40
0.55071409372863
40
0.613768341836693
40
0.676768862587506
40
0.741385832307081
40
0.806045945979004
40
0.870721032274581
40
0.935382170447077
40
1
40
1
40
1
40
1
41
1
10
40.3245190528383
20
23.680963139062
30
0
41
1
10
40.3245135697821
20
23.6842856237643
30
0
41
1
10
40.3243485213172
20
23.6910256044438
30
0
41
1
10
40.3236156785728
20
23.7014372729931
30
0
41
1
10
40.322464819579
20
23.7120774212046
30
0
41
1
10
40.3209250744386
20
23.7229966958979
30
0
41
1
10
40.319028789828
20
23.7341644488329
30
0
41
1
10
40.3167878652689
20
23.7455664449585
30
0
41
1
10
40.3142436472191
20
23.7570861873094
30
0
41
1
10
40.3110654705429
20
23.7701597647424
30
0
41
1
10
40.3071507571484
20
23.7848147470231
30
0
41
1
10
40.3023862067646
20
23.8010708830753
30
0
41
1
10
40.2971914969747
20
23.8174334102506
30
0
41
1
10
40.2915957294953
20
23.8338708262886
30
0
41
1
10
40.2855739264828
20
23.850502030239
30
0
41
1
10
40.2791349832701
20
23.8673158987977
30
0
41
1
10
40.2722733625201
20
23.8843046213742
30
0
41
1
10
40.26505268386
20
23.9013100857622
30
0
41
1
10
40.2574833217543
20
23.9183114391974
30
0
41
1
10
40.2522113440648
20
23.9296296326844
30
0
41
1
10
40.2495190528383
20
23.9352844860648
30
0
0
SPLINE
5
103
100
AcDbEntity
8
1
62
256
6
ByLayer
370
18
48
1
60
0
100
AcDbSpline
70
4
71
3
72
17
73
13
40
0
40
0
40
0
40
0
40
0.099984300706523
40
0.199969534408379
40
0.299955115323485
40
0.399940417596414
40
0.499924775814688
40
0.599939231561699
40
0.699954526999974
40
0.799970135019512
40
0.899985492346166
40
1
40
1
40
1
40
1
41
1
10
40.2495190528383
20
23.9352844860648
30
0
41
1
10
40.2287133027647
20
23.9789829948914
30
0
41
1
10
40.1869661393213
20
24.0662935744194
30
0
41
1
10
40.1239364583124
20
24.1969987672502
30
0
41
1
10
40.0605048635073
20
24.3274448386494
30
0
41
1
10
39.9966762500081
20
24.457631980148
30
0
41
1
10
39.9324493907749
20
24.5875742707654
30
0
41
1
10
39.8678288502918
20
24.7172733096429
30
0
41
1
10
39.8028189910743
20
24.8467306996786
30
0
41
1
10
39.7374312355817
20
24.975934553198
30
0
41
1
10
39.6716701916345
20
25.1048852457503
30
0
41
1
10
39.6275849773077
20
25.1906848305584
30
0
41
1
10
39.6054809471617
20
25.23354250388
30
0
0
SPLINE
5
104
100
AcDbEntity
8
1
62
256
6
ByLayer
370
18
48
1
60
0
100
AcDbSpline
70
4
71
3
72
26
73
22
40
0
40
0
40
0
40
0
40
0.0679374129289707
40
0.135911601291896
40
0.203884525105497
40
0.271820212709627
40
0.327221474866601
40
0.382661821143385
40
0.438109706109891
40
0.493539464708235
40
0.54893184074807
40
0.602015800264798
40
0.655163825299445
40
0.708316284954938
40
0.761431473662243
40
0.814487861153318
40
0.858620597513735
40
0.902771798504783
40
0.946893679845967
40
0.980856771176575
40
1
40
1
40
1
40
1
41
1
10
39.6054809471617
20
25.23354250388
30
0
41
1
10
39.6023407872951
20
25.2396309098142
30
0
41
1
10
39.596187679557
20
25.251810018046
30
0
41
1
10
39.5873386271345
20
25.2700864889406
30
0
41
1
10
39.5788875961506
20
25.2883412589423
30
0
41
1
10
39.571342494275
20
25.305432818943
30
0
41
1
10
39.5646291051085
20
25.3213549883799
30
0
41
1
10
39.5586812861922
20
25.3361107926845
30
0
41
1
10
39.5530465924195
20
25.3507998173866
30
0
41
1
10
39.5477455194417
20
25.3653988620396
30
0
41
1
10
39.5428667577049
20
25.379687496066
30
0
41
1
10
39.5384079497917
20
25.3936592160805
30
0
41
1
10
39.5343824487621
20
25.4072992614032
30
0
41
1
10
39.5307655382509
20
25.4207739044781
30
0
41
1
10
39.5275996412675
20
25.4340378564668
30
0
41
1
10
39.5250749710112
20
25.4463220902993
30
0
41
1
10
39.5231378459299
20
25.4576365612454
30
0
41
1
10
39.5217417107752
20
25.4679924131061
30
0
41
1
10
39.5208832594367
20
25.477282826341
30
0
41
1
10
39.5205318937028
20
25.4844488452787
30
0
41
1
10
39.5204816097956
20
25.4882601576699
30
0
41
1
10
39.5204809496749
20
25.4896216629351
30
0
0
SPLINE
5
105
100
AcDbEntity
8
1
62
256
6
ByLayer
370
18
48
1
60
0
100
AcDbSpline
70
4
71
1
72
4
73
2
40
0
40
0
40
1
40
1
41
1
10
40.2495190528383
20
24.9767957315306
30
0
41
1
10
39.6054809471617
20
25.5101290627099
30
0
0
SPLINE
5
106
100
AcDbEntity
8
1
62
256
6
ByLayer
370
18
48
1
60
0
100
AcDbSpline
70
4
71
3
72
31
73
27
40
0
40
0
40
0
40
0
40
0.048054652876172
40
0.0962201891174624
40
0.144389045829392
40
0.19248881030218
40
0.240488178422618
40
0.287826997545665
40
0.335311599703284
40
0.382747747798133
40
0.430020277122272
40
0.468845846094819
40
0.507805595128706
40
0.546750544291413
40
0.585555860438559
40
0.624401697788225
40
0.66338659628126
40
0.702387256461751
40
0.74125466233602
40
0.780189429605194
40
0.819244172247678
40
0.858372635477172
40
0.897489288237749
40
0.936476146561239
40
0.968237507399495
40
1
40
1
40
1
40
1
41
1
10
40.3245190528383
20
24.9946727753959
30
0
41
1
10
40.3245216934993
20
24.9927785001705
30
0
41
1
10
40.3244334053293
20
24.9890582879785
30
0
41
1
10
40.3240313647371
20
24.9836789290215
30
0
41
1
10
40.3233243824675
20
24.9785471694497
30
0
41
1
10
40.3222883882831
20
24.9737072414983
30
0
41
1
10
40.3209041979379
20
24.9692228808887
30
0
41
1
10
40.3191413091606
20
24.9651389577687
30
0
41
1
10
40.3169798906331
20
24.9615034157866
30
0
41
1
10
40.3143937028775
20
24.9583600179162
30
0
41
1
10
40.3115445219914
20
24.9559330652813
30
0
41
1
10
40.3084977512425
20
24.9541809146882
30
0
41
1
10
40.3053484936484
20
24.9530017930064
30
0
41
1
10
40.3019105121821
20
24.9522952693436
30
0
41
1
10
40.2981996474688
20
24.9520858170993
30
0
41
1
10
40.2942259787815
20
24.9524030347104
30
0
41
1
10
40.2900290612775
20
24.9532168532114
30
0
41
1
10
40.285652273157
20
24.9545011913666
30
0
41
1
10
40.2811305428675
20
24.9562374964303
30
0
41
1
10
40.2764914735569
20
24.9584087887535
30
0
41
1
10
40.2717628351946
20
24.9609679434749
30
0
41
1
10
40.2669749120947
20
24.9638755124754
30
0
41
1
10
40.2621607388482
20
24.9670887728937
30
0
41
1
10
40.2576393452627
20
24.9703595173025
30
0
41
1
10
40.2534243107776
20
24.9736089710939
30
0
41
1
10
40.2508198695058
20
24.9757168792002
30
0
41
1
10
40.2495190528383
20
24.9767957315306
30
0
0
SPLINE
5
107
100
AcDbEntity
8
1
62
256
6
ByLayer
370
18
48
1
60
0
100
AcDbSpline
70
4
71
3
72
25
73
21
40
0
40
0
40
0
40
0
40
0.0703646991320142
40
0.140774586425561
40
0.211183018445129
40
0.281545731830666
40
0.339136509935091
40
0.396775858834641
40
0.454424466470114
40
0.512050423989292
40
0.569629961349864
40
0.622486817297417
40
0.675382614101721
40
0.728267587680806
40
0.78110967325892
40
0.82485762741264
40
0.86868496513954
40
0.912513909352799
40
0.956292772310311
40
1
40
1
40
1
40
1
41
1
10
40.2495190528383
20
25.3919687469227
30
0
41
1
10
40.2524125038174
20
25.3866810029328
30
0
41
1
10
40.2580760673421
20
25.3761026395784
30
0
41
1
10
40.2662025988642
20
25.3602258281265
30
0
41
1
10
40.273941025345
20
25.3443692076738
30
0
41
1
10
40.2808326346558
20
25.3295111426563
30
0
41
1
10
40.2869474453132
20
25.3156581077351
30
0
41
1
10
40.2923490125873
20
25.3028077366341
30
0
41
1
10
40.2974393115576
20
25.2900239422262
30
0
41
1
10
40.3021967827287
20
25.2773307730986
30
0
41
1
10
40.3064809296897
20
25.2650917624351
30
0
41
1
10
40.3103068524537
20
25.2533119077652
30
0
41
1
10
40.3136803231933
20
25.2419997833664
30
0
41
1
10
40.3166800879012
20
25.2308445542078
30
0
41
1
10
40.3191233231433
20
25.2205086445831
30
0
41
1
10
40.3210626962067
20
25.210978399307
30
0
41
1
10
40.3225444861325
20
25.202240044206
30
0
41
1
10
40.3236544366188
20
25.1937177066534
30
0
41
1
10
40.3243565100886
20
25.1854572059966
30
0
41
1
10
40.3245143092092
20
25.180169628281
30
0
41
1
10
40.3245190528383
20
25.1775779752017
30
0
0
SPLINE
5
108
100
AcDbEntity
8
1
62
256
6
ByLayer
370
18
48
1
60
0
100
AcDbSpline
70
4
71
3
72
15
73
11
40
0
40
0
40
0
40
0
40
0.124988019727269
40
0.249976734233678
40
0.374965415980309
40
0.499953391034907
40
0.624964679831859
40
0.749976738647141
40
0.874988760968207
40
1
40
1
40
1
40
1
41
1
10
39.6054809471617
20
26.5333642578061
30
0
41
1
10
39.6328687948493
20
26.4862324125538
30
0
41
1
10
39.6875091077157
20
26.391864314586
30
0
41
1
10
39.7690658849395
20
26.2500007512259
30
0
41
1
10
39.8502103559395
20
26.1078224866378
30
0
41
1
10
39.9309418343756
20
25.9653187907114
30
0
41
1
10
40.0112540509179
20
25.8224869005569
30
0
41
1
10
40.0911403890505
20
25.6793239787951
30
0
41
1
10
40.1705898015262
20
25.5358370332234
30
0
41
1
10
40.2232585867591
20
25.4399609870563
30
0
41
1
10
40.2495190528383
20
25.3919687469227
30
0
0
SPLINE
5
109
100
AcDbEntity
8
1
62
256
6
ByLayer
370
18
48
1
60
0
100
AcDbSpline
70
4
71
3
72
31
73
27
40
0
40
0
40
0
40
0
40
0.0418509702571974
40
0.0838019086694366
40
0.125762404183144
40
0.167666864126102
40
0.209478762733958
40
0.252050360988778
40
0.294817062958815
40
0.337617285852486
40
0.380320728027506
40
0.422839032586043
40
0.460345170371106
40
0.498007818841077
40
0.535729807204652
40
0.573403868615724
40
0.610919618713603
40
0.653083237336767
40
0.695360804398519
40
0.737661735759503
40
0.779857297621756
40
0.82400151245275
40
0.868255985925036
40
0.912601947653693
40
0.95698833177957
40
1
40
1
40
1
40
1
41
1
10
39.6054809471617
20
26.7591932680759
30
0
41
1
10
39.6035710771432
20
26.7607552831172
30
0
41
1
10
39.5997501323264
20
26.7637995257076
30
0
41
1
10
39.5940190306172
20
26.7681299214859
30
0
41
1
10
39.5883097216834
20
26.7721850505282
30
0
41
1
10
39.582649030054
20
26.7759276464125
30
0
41
1
10
39.5770265714126
20
26.7793440281147
30
0
41
1
10
39.5714644485338
20
26.7823800069184
30
0
41
1
10
39.5659926600378
20
26.7849946087804
30
0
41
1
10
39.560681918009
20
26.7871393566906
30
0
41
1
10
39.5555878255777
20
26.7887701748305
30
0
41
1
10
39.5509460117024
20
26.789804464693
30
0
41
1
10
39.5467635313124
20
26.7902730603519
30
0
41
1
10
39.5430082916417
20
26.7902653142244
30
0
41
1
10
39.5395188146351
20
26.7898111291786
30
0
41
1
10
39.5363200790055
20
26.7889193631917
30
0
41
1
10
39.5333136466575
20
26.7875377499989
30
0
41
1
10
39.5305576058753
20
26.7856091782994
30
0
41
1
10
39.5280797527174
20
26.7831235707337
30
0
41
1
10
39.5259778416102
20
26.7801961138497
30
0
41
1
10
39.5242171742694
20
26.7768146937088
30
0
41
1
10
39.5228038686849
20
26.7729916575414
30
0
41
1
10
39.52172812311
20
26.7687502209386
30
0
41
1
10
39.5209890316149
20
26.7641850774236
30
0
41
1
10
39.520571389767
20
26.7593828444103
30
0
41
1
10
39.5204795973738
20
26.7560430121364
30
0
41
1
10
39.5204809471908
20
26.754359705032
30
0
0
SPLINE
5
10A
100
AcDbEntity
8
1
62
256
6
ByLayer
370
18
48
1
60
0
100
AcDbSpline
70
4
71
1
72
4
73
2
40
0
40
0
40
1
40
1
41
1
10
39.6054809471617
20
26.7591932680759
30
0
41
1
10
40.2495190528383
20
26.2329786727337
30
0
0
SPLINE
5
10B
100
AcDbEntity
8
1
62
256
6
ByLayer
370
18
48
1
60
0
100
AcDbSpline
70
4
71
3
72
28
73
24
40
0
40
0
40
0
40
0
40
0.0524584669507038
40
0.10503624534241
40
0.157573609121797
40
0.209976832033833
40
0.252690110048784
40
0.29559896909632
40
0.338542021410309
40
0.381388608136358
40
0.424049424457435
40
0.471106167505601
40
0.518369573476716
40
0.565643545427843
40
0.612714759300509
40
0.655226222908207
40
0.697852046503927
40
0.740501374512978
40
0.783044972530348
40
0.837193950106235
40
0.89147436585682
40
0.945795445189323
40
1
40
1
40
1
40
1
41
1
10
40.2495190528383
20
26.2329786727337
30
0
41
1
10
40.2516289092409
20
26.2312519781661
30
0
41
1
10
40.2558467236604
20
26.2279141084773
30
0
41
1
10
40.2621673252438
20
26.2232416836132
30
0
41
1
10
40.2684391583672
20
26.218977396953
30
0
41
1
10
40.2742428770359
20
26.2154105153947
30
0
41
1
10
40.2795610876843
20
26.2125106613223
30
0
41
1
10
40.2843963295931
20
26.2102033768068
30
0
41
1
10
40.2890884970015
20
26.2083111852671
30
0
41
1
10
40.2935884901898
20
26.2068724017865
30
0
41
1
10
40.2980015828056
20
26.205889587549
30
0
41
1
10
40.3022540201027
20
26.2054706107586
30
0
41
1
10
40.3062891022597
20
26.2056603194825
30
0
41
1
10
40.3099403469768
20
26.2064538778681
30
0
41
1
10
40.3130675400942
20
26.2077991206586
30
0
41
1
10
40.3156933871107
20
26.2096205271186
30
0
41
1
10
40.31788684531
20
26.2118054699971
30
0
41
1
10
40.3197445012667
20
26.2143799805359
30
0
41
1
10
40.3214123332276
20
26.2175753047528
30
0
41
1
10
40.3227935804559
20
26.2214751793212
30
0
41
1
10
40.3238125790201
20
26.226127950777
30
0
41
1
10
40.3243944338364
20
26.2311757214082
30
0
41
1
10
40.3245225180197
20
26.2347548022513
30
0
41
1
10
40.3245190528383
20
26.2365998497609
30
0
0
SPLINE
5
10C
100
AcDbEntity
8
1
62
256
6
ByLayer
370
18
48
1
60
0
100
AcDbSpline
70
4
71
3
72
26
73
22
40
0
40
0
40
0
40
0
40
0.0385565456335216
40
0.0771626152149088
40
0.115782486065641
40
0.154357874549091
40
0.207484417675796
40
0.260651785792157
40
0.313791982419117
40
0.372639292422533
40
0.43154325504208
40
0.490460013651496
40
0.549324788835577
40
0.609734126151536
40
0.670183604340457
40
0.73063808193719
40
0.791054241054393
40
0.843204823629037
40
0.895355596477879
40
0.947677772234533
40
1
40
1
40
1
40
1
41
1
10
40.3245190528383
20
26.3850774567956
30
0
41
1
10
40.3245156988944
20
26.3869213567094
30
0
41
1
10
40.3243922940058
20
26.3906987769201
30
0
41
1
10
40.3238429890506
20
26.3966459640752
30
0
41
1
10
40.3229702724511
20
26.4028220610493
30
0
41
1
10
40.3216513946267
20
26.4099983615648
30
0
41
1
10
40.3197787645747
20
26.4182331744385
30
0
41
1
10
40.3172485418931
20
26.4275696063445
30
0
41
1
10
40.3141879538247
20
26.4374777331722
30
0
41
1
10
40.3105889950432
20
26.4479444718229
30
0
41
1
10
40.3064377465978
20
26.4589592594631
30
0
41
1
10
40.3018901397402
20
26.4701366316938
30
0
41
1
10
40.29693739173
20
26.4815431055506
30
0
41
1
10
40.2915969143937
20
26.4931596593276
30
0
41
1
10
40.2858767954153
20
26.5049729151236
30
0
41
1
10
40.2798435860064
20
26.5168618133042
30
0
41
1
10
40.2738052525893
20
26.5282621967314
30
0
41
1
10
40.2678205420037
20
26.5391517294813
30
0
41
1
10
40.2619290121602
20
26.5495293380165
30
0
41
1
10
40.2558365434734
20
26.559933715096
30
0
41
1
10
40.2516459415652
20
26.5668801470431
30
0
41
1
10
40.2495190528383
20
26.5703546552214
30
0
0
SPLINE
5
10D
100
AcDbEntity
8
1
62
256
6
ByLayer
370
18
48
1
60
0
100
AcDbSpline
70
4
71
3
72
14
73
10
40
0
40
0
40
0
40
0
40
0.124991812352006
40
0.249984142995058
40
0.374976497021849
40
0.499968341260913
40
0.666645355677589
40
0.833322943344418
40
1
40
1
40
1
40
1
41
1
10
40.2495190528383
20
26.5703546552214
30
0
41
1
10
40.2231082787948
20
26.6135001163048
30
0
41
1
10
40.1701786053699
20
26.6997024295847
30
0
41
1
10
40.0904578252273
20
26.8287386093975
30
0
41
1
10
40.0104173127903
20
26.9575104822427
30
0
41
1
10
39.9211282805779
20
27.1003059126807
30
0
41
1
10
39.8224630265859
20
27.2570168346806
30
0
41
1
10
39.7142810627519
20
27.4275224292531
30
0
41
1
10
39.6418069367697
20
27.5408926283996
30
0
41
1
10
39.6054809471617
20
27.5975021651337
30
0
0
SPLINE
5
10E
100
AcDbEntity
8
1
62
256
6
ByLayer
370
18
48
1
60
0
100
AcDbSpline
70
4
71
3
72
28
73
24
40
0
40
0
40
0
40
0
40
0.0576434457896765
40
0.115334306644699
40
0.173037908391
40
0.230722803630645
40
0.288361241926805
40
0.347864982013694
40
0.407444608523973
40
0.467035889738405
40
0.526589056622697
40
0.58607057724888
40
0.629432430293987
40
0.672876860397839
40
0.716345522842708
40
0.759793015153585
40
0.803188548238531
40
0.846517747276725
40
0.882857009400176
40
0.919313095927711
40
0.955801332844349
40
0.992256510541192
40
1
40
1
40
1
40
1
41
1
10
39.6054809471617
20
27.5975021651337
30
0
41
1
10
39.6028586657032
20
27.601588410504
30
0
41
1
10
39.5976929633319
20
27.6097563335332
30
0
41
1
10
39.5901807566845
20
27.6219931474749
30
0
41
1
10
39.5829205918514
20
27.6341967695732
30
0
41
1
10
39.5759276102828
20
27.6463478472839
30
0
41
1
10
39.5691435840536
20
27.6585603796227
30
0
41
1
10
39.5625893463312
20
27.6708223454782
30
0
41
1
10
39.5562974987432
20
27.6831136879684
30
0
41
1
10
39.5503659668506
20
27.6952780879298
30
0
41
1
10
39.5448289763156
20
27.707277970645
30
0
41
1
10
39.5401797056184
20
27.7180160525706
30
0
41
1
10
39.5363159283356
20
27.7275294757066
30
0
41
1
10
39.5331386689689
20
27.73586405716
30
0
41
1
10
39.5302458942934
20
27.7440450991562
30
0
41
1
10
39.5276651744041
20
27.7520399814694
30
0
41
1
10
39.525424543766
20
27.7598156852559
30
0
41
1
10
39.523650485371
20
27.7669393528771
30
0
41
1
10
39.5223027045053
20
27.7734327865312
30
0
41
1
10
39.5213396118515
20
27.7793198684164
30
0
41
1
10
39.5207041223779
20
27.7849604838867
30
0
41
1
10
39.5205008158607
20
27.7889067003466
30
0
41
1
10
39.5204815518831
20
27.7909900468426
30
0
41
1
10
39.5204809482201
20
27.791352741021
30
0
0
SPLINE
5
10F
100
AcDbEntity
8
1
62
256
6
ByLayer
370
18
48
1
60
0
100
AcDbSpline
70
4
71
1
72
4
73
2
40
0
40
0
40
1
40
1
41
1
10
40.2495190528383
20
27.2553517208022
30
0
41
1
10
39.6054809471617
20
27.7827440993611
30
0
0
SPLINE
5
110
100
AcDbEntity
8
1
62
256
6
ByLayer
370
18
48
1
60
0
100
AcDbSpline
70
4
71
3
72
28
73
24
40
0
40
0
40
0
40
0
40
0.0532451984862295
40
0.106623457847048
40
0.159963302157196
40
0.213155978566855
40
0.256375230511595
40
0.299781977204486
40
0.343230315378392
40
0.386594473686035
40
0.429777854094208
40
0.478355662239488
40
0.527125706031224
40
0.575910453560991
40
0.624508390467918
40
0.670814284670918
40
0.717241510031573
40
0.763693860380649
40
0.810034102259581
40
0.857475944539275
40
0.904994787763205
40
0.952532452388734
40
1
40
1
40
1
40
1
41
1
10
40.3245190528383
20
27.2467561030828
30
0
41
1
10
40.3245217377116
20
27.2452023365043
30
0
41
1
10
40.3243846709735
20
27.242219462637
30
0
41
1
10
40.3237640195426
20
27.2381085405537
30
0
41
1
10
40.3226895645569
20
27.2344293321441
30
0
41
1
10
40.3212337198915
20
27.2314329540114
30
0
41
1
10
40.3194587202176
20
27.229078803626
30
0
41
1
10
40.3174593875314
20
27.2272800921892
30
0
41
1
10
40.3151152262651
20
27.2258863578889
30
0
41
1
10
40.3124335091881
20
27.2249242573039
30
0
41
1
10
40.3092909265539
20
27.224398098544
30
0
41
1
10
40.3056308578603
20
27.2244099509419
30
0
41
1
10
40.3014482877481
20
27.2250064836098
30
0
41
1
10
40.2969319170185
20
27.2261644750352
30
0
41
1
10
40.2921994603874
20
27.2278424768486
30
0
41
1
10
40.2872998861038
20
27.2299963174096
30
0
41
1
10
40.2822881543251
20
27.2325467180678
30
0
41
1
10
40.2771246017472
20
27.2354893947642
30
0
41
1
10
40.2718033879668
20
27.2388138938859
30
0
41
1
10
40.2663477013505
20
27.2424987442879
30
0
41
1
10
40.2607785612787
20
27.2465137994633
30
0
41
1
10
40.2551614212564
20
27.2507988818428
30
0
41
1
10
40.2514022959589
20
27.2538079552808
30
0
41
1
10
40.2495190528383
20
27.2553517208022
30
0
0
SPLINE
5
111
100
AcDbEntity
8
1
62
256
6
ByLayer
370
18
48
1
60
0
100
AcDbSpline
70
4
71
3
72
26
73
22
40
0
40
0
40
0
40
0
40
0.069418385187674
40
0.138894320983783
40
0.208365561373678
40
0.277777538347238
40
0.335062384787066
40
0.392417079551467
40
0.449783723114793
40
0.507116437858222
40
0.564382827527187
40
0.614843611726143
40
0.66532500759759
40
0.715778493470458
40
0.767305989859118
40
0.818866201501411
40
0.870377823882291
40
0.902655409558201
40
0.93493183370036
40
0.96746672124677
40
1
40
1
40
1
40
1
41
1
10
40.2495190528383
20
27.5300672644229
30
0
41
1
10
40.2523146987206
20
27.5259125169863
30
0
41
1
10
40.2578035652913
20
27.517612529303
30
0
41
1
10
40.2657323531875
20
27.5051903865136
30
0
41
1
10
40.2733285297128
20
27.4928267093042
30
0
41
1
10
40.2801488859442
20
27.4812601183487
30
0
41
1
10
40.2862449761125
20
27.4704915819485
30
0
41
1
10
40.2916683557848
20
27.4605139998693
30
0
41
1
10
40.296798449873
20
27.4506385235169
30
0
41
1
10
40.3016085884201
20
27.4408937703097
30
0
41
1
10
40.3058977748833
20
27.4316832053965
30
0
41
1
10
40.3096892843573
20
27.4230073883516
30
0
41
1
10
40.3130050632923
20
27.4148652924634
30
0
41
1
10
40.3160020667026
20
27.4068540479759
30
0
41
1
10
40.3186414202883
20
27.3990088810009
30
0
41
1
10
40.3208732446373
20
27.3913776071072
30
0
41
1
10
40.3224153429554
20
27.3849731243893
30
0
41
1
10
40.3234201028129
20
27.3797100131171
30
0
41
1
10
40.3240411917653
20
27.3754719472038
30
0
41
1
10
40.3244297616955
20
27.3714048696052
30
0
41
1
10
40.324517165836
20
27.3688287432403
30
0
41
1
10
40.3245190528383
20
27.3675746358548
30
0
0
SPLINE
5
112
100
AcDbEntity
8
1
62
256
6
ByLayer
370
18
48
1
60
0
100
AcDbSpline
70
4
71
3
72
13
73
9
40
0
40
0
40
0
40
0
40
0.166659547741856
40
0.333319457245375
40
0.499978977163021
40
0.666652529084657
40
0.833326479068975
40
1
40
1
40
1
40
1
41
1
10
39.6054809471617
20
28.4690798577815
30
0
41
1
10
39.6416694217323
20
28.4172918182931
30
0
41
1
10
39.7139121626003
20
28.3135913895099
30
0
41
1
10
39.8218767810993
20
28.1576701984005
30
0
41
1
10
39.9294347250992
20
28.0013677179474
30
0
41
1
10
40.036579051004
20
27.8446797774009
30
0
41
1
10
40.1433024610356
20
27.6876019673066
30
0
41
1
10
40.2141614705207
20
27.5826220964943
30
0
41
1
10
40.2495190528383
20
27.5300672644229
30
0
0
SPLINE
5
113
100
AcDbEntity
8
1
62
256
6
ByLayer
370
18
48
1
60
0
100
AcDbSpline
70
4
71
3
72
29
73
25
40
0
40
0
40
0
40
0
40
0.0513526040109111
40
0.102841569296679
40
0.15434442820405
40
0.205771545630417
40
0.257072144405529
40
0.300261560263661
40
0.343596270334637
40
0.386956606325782
40
0.430246059568339
40
0.473397393491534
40
0.516843790503293
40
0.560481543932876
40
0.60418056914422
40
0.647810766239599
40
0.691250797852203
40
0.739113591380791
40
0.787126060887317
40
0.835161054044098
40
0.883054655001951
40
0.935294583898581
40
0.987695556224732
40
1
40
1
40
1
40
1
41
1
10
39.6054809471617
20
28.6201256110366
30
0
41
1
10
39.6031897920279
20
28.6220264966845
30
0
41
1
10
39.5986208068679
20
28.6257398924256
30
0
41
1
10
39.5918113714408
20
28.6310474231574
30
0
41
1
10
39.5850784040441
20
28.6360456315555
30
0
41
1
10
39.5784600843625
20
28.6406890995531
30
0
41
1
10
39.5723312262267
20
28.644710927414
30
0
41
1
10
39.5666944951021
20
28.648138893707
30
0
41
1
10
39.5615385216772
20
28.6510243464897
30
0
41
1
10
39.556560395607
20
28.6535435199145
30
0
41
1
10
39.5518017670316
20
28.6556610621169
30
0
41
1
10
39.5472862219664
20
28.6573508144849
30
0
41
1
10
39.5430526644044
20
28.6585672414434
30
0
41
1
10
39.5391196716208
20
28.6593047011184
30
0
41
1
10
39.5355178126011
20
28.6595604154002
30
0
41
1
10
39.5322796504899
20
28.6593292144109
30
0
41
1
10
39.5293368097312
20
28.6585773193536
30
0
41
1
10
39.5267591855404
20
28.6572374181152
30
0
41
1
10
39.5245763706081
20
28.6552981787098
30
0
41
1
10
39.5228634698191
20
28.6528401939256
30
0
41
1
10
39.5215792143353
20
28.6498071141283
30
0
41
1
10
39.5207582969117
20
28.6461820722069
30
0
41
1
10
39.5205171059439
20
28.643032800962
30
0
41
1
10
39.5204832479814
20
28.6412009238376
30
0
41
1
10
39.5204809484386
20
28.6408487377063
30
0
0
SPLINE
5
114
100
AcDbEntity
8
1
62
256
6
ByLayer
370
18
48
1
60
0
100
AcDbSpline
70
4
71
1
72
4
73
2
40
0
40
0
40
1
40
1
41
1
10
39.6054809471617
20
28.6201256110366
30
0
41
1
10
40.2495190528383
20
28.0859380746278
30
0
0
SPLINE
5
115
100
AcDbEntity
8
1
62
256
6
ByLayer
370
18
48
1
60
0
100
AcDbSpline
70
4
71
3
72
28
73
24
40
0
40
0
40
0
40
0
40
0.0517942260672874
40
0.103726841685633
40
0.155673725142633
40
0.207543891744791
40
0.259285606228348
40
0.30284945361383
40
0.346559890877695
40
0.390296549068188
40
0.433962032729016
40
0.477488053254235
40
0.521304715779411
40
0.565313106681366
40
0.609383177759918
40
0.653384565053923
40
0.697195327954682
40
0.745616888346256
40
0.79418983930467
40
0.842785284978115
40
0.891237613235511
40
0.945615412809512
40
1
40
1
40
1
40
1
41
1
10
40.2495190528383
20
28.0859380746278
30
0
41
1
10
40.2515552085959
20
28.0842471951943
30
0
41
1
10
40.2556152319761
20
28.0809439090786
30
0
41
1
10
40.2616648710636
20
28.0762222721569
30
0
41
1
10
40.2676448145404
20
28.0717752520765
30
0
41
1
10
40.2735207416244
20
28.0676431324031
30
0
41
1
10
40.2789597258449
20
28.0640632276201
30
0
41
1
10
40.2839594566322
20
28.0610108042988
30
0
41
1
10
40.2885302867854
20
28.0584398490246
30
0
41
1
10
40.2929405541007
20
28.0561930300949
30
0
41
1
10
40.297153108673
20
28.0543012742929
30
0
41
1
10
40.301146593749
20
28.052787480622
30
0
41
1
10
40.3048863220898
20
28.0516911545557
30
0
41
1
10
40.3083558889808
20
28.0510166204502
30
0
41
1
10
40.3115284585977
20
28.0507660986912
30
0
41
1
10
40.314375310948
20
28.0509438684656
30
0
41
1
10
40.3169590943582
20
28.0515791242757
30
0
41
1
10
40.319215806259
20
28.0527325646898
30
0
41
1
10
40.3211171160249
20
28.054415916006
30
0
41
1
10
40.3225947609936
20
28.0565583439423
30
0
41
1
10
40.32369614692
20
28.0592341504555
30
0
41
1
10
40.324367722528
20
28.0624777091251
30
0
41
1
10
40.324522249433
20
28.0650064677964
30
0
41
1
10
40.3245190528383
20
28.0663467902297
30
0
0
SPLINE
5
116
100
AcDbEntity
8
1
62
256
6
ByLayer
370
18
48
1
60
0
100
AcDbSpline
70
4
71
3
72
26
73
22
40
0
40
0
40
0
40
0
40
0.0443326812998323
40
0.0887211730373385
40
0.133070227576349
40
0.178949173651651
40
0.224867580852565
40
0.270757733027398
40
0.31706476785049
40
0.36341766196557
40
0.409780028927915
40
0.456099993578761
40
0.519542340846487
40
0.583027227098108
40
0.64647973319343
40
0.70500878791498
40
0.763561821599917
40
0.822094522947771
40
0.881388960656232
40
0.940703804009748
40
1
40
1
40
1
40
1
41
1
10
40.3245190528383
20
28.1637522287218
30
0
41
1
10
40.3245147722943
20
28.1651174837876
30
0
41
1
10
40.3243562469004
20
28.167976583023
30
0
41
1
10
40.3236515026394
20
28.1726682489988
30
0
41
1
10
40.3225172222811
20
28.1777540993143
30
0
41
1
10
40.3209658419227
20
28.18321055435
30
0
41
1
10
40.3190184350739
20
28.1890068753119
30
0
41
1
10
40.3167163285927
20
28.1950652544798
30
0
41
1
10
40.3140850191107
20
28.201356986226
30
0
41
1
10
40.3111458162525
20
28.2078592035373
30
0
41
1
10
40.3079303236158
20
28.2145276383619
30
0
41
1
10
40.3040336390929
20
28.2221780335794
30
0
41
1
10
40.2993614720955
20
28.2308547582823
30
0
41
1
10
40.2938254862823
20
28.2405876314073
30
0
41
1
10
40.2880754532424
20
28.2502303297014
30
0
41
1
10
40.2821731977036
20
28.2597408707064
30
0
41
1
10
40.2761665979747
20
28.2690896809876
30
0
41
1
10
40.2698858625386
20
28.2785599366722
30
0
41
1
10
40.2633444566962
20
28.2881367424941
30
0
41
1
10
40.2565518009407
20
28.2978082039038
30
0
41
1
10
40.2518864893218
20
28.3042795643182
30
0
41
1
10
40.2495190528383
20
28.3075215858111
30
0
0
SPLINE
5
117
100
AcDbEntity
8
1
62
256
6
ByLayer
370
18
48
1
60
0
100
AcDbSpline
70
4
71
3
72
13
73
9
40
0
40
0
40
0
40
0
40
0.166661617296802
40
0.333323529256958
40
0.499985167290288
40
0.666656682522076
40
0.833328466119308
40
1
40
1
40
1
40
1
41
1
10
40.2495190528383
20
28.3075215858111
30
0
41
1
10
40.2140651718397
20
28.3560787485684
30
0
41
1
10
40.1430472039753
20
28.4530852706117
30
0
41
1
10
40.0361871383037
20
28.5982694839994
30
0
41
1
10
39.9289999431413
20
28.7431366263208
30
0
41
1
10
39.8214909587304
20
28.8876904443295
30
0
41
1
10
39.7136652592373
20
29.0319344770259
30
0
41
1
10
39.6415767599628
20
29.1278923628919
30
0
41
1
10
39.6054809471617
20
29.1758197623512
30
0
0
SPLINE
5
118
100
AcDbEntity
8
1
62
256
6
ByLayer
370
18
48
1
60
0
100
AcDbSpline
70
4
71
3
72
27
73
23
40
0
40
0
40
0
40
0
40
0.0633031817516702
40
0.126656597458663
40
0.190004723179249
40
0.253300685478671
40
0.30548822630565
40
0.357737782799681
40
0.409998341319397
40
0.462229147947971
40
0.514400944844318
40
0.560645730728375
40
0.607003506535449
40
0.653396065181477
40
0.699761498386887
40
0.746056606011068
40
0.792259520380573
40
0.836031412555026
40
0.87994440287278
40
0.923872364119695
40
0.96772225425069
40
1
40
1
40
1
40
1
41
1
10
39.6054809471617
20
29.1758197623512
30
0
41
1
10
39.6026394305975
20
29.179592177237
30
0
41
1
10
39.5970406084138
20
29.187117749519
30
0
41
1
10
39.5888921702379
20
29.1983495097622
30
0
41
1
10
39.5810213617605
20
29.2094960159861
30
0
41
1
10
39.5738923387976
20
29.219889414773
30
0
41
1
10
39.5674641871686
20
29.229534005002
30
0
41
1
10
39.5616932065288
20
29.2384415638593
30
0
41
1
10
39.5561735938097
20
29.2472315359797
30
0
41
1
10
39.5509298793864
20
29.2558777226083
30
0
41
1
10
39.5461711517838
20
29.2640372188633
30
0
41
1
10
39.5418768729672
20
29.2717165739885
30
0
41
1
10
39.5380267770438
20
29.2789227858567
30
0
41
1
10
39.5344698458078
20
29.2859450495459
30
0
41
1
10
39.5312370562626
20
29.2927473031054
30
0
41
1
10
39.5283599325575
20
29.2992930313054
30
0
41
1
10
39.5259101345269
20
29.3054416627797
30
0
41
1
10
39.5238974918759
20
29.3111794923375
30
0
41
1
10
39.5223276787034
20
29.316492645071
30
0
41
1
10
39.5211973145757
20
29.3214412184991
30
0
41
1
10
39.5205991259537
20
29.3255784926968
30
0
41
1
10
39.5204840033536
20
29.3279601891787
30
0
41
1
10
39.5204809482594
20
29.3289289227777
30
0
0
SPLINE
5
119
100
AcDbEntity
8
1
62
256
6
ByLayer
370
18
48
1
60
0
100
AcDbSpline
70
4
71
2
72
6
73
3
40
0
40
0
40
0
40
1
40
1
40
1
41
1
10
40.2495190528383
20
28.75167879985
30
0
41
1
10
39.9276189142756
20
29.0244849354745
30
0
41
1
10
39.6054809471617
20
29.2969165050502
30
0
0
SPLINE
5
11A
100
AcDbEntity
8
1
62
256
6
ByLayer
370
18
48
1
60
0
100
AcDbSpline
70
4
71
3
72
27
73
23
40
0
40
0
40
0
40
0
40
0.0523540730095836
40
0.104869956945876
40
0.157358301763362
40
0.209674701685252
40
0.251961335142545
40
0.294408374245541
40
0.336909327401105
40
0.379355196139172
40
0.421640844278745
40
0.471734371756178
40
0.521982215129311
40
0.572252705832984
40
0.622377208574096
40
0.676911374560327
40
0.731615060222849
40
0.78641832752084
40
0.84120099748877
40
0.895801621776819
40
0.947899524010962
40
1
40
1
40
1
40
1
41
1
10
40.3245190528383
20
28.7218312162064
30
0
41
1
10
40.324520003232
20
28.7207729300689
30
0
41
1
10
40.3243641965068
20
28.7188059620586
30
0
41
1
10
40.3236622397905
20
28.7162994400596
30
0
41
1
10
40.3224742286016
20
28.7142825894966
30
0
41
1
10
40.3208935149589
20
28.7128875584052
30
0
41
1
10
40.3190040698604
20
28.7120441019297
30
0
41
1
10
40.3169181877905
20
28.7116381432757
30
0
41
1
10
40.314512787598
20
28.7116059258857
30
0
41
1
10
40.3118054197817
20
28.7119481778459
30
0
41
1
10
40.3086223827954
20
28.7127126546975
30
0
41
1
10
40.3049053819207
20
28.7139889011583
30
0
41
1
10
40.3006348441901
20
28.7158256339416
30
0
41
1
10
40.2960586620232
20
28.7181190522678
30
0
41
1
10
40.291075460229
20
28.7209185718741
30
0
41
1
10
40.2856883114797
20
28.7242437048495
30
0
41
1
10
40.2799165169174
20
28.7280859871202
30
0
41
1
10
40.2739509494293
20
28.7323083944352
30
0
41
1
10
40.267840529511
20
28.7368605839207
30
0
41
1
10
40.2617146359562
20
28.741630363489
30
0
41
1
10
40.2556024994752
20
28.7465736653666
30
0
41
1
10
40.2515542239537
20
28.7499529843074
30
0
41
1
10
40.2495190528383
20
28.75167879985
30
0
0
SPLINE
5
11B
100
AcDbEntity
8
1
62
256
6
ByLayer
370
18
48
1
60
0
100
AcDbSpline
70
4
71
3
72
27
73
23
40
0
40
0
40
0
40
0
40
0.0612089722996065
40
0.122465923312058
40
0.183717829296401
40
0.244919916516039
40
0.307972387699494
40
0.371096444866114
40
0.434206222850557
40
0.497239199506105
40
0.543551513765976
40
0.589882652697853
40
0.636189638207726
40
0.683411701386205
40
0.730661455449978
40
0.777873857662641
40
0.814434298748763
40
0.85101356955305
40
0.887568650457919
40
0.925039051967628
40
0.962537542354899
40
1
40
1
40
1
40
1
41
1
10
40.2495190528383
20
28.9264464721899
30
0
41
1
10
40.2519453310322
20
28.9233558725453
30
0
41
1
10
40.2567298370532
20
28.9171928226976
30
0
41
1
10
40.263704940019
20
28.9080018611605
30
0
41
1
10
40.2704546278431
20
28.8988873688358
30
0
41
1
10
40.2770261898479
20
28.889776475459
30
0
41
1
10
40.2833928557891
20
28.8806885008922
30
0
41
1
10
40.2895199852081
20
28.871649745311
30
0
41
1
10
40.2953118836746
20
28.862781513446
30
0
41
1
10
40.3002541852712
20
28.8548839838415
30
0
41
1
10
40.3044256231208
20
28.847925098342
30
0
41
1
10
40.3079117325037
20
28.8418594923408
30
0
41
1
10
40.3111622366982
20
28.8359203591787
30
0
41
1
10
40.3141490940478
20
28.8301335902371
30
0
41
1
10
40.3168398468906
20
28.8245308036145
30
0
41
1
10
40.3190103713726
20
28.8195820071636
30
0
41
1
10
40.3207208747347
20
28.8152526067418
30
0
41
1
10
40.3220395458055
20
28.8114959295888
30
0
41
1
10
40.3231106015255
20
28.8079183309698
30
0
41
1
10
40.3239067689828
20
28.8045495115143
30
0
41
1
10
40.3244050557611
20
28.8014165533846
30
0
41
1
10
40.3245168061093
20
28.7995275919724
30
0
41
1
10
40.3245190528383
20
28.7986314551885
30
0
0
SPLINE
5
11C
100
AcDbEntity
8
1
62
256
6
ByLayer
370
18
48
1
60
0
100
AcDbSpline
70
4
71
3
72
13
73
9
40
0
40
0
40
0
40
0
40
0.166663274663073
40
0.33332672234509
40
0.499989984415984
40
0.666659931133777
40
0.833330067271027
40
1
40
1
40
1
40
1
41
1
10
39.6054809471617
20
29.7363843093967
30
0
41
1
10
39.6415044809823
20
29.691648722897
30
0
41
1
10
39.7134714654715
20
29.6020918895989
30
0
41
1
10
39.8211834496937
20
29.4675013516936
30
0
41
1
10
39.9286527250742
20
29.3326491185128
30
0
41
1
10
40.0358754650939
20
29.1975321478221
30
0
41
1
10
40.1428476401454
20
29.0621472195247
30
0
41
1
10
40.2139903801908
20
28.9717099628992
30
0
41
1
10
40.2495190528383
20
28.9264464721899
30
0
0
SPLINE
5
11D
100
AcDbEntity
8
1
62
256
6
ByLayer
370
18
48
1
60
0
100
AcDbSpline
70
4
71
3
72
29
73
25
40
0
40
0
40
0
40
0
40
0.0501764632483238
40
0.100494749764774
40
0.150858605651004
40
0.201190614206192
40
0.251435309768347
40
0.301562585579434
40
0.349098266937446
40
0.396790482584506
40
0.444508652297237
40
0.492148951594879
40
0.539640950529559
40
0.587520846528859
40
0.635623778069764
40
0.683790031180095
40
0.731868566038874
40
0.7797279057897
40
0.820942835584198
40
0.862288889716683
40
0.903691498706022
40
0.94506042490646
40
0.986294599585741
40
1
40
1
40
1
40
1
41
1
10
39.6054809471617
20
29.8304402666759
30
0
41
1
10
39.603267524658
20
29.8323615849659
30
0
41
1
10
39.5988604313983
20
29.8361429935188
30
0
41
1
10
39.5923147271951
20
29.8416290866704
30
0
41
1
10
39.5858570206374
20
29.8468997915288
30
0
41
1
10
39.5795165067052
20
29.8519234710858
30
0
41
1
10
39.573324849857
20
29.8566653199484
30
0
41
1
10
39.5674109746669
20
29.8610201291028
30
0
41
1
10
39.5617883648333
20
29.864974815567
30
0
41
1
10
39.5564676218624
20
29.8685251499118
30
0
41
1
10
39.5513801651493
20
29.871712233269
30
0
41
1
10
39.5465712827718
20
29.8744956273513
30
0
41
1
10
39.5420656987032
20
29.8768478954404
30
0
41
1
10
39.5379097213218
20
29.8787175342922
30
0
41
1
10
39.5341268939179
20
29.8800893483944
30
0
41
1
10
39.5307522737349
20
29.8809496892995
30
0
41
1
10
39.5278231568682
20
29.881281882907
30
0
41
1
10
39.5254857816288
20
29.881077195791
30
0
41
1
10
39.5236910380259
20
29.8804057405154
30
0
41
1
10
39.5223477771911
20
29.879375073029
30
0
41
1
10
39.5213605681356
20
29.8779666409057
30
0
41
1
10
39.5207256952632
20
29.8761996374755
30
0
41
1
10
39.5205049688669
20
29.87455540285
30
0
41
1
10
39.5204806466885
20
29.8735193527287
30
0
41
1
10
39.5204809478526
20
29.8732546567526
30
0
0
SPLINE
5
11E
100
AcDbEntity
8
1
62
256
6
ByLayer
370
18
48
1
60
0
100
AcDbSpline
70
4
71
2
72
6
73
3
40
0
40
0
40
0
40
1
40
1
40
1
41
1
10
39.6054809471617
20
29.8304402666759
30
0
41
1
10
39.9277069048757
20
29.5508388142639
30
0
41
1
10
40.2495190528383
20
29.2706026319897
30
0
0
SPLINE
5
11F
100
AcDbEntity
8
1
62
256
6
ByLayer
370
18
48
1
60
0
100
AcDbSpline
70
4
71
3
72
26
73
22
40
0
40
0
40
0
40
0
40
0.0609799708690302
40
0.122138731643203
40
0.183316444373002
40
0.244395383430533
40
0.305308217626539
40
0.353377817358283
40
0.401605688869018
40
0.449860105055514
40
0.498036068696011
40
0.546061993115738
40
0.594476286300732
40
0.643115560405537
40
0.691818558548676
40
0.740432945553227
40
0.788826269513106
40
0.841514744649828
40
0.894389240658922
40
0.947283914482619
40
1
40
1
40
1
40
1
41
1
10
40.2495190528384
20
29.2706026319897
30
0
41
1
10
40.2518921616701
20
29.2685351532612
30
0
41
1
10
40.2566088687712
20
29.2644815568308
30
0
41
1
10
40.2635918323483
20
29.2586445363345
30
0
41
1
10
40.2704419818643
20
29.253099438411
30
0
41
1
10
40.2771132706563
20
29.2478954728317
30
0
41
1
10
40.2831109389123
20
29.2434174612518
30
0
41
1
10
40.2884512051284
20
29.2396172330641
30
0
41
1
10
40.293171262926
20
29.2364224654801
30
0
41
1
10
40.2976788365635
20
29.2335485092629
30
0
41
1
10
40.3019333684904
20
29.2310309803068
30
0
41
1
10
40.3059123938218
20
29.2288939057962
30
0
41
1
10
40.3095742655372
20
29.2271822349957
30
0
41
1
10
40.3128978800041
20
29.2259091520808
30
0
41
1
10
40.3158521327769
20
29.2250870525131
30
0
41
1
10
40.3184038958123
20
29.2247309443896
30
0
41
1
10
40.3205860627197
20
29.224861246084
30
0
41
1
10
40.3223248309381
20
29.2255465897764
30
0
41
1
10
40.3235932359814
20
29.2267992656883
30
0
41
1
10
40.3243505402042
20
29.2285732506471
30
0
41
1
10
40.3245190384621
20
29.2300825606953
30
0
41
1
10
40.3245190528383
20
29.2309190812485
30
0
0
SPLINE
5
120
100
AcDbEntity
8
1
62
256
6
ByLayer
370
18
48
1
60
0
100
AcDbSpline
70
4
71
3
72
26
73
22
40
0
40
0
40
0
40
0
40
0.0407899412378834
40
0.0816280602350318
40
0.122427629684653
40
0.164697739977805
40
0.20700762957624
40
0.249286843221081
40
0.300848332693552
40
0.352460916899861
40
0.404035850653821
40
0.457057510227432
40
0.510116802737914
40
0.563147369821402
40
0.617000469440242
40
0.670903629673976
40
0.724814706148909
40
0.778678610386262
40
0.852432777303159
40
0.926237490189342
40
1
40
1
40
1
40
1
41
1
10
40.3245190528383
20
29.2890178190712
30
0
41
1
10
40.3245165591033
20
29.2897441007583
30
0
41
1
10
40.3243870286567
20
29.2913126443548
30
0
41
1
10
40.3238094145663
20
29.2940238764587
30
0
41
1
10
40.3228657678015
20
29.2970910026598
30
0
41
1
10
40.3215570340174
20
29.3005054786028
30
0
41
1
10
40.3198968469615
20
29.3042468458211
30
0
41
1
10
40.3177791728935
20
29.3085408204657
30
0
41
1
10
40.3151454623087
20
29.3134277014114
30
0
41
1
10
40.3119504510167
20
29.3189324982489
30
0
41
1
10
40.3083641027652
20
29.3247603196789
30
0
41
1
10
40.3044074609676
20
29.3308858960885
30
0
41
1
10
40.3001014055025
20
29.3372855208391
30
0
41
1
10
40.2954863775842
20
29.3439096531842
30
0
41
1
10
40.2905823838893
20
29.350737685137
30
0
41
1
10
40.2854064249887
20
29.3577523217541
30
0
41
1
10
40.2800055396417
20
29.3648972930049
30
0
41
1
10
40.2737103948422
20
29.3730457942231
30
0
41
1
10
40.2664462993496
20
29.3822307712571
30
0
41
1
10
40.258144837038
20
29.3924726290933
30
0
41
1
10
40.2524260152709
20
29.3993738745276
30
0
41
1
10
40.2495190528383
20
29.4028438779788
30
0
0
SPLINE
5
121
100
AcDbEntity
8
1
62
256
6
ByLayer
370
18
48
1
60
0
100
AcDbSpline
70
4
71
3
72
11
73
7
40
0
40
0
40
0
40
0
40
0.249996457160472
40
0.499992927971239
40
0.749996457831891
40
1
40
1
40
1
40
1
41
1
10
40.2495190528383
20
29.4028438779788
30
0
41
1
10
40.1961438496582
20
29.4665705966331
30
0
41
1
10
40.0892452152458
20
29.5938574813521
30
0
41
1
10
39.9284462674359
20
29.784285688494
30
0
41
1
10
39.7672107225036
20
29.9742245016828
30
0
41
1
10
39.6594382234542
20
30.100532089034
30
0
41
1
10
39.6054809471617
20
30.1636053482986
30
0
0
SPLINE
5
122
100
AcDbEntity
8
1
62
256
6
ByLayer
370
18
48
1
60
0
100
AcDbSpline
70
4
71
3
72
27
73
23
40
0
40
0
40
0
40
0
40
0.0652383946733501
40
0.130638065483636
40
0.196095139742708
40
0.261523020430143
40
0.326855242582583
40
0.392048568000753
40
0.441734265540953
40
0.491557262235946
40
0.541424335699118
40
0.591260555620651
40
0.641012259885579
40
0.69065030905269
40
0.736729147371955
40
0.782957081442031
40
0.829205779694865
40
0.875376635101879
40
0.92140745072077
40
0.95943544754613
40
0.997592327429511
40
1
40
1
40
1
40
1
41
1
10
39.6054809471617
20
30.1636053482986
30
0
41
1
10
39.6025826745852
20
30.1669929084167
30
0
41
1
10
39.5968600938092
20
30.1737376265745
30
0
41
1
10
39.5885023937609
20
30.1837565278641
30
0
41
1
10
39.5804044390668
20
30.1936457107741
30
0
41
1
10
39.5726039457023
20
30.2033663921387
30
0
41
1
10
39.5651420953991
20
30.2128764580835
30
0
41
1
10
39.5586141943031
20
30.221408756185
30
0
41
1
10
39.5529503717942
20
30.2290022475816
30
0
41
1
10
39.5480729061561
20
30.2357071889657
30
0
41
1
10
39.5434739905291
20
30.2422126997816
30
0
41
1
10
39.5391879676059
20
30.2484814261622
30
0
41
1
10
39.5352496262807
20
30.254475589356
30
0
41
1
10
39.5317741988056
20
30.2600275575549
30
0
41
1
10
39.528764214508
20
30.2651303032796
30
0
41
1
10
39.5262129865267
20
30.2697832206121
30
0
41
1
10
39.5240766830611
20
30.2740765797765
30
0
41
1
10
39.5223897032109
20
30.2779656826032
30
0
41
1
10
39.5212738520872
20
30.2811917952307
30
0
41
1
10
39.5206158438119
20
30.2838548272013
30
0
41
1
10
39.520550540155
20
30.2852216852295
30
0
41
1
10
39.5204847429026
20
30.2859584229169
30
0
41
1
10
39.5204809472326
20
30.2860020458511
30
0
0
SPLINE
5
123
100
AcDbEntity
8
1
62
256
6
ByLayer
370
18
48
1
60
0
100
AcDbSpline
70
4
71
2
72
6
73
3
40
0
40
0
40
0
40
1
40
1
40
1
41
1
10
40.2495190528384
20
29.6549655818256
30
0
41
1
10
39.9278165138189
20
29.9442650674064
30
0
41
1
10
39.6054809471617
20
30.2326235256898
30
0
0
SPLINE
5
124
100
AcDbEntity
8
1
62
256
6
ByLayer
370
18
48
1
60
0
100
AcDbSpline
70
4
71
3
72
27
73
23
40
0
40
0
40
0
40
0
40
0.0427036315913673
40
0.0855595082902855
40
0.128460389533829
40
0.171303546444268
40
0.213996472038908
40
0.256919817261442
40
0.299986756155164
40
0.34311452513246
40
0.386204360631197
40
0.429146974497741
40
0.482804710109993
40
0.53660152201423
40
0.590425059292424
40
0.644119329693031
40
0.703228207264679
40
0.762513270821889
40
0.821933485091503
40
0.881405648559675
40
0.940810799077623
40
1
40
1
40
1
40
1
41
1
10
40.3245190528383
20
29.6056313904784
30
0
41
1
10
40.3245184205189
20
29.605139848849
30
0
41
1
10
40.3244013972632
20
29.60427005945
30
0
41
1
10
40.3238757360366
20
29.6033087719554
30
0
41
1
10
40.3230035995955
20
29.602696604954
30
0
41
1
10
40.3217862875905
20
29.6024420342661
30
0
41
1
10
40.3202198099428
20
29.6025545487215
30
0
41
1
10
40.3182961613514
20
29.6030483412308
30
0
41
1
10
40.3160358180533
20
29.6039069590421
30
0
41
1
10
40.3134629812443
20
29.6051147457359
30
0
41
1
10
40.3106021219479
20
29.6066554610117
30
0
41
1
10
40.3072096574941
20
29.6086731972182
30
0
41
1
10
40.3032172242119
20
29.6112559911936
30
0
41
1
10
40.2985883485999
20
29.6144599441563
30
0
41
1
10
40.2936529415718
20
29.6180592659769
30
0
41
1
10
40.2882781236562
20
29.6221482328769
30
0
41
1
10
40.2824636298628
20
29.6267387416118
30
0
41
1
10
40.2762187300996
20
29.6318290153236
30
0
41
1
10
40.2697622251408
20
29.637236359435
30
0
41
1
10
40.2631373089694
20
29.6429161279068
30
0
41
1
10
40.2563839490947
20
29.6488272694697
30
0
41
1
10
40.2518172470634
20
29.6528983148229
30
0
41
1
10
40.2495190528384
20
29.6549655818256
30
0
0
SPLINE
5
125
100
AcDbEntity
8
1
62
256
6
ByLayer
370
18
48
1
60
0
100
AcDbSpline
70
4
71
3
72
25
73
21
40
0
40
0
40
0
40
0
40
0.0665348053289725
40
0.133253511038215
40
0.200036318409057
40
0.266784017829262
40
0.333421599346732
40
0.399902183275319
40
0.458180383403303
40
0.516627698393519
40
0.575094322145945
40
0.633468840631344
40
0.691685814423925
40
0.737235158267764
40
0.782931479159575
40
0.828650901543431
40
0.874296056271853
40
0.919802351847693
40
0.959902183276168
40
1
40
1
40
1
40
1
41
1
10
40.2495190528383
20
29.7475823101069
30
0
41
1
10
40.2521270009913
20
29.7446466782893
30
0
41
1
10
40.25727747383
20
29.7388074174155
30
0
41
1
10
40.2648024206905
20
29.730151558913
30
0
41
1
10
40.2720931889821
20
29.7216289643707
30
0
41
1
10
40.2791119508313
20
29.7132771838376
30
0
41
1
10
40.2858174386574
20
29.7051369155219
30
0
41
1
10
40.2919144987708
20
29.6975649194796
30
0
41
1
10
40.297420692168
20
29.6905543518516
30
0
41
1
10
40.3023582393922
20
29.6840943658925
30
0
41
1
10
40.3069344458081
20
29.6779106921654
30
0
41
1
10
40.3110980432707
20
29.6720574989521
30
0
41
1
10
40.3145351454254
20
29.6669783711668
30
0
41
1
10
40.3173129979663
20
29.6626247903557
30
0
41
1
10
40.3195212046098
20
29.6589251079622
30
0
41
1
10
40.3213706464602
20
29.6555392673465
30
0
41
1
10
40.3228303183681
20
29.6525053855778
30
0
41
1
10
40.323827505454
20
29.6499650439843
30
0
41
1
10
40.3243954878609
20
29.6478940608089
30
0
41
1
10
40.3245174294624
20
29.6468036868845
30
0
41
1
10
40.3245190528383
20
29.6463150218744
30
0
0
SPLINE
5
126
100
AcDbEntity
8
1
62
256
6
ByLayer
370
18
48
1
60
0
100
AcDbSpline
70
4
71
3
72
11
73
7
40
0
40
0
40
0
40
0
40
0.249997648594072
40
0.499995288931463
40
0.749997649039619
40
1
40
1
40
1
40
1
41
1
10
39.6054809471617
20
30.4662642256101
30
0
41
1
10
39.6593740533067
20
30.4066425746535
30
0
41
1
10
39.7670493568559
20
30.2872662587604
30
0
41
1
10
39.9282339929495
20
30.1078049405818
30
0
41
1
10
40.0890801349205
20
29.927936776706
30
0
41
1
10
40.1960779468055
20
29.8077463340019
30
0
41
1
10
40.2495190528383
20
29.747582310107
30
0
0
SPLINE
5
127
100
AcDbEntity
8
1
62
256
6
ByLayer
370
18
48
1
60
0
100
AcDbSpline
70
4
71
3
72
28
73
24
40
0
40
0
40
0
40
0
40
0.0573437256041465
40
0.11486321421852
40
0.172439367798242
40
0.229976162081025
40
0.287404691224951
40
0.344687607168112
40
0.395464956591966
40
0.446404523579326
40
0.497368794099874
40
0.548250371124354
40
0.598978932760783
40
0.64194874691881
40
0.68506479874546
40
0.728216744446502
40
0.771306646431131
40
0.814254454861559
40
0.857318040018988
40
0.900540141757127
40
0.943821291483626
40
0.987053217608012
40
1
40
1
40
1
40
1
41
1
10
39.6054809471617
20
30.5115897539126
30
0
41
1
10
39.6029607272766
20
30.513924425961
30
0
41
1
10
39.5979556984847
20
30.5185339878844
30
0
41
1
10
39.5905609080231
20
30.5252645519417
30
0
41
1
10
39.5833093201838
20
30.5317772674539
30
0
41
1
10
39.5762383125603
20
30.5380335439055
30
0
41
1
10
39.5693884963139
20
30.5439911783257
30
0
41
1
10
39.5630422360122
20
30.5494025220856
30
0
41
1
10
39.5571974622763
20
30.5542760036276
30
0
41
1
10
39.5518425579206
20
30.5586318664163
30
0
41
1
10
39.5467728402231
20
30.5626359327685
30
0
41
1
10
39.5420362303204
20
30.5662427380413
30
0
41
1
10
39.5378957609208
20
30.5692512736405
30
0
41
1
10
39.534326706585
20
30.5716964354502
30
0
41
1
10
39.5312753806832
20
30.5736438083511
30
0
41
1
10
39.5285584369938
20
30.5752173543149
30
0
41
1
10
39.5262033295157
20
30.5763958968685
30
0
41
1
10
39.5242317724554
20
30.5771611301676
30
0
41
1
10
39.5226719927042
20
30.5774872054468
30
0
41
1
10
39.5215201028723
20
30.5773830241592
30
0
41
1
10
39.5207729652582
20
30.576859782704
30
0
41
1
10
39.5205186864368
20
30.5761347461356
30
0
41
1
10
39.5204831853007
20
30.5756172030453
30
0
41
1
10
39.5204809472948
20
30.5754919456873
30
0
0
SPLINE
5
128
100
AcDbEntity
8
1
62
256
6
ByLayer
370
18
48
1
60
0
100
AcDbSpline
70
4
71
3
72
11
73
7
40
0
40
0
40
0
40
0
40
0.24999962755804
40
0.499999253843646
40
0.749999627624987
40
1
40
1
40
1
40
1
41
1
10
39.6054809471617
20
30.5115897539126
30
0
41
1
10
39.6592249401346
20
30.4618117060123
30
0
41
1
10
39.766676110081
20
30.3622027173512
30
0
41
1
10
39.927743619552
20
30.2126317836138
30
0
41
1
10
40.0886987587383
20
30.0628992663573
30
0
41
1
10
40.1959250396029
20
29.9629669237567
30
0
41
1
10
40.2495190528383
20
29.9129733564589
30
0
0
SPLINE
5
129
100
AcDbEntity
8
1
62
256
6
ByLayer
370
18
48
1
60
0
100
AcDbSpline
70
4
71
3
72
27
73
23
40
0
40
0
40
0
40
0
40
0.0582209871287239
40
0.116622076661776
40
0.175081594148385
40
0.233501213628939
40
0.291810097387369
40
0.349969439886354
40
0.401391546953157
40
0.452977741109842
40
0.504589112899079
40
0.556117017281292
40
0.607490084473349
40
0.650972696389677
40
0.694603197524129
40
0.738269656113461
40
0.781873058481717
40
0.825332866202482
40
0.868943580681222
40
0.912664678531751
40
0.956387258858597
40
1
40
1
40
1
40
1
41
1
10
40.2495190528383
20
29.9129733564589
30
0
41
1
10
40.2517781521482
20
29.9108657475363
30
0
41
1
10
40.2562630735393
20
29.9067031212165
30
0
41
1
10
40.2628849158794
20
29.900621289477
30
0
41
1
10
40.2693730940058
20
29.8947316188818
30
0
41
1
10
40.2756934507626
20
29.8890685918065
30
0
41
1
10
40.2818088449531
20
29.8836698673432
30
0
41
1
10
40.2874622925784
20
29.8787634206282
30
0
41
1
10
40.2926565471984
20
29.8743408865428
30
0
41
1
10
40.2974033157311
20
29.8703831286383
30
0
41
1
10
40.3018885963881
20
29.8667349652672
30
0
41
1
10
40.3060692973003
20
29.8634367292817
30
0
41
1
10
40.3097122506767
20
29.8606724469979
30
0
41
1
10
40.3128406580123
20
29.8584110285635
30
0
41
1
10
40.3155037001428
20
29.8565945805339
30
0
41
1
10
40.3178623730748
20
29.8551078136008
30
0
41
1
10
40.3198923145501
20
29.8539698471354
30
0
41
1
10
40.321573379955
20
29.8531980382206
30
0
41
1
10
40.322882463482
20
29.8528126126167
30
0
41
1
10
40.3238229142105
20
29.8528058992329
30
0
41
1
10
40.3243915074675
20
29.8531750431116
30
0
41
1
10
40.324518253908
20
29.8536714485058
30
0
41
1
10
40.3245190528383
20
29.853981763269
30
0
0
SPLINE
5
12A
100
AcDbEntity
8
1
62
256
6
ByLayer
370
18
48
1
60
0
100
AcDbSpline
70
4
71
3
72
26
73
22
40
0
40
0
40
0
40
0
40
0.0466099387316803
40
0.093406611041024
40
0.140292566155822
40
0.187137700185592
40
0.233788450331581
40
0.280251269352914
40
0.326828721739892
40
0.373467415275526
40
0.420087199653217
40
0.466585613060842
40
0.525589209095703
40
0.584749728689278
40
0.644026718446097
40
0.703345818877535
40
0.762603662799941
40
0.821672331908128
40
0.881103005696693
40
0.940564258683367
40
1
40
1
40
1
40
1
41
1
10
40.3245190528383
20
29.878081337987
30
0
41
1
10
40.3245155724576
20
29.878408683041
30
0
41
1
10
40.3243524120677
20
29.8792163364716
30
0
41
1
10
40.3236237244188
20
29.8809016297436
30
0
41
1
10
40.3224486396776
20
29.8830166977954
30
0
41
1
10
40.3208501672867
20
29.8855324130624
30
0
41
1
10
40.3188502021752
20
29.8884209735484
30
0
41
1
10
40.316468944344
20
29.8916598845394
30
0
41
1
10
40.3137441664191
20
29.8952120466625
30
0
41
1
10
40.3106995672307
20
29.8990534494519
30
0
41
1
10
40.3073671091951
20
29.9031500507482
30
0
41
1
10
40.3034489098726
20
29.907864136026
30
0
41
1
10
40.2988792385328
20
29.9132509878433
30
0
41
1
10
40.2936065345248
20
29.9193515095925
30
0
41
1
10
40.2880132322171
20
29.9257219107712
30
0
41
1
10
40.2821403562553
20
29.9323211691246
30
0
41
1
10
40.2760286502116
20
29.939108525921
30
0
41
1
10
40.2696934491126
20
29.9460710096326
30
0
41
1
10
40.2631546820778
20
29.953189980307
30
0
41
1
10
40.2564256892773
20
29.9604535632621
30
0
41
1
10
40.2518386531886
20
29.9653667757306
30
0
41
1
10
40.2495190528383
20
29.9678417894923
30
0
0
SPLINE
5
12B
100
AcDbEntity
8
1
62
256
6
ByLayer
370
18
48
1
60
0
100
AcDbSpline
70
4
71
3
72
11
73
7
40
0
40
0
40
0
40
0
40
0.249998382316818
40
0.499996770671808
40
0.749998382607667
40
1
40
1
40
1
40
1
41
1
10
40.2495190528383
20
29.9678417894922
30
0
41
1
10
40.1960275741395
20
30.0249213714663
30
0
41
1
10
40.0889548686089
20
30.1389679264481
30
0
41
1
10
39.9280731214069
20
30.3096977328272
30
0
41
1
10
39.7669269482369
20
30.4800962987124
30
0
41
1
10
39.6593250146811
20
30.5934800092824
30
0
41
1
10
39.6054809471617
20
30.6501174514861
30
0
0
SPLINE
5
12C
100
AcDbEntity
8
1
62
256
6
ByLayer
370
18
48
1
60
0
100
AcDbSpline
70
4
71
3
72
27
73
23
40
0
40
0
40
0
40
0
40
0.068614776950459
40
0.137269694724174
40
0.205874280414271
40
0.258778950007742
40
0.311740511548783
40
0.364691278036954
40
0.417581210723229
40
0.471159340669774
40
0.524896248799711
40
0.578653792112374
40
0.63232719021947
40
0.685851900780494
40
0.729936997055139
40
0.774170033451613
40
0.818431763715799
40
0.862623738417935
40
0.906674282781181
40
0.951001647585962
40
0.995521556389813
40
1
40
1
40
1
40
1
41
1
10
39.6054809471617
20
30.6501174514861
30
0
41
1
10
39.6024538720852
20
30.653301419373
30
0
41
1
10
39.5964774204944
20
30.6596086371672
30
0
41
1
10
39.5877369523779
20
30.6688956237888
30
0
41
1
10
39.5799124125979
20
30.6772722088632
30
0
41
1
10
39.5729640990536
20
30.6847657048386
30
0
41
1
10
39.5668425141054
20
30.6914144162381
30
0
41
1
10
39.5609480731071
20
30.6978669069822
30
0
41
1
10
39.555283538386
20
30.7041227222376
30
0
41
1
10
39.5498790916557
20
30.7101530123807
30
0
41
1
10
39.5447692202905
20
30.7159235821544
30
0
41
1
10
39.5400148540586
20
30.7213696445638
30
0
41
1
10
39.5356663956401
20
30.7264384809336
30
0
41
1
10
39.5319967199735
20
30.7308117157627
30
0
41
1
10
39.5289606993775
20
30.7345285479911
30
0
41
1
10
39.5264860537371
20
30.7376555001079
30
0
41
1
10
39.5243941721984
20
30.7404139174637
30
0
41
1
10
39.522712115949
20
30.7427729339183
30
0
41
1
10
39.521477972142
20
30.7446928966523
30
0
41
1
10
39.520679556888
20
30.7461844492261
30
0
41
1
10
39.5205684017129
20
30.7467827163015
30
0
41
1
10
39.5204878856752
20
30.7471191613276
30
0
41
1
10
39.5204809471654
20
30.747149492938
30
0
0
SPLINE
5
12D
100
AcDbEntity
8
1
62
256
6
ByLayer
370
18
48
1
60
0
100
AcDbSpline
70
4
71
3
72
11
73
7
40
0
40
0
40
0
40
0
40
0.249999345204986
40
0.499998692817582
40
0.749999345319608
40
1
40
1
40
1
40
1
41
1
10
40.2495190528384
20
30.0497606679231
30
0
41
1
10
40.1959527024936
20
30.1018045946708
30
0
41
1
10
40.0887679128677
20
30.205820773101
30
0
41
1
10
39.9278326445919
20
30.3616283852828
30
0
41
1
10
39.7667439057562
20
30.5172250417036
30
0
41
1
10
39.6592519691254
20
30.6208190691421
30
0
41
1
10
39.6054809471617
20
30.6725814719131
30
0
0
SPLINE
5
12E
100
AcDbEntity
8
1
62
256
6
ByLayer
370
18
48
1
60
0
100
AcDbSpline
70
4
71
3
72
27
73
23
40
0
40
0
40
0
40
0
40
0.0443296814760853
40
0.0888311554311509
40
0.133398792136823
40
0.177914902206928
40
0.222256907019412
40
0.266614023991027
40
0.311099740926245
40
0.355648279389015
40
0.400170332695268
40
0.444558015639007
40
0.494728813327374
40
0.545035503311809
40
0.595440792969644
40
0.645879982746894
40
0.696265022453108
40
0.746488208201094
40
0.809811106303182
40
0.873223979782869
40
0.936653868068015
40
1
40
1
40
1
40
1
41
1
10
40.3245190528383
20
29.9809308839426
30
0
41
1
10
40.3245171259985
20
29.9808163127694
30
0
41
1
10
40.3243789237674
20
29.9807206141675
30
0
41
1
10
40.3237600743283
20
29.9809859236462
30
0
41
1
10
40.3227485648659
20
29.9816438814974
30
0
41
1
10
40.3213555285226
20
29.9826858930913
30
0
41
1
10
40.3195884271316
20
29.9841065139594
30
0
41
1
10
40.3174531540587
20
29.985901269584
30
0
41
1
10
40.3149803844198
20
29.9880402381074
30
0
41
1
10
40.3121947378919
20
29.9905001079383
30
0
41
1
10
40.3091251629769
20
29.9932536104303
30
0
41
1
10
40.3056481745955
20
29.9964121172643
30
0
41
1
10
40.3017400128296
20
30.000001697491
30
0
41
1
10
40.2973908639739
20
30.0040340607838
30
0
41
1
10
40.2927846715143
20
30.0083383655243
30
0
41
1
10
40.2879542885308
20
30.0128824425674
30
0
41
1
10
40.2829323278962
20
30.0176343510228
30
0
41
1
10
40.2772902903402
20
30.0230008409742
30
0
41
1
10
40.2709915689019
20
30.0290235732302
30
0
41
1
10
40.2640127151708
20
30.0357310638269
30
0
41
1
10
40.2568505047555
20
30.0426468725179
30
0
41
1
10
40.2519793090323
20
30.0473701910415
30
0
41
1
10
40.2495190528384
20
30.0497606679231
30
0
0
SPLINE
5
12F
100
AcDbEntity
8
1
62
256
6
ByLayer
370
18
48
1
60
0
100
AcDbSpline
70
4
71
3
72
26
73
22
40
0
40
0
40
0
40
0
40
0.0696926540687544
40
0.139429769175721
40
0.209110160538184
40
0.263015242760764
40
0.316985729741809
40
0.370943328853833
40
0.424830814614832
40
0.477070463532583
40
0.529468143298394
40
0.581888412646857
40
0.634226827562683
40
0.68641662451949
40
0.730266483958869
40
0.774264634414777
40
0.818294594410832
40
0.862257436312216
40
0.906077583834664
40
0.95303949156063
40
1
40
1
40
1
40
1
41
1
10
40.2495190528383
20
30.067936485844
30
0
41
1
10
40.2522317184299
20
30.0651803395951
30
0
41
1
10
40.2575890045846
20
30.0597300793047
30
0
41
1
10
40.2654295863723
20
30.0517325429691
30
0
41
1
10
40.2724563313354
20
30.0445432762875
30
0
41
1
10
40.2787009732312
20
30.0381345239821
30
0
41
1
10
40.2842058989227
20
30.0324676641581
30
0
41
1
10
40.2895002669296
20
30.026998502839
30
0
41
1
10
40.2945052979007
20
30.0218073430411
30
0
41
1
10
40.29920334047
20
30.0169114946256
30
0
41
1
10
40.3035783541656
20
30.0123270182435
30
0
41
1
10
40.3076474918503
20
30.008034607714
30
0
41
1
10
40.3113680307603
20
30.0040772135122
30
0
41
1
10
40.3145254661611
20
30.0006826810167
30
0
41
1
10
40.3171518771746
20
29.9978209762247
30
0
41
1
10
40.3193041108919
20
29.9954377281189
30
0
41
1
10
40.3211205335049
20
29.9933813073472
30
0
41
1
10
40.322577093164
20
29.9916769141601
30
0
41
1
10
40.3236746194384
20
29.9903184423742
30
0
41
1
10
40.3243605785039
20
29.9893585627125
30
0
41
1
10
40.3245178142462
20
29.9890111093497
30
0
41
1
10
40.3245190528383
20
29.9889137686264
30
0
0
SPLINE
5
130
100
AcDbEntity
8
1
62
256
6
ByLayer
370
18
48
1
60
0
100
AcDbSpline
70
4
71
3
72
11
73
7
40
0
40
0
40
0
40
0
40
0.249998976029811
40
0.499997948544235
40
0.749998976215789
40
1
40
1
40
1
40
1
41
1
10
39.6054809471617
20
30.718488502244
30
0
41
1
10
39.6592842906494
20
30.6644528185242
30
0
41
1
10
39.7668246727835
20
30.5562937125882
30
0
41
1
10
39.9279387068391
20
30.3937936262374
30
0
41
1
10
40.0888504026013
20
30.2310254054281
30
0
41
1
10
40.1959858280641
20
30.1223297320836
30
0
41
1
10
40.2495190528383
20
30.067936485844
30
0
0
SPLINE
5
131
100
AcDbEntity
8
1
62
256
6
ByLayer
370
18
48
1
60
0
100
AcDbSpline
70
4
71
3
72
28
73
24
40
0
40
0
40
0
40
0
40
0.0526668691941245
40
0.105377287432641
40
0.15808096371408
40
0.210738631513092
40
0.265147527994578
40
0.319626666331859
40
0.374091297662741
40
0.428480385355229
40
0.479443471464572
40
0.53056101013921
40
0.581701022481887
40
0.632761401769079
40
0.683676406659442
40
0.72686478740247
40
0.770199684645729
40
0.813567278211185
40
0.856869718642871
40
0.900030786786453
40
0.943373006867333
40
0.986886929312634
40
1
40
1
40
1
40
1
41
1
10
39.6054809471617
20
-8.71848850224399
30
0
41
1
10
39.6031637236578
20
-8.72081579743171
30
0
41
1
10
39.5985692910721
20
-8.72543095743075
30
0
41
1
10
39.5917955584716
20
-8.73223761756722
30
0
41
1
10
39.5851626778705
20
-8.73890494149032
30
0
41
1
10
39.5786168753283
20
-8.74548688221923
30
0
41
1
10
39.57218253584
20
-8.75195887795255
30
0
41
1
10
39.5658897811752
20
-8.75829046881145
30
0
41
1
10
39.5598391022255
20
-8.7643803322789
30
0
41
1
10
39.5541844634553
20
-8.77007325372169
30
0
41
1
10
39.5489367386439
20
-8.77535797648013
30
0
41
1
10
39.5441012386023
20
-8.78022877033081
30
0
41
1
10
39.5395972279133
20
-8.78476668387826
30
0
41
1
10
39.5354710642075
20
-8.7889247746118
30
0
41
1
10
39.5319501916232
20
-8.79247358814284
30
0
41
1
10
39.5290036551544
20
-8.79544397948309
30
0
41
1
10
39.5265727683351
20
-8.79789485258617
30
0
41
1
10
39.5245110152049
20
-8.7999737972536
30
0
41
1
10
39.5228442153701
20
-8.80165466352297
30
0
41
1
10
39.5215971387365
20
-8.80291235763571
30
0
41
1
10
39.520790027016
20
-8.80372637060774
30
0
41
1
10
39.520542167414
20
-8.80397627312487
30
0
41
1
10
39.5204878581837
20
-8.80403111644889
30
0
41
1
10
39.5204808263089
20
-8.80403822789997
30
0
0
SPLINE
5
132
100
AcDbEntity
8
1
62
256
6
ByLayer
370
18
48
1
60
0
100
AcDbSpline
70
4
71
3
72
11
73
7
40
0
40
0
40
0
40
0
40
0.249998948294772
40
0.499997900476775
40
0.749998948480631
40
1
40
1
40
1
40
1
41
1
10
40.2495190528384
20
-8.06793648584399
30
0
41
1
10
40.1959862725017
20
-8.12232928052495
30
0
41
1
10
40.0888517370436
20
-8.23102405224223
30
0
41
1
10
39.9279404891471
20
-8.39379182600734
30
0
41
1
10
39.7668260117178
20
-8.55629236533163
30
0
41
1
10
39.6592847373329
20
-8.66445236993011
30
0
41
1
10
39.6054809471617
20
-8.71848850224399
30
0
0
SPLINE
5
133
100
AcDbEntity
8
1
62
256
6
ByLayer
370
18
48
1
60
0
100
AcDbSpline
70
4
71
3
72
26
73
22
40
0
40
0
40
0
40
0
40
0.0453852814136416
40
0.0909504625935201
40
0.136593229314302
40
0.182189318157563
40
0.227600626244408
40
0.272923229169549
40
0.318367314667055
40
0.363873788273136
40
0.409357968941941
40
0.454714292542762
40
0.509099182279826
40
0.563629694264607
40
0.618267486523139
40
0.67294344590828
40
0.727562168634585
40
0.782006038705887
40
0.854644098646468
40
0.927347257785442
40
1
40
1
40
1
40
1
41
1
10
40.3245190528383
20
-7.98891376862639
30
0
41
1
10
40.3245163838119
20
-7.98900928679163
30
0
41
1
10
40.3243662445359
20
-7.9893436467057
30
0
41
1
10
40.3236948666253
20
-7.99028671501435
30
0
41
1
10
40.3226050759304
20
-7.99164188367472
30
0
41
1
10
40.3211136706851
20
-7.99339066219996
30
0
41
1
10
40.3192349324561
20
-7.99551727336592
30
0
41
1
10
40.3169818757776
20
-7.99800801356198
30
0
41
1
10
40.3143891142056
20
-8.00082858252826
30
0
41
1
10
40.3114808965895
20
-8.00395456172233
30
0
41
1
10
40.3082878221908
20
-8.00735484128451
30
0
41
1
10
40.3046035981291
20
-8.0112485095981
30
0
41
1
10
40.3003843680161
20
-8.01567711801697
30
0
41
1
10
40.2956007083175
20
-8.02066807667017
30
0
41
1
10
40.290531050132
20
-8.02593109986964
30
0
41
1
10
40.2852121318906
20
-8.03142968897185
30
0
41
1
10
40.279680449579
20
-8.03712758236592
30
0
41
1
10
40.2733246829755
20
-8.04365363489332
30
0
41
1
10
40.2660886461205
20
-8.05105956544767
30
0
41
1
10
40.2579291819573
20
-8.05938385240943
30
0
41
1
10
40.2523472441089
20
-8.0650629771862
30
0
41
1
10
40.2495190528383
20
-8.06793648584399
30
0
0
SPLINE
5
134
100
AcDbEntity
8
1
62
256
6
ByLayer
370
18
48
1
60
0
100
AcDbSpline
70
4
71
3
72
26
73
22
40
0
40
0
40
0
40
0
40
0.0712253998987473
40
0.142502138013851
40
0.213711226983086
40
0.26910153547036
40
0.324572925238181
40
0.380026999085763
40
0.435393659032433
40
0.485029663213874
40
0.534819279262444
40
0.584633553660377
40
0.634370753925308
40
0.683962664057103
40
0.733998323815523
40
0.784269706253536
40
0.834598609688394
40
0.884826197385848
40
0.934824955495209
40
0.9674124648193
40
1
40
1
40
1
40
1
41
1
10
40.2495190528383
20
-8.04976066792318
30
0
41
1
10
40.2522862000733
20
-8.04707196397695
30
0
41
1
10
40.2577544553262
20
-8.0417710686528
30
0
41
1
10
40.265768692023
20
-8.03403886268116
30
0
41
1
10
40.2729675451701
20
-8.02713047804828
30
0
41
1
10
40.2793765658126
20
-8.0210130615135
30
0
41
1
10
40.2850349242775
20
-8.01564055796851
30
0
41
1
10
40.2904687392007
20
-8.01051198440073
30
0
41
1
10
40.2954666039719
20
-8.00582725747438
30
0
41
1
10
40.3000283860363
20
-8.00158456362714
30
0
41
1
10
40.3041643685673
20
-7.99777113465034
30
0
41
1
10
40.3080149443666
20
-7.99425744174702
30
0
41
1
10
40.3115407006643
20
-7.99108141156993
30
0
41
1
10
40.3147185434459
20
-7.98826607807431
30
0
41
1
10
40.3175021800597
20
-7.98585753003997
30
0
41
1
10
40.3198683463292
20
-7.98387742513434
30
0
41
1
10
40.3217887915535
20
-7.98235036121356
30
0
41
1
10
40.3232334371403
20
-7.98130286341899
30
0
41
1
10
40.3240620505675
20
-7.98082629285987
30
0
41
1
10
40.3244458538233
20
-7.98074709957567
30
0
41
1
10
40.3245189668516
20
-7.9808454290349
30
0
41
1
10
40.3245190528383
20
-7.98093088394256
30
0
0
SPLINE
5
135
100
AcDbEntity
8
1
62
256
6
ByLayer
370
18
48
1
60
0
100
AcDbSpline
70
4
71
3
72
11
73
7
40
0
40
0
40
0
40
0
40
0.249999362386756
40
0.499998722595197
40
0.749999362501421
40
1
40
1
40
1
40
1
41
1
10
39.6054809471617
20
-8.6725814719131
30
0
41
1
10
39.6592516911704
20
-8.62081933670543
30
0
41
1
10
39.7667430724162
20
-8.51722584511799
30
0
41
1
10
39.9278315348542
20
-8.36162945841183
30
0
41
1
10
40.0887670816406
20
-8.20582157942859
30
0
41
1
10
40.195952425595
20
-8.10180486369071
30
0
41
1
10
40.2495190528383
20
-8.04976066792318
30
0
0
SPLINE
5
136
100
AcDbEntity
8
1
62
256
6
ByLayer
370
18
48
1
60
0
100
AcDbSpline
70
4
71
3
72
27
73
23
40
0
40
0
40
0
40
0
40
0.060928387095801
40
0.122050722257571
40
0.183235689929579
40
0.244377286766367
40
0.305399386145976
40
0.36626075478115
40
0.41832034229063
40
0.470542996782548
40
0.522789270908925
40
0.574951315775123
40
0.626959914799033
40
0.670502122257596
40
0.714191885128351
40
0.757915323024146
40
0.801573834114229
40
0.845089743042253
40
0.888772712141131
40
0.93262552713362
40
0.976538126493578
40
1
40
1
40
1
40
1
41
1
10
39.6054809471617
20
-8.6725814719131
30
0
41
1
10
39.602802727348
20
-8.6751599255253
30
0
41
1
10
39.5974912066784
20
-8.68025903070822
30
0
41
1
10
39.5896656453097
20
-8.68772853861404
30
0
41
1
10
39.5820163972106
20
-8.69498212992008
30
0
41
1
10
39.5745853878693
20
-8.7019771046569
30
0
41
1
10
39.5674181971308
20
-8.708666884885
30
0
41
1
10
39.5608826859175
20
-8.71470740272587
30
0
41
1
10
39.5549641276232
20
-8.72011821642878
30
0
41
1
10
39.5496351789486
20
-8.72493233195311
30
0
41
1
10
39.5446161641614
20
-8.72940253113201
30
0
41
1
10
39.5399562285052
20
-8.7334806302371
30
0
41
1
10
39.5359284283345
20
-8.73692728075796
30
0
41
1
10
39.5325006450107
20
-8.73977998553746
30
0
41
1
10
39.5296120211926
20
-8.74210581033777
30
0
41
1
10
39.5270742286227
20
-8.74406012202419
30
0
41
1
10
39.5249159468973
20
-8.74561721965617
30
0
41
1
10
39.5231591546497
20
-8.74675647394833
30
0
41
1
10
39.52183721832
20
-8.74744542124056
30
0
41
1
10
39.5209442387022
20
-8.74769266210269
30
0
41
1
10
39.5205638462348
20
-8.74752003324652
30
0
41
1
10
39.5204877627249
20
-8.74725990647925
30
0
41
1
10
39.5204809472415
20
-8.74714940596871
30
0
0
SPLINE
5
137
100
AcDbEntity
8
1
62
256
6
ByLayer
370
18
48
1
60
0
100
AcDbSpline
70
4
71
3
72
11
73
7
40
0
40
0
40
0
40
0
40
0.249998425382244
40
0.499996845308296
40
0.749998425673382
40
1
40
1
40
1
40
1
41
1
10
39.6054809471617
20
-8.6501174514861
30
0
41
1
10
39.6593243271848
20
-8.59348073240848
30
0
41
1
10
39.7669248879804
20
-8.48009847090257
30
0
41
1
10
39.928070380272
20
-8.30970063649757
30
0
41
1
10
40.0889528173375
20
-8.1389701099471
30
0
41
1
10
40.1960268911356
20
-8.02492210024658
30
0
41
1
10
40.2495190528383
20
-7.96784178949224
30
0
0
SPLINE
5
138
100
AcDbEntity
8
1
62
256
6
ByLayer
370
18
48
1
60
0
100
AcDbSpline
70
4
71
3
72
26
73
22
40
0
40
0
40
0
40
0
40
0.0679224551615427
40
0.135883077352617
40
0.203796525139107
40
0.256086039588626
40
0.308427970471709
40
0.360760510740236
40
0.41303720654846
40
0.468136212652667
40
0.523398344928026
40
0.578681298602112
40
0.633877447927657
40
0.688920954836923
40
0.733161416948386
40
0.777545334118888
40
0.821955933079322
40
0.86629788538919
40
0.910503039641061
40
0.95525260229088
40
1
40
1
40
1
40
1
41
1
10
40.2495190528383
20
-7.96784178949224
30
0
41
1
10
40.2521706829271
20
-7.96501259027928
30
0
41
1
10
40.2574046274249
20
-7.95940336427313
30
0
41
1
10
40.2650552088861
20
-7.95113056293106
30
0
41
1
10
40.2718984315712
20
-7.94365591776682
30
0
41
1
10
40.2779710611795
20
-7.9369569676778
30
0
41
1
10
40.2833178156212
20
-7.93100208846291
30
0
41
1
10
40.2884673350326
20
-7.92520528992899
30
0
41
1
10
40.2934858654764
20
-7.9194875168796
30
0
41
1
10
40.2983372249243
20
-7.91388046813622
30
0
41
1
10
40.3029771939659
20
-7.90842484408256
30
0
41
1
10
40.3072863873325
20
-7.90325345505479
30
0
41
1
10
40.3112181132596
20
-7.89841467876065
30
0
41
1
10
40.31450178749
20
-7.89424209737625
30
0
41
1
10
40.3171892075163
20
-7.89069312133498
30
0
41
1
10
40.3193557763078
20
-7.88770168258471
30
0
41
1
10
40.3211828537958
20
-7.88502429165156
30
0
41
1
10
40.3226436910019
20
-7.882691812022
30
0
41
1
10
40.3237152499116
20
-7.88072671166759
30
0
41
1
10
40.3243699527603
20
-7.8791590620811
30
0
41
1
10
40.3245173824685
20
-7.87839390489197
30
0
41
1
10
40.3245190528383
20
-7.87808133798701
30
0
0
SPLINE
5
139
100
AcDbEntity
8
1
62
256
6
ByLayer
370
18
48
1
60
0
100
AcDbSpline
70
4
71
3
72
27
73
23
40
0
40
0
40
0
40
0
40
0.0434344507700895
40
0.0870314178041863
40
0.130683616364593
40
0.174280578198929
40
0.217715024591623
40
0.261271509904557
40
0.304963963160583
40
0.348718781399956
40
0.392441961884933
40
0.436024300288522
40
0.491607135518995
40
0.547364867640293
40
0.603220682232121
40
0.659051244352031
40
0.714695361247936
40
0.771667110377554
40
0.828744163344663
40
0.885877871283055
40
0.942994769041832
40
1
40
1
40
1
40
1
41
1
10
40.3245190528383
20
-7.85398176326899
30
0
41
1
10
40.324517804115
20
-7.85367316333009
30
0
41
1
10
40.3243906157673
20
-7.85317936046544
30
0
41
1
10
40.3238202282188
20
-7.85281468855246
30
0
41
1
10
40.3228811012745
20
-7.85282158304279
30
0
41
1
10
40.3215792086463
20
-7.85320047887927
30
0
41
1
10
40.3199159331323
20
-7.85395440228772
30
0
41
1
10
40.3178901391759
20
-7.85508828536509
30
0
41
1
10
40.3155277831698
20
-7.85657817847559
30
0
41
1
10
40.3128535312665
20
-7.85840360610382
30
0
41
1
10
40.309894292735
20
-7.86054222736779
30
0
41
1
10
40.3063735719472
20
-7.86320132662237
30
0
41
1
10
40.3022164198371
20
-7.86646837203477
30
0
41
1
10
40.2973761445266
20
-7.87040284223957
30
0
41
1
10
40.2922184026011
20
-7.87470932659595
30
0
41
1
10
40.2867939493651
20
-7.87933939919012
30
0
41
1
10
40.2810943009877
20
-7.88429664221697
30
0
41
1
10
40.2751405376229
20
-7.88956088570188
30
0
41
1
10
40.2689518200786
20
-7.89511174727068
30
0
41
1
10
40.2626018236952
20
-7.90087999514922
30
0
41
1
10
40.2561205273454
20
-7.90683511200795
30
0
41
1
10
40.2517308874982
20
-7.9109098268581
30
0
41
1
10
40.2495190528383
20
-7.91297335645893
30
0
0
SPLINE
5
13A
100
AcDbEntity
8
1
62
256
6
ByLayer
370
18
48
1
60
0
100
AcDbSpline
70
4
71
3
72
11
73
7
40
0
40
0
40
0
40
0
40
0.249999617521803
40
0.49999923644992
40
0.749999617588735
40
1
40
1
40
1
40
1
41
1
10
40.2495190528383
20
-7.91297335645893
30
0
41
1
10
40.1959252014269
20
-7.96296677280797
30
0
41
1
10
40.0886992444381
20
-8.06289881383788
30
0
41
1
10
39.9277442677672
20
-8.21263118113622
30
0
41
1
10
39.7666765966874
20
-8.36220226613239
30
0
41
1
10
39.6592251024118
20
-8.46181155571378
30
0
41
1
10
39.6054809471617
20
-8.51158975391263
30
0
0
SPLINE
5
13B
100
AcDbEntity
8
1
62
256
6
ByLayer
370
18
48
1
60
0
100
AcDbSpline
70
4
71
3
72
28
73
24
40
0
40
0
40
0
40
0
40
0.0667693167525056
40
0.133573026522491
40
0.200334884178898
40
0.251602244570726
40
0.302915296681456
40
0.354220493845097
40
0.405477133098623
40
0.452504999334295
40
0.499665141278144
40
0.546868981138355
40
0.594044595942138
40
0.641139517179978
40
0.688123790593281
40
0.733180840401522
40
0.778386786827581
40
0.823617467862736
40
0.868774116069464
40
0.913789685874134
40
0.951605106367255
40
0.989589017314302
40
1
40
1
40
1
40
1
41
1
10
39.6054809471617
20
-8.46626422561011
30
0
41
1
10
39.6025263341513
20
-8.46953259409497
30
0
41
1
10
39.5966955440002
20
-8.47602147272207
30
0
41
1
10
39.5881770444417
20
-8.48561782682591
30
0
41
1
10
39.5805635646331
20
-8.49431071881124
30
0
41
1
10
39.5738107689734
20
-8.50212182446536
30
0
41
1
10
39.5678672874363
20
-8.50908231451317
30
0
41
1
10
39.5621364926994
20
-8.51588578122208
30
0
41
1
10
39.5567918261598
20
-8.52232768173899
30
0
41
1
10
39.5518296893616
20
-8.52840788335044
30
0
41
1
10
39.5472441049736
20
-8.53412799461215
30
0
41
1
10
39.5429136858331
20
-8.53964133816108
30
0
41
1
10
39.538869789828
20
-8.54491430616967
30
0
41
1
10
39.5351441601268
20
-8.5499129245192
30
0
41
1
10
39.5318102703571
20
-8.55454443525997
30
0
41
1
10
39.528883044312
20
-8.55879255527933
30
0
41
1
10
39.5263676209178
20
-8.56264840499871
30
0
41
1
10
39.5242495278647
20
-8.56614050955469
30
0
41
1
10
39.5225622856536
20
-8.56922820403933
30
0
41
1
10
39.5214069752665
20
-8.57172936249683
30
0
41
1
10
39.52071860404
20
-8.57370210109637
30
0
41
1
10
39.5205422856332
20
-8.57480073257368
30
0
41
1
10
39.5204889428499
20
-8.57537204962514
30
0
41
1
10
39.5204809473913
20
-8.57549152295925
30
0
0
SPLINE
5
13C
100
AcDbEntity
8
1
62
256
6
ByLayer
370
18
48
1
60
0
100
AcDbSpline
70
4
71
3
72
11
73
7
40
0
40
0
40
0
40
0
40
0.249997583387899
40
0.499995175922899
40
0.749997583832794
40
1
40
1
40
1
40
1
41
1
10
40.2495190528383
20
-7.74758231010696
30
0
41
1
10
40.1960789659692
20
-7.80774518670118
30
0
41
1
10
40.0890831967571
20
-7.92793333999088
30
0
41
1
10
39.9282380871456
20
-8.10780037227783
30
0
41
1
10
39.7670524359688
20
-8.28726284268793
30
0
41
1
10
39.6593750811082
20
-8.40664143767372
30
0
41
1
10
39.6054809471617
20
-8.46626422561011
30
0
0
SPLINE
5
13D
100
AcDbEntity
8
1
62
256
6
ByLayer
370
18
48
1
60
0
100
AcDbSpline
70
4
71
3
72
25
73
21
40
0
40
0
40
0
40
0
40
0.0480287906659081
40
0.0962498319969113
40
0.144571925880026
40
0.192859908733922
40
0.240945074679732
40
0.288748888486646
40
0.336660780696117
40
0.384632209986992
40
0.432587431534236
40
0.480427670829811
40
0.544525222485376
40
0.608793020581177
40
0.673187022655279
40
0.737626539698102
40
0.801999529701178
40
0.866167414514988
40
0.933082836845787
40
1
40
1
40
1
40
1
41
1
10
40.3245190528383
20
-7.64631502187438
30
0
41
1
10
40.3245146821604
20
-7.64690309886428
30
0
41
1
10
40.3243371532678
20
-7.6482415742623
30
0
41
1
10
40.3235452079304
20
-7.65075486521737
30
0
41
1
10
40.3222760069543
20
-7.65371376113132
30
0
41
1
10
40.3205593932817
20
-7.65707786443599
30
0
41
1
10
40.3184257628195
20
-7.66080582139629
30
0
41
1
10
40.3159025864879
20
-7.6648669748195
30
0
41
1
10
40.3130300192585
20
-7.6692229355215
30
0
41
1
10
40.3098311616816
20
-7.67385142751509
30
0
41
1
10
40.3063391317614
20
-7.67871622240841
30
0
41
1
10
40.3021539370331
20
-7.68436476592243
30
0
41
1
10
40.2971855245155
20
-7.69086422666924
30
0
41
1
10
40.2913567841332
20
-7.69826652113307
30
0
41
1
10
40.2851656851249
20
-7.7059336545953
30
0
41
1
10
40.2786580313662
20
-7.71381967146051
30
0
41
1
10
40.2718790022337
20
-7.72187918417592
30
0
41
1
10
40.2647610986731
20
-7.73019859444373
30
0
41
1
10
40.2573143910337
20
-7.73876545556828
30
0
41
1
10
40.2521420190298
20
-7.74462979512865
30
0
41
1
10
40.2495190528383
20
-7.74758231010696
30
0
0
SPLINE
5
13E
100
AcDbEntity
8
1
62
256
6
ByLayer
370
18
48
1
60
0
100
AcDbSpline
70
4
71
3
72
27
73
23
40
0
40
0
40
0
40
0
40
0.0545207602764236
40
0.109203548014588
40
0.163938763882689
40
0.218637977243374
40
0.273237566673326
40
0.327702710528688
40
0.377572237168165
40
0.427603639700615
40
0.477661079877491
40
0.527637268908812
40
0.577460341133527
40
0.627726034603478
40
0.678232849798384
40
0.728802951664713
40
0.779273413575664
40
0.829508472626775
40
0.872077912312138
40
0.914747456312202
40
0.957422729545989
40
1
40
1
40
1
40
1
41
1
10
40.2495190528383
20
-7.6549655818256
30
0
41
1
10
40.2516355757894
20
-7.65306177893519
30
0
41
1
10
40.2558432771799
20
-7.64930800827084
30
0
41
1
10
40.262073450401
20
-7.64384209241265
30
0
41
1
10
40.2681977630076
20
-7.63856881780075
30
0
41
1
10
40.2741860293987
20
-7.63351933593811
30
0
41
1
10
40.2800054535232
20
-7.6287277700772
30
0
41
1
10
40.285471568203
20
-7.62434898897464
30
0
41
1
10
40.2905783203688
20
-7.62038445584514
30
0
41
1
10
40.2953255612213
20
-7.61682617847825
30
0
41
1
10
40.2998355448545
20
-7.61358381983192
30
0
41
1
10
40.3040662127653
20
-7.6106955129772
30
0
41
1
10
40.3079947296647
20
-7.60818551807308
30
0
41
1
10
40.3115758207737
20
-7.60610153048512
30
0
41
1
10
40.3147853146049
20
-7.60446193656039
30
0
41
1
10
40.3175895001237
20
-7.60328577358334
30
0
41
1
10
40.3199527898021
20
-7.6025945306206
30
0
41
1
10
40.3217457865151
20
-7.60242086724566
30
0
41
1
10
40.3230256840571
20
-7.60269369306658
30
0
41
1
10
40.3238872998694
20
-7.60330856793785
30
0
41
1
10
40.3244038829046
20
-7.60427265387377
30
0
41
1
10
40.3245188591984
20
-7.60514090164479
30
0
41
1
10
40.3245190528383
20
-7.6056313904784
30
0
0
SPLINE
5
13F
100
AcDbEntity
8
1
62
256
6
ByLayer
370
18
48
1
60
0
100
AcDbSpline
70
4
71
2
72
6
73
3
40
0
40
0
40
0
40
1
40
1
40
1
41
1
10
39.6054809471617
20
-8.23262352568985
30
0
41
1
10
39.9278165138113
20
-7.94426506739605
30
0
41
1
10
40.2495190528383
20
-7.6549655818256
30
0
0
SPLINE
5
140
100
AcDbEntity
8
1
62
256
6
ByLayer
370
18
48
1
60
0
100
AcDbSpline
70
4
71
3
72
29
73
25
40
0
40
0
40
0
40
0
40
0.0537721207398862
40
0.107702665081223
40
0.161684203115863
40
0.215630220963395
40
0.269478682664938
40
0.323195934195393
40
0.372473160733661
40
0.421910427308063
40
0.471373188564692
40
0.520755388011654
40
0.569986283244218
40
0.61135963009256
40
0.652919130180704
40
0.69456213569497
40
0.736190974996063
40
0.777717710793134
40
0.819069119334489
40
0.861311740487595
40
0.903696745409529
40
0.94614079068229
40
0.988546084596908
40
1
40
1
40
1
40
1
41
1
10
39.6054809471617
20
-8.23262352568985
30
0
41
1
10
39.6031151042137
20
-8.2347405974145
30
0
41
1
10
39.5984105015312
20
-8.23891381965892
30
0
41
1
10
39.5914409399842
20
-8.24498758590106
30
0
41
1
10
39.5845853408615
20
-8.25084366047278
30
0
41
1
10
39.5778768519454
20
-8.25644711206761
30
0
41
1
10
39.5713514605637
20
-8.2617596311797
30
0
41
1
10
39.5652119191614
20
-8.26661207367322
30
0
41
1
10
39.5594653906888
20
-8.27100196496217
30
0
41
1
10
39.5541128085138
20
-8.27493712536995
30
0
41
1
10
39.5490198253283
20
-8.27851398383413
30
0
41
1
10
39.5442332891293
20
-8.28168943168835
30
0
41
1
10
39.5400275727543
20
-8.28428195148912
30
0
41
1
10
39.5363802608539
20
-8.286328482528
30
0
41
1
10
39.5332376326116
20
-8.28790049927815
30
0
41
1
10
39.5303960263306
20
-8.28911298787333
30
0
41
1
10
39.5278790038019
20
-8.28995178552833
30
0
41
1
10
39.5257092309119
20
-8.29040380932133
30
0
41
1
10
39.5238947181562
20
-8.29045464216021
30
0
41
1
10
39.5224624969003
20
-8.29008053395303
30
0
41
1
10
39.5214073061353
20
-8.28929311849484
30
0
41
1
10
39.5207318153608
20
-8.28811193632595
30
0
41
1
10
39.5205121366154
20
-8.28692340334447
30
0
41
1
10
39.5204827656336
20
-8.28616664944147
30
0
41
1
10
39.5204809473884
20
-8.28600130315741
30
0
0
SPLINE
5
141
100
AcDbEntity
8
1
62
256
6
ByLayer
370
18
48
1
60
0
100
AcDbSpline
70
4
71
3
72
11
73
7
40
0
40
0
40
0
40
0
40
0.249996554411313
40
0.499993096516559
40
0.749996555084182
40
1
40
1
40
1
40
1
41
1
10
39.6054809471617
20
-8.16360534829859
30
0
41
1
10
39.6594367152475
20
-8.10053385191315
30
0
41
1
10
39.767206205943
20
-7.97422979942908
30
0
41
1
10
39.9284402665441
20
-7.78429277618802
30
0
41
1
10
40.0892407311357
20
-7.59386281572754
30
0
41
1
10
40.1961423576762
20
-7.46657237782603
30
0
41
1
10
40.2495190528383
20
-7.40284387797884
30
0
0
SPLINE
5
142
100
AcDbEntity
8
1
62
256
6
ByLayer
370
18
48
1
60
0
100
AcDbSpline
70
4
71
3
72
26
73
22
40
0
40
0
40
0
40
0
40
0.0641215558835892
40
0.128388446564522
40
0.192708824534188
40
0.257005128912152
40
0.321216405255975
40
0.38530080619359
40
0.43683293324055
40
0.488507841849181
40
0.540228410578318
40
0.591916672726868
40
0.643516931196906
40
0.69499916548818
40
0.742194636784231
40
0.789542862622055
40
0.836910610458403
40
0.884196958560421
40
0.931340369735565
40
0.965670883246786
40
1
40
1
40
1
40
1
41
1
10
40.2495190528383
20
-7.40284387797884
30
0
41
1
10
40.2520452540649
20
-7.39982818899845
30
0
41
1
10
40.2570314711992
20
-7.39381965288552
30
0
41
1
10
40.2643092005098
20
-7.38488123712645
30
0
41
1
10
40.2713576069019
20
-7.37604194527305
30
0
41
1
10
40.2781461350839
20
-7.36733255895158
30
0
41
1
10
40.2846413920525
20
-7.35878646013859
30
0
41
1
10
40.2904133173477
20
-7.35097463019349
30
0
41
1
10
40.2955094987449
20
-7.34387442187863
30
0
41
1
10
40.2999825378728
20
-7.33745628329242
30
0
41
1
10
40.3041905816514
20
-7.33121127117759
30
0
41
1
10
40.3081012853405
20
-7.32517412735345
30
0
41
1
10
40.3116818795803
20
-7.31937997452984
30
0
41
1
10
40.3148143883244
20
-7.31401146359405
30
0
41
1
10
40.3175016547271
20
-7.30907156498049
30
0
41
1
10
40.3197541638165
20
-7.30455863474178
30
0
41
1
10
40.321621439244
20
-7.30036284253003
30
0
41
1
10
40.3230671686376
20
-7.29653076356827
30
0
41
1
10
40.3239651805632
20
-7.293416606137
30
0
41
1
10
40.3244258708228
20
-7.29093138627155
30
0
41
1
10
40.3245177615761
20
-7.28962800692199
30
0
41
1
10
40.3245190528383
20
-7.28901781907117
30
0
0
SPLINE
5
143
100
AcDbEntity
8
1
62
256
6
ByLayer
370
18
48
1
60
0
100
AcDbSpline
70
4
71
3
72
26
73
22
40
0
40
0
40
0
40
0
40
0.0527252366264783
40
0.105629164814726
40
0.158512902395532
40
0.211210511097558
40
0.253692763122704
40
0.296326615457635
40
0.339018517929497
40
0.381664803375596
40
0.424157520620486
40
0.47578290596418
40
0.527552991990955
40
0.579347979133062
40
0.631007412679912
40
0.691170164400917
40
0.75151856263771
40
0.811977812531001
40
0.872416049135978
40
0.93265439044218
40
1
40
1
40
1
40
1
41
1
10
40.3245190528383
20
-7.23091908124851
30
0
41
1
10
40.3245190378451
20
-7.23008239998192
30
0
41
1
10
40.3243504843592
20
-7.22857282134674
30
0
41
1
10
40.3235928300089
20
-7.22679869713807
30
0
41
1
10
40.3223241205584
20
-7.22554584741734
30
0
41
1
10
40.3206508881763
20
-7.22488772993099
30
0
41
1
10
40.3186700177431
20
-7.22473728855727
30
0
41
1
10
40.3165028171695
20
-7.22496879945377
30
0
41
1
10
40.3140208143168
20
-7.22556206598
30
0
41
1
10
40.3112453584251
20
-7.2265084813128
30
0
41
1
10
40.3079717390736
20
-7.22789640571273
30
0
41
1
10
40.3041380058274
20
-7.22981324693883
30
0
41
1
10
40.2997170467801
20
-7.23231051908202
30
0
41
1
10
40.2949933282196
20
-7.23523015696309
30
0
41
1
10
40.289734353326
20
-7.23871856254574
30
0
41
1
10
40.283920354538
20
-7.24282292501232
30
0
41
1
10
40.2775529497177
20
-7.24756273224611
30
0
41
1
10
40.270965967017
20
-7.25268515988633
30
0
41
1
10
40.2642149565
20
-7.25813245521386
30
0
41
1
10
40.2570645469651
20
-7.26409199108481
30
0
41
1
10
40.2521408031089
20
-7.26831793466135
30
0
41
1
10
40.2495190528383
20
-7.27060263198974
30
0
0
SPLINE
5
144
100
AcDbEntity
8
1
62
256
6
ByLayer
370
18
48
1
60
0
100
AcDbSpline
70
4
71
2
72
6
73
3
40
0
40
0
40
0
40
1
40
1
40
1
41
1
10
40.2495190528383
20
-7.27060263198974
30
0
41
1
10
39.927706904878
20
-7.55083881426716
30
0
41
1
10
39.6054809471617
20
-7.83044026667588
30
0
0
SPLINE
5
145
100
AcDbEntity
8
1
62
256
6
ByLayer
370
18
48
1
60
0
100
AcDbSpline
70
4
71
3
72
27
73
23
40
0
40
0
40
0
40
0
40
0.059735801161008
40
0.119517622049819
40
0.179294208261305
40
0.239022865612395
40
0.300538487530969
40
0.362123717538993
40
0.423694775493579
40
0.485191049200244
40
0.531609895812164
40
0.578149386366028
40
0.624727063436442
40
0.671277018003947
40
0.717752456034879
40
0.764128499709252
40
0.808191186401201
40
0.852397369618966
40
0.896622318654352
40
0.940771193689112
40
0.984785663798731
40
1
40
1
40
1
40
1
41
1
10
39.6054809471617
20
-7.73638430939673
30
0
41
1
10
39.6028147854177
20
-7.73969487241858
30
0
41
1
10
39.5975522585702
20
-7.74629311278823
30
0
41
1
10
39.5898652544725
20
-7.75612305728609
30
0
41
1
10
39.5824104514182
20
-7.76586034748308
30
0
41
1
10
39.5751356485237
20
-7.77558108607868
30
0
41
1
10
39.5680691412269
20
-7.78526334481446
30
0
41
1
10
39.5612475264813
20
-7.79487749321718
30
0
41
1
10
39.554775154249
20
-7.80429398223429
30
0
41
1
10
39.5491867321359
20
-7.8127249217154
30
0
41
1
10
39.5444070245206
20
-7.82020734214402
30
0
41
1
10
39.5403528761528
20
-7.82679085850488
30
0
41
1
10
39.5365817251196
20
-7.83318112920522
30
0
41
1
10
39.5331245268289
20
-7.839342870819
30
0
41
1
10
39.530012740686
20
-7.8452403457552
30
0
41
1
10
39.5273194815147
20
-7.85075030591725
30
0
41
1
10
39.5250558275273
20
-7.85585855473559
30
0
41
1
10
39.5232259597974
20
-7.86055379732955
30
0
41
1
10
39.5218201262234
20
-7.8648860352905
30
0
41
1
10
39.5208743547522
20
-7.8688044424646
30
0
41
1
10
39.5205221669172
20
-7.87150985346331
30
0
41
1
10
39.5204812004811
20
-7.87290606409235
30
0
41
1
10
39.5204809477443
20
-7.87325505498152
30
0
0
SPLINE
5
146
100
AcDbEntity
8
1
62
256
6
ByLayer
370
18
48
1
60
0
100
AcDbSpline
70
4
71
3
72
13
73
9
40
0
40
0
40
0
40
0
40
0.16666317602541
40
0.333326555434453
40
0.499989745446436
40
0.666659764221437
40
0.833329968630745
40
1
40
1
40
1
40
1
41
1
10
40.2495190528383
20
-6.92644647218992
30
0
41
1
10
40.2139918205425
20
-6.97170812797295
30
0
41
1
10
40.1428519680574
20
-7.06214172196472
30
0
41
1
10
40.0358841451447
20
-7.19752117818485
30
0
41
1
10
39.9286628794579
20
-7.3326363498418
30
0
41
1
10
39.821192176673
20
-7.46749043181425
30
0
41
1
10
39.713475840326
20
-7.60208644180385
30
0
41
1
10
39.6415059414525
20
-7.6916469092985
30
0
41
1
10
39.6054809471617
20
-7.73638430939673
30
0
0
SPLINE
5
147
100
AcDbEntity
8
1
62
256
6
ByLayer
370
18
48
1
60
0
100
AcDbSpline
70
4
71
3
72
25
73
21
40
0
40
0
40
0
40
0
40
0.0423991015052763
40
0.084850208209922
40
0.127262133156763
40
0.171179984589322
40
0.215137657739498
40
0.259065774162739
40
0.315230124002285
40
0.371450614767058
40
0.427631074025728
40
0.485360959861771
40
0.543130663306233
40
0.600870141056976
40
0.66673713071451
40
0.73264589293053
40
0.798521243636763
40
0.865668189835163
40
0.932848816562641
40
1
40
1
40
1
40
1
41
1
10
40.3245190528383
20
-6.79863145518854
30
0
41
1
10
40.3245157568121
20
-6.79964671515435
30
0
41
1
10
40.3243730082466
20
-6.80179952538945
30
0
41
1
10
40.3237374288605
20
-6.80540928064869
30
0
41
1
10
40.3227065794353
20
-6.8093943155453
30
0
41
1
10
40.3212864889001
20
-6.81373896385885
30
0
41
1
10
40.319494380345
20
-6.8184175771251
30
0
41
1
10
40.3171765699544
20
-6.8238065837204
30
0
41
1
10
40.3142509405715
20
-6.82995784751969
30
0
41
1
10
40.3106489134213
20
-6.83690493306669
30
0
41
1
10
40.3066053714034
20
-6.84418861667817
30
0
41
1
10
40.3021468798475
20
-6.85177756170855
30
0
41
1
10
40.297296785103
20
-6.85964480196176
30
0
41
1
10
40.291884315218
20
-6.86806907729986
30
0
41
1
10
40.2858874619263
20
-6.87705074945819
30
0
41
1
10
40.2792886867619
20
-6.88658406716332
30
0
41
1
10
40.2723313794226
20
-6.89631772977503
30
0
41
1
10
40.2650372850895
20
-6.90622829146867
30
0
41
1
10
40.2574218555618
20
-6.9162974981575
30
0
41
1
10
40.2521812381222
20
-6.92305549043734
30
0
41
1
10
40.2495190528383
20
-6.92644647218992
30
0
0
SPLINE
5
148
100
AcDbEntity
8
1
62
256
6
ByLayer
370
18
48
1
60
0
100
AcDbSpline
70
4
71
3
72
27
73
23
40
0
40
0
40
0
40
0
40
0.0564435780060961
40
0.113045374892879
40
0.169663755664412
40
0.22619461644375
40
0.282578538738076
40
0.328561869940768
40
0.374698412495889
40
0.420861590210978
40
0.46694967870378
40
0.512892238947586
40
0.559172171241248
40
0.605660599828809
40
0.652212209590097
40
0.698685531749749
40
0.744952737374604
40
0.795478795043565
40
0.846170985819985
40
0.896884415149197
40
0.947439527442137
40
1
40
1
40
1
40
1
41
1
10
40.2495190528383
20
-6.75167879984997
30
0
41
1
10
40.2517242419369
20
-6.74980882911614
30
0
41
1
10
40.2561142595622
20
-6.74614939110371
30
0
41
1
10
40.2626346468037
20
-6.74090025027268
30
0
41
1
10
40.2690555716732
20
-6.73593595670418
30
0
41
1
10
40.2753370256779
20
-6.73130106116507
30
0
41
1
10
40.2810678361024
20
-6.72729982601856
30
0
41
1
10
40.2862534088678
20
-6.72389588079329
30
0
41
1
10
40.2909160380443
20
-6.72103010876587
30
0
41
1
10
40.2953917008647
20
-6.71848808180007
30
0
41
1
10
40.2996414609599
20
-6.71630299783487
30
0
41
1
10
40.3036433263998
20
-6.71449840821927
30
0
41
1
10
40.3073591811426
20
-6.71311650460584
30
0
41
1
10
40.3107705186018
20
-6.71216575374491
30
0
41
1
10
40.3138485099635
20
-6.71165299085481
30
0
41
1
10
40.3165624007902
20
-6.71158738431495
30
0
41
1
10
40.3189562032618
20
-6.71199286530395
30
0
41
1
10
40.3209635936365
20
-6.71293067487759
30
0
41
1
10
40.3225588281911
20
-6.71441085756562
30
0
41
1
10
40.3236917289114
20
-6.71637388454603
30
0
41
1
10
40.3243715500718
20
-6.71883026403336
30
0
41
1
10
40.3245224924756
20
-6.72076643785037
30
0
41
1
10
40.3245190528383
20
-6.72183121620635
30
0
0
SPLINE
5
149
100
AcDbEntity
8
1
62
256
6
ByLayer
370
18
48
1
60
0
100
AcDbSpline
70
4
71
2
72
6
73
3
40
0
40
0
40
0
40
1
40
1
40
1
41
1
10
39.6054809471617
20
-7.29691650505021
30
0
41
1
10
39.9276189142752
20
-7.02448493547378
30
0
41
1
10
40.2495190528383
20
-6.75167879984997
30
0
0
SPLINE
5
14A
100
AcDbEntity
8
1
62
256
6
ByLayer
370
18
48
1
60
0
100
AcDbSpline
70
4
71
3
72
29
73
25
40
0
40
0
40
0
40
0
40
0.055846909523991
40
0.111849215794351
40
0.167867571137054
40
0.223799751740353
40
0.279587688322372
40
0.325109966761844
40
0.370783901910524
40
0.416483862534251
40
0.462109180152133
40
0.507590550146755
40
0.5534115281981
40
0.599439875773097
40
0.645530967800998
40
0.691544095499843
40
0.73735225104964
40
0.777269354561479
40
0.817306586623946
40
0.857397633433915
40
0.897459647560691
40
0.937397599588524
40
0.989351022603439
40
1
40
1
40
1
40
1
41
1
10
39.6054809471617
20
-7.29691650505021
30
0
41
1
10
39.6030056257043
20
-7.29901120498096
30
0
41
1
10
39.5980769696349
20
-7.30310991353234
30
0
41
1
10
39.5907540781158
20
-7.3089878381203
30
0
41
1
10
39.5835395911089
20
-7.31454490797017
30
0
41
1
10
39.5764777979541
20
-7.3197309771374
30
0
41
1
10
39.5700295472517
20
-7.32420612898524
30
0
41
1
10
39.5641892106348
20
-7.32801098606493
30
0
41
1
10
39.5589325491955
20
-7.33121139741279
30
0
41
1
10
39.5538819855622
20
-7.33404569845508
30
0
41
1
10
39.5490810686786
20
-7.33647606381967
30
0
41
1
10
39.5445540443849
20
-7.33847560214407
30
0
41
1
10
39.5403434718526
20
-7.33999582710598
30
0
41
1
10
39.536470160827
20
-7.34102660954418
30
0
41
1
10
39.5329667619398
20
-7.34156022895972
30
0
41
1
10
39.5298680891048
20
-7.34158620216384
30
0
41
1
10
39.5273183709191
20
-7.34111230719058
30
0
41
1
10
39.525276748562
20
-7.34020402225511
30
0
41
1
10
39.5236639257132
20
-7.33896053957701
30
0
41
1
10
39.5223805263866
20
-7.33735675500048
30
0
41
1
10
39.5214246226803
20
-7.33541235981848
30
0
41
1
10
39.5207268787264
20
-7.33291844348996
30
0
41
1
10
39.5205092450761
20
-7.33066123271729
30
0
41
1
10
39.5204821185985
20
-7.32918471282411
30
0
41
1
10
39.5204809479214
20
-7.32893025035227
30
0
0
SPLINE
5
14B
100
AcDbEntity
8
1
62
256
6
ByLayer
370
18
48
1
60
0
100
AcDbSpline
70
4
71
3
72
13
73
9
40
0
40
0
40
0
40
0
40
0.16666176345178
40
0.333323776576039
40
0.499985521383354
40
0.666656929844796
40
0.833328612279889
40
1
40
1
40
1
40
1
41
1
10
39.6054809471617
20
-7.17581976235125
30
0
41
1
10
39.6415746439221
20
-7.12789517238699
30
0
41
1
10
39.713658923326
20
-7.03194291769002
30
0
41
1
10
39.8214783292309
20
-6.88770736791533
30
0
41
1
10
39.9289852592093
20
-6.74315642061679
30
0
41
1
10
40.0361745962857
20
-6.59828649410826
30
0
41
1
10
40.143040955573
20
-6.45309379780904
30
0
41
1
10
40.2140630933033
20
-6.35608159514889
30
0
41
1
10
40.2495190528383
20
-6.30752158581113
30
0
0
SPLINE
5
14C
100
AcDbEntity
8
1
62
256
6
ByLayer
370
18
48
1
60
0
100
AcDbSpline
70
4
71
3
72
25
73
21
40
0
40
0
40
0
40
0
40
0.0650353956255641
40
0.130123293780633
40
0.195206243102798
40
0.260234884777989
40
0.327281925646017
40
0.394407052782034
40
0.461515859521951
40
0.528540618391165
40
0.576750106864201
40
0.624979171777389
40
0.673182553591563
40
0.722365023672195
40
0.771577207988456
40
0.820747678887647
40
0.865214836551792
40
0.909678309832135
40
0.954841858249314
40
1
40
1
40
1
40
1
41
1
10
40.2495190528383
20
-6.30752158581113
30
0
41
1
10
40.2521159886388
20
-6.30396543712993
30
0
41
1
10
40.2572267758824
20
-6.29686734911114
30
0
41
1
10
40.2646463688595
20
-6.28626212003678
30
0
41
1
10
40.2717934501576
20
-6.27572494427188
30
0
41
1
10
40.2787189440548
20
-6.26516828502042
30
0
41
1
10
40.2853926041486
20
-6.25461306866288
30
0
41
1
10
40.2917736368744
20
-6.2440887057862
30
0
41
1
10
40.2977563038499
20
-6.23373879432095
30
0
41
1
10
40.3027814382983
20
-6.22455146772502
30
0
41
1
10
40.3069501095984
20
-6.21649280422957
30
0
41
1
10
40.3103689381659
20
-6.20951270839717
30
0
41
1
10
40.3135162877196
20
-6.2026599872613
30
0
41
1
10
40.3163597772219
20
-6.19596425476526
30
0
41
1
10
40.3188602806996
20
-6.18946332473256
30
0
41
1
10
40.3208971180763
20
-6.18343759051779
30
0
41
1
10
40.3224787716313
20
-6.17789699479147
30
0
41
1
10
40.3236248764127
20
-6.17281810530779
30
0
41
1
10
40.3243505895924
20
-6.16805597586781
30
0
41
1
10
40.3245146901791
20
-6.16514298293234
30
0
41
1
10
40.3245190528383
20
-6.16375222872178
30
0
0
SPLINE
5
14D
100
AcDbEntity
8
1
62
256
6
ByLayer
370
18
48
1
60
0
100
AcDbSpline
70
4
71
3
72
28
73
24
40
0
40
0
40
0
40
0
40
0.0524328969297314
40
0.105011915957119
40
0.157557587827026
40
0.209944879260067
40
0.252398722579679
40
0.295023812034111
40
0.337697316403626
40
0.380303632135921
40
0.422741666777764
40
0.471822933092688
40
0.521073604843117
40
0.570343776507008
40
0.61945172342234
40
0.668638102994034
40
0.717978884366992
40
0.767408177699238
40
0.816816827024629
40
0.866060312907932
40
0.910695698597818
40
0.955358119748223
40
1
40
1
40
1
40
1
41
1
10
40.3245190528383
20
-6.06634679022966
30
0
41
1
10
40.3245208823497
20
-6.06505587838657
30
0
41
1
10
40.3243758750776
20
-6.06261033471854
30
0
41
1
10
40.3237209841125
20
-6.05934287673292
30
0
41
1
10
40.322600349431
20
-6.05653407712808
30
0
41
1
10
40.3210959059711
20
-6.05437409363875
30
0
41
1
10
40.3192800007494
20
-6.052808245841
30
0
41
1
10
40.3172558926497
20
-6.05173566353167
30
0
41
1
10
40.3149035567823
20
-6.05104977712054
30
0
41
1
10
40.3122359190684
20
-6.05076273781153
30
0
41
1
10
40.3091046661631
20
-6.05089412025151
30
0
41
1
10
40.3054527472524
20
-6.05153868296587
30
0
41
1
10
40.3012671393107
20
-6.05274421194799
30
0
41
1
10
40.2967656615329
20
-6.05445133559303
30
0
41
1
10
40.2919866666947
20
-6.05663716894318
30
0
41
1
10
40.2869595329213
20
-6.05928358931644
30
0
41
1
10
40.2817226555593
20
-6.06234424082624
30
0
41
1
10
40.276315669274
20
-6.06577844852639
30
0
41
1
10
40.2707824886526
20
-6.06954178302633
30
0
41
1
10
40.2653285322581
20
-6.07347496915255
30
0
41
1
10
40.2599854192079
20
-6.0775192468108
30
0
41
1
10
40.2547709071178
20
-6.08162731202602
30
0
41
1
10
40.2512735032444
20
-6.08448127479943
30
0
41
1
10
40.2495190528383
20
-6.08593807462777
30
0
0
SPLINE
5
14E
100
AcDbEntity
8
1
62
256
6
ByLayer
370
18
48
1
60
0
100
AcDbSpline
70
4
71
1
72
4
73
2
40
0
40
0
40
1
40
1
41
1
10
40.2495190528383
20
-6.08593807462777
30
0
41
1
10
39.6054809471617
20
-6.62012561103662
30
0
0
SPLINE
5
14F
100
AcDbEntity
8
1
62
256
6
ByLayer
370
18
48
1
60
0
100
AcDbSpline
70
4
71
3
72
27
73
23
40
0
40
0
40
0
40
0
40
0.0673321232354205
40
0.134719165576338
40
0.202100939995892
40
0.269425873740139
40
0.324980064820235
40
0.380602508459119
40
0.436236404204704
40
0.491836935761896
40
0.547372726965776
40
0.592758825371187
40
0.638245831036222
40
0.683763061968599
40
0.729255093239025
40
0.774683886055334
40
0.820031097840821
40
0.856275057995569
40
0.892632717457024
40
0.929024675463349
40
0.965388233773431
40
1
40
1
40
1
40
1
41
1
10
39.6054809471617
20
-6.46907985778152
30
0
41
1
10
39.6024387474764
20
-6.47343284679076
30
0
41
1
10
39.5964566125226
20
-6.48212379780167
30
0
41
1
10
39.5877871838948
20
-6.4951162718603
30
0
41
1
10
39.5794518484663
20
-6.50803175079746
30
0
41
1
10
39.5719387406518
20
-6.52009816461029
30
0
41
1
10
39.5651971528896
20
-6.53131671136522
30
0
41
1
10
39.5591754457185
20
-6.54169711877785
30
0
41
1
10
39.5534526514075
20
-6.55195656772931
30
0
41
1
10
39.5480572853654
20
-6.56206410773068
30
0
41
1
10
39.5433223213603
20
-6.57138916447796
30
0
41
1
10
39.5391959562128
20
-6.57995084967802
30
0
41
1
10
39.535626557004
20
-6.58777230286768
30
0
41
1
10
39.5323530472669
20
-6.59542215623682
30
0
41
1
10
39.5294055493639
20
-6.6028648749943
30
0
41
1
10
39.5268147268131
20
-6.61006444839061
30
0
41
1
10
39.5247557688067
20
-6.6165271891111
30
0
41
1
10
39.5231706760318
20
-6.62228802863996
30
0
41
1
10
39.5219955459556
20
-6.62739015483518
30
0
41
1
10
39.5211291039353
20
-6.63225075243336
30
0
41
1
10
39.5206024161442
20
-6.63676449537182
30
0
41
1
10
39.5204849938509
20
-6.63954644715828
30
0
41
1
10
39.5204809472149
20
-6.64085736871983
30
0
0
SPLINE
5
150
100
AcDbEntity
8
1
62
256
6
ByLayer
370
18
48
1
60
0
100
AcDbSpline
70
4
71
3
72
13
73
9
40
0
40
0
40
0
40
0
40
0.166659329483101
40
0.333319087910337
40
0.499978448373656
40
0.666652159741751
40
0.833326260798078
40
1
40
1
40
1
40
1
41
1
10
40.2495190528383
20
-5.5300672644229
30
0
41
1
10
40.2141644812
20
-5.58261762178602
30
0
41
1
10
40.1433115173155
20
-5.68758856511911
30
0
41
1
10
40.0365972492648
20
-5.84465305047983
30
0
41
1
10
39.9294560540853
20
-6.00133662548876
30
0
41
1
10
39.821895144969
20
-6.15764362294203
30
0
41
1
10
39.713921384544
20
-6.3135781387978
30
0
41
1
10
39.6416725034115
20
-6.41728740850184
30
0
41
1
10
39.6054809471617
20
-6.46907985778152
30
0
0
SPLINE
5
151
100
AcDbEntity
8
1
62
256
6
ByLayer
370
18
48
1
60
0
100
AcDbSpline
70
4
71
3
72
25
73
21
40
0
40
0
40
0
40
0
40
0.0467115821854371
40
0.0934827546545953
40
0.140214634532838
40
0.188488561364051
40
0.236801190203213
40
0.285087022484337
40
0.33660139264234
40
0.388166292382474
40
0.439742298993363
40
0.491271829142451
40
0.54417603487331
40
0.597115595938363
40
0.650060370608149
40
0.702971690423229
40
0.776936914593443
40
0.850903817925852
40
0.925451547292854
40
1
40
1
40
1
40
1
41
1
10
40.3245190528383
20
-5.36757463585476
30
0
41
1
10
40.3245135299198
20
-5.3693791739928
30
0
41
1
10
40.3243355381364
20
-5.37312320886046
30
0
41
1
10
40.3235454699327
20
-5.37916541914403
30
0
41
1
10
40.3222842669274
20
-5.38562038437215
30
0
41
1
10
40.3205725854318
20
-5.3924557681812
30
0
41
1
10
40.3184356580959
20
-5.39963598490923
30
0
41
1
10
40.3158714620941
20
-5.40721438096871
30
0
41
1
10
40.3128864477686
20
-5.41517346659755
30
0
41
1
10
40.309483403822
20
-5.42349925096184
30
0
41
1
10
40.3057549469405
20
-5.43199182337006
30
0
41
1
10
40.3016927706775
20
-5.44070058456548
30
0
41
1
10
40.2973109228922
20
-5.44960967044582
30
0
41
1
10
40.292617951046
20
-5.45870760523102
30
0
41
1
10
40.2876705659114
20
-5.46789831272675
30
0
41
1
10
40.2817989327459
20
-5.47839352840404
30
0
41
1
10
40.2749014694819
20
-5.49021440422525
30
0
41
1
10
40.2668550943623
20
-5.50340314149693
30
0
41
1
10
40.2584051109937
20
-5.51669648696473
30
0
41
1
10
40.2525215188062
20
-5.52560512278839
30
0
41
1
10
40.2495190528383
20
-5.5300672644229
30
0
0
SPLINE
5
152
100
AcDbEntity
8
1
62
256
6
ByLayer
370
18
48
1
60
0
100
AcDbSpline
70
4
71
3
72
29
73
25
40
0
40
0
40
0
40
0
40
0.0469829904522524
40
0.0940851689066629
40
0.141199311705206
40
0.188247128015369
40
0.235184412892551
40
0.283009930848703
40
0.331067573310641
40
0.379165060978611
40
0.42714716794001
40
0.474909033726711
40
0.515871681415264
40
0.557007095415451
40
0.598206788354216
40
0.639352462739797
40
0.680323752373923
40
0.726170510734816
40
0.772144609490958
40
0.818142819746815
40
0.864022545541315
40
0.909329688477491
40
0.954681035323063
40
1
40
1
40
1
40
1
41
1
10
40.2495190528383
20
-5.25535172080222
30
0
41
1
10
40.2513830433356
20
-5.25382387834927
30
0
41
1
10
40.2551058646271
20
-5.25084339875298
30
0
41
1
10
40.2606711169009
20
-5.24659570567081
30
0
41
1
10
40.2661933290482
20
-5.24260892598007
30
0
41
1
10
40.2716435064563
20
-5.23891973633305
30
0
41
1
10
40.2770299701081
20
-5.23554040169955
30
0
41
1
10
40.2823267919773
20
-5.2325238162266
30
0
41
1
10
40.2875014791433
20
-5.22991001853867
30
0
41
1
10
40.2924824047968
20
-5.22774791826849
30
0
41
1
10
40.2972122934428
20
-5.22608171990075
30
0
41
1
10
40.301433225431
20
-5.22500557045294
30
0
41
1
10
40.3051494885621
20
-5.22447493746323
30
0
41
1
10
40.3084086921077
20
-5.2243902940102
30
0
41
1
10
40.3113909867781
20
-5.22471596753199
30
0
41
1
10
40.3140745449604
20
-5.22544509343858
30
0
41
1
10
40.3165344768899
20
-5.22662120652765
30
0
41
1
10
40.3187143255479
20
-5.22829631401329
30
0
41
1
10
40.3205883934852
20
-5.23047960138936
30
0
41
1
10
40.32208555497
20
-5.23307261576808
30
0
41
1
10
40.323209806651
20
-5.23602893466493
30
0
41
1
10
40.3239791314366
20
-5.23931197283084
30
0
41
1
10
40.3244231375466
20
-5.24288144302077
30
0
41
1
10
40.3245210243369
20
-5.24543454493474
30
0
41
1
10
40.3245190528383
20
-5.24675610308276
30
0
0
SPLINE
5
153
100
AcDbEntity
8
1
62
256
6
ByLayer
370
18
48
1
60
0
100
AcDbSpline
70
4
71
1
72
4
73
2
40
0
40
0
40
1
40
1
41
1
10
39.6054809471617
20
-5.78274409936107
30
0
41
1
10
40.2495190528383
20
-5.25535172080222
30
0
0
SPLINE
5
154
100
AcDbEntity
8
1
62
256
6
ByLayer
370
18
48
1
60
0
100
AcDbSpline
70
4
71
3
72
31
73
27
40
0
40
0
40
0
40
0
40
0.0467065332185848
40
0.0935309900908867
40
0.140367186639237
40
0.187137672301702
40
0.233798829168741
40
0.273369845235827
40
0.313124890818805
40
0.352948451993128
40
0.392741129336003
40
0.43242474522113
40
0.471947934104697
40
0.512652594422329
40
0.553530537884241
40
0.594472610679067
40
0.635360176814121
40
0.676072942265232
40
0.721428708511106
40
0.766910657155474
40
0.812416628244141
40
0.857805240284742
40
0.903600363827878
40
0.949512739004885
40
0.995518836505368
40
1
40
1
40
1
40
1
41
1
10
39.6054809471617
20
-5.78274409936107
30
0
41
1
10
39.6033774975968
20
-5.78446793056045
30
0
41
1
10
39.5991762239848
20
-5.78783082060295
30
0
41
1
10
39.5928951959061
20
-5.79262386187437
30
0
41
1
10
39.5866618609182
20
-5.79712270963793
30
0
41
1
10
39.5805087032758
20
-5.8012859806942
30
0
41
1
10
39.5747699267776
20
-5.80488392915134
30
0
41
1
10
39.5694501183721
20
-5.80793796471259
30
0
41
1
10
39.564542579177
20
-5.81049471810603
30
0
41
1
10
39.559770942003
20
-5.81270775786203
30
0
41
1
10
39.5551724373446
20
-5.81454781675851
30
0
41
1
10
39.5507841910755
20
-5.8159862256907
30
0
41
1
10
39.5465954156498
20
-5.81700625896377
30
0
41
1
10
39.5426451192308
20
-5.81755953829702
30
0
41
1
10
39.5389507306069
20
-5.81764237035203
30
0
41
1
10
39.5355670018265
20
-5.81725804528474
30
0
41
1
10
39.5325188776142
20
-5.81641395196501
30
0
41
1
10
39.5297253935629
20
-5.81506161531126
30
0
41
1
10
39.527247892356
20
-5.81314398944181
30
0
41
1
10
39.525112455063
20
-5.81065325195967
30
0
41
1
10
39.5233967839464
20
-5.80769849819102
30
0
41
1
10
39.522085876866
20
-5.80430937629443
30
0
41
1
10
39.5211731565805
20
-5.80051072678144
30
0
41
1
10
39.5206212022997
20
-5.79634982797206
30
0
41
1
10
39.5205032161706
20
-5.79319490982881
30
0
41
1
10
39.5204823415694
20
-5.79150877913476
30
0
41
1
10
39.5204809474221
20
-5.79135871989186
30
0
0
SPLINE
5
155
100
AcDbEntity
8
1
62
256
6
ByLayer
370
18
48
1
60
0
100
AcDbSpline
70
4
71
3
72
14
73
10
40
0
40
0
40
0
40
0
40
0.166656174020745
40
0.333312878852478
40
0.499969010655765
40
0.624976516828488
40
0.749984532976952
40
0.874992525730106
40
1
40
1
40
1
40
1
41
1
10
39.6054809471617
20
-5.59750216513371
30
0
41
1
10
39.6418023852684
20
-5.54089972075185
30
0
41
1
10
39.7142674532906
20
-5.42754374445251
30
0
41
1
10
39.8224359636711
20
-5.25705959740789
30
0
41
1
10
39.9210957555102
20
-5.10035773225311
30
0
41
1
10
40.010387178115
20
-4.95755885071674
30
0
41
1
10
40.090437819671
20
-4.82877092476931
30
0
41
1
10
40.1701686499964
20
-4.69971862618098
30
0
41
1
10
40.2231049692993
20
-4.61350552253011
30
0
41
1
10
40.2495190528383
20
-4.57035465522136
30
0
0
SPLINE
5
156
100
AcDbEntity
8
1
62
256
6
ByLayer
370
18
48
1
60
0
100
AcDbSpline
70
4
71
3
72
25
73
21
40
0
40
0
40
0
40
0
40
0.0746466396433318
40
0.149356582436326
40
0.224062290503768
40
0.298703150564247
40
0.360341407284934
40
0.422057061504044
40
0.483784821542765
40
0.545473918125527
40
0.607089873494646
40
0.660265452689482
40
0.713463096130318
40
0.766629419843448
40
0.807415535810473
40
0.848240760451653
40
0.88905451039553
40
0.929824963237808
40
0.964872063256559
40
1
40
1
40
1
40
1
41
1
10
40.2495190528383
20
-4.57035465522136
30
0
41
1
10
40.2525547656539
20
-4.56539614523387
30
0
41
1
10
40.2584978806126
20
-4.55548298940192
30
0
41
1
10
40.2670303098745
20
-4.54062414673561
30
0
41
1
10
40.2751504337712
20
-4.5258129354395
30
0
41
1
10
40.2823888036763
20
-4.51193274658997
30
0
41
1
10
40.2888118252802
20
-4.49898843054888
30
0
41
1
10
40.2944818212167
20
-4.48697547206125
30
0
41
1
10
40.2997930448751
20
-4.47506890982872
30
0
41
1
10
40.3047131928173
20
-4.46330379999128
30
0
41
1
10
40.3090073174461
20
-4.45223843966412
30
0
41
1
10
40.3127119784189
20
-4.44187265809393
30
0
41
1
10
40.3158596519972
20
-4.43220462735055
30
0
41
1
10
40.3183888236648
20
-4.42348091266174
30
0
41
1
10
40.3203741852007
20
-4.41567708254507
30
0
41
1
10
40.3218931933987
20
-4.40875821823408
30
0
41
1
10
40.323101945633
20
-4.40203697088746
30
0
41
1
10
40.3239317015074
20
-4.3958504217152
30
0
41
1
10
40.3244135468079
20
-4.39018495976763
30
0
41
1
10
40.3245163606674
20
-4.38675681527259
30
0
41
1
10
40.3245190528383
20
-4.38507745679562
30
0
0
SPLINE
5
157
100
AcDbEntity
8
1
62
256
6
ByLayer
370
18
48
1
60
0
100
AcDbSpline
70
4
71
3
72
29
73
25
40
0
40
0
40
0
40
0
40
0.0553728329638819
40
0.110870851377201
40
0.16632424139787
40
0.221636070799767
40
0.266713700944841
40
0.312010219068195
40
0.357339760169938
40
0.402556251642938
40
0.447566445881486
40
0.486286014672351
40
0.525176231429096
40
0.564129211320059
40
0.603028082287963
40
0.641754941564002
40
0.684165696906332
40
0.72669345422714
40
0.769244523758088
40
0.811687152937311
40
0.85870419106407
40
0.905813616976686
40
0.952948365971917
40
1
40
1
40
1
40
1
41
1
10
40.3245190528383
20
-4.23659984976087
30
0
41
1
10
40.3245227295194
20
-4.23471476952703
30
0
41
1
10
40.3243888521804
20
-4.23106082335266
30
0
41
1
10
40.3237808586987
20
-4.22591539721016
30
0
41
1
10
40.3227145480348
20
-4.22118540562588
30
0
41
1
10
40.3212548653675
20
-4.21719295913014
30
0
41
1
10
40.3194552029094
20
-4.21391072869686
30
0
41
1
10
40.3174033846868
20
-4.21126661939618
30
0
41
1
10
40.3149723339876
20
-4.20906281328031
30
0
41
1
10
40.3121621692151
20
-4.20734676280207
30
0
41
1
10
40.309117304879
20
-4.206216774941
30
0
41
1
10
40.305887413688
20
-4.20563493209682
30
0
41
1
10
40.3025510008984
20
-4.20550530533063
30
0
41
1
10
40.298968753932
20
-4.20579046704631
30
0
41
1
10
40.2951735306211
20
-4.20648452426476
30
0
41
1
10
40.2910608352873
20
-4.20762236099056
30
0
41
1
10
40.2866285308587
20
-4.20924502613263
30
0
41
1
10
40.2818962556123
20
-4.21134932634556
30
0
41
1
10
40.2770336209608
20
-4.21385074852333
30
0
41
1
10
40.2718970877148
20
-4.2168179264354
30
0
41
1
10
40.2665007153213
20
-4.22026546755198
30
0
41
1
10
40.2608637021496
20
-4.22418689613273
30
0
41
1
10
40.255193464739
20
-4.22842680787933
30
0
41
1
10
40.2514109026762
20
-4.2314308230013
30
0
41
1
10
40.2495190528383
20
-4.23297867273371
30
0
0
SPLINE
5
158
100
AcDbEntity
8
1
62
256
6
ByLayer
370
18
48
1
60
0
100
AcDbSpline
70
4
71
1
72
4
73
2
40
0
40
0
40
1
40
1
41
1
10
40.2495190528383
20
-4.23297867273371
30
0
41
1
10
39.6054809471617
20
-4.7591932680759
30
0
0
SPLINE
5
159
100
AcDbEntity
8
1
62
256
6
ByLayer
370
18
48
1
60
0
100
AcDbSpline
70
4
71
3
72
26
73
22
40
0
40
0
40
0
40
0
40
0.0597478977288489
40
0.119541610895688
40
0.179348213568401
40
0.239137275337012
40
0.298881268926089
40
0.36041149024457
40
0.422013856838479
40
0.483626964653896
40
0.545203544571104
40
0.606712113717958
40
0.656297560441388
40
0.705958910509915
40
0.755625284844854
40
0.805247200657751
40
0.854799524950073
40
0.895994989736983
40
0.937212261344129
40
0.978396200430777
40
1
40
1
40
1
40
1
41
1
10
39.6054809471617
20
-4.53336425780609
30
0
41
1
10
39.6027418184659
20
-4.53807778724139
30
0
41
1
10
39.597354505676
20
-4.54750438771169
30
0
41
1
10
39.5895462883905
20
-4.5616414665826
30
0
41
1
10
39.5820256465839
20
-4.57575638976644
30
0
41
1
10
39.5748069193499
20
-4.58982860153252
30
0
41
1
10
39.5678348101412
20
-4.60398057496566
30
0
41
1
10
39.5611293425476
20
-4.61820077309365
30
0
41
1
10
39.554724978503
20
-4.6324694474483
30
0
41
1
10
39.5487180145071
20
-4.6466197310753
30
0
41
1
10
39.5431441721606
20
-4.66061230658996
30
0
41
1
10
39.5383670420558
20
-4.67352269731622
30
0
41
1
10
39.5343124843994
20
-4.68536885011406
30
0
41
1
10
39.530913651768
20
-4.6961722531445
30
0
41
1
10
39.5279075905606
20
-4.70677537580581
30
0
41
1
10
39.5253363893899
20
-4.71712988607633
30
0
41
1
10
39.5233579653882
20
-4.72662734442941
30
0
41
1
10
39.5219207351507
20
-4.73528282287034
30
0
41
1
10
39.5209755785473
20
-4.7431140203284
30
0
41
1
10
39.5205490203555
20
-4.7494359149163
30
0
41
1
10
39.5204823067387
20
-4.75310187581604
30
0
41
1
10
39.5204809483638
20
-4.75434670306432
30
0
0
SPLINE
5
15A
100
AcDbEntity
8
1
62
256
6
ByLayer
370
18
48
1
60
0
100
AcDbSpline
70
4
71
3
72
15
73
11
40
0
40
0
40
0
40
0
40
0.124987626519733
40
0.249976035891166
40
0.374964481729617
40
0.499952157977412
40
0.624963745559764
40
0.749976040242815
40
0.874988367710743
40
1
40
1
40
1
40
1
41
1
10
40.2495190528383
20
-3.39196874692273
30
0
41
1
10
40.2232635471988
20
-3.43995192221873
30
0
41
1
10
40.1706047382407
20
-3.53580987944501
30
0
41
1
10
40.0911704578688
20
-3.67926981482835
30
0
41
1
10
40.0112994143036
20
-3.82240584787896
30
0
41
1
10
39.9309925377436
20
-3.96522895648568
30
0
41
1
10
39.8502562538174
20
-4.10774183613932
30
0
41
1
10
39.7690966487265
20
-4.24994711009548
30
0
41
1
10
39.6875245791585
20
-4.39183756294845
30
0
41
1
10
39.6328739691877
20
-4.4862235085686
30
0
41
1
10
39.6054809471617
20
-4.53336425780609
30
0
0
SPLINE
5
15B
100
AcDbEntity
8
1
62
256
6
ByLayer
370
18
48
1
60
0
100
AcDbSpline
70
4
71
3
72
27
73
23
40
0
40
0
40
0
40
0
40
0.0352049245813073
40
0.0704420347158452
40
0.105688215493663
40
0.140905519858998
40
0.188945502706599
40
0.237011272674305
40
0.285059674552988
40
0.336555269018634
40
0.388095031461773
40
0.439659149239474
40
0.491216872863635
40
0.542727544886144
40
0.608798282372549
40
0.674912092446973
40
0.741030905589011
40
0.807108469793581
40
0.855273701185154
40
0.903438992974472
40
0.951719508429886
40
1
40
1
40
1
40
1
41
1
10
40.3245190528383
20
-3.17757797520173
30
0
41
1
10
40.324516301294
20
-3.17966395601768
30
0
41
1
10
40.324412275029
20
-3.18390535496024
30
0
41
1
10
40.3239491255572
20
-3.19048503986019
30
0
41
1
10
40.3232125628071
20
-3.19724168342042
30
0
41
1
10
40.3221033704949
20
-3.20499003502674
30
0
41
1
10
40.3205349087548
20
-3.21377207417223
30
0
41
1
10
40.3184202078043
20
-3.22362022732724
30
0
41
1
10
40.3158883395316
20
-3.23388313639384
30
0
41
1
10
40.3129454751985
20
-3.24454512085326
30
0
41
1
10
40.3095884572865
20
-3.25559639311667
30
0
41
1
10
40.3059074038628
20
-3.2667715582841
30
0
41
1
10
40.3019266888005
20
-3.27804463900697
30
0
41
1
10
40.2972672087543
20
-3.29046579314236
30
0
41
1
10
40.2918525775175
20
-3.30404912693054
30
0
41
1
10
40.2856000458359
20
-3.3188012734854
30
0
41
1
10
40.27896190749
20
-3.33362084511526
30
0
41
1
10
40.2725925758811
20
-3.34714207351207
30
0
41
1
10
40.266611115762
20
-3.35933762345825
30
0
41
1
10
40.2611038266872
20
-3.37020584929435
30
0
41
1
10
40.2554148737237
20
-3.38108597244736
30
0
41
1
10
40.2515037363578
20
-3.38834144858781
30
0
41
1
10
40.2495190528383
20
-3.39196874692273
30
0
0
SPLINE
5
15C
100
AcDbEntity
8
1
62
256
6
ByLayer
370
18
48
1
60
0
100
AcDbSpline
70
4
71
3
72
30
73
26
40
0
40
0
40
0
40
0
40
0.0458139173897863
40
0.0917251722306436
40
0.137602333357694
40
0.183369654145268
40
0.220697124387368
40
0.258187271127479
40
0.295705369488761
40
0.333142892432213
40
0.370426039033309
40
0.412579124511612
40
0.454916864320766
40
0.497265603641261
40
0.539433753423918
40
0.577580670686348
40
0.615827391321109
40
0.654096197561752
40
0.692273307123563
40
0.742168981719829
40
0.792208918485505
40
0.842351941499948
40
0.892492978583983
40
0.942473705573705
40
1
40
1
40
1
40
1
41
1
10
40.2495190528383
20
-2.97679573153061
30
0
41
1
10
40.2513965639941
20
-2.97523720861617
30
0
41
1
10
40.2551590797058
20
-2.97222569661437
30
0
41
1
10
40.2608238770845
20
-2.9680132145478
30
0
41
1
10
40.2664774983854
20
-2.964172464411
30
0
41
1
10
40.2717449746572
20
-2.96096300974538
30
0
41
1
10
40.2766081785012
20
-2.95835690712758
30
0
41
1
10
40.2810630687734
20
-2.95628717801153
30
0
41
1
10
40.2854214474559
20
-2.95459492556061
30
0
41
1
10
40.2896413667775
20
-2.95331441226045
30
0
41
1
10
40.2938640040682
20
-2.95244046795546
30
0
41
1
10
40.2980238898129
20
-2.95208751859251
30
0
41
1
10
40.3020624135164
20
-2.95231264784646
30
0
41
1
10
40.3057824422482
20
-2.95311056951812
30
0
41
1
10
40.309041398238
20
-2.95442959235266
30
0
41
1
10
40.3118547573212
20
-2.95619696916531
30
0
41
1
10
40.3142800516648
20
-2.95830527087815
30
0
41
1
10
40.316416157613
20
-2.9607784305645
30
0
41
1
10
40.3184571603225
20
-2.96386899393319
30
0
41
1
10
40.3203084721228
20
-2.96766631143056
30
0
41
1
10
40.3218899096861
20
-2.97222949496537
30
0
41
1
10
40.3230750356688
20
-2.97717746371691
30
0
41
1
10
40.323895667439
20
-2.98244446277666
30
0
41
1
10
40.3244040614402
20
-2.98826283086966
30
0
41
1
10
40.3245232223862
20
-2.99240371634106
30
0
41
1
10
40.3245190528383
20
-2.9946727753959
30
0
0
SPLINE
5
15D
100
AcDbEntity
8
1
62
256
6
ByLayer
370
18
48
1
60
0
100
AcDbSpline
70
4
71
1
72
4
73
2
40
0
40
0
40
1
40
1
41
1
10
39.6054809471617
20
-3.51012906270992
30
0
41
1
10
40.2495190528383
20
-2.97679573153061
30
0
0
SPLINE
5
15E
100
AcDbEntity
8
1
62
256
6
ByLayer
370
18
48
1
60
0
100
AcDbSpline
70
4
71
3
72
32
73
28
40
0
40
0
40
0
40
0
40
0.0459218700537469
40
0.0919412983441606
40
0.137926633199012
40
0.18380190705464
40
0.221177790209669
40
0.25871665825674
40
0.296283157324996
40
0.333768578969097
40
0.371099445576524
40
0.404854704099234
40
0.438750058778335
40
0.472699415785485
40
0.506606669360615
40
0.540371949293346
40
0.57839152463489
40
0.616511286090432
40
0.654653020522243
40
0.692702634761376
40
0.74217833198586
40
0.791797116015276
40
0.841518166333254
40
0.891237263078346
40
0.94079735018631
40
0.992848991402334
40
1
40
1
40
1
40
1
41
1
10
39.6054809471617
20
-3.51012906270992
30
0
41
1
10
39.6033445836057
20
-3.51190058975666
30
0
41
1
10
39.5990638107941
20
-3.51532386365413
30
0
41
1
10
39.5926201193879
20
-3.52011281289215
30
0
41
1
10
39.5861906809791
20
-3.52447987227261
30
0
41
1
10
39.5802037402098
20
-3.52812883306252
30
0
41
1
10
39.5746796281279
20
-3.53109205965793
30
0
41
1
10
39.5696223789008
20
-3.53344567837112
30
0
41
1
10
39.564675616815
20
-3.53537104371357
30
0
41
1
10
39.5598870109528
20
-3.53682876601941
30
0
41
1
10
39.5554421172182
20
-3.53775257725617
30
0
41
1
10
39.5513553727177
20
-3.53815738559817
30
0
41
1
10
39.5476110086611
20
-3.53811304761321
30
0
41
1
10
39.5440869437446
20
-3.53764392139402
30
0
41
1
10
39.5408084652208
20
-3.53675947044977
30
0
41
1
10
39.5376696081504
20
-3.53540844954679
30
0
41
1
10
39.5347220565266
20
-3.53353742081336
30
0
41
1
10
39.5319914675753
20
-3.53113796447109
30
0
41
1
10
39.5295874898857
20
-3.52832330269075
30
0
41
1
10
39.5272964284656
20
-3.52481258944176
30
0
41
1
10
39.5252220720834
20
-3.5205064427981
30
0
41
1
10
39.5234513611898
20
-3.51533993525893
30
0
41
1
10
39.5221223458646
20
-3.5097383167398
30
0
41
1
10
39.5211993697284
20
-3.50377473708816
30
0
41
1
10
39.5206401749012
20
-3.49739919613062
30
0
41
1
10
39.5204866385552
20
-3.49261874289105
30
0
41
1
10
39.5204805445044
20
-3.48995933922565
30
0
41
1
10
39.5204809476223
20
-3.48963723952788
30
0
0
SPLINE
5
15F
100
AcDbEntity
8
1
62
256
6
ByLayer
370
18
48
1
60
0
100
AcDbSpline
70
4
71
3
72
17
73
13
40
0
40
0
40
0
40
0
40
0.0999848181261503
40
0.199970485153554
40
0.299956402655765
40
0.399942007869222
40
0.499926774150962
40
0.599940821861996
40
0.6999558144559
40
0.799971085925807
40
0.899986009868202
40
1
40
1
40
1
40
1
41
1
10
39.6054809471617
20
-3.23354250387999
30
0
41
1
10
39.6275784153601
20
-3.19069755287847
30
0
41
1
10
39.6716505791883
20
-3.1049234629751
30
0
41
1
10
39.7373922660065
20
-2.97601116230993
30
0
41
1
10
39.8027608888322
20
-2.84684585185062
30
0
41
1
10
39.867751844002
20
-2.7174271563426
30
0
41
1
10
39.9323665032597
20
-2.5877412944002
30
0
41
1
10
39.9966002403686
20
-2.45778648622237
30
0
41
1
10
40.0604482181107
20
-2.32756095446793
30
0
41
1
10
40.1238989458003
20
-2.19707633989188
30
0
41
1
10
40.1869475240188
20
-2.06633245077159
30
0
41
1
10
40.2287071243476
20
-1.97899597071022
30
0
41
1
10
40.2495190528383
20
-1.9352844860648
30
0
0
SPLINE
5
160
100
AcDbEntity
8
1
62
256
6
ByLayer
370
18
48
1
60
0
100
AcDbSpline
70
4
71
3
72
26
73
22
40
0
40
0
40
0
40
0
40
0.0580730029314667
40
0.116166760220995
40
0.174260701745645
40
0.232333955996443
40
0.290415009857753
40
0.348518488932925
40
0.406619751807316
40
0.464697782388812
40
0.525872905049396
40
0.587084988198347
40
0.648287777568061
40
0.709450218884666
40
0.757500391424857
40
0.805563410673959
40
0.853607271501152
40
0.890198207742889
40
0.926814005449846
40
0.963421032455607
40
1
40
1
40
1
40
1
41
1
10
40.2495190528383
20
-1.9352844860648
30
0
41
1
10
40.2519383975909
20
-1.9302026846657
30
0
41
1
10
40.2566856301797
20
-1.92003301681342
30
0
41
1
10
40.2635317954682
20
-1.90475985381154
30
0
41
1
10
40.2700970578667
20
-1.88948389052211
30
0
41
1
10
40.2763767594785
20
-1.8742157699243
30
0
41
1
10
40.2823669394922
20
-1.85896440310952
30
0
41
1
10
40.2880568735318
20
-1.84373957729771
30
0
41
1
10
40.2934331281616
20
-1.82855644670184
30
0
41
1
10
40.298571197228
20
-1.81316171550538
30
0
41
1
10
40.3034386342394
20
-1.79757029646689
30
0
41
1
10
40.3079846502652
20
-1.78180722182291
30
0
41
1
10
40.3120906862655
20
-1.76616976228295
30
0
41
1
10
40.315461963306
20
-1.75179664333938
30
0
41
1
10
40.3181805833899
20
-1.73867750078862
30
0
41
1
10
40.3203227348842
20
-1.7267950756808
30
0
41
1
10
40.321941363607
20
-1.7160153741109
30
0
41
1
10
40.3231112429595
20
-1.70631771090907
30
0
41
1
10
40.3239033710056
20
-1.69767595738422
30
0
41
1
10
40.3244034347772
20
-1.68919904324639
30
0
41
1
10
40.3245158501612
20
-1.68368641213126
30
0
41
1
10
40.3245190528383
20
-1.68096313906203
30
0
0
SPLINE
5
161
100
AcDbEntity
8
1
62
256
6
ByLayer
370
18
48
1
60
0
100
AcDbSpline
70
4
71
3
72
31
73
27
40
0
40
0
40
0
40
0
40
0.0563219054507003
40
0.112785940741386
40
0.169242296545837
40
0.22559832423247
40
0.281829427724963
40
0.325519937861193
40
0.369321330400892
40
0.413076623495584
40
0.456704098904755
40
0.491696827162189
40
0.526804823199035
40
0.561888074354211
40
0.596846943989923
40
0.631990566741662
40
0.667282182457733
40
0.702580572689821
40
0.737733471986001
40
0.770125447852953
40
0.802603111555529
40
0.835100282348842
40
0.867518926193567
40
0.911646085698385
40
0.955844096395913
40
1
40
1
40
1
40
1
41
1
10
40.3245190528383
20
-1.4518174255441
30
0
41
1
10
40.3245236190411
20
-1.44923178610644
30
0
41
1
10
40.324419568913
20
-1.44413312687459
30
0
41
1
10
40.3239432045485
20
-1.43669773136135
30
0
41
1
10
40.3230863119845
20
-1.42954372382179
30
0
41
1
10
40.321808353495
20
-1.42273790668884
30
0
41
1
10
40.3201948763153
20
-1.41682166118656
30
0
41
1
10
40.3183174424253
20
-1.41175563131873
30
0
41
1
10
40.3162547062514
20
-1.40748583752473
30
0
41
1
10
40.3138172886062
20
-1.40363547725038
30
0
41
1
10
40.3111675455301
20
-1.40049834205953
30
0
41
1
10
40.3083652081117
20
-1.39803827783141
30
0
41
1
10
40.3054934854185
20
-1.39617161226025
30
0
41
1
10
40.302348456092
20
-1.394745492737
30
0
41
1
10
40.2989326649381
20
-1.39379792869787
30
0
41
1
10
40.2952440135039
20
-1.39338319273489
30
0
41
1
10
40.2913173910318
20
-1.39349115711479
30
0
41
1
10
40.2872021857835
20
-1.39410772337601
30
0
41
1
10
40.2830479041326
20
-1.39519938898918
30
0
41
1
10
40.2788979883489
20
-1.39671289082333
30
0
41
1
10
40.2747896484902
20
-1.39855876267616
30
0
41
1
10
40.2706365118788
20
-1.40074503080502
30
0
41
1
10
40.2659616856001
20
-1.40354036254616
30
0
41
1
10
40.2607784463588
20
-1.40704625927147
30
0
41
1
10
40.2551174649905
20
-1.41133323627315
30
0
41
1
10
40.2513794764249
20
-1.41442776744104
30
0
41
1
10
40.2495190528383
20
-1.41603795894265
30
0
0
SPLINE
5
162
100
AcDbEntity
8
1
62
256
6
ByLayer
370
18
48
1
60
0
100
AcDbSpline
70
4
71
2
72
6
73
3
40
0
40
0
40
0
40
1
40
1
40
1
41
1
10
40.2495190528383
20
-1.41603795894265
30
0
41
1
10
39.9277531848528
20
-1.69369281869389
30
0
41
1
10
39.6054809471617
20
-1.97056353334075
30
0
0
SPLINE
5
163
100
AcDbEntity
8
1
62
256
6
ByLayer
370
18
48
1
60
0
100
AcDbSpline
70
4
71
3
72
26
73
22
40
0
40
0
40
0
40
0
40
0.0617812411722286
40
0.123584401537422
40
0.185387442501668
40
0.247168520796568
40
0.308964159613157
40
0.370784730348291
40
0.432601933675257
40
0.494392978673307
40
0.546580377784936
40
0.59880653336191
40
0.651036683467097
40
0.703245593930962
40
0.755418519040666
40
0.802745295696896
40
0.850085885570239
40
0.897404473857066
40
0.933545780577073
40
0.969717783905008
40
1
40
1
40
1
40
1
41
1
10
39.6054809471617
20
-1.62545283361463
30
0
41
1
10
39.6026024580855
20
-1.6319427135317
30
0
41
1
10
39.5969575298456
20
-1.6449279096218
30
0
41
1
10
39.5888264515164
20
-1.66442276280997
30
0
41
1
10
39.5810397020357
20
-1.68391397064946
30
0
41
1
10
39.573603128547
20
-1.70338810410389
30
0
41
1
10
39.5665218379189
20
-1.7228332451782
30
0
41
1
10
39.5598124229218
20
-1.7422358507856
30
0
41
1
10
39.5534953415759
20
-1.76157423910735
30
0
41
1
10
39.5478979739834
20
-1.77982934073777
30
0
41
1
10
39.5429624288853
20
-1.79700257062614
30
0
41
1
10
39.5386420424979
20
-1.81309766151265
30
0
41
1
10
39.5346811572814
20
-1.82908441865517
30
0
41
1
10
39.5311110350888
20
-1.84493210307623
30
0
41
1
10
39.5280590756724
20
-1.86012873821301
30
0
41
1
10
39.5255109022798
20
-1.87466678360209
30
0
41
1
10
39.5234677326299
20
-1.88853132766576
30
0
41
1
10
39.5220167111461
20
-1.90108827506306
30
0
41
1
10
39.521073984095
20
-1.91236188706511
30
0
41
1
10
39.5205803273262
20
-1.92184783131363
30
0
41
1
10
39.5204821671574
20
-1.92785070388834
30
0
41
1
10
39.5204809482046
20
-1.9305591654085
30
0
0
SPLINE
5
164
100
AcDbEntity
8
1
62
256
6
ByLayer
370
18
48
1
60
0
100
AcDbSpline
70
4
71
3
72
19
73
15
40
0
40
0
40
0
40
0
40
0.083307683119905
40
0.166615994822271
40
0.249924327405994
40
0.33323203900069
40
0.41653951113898
40
0.499847567414118
40
0.583155643337119
40
0.666463142268137
40
0.749847073843918
40
0.833231549277587
40
0.91661604320513
40
1
40
1
40
1
40
1
41
1
10
40.2495190528384
20
-0.0911859175859
30
0
41
1
10
40.2324794561165
20
-0.134255160035565
30
0
41
1
10
40.1982548771831
20
-0.220316429469786
30
0
41
1
10
40.1464799668437
20
-0.349175811861997
30
0
41
1
10
40.0942736760714
20
-0.477802730277904
30
0
41
1
10
40.0416403869821
20
-0.606196936968571
30
0
41
1
10
39.9885847865738
20
-0.734358985384212
30
0
41
1
10
39.93511131656
20
-0.862289493935373
30
0
41
1
10
39.8812246323509
20
-0.989988621700533
30
0
41
1
10
39.8269128096497
20
-1.11749543127433
30
0
41
1
10
39.7721797885684
20
-1.24481036038574
30
0
41
1
10
39.717029588508
20
-1.37193392097678
30
0
41
1
10
39.6614830221084
20
-1.49882734949367
30
0
41
1
10
39.6241918521025
20
-1.58326994632
30
0
41
1
10
39.6054809471617
20
-1.62545283361463
30
0
0
SPLINE
5
165
100
AcDbEntity
8
1
62
256
6
ByLayer
370
18
48
1
60
0
100
AcDbSpline
70
4
71
3
72
25
73
21
40
0
40
0
40
0
40
0
40
0.0412179254494832
40
0.0824688676623762
40
0.123743819850299
40
0.16501889758638
40
0.206257082895226
40
0.258911270442612
40
0.311588120793461
40
0.364270721466129
40
0.416932753580266
40
0.474795466780723
40
0.532684250980921
40
0.590585055346994
40
0.648480079943366
40
0.706348029428039
40
0.779745917538393
40
0.853175138819619
40
0.926603409170061
40
1
40
1
40
1
40
1
41
1
10
40.3245190528383
20
0.224567988912266
30
0
41
1
10
40.3245148964844
20
0.220568057356747
30
0
41
1
10
40.3243748249892
20
0.212499211999385
30
0
41
1
10
40.3237517685093
20
0.200177930449486
30
0
41
1
10
40.3227670922435
20
0.187686418883599
30
0
41
1
10
40.3214530791956
20
0.175057208548083
30
0
41
1
10
40.3196992791165
20
0.161144895047837
30
0
41
1
10
40.3174423362783
20
0.145933843291203
30
0
41
1
10
40.3146049346002
20
0.129408584237451
30
0
41
1
10
40.3113945048687
20
0.112779249408986
30
0
41
1
10
40.3077231245715
20
0.0955179815985225
30
0
41
1
10
40.3035800569441
20
0.0776313281666887
30
0
41
1
10
40.2989409533932
20
0.0591230610129898
30
0
41
1
10
40.2939492926873
20
0.040560242701055
30
0
41
1
10
40.2886212572499
20
0.0219613630305009
30
0
41
1
10
40.2824664328718
20
0.0016740500312
30
0
41
1
10
40.2753913713945
20
-0.0203013145315829
30
0
41
1
10
40.2672834019518
20
-0.0439531872136083
30
0
41
1
10
40.2586843719291
20
-0.0675936246191249
30
0
41
1
10
40.2526279078429
20
-0.0833263027595592
30
0
41
1
10
40.2495190528383
20
-0.0911859175858982
30
0
0
SPLINE
5
166
100
AcDbEntity
8
1
62
256
6
ByLayer
370
18
48
1
60
0
100
AcDbSpline
70
4
71
3
72
34
73
30
40
0
40
0
40
0
40
0
40
0.0314979272066992
40
0.0630529807233557
40
0.0945842147944357
40
0.126049597498186
40
0.158290661280731
40
0.190668796908668
40
0.223005872076869
40
0.25519069287444
40
0.284294860608101
40
0.313538078674984
40
0.342789183428434
40
0.371904156567851
40
0.405532778425159
40
0.43924976839629
40
0.472910394126248
40
0.508147028303987
40
0.543480852885982
40
0.578891995400363
40
0.61430833371884
40
0.649614376517539
40
0.692864483892796
40
0.736160500589383
40
0.779474614609176
40
0.822749424456578
40
0.881818722174077
40
0.940917708038333
40
1
40
1
40
1
40
1
41
1
10
40.2495190528383
20
0.585338302427811
30
0
41
1
10
40.250902693979
20
0.586650155161935
30
0
41
1
10
40.2536937624163
20
0.58919409660979
30
0
41
1
10
40.2579476002257
20
0.592782050018018
30
0
41
1
10
40.2622576139714
20
0.596085053610206
30
0
41
1
10
40.2666447094214
20
0.599086502303866
30
0
41
1
10
40.2710990931157
20
0.601713254589813
30
0
41
1
10
40.2755922195678
20
0.603901960400249
30
0
41
1
10
40.280043859353
20
0.605578470834118
30
0
41
1
10
40.2842634102871
20
0.606644005379561
30
0
41
1
10
40.2882105310791
20
0.607090825099094
30
0
41
1
10
40.2918739827556
20
0.607003254137151
30
0
41
1
10
40.2953541639229
20
0.606413891126531
30
0
41
1
10
40.2987816264797
20
0.60527113517152
30
0
41
1
10
40.3020856844278
20
0.603497174111846
30
0
41
1
10
40.3052271967636
20
0.601096046441507
30
0
41
1
10
40.3080970307319
20
0.59816860245275
30
0
41
1
10
40.3106896984611
20
0.594756640574083
30
0
41
1
10
40.3130162026727
20
0.59090653154662
30
0
41
1
10
40.3150583903549
20
0.586725525189911
30
0
41
1
10
40.3168378318749
20
0.582273719930425
30
0
41
1
10
40.3184940866029
20
0.577248187200551
30
0
41
1
10
40.3199943164304
20
0.5716315935972
30
0
41
1
10
40.321304747236
20
0.565405990155945
30
0
41
1
10
40.3223550485158
20
0.558977581169289
30
0
41
1
10
40.3232730614025
20
0.551580779788798
30
0
41
1
10
40.3239895250713
20
0.543177803497802
30
0
41
1
10
40.3244275297495
20
0.533733585306567
30
0
41
1
10
40.324523265858
20
0.527325954760625
30
0
41
1
10
40.3245190528383
20
0.524092005570179
30
0
0
SPLINE
5
167
100
AcDbEntity
8
1
62
256
6
ByLayer
370
18
48
1
60
0
100
AcDbSpline
70
4
71
3
72
11
73
7
40
0
40
0
40
0
40
0
40
0.249998614661779
40
0.499997221070453
40
0.749998615474676
40
1
40
1
40
1
40
1
41
1
10
39.6054809471617
20
-0.0194006791820982
30
0
41
1
10
39.6592945736024
20
0.0307890214040309
30
0
41
1
10
39.7668508420799
20
0.131269514213505
30
0
41
1
10
39.9279764661932
20
0.282289438412455
30
0
41
1
10
40.0888825922296
20
0.433622515188395
30
0
41
1
10
40.1959989206092
20
0.534730477430369
30
0
41
1
10
40.2495190528383
20
0.585338302427809
30
0
0
SPLINE
5
168
100
AcDbEntity
8
1
62
256
6
ByLayer
370
18
48
1
60
0
100
AcDbSpline
70
4
71
3
72
35
73
31
40
0
40
0
40
0
40
0
40
0.0320594963848524
40
0.0641773954634246
40
0.0962715242242497
40
0.128298543056865
40
0.161049729106354
40
0.19393756684727
40
0.226785423566298
40
0.259481850060708
40
0.289333148596254
40
0.319326804665438
40
0.349327855468944
40
0.37918928535103
40
0.405066201883427
40
0.431009259606017
40
0.456968484507359
40
0.482867500992187
40
0.518576281578952
40
0.554384129001391
40
0.590269870160494
40
0.626160150902868
40
0.661938273396412
40
0.703770796829263
40
0.745645197908139
40
0.787535414963859
40
0.829389525735439
40
0.886462970145513
40
0.943564250503746
40
1
40
1
40
1
40
1
41
1
10
39.6054809471617
20
-0.0194006791820982
30
0
41
1
10
39.6038850179248
20
-0.0208929669785167
30
0
41
1
10
39.6006672673465
20
-0.0237857108818442
30
0
41
1
10
39.5957672961702
20
-0.0278619799669872
30
0
41
1
10
39.5908080410049
20
-0.031611254321243
30
0
41
1
10
39.5857695657274
20
-0.0350126114591216
30
0
41
1
10
39.5806646740201
20
-0.0379849842844049
30
0
41
1
10
39.5755262883388
20
-0.0404591713879192
30
0
41
1
10
39.570442368022
20
-0.042354399480022
30
0
41
1
10
39.565615321069
20
-0.0435642855456742
30
0
41
1
10
39.5610911445581
20
-0.0440740754120501
30
0
41
1
10
39.5568836748992
20
-0.043971432402774
30
0
41
1
10
39.5528926651365
20
-0.0432910495089338
30
0
41
1
10
39.5493264410161
20
-0.0420933493640927
30
0
41
1
10
39.5461736163985
20
-0.0404755583713321
30
0
41
1
10
39.5433814699663
20
-0.0385672322005224
30
0
41
1
10
39.540798374124
20
-0.0363235828645809
30
0
41
1
10
39.5381248971365
20
-0.033456233573208
30
0
41
1
10
39.5354496805586
20
-0.0298605265661394
30
0
41
1
10
39.5328544885178
20
-0.0254623559844855
30
0
41
1
10
39.5305840941807
20
-0.0206863506027677
30
0
41
1
10
39.5286139305081
20
-0.0156002956710797
30
0
41
1
10
39.5268208325052
20
-0.0099563216550766
30
0
41
1
10
39.5252253312236
20
-0.0037494334761448
30
0
41
1
10
39.5238494595974
20
0.003029208753043
30
0
41
1
10
39.5227460736638
20
0.0100245032820343
30
0
41
1
10
39.5217822541929
20
0.0180687970783495
30
0
41
1
10
39.5210314169989
20
0.0272048385920449
30
0
41
1
10
39.5205756294978
20
0.0374327345691547
30
0
41
1
10
39.5204766029437
20
0.0443603919157134
30
0
41
1
10
39.5204809471678
20
0.0478368736344681
30
0
0
SPLINE
5
169
100
AcDbEntity
8
1
62
256
6
ByLayer
370
18
48
1
60
0
100
AcDbSpline
70
4
71
3
72
22
73
18
40
0
40
0
40
0
40
0
40
0.0666280003630594
40
0.133256813888511
40
0.199885875084635
40
0.266514644130731
40
0.333142607188063
40
0.399770926113889
40
0.466400124553711
40
0.533029591646854
40
0.599658743447257
40
0.666287023255628
40
0.733029005905243
40
0.799771942221462
40
0.86651517077179
40
0.933258058283657
40
1
40
1
40
1
40
1
41
1
10
39.6054809471617
20
0.430686573958642
30
0
41
1
10
39.6209391324212
20
0.473582451108898
30
0
41
1
10
39.6517074981915
20
0.559445013188208
30
0
41
1
10
39.6974176029211
20
0.688450301305899
30
0
41
1
10
39.7426793149622
20
0.817666605367149
30
0
41
1
10
39.7874883901919
20
0.947092499649987
30
0
41
1
10
39.8318403845329
20
1.07672758133622
30
0
41
1
10
39.8757311939446
20
1.20657211225211
30
0
41
1
10
39.919156692535
20
1.33662620999343
30
0
41
1
10
39.9621123602337
20
1.46688880937777
30
0
41
1
10
40.0045934142119
20
1.5973580923905
30
0
41
1
10
40.0466192666429
20
1.72810748878198
30
0
41
1
10
40.088184736397
20
1.85913746809454
30
0
41
1
10
40.1292847200469
20
1.99044834004637
30
0
41
1
10
40.169890960455
20
2.12196448057295
30
0
41
1
10
40.2099990770466
20
2.25368378226811
30
0
41
1
10
40.2364015786773
20
2.3416312112229
30
0
41
1
10
40.2495190528383
20
2.3856384228729
30
0
0
SPLINE
5
16A
100
AcDbEntity
8
1
62
256
6
ByLayer
370
18
48
1
60
0
100
AcDbSpline
70
4
71
3
72
24
73
20
40
0
40
0
40
0
40
0
40
0.0648727688634462
40
0.129765695406955
40
0.194666583497675
40
0.259561839398825
40
0.324436562529728
40
0.390014492912354
40
0.455616537639356
40
0.521223199778014
40
0.58681867396162
40
0.652391091583808
40
0.710112394779612
40
0.767840770916008
40
0.825558371599438
40
0.86916532689822
40
0.912787185175925
40
0.95640227619543
40
1
40
1
40
1
40
1
41
1
10
40.2495190528383
20
2.3856384228729
30
0
41
1
10
40.2523349200161
20
2.39508832803071
30
0
41
1
10
40.2578240396325
20
2.41400244375995
30
0
41
1
10
40.2656263210364
20
2.44241619145147
30
0
41
1
10
40.2730019558262
20
2.47085568853055
30
0
41
1
10
40.279952389149
20
2.49930459400817
30
0
41
1
10
40.2865037034417
20
2.52785289277973
30
0
41
1
10
40.2926563176507
20
2.55649444873473
30
0
41
1
10
40.2983877249214
20
2.58522042621456
30
0
41
1
10
40.3036542956574
20
2.61391234425757
30
0
41
1
10
40.3084333354547
20
2.64254756154264
30
0
41
1
10
40.3125333338016
20
2.66996842536599
30
0
41
1
10
40.3160008990774
20
2.69616951673485
30
0
41
1
10
40.3188600699234
20
2.72114290992841
30
0
41
1
10
40.3210245595489
20
2.74397390998358
30
0
41
1
10
40.3226005121167
20
2.76467391713841
30
0
41
1
10
40.3236750127212
20
2.78325616839199
30
0
41
1
10
40.3243596813534
20
2.80170971315367
30
0
41
1
10
40.324513921902
20
2.81389532715098
30
0
41
1
10
40.3245190528383
20
2.81996064087104
30
0
0
SPLINE
5
16B
100
AcDbEntity
8
1
62
256
6
ByLayer
370
18
48
1
60
0
100
AcDbSpline
70
4
71
3
72
35
73
31
40
0
40
0
40
0
40
0
40
0.0726161532907293
40
0.14527435341946
40
0.217905835483458
40
0.290485531504262
40
0.339228016867149
40
0.387984499616815
40
0.436709764990553
40
0.474295117551547
40
0.511945525735068
40
0.54954885876542
40
0.587069891991122
40
0.610643955146604
40
0.634278488099881
40
0.657880538968844
40
0.681410183423409
40
0.703944880076251
40
0.726532245591439
40
0.749039105710653
40
0.771693916891314
40
0.794437869994455
40
0.81709944516
40
0.837809596815976
40
0.858574980628101
40
0.879305679354957
40
0.909383246267662
40
0.939577481213228
40
0.969835353097355
40
1
40
1
40
1
40
1
41
1
10
40.3245190528383
20
3.25780784167464
30
0
41
1
10
40.3245263534905
20
3.26296579994991
30
0
41
1
10
40.3244168533436
20
3.27323098500149
30
0
41
1
10
40.3239111694627
20
3.28848832565494
30
0
41
1
10
40.3229712455832
20
3.30353961726369
30
0
41
1
10
40.3216951093548
20
3.31671200981931
30
0
41
1
10
40.3202061938121
20
3.32804894582495
30
0
41
1
10
40.3186153244757
20
3.33760193856207
30
0
41
1
10
40.3168081065813
20
3.34619538588705
30
0
41
1
10
40.3148417773493
20
3.35385017648529
30
0
41
1
10
40.3127576937736
20
3.36057858190235
30
0
41
1
10
40.3103212697183
20
3.36698567323099
30
0
41
1
10
40.3078331745898
20
3.37223856654021
30
0
41
1
10
40.3054141109512
20
3.37642628178988
30
0
41
1
10
40.3031833288648
20
3.37966801275349
30
0
41
1
10
40.3007255106173
20
3.38259485446868
30
0
41
1
10
40.2980649109385
20
3.38510629523444
30
0
41
1
10
40.2951942799542
20
3.38714199196719
30
0
41
1
10
40.2921329702645
20
3.3886638929864
30
0
41
1
10
40.2888476633727
20
3.38964465165287
30
0
41
1
10
40.2853553859966
20
3.38998886370894
30
0
41
1
10
40.2817185142063
20
3.38971381257317
30
0
41
1
10
40.2781046669131
20
3.38885741218402
30
0
41
1
10
40.2745743236811
20
3.38749001132235
30
0
41
1
10
40.2711640578997
20
3.38574542713934
30
0
41
1
10
40.2672860928163
20
3.38331290807489
30
0
41
1
10
40.2629877048411
20
3.38005392141172
30
0
41
1
10
40.258334615036
20
3.37589155008966
30
0
41
1
10
40.2538375286891
20
3.37130487190886
30
0
41
1
10
40.2509399395463
20
3.3680485080552
30
0
41
1
10
40.2495190528383
20
3.36636666115998
30
0
0
SPLINE
5
16C
100
AcDbEntity
8
1
62
256
6
ByLayer
370
18
48
1
60
0
100
AcDbSpline
70
4
71
3
72
13
73
9
40
0
40
0
40
0
40
0
40
0.166655161444303
40
0.333311052255976
40
0.499966325040631
40
0.666643990813468
40
0.833322246954642
40
1
40
1
40
1
40
1
41
1
10
40.2495190528384
20
3.36636666115998
30
0
41
1
10
40.2141636366297
20
3.32476846510114
30
0
41
1
10
40.1433067752917
20
3.24173876377212
30
0
41
1
10
40.0365760236896
20
3.11770206333594
30
0
41
1
10
39.9294186058028
20
2.99414608310075
30
0
41
1
10
39.8218498834594
20
2.87105645163006
30
0
41
1
10
39.7138834279931
20
2.7484206027789
30
0
41
1
10
39.6416572346798
20
2.66695671378713
30
0
41
1
10
39.6054809471617
20
2.62629924798546
30
0
0
SPLINE
5
16D
100
AcDbEntity
8
1
62
256
6
ByLayer
370
18
48
1
60
0
100
AcDbSpline
70
4
71
3
72
28
73
24
40
0
40
0
40
0
40
0
40
0.0593229462183258
40
0.118657017418845
40
0.177994844057704
40
0.237328997602797
40
0.296652012897298
40
0.356375156842579
40
0.416112864416739
40
0.475853119182519
40
0.535586398819273
40
0.595305828127173
40
0.646749836861101
40
0.698197888707863
40
0.749640113082028
40
0.788388333245543
40
0.827143754442393
40
0.865896677772892
40
0.904641491082033
40
0.935414830525238
40
0.966196113205824
40
0.996974048457432
40
1
40
1
40
1
40
1
41
1
10
39.6054809471617
20
3.2851627792955
30
0
41
1
10
39.6027076782167
20
3.27430745411432
30
0
41
1
10
39.5972712874494
20
3.25259070525831
30
0
41
1
10
39.589447902235
20
3.21999780803589
30
0
41
1
10
39.5819569817116
20
3.18739842393417
30
0
41
1
10
39.5748003412422
20
3.1548040450486
30
0
41
1
10
39.5679644008214
20
3.12215067131351
30
0
41
1
10
39.5614508531077
20
3.08944321935711
30
0
41
1
10
39.5552797578791
20
3.05668857973862
30
0
41
1
10
39.5494863757362
20
3.02397189735247
30
0
41
1
10
39.5440921815421
20
2.99131042922185
30
0
41
1
10
39.5393470352824
20
2.96022331047315
30
0
41
1
10
39.5352061685294
20
2.93071168497185
30
0
41
1
10
39.5316389212715
20
2.9027763998911
30
0
41
1
10
39.5287280002626
20
2.87722229150755
30
0
41
1
10
39.5263896014947
20
2.85403848676942
30
0
41
1
10
39.5245481664367
20
2.83321006671717
30
0
41
1
10
39.5230021189881
20
2.81247090709385
30
0
41
1
10
39.5218647969898
20
2.79325424604519
30
0
41
1
10
39.5210816369828
20
2.77554825905049
30
0
41
1
10
39.520616480419
20
2.75934526242882
30
0
41
1
10
39.5204764847794
20
2.74808582569739
30
0
41
1
10
39.5204800981985
20
2.74222603717794
30
0
41
1
10
39.5204809475907
20
2.74170172044332
30
0
0
SPLINE
5
16E
100
AcDbEntity
8
1
62
256
6
ByLayer
370
18
48
1
60
0
100
AcDbSpline
70
4
71
3
72
31
73
27
40
0
40
0
40
0
40
0
40
0.0415829731963885
40
0.0831669125061018
40
0.124751350189752
40
0.166335805863362
40
0.207919786688859
40
0.249502787563088
40
0.291085497424857
40
0.332669121199681
40
0.374253218329941
40
0.415837334730158
40
0.457421002974613
40
0.499003742483463
40
0.540586173764139
40
0.582169464100994
40
0.623753201024075
40
0.665336957998775
40
0.706920294609084
40
0.748502756739376
40
0.790418255975891
40
0.832334577229568
40
0.874251327387073
40
0.916168098584719
40
0.958084468393064
40
1
40
1
40
1
40
1
41
1
10
40.2495190528383
20
6.42834322105094
30
0
41
1
10
40.2427449511733
20
6.38423750905197
30
0
41
1
10
40.2290105546174
20
6.29606440641346
30
0
41
1
10
40.2078493201351
20
6.16392053545236
30
0
41
1
10
40.1861324177308
20
6.03189557234257
30
0
41
1
10
40.1638626679518
20
5.89999334669094
30
0
41
1
10
40.1410432856243
20
5.76821803985805
30
0
41
1
10
40.1176771481671
20
5.6365724673784
30
0
41
1
10
40.0937668286329
20
5.5050576428172
30
0
41
1
10
40.069315277163
20
5.37367436680032
30
0
41
1
10
40.0443255969325
20
5.24242461716262
30
0
41
1
10
40.0188012091579
20
5.11131209029627
30
0
41
1
10
39.9927455351881
20
4.98034048266772
30
0
41
1
10
39.9661617531119
20
4.84951232381604
30
0
41
1
10
39.9390526794631
20
4.71882839006982
30
0
41
1
10
39.9114214470061
20
4.58828925014732
30
0
41
1
10
39.8832713495829
20
4.45789653992164
30
0
41
1
10
39.8546060271521
20
4.3276535339155
30
0
41
1
10
39.8254291192294
20
4.19756350623259
30
0
41
1
10
39.7956646920475
20
4.06728145163063
30
0
41
1
10
39.7653110067449
20
3.93680934424046
30
0
41
1
10
39.7343666581998
20
3.80614902268172
30
0
41
1
10
39.7029158106078
20
3.67564861605489
30
0
41
1
10
39.6709624453774
20
3.54531108881888
30
0
41
1
10
39.6385100761556
20
3.41513919966098
30
0
41
1
10
39.6165456981525
20
3.32846953942852
30
0
41
1
10
39.6054809471617
20
3.2851627792955
30
0
0
SPLINE
5
16F
100
AcDbEntity
8
1
62
256
6
ByLayer
370
18
48
1
60
0
100
AcDbSpline
70
4
71
3
72
25
73
21
40
0
40
0
40
0
40
0
40
0.0524961946048218
40
0.10499514314852
40
0.157492527064303
40
0.210052141272883
40
0.262613190558663
40
0.315173162988611
40
0.372133479089207
40
0.429096248482606
40
0.486059196503375
40
0.543019756197099
40
0.599979774415892
40
0.656942176560285
40
0.713904419247518
40
0.770864220015515
40
0.82814696341027
40
0.885432870246967
40
0.942718133825588
40
1
40
1
40
1
40
1
41
1
10
40.3245190528383
20
7.36459729765418
30
0
41
1
10
40.3245129856058
20
7.34828924147138
30
0
41
1
10
40.324324833778
20
7.315650370363
30
0
41
1
10
40.323488859735
20
7.2666182743727
30
0
41
1
10
40.3221756505613
20
7.21751697444242
30
0
41
1
10
40.3204289420223
20
7.1683581869781
30
0
41
1
10
40.3182674307582
20
7.11914965943343
30
0
41
1
10
40.315642956375
20
7.06854414634929
30
0
41
1
10
40.3125403123146
20
7.01654593773736
30
0
41
1
10
40.3089294789555
20
6.96315841330248
30
0
41
1
10
40.3049001400047
20
6.90976181651516
30
0
41
1
10
40.3004602861825
20
6.85636197694049
30
0
41
1
10
40.2956168595629
20
6.80296274484512
30
0
41
1
10
40.2903635232135
20
6.74956728703924
30
0
41
1
10
40.2846949242667
20
6.69618036514351
30
0
41
1
10
40.2785935293232
20
6.6427062818458
30
0
41
1
10
40.2720520369053
20
6.58914867811808
30
0
41
1
10
40.2650473873134
20
6.53551250912445
30
0
41
1
10
40.2575730912002
20
6.48190499174683
30
0
41
1
10
40.2522579936736
20
6.44619288016965
30
0
41
1
10
40.2495190528383
20
6.42834322105094
30
0
0
SPLINE
5
170
100
AcDbEntity
8
1
62
256
6
ByLayer
370
18
48
1
60
0
100
AcDbSpline
70
4
71
3
72
50
73
46
40
0
40
0
40
0
40
0
40
0.0219701513487708
40
0.0439380385572926
40
0.0542148384580792
40
0.0645334220301941
40
0.0748486419014384
40
0.0851308897704116
40
0.0953732489395508
40
0.10559908806456
40
0.110285543366632
40
0.114975995170635
40
0.119647917679831
40
0.123389385115221
40
0.127122529804673
40
0.129776718197993
40
0.132428621761236
40
0.13507961207892
40
0.137732292081251
40
0.141895359012127
40
0.146072156136642
40
0.150187564546815
40
0.15430681301504
40
0.161250135858854
40
0.168211803412413
40
0.175170309285683
40
0.185494902158409
40
0.195822064104814
40
0.211042863532832
40
0.226265961570606
40
0.249506485517301
40
0.272749314080139
40
0.298489935498341
40
0.324233597240082
40
0.349976267503752
40
0.400466028924845
40
0.450962424120997
40
0.501463562109463
40
0.55195979171383
40
0.626626137185075
40
0.701296660787025
40
0.775972145549348
40
0.850650828680206
40
0.925328733416271
40
1
40
1
40
1
40
1
41
1
10
40.2495190528383
20
9.10803339648339
30
0
41
1
10
40.2506068885578
20
9.11275052571184
30
0
41
1
10
40.2528822569939
20
9.12214121542175
30
0
41
1
10
40.2559309363776
20
9.1336309141015
30
0
41
1
10
40.2584722773141
20
9.14257979266723
30
0
41
1
10
40.2603952152912
20
9.14904067064483
30
0
41
1
10
40.2624729841936
20
9.15542020011487
30
0
41
1
10
40.2647564594735
20
9.16165655862591
30
0
41
1
10
40.2673048355381
20
9.16768204979186
30
0
41
1
10
40.269647212741
20
9.17239421619196
30
0
41
1
10
40.2716496109021
20
9.17588064375741
30
0
41
1
10
40.2732165255382
20
9.17822295447302
30
0
41
1
10
40.2748254645244
20
9.18019484095987
30
0
41
1
10
40.2764574538313
20
9.1817542607554
30
0
41
1
10
40.2779350098052
20
9.18275952903066
30
0
41
1
10
40.2793261528838
20
9.18332571663477
30
0
41
1
10
40.2805799355653
20
9.18354740908834
30
0
41
1
10
40.2818261301946
20
9.18344779810125
30
0
41
1
10
40.2832569987075
20
9.18298513558406
30
0
41
1
10
40.2847928840809
20
9.1819786023086
30
0
41
1
10
40.2863324575916
20
9.18041184904786
30
0
41
1
10
40.2876933497316
20
9.1785695564081
30
0
41
1
10
40.2891798656987
20
9.17608474659322
30
0
41
1
10
40.2907345433491
20
9.17289558685123
30
0
41
1
10
40.2922882476421
20
9.16898020442976
30
0
41
1
10
40.2938843732446
20
9.16426614128697
30
0
41
1
10
40.2954983828776
20
9.15875417362786
30
0
41
1
10
40.2973340039927
20
9.15143370054504
30
0
41
1
10
40.2991665751909
20
9.14297462697368
30
0
41
1
10
40.3012684405523
20
9.13168823935593
30
0
41
1
10
40.3033688422337
20
9.11857927239693
30
0
41
1
10
40.3054822761974
20
9.10310699278409
30
0
41
1
10
40.3074086419605
20
9.08701086007099
30
0
41
1
10
40.309160897969
20
9.07030336551479
30
0
41
1
10
40.3112211437482
20
9.04817123649275
30
0
41
1
10
40.3134374711092
20
9.02057879843148
30
0
41
1
10
40.3156321017752
20
8.987494349691
30
0
41
1
10
40.3174526793138
20
8.95433455038969
30
0
41
1
10
40.3192299985811
20
8.9158266296024
30
0
41
1
10
40.320901712155
20
8.87196732461583
30
0
41
1
10
40.3223359144716
20
8.82274190723187
30
0
41
1
10
40.3233763212505
20
8.7734674756964
30
0
41
1
10
40.3240655978551
20
8.72415580847411
30
0
41
1
10
40.3244420255176
20
8.67481795138563
30
0
41
1
10
40.3245237625026
20
8.64191573902808
30
0
41
1
10
40.3245190528383
20
8.62546203965711
30
0
0
SPLINE
5
171
100
AcDbEntity
8
1
62
256
6
ByLayer
370
18
48
1
60
0
100
AcDbSpline
70
4
71
3
72
34
73
30
40
0
40
0
40
0
40
0
40
0.0414029011800066
40
0.0828081321713283
40
0.124214378625764
40
0.165620446702531
40
0.20702526604181
40
0.248427892772126
40
0.289833518261538
40
0.331242026226957
40
0.372651798667526
40
0.414061360037258
40
0.455469380899617
40
0.496874681631686
40
0.53236770112404
40
0.567863519473056
40
0.603360881137724
40
0.638858616921806
40
0.674355645967487
40
0.709850977776965
40
0.74534371426053
40
0.77716051547914
40
0.808978204230478
40
0.840795855730891
40
0.872612606151357
40
0.904458990915098
40
0.936306347712602
40
0.968153666741071
40
1
40
1
40
1
40
1
41
1
10
39.6054809471617
20
7.2170729269221
30
0
41
1
10
39.6165557548545
20
7.24208843213881
30
0
41
1
10
39.6385506640032
20
7.29221068432848
30
0
41
1
10
39.6710823887479
20
7.36766437280594
30
0
41
1
10
39.7031393192697
20
7.44339056565778
30
0
41
1
10
39.7347110890148
20
7.51938786411725
30
0
41
1
10
39.7657859548984
20
7.59565503879319
30
0
41
1
10
39.7963540594931
20
7.67219449499497
30
0
41
1
10
39.8264053144333
20
7.74900914216379
30
0
41
1
10
39.8559292597227
20
7.82610128795512
30
0
41
1
10
39.8849138099531
20
7.90346880951512
30
0
41
1
10
39.9133464479911
20
7.9811085933354
30
0
41
1
10
39.9412146463366
20
8.05901751303858
30
0
41
1
10
39.9672077857334
20
8.13347391849426
30
0
41
1
10
39.9914084989489
20
8.2044362016597
30
0
41
1
10
40.0138981156421
20
8.27186585472056
30
0
41
1
10
40.0359423002219
20
8.33949477990579
30
0
41
1
10
40.0575327551229
20
8.40731948867505
30
0
41
1
10
40.0786611906302
20
8.47533647984435
30
0
41
1
10
40.0993193231018
20
8.54354224396602
30
0
41
1
10
40.1188028200099
20
8.60957442554283
30
0
41
1
10
40.1371612238442
20
8.67341055716618
30
0
41
1
10
40.1544440081764
20
8.73502961515406
30
0
41
1
10
40.171326279187
20
8.79679651650547
30
0
41
1
10
40.1878074590218
20
8.85872806227485
30
0
41
1
10
40.2038816730638
20
8.92082314362295
30
0
41
1
10
40.2195431512164
20
8.98308021183717
30
0
41
1
10
40.2347819562529
20
9.04547731544606
30
0
41
1
10
40.2446542619258
20
9.08716627299515
30
0
41
1
10
40.2495190528383
20
9.10803339648339
30
0
0
SPLINE
5
172
100
AcDbEntity
8
1
62
256
6
ByLayer
370
18
48
1
60
0
100
AcDbSpline
70
4
71
3
72
47
73
43
40
0
40
0
40
0
40
0
40
0.0150007344488304
40
0.0300784556764394
40
0.045155397913417
40
0.0601803737873218
40
0.0751379064671814
40
0.0900582093563867
40
0.0982299222887025
40
0.106410995392438
40
0.114569447841631
40
0.120987998915871
40
0.127420730170973
40
0.133829544453492
40
0.140297881920393
40
0.146793966149164
40
0.153263129648044
40
0.161669063744832
40
0.170083294958296
40
0.179982562882773
40
0.189921972512382
40
0.199847671524025
40
0.215425848786127
40
0.231046264392545
40
0.246720907691972
40
0.262413893132184
40
0.27805312257768
40
0.307707164193872
40
0.337387634322014
40
0.367100481509877
40
0.396823818710745
40
0.426513849545459
40
0.476855835954765
40
0.527209702331972
40
0.577559340929005
40
0.643183526385562
40
0.708818820487507
40
0.774468004282459
40
0.840126449763675
40
0.905783119537935
40
0.971421558627887
40
1
40
1
40
1
40
1
41
1
10
39.6054809471617
20
7.2170729269221
30
0
41
1
10
39.604553353998
20
7.21496074913416
30
0
41
1
10
39.6026463808297
20
7.21076356484351
30
0
41
1
10
39.599663561743
20
7.20455401101187
30
0
41
1
10
39.5964939439356
20
7.1985017951295
30
0
41
1
10
39.5931097869812
20
7.19268478060265
30
0
41
1
10
39.5894747369103
20
7.18719081893798
30
0
41
1
10
39.5861528634571
20
7.18286681299098
30
0
41
1
10
39.5832540685738
20
7.1796063060108
30
0
41
1
10
39.5808663965275
20
7.17728565988205
30
0
41
1
10
39.5785415980206
20
7.17540375122054
30
0
41
1
10
39.5763100885042
20
7.17396127243985
30
0
41
1
10
39.5742066697937
20
7.1729194333341
30
0
41
1
10
39.5720583250811
20
7.17219821821902
30
0
41
1
10
39.569891785025
20
7.17186767345116
30
0
41
1
10
39.567745058638
20
7.1719255252365
30
0
41
1
10
39.5654511023218
20
7.17241464887391
30
0
41
1
10
39.5630829860857
20
7.17347460048157
30
0
41
1
10
39.5605682919569
20
7.17522789172283
30
0
41
1
10
39.5581514510058
20
7.17758581997509
30
0
41
1
10
39.5558610585698
20
7.180489068328
30
0
41
1
10
39.5534054183962
20
7.18432139998612
30
0
41
1
10
39.5508681123211
20
7.18914724247417
30
0
41
1
10
39.5483463885963
20
7.19502598043467
30
0
41
1
10
39.5461374766286
20
7.20120353247928
30
0
41
1
10
39.5441835642191
20
7.20758519901807
30
0
41
1
10
39.5418928868301
20
7.21603963592409
30
0
41
1
10
39.5393946375266
20
7.22664817298897
30
0
41
1
10
39.5368797948817
20
7.23951590122982
30
0
41
1
10
39.5347344906929
20
7.25259053557343
30
0
41
1
10
39.5328896603983
20
7.26581100378129
30
0
41
1
10
39.530885553428
20
7.28221054014673
30
0
41
1
10
39.5288423467991
20
7.30183604724493
30
0
41
1
10
39.5269290884657
20
7.32474321255071
30
0
41
1
10
39.5252135735244
20
7.3501037927657
30
0
41
1
10
39.5237075662282
20
7.37791475794585
30
0
41
1
10
39.5224667812481
20
7.40818667062713
30
0
41
1
10
39.5215718994041
20
7.43856015576386
30
0
41
1
10
39.5209732934141
20
7.46901381746871
30
0
41
1
10
39.5206234189763
20
7.49952671610779
30
0
41
1
10
39.5204989956283
20
7.52433300941494
30
0
41
1
10
39.5204808987199
20
7.5389646048707
30
0
41
1
10
39.5204809539196
20
7.54340404674339
30
0
0
SPLINE
5
173
100
AcDbEntity
8
1
62
256
6
ByLayer
370
18
48
1
60
0
100
AcDbSpline
70
4
71
3
72
31
73
27
40
0
40
0
40
0
40
0
40
0.041564202868466
40
0.0831295220203072
40
0.124695394932879
40
0.166261262559743
40
0.207826569513629
40
0.249390764249905
40
0.290955022100591
40
0.332520404730063
40
0.374086348320148
40
0.415652290113652
40
0.4572176685971
40
0.498781923683695
40
0.540346186437874
40
0.581911572650955
40
0.623477522175795
40
0.665043473462576
40
0.706608863741725
40
0.748173129206686
40
0.790143314019885
40
0.832114644013953
40
0.87408655132979
40
0.916058464123493
40
0.958029806758969
40
1
40
1
40
1
40
1
41
1
10
39.6054809471617
20
9.31861949992437
30
0
41
1
10
39.6079996462687
20
9.36514961096748
30
0
41
1
10
39.6128288166453
20
9.45822467613222
30
0
41
1
10
39.6194480982263
20
9.5978810130417
30
0
41
1
10
39.6254418231948
20
9.73757657084897
30
0
41
1
10
39.6308091574692
20
9.87730615681043
30
0
41
1
10
39.635549165122
20
10.0170640867421
30
0
41
1
10
39.6396609956924
20
10.1568467397167
30
0
41
1
10
39.643143791634
20
10.2966522594341
30
0
41
1
10
39.6459973790247
20
10.4364787522145
30
0
41
1
10
39.6482214946148
20
10.5763223728218
30
0
41
1
10
39.6498158283857
20
10.7161774529915
30
0
41
1
10
39.6507800706709
20
10.8560383242626
30
0
41
1
10
39.6511139162328
20
10.995901213602
30
0
41
1
10
39.65081701739
20
11.1357642226981
30
0
41
1
10
39.6498897165357
20
11.275625452995
30
0
41
1
10
39.6483323134531
20
11.4154811140248
30
0
41
1
10
39.6461451119211
20
11.555325536765
30
0
41
1
10
39.6433284156327
20
11.695153052989
30
0
41
1
10
39.6398712642591
20
11.8354150028422
30
0
41
1
10
39.6357666322134
20
11.9761092779699
30
0
41
1
10
39.6310081784864
20
12.117233663303
30
0
41
1
10
39.6256100550542
20
12.2583293162352
30
0
41
1
10
39.6195732221099
20
12.3993903832547
30
0
41
1
10
39.6128985358769
20
12.540411517528
30
0
41
1
10
39.6080242497308
20
12.6343958835302
30
0
41
1
10
39.6054809471617
20
12.6813805000767
30
0
0
SPLINE
5
174
100
AcDbEntity
8
1
62
256
6
ByLayer
370
18
48
1
60
0
100
AcDbSpline
70
4
71
3
72
29
73
25
40
0
40
0
40
0
40
0
40
0.0663738860559086
40
0.13274812207181
40
0.199121907206581
40
0.265496833602576
40
0.331872250795804
40
0.398246954834194
40
0.448029766118515
40
0.497813422715738
40
0.547596816957073
40
0.597379270476947
40
0.637348092914666
40
0.67731852002538
40
0.717288982162181
40
0.7572584413091
40
0.797226451875202
40
0.832117177278933
40
0.86700846763316
40
0.901898768998693
40
0.928070570889596
40
0.954243813893605
40
0.98041632938185
40
1
40
1
40
1
40
1
41
1
10
39.6054809471617
20
12.6813805000767
30
0
41
1
10
39.6033426053539
20
12.7207932853832
30
0
41
1
10
39.5990115212225
20
12.7996094257684
30
0
41
1
10
39.5923308687824
20
12.9178054405926
30
0
41
1
10
39.5855287474914
20
13.0359713942875
30
0
41
1
10
39.5786440695695
20
13.1541050453489
30
0
41
1
10
39.5717332369023
20
13.2722031195685
30
0
41
1
10
39.565426820895
20
13.3804239624437
30
0
41
1
10
39.5597556897421
20
13.4787747303016
30
0
41
1
10
39.5547331576384
20
13.5672639459874
30
0
41
1
10
39.5498280478925
20
13.6557213379707
30
0
41
1
10
39.5453896408039
20
13.7383320959049
30
0
41
1
10
39.5414079995132
20
13.8151011715038
30
0
41
1
10
39.5378776790256
20
13.8860337487338
30
0
41
1
10
39.5345343165093
20
13.9569322855284
30
0
41
1
10
39.5314135906097
20
14.0277894584094
30
0
41
1
10
39.5286718649179
20
14.0956003972607
30
0
41
1
10
39.5263053398429
20
14.1603657871274
30
0
41
1
10
39.5243260140229
20
14.2220846751762
30
0
41
1
10
39.5228137050853
20
14.2786069871985
30
0
41
1
10
39.5217103851804
20
14.3299410706079
30
0
41
1
10
39.5209689152742
20
14.376095613644
30
0
41
1
10
39.5205606978287
20
14.4183228513008
30
0
41
1
10
39.5204829714815
20
14.4451451089591
30
0
41
1
10
39.520480952844
20
14.45661841017
30
0
0
SPLINE
5
175
100
AcDbEntity
8
1
62
256
6
ByLayer
370
18
48
1
60
0
100
AcDbSpline
70
4
71
3
72
34
73
30
40
0
40
0
40
0
40
0
40
0.0310025296412151
40
0.0620059695882966
40
0.0930094434577771
40
0.124012019358151
40
0.155042667555867
40
0.186074154456241
40
0.217105675089171
40
0.248136369287066
40
0.283578023063502
40
0.319022274857432
40
0.354468225059054
40
0.389914881943044
40
0.425361163710252
40
0.460805900502893
40
0.496247836391901
40
0.537593432288738
40
0.57894175289629
40
0.62029161602062
40
0.661641689887854
40
0.702990496841712
40
0.74433641699142
40
0.786944798731453
40
0.829555575935752
40
0.872167722361305
40
0.914780069405435
40
0.957391309589127
40
1
40
1
40
1
40
1
41
1
10
40.2495190528383
20
12.8919666035166
30
0
41
1
10
40.2447831922521
20
12.9122808129358
30
0
41
1
10
40.235176161727
20
12.9528663185801
30
0
41
1
10
40.2203576836195
20
13.0136154095346
30
0
41
1
10
40.2051383479276
20
13.0742319091088
30
0
41
1
10
40.1895180076105
20
13.1347315859522
30
0
41
1
10
40.1735011573496
20
13.1951127176044
30
0
41
1
10
40.1570924141747
20
13.2553739648544
30
0
41
1
10
40.1403018871411
20
13.3154948491232
30
0
41
1
10
40.1223214317491
20
13.3783151077134
30
0
41
1
10
40.1030912832055
20
13.443810112262
30
0
41
1
10
40.0825508315333
20
13.511953155842
30
0
41
1
10
40.0615400035213
20
13.5799083067288
30
0
41
1
10
40.0400670526755
20
13.6476720229581
30
0
41
1
10
40.0181402386109
20
13.7152407726435
30
0
41
1
10
39.9957678288304
20
13.7826110360666
30
0
41
1
10
39.9716906527402
20
13.8535113608212
30
0
41
1
10
39.9458273139801
20
13.9279033652217
30
0
41
1
10
39.9180951101725
20
14.005745564205
30
0
41
1
10
39.8897981242525
20
14.0833195487332
30
0
41
1
10
39.8609488551384
20
14.1606221445618
30
0
41
1
10
39.8315597911297
20
14.2376501929781
30
0
41
1
10
39.8013377713415
20
14.3151845549832
30
0
41
1
10
39.7702745132928
20
14.3932178500471
30
0
41
1
10
39.7383622040457
20
14.4717431006141
30
0
41
1
10
39.705922259731
20
14.5499825300943
30
0
41
1
10
39.6729674992621
20
14.627934770843
30
0
41
1
10
39.6395092394193
20
14.7055982736699
30
0
41
1
10
39.6168783608637
20
14.757183038796
30
0
41
1
10
39.6054809471617
20
14.7829270731033
30
0
0
SPLINE
5
176
100
AcDbEntity
8
1
62
256
6
ByLayer
370
18
48
1
60
0
100
AcDbSpline
70
4
71
3
72
50
73
46
40
0
40
0
40
0
40
0
40
0.0746712665837198
40
0.149349171319786
40
0.224027854450651
40
0.298703339212974
40
0.373373862814915
40
0.448040208286166
40
0.498536437890533
40
0.549037575879006
40
0.599533971075153
40
0.650023732496251
40
0.675766402759911
40
0.701510064501654
40
0.727250685919865
40
0.750493514482704
40
0.773734038429399
40
0.788957136467159
40
0.804177935895191
40
0.814505097841596
40
0.824829690714322
40
0.831788196587576
40
0.838749864141147
40
0.845693186984964
40
0.849812435453189
40
0.853927843863358
40
0.858104640987876
40
0.862267707918752
40
0.864920387921076
40
0.867571378238768
40
0.870223281802011
40
0.872877470195331
40
0.876610614884784
40
0.880352082320171
40
0.885024004829377
40
0.889714456633384
40
0.894400911935445
40
0.904626751060455
40
0.9148691102296
40
0.925151358098561
40
0.935466577969815
40
0.945785161541931
40
0.956061961442707
40
0.978029848651226
40
1
40
1
40
1
40
1
41
1
10
40.3245190528383
20
13.3745379603429
30
0
41
1
10
40.3245237625026
20
13.3580842609719
30
0
41
1
10
40.3244420255176
20
13.3251820486144
30
0
41
1
10
40.3240655978551
20
13.2758441915259
30
0
41
1
10
40.3233763212505
20
13.2265325243036
30
0
41
1
10
40.3223359144716
20
13.1772580927681
30
0
41
1
10
40.320901712155
20
13.1280326753842
30
0
41
1
10
40.3192299985811
20
13.0841733703976
30
0
41
1
10
40.3174526793138
20
13.0456654496103
30
0
41
1
10
40.3156321017751
20
13.012505650309
30
0
41
1
10
40.3134374711092
20
12.9794212015685
30
0
41
1
10
40.3112211437482
20
12.9518287635072
30
0
41
1
10
40.309160897969
20
12.9296966344852
30
0
41
1
10
40.3074086419605
20
12.912989139929
30
0
41
1
10
40.3054822761974
20
12.8968930072159
30
0
41
1
10
40.3033688422337
20
12.8814207276031
30
0
41
1
10
40.3012684405523
20
12.8683117606441
30
0
41
1
10
40.2991665751909
20
12.8570253730263
30
0
41
1
10
40.2973340039926
20
12.848566299455
30
0
41
1
10
40.2954983828776
20
12.8412458263722
30
0
41
1
10
40.2938843732445
20
12.835733858713
30
0
41
1
10
40.2922882476422
20
12.8310197955702
30
0
41
1
10
40.2907345433491
20
12.8271044131488
30
0
41
1
10
40.2891798656987
20
12.8239152534068
30
0
41
1
10
40.2876933497316
20
12.8214304435919
30
0
41
1
10
40.2863324575916
20
12.8195881509521
30
0
41
1
10
40.2847928840809
20
12.8180213976914
30
0
41
1
10
40.2832569987075
20
12.817014864416
30
0
41
1
10
40.2818261301946
20
12.8165522018987
30
0
41
1
10
40.2805799355653
20
12.8164525909117
30
0
41
1
10
40.2793261528838
20
12.8166742833652
30
0
41
1
10
40.2779350098052
20
12.8172404709694
30
0
41
1
10
40.2764574538313
20
12.8182457392446
30
0
41
1
10
40.2748254645244
20
12.8198051590401
30
0
41
1
10
40.2732165255382
20
12.821777045527
30
0
41
1
10
40.2716496109021
20
12.8241193562426
30
0
41
1
10
40.269647212741
20
12.827605783808
30
0
41
1
10
40.2673048355381
20
12.8323179502082
30
0
41
1
10
40.2647564594736
20
12.8383434413741
30
0
41
1
10
40.2624729841936
20
12.8445797998851
30
0
41
1
10
40.2603952152913
20
12.8509593293552
30
0
41
1
10
40.2584722773141
20
12.8574202073328
30
0
41
1
10
40.2559309363776
20
12.8663690858985
30
0
41
1
10
40.2528822569938
20
12.8778587845783
30
0
41
1
10
40.2506068885578
20
12.8872494742881
30
0
41
1
10
40.2495190528383
20
12.8919666035166
30
0
0
SPLINE
5
177
100
AcDbEntity
8
1
62
256
6
ByLayer
370
18
48
1
60
0
100
AcDbSpline
70
4
71
3
72
47
73
43
40
0
40
0
40
0
40
0
40
0.0248430550255093
40
0.0910993212535936
40
0.157374242908843
40
0.223650948587962
40
0.289918130866342
40
0.356171072785618
40
0.422412682539977
40
0.472057341656091
40
0.521706062619914
40
0.5713435938332
40
0.601459573490405
40
0.631609969816336
40
0.661749372067563
40
0.691855145875963
40
0.721933661850323
40
0.737573634614447
40
0.753267365928223
40
0.768942754229451
40
0.784563912260283
40
0.800142829939223
40
0.81006900071048
40
0.820008882751351
40
0.829908621179182
40
0.838323252313544
40
0.84672958593687
40
0.853199056909319
40
0.859695449891156
40
0.866164094792372
40
0.872573213680111
40
0.879006250677179
40
0.885425106819426
40
0.893583947032575
40
0.901765408975403
40
0.909937510301947
40
0.924858522332845
40
0.939816765923949
40
0.954842455914218
40
0.969920114737005
40
0.984998552587314
40
1
40
1
40
1
40
1
41
1
10
39.520480952844
20
14.45661841017
30
0
41
1
10
39.5204809324716
20
14.460477393262
30
0
41
1
10
39.5204960967639
20
14.474624697831
30
0
41
1
10
39.5206102598531
20
14.4990439321243
30
0
41
1
10
39.5209535453729
20
14.5298450135718
30
0
41
1
10
39.5215489475457
20
14.5605861866042
30
0
41
1
10
39.522445110058
20
14.591246075205
30
0
41
1
10
39.5236928091537
20
14.621802815976
30
0
41
1
10
39.5252013392741
20
14.6496942451463
30
0
41
1
10
39.5269068092275
20
14.6749333255666
30
0
41
1
10
39.528785546148
20
14.6975214385807
30
0
41
1
10
39.5307987730934
20
14.7170035942432
30
0
41
1
10
39.5327882650499
20
14.7334319826206
30
0
41
1
10
39.5346458541504
20
14.7468479257574
30
0
41
1
10
39.5368103660503
20
14.7601154208877
30
0
41
1
10
39.5393531947573
20
14.7731715109391
30
0
41
1
10
39.5418770403081
20
14.7839016924399
30
0
41
1
10
39.5441835558451
20
14.7924148059245
30
0
41
1
10
39.5461374788731
20
14.7987964661959
30
0
41
1
10
39.5483463879968
20
14.8049740199192
30
0
41
1
10
39.5508681124834
20
14.8108527574301
30
0
41
1
10
39.5534054183699
20
14.8156786000294
30
0
41
1
10
39.5558610585755
20
14.8195109316686
30
0
41
1
10
39.5581514510043
20
14.8224141800258
30
0
41
1
10
39.5605682919573
20
14.824772108277
30
0
41
1
10
39.5630829860856
20
14.8265253995185
30
0
41
1
10
39.5654511023217
20
14.8275853511261
30
0
41
1
10
39.567745058638
20
14.8280744747635
30
0
41
1
10
39.5698917850249
20
14.8281323265489
30
0
41
1
10
39.5720583250812
20
14.827801781781
30
0
41
1
10
39.5742066697936
20
14.8270805666659
30
0
41
1
10
39.5763100885043
20
14.8260387275601
30
0
41
1
10
39.5785415980206
20
14.8245962487795
30
0
41
1
10
39.5808663965275
20
14.822714340118
30
0
41
1
10
39.5832540685739
20
14.8203936939892
30
0
41
1
10
39.5861528634564
20
14.8171331870097
30
0
41
1
10
39.5894747369089
20
14.8128091810649
30
0
41
1
10
39.5931097869799
20
14.8073152194047
30
0
41
1
10
39.5964939439351
20
14.8014982048827
30
0
41
1
10
39.5996635617434
20
14.7954459890053
30
0
41
1
10
39.6026463808305
20
14.7892364351783
30
0
41
1
10
39.6045533539986
20
14.7850392508901
30
0
41
1
10
39.6054809471617
20
14.7829270731033
30
0
0
SPLINE
5
178
100
AcDbEntity
8
1
62
256
6
ByLayer
370
18
48
1
60
0
100
AcDbSpline
70
4
71
3
72
29
73
25
40
0
40
0
40
0
40
0
40
0.0184981910465064
40
0.0445761298578555
40
0.0706547975093766
40
0.0967320232588192
40
0.132075305815477
40
0.16741962539932
40
0.202763357748303
40
0.24256163721592
40
0.282361349455857
40
0.322162051885878
40
0.361962718144674
40
0.401761797787483
40
0.451504333017374
40
0.50124780957499
40
0.550991548816162
40
0.600734442257338
40
0.667055330047194
40
0.733376931216028
40
0.799698041598088
40
0.866465173256349
40
0.933232764745206
40
1
40
1
40
1
40
1
41
1
10
39.5204809539196
20
7.5434040467434
30
0
41
1
10
39.520482568793
20
7.55424119165476
30
0
41
1
10
39.5205540298498
20
7.58037044188697
30
0
41
1
10
39.5209427918288
20
7.6218462914521
30
0
41
1
10
39.5216690717799
20
7.66783095730434
30
0
41
1
10
39.522762678296
20
7.71931710147407
30
0
41
1
10
39.5242771854261
20
7.77631471302968
30
0
41
1
10
39.5262764982684
20
7.83883309789473
30
0
41
1
10
39.5286574045458
20
7.90403189210226
30
0
41
1
10
39.5314012125651
20
7.97190889209649
30
0
41
1
10
39.5345071688049
20
8.04246396398586
30
0
41
1
10
39.5378341413187
20
8.11306009048008
30
0
41
1
10
39.5413468635471
20
8.18369002848911
30
0
41
1
10
39.5453138701302
20
8.26023299693368
30
0
41
1
10
39.5497414584045
20
8.34269431370333
30
0
41
1
10
39.5546401306709
20
8.43107903249111
30
0
41
1
10
39.5596567077787
20
8.51949559488617
30
0
41
1
10
39.5653217334281
20
8.61776530019764
30
0
41
1
10
39.5716221063459
20
8.72589666942036
30
0
41
1
10
39.578527236725
20
8.84389685550463
30
0
41
1
10
39.5854226308377
20
8.96219789944841
30
0
41
1
10
39.5922512692656
20
9.08079679032209
30
0
41
1
10
39.5989728591785
20
9.19969148961741
30
0
41
1
10
39.6033298983846
20
9.27897364809951
30
0
41
1
10
39.6054809471617
20
9.31861949992437
30
0
0
SPLINE
5
179
100
AcDbEntity
8
1
62
256
6
ByLayer
370
18
48
1
60
0
100
AcDbSpline
70
4
71
3
72
29
73
25
40
0
40
0
40
0
40
0
40
0.0077973475066705
40
0.0405662793744264
40
0.0750462898468169
40
0.109531297612103
40
0.144013196600527
40
0.186232105784445
40
0.228461425623618
40
0.270697383126506
40
0.312932618847874
40
0.355156491018863
40
0.407897765663211
40
0.460646941808933
40
0.513397637380268
40
0.566140984268157
40
0.61887181886894
40
0.671608314565326
40
0.724345281982459
40
0.77707675990684
40
0.83280460011257
40
0.888538545604846
40
0.944272350939429
40
1
40
1
40
1
40
1
41
1
10
39.5204809498914
20
19.2582581967162
30
0
41
1
10
39.5204804504624
20
19.2569064944858
30
0
41
1
10
39.5204946085096
20
19.2498671596796
30
0
41
1
10
39.5206997260354
20
19.236767337516
30
0
41
1
10
39.5212911030192
20
19.2188850039137
30
0
41
1
10
39.5222007674244
20
19.2005876376514
30
0
41
1
10
39.523473843671
20
19.1808205241473
30
0
41
1
10
39.5251464721881
20
19.1595769614351
30
0
41
1
10
39.5272632841708
20
19.136850293328
30
0
41
1
10
39.529690367018
20
19.1140376830083
30
0
41
1
10
39.5324017042149
20
19.0911564804726
30
0
41
1
10
39.5356175689553
20
19.0663154318256
30
0
41
1
10
39.5393903223325
20
19.0395069058015
30
0
41
1
10
39.5437843589018
20
19.0107244764046
30
0
41
1
10
39.5485092794415
20
18.9818897873292
30
0
41
1
10
39.5535441759612
20
18.953016635864
30
0
41
1
10
39.5588703570227
20
18.9241128971576
30
0
41
1
10
39.5644810369703
20
18.8951841481493
30
0
41
1
10
39.5703681749615
20
18.8662358081041
30
0
41
1
10
39.5766404554561
20
18.8367266647454
30
0
41
1
10
39.5833080191662
20
18.8066608756061
30
0
41
1
10
39.5903896482176
20
18.7760439406721
30
0
41
1
10
39.5977640479964
20
18.7454317871111
30
0
41
1
10
39.6028761340785
20
18.7250337802603
30
0
41
1
10
39.6054809471617
20
18.7148372207045
30
0
0
SPLINE
5
17A
100
AcDbEntity
8
1
62
256
6
ByLayer
370
18
48
1
60
0
100
AcDbSpline
70
4
71
3
72
38
73
34
40
0
40
0
40
0
40
0
40
0.0616115698766097
40
0.117038818417617
40
0.172517176326847
40
0.227989995424709
40
0.283424233598651
40
0.338814446723891
40
0.373747881086833
40
0.408776214709634
40
0.443815634020256
40
0.478808799276408
40
0.513730266449345
40
0.54859229897479
40
0.57172846008725
40
0.594905040040182
40
0.618062327619404
40
0.641172130944423
40
0.66461931635556
40
0.688173975047673
40
0.711689438362551
40
0.735082913701733
40
0.757834235627479
40
0.780660499746627
40
0.803414042612067
40
0.826065629088777
40
0.848782181877222
40
0.871456255956783
40
0.899529333961063
40
0.927697979313531
40
0.955912275998562
40
0.984047798905354
40
1
40
1
40
1
40
1
41
1
10
39.5204809475907
20
2.74170172044332
30
0
41
1
10
39.5204784478934
20
2.73688922462109
30
0
41
1
10
39.5205646607812
20
2.72779027596096
30
0
41
1
10
39.5209322130514
20
2.71448846858916
30
0
41
1
10
39.5215469022713
20
2.70178959070927
30
0
41
1
10
39.5224683357597
20
2.68925270127233
30
0
41
1
10
39.5237406185924
20
2.67692348760162
30
0
41
1
10
39.525206094158
20
2.66633405271806
30
0
41
1
10
39.5267337067895
20
2.65740875764961
30
0
41
1
10
39.5282164456898
20
2.6500774004499
30
0
41
1
10
39.5299416426114
20
2.64292581186814
30
0
41
1
10
39.5319428602614
20
2.63600884657642
30
0
41
1
10
39.534255293113
20
2.62938309870479
30
0
41
1
10
39.5366133706456
20
2.62380467880804
30
0
41
1
10
39.5389229556304
20
2.61919907833244
30
0
41
1
10
39.5410963459841
20
2.61548328294647
30
0
41
1
10
39.5434836224169
20
2.61203685909735
30
0
41
1
10
39.5461111611872
20
2.60889240279025
30
0
41
1
10
39.5490118889345
20
2.60612178122455
30
0
41
1
10
39.5521961647107
20
2.60379404710363
30
0
41
1
10
39.5556391715877
20
2.60198591990875
30
0
41
1
10
39.5592946303631
20
2.60078726475939
30
0
41
1
10
39.563140314641
20
2.60026441844039
30
0
41
1
10
39.5671126782751
20
2.60037639980409
30
0
41
1
10
39.5711924019173
20
2.60111377531084
30
0
41
1
10
39.5753263295721
20
2.60247224210328
30
0
41
1
10
39.5794642110369
20
2.60436134562958
30
0
41
1
10
39.5839018264891
20
2.60691225448257
30
0
41
1
10
39.5885973838388
20
2.6101895664143
30
0
41
1
10
39.593505939752
20
2.61420882747006
30
0
41
1
10
39.5982866738693
20
2.6186496821087
30
0
41
1
10
39.6022610806586
20
2.62273979184451
30
0
41
1
10
39.6046306731507
20
2.62534197592584
30
0
41
1
10
39.6054809471617
20
2.62629924798546
30
0
0
SPLINE
5
17B
100
AcDbEntity
8
1
62
256
6
ByLayer
370
18
48
1
60
0
100
AcDbSpline
70
4
71
3
72
27
73
23
40
0
40
0
40
0
40
0
40
0.0003404751262155
40
0.0408926924559315
40
0.0814772949488794
40
0.122086229355733
40
0.162695933935248
40
0.203269222482861
40
0.255050945549239
40
0.306853743500511
40
0.358662382698119
40
0.410452074178419
40
0.469003780441623
40
0.527579743958998
40
0.586167715975905
40
0.64475103181646
40
0.703308907161096
40
0.762633273648725
40
0.821978397010685
40
0.881330465133478
40
0.940675612974445
40
1
40
1
40
1
40
1
41
1
10
39.5204809471678
20
0.0478368736344699
30
0
41
1
10
39.5204809478174
20
0.0478768512732923
30
0
41
1
10
39.5204817100966
20
0.0526787319493369
30
0
41
1
10
39.5206548504512
20
0.0623449600412282
30
0
41
1
10
39.521375500545
20
0.0770277910347286
30
0
41
1
10
39.5225128893241
20
0.0919166305565522
30
0
41
1
10
39.5240221229171
20
0.106967343805625
30
0
41
1
10
39.5260266499855
20
0.123543312148419
30
0
41
1
10
39.5285920724609
20
0.141662435311343
30
0
41
1
10
39.5318012773243
20
0.161343526117658
30
0
41
1
10
39.5354159353369
20
0.181148418545854
30
0
41
1
10
39.5395738900303
20
0.201917824944479
30
0
41
1
10
39.5442949483342
20
0.223648077514746
30
0
41
1
10
39.5496151555798
20
0.246337652137651
30
0
41
1
10
39.555324832194
20
0.269099095767434
30
0
41
1
10
39.561402654238
20
0.291910738510607
30
0
41
1
10
39.5678567156615
20
0.31485704004168
30
0
41
1
10
39.5746760511549
20
0.337929830346798
30
0
41
1
10
39.5818645585863
20
0.36112285215042
30
0
41
1
10
39.5893887440001
20
0.38432404837897
30
0
41
1
10
39.5972440524127
20
0.407518185896853
30
0
41
1
10
39.602699060413
20
0.422966299672895
30
0
41
1
10
39.6054809471617
20
0.430686573958644
30
0
0
SPLINE
5
17C
100
AcDbEntity
8
1
62
256
6
ByLayer
370
18
48
1
60
0
100
AcDbSpline
70
4
71
3
72
35
73
31
40
0
40
0
40
0
40
0
40
0.0230240023043449
40
0.0973236558136146
40
0.146202260710127
40
0.19516640821345
40
0.244124681729076
40
0.293021546724877
40
0.341843628529297
40
0.375664034599067
40
0.40957765737776
40
0.443489097630415
40
0.47733747756605
40
0.511103021293691
40
0.540607492614963
40
0.570201156280743
40
0.599767796320804
40
0.629235299560316
40
0.658973123367112
40
0.688850362139507
40
0.718723436189075
40
0.748455554053989
40
0.77430738076613
40
0.800235091480811
40
0.826178552943662
40
0.852051918565314
40
0.888956565644939
40
0.925973116433533
40
0.963034308092468
40
1
40
1
40
1
40
1
41
1
10
39.5204809499641
20
21.9521188154647
30
0
41
1
10
39.5204754886012
20
21.9535390211023
30
0
41
1
10
39.5204917657457
20
21.9595186646919
30
0
41
1
10
39.5207862972086
20
21.9683477324631
30
0
41
1
10
39.5214662810636
20
21.9785266505985
30
0
41
1
10
39.5223346623736
20
21.9870128054159
30
0
41
1
10
39.5235259817515
20
21.9952662741426
30
0
41
1
10
39.5250823354042
20
22.0032270409535
30
0
41
1
10
39.526841874936
20
22.0100609797118
30
0
41
1
10
39.5287043274356
20
22.0158386144469
30
0
41
1
10
39.53057249091
20
22.0206403995584
30
0
41
1
10
39.5327084964325
20
22.0251656854017
30
0
41
1
10
39.5351336244759
20
22.0293572007194
30
0
41
1
10
39.5377530003423
20
22.0330035010095
30
0
41
1
10
39.5405492256248
20
22.0361019032651
30
0
41
1
10
39.5434880870018
20
22.0386695959041
30
0
41
1
10
39.5466973136579
20
22.0408014508106
30
0
41
1
10
39.5501848677479
20
22.0424505548476
30
0
41
1
10
39.5539638276056
20
22.043539364618
30
0
41
1
10
39.5580041476056
20
22.0440552092821
30
0
41
1
10
39.5622495536335
20
22.0439953641989
30
0
41
1
10
39.5664685591111
20
22.0433734013951
30
0
41
1
10
39.5706044521319
20
22.0422700286809
30
0
41
1
10
39.5746123432811
20
22.0408153239977
30
0
41
1
10
39.5786596066748
20
22.0389889885325
30
0
41
1
10
39.5832960810892
20
22.0365133389089
30
0
41
1
10
39.5885068356792
20
22.0332394049708
30
0
41
1
10
39.5942511607148
20
22.0290697261964
30
0
41
1
10
39.5999230935877
20
22.0244443796918
30
0
41
1
10
39.603639855356
20
22.0211235306526
30
0
41
1
10
39.6054809471617
20
22.0194006791821
30
0
0
SPLINE
5
17D
100
AcDbEntity
8
1
62
256
6
ByLayer
370
18
48
1
60
0
100
AcDbSpline
70
4
71
3
72
26
73
22
40
0
40
0
40
0
40
0
40
0.0052676203949764
40
0.0439533013603224
40
0.082659523436315
40
0.121353187559656
40
0.167795319358946
40
0.214276091518063
40
0.26078220516747
40
0.307286157168115
40
0.353747747075558
40
0.413184611768356
40
0.47265180622245
40
0.532125270599567
40
0.591570689385723
40
0.659588637211875
40
0.727666043030517
40
0.795776460118509
40
0.863890541507202
40
0.931976407206698
40
1
40
1
40
1
40
1
41
1
10
39.5204809478335
20
23.9305634774664
30
0
41
1
10
39.5204810526324
20
23.9300926185052
30
0
41
1
10
39.5204932161328
20
23.9261565221755
30
0
41
1
10
39.5207023518023
20
23.9186302061503
30
0
41
1
10
39.5214085072126
20
23.9078099527633
30
0
41
1
10
39.5225580976365
20
23.8960421584779
30
0
41
1
10
39.5241881038569
20
23.8833197521342
30
0
41
1
10
39.5263454194405
20
23.869633458041
30
0
41
1
10
39.5288987747677
20
23.8557653902275
30
0
41
1
10
39.5318115372465
20
23.8417527544204
30
0
41
1
10
39.5353497428884
20
23.8263086982074
30
0
41
1
10
39.5395898944456
20
23.8094139285393
30
0
41
1
10
39.5446203278797
20
23.7910531358033
30
0
41
1
10
39.5500752362795
20
23.7725809314933
30
0
41
1
10
39.556205999109
20
23.7531312123001
30
0
41
1
10
39.5630482193594
20
23.7327059467869
30
0
41
1
10
39.5706536997449
20
23.7113091034621
30
0
41
1
10
39.5787094969419
20
23.6898564664788
30
0
41
1
10
39.5871984089224
20
23.6683779040989
30
0
41
1
10
39.5961049133934
20
23.646900784925
30
0
41
1
10
39.6023109906724
20
23.6325989163215
30
0
41
1
10
39.6054809471617
20
23.6254528336146
30
0
0
SPLINE
5
17E
100
AcDbEntity
8
1
62
256
6
ByLayer
370
18
48
1
60
0
100
AcDbSpline
70
4
71
3
72
34
73
30
40
0
40
0
40
0
40
0
40
0.0100923053728233
40
0.0721133336101562
40
0.124673933339327
40
0.177313434390555
40
0.229916770245194
40
0.282427973521296
40
0.317880271046123
40
0.353495647725716
40
0.389152215257411
40
0.424757361477418
40
0.460253823494527
40
0.495626523508198
40
0.529130407417709
40
0.562747699837297
40
0.596349275865371
40
0.62983165391239
40
0.663380176213315
40
0.697052132860406
40
0.730736863083775
40
0.764302866746947
40
0.797380165882833
40
0.830559208153399
40
0.863801430272262
40
0.897034199660316
40
0.930156704560737
40
0.965077026233046
40
1
40
1
40
1
40
1
41
1
10
39.5204809482046
20
-1.9305591654085
30
0
41
1
10
39.5204799424549
20
-1.93108518370834
30
0
41
1
10
39.5204871692513
20
-1.93483379514832
30
0
41
1
10
39.5206803777974
20
-1.94119501410753
30
0
41
1
10
39.5213123822215
20
-1.94945480285882
30
0
41
1
10
39.5222872407397
20
-1.95695757765598
30
0
41
1
10
39.5236840727516
20
-1.96410740974919
30
0
41
1
10
39.5253456254406
20
-1.97010626611949
30
0
41
1
10
39.5271505271871
20
-1.97504510103587
30
0
41
1
10
39.528969543695
20
-1.97904257934176
30
0
41
1
10
39.5310655219793
20
-1.98274507675576
30
0
41
1
10
39.5334502825918
20
-1.98610267255543
30
0
41
1
10
39.5361355589588
20
-1.98906513612374
30
0
41
1
10
39.5390816360997
20
-1.99154226549228
30
0
41
1
10
39.5422893121743
20
-1.99350650598757
30
0
41
1
10
39.545730023714
20
-1.9949660261668
30
0
41
1
10
39.5494434128433
20
-1.99593276962847
30
0
41
1
10
39.5534144390308
20
-1.99637653332092
30
0
41
1
10
39.5576332482249
20
-1.99625958734587
30
0
41
1
10
39.5620602043014
20
-1.99560987256877
30
0
41
1
10
39.5666489066591
20
-1.99445297874274
30
0
41
1
10
39.5713373884701
20
-1.99281481549477
30
0
41
1
10
39.5760946747115
20
-1.99072091024606
30
0
41
1
10
39.5808931301201
20
-1.9882300834951
30
0
41
1
10
39.5857296219919
20
-1.98537177883811
30
0
41
1
10
39.5905724664347
20
-1.98219037560879
30
0
41
1
10
39.5954883366563
20
-1.9786579783585
30
0
41
1
10
39.6004635235709
20
-1.97478638262017
30
0
41
1
10
39.6038122056071
20
-1.97199984663663
30
0
41
1
10
39.6054809471617
20
-1.97056353334075
30
0
0
SPLINE
5
17F
100
AcDbEntity
8
1
62
256
6
ByLayer
370
18
48
1
60
0
100
AcDbSpline
70
4
71
3
72
26
73
22
40
0
40
0
40
0
40
0
40
0.0284599624188235
40
0.0614560633037785
40
0.0944228110556346
40
0.139468844660388
40
0.184540534422992
40
0.229595588546201
40
0.278446051913386
40
0.327338107183382
40
0.376254612172718
40
0.425166392985395
40
0.474033414975629
40
0.53665359626886
40
0.599311047881878
40
0.661974330017458
40
0.724602466620201
40
0.793431653001466
40
0.862299614137709
40
0.931168944900644
40
1
40
1
40
1
40
1
41
1
10
39.5204809476223
20
-3.48963723952788
30
0
41
1
10
39.5204824826153
20
-3.48761207495802
30
0
41
1
10
39.5205680328185
20
-3.4831814230121
30
0
41
1
10
39.5209845283883
20
-3.47616954493012
30
0
41
1
10
39.521789754841
20
-3.46771705877228
30
0
41
1
10
39.5230638050349
20
-3.45810366033259
30
0
41
1
10
39.524900829503
20
-3.44729067939378
30
0
41
1
10
39.5271969436867
20
-3.43595256793274
30
0
41
1
10
39.529946526171
20
-3.42410623190552
30
0
41
1
10
39.5331553299422
20
-3.41176132801175
30
0
41
1
10
39.5367222518586
20
-3.39925977357772
30
0
41
1
10
39.5406178718607
20
-3.38663265878077
30
0
41
1
10
39.5452087234275
20
-3.37270927833953
30
0
41
1
10
39.5505732432551
20
-3.3574709362904
30
0
41
1
10
39.5567974260675
20
-3.3409057653296
30
0
41
1
10
39.5634298966623
20
-3.32424486238949
30
0
41
1
10
39.5706761985065
20
-3.30696160567182
30
0
41
1
10
39.5785584639585
20
-3.28906562313582
30
0
41
1
10
39.5871078762038
20
-3.27057014363624
30
0
41
1
10
39.5960663556873
20
-3.25205182532371
30
0
41
1
10
39.6022992047244
20
-3.23971151048747
30
0
41
1
10
39.6054809471617
20
-3.23354250387999
30
0
0
SPLINE
5
180
100
AcDbEntity
8
1
62
256
6
ByLayer
370
18
48
1
60
0
100
AcDbSpline
70
4
71
3
72
32
73
28
40
0
40
0
40
0
40
0
40
0.0234720916718199
40
0.077149009364925
40
0.130753067645078
40
0.179214798605678
40
0.227780811405662
40
0.27630789045792
40
0.324716407811043
40
0.363896559159381
40
0.403258513936374
40
0.442647911093177
40
0.481943551189727
40
0.521067832926867
40
0.555476911685444
40
0.590035123861023
40
0.624649673021769
40
0.659218293423685
40
0.693636139700326
40
0.731595929112716
40
0.769657144710268
40
0.807740162396781
40
0.845729758203133
40
0.884257597759972
40
0.922845874921922
40
0.961450218713873
40
1
40
1
40
1
40
1
41
1
10
39.5204809496749
20
25.4896216629351
30
0
41
1
10
39.5204794335244
20
25.4906793986209
30
0
41
1
10
39.5205151829572
20
25.4941243014358
30
0
41
1
10
39.5207948651059
20
25.4997980964516
30
0
41
1
10
39.5215224272086
20
25.5062352929899
30
0
41
1
10
39.522627061384
20
25.5121135278913
30
0
41
1
10
39.5240970114929
20
25.517422195528
30
0
41
1
10
39.5260041308536
20
25.5222970868288
30
0
41
1
10
39.5282284175632
20
25.5263923115903
30
0
41
1
10
39.5307130709626
20
25.5297419240593
30
0
41
1
10
39.5333709752932
20
25.5324252544271
30
0
41
1
10
39.5363797797094
20
25.5346532397574
30
0
41
1
10
39.5397338776059
20
25.5363785806422
30
0
41
1
10
39.543284165446
20
25.5375110014402
30
0
41
1
10
39.5469902423288
20
25.538078338667
30
0
41
1
10
39.5507847845562
20
25.5381695608951
30
0
41
1
10
39.5548005882826
20
25.537819126728
30
0
41
1
10
39.5590014796381
20
25.5370351094053
30
0
41
1
10
39.563512531864
20
25.5357774221047
30
0
41
1
10
39.5683320660005
20
25.5340010941919
30
0
41
1
10
39.5734395022879
20
25.5317080768486
30
0
41
1
10
39.5786430172952
20
25.5289954033104
30
0
41
1
10
39.5839337196379
20
25.5258865978702
30
0
41
1
10
39.5892889141665
20
25.5224088507601
30
0
41
1
10
39.5946910363531
20
25.5185984627412
30
0
41
1
10
39.6000961781075
20
25.5145043356708
30
0
41
1
10
39.6036880411898
20
25.5116150365149
30
0
41
1
10
39.6054809471617
20
25.5101290627099
30
0
0
SPLINE
5
181
100
AcDbEntity
8
1
62
256
6
ByLayer
370
18
48
1
60
0
100
AcDbSpline
70
4
71
3
72
32
73
28
40
0
40
0
40
0
40
0
40
0.0151188494428453
40
0.0621073499832506
40
0.109076077958475
40
0.155972745539487
40
0.194758274794658
40
0.233657018999787
40
0.27257058342755
40
0.311424265710714
40
0.350171894212393
40
0.389272126481507
40
0.428547381115484
40
0.467869003833951
40
0.507118874164503
40
0.54619772213628
40
0.58919937811052
40
0.632350484411782
40
0.675521086871348
40
0.718549418665969
40
0.762681634860092
40
0.806949791043758
40
0.85130095221462
40
0.895638286423243
40
0.93982870870533
40
0.96991404553745
40
1
40
1
40
1
40
1
41
1
10
39.5204809483638
20
-4.75434670306432
30
0
41
1
10
39.5204807173152
20
-4.75493788595303
30
0
41
1
10
39.5205028113068
20
-4.75734720195257
30
0
41
1
10
39.5207013165525
20
-4.76144917064115
30
0
41
1
10
39.521299322368
20
-4.7664510803785
30
0
41
1
10
39.5222073826075
20
-4.7708485422887
30
0
41
1
10
39.5233831640219
20
-4.77466740486491
30
0
41
1
10
39.5247711119565
20
-4.77795126915296
30
0
41
1
10
39.5264577351832
20
-4.78092082186969
30
0
41
1
10
39.5284532739858
20
-4.7835385237074
30
0
41
1
10
39.5307742084437
20
-4.7857797453231
30
0
41
1
10
39.5334493046109
20
-4.78759513556596
30
0
41
1
10
39.5364757210258
20
-4.78896605132127
30
0
41
1
10
39.5398283471405
20
-4.78987685993438
30
0
41
1
10
39.5434856744448
20
-4.79030933117254
30
0
41
1
10
39.5475669904714
20
-4.79024156873057
30
0
41
1
10
39.552098800002
20
-4.78959342227838
30
0
41
1
10
39.5570646927155
20
-4.78834685301511
30
0
41
1
10
39.5622731328908
20
-4.78655544503312
30
0
41
1
10
39.5677252066338
20
-4.78422766068786
30
0
41
1
10
39.5733934712773
20
-4.78137275076191
30
0
41
1
10
39.5792456068031
20
-4.77803333161761
30
0
41
1
10
39.58519806883
20
-4.77428003660592
30
0
41
1
10
39.5912080112481
20
-4.77016507005095
30
0
41
1
10
39.5966052651508
20
-4.76620008183328
30
0
41
1
10
39.6013643014985
20
-4.76251786300787
30
0
41
1
10
39.6041084300422
20
-4.76031533120157
30
0
41
1
10
39.6054809471617
20
-4.7591932680759
30
0
0
SPLINE
5
182
100
AcDbEntity
8
1
62
256
6
ByLayer
370
18
48
1
60
0
100
AcDbSpline
70
4
71
3
72
28
73
24
40
0
40
0
40
0
40
0
40
0.000907731346673
40
0.0309269860717533
40
0.0670227425826699
40
0.103154462838549
40
0.139295746645604
40
0.1754045567235
40
0.22478241861632
40
0.274190047616588
40
0.323577418098834
40
0.372926068373249
40
0.422317237478492
40
0.471731411892331
40
0.521139051580315
40
0.570501528162444
40
0.633827726853282
40
0.697195566054659
40
0.760568566909093
40
0.823901808741244
40
0.88259632378266
40
0.941304981108854
40
1
40
1
40
1
40
1
41
1
10
39.5204809471908
20
26.754359705032
30
0
41
1
10
39.5204812158423
20
26.7543072332776
30
0
41
1
10
39.5204915567286
20
26.7525185626411
30
0
41
1
10
39.5205848173235
20
26.7485867817201
30
0
41
1
10
39.5210697107725
20
26.7423231604911
30
0
41
1
10
39.5219099612934
20
26.7354487829125
30
0
41
1
10
39.5230614362431
20
26.7283592802301
30
0
41
1
10
39.524670977887
20
26.7201968643689
30
0
41
1
10
39.5268397097487
20
26.7109065048977
30
0
41
1
10
39.5296646073859
20
26.7004480843536
30
0
41
1
10
39.5328913182047
20
26.6897776631128
30
0
41
1
10
39.5364811314624
20
26.6789292772565
30
0
41
1
10
39.5404092996953
20
26.6679251664052
30
0
41
1
10
39.5446540480734
20
26.6567849541937
30
0
41
1
10
39.5491911391546
20
26.6455349034292
30
0
41
1
10
39.5544523272322
20
26.6331254406824
30
0
41
1
10
39.5605122559289
20
26.6195389694651
30
0
41
1
10
39.5674498216704
20
26.6047659936731
30
0
41
1
10
39.5747602073388
20
26.5899100789757
30
0
41
1
10
39.5822336288783
20
26.5753593585378
30
0
41
1
10
39.5898239412978
20
26.561136107672
30
0
41
1
10
39.5974973798264
20
26.5472538231766
30
0
41
1
10
39.6027900304666
20
26.537995038438
30
0
41
1
10
39.6054809471617
20
26.5333642578061
30
0
0
SPLINE
5
183
100
AcDbEntity
8
1
62
256
6
ByLayer
370
18
48
1
60
0
100
AcDbSpline
70
4
71
3
72
30
73
26
40
0
40
0
40
0
40
0
40
0.0396566763685476
40
0.0899052433767522
40
0.131548641680555
40
0.173323555199324
40
0.215118231789151
40
0.256845633791895
40
0.298449061430299
40
0.340397787771694
40
0.382535941224383
40
0.424729091409194
40
0.466848931433492
40
0.508782229281339
40
0.55457954890019
40
0.600528423431454
40
0.646498370270464
40
0.692324517483498
40
0.740587920424941
40
0.789000293542742
40
0.837502679030692
40
0.885989103655709
40
0.934314813443179
40
0.967157081282322
40
1
40
1
40
1
40
1
41
1
10
39.5204809482201
20
27.791352741021
30
0
41
1
10
39.5204790323008
20
27.7926947387898
30
0
41
1
10
39.5205738387323
20
27.7956475928199
30
0
41
1
10
39.5210270493764
20
27.7996920642043
30
0
41
1
10
39.5218559118072
20
27.8034540128897
30
0
41
1
10
39.5229572282466
20
27.8066589982711
30
0
41
1
10
39.5243951215635
20
27.8095205097499
30
0
41
1
10
39.5261807859168
20
27.81200080379
30
0
41
1
10
39.5283308664537
20
27.8140736517752
30
0
41
1
10
39.5308756782392
20
27.8156895568445
30
0
41
1
10
39.5338093451806
20
27.8168351160319
30
0
41
1
10
39.5371057190982
20
27.8175001319069
30
0
41
1
10
39.5407415242139
20
27.8176717723974
30
0
41
1
10
39.5448248122879
20
27.8173241671351
30
0
41
1
10
39.5493811403354
20
27.8163872494602
30
0
41
1
10
39.5543928060898
20
27.814851542689
30
0
41
1
10
39.5596783960487
20
27.812779399093
30
0
41
1
10
39.5652900974691
20
27.8101563382864
30
0
41
1
10
39.5712083499298
20
27.8069774895218
30
0
41
1
10
39.5774034496781
20
27.8032709900861
30
0
41
1
10
39.5837341524114
20
27.7991400683139
30
0
41
1
10
39.5901529794325
20
27.794639317795
30
0
41
1
10
39.5959372568139
20
27.7903256374267
30
0
41
1
10
39.6010500797084
20
27.7863351784963
30
0
41
1
10
39.6040025402512
20
27.7839552338887
30
0
41
1
10
39.6054809471617
20
27.7827440993611
30
0
0
SPLINE
5
184
100
AcDbEntity
8
1
62
256
6
ByLayer
370
18
48
1
60
0
100
AcDbSpline
70
4
71
3
72
27
73
23
40
0
40
0
40
0
40
0
40
0.0300151594988794
40
0.0632338243829551
40
0.0963462544717829
40
0.134527401766767
40
0.172746445111774
40
0.210974548484293
40
0.249168062087745
40
0.301429293770234
40
0.353723474783617
40
0.405994346836011
40
0.467267241571905
40
0.528599234297349
40
0.589943297603254
40
0.651232667503606
40
0.714172073409983
40
0.77715557524381
40
0.840143666753433
40
0.903089335610044
40
0.95154462461158
40
1
40
1
40
1
40
1
41
1
10
39.5204809474221
20
-5.79135871989186
30
0
41
1
10
39.5204848023659
20
-5.78995079271491
30
0
41
1
10
39.5205783421384
20
-5.7869148914228
30
0
41
1
10
39.5210008400838
20
-5.78205603856033
30
0
41
1
10
39.5217586006777
20
-5.7765504506598
30
0
41
1
10
39.5228663737189
20
-5.77054450079682
30
0
41
1
10
39.5243482413979
20
-5.76402715006531
30
0
41
1
10
39.5261289969047
20
-5.75730532321464
30
0
41
1
10
39.5284370354199
20
-5.74955970917164
30
0
41
1
10
39.5313725678703
20
-5.74073532732023
30
0
41
1
10
39.5350313127076
20
-5.73079162112966
30
0
41
1
10
39.5393184242696
20
-5.72005307031695
30
0
41
1
10
39.5442746935977
20
-5.70851303598313
30
0
41
1
10
39.5499412811937
20
-5.69617013045719
30
0
41
1
10
39.5560252922767
20
-5.68365672399471
30
0
41
1
10
39.5625488642612
20
-5.67089414576472
30
0
41
1
10
39.5694947949648
20
-5.65790277501777
30
0
41
1
10
39.5768548962185
20
-5.6446981458304
30
0
41
1
10
39.5845458884914
20
-5.63141902557268
30
0
41
1
10
39.5919329585844
20
-5.61911098273651
30
0
41
1
10
39.5989257640079
20
-5.60780106108304
30
0
41
1
10
39.6032769653014
20
-5.6009368041746
30
0
41
1
10
39.6054809471617
20
-5.59750216513371
30
0
0
SPLINE
5
185
100
AcDbEntity
8
1
62
256
6
ByLayer
370
18
48
1
60
0
100
AcDbSpline
70
4
71
3
72
30
73
26
40
0
40
0
40
0
40
0
40
0.002203351359314
40
0.0496461686715142
40
0.0921182769225812
40
0.134729531805441
40
0.177365762404796
40
0.219934552725322
40
0.26237093163017
40
0.305081983146166
40
0.347974894729586
40
0.390926117301786
40
0.433812085541922
40
0.476517288885892
40
0.524365409983461
40
0.572363445774321
40
0.62038380336948
40
0.668262456019119
40
0.720303768740202
40
0.772505817345087
40
0.824804399167493
40
0.877085258542789
40
0.929192882578363
40
0.964596101621384
40
1
40
1
40
1
40
1
41
1
10
39.5204809472149
20
-6.64085736871983
30
0
41
1
10
39.5204813942663
20
-6.64092037955674
30
0
41
1
10
39.5204943746647
20
-6.64233747935618
30
0
41
1
10
39.5206131566096
20
-6.64488364248364
30
0
41
1
10
39.5211739800759
20
-6.64817899892575
30
0
41
1
10
39.5220524427933
20
-6.65102368772031
30
0
41
1
10
39.5232856593276
20
-6.65350960927798
30
0
41
1
10
39.5248813827114
20
-6.6556051798362
30
0
41
1
10
39.5268542874294
20
-6.6572849205548
30
0
41
1
10
39.529230642227
20
-6.65850627081019
30
0
41
1
10
39.5320003902793
20
-6.65926434573941
30
0
41
1
10
39.5351385317528
20
-6.65955649362505
30
0
41
1
10
39.5386213630923
20
-6.6593778064042
30
0
41
1
10
39.5425877173382
20
-6.65869347323456
30
0
41
1
10
39.547074310627
20
-6.65742719817922
30
0
41
1
10
39.5520751270371
20
-6.65555685061978
30
0
41
1
10
39.5573742372549
20
-6.65316694694082
30
0
41
1
10
39.5630871119961
20
-6.65020808820623
30
0
41
1
10
39.5692056990584
20
-6.64665909175888
30
0
41
1
10
39.5757066294904
20
-6.6425312264979
30
0
41
1
10
39.582378530886
20
-6.63797283336245
30
0
41
1
10
39.5891695669907
20
-6.63304111199003
30
0
41
1
10
39.5953106196706
20
-6.62834119185886
30
0
41
1
10
39.6007533888974
20
-6.62401067169007
30
0
41
1
10
39.6039024497084
20
-6.62143479091973
30
0
41
1
10
39.6054809471617
20
-6.62012561103662
30
0
0
SPLINE
5
186
100
AcDbEntity
8
1
62
256
6
ByLayer
370
18
48
1
60
0
100
AcDbSpline
70
4
71
3
72
26
73
22
40
0
40
0
40
0
40
0
40
0.0306795055601343
40
0.0707310307782098
40
0.110649963271386
40
0.159511647543105
40
0.208493511370358
40
0.257574919911632
40
0.306700213899765
40
0.355783498021784
40
0.40471298525266
40
0.460851669811367
40
0.517044753883324
40
0.573248645709027
40
0.629402081875516
40
0.687072879346379
40
0.744783949038709
40
0.80249988489974
40
0.86017732258659
40
0.930088279967729
40
1
40
1
40
1
40
1
41
1
10
39.5204809484386
20
28.6408487377063
30
0
41
1
10
39.520486467073
20
28.6396853303745
30
0
41
1
10
39.5205941193332
20
28.6369214613339
30
0
41
1
10
39.5211103123181
20
28.6322923063884
30
0
41
1
10
39.522149460089
20
28.6265401899902
30
0
41
1
10
39.52373916364
20
28.6200089562631
30
0
41
1
10
39.5259403064939
20
28.612664039699
30
0
41
1
10
39.5286092189627
20
28.6049763127679
30
0
41
1
10
39.5317015746883
20
28.5970000423664
30
0
41
1
10
39.5351739303927
20
28.588788675562
30
0
41
1
10
39.5391774925562
20
28.5799668192223
30
0
41
1
10
39.5437418754688
20
28.5705255084272
30
0
41
1
10
39.5488974450303
20
28.5604564280524
30
0
41
1
10
39.5544076941295
20
28.5502148037666
30
0
41
1
10
39.5602946250717
20
28.5397373551289
30
0
41
1
10
39.5665434592302
20
28.5290415369149
30
0
41
1
10
39.5731452271737
20
28.5181408313167
30
0
41
1
10
39.5800242801103
20
28.5071509501031
30
0
41
1
10
39.5876651664257
20
28.495310630279
30
0
41
1
10
39.5961184092385
20
28.482618153952
30
0
41
1
10
39.6023223741962
20
28.4735994387966
30
0
41
1
10
39.6054809471617
20
28.4690798577815
30
0
0
SPLINE
5
187
100
AcDbEntity
8
1
62
256
6
ByLayer
370
18
48
1
60
0
100
AcDbSpline
70
4
71
3
72
27
73
23
40
0
40
0
40
0
40
0
40
0.0332943854182615
40
0.075208044679704
40
0.11710487116128
40
0.15886201415347
40
0.208318622204596
40
0.257900185973336
40
0.307581605054127
40
0.357304570455857
40
0.406982150640132
40
0.456502951839175
40
0.511399225076946
40
0.566348589530706
40
0.621307721556132
40
0.676217326657334
40
0.73262683963915
40
0.789076666574112
40
0.845531200491372
40
0.901947136574726
40
0.950973449909621
40
1
40
1
40
1
40
1
41
1
10
39.5204809479214
20
-7.32893025035227
30
0
41
1
10
39.5204867021153
20
-7.32792854775223
30
0
41
1
10
39.5206077463838
20
-7.32556880609899
30
0
41
1
10
39.5211860743498
20
-7.32153823721373
30
0
41
1
10
39.5222392264114
20
-7.31684089997332
30
0
41
1
10
39.5237869422686
20
-7.31150019641324
30
0
41
1
10
39.5258868061237
20
-7.30547847399768
30
0
41
1
10
39.5285812692654
20
-7.29875208859715
30
0
41
1
10
39.5317176794721
20
-7.29169327198041
30
0
41
1
10
39.5352538970289
20
-7.28435205036192
30
0
41
1
10
39.5391485543673
20
-7.27677777222008
30
0
41
1
10
39.543521251044
20
-7.26872368528429
30
0
41
1
10
39.5483861913689
20
-7.26018843122627
30
0
41
1
10
39.5537576668335
20
-7.25117027562638
30
0
41
1
10
39.5594427178937
20
-7.24198658359882
30
0
41
1
10
39.565468377651
20
-7.23257965096507
30
0
41
1
10
39.5718217856048
20
-7.22296491615728
30
0
41
1
10
39.5784940601541
20
-7.21315477495676
30
0
41
1
10
39.5854091014358
20
-7.20325487634287
30
0
41
1
10
39.5922367958599
20
-7.19371911030251
30
0
41
1
10
39.5989318618745
20
-7.18457022843799
30
0
41
1
10
39.6032809642912
20
-7.17874069948951
30
0
41
1
10
39.6054809471617
20
-7.17581976235125
30
0
0
SPLINE
5
188
100
AcDbEntity
8
1
62
256
6
ByLayer
370
18
48
1
60
0
100
AcDbSpline
70
4
71
3
72
30
73
26
40
0
40
0
40
0
40
0
40
0.0142581537646706
40
0.0570011125123297
40
0.0998869622692025
40
0.142802400517623
40
0.185652202540228
40
0.228364828618588
40
0.271281603841165
40
0.314369880437231
40
0.35751748496066
40
0.400607590895922
40
0.443525906539204
40
0.493011153676149
40
0.54264468927324
40
0.592301520406061
40
0.641818626596689
40
0.68782972937461
40
0.733964071008309
40
0.780190134573978
40
0.826449543439379
40
0.872660952193659
40
0.918723584839061
40
0.9593613188041
40
1
40
1
40
1
40
1
41
1
10
39.5204809482594
20
29.3289289227777
30
0
41
1
10
39.5204805977911
20
29.3292714886739
30
0
41
1
10
39.5205051307279
20
29.3306161897678
30
0
41
1
10
39.5207274177068
20
29.3328042484293
30
0
41
1
10
39.5213708665163
20
29.3352701180406
30
0
41
1
10
39.522378136155
20
29.3373707863472
30
0
41
1
10
39.5237577224976
20
29.3390774202209
30
0
41
1
10
39.525521372703
20
29.3403675130531
30
0
41
1
10
39.5276914395854
20
29.3412055701654
30
0
41
1
10
39.5302545052413
20
29.3415938819459
30
0
41
1
10
39.5331872783849
20
29.3415355543602
30
0
41
1
10
39.5364663960788
20
29.3410320292462
30
0
41
1
10
39.5402616237638
20
29.3400321771059
30
0
41
1
10
39.544622988784
20
29.3384515264832
30
0
41
1
10
39.5495584842446
20
29.3362541258437
30
0
41
1
10
39.5548171805383
20
29.3335526266567
30
0
41
1
10
39.5602234897354
20
29.3304578065083
30
0
41
1
10
39.5657246269074
20
29.3270338651087
30
0
41
1
10
39.5712748124109
20
29.3233497945523
30
0
41
1
10
39.5769833307097
20
29.3193510378707
30
0
41
1
10
39.5828178595042
20
29.3150719768288
30
0
41
1
10
39.5887462913823
20
29.3105466731025
30
0
41
1
10
39.5945126343405
20
29.305985914927
30
0
41
1
10
39.6000939550513
20
29.3014366530696
30
0
41
1
10
39.6036806776624
20
29.2984395872155
30
0
41
1
10
39.6054809471617
20
29.2969165050502
30
0
0
SPLINE
5
189
100
AcDbEntity
8
1
62
256
6
ByLayer
370
18
48
1
60
0
100
AcDbSpline
70
4
71
3
72
27
73
23
40
0
40
0
40
0
40
0
40
0.0328989725308533
40
0.0774404924408745
40
0.122005079278834
40
0.166465661491239
40
0.213448693067775
40
0.260554372101848
40
0.307754611125889
40
0.354991738913355
40
0.402182672931036
40
0.449222706522161
40
0.499978773276757
40
0.550784123021857
40
0.601598391793227
40
0.652366632274413
40
0.704524901807051
40
0.75672031392716
40
0.808920520864196
40
0.861085333329739
40
0.930541959502849
40
1
40
1
40
1
40
1
41
1
10
39.5204809478526
20
29.8732546567526
30
0
41
1
10
39.520483837573
20
29.872497136974
30
0
41
1
10
39.520600454498
20
29.8706117321897
30
0
41
1
10
39.5212050904704
20
29.8672432903326
30
0
41
1
10
39.5223500974013
20
29.8631187871498
30
0
41
1
10
39.5239802040317
20
29.8585111460672
30
0
41
1
10
39.5260955756904
20
29.8534312541716
30
0
41
1
10
39.5286853041726
20
29.8478965354056
30
0
41
1
10
39.5316770324358
20
29.84203769201
30
0
41
1
10
39.5350339191913
20
29.835898281098
30
0
41
1
10
39.5387193921296
20
29.8295216025097
30
0
41
1
10
39.5428101415942
20
29.8227645754013
30
0
41
1
10
39.5473099197517
20
29.8156304469839
30
0
41
1
10
39.5522213033955
20
29.8081222446684
30
0
41
1
10
39.5574065666329
20
29.800444329258
30
0
41
1
10
39.5628911273259
20
29.7925495822156
30
0
41
1
10
39.5686635354006
20
29.7844514447761
30
0
41
1
10
39.574714858084
20
29.7761610011469
30
0
41
1
10
39.5809756284082
20
29.7677685319224
30
0
41
1
10
39.5881412527323
20
29.7583548239733
30
0
41
1
10
39.5962769322938
20
29.7478989517373
30
0
41
1
10
39.6023800479458
20
29.7402345130294
30
0
41
1
10
39.6054809471617
20
29.7363843093967
30
0
0
SPLINE
5
18A
100
AcDbEntity
8
1
62
256
6
ByLayer
370
18
48
1
60
0
100
AcDbSpline
70
4
71
3
72
30
73
26
40
0
40
0
40
0
40
0
40
0.0246093289498881
40
0.0674319692533644
40
0.110288223210187
40
0.153081543851501
40
0.195735108062025
40
0.238528291305396
40
0.281482201674187
40
0.324495224411002
40
0.367457621979976
40
0.410257950365281
40
0.45086611181698
40
0.491580610911649
40
0.532345835599306
40
0.573088196453274
40
0.613719788280994
40
0.662028003311167
40
0.710465782160785
40
0.758999609046225
40
0.807568063004691
40
0.856085871385885
40
0.904447597087985
40
0.95222305280671
40
1
40
1
40
1
40
1
41
1
10
39.5204809477443
20
-7.87325505498152
30
0
41
1
10
39.5204821145144
20
-7.87372887028112
30
0
41
1
10
39.5205405214327
20
-7.87497277303694
30
0
41
1
10
39.5208808275641
20
-7.87676942235178
30
0
41
1
10
39.5216496261542
20
-7.87848755292151
30
0
41
1
10
39.5227964869483
20
-7.87981193910077
30
0
41
1
10
39.524331661764
20
-7.88072230845443
30
0
41
1
10
39.5262735590361
20
-7.88119021881685
30
0
41
1
10
39.5286061448318
20
-7.88122372676925
30
0
41
1
10
39.5313078153586
20
-7.88083036604112
30
0
41
1
10
39.5343558485925
20
-7.88001665574949
30
0
41
1
10
39.537678486977
20
-7.87880569861311
30
0
41
1
10
39.5412454252428
20
-7.87722486851682
30
0
41
1
10
39.5450114698948
20
-7.87532581023304
30
0
41
1
10
39.5490154482185
20
-7.87310099275713
30
0
41
1
10
39.5532276469113
20
-7.87057460089102
30
0
41
1
10
39.5579036428495
20
-7.86758774491278
30
0
41
1
10
39.5630706498018
20
-7.86409101035075
30
0
41
1
10
39.5687413584706
20
-7.86005283972924
30
0
41
1
10
39.5745984231121
20
-7.85569981428202
30
0
41
1
10
39.5806073780128
20
-7.8510676348234
30
0
41
1
10
39.5867340810985
20
-7.84619164390278
30
0
41
1
10
39.5929310161161
20
-7.84111786385398
30
0
41
1
10
39.5991817627249
20
-7.83586846003022
30
0
41
1
10
39.6033734517732
20
-7.83226967726625
30
0
41
1
10
39.6054809471617
20
-7.83044026667588
30
0
0
SPLINE
5
18B
100
AcDbEntity
8
1
62
256
6
ByLayer
370
18
48
1
60
0
100
AcDbSpline
70
4
71
3
72
29
73
25
40
0
40
0
40
0
40
0
40
0.0406438103291151
40
0.0839535605520195
40
0.127121504140377
40
0.170427804122157
40
0.213896807317824
40
0.257425359041763
40
0.30090240364212
40
0.344215473463815
40
0.385314718816559
40
0.42652273567159
40
0.467782094293874
40
0.509017580846452
40
0.550139927481514
40
0.598396860892512
40
0.646784352268213
40
0.69526720802161
40
0.743783348854435
40
0.792247768602876
40
0.840556139811698
40
0.893690802226654
40
0.946858146682814
40
1
40
1
40
1
40
1
41
1
10
39.5204809472326
20
30.2860020458511
30
0
41
1
10
39.5204861497361
20
30.2865907169301
30
0
41
1
10
39.5206136470048
20
30.2876891581578
30
0
41
1
10
39.5211592054442
20
30.2890013431294
30
0
41
1
10
39.5221260132876
20
30.2899208798347
30
0
41
1
10
39.5235165707028
20
30.2903989801728
30
0
41
1
10
39.525318387056
20
30.290441563051
30
0
41
1
10
39.5275126219893
20
30.2900564344038
30
0
41
1
10
39.5300803925032
20
30.2892496795616
30
0
41
1
10
39.5329604969033
20
30.288044093502
30
0
41
1
10
39.5361230297312
20
30.286466640287
30
0
41
1
10
39.5395204486437
20
30.2845686450773
30
0
41
1
10
39.5431848048625
20
30.2823425121114
30
0
41
1
10
39.5470871668821
20
30.2798122000708
30
0
41
1
10
39.5514447717141
20
30.2768326746698
30
0
41
1
10
39.5562876640408
20
30.2733588279475
30
0
41
1
10
39.5616306642358
20
30.2693631806499
30
0
41
1
10
39.5671938112281
20
30.2650559356184
30
0
41
1
10
39.5729423156242
20
30.2604718388069
30
0
41
1
10
39.5788415202293
20
30.255645533454
30
0
41
1
10
39.5850693422804
20
30.2504332565031
30
0
41
1
10
39.5916228250156
20
30.2448308547396
30
0
41
1
10
39.5984984258445
20
30.2388363025938
30
0
41
1
10
39.603142799257
20
30.2347158789787
30
0
41
1
10
39.6054809471617
20
30.2326235256898
30
0
0
SPLINE
5
18C
100
AcDbEntity
8
1
62
256
6
ByLayer
370
18
48
1
60
0
100
AcDbSpline
70
4
71
3
72
29
73
25
40
0
40
0
40
0
40
0
40
0.0271263542711008
40
0.0642009500636858
40
0.101363390801665
40
0.138569707900059
40
0.175758924193204
40
0.212856031387557
40
0.260077820478815
40
0.30742483023406
40
0.35486608084333
40
0.402342396762595
40
0.449770448136555
40
0.497046423513976
40
0.547019095636256
40
0.597040242632915
40
0.647069759025582
40
0.697053854681335
40
0.74841477329919
40
0.799812730103911
40
0.851215404938633
40
0.902582761765309
40
0.951291178843038
40
1
40
1
40
1
40
1
41
1
10
39.5204809473884
20
-8.28600130315741
30
0
41
1
10
39.5204815047486
20
-8.28555084477848
30
0
41
1
10
39.5205580850567
20
-8.28441222521452
30
0
41
1
10
39.520966288932
20
-8.28233504114202
30
0
41
1
10
39.5217592623468
20
-8.27972570392818
30
0
41
1
10
39.5228779679007
20
-8.27681196897458
30
0
41
1
10
39.5243030984028
20
-8.27362069261373
30
0
41
1
10
39.5261749071004
20
-8.26985885753613
30
0
41
1
10
39.5285755741472
20
-8.2654574259578
30
0
41
1
10
39.5315721728345
20
-8.26036455547436
30
0
41
1
10
39.5349477303159
20
-8.25495399624067
30
0
41
1
10
39.5386664804141
20
-8.24926634723488
30
0
41
1
10
39.5426928647713
20
-8.24334195933945
30
0
41
1
10
39.5470822129247
20
-8.23709234802196
30
0
41
1
10
39.5518309869367
20
-8.23052484569405
30
0
41
1
10
39.5569347143922
20
-8.22364626041253
30
0
41
1
10
39.5622830480788
20
-8.21660073341561
30
0
41
1
10
39.5679046342662
20
-8.20934476478093
30
0
41
1
10
39.5737888102063
20
-8.20189058332052
30
0
41
1
10
39.579926705412
20
-8.19424856617147
30
0
41
1
10
39.5862482415758
20
-8.18650279351256
30
0
41
1
10
39.5926251399508
20
-8.17880446329704
30
0
41
1
10
39.5990357961686
20
-8.17117004911255
30
0
41
1
10
39.6033179315162
20
-8.16613369499573
30
0
41
1
10
39.6054809471617
20
-8.16360534829859
30
0
0
SPLINE
5
18D
100
AcDbEntity
8
1
62
256
6
ByLayer
370
18
48
1
60
0
100
AcDbSpline
70
4
71
3
72
29
73
25
40
0
40
0
40
0
40
0
40
0.0300825407329084
40
0.0714649231057353
40
0.112747553004777
40
0.153856387807397
40
0.19596663702204
40
0.238216347930118
40
0.280524210443056
40
0.322794428538875
40
0.364921934944167
40
0.40726250621635
40
0.449703458191092
40
0.492194314377631
40
0.534665426434898
40
0.577031354646985
40
0.630641089211416
40
0.684394109461438
40
0.738253518394334
40
0.792151416054449
40
0.84599339043332
40
0.899662602458466
40
0.949830683736598
40
1
40
1
40
1
40
1
41
1
10
39.5204809473913
20
-8.57549152295925
30
0
41
1
10
39.5204924962028
20
-8.57577636367522
30
0
41
1
10
39.5205918475076
20
-8.57638034331988
30
0
41
1
10
39.5209979876573
20
-8.57708299130725
30
0
41
1
10
39.5218302768169
20
-8.57745962116742
30
0
41
1
10
39.5230485175906
20
-8.57744380372577
30
0
41
1
10
39.5246762517438
20
-8.57700732994699
30
0
41
1
10
39.5266975763846
20
-8.5761631259921
30
0
41
1
10
39.5290805959704
20
-8.57492877457367
30
0
41
1
10
39.5318015649414
20
-8.57332140704603
30
0
41
1
10
39.5348500111512
20
-8.57134862720171
30
0
41
1
10
39.5382148725306
20
-8.56901855691816
30
0
41
1
10
39.5418698607274
20
-8.56635787653615
30
0
41
1
10
39.5457847324541
20
-8.56339360105919
30
0
41
1
10
39.5499299619265
20
-8.56015294815809
30
0
41
1
10
39.5546687334534
20
-8.55634733832357
30
0
41
1
10
39.5600526134499
20
-8.55191043555392
30
0
41
1
10
39.56611668585
20
-8.54679268920292
30
0
41
1
10
39.5724234810459
20
-8.54136191890995
30
0
41
1
10
39.5789335990896
20
-8.53565818017733
30
0
41
1
10
39.58560800377
20
-8.52972113743198
30
0
41
1
10
39.5922725455061
20
-8.52371219300837
30
0
41
1
10
39.5988996141939
20
-8.51766592928606
30
0
41
1
10
39.603276453383
20
-8.51363189737487
30
0
41
1
10
39.6054809471617
20
-8.51158975391263
30
0
0
SPLINE
5
18E
100
AcDbEntity
8
1
62
256
6
ByLayer
370
18
48
1
60
0
100
AcDbSpline
70
4
71
3
72
28
73
24
40
0
40
0
40
0
40
0
40
0.0277029670313968
40
0.0656379467123836
40
0.103672244421594
40
0.14175354418019
40
0.179813162758171
40
0.217769436008679
40
0.262531786212567
40
0.307415451527117
40
0.352387420034446
40
0.397389966599538
40
0.442344303888704
40
0.48715390868274
40
0.533529331296033
40
0.579949883121165
40
0.626378074947431
40
0.672763925568052
40
0.736326225705977
40
0.79993299818248
40
0.8635047009839
40
0.931751308227475
40
1
40
1
40
1
40
1
41
1
10
39.5204809472948
20
30.5754919456873
30
0
41
1
10
39.5204812350437
20
30.5751947333627
30
0
41
1
10
39.5205588590007
20
30.5744148310745
30
0
41
1
10
39.520974563404
20
30.5728927038509
30
0
41
1
10
39.52178713335
20
30.5708729126529
30
0
41
1
10
39.522937075752
20
30.568527978374
30
0
41
1
10
39.524406334726
20
30.5658817620378
30
0
41
1
10
39.5262864835286
20
30.5627774716324
30
0
41
1
10
39.5286306983029
20
30.5591685687346
30
0
41
1
10
39.5314747444649
20
30.5550260614228
30
0
41
1
10
39.534665250077
20
30.5505729707302
30
0
41
1
10
39.5381705489731
20
30.5458444081113
30
0
41
1
10
39.5419590837967
20
30.5408753436345
30
0
41
1
10
39.5460550906801
20
30.5356297503673
30
0
41
1
10
39.5504494660869
20
30.5301183109635
30
0
41
1
10
39.5551316499682
20
30.5243518710323
30
0
41
1
10
39.5600309275837
20
30.5184143609549
30
0
41
1
10
39.5657559020685
20
30.5115749788768
30
0
41
1
10
39.572378785314
20
30.5037827718113
30
0
41
1
10
39.5799604935001
20
30.4950011346823
30
0
41
1
10
39.5880044532238
20
30.4858140985894
30
0
41
1
10
39.5965039107228
20
30.4762351669936
30
0
41
1
10
39.6024606378831
20
30.469605247095
30
0
41
1
10
39.6054809471617
20
30.4662642256101
30
0
0
SPLINE
5
18F
100
AcDbEntity
8
1
62
256
6
ByLayer
370
18
48
1
60
0
100
AcDbSpline
70
4
71
3
72
28
73
24
40
0
40
0
40
0
40
0
40
0.0195704098523577
40
0.0614698831479427
40
0.100619567620216
40
0.139877012718067
40
0.179184016066891
40
0.218466190887491
40
0.257636674533612
40
0.3020642047569
40
0.346613542346807
40
0.391249899350913
40
0.43591509487629
40
0.480531084574395
40
0.525003182341057
40
0.585542459732467
40
0.646139959085704
40
0.706693902656957
40
0.768923215844078
40
0.831196339001237
40
0.893434973539181
40
0.946717036082436
40
1
40
1
40
1
40
1
41
1
10
39.5204809472415
20
-8.74714940596871
30
0
41
1
10
39.5204844502459
20
-8.74704380311348
30
0
41
1
10
39.5205426913243
20
-8.74666488940819
30
0
41
1
10
39.5208641922062
20
-8.74581764237495
30
0
41
1
10
39.5216701197012
20
-8.74438542346784
30
0
41
1
10
39.5228145136252
20
-8.74263281342298
30
0
41
1
10
39.5243031300737
20
-8.7405421149166
30
0
41
1
10
39.5261150642037
20
-8.73813731567385
30
0
41
1
10
39.5283308009655
20
-8.7353140451511
30
0
41
1
10
39.530987602459
20
-8.73203803865654
30
0
41
1
10
39.5341050448126
20
-8.72829249525343
30
0
41
1
10
39.5375470045122
20
-8.7242401268386
30
0
41
1
10
39.5412827037001
20
-8.71991352919007
30
0
41
1
10
39.5452814461837
20
-8.71534518837404
30
0
41
1
10
39.5500316053
20
-8.70998176526853
30
0
41
1
10
39.5556208689665
20
-8.70374558076272
30
0
41
1
10
39.5621173212468
20
-8.69657977440346
30
0
41
1
10
39.5690004902942
20
-8.68906199947244
30
0
41
1
10
39.5762416166368
20
-8.68122237039072
30
0
41
1
10
39.5838144553946
20
-8.67308812955942
30
0
41
1
10
39.591247246639
20
-8.66516101229027
30
0
41
1
10
39.5984785607798
20
-8.65749553360327
30
0
41
1
10
39.6031314132831
20
-8.65258883168009
30
0
41
1
10
39.6054809471617
20
-8.6501174514861
30
0
0
SPLINE
5
190
100
AcDbEntity
8
1
62
256
6
ByLayer
370
18
48
1
60
0
100
AcDbSpline
70
4
71
3
72
28
73
24
40
0
40
0
40
0
40
0
40
0.0418202092425438
40
0.0882252465318568
40
0.134431354821234
40
0.175494650244547
40
0.216682499632185
40
0.257924715169384
40
0.299135563296738
40
0.340218207337514
40
0.38327535907312
40
0.426430581755404
40
0.469635465554993
40
0.512821874593802
40
0.555905243695142
40
0.611857017923797
40
0.667958131707762
40
0.724170165236978
40
0.780422356421897
40
0.836616281339528
40
0.892630111708213
40
0.946314376806344
40
1
40
1
40
1
40
1
41
1
10
39.5204809471654
20
30.747149492938
30
0
41
1
10
39.5204916108592
20
30.7473481654264
30
0
41
1
10
39.520648063253
20
30.7476314001339
30
0
41
1
10
39.5213003232452
20
30.7476447999481
30
0
41
1
10
39.5224315810786
20
30.7471651574867
30
0
41
1
10
39.5239521350528
20
30.7462579505321
30
0
41
1
10
39.5257795675439
20
30.7450066197709
30
0
41
1
10
39.5279553787242
20
30.7433922198629
30
0
41
1
10
39.5304570412683
20
30.7414344906592
30
0
41
1
10
39.5333138887146
20
30.7391105919699
30
0
41
1
10
39.5365300737705
20
30.7364143201199
30
0
41
1
10
39.5400940049911
20
30.7333565194304
30
0
41
1
10
39.5439307245327
20
30.7300035396943
30
0
41
1
10
39.5480105950516
20
30.7263840792806
30
0
41
1
10
39.5527394119237
20
30.7221353986994
30
0
41
1
10
39.5581815971901
20
30.7171849419023
30
0
41
1
10
39.5643848857231
20
30.711476731712
30
0
41
1
10
39.5708624057734
20
30.7054577793583
30
0
41
1
10
39.5775723235401
20
30.699170429651
30
0
41
1
10
39.584473216378
20
30.6926565932701
30
0
41
1
10
39.5914390965981
20
30.6860385123642
30
0
41
1
10
39.5984433788032
20
30.679345572252
30
0
41
1
10
39.6031215755667
20
30.6748529193174
30
0
41
1
10
39.6054809471617
20
30.6725814719131
30
0
0
SPLINE
5
191
100
AcDbEntity
8
1
62
256
6
ByLayer
370
18
48
1
60
0
100
AcDbSpline
70
4
71
2
72
6
73
3
40
0
40
0
40
0
40
1
40
1
40
1
41
0.500005443239456
10
40.3245190528383
20
26.2365998497609
30
0
41
0.499994556760544
10
40.3245190528383
20
26.3115053922832
30
0
41
0.500005443239456
10
40.3245190528383
20
26.3850774567956
30
0
0
SPLINE
5
192
100
AcDbEntity
8
1
62
256
6
ByLayer
370
18
48
1
60
0
100
AcDbSpline
70
4
71
2
72
6
73
3
40
0
40
0
40
0
40
1
40
1
40
1
41
0.50000479843448
10
40.3245190528383
20
27.2467561030827
30
0
41
0.49999520156552
10
40.3245190528383
20
27.3077913724011
30
0
41
0.50000479843448
10
40.3245190528383
20
27.3675746358548
30
0
0
SPLINE
5
193
100
AcDbEntity
8
1
62
256
6
ByLayer
370
18
48
1
60
0
100
AcDbSpline
70
4
71
2
72
6
73
3
40
0
40
0
40
0
40
1
40
1
40
1
41
0.500004356131372
10
40.3245190528383
20
28.0663467902297
30
0
41
0.499995643868628
10
40.3245190528383
20
28.1156459631015
30
0
41
0.500004356131372
10
40.3245190528383
20
28.1637522287218
30
0
0
SPLINE
5
194
100
AcDbEntity
8
1
62
256
6
ByLayer
370
18
48
1
60
0
100
AcDbSpline
70
4
71
2
72
6
73
3
40
0
40
0
40
0
40
1
40
1
40
1
41
0.500004045391814
10
40.3245190528383
20
28.7218312162064
30
0
41
0.499995954608186
10
40.3245190528383
20
28.7608061217543
30
0
41
0.500004045391814
10
40.3245190528383
20
28.7986314551885
30
0
0
SPLINE
5
195
100
AcDbEntity
8
1
62
256
6
ByLayer
370
18
48
1
60
0
100
AcDbSpline
70
4
71
2
72
6
73
3
40
0
40
0
40
0
40
1
40
1
40
1
41
0.500003826997353
10
40.3245190528383
20
29.2309190812485
30
0
41
0.499996173002647
10
40.3245190528383
20
29.2605275055252
30
0
41
0.500003826997353
10
40.3245190528383
20
29.2890178190712
30
0
0
SPLINE
5
196
100
AcDbEntity
8
1
62
256
6
ByLayer
370
18
48
1
60
0
100
AcDbSpline
70
4
71
2
72
6
73
3
40
0
40
0
40
0
40
1
40
1
40
1
41
0.500003678074472
10
40.3245190528383
20
29.6056313904784
30
0
41
0.499996321925528
10
40.3245190528383
20
29.6265212759722
30
0
41
0.500003678074472
10
40.3245190528383
20
29.6463150218744
30
0
0
SPLINE
5
197
100
AcDbEntity
8
1
62
256
6
ByLayer
370
18
48
1
60
0
100
AcDbSpline
70
4
71
2
72
6
73
3
40
0
40
0
40
0
40
1
40
1
40
1
41
0.500003585068969
10
40.3245190528383
20
29.853981763269
30
0
41
0.499996414931031
10
40.3245190528383
20
29.8665726465817
30
0
41
0.500003585068969
10
40.3245190528383
20
29.878081337987
30
0
0
SPLINE
5
198
100
AcDbEntity
8
1
62
256
6
ByLayer
370
18
48
1
60
0
100
AcDbSpline
70
4
71
2
72
6
73
3
40
0
40
0
40
0
40
1
40
1
40
1
41
0.50000354030808
10
40.3245190528383
20
29.9809308839426
30
0
41
0.49999645969192
10
40.3245190528383
20
29.9854600336903
30
0
41
0.50000354030808
10
40.3245190528383
20
29.9889137686264
30
0
0
SPLINE
5
199
100
AcDbEntity
8
1
62
256
6
ByLayer
370
18
48
1
60
0
100
AcDbSpline
70
4
71
2
72
6
73
3
40
0
40
0
40
0
40
1
40
1
40
1
41
0.50000354030808
10
40.3245190528383
20
-7.98891376862639
30
0
41
0.49999645969192
10
40.3245190528383
20
-7.98546003369029
30
0
41
0.50000354030808
10
40.3245190528383
20
-7.98093088394255
30
0
0
SPLINE
5
19A
100
AcDbEntity
8
1
62
256
6
ByLayer
370
18
48
1
60
0
100
AcDbSpline
70
4
71
2
72
6
73
3
40
0
40
0
40
0
40
1
40
1
40
1
41
0.500003585068969
10
40.3245190528383
20
-7.87808133798701
30
0
41
0.499996414931031
10
40.3245190528383
20
-7.86657264658164
30
0
41
0.500003585068969
10
40.3245190528383
20
-7.853981763269
30
0
0
SPLINE
5
19B
100
AcDbEntity
8
1
62
256
6
ByLayer
370
18
48
1
60
0
100
AcDbSpline
70
4
71
2
72
6
73
3
40
0
40
0
40
0
40
1
40
1
40
1
41
0.500003678074472
10
40.3245190528383
20
-7.64631502187437
30
0
41
0.499996321925528
10
40.3245190528383
20
-7.62652127597232
30
0
41
0.500003678074472
10
40.3245190528383
20
-7.6056313904784
30
0
0
SPLINE
5
19C
100
AcDbEntity
8
1
62
256
6
ByLayer
370
18
48
1
60
0
100
AcDbSpline
70
4
71
2
72
6
73
3
40
0
40
0
40
0
40
1
40
1
40
1
41
0.500003826997353
10
40.3245190528383
20
-7.28901781907117
30
0
41
0.499996173002647
10
40.3245190528383
20
-7.26052750552516
30
0
41
0.500003826997353
10
40.3245190528383
20
-7.23091908124851
30
0
0
SPLINE
5
19D
100
AcDbEntity
8
1
62
256
6
ByLayer
370
18
48
1
60
0
100
AcDbSpline
70
4
71
2
72
6
73
3
40
0
40
0
40
0
40
1
40
1
40
1
41
0.500004045391814
10
40.3245190528383
20
-6.79863145518854
30
0
41
0.499995954608186
10
40.3245190528383
20
-6.76080612175408
30
0
41
0.500004045391814
10
40.3245190528383
20
-6.72183121620636
30
0
0
SPLINE
5
19E
100
AcDbEntity
8
1
62
256
6
ByLayer
370
18
48
1
60
0
100
AcDbSpline
70
4
71
2
72
6
73
3
40
0
40
0
40
0
40
1
40
1
40
1
41
0.500004356131372
10
40.3245190528383
20
-6.16375222872178
30
0
41
0.499995643868628
10
40.3245190528383
20
-6.11564596310135
30
0
41
0.500004356131372
10
40.3245190528383
20
-6.06634679022965
30
0
0
SPLINE
5
19F
100
AcDbEntity
8
1
62
256
6
ByLayer
370
18
48
1
60
0
100
AcDbSpline
70
4
71
2
72
6
73
3
40
0
40
0
40
0
40
1
40
1
40
1
41
0.50000479843448
10
40.3245190528383
20
-5.36757463585476
30
0
41
0.49999520156552
10
40.3245190528383
20
-5.30779137240072
30
0
41
0.50000479843448
10
40.3245190528383
20
-5.24675610308276
30
0
0
SPLINE
5
1A0
100
AcDbEntity
8
1
62
256
6
ByLayer
370
18
48
1
60
0
100
AcDbSpline
70
4
71
2
72
6
73
3
40
0
40
0
40
0
40
1
40
1
40
1
41
0.500005443239456
10
40.3245190528383
20
-4.38507745679562
30
0
41
0.499994556760544
10
40.3245190528383
20
-4.3115053922835
30
0
41
0.500005443239456
10
40.3245190528383
20
-4.23659984976087
30
0
0
SPLINE
5
1A1
100
AcDbEntity
8
SK1
62
256
6
ByLayer
370
18
48
1
60
0
100
AcDbSpline
70
4
71
3
72
25
73
21
40
0
40
0
40
0
40
0
40
0.0451445804044697
40
0.0662501195616739
40
0.0847063781534514
40
0.107495934815105
40
0.124566772688833
40
0.155724716153843
40
0.209432321905484
40
0.270968920265238
40
0.777325582072208
40
0.823981739083715
40
0.868622954119697
40
0.888504157433833
40
0.91692126716435
40
0.94455241892927
40
0.965239501055916
40
0.982713944124361
40
0.998519826946533
40
1
40
1
40
1
40
1
41
1
10
-2.09429771640845
20
-17.5282918765558
30
-2.743E-13
41
1
10
-2.09323584167037
20
-17.4922273244913
30
-1.206E-13
41
1
10
-2.08086137782284
20
-17.4447170351552
30
2.55E-14
41
1
10
-2.05055075515603
20
-17.3857761485081
30
-3.9E-15
41
1
10
-2.01130783298257
20
-17.3583843669192
30
1.3E-15
41
1
10
-1.97552284998505
20
-17.3308981130099
30
-3E-16
41
1
10
-1.92130290428454
20
-17.3217640868509
30
1E-16
41
1
10
-1.84416548606538
20
-17.3207678563588
30
-1E-16
41
1
10
-1.73297413014758
20
-17.3259198948029
30
0
41
1
10
-1.26124388047272
20
-17.328122394936
30
-1E-16
41
1
10
-0.794119646310045
20
-17.3285311453373
30
0
41
1
10
-0.341475383465197
20
-17.3590550476057
30
0
41
1
10
-0.257020587207565
20
-17.3609602867826
30
0
41
1
10
-0.18665254026347
20
-17.3634974799853
30
0
41
1
10
-0.128730736166229
20
-17.371759936943
30
0
41
1
10
-0.0770865660614083
20
-17.4004015342079
30
0
41
1
10
-0.0377394188389936
20
-17.4320052232884
30
0
41
1
10
-0.0153292696450804
20
-17.4667953585686
30
0
41
1
10
-0.0043067091462423
20
-17.4909396472681
30
0
41
1
10
-0.0003296777914337
20
-17.5033976985446
30
0
41
1
10
-3E-16
20
-17.5044677669611
30
0
0
SPLINE
5
1A2
100
AcDbEntity
8
SK1
62
256
6
ByLayer
370
18
48
1
60
0
100
AcDbSpline
70
4
71
3
72
25
73
21
40
0
40
0
40
0
40
0
40
0.0451445804044697
40
0.0662501195616739
40
0.0847063781534514
40
0.107495934815105
40
0.124566772688833
40
0.155724716153843
40
0.209432321905484
40
0.270968920265238
40
0.777325582072208
40
0.823981739083715
40
0.868622954119697
40
0.888504157433833
40
0.91692126716435
40
0.94455241892927
40
0.965239501055916
40
0.982713944124361
40
0.998519826946533
40
1
40
1
40
1
40
1
41
1
10
-2.09429771640845
20
17.5282918765558
30
-2.743E-13
41
1
10
-2.09323584167037
20
17.4922273244913
30
-1.206E-13
41
1
10
-2.08086137782284
20
17.4447170351552
30
2.55E-14
41
1
10
-2.05055075515603
20
17.3857761485081
30
-3.9E-15
41
1
10
-2.01130783298257
20
17.3583843669192
30
1.3E-15
41
1
10
-1.97552284998505
20
17.3308981130099
30
-3E-16
41
1
10
-1.92130290428454
20
17.3217640868509
30
1E-16
41
1
10
-1.84416548606538
20
17.3207678563588
30
-1E-16
41
1
10
-1.73297413014758
20
17.3259198948029
30
0
41
1
10
-1.26124388047272
20
17.328122394936
30
-1E-16
41
1
10
-0.794119646310045
20
17.3285311453373
30
0
41
1
10
-0.341475383465197
20
17.3590550476057
30
0
41
1
10
-0.257020587207565
20
17.3609602867826
30
0
41
1
10
-0.18665254026347
20
17.3634974799853
30
0
41
1
10
-0.128730736166229
20
17.371759936943
30
0
41
1
10
-0.0770865660614083
20
17.4004015342079
30
0
41
1
10
-0.0377394188389936
20
17.4320052232884
30
0
41
1
10
-0.0153292696450804
20
17.4667953585686
30
0
41
1
10
-0.0043067091462423
20
17.4909396472681
30
0
41
1
10
-0.0003296777914337
20
17.5033976985446
30
0
41
1
10
-3E-16
20
17.5044677669611
30
0
0
SPLINE
5
1A3
100
AcDbEntity
8
1
62
256
6
ByLayer
370
18
48
1
60
0
100
AcDbSpline
70
4
71
3
72
9
73
5
40
0
40
0
40
0
40
0
40
0.494949494949496
40
1
40
1
40
1
40
1
41
1
10
8.53867513459474
20
-23.8391299750504
30
0
41
1
10
9.02086313732103
20
-23.8391299750504
30
0
41
1
10
9.99507971425784
20
-23.8391299750504
30
0
41
1
10
10.9692962911946
20
-23.8391299750504
30
0
41
1
10
11.4613248654051
20
-23.8391299750504
30
0
0
SPLINE
5
1A4
100
AcDbEntity
8
1
62
256
6
ByLayer
370
18
48
1
60
0
100
AcDbSpline
70
4
71
3
72
14
73
10
40
0
40
0
40
0
40
0
40
0.239397111289125
40
0.239397111289125
40
0.612781250184906
40
0.612781250184906
40
0.805943621259814
40
0.805943621259814
40
1
40
1
40
1
40
1
41
1
10
8.10566243270252
20
-23.6665017920826
30
0
41
1
10
8.09095796262549
20
-23.6479145393459
30
0
41
1
10
8.13798361688695
20
-23.7032843924784
30
0
41
1
10
8.19265323173055
20
-23.7481959874034
30
0
41
1
10
8.23529756799636
20
-23.7746429958952
30
0
41
1
10
8.32413879135682
20
-23.8081529301734
30
0
41
1
10
8.3595677983887
20
-23.8185995294702
30
0
41
1
10
8.44116088643751
20
-23.8340785151528
30
0
41
1
10
8.49042210071883
20
-23.8391299750504
30
0
41
1
10
8.53867513459474
20
-23.8391299750504
30
0
0
SPLINE
5
1A5
100
AcDbEntity
8
1
62
256
6
ByLayer
370
18
48
1
60
0
100
AcDbSpline
70
4
71
3
72
9
73
5
40
0
40
0
40
0
40
0
40
0.505050505050505
40
1
40
1
40
1
40
1
41
1
10
11.4613248654052
20
7.52966679426505
30
0
41
1
10
10.9692962911947
20
7.52966679426505
30
0
41
1
10
9.99507971425793
20
7.52966679401158
30
0
41
1
10
9.02086313732112
20
7.52966679426505
30
0
41
1
10
8.53867513459483
20
7.52966679426505
30
0
0
SPLINE
5
1A6
100
AcDbEntity
8
1
62
256
6
ByLayer
370
18
48
1
60
0
100
AcDbSpline
70
4
71
3
72
14
73
10
40
0
40
0
40
0
40
0
40
0.239397111289486
40
0.239397111289486
40
0.61278125018505
40
0.61278125018505
40
0.805943621259882
40
0.805943621259882
40
1
40
1
40
1
40
1
41
1
10
8.10566243270262
20
8.05584836782778
30
0
41
1
10
8.12036690277977
20
8.00124266646392
30
0
41
1
10
8.13798361688575
20
7.94714297480039
30
0
41
1
10
8.19265323172934
20
7.81219451169192
30
0
41
1
10
8.23529756799517
20
7.73121702125242
30
0
41
1
10
8.32413879135584
20
7.62715004590015
30
0
41
1
10
8.35956779838781
20
7.59440752379588
30
0
41
1
10
8.44116088643698
20
7.5456886048104
30
0
41
1
10
8.49042210071862
20
7.52966679426505
30
0
41
1
10
8.53867513459483
20
7.52966679426505
30
0
0
SPLINE
5
1A7
100
AcDbEntity
8
1
62
256
6
ByLayer
370
18
48
1
60
0
100
AcDbSpline
70
4
71
3
72
9
73
5
40
0
40
0
40
0
40
0
40
0.505050505050505
40
1
40
1
40
1
40
1
41
1
10
11.4613248654052
20
-7.52966679426511
30
0
41
1
10
10.9692962911947
20
-7.52966679426511
30
0
41
1
10
9.99507971425789
20
-7.52966679401164
30
0
41
1
10
9.02086313732108
20
-7.5296667942651
30
0
41
1
10
8.53867513459479
20
-7.5296667942651
30
0
0
SPLINE
5
1A8
100
AcDbEntity
8
1
62
256
6
ByLayer
370
18
48
1
60
0
100
AcDbSpline
70
4
71
3
72
14
73
10
40
0
40
0
40
0
40
0
40
0.239397111284482
40
0.239397111284482
40
0.612781250183029
40
0.612781250183029
40
0.805943621258938
40
0.805943621258938
40
1
40
1
40
1
40
1
41
1
10
11.8943375672974
20
-8.05584836775995
30
0
41
1
10
11.909042037373
20
-8.11045406911773
30
0
41
1
10
11.8620163830966
20
-7.94714297475087
30
0
41
1
10
11.8073467682528
20
-7.81219451165698
30
0
41
1
10
11.7647024319871
20
-7.73121702122572
30
0
41
1
10
11.6758612086292
20
-7.62715004588576
30
0
41
1
10
11.6404322015988
20
-7.59440752378582
30
0
41
1
10
11.5588391135546
20
-7.54568860480753
30
0
41
1
10
11.5095778992772
20
-7.52966679426511
30
0
41
1
10
11.4613248654052
20
-7.52966679426511
30
0
0
SPLINE
5
1A9
100
AcDbEntity
8
1
62
256
6
ByLayer
370
18
48
1
60
0
100
AcDbSpline
70
4
71
3
72
9
73
5
40
0
40
0
40
0
40
0
40
0.494949494949496
40
1
40
1
40
1
40
1
41
1
10
8.53867513459488
20
23.8391299750503
30
0
41
1
10
9.02086313732117
20
23.8391299750503
30
0
41
1
10
9.99507971425797
20
23.8391299750503
30
0
41
1
10
10.9692962911948
20
23.8391299750503
30
0
41
1
10
11.4613248654053
20
23.8391299750503
30
0
0
SPLINE
5
1AA
100
AcDbEntity
8
1
62
256
6
ByLayer
370
18
48
1
60
0
100
AcDbSpline
70
4
71
3
72
14
73
10
40
0
40
0
40
0
40
0
40
0.239397111289475
40
0.239397111289475
40
0.612781250185036
40
0.612781250185036
40
0.805943621259863
40
0.805943621259863
40
1
40
1
40
1
40
1
41
1
10
11.8943375672975
20
23.6665017920809
30
0
41
1
10
11.8796330972203
20
23.6850890448177
30
0
41
1
10
11.8620163831143
20
23.7032843924771
30
0
41
1
10
11.8073467682707
20
23.7481959874025
30
0
41
1
10
11.7647024320049
20
23.7746429958945
30
0
41
1
10
11.6758612086443
20
23.8081529301731
30
0
41
1
10
11.6404322016123
20
23.8185995294699
30
0
41
1
10
11.5588391135631
20
23.8340785151526
30
0
41
1
10
11.5095778992815
20
23.8391299750503
30
0
41
1
10
11.4613248654053
20
23.8391299750503
30
0
0
SPLINE
5
1AB
100
AcDbEntity
8
1
62
256
6
ByLayer
370
18
48
1
60
0
100
AcDbSpline
70
4
71
3
72
14
73
10
40
0
40
0
40
0
40
0
40
0.194056378740118
40
0.194056378740118
40
0.38721874981495
40
0.38721874981495
40
0.760602888710514
40
0.760602888710514
40
1
40
1
40
1
40
1
41
1
10
8.53867513459479
20
-7.5296667942651
30
0
41
1
10
8.49042210071858
20
-7.5296667942651
30
0
41
1
10
8.44116088643694
20
-7.54568860481045
30
0
41
1
10
8.35956779838777
20
-7.59440752379593
30
0
41
1
10
8.32413879135579
20
-7.62715004590019
30
0
41
1
10
8.23529756799513
20
-7.73121702125247
30
0
41
1
10
8.19265323172929
20
-7.81219451169196
30
0
41
1
10
8.13798361688571
20
-7.94714297480044
30
0
41
1
10
8.12036690277972
20
-8.00124266646396
30
0
41
1
10
8.10566243270258
20
-8.05584836782783
30
0
0
SPLINE
5
1AC
100
AcDbEntity
8
1
62
256
6
ByLayer
370
18
48
1
60
0
100
AcDbSpline
70
4
71
3
72
22
73
18
40
0
40
0
40
0
40
0
40
0.0927329942908315
40
0.0927329942908315
40
0.27264918198952
40
0.27264918198952
40
0.452570056386563
40
0.452570056386563
40
0.499999999865918
40
0.499999999865918
40
0.547429965265412
40
0.547429965265412
40
0.727350800142234
40
0.727350800142234
40
0.907266948324966
40
0.907266948324966
40
1
40
1
40
1
40
1
41
1
10
11.8943251760255
20
-8.0557715131962
30
0
41
1
10
12.0706484064858
20
-8.71055133708827
30
0
41
1
10
12.233144661003
20
-9.36013402757603
30
0
41
1
10
12.6661477002149
20
-11.2421946384421
30
0
41
1
10
12.8958937771284
20
-12.4561410744481
30
0
41
1
10
13.2264736254722
20
-14.7629252173354
30
0
41
1
10
13.3286268201944
20
-15.8655949123492
30
0
41
1
10
13.3728620709724
20
-17.1556170368
30
0
41
1
10
13.3774990747597
20
-17.419517307873
30
0
41
1
10
13.3774990747588
20
-17.9358218708413
30
0
41
1
10
13.3728620666811
20
-18.1883903930923
30
0
41
1
10
13.3286267989055
20
-19.3700586065419
30
0
41
1
10
13.2264736256549
20
-20.2224447815151
30
0
41
1
10
12.8958938748647
20
-21.7194766871194
30
0
41
1
10
12.6661478749671
20
-22.3707154959903
30
0
41
1
10
12.2331448622437
20
-23.1921397598921
30
0
41
1
10
12.0706485156054
20
-23.4436702769933
30
0
41
1
10
11.8943251760354
20
-23.6665482943798
30
0
0
SPLINE
5
1AD
100
AcDbEntity
8
1
62
256
6
ByLayer
370
18
48
1
60
0
100
AcDbSpline
70
4
71
3
72
14
73
10
40
0
40
0
40
0
40
0
40
0.194056378740186
40
0.194056378740186
40
0.387218749815094
40
0.387218749815094
40
0.760602888710875
40
0.760602888710875
40
1
40
1
40
1
40
1
41
1
10
8.53867513459488
20
23.8391299750503
30
0
41
1
10
8.49042210071897
20
23.8391299750503
30
0
41
1
10
8.44116088643764
20
23.8340785151527
30
0
41
1
10
8.35956779838883
20
23.8185995294702
30
0
41
1
10
8.32413879135696
20
23.8081529301734
30
0
41
1
10
8.2352975679965
20
23.7746429958951
30
0
41
1
10
8.19265323173068
20
23.7481959874033
30
0
41
1
10
8.13798361688708
20
23.7032843924783
30
0
41
1
10
8.09095796262562
20
23.6479145393459
30
0
41
1
10
8.10566243270265
20
23.6665017920826
30
0
0
SPLINE
5
1AE
100
AcDbEntity
8
1
62
256
6
ByLayer
370
18
48
1
60
0
100
AcDbSpline
70
4
71
3
72
22
73
18
40
0
40
0
40
0
40
0
40
0.0927329942909223
40
0.0927329942909223
40
0.272649181989615
40
0.272649181989615
40
0.452570056386663
40
0.452570056386663
40
0.499999999866018
40
0.499999999866018
40
0.547429965265511
40
0.547429965265511
40
0.72735080014235
40
0.72735080014235
40
0.907266948325098
40
0.907266948325098
40
1
40
1
40
1
40
1
41
1
10
8.10567482397449
20
8.05577151319614
30
0
41
1
10
7.92935159351399
20
8.71055133708886
30
0
41
1
10
7.7668553389967
20
9.36013402757725
30
0
41
1
10
7.3338522997847
20
11.2421946384439
30
0
41
1
10
7.10410622287127
20
12.4561410744499
30
0
41
1
10
6.77352637452756
20
14.7629252173371
30
0
41
1
10
6.67137317980544
20
15.8655949123509
30
0
41
1
10
6.62713792902758
20
17.1556170368016
30
0
41
1
10
6.62250092524024
20
17.4195173078746
30
0
41
1
10
6.62250092524123
20
17.9358218708428
30
0
41
1
10
6.62713793331896
20
18.1883903930938
30
0
41
1
10
6.67137320109468
20
19.3700586065434
30
0
41
1
10
6.77352637434531
20
20.2224447815165
30
0
41
1
10
7.10410612513575
20
21.7194766871207
30
0
41
1
10
7.33385212503343
20
22.3707154959915
30
0
41
1
10
7.76685513775675
20
23.1921397598927
30
0
41
1
10
7.92935148439484
20
23.4436702769936
30
0
41
1
10
8.10567482396464
20
23.6665482943798
30
0
0
SPLINE
5
1AF
100
AcDbEntity
8
1
62
256
6
ByLayer
370
18
48
1
60
0
100
AcDbSpline
70
4
71
3
72
14
73
10
40
0
40
0
40
0
40
0
40
0.194056378740137
40
0.194056378740137
40
0.387218749814964
40
0.387218749814964
40
0.760602888710525
40
0.760602888710525
40
1
40
1
40
1
40
1
41
1
10
11.4613248654051
20
-23.8391299750504
30
0
41
1
10
11.5095778992813
20
-23.8391299750504
30
0
41
1
10
11.558839113563
20
-23.8340785151527
30
0
41
1
10
11.6404322016121
20
-23.81859952947
30
0
41
1
10
11.6758612086441
20
-23.8081529301731
30
0
41
1
10
11.7647024320048
20
-23.7746429958946
30
0
41
1
10
11.8073467682706
20
-23.7481959874026
30
0
41
1
10
11.8620163831142
20
-23.7032843924772
30
0
41
1
10
11.8796330972202
20
-23.6850890448178
30
0
41
1
10
11.8943375672974
20
-23.666501792081
30
0
0
SPLINE
5
1B0
100
AcDbEntity
8
1
62
256
6
ByLayer
370
18
48
1
60
0
100
AcDbSpline
70
4
71
3
72
22
73
18
40
0
40
0
40
0
40
0
40
0.0927329942908315
40
0.0927329942908315
40
0.27264918198952
40
0.27264918198952
40
0.452570056386563
40
0.452570056386563
40
0.499999999865918
40
0.499999999865918
40
0.547429965265412
40
0.547429965265412
40
0.727350800142234
40
0.727350800142234
40
0.907266948324966
40
0.907266948324966
40
1
40
1
40
1
40
1
41
1
10
11.8943251760256
20
8.05577151319613
30
0
41
1
10
12.0706484064859
20
8.7105513370882
30
0
41
1
10
12.2331446610031
20
9.36013402757596
30
0
41
1
10
12.666147700215
20
11.242194638442
30
0
41
1
10
12.8958937771285
20
12.456141074448
30
0
41
1
10
13.2264736254723
20
14.7629252173353
30
0
41
1
10
13.3286268201945
20
15.8655949123491
30
0
41
1
10
13.3728620709725
20
17.1556170367999
30
0
41
1
10
13.3774990747598
20
17.4195173078729
30
0
41
1
10
13.3774990747589
20
17.9358218708412
30
0
41
1
10
13.3728620666812
20
18.1883903930922
30
0
41
1
10
13.3286267989056
20
19.3700586065418
30
0
41
1
10
13.226473625655
20
20.222444781515
30
0
41
1
10
12.8958938748648
20
21.7194766871193
30
0
41
1
10
12.6661478749672
20
22.3707154959902
30
0
41
1
10
12.2331448622438
20
23.192139759892
30
0
41
1
10
12.0706485156055
20
23.4436702769932
30
0
41
1
10
11.8943251760355
20
23.6665482943797
30
0
0
SPLINE
5
1B1
100
AcDbEntity
8
1
62
256
6
ByLayer
370
18
48
1
60
0
100
AcDbSpline
70
4
71
3
72
14
73
10
40
0
40
0
40
0
40
0
40
0.194056378741062
40
0.194056378741062
40
0.387218749816971
40
0.387218749816971
40
0.760602888715518
40
0.760602888715518
40
1
40
1
40
1
40
1
41
1
10
11.4613248654052
20
7.52966679426504
30
0
41
1
10
11.5095778992773
20
7.52966679426504
30
0
41
1
10
11.5588391135547
20
7.54568860480747
30
0
41
1
10
11.6404322015988
20
7.59440752378575
30
0
41
1
10
11.6758612086293
20
7.6271500458857
30
0
41
1
10
11.7647024319871
20
7.73121702122566
30
0
41
1
10
11.8073467682529
20
7.81219451165691
30
0
41
1
10
11.8620163830966
20
7.9471429747508
30
0
41
1
10
11.909042037373
20
8.11045406911767
30
0
41
1
10
11.8943375672974
20
8.05584836775988
30
0
0
SPLINE
5
1B2
100
AcDbEntity
8
1
62
256
6
ByLayer
370
18
48
1
60
0
100
AcDbSpline
70
4
71
3
72
22
73
18
40
0
40
0
40
0
40
0
40
0.0927329942909223
40
0.0927329942909223
40
0.272649181989615
40
0.272649181989615
40
0.452570056386663
40
0.452570056386663
40
0.499999999866018
40
0.499999999866018
40
0.547429965265511
40
0.547429965265511
40
0.72735080014235
40
0.72735080014235
40
0.907266948325098
40
0.907266948325098
40
1
40
1
40
1
40
1
41
1
10
8.10567482397444
20
-8.05577151319619
30
0
41
1
10
7.92935159351394
20
-8.7105513370889
30
0
41
1
10
7.76685533899665
20
-9.36013402757729
30
0
41
1
10
7.33385229978464
20
-11.242194638444
30
0
41
1
10
7.1041062228712
20
-12.4561410744499
30
0
41
1
10
6.77352637452748
20
-14.7629252173372
30
0
41
1
10
6.67137317980535
20
-15.8655949123509
30
0
41
1
10
6.62713792902748
20
-17.1556170368017
30
0
41
1
10
6.62250092524014
20
-17.4195173078746
30
0
41
1
10
6.62250092524113
20
-17.9358218708429
30
0
41
1
10
6.62713793331886
20
-18.1883903930939
30
0
41
1
10
6.67137320109457
20
-19.3700586065434
30
0
41
1
10
6.7735263743452
20
-20.2224447815166
30
0
41
1
10
7.10410612513563
20
-21.7194766871207
30
0
41
1
10
7.3338521250333
20
-22.3707154959916
30
0
41
1
10
7.76685513775662
20
-23.1921397598928
30
0
41
1
10
7.92935148439471
20
-23.4436702769936
30
0
41
1
10
8.10567482396451
20
-23.6665482943798
30
0
0
LINE
5
70
100
AcDbEntity
8
1
62
256
6
ByLayer
370
18
48
1
60
0
100
AcDbLine
10
39.324519
20
31
30
0
11
39.520545
21
30.803974
31
0
39
0
210
0
220
0
230
1
0
LINE
5
72
100
AcDbEntity
8
1
62
256
6
ByLayer
370
18
48
1
60
0
100
AcDbLine
10
39.520545
20
-8.803974
30
0
11
39.324519
21
-9
31
0
39
0
210
0
220
0
230
1
0
LINE
5
73
100
AcDbEntity
8
1
62
256
6
ByLayer
370
18
48
1
60
0
100
AcDbLine
10
39.605481
20
14.782927
30
0
11
39.605481
21
12.681381
31
0
39
0
210
0
220
0
230
1
0
LINE
5
74
100
AcDbEntity
8
1
62
256
6
ByLayer
370
18
48
1
60
0
100
AcDbLine
10
39.605481
20
9.318619
30
0
11
39.605481
21
7.217073
31
0
39
0
210
0
220
0
230
1
0
LINE
5
75
100
AcDbEntity
8
1
62
256
6
ByLayer
370
18
48
1
60
0
100
AcDbLine
10
40.249519
20
12.891967
30
0
11
40.249519
21
9.108033
31
0
39
0
210
0
220
0
230
1
0
LINE
5
76
100
AcDbEntity
8
1
62
256
6
ByLayer
370
18
48
1
60
0
100
AcDbLine
10
39.605481
20
19.373701
30
0
11
39.605481
21
18.714837
31
0
39
0
210
0
220
0
230
1
0
LINE
5
77
100
AcDbEntity
8
1
62
256
6
ByLayer
370
18
48
1
60
0
100
AcDbLine
10
39.605481
20
3.285163
30
0
11
39.605481
21
2.626299
31
0
39
0
210
0
220
0
230
1
0
LINE
5
78
100
AcDbEntity
8
1
62
256
6
ByLayer
370
18
48
1
60
0
100
AcDbLine
10
40.249519
20
18.633633
30
0
11
40.249519
21
15.571657
31
0
39
0
210
0
220
0
230
1
0
LINE
5
79
100
AcDbEntity
8
1
62
256
6
ByLayer
370
18
48
1
60
0
100
AcDbLine
10
40.249519
20
6.428343
30
0
11
40.249519
21
3.366367
31
0
39
0
210
0
220
0
230
1
0
LINE
5
7A
100
AcDbEntity
8
1
62
256
6
ByLayer
370
18
48
1
60
0
100
AcDbLine
10
39.605481
20
22.019401
30
0
11
39.605481
21
21.569313
31
0
39
0
210
0
220
0
230
1
0
LINE
5
7B
100
AcDbEntity
8
1
62
256
6
ByLayer
370
18
48
1
60
0
100
AcDbLine
10
39.605481
20
0.430687
30
0
11
39.605481
21
-0.019401
31
0
39
0
210
0
220
0
230
1
0
LINE
5
7C
100
AcDbEntity
8
1
62
256
6
ByLayer
370
18
48
1
60
0
100
AcDbLine
10
40.249519
20
21.414662
30
0
11
40.249519
21
19.614362
31
0
39
0
210
0
220
0
230
1
0
LINE
5
7D
100
AcDbEntity
8
1
62
256
6
ByLayer
370
18
48
1
60
0
100
AcDbLine
10
40.249519
20
2.385638
30
0
11
40.249519
21
0.585338
31
0
39
0
210
0
220
0
230
1
0
LINE
5
7E
100
AcDbEntity
8
1
62
256
6
ByLayer
370
18
48
1
60
0
100
AcDbLine
10
39.605481
20
23.970564
30
0
11
39.605481
21
23.625453
31
0
39
0
210
0
220
0
230
1
0
LINE
5
7F
100
AcDbEntity
8
1
62
256
6
ByLayer
370
18
48
1
60
0
100
AcDbLine
10
39.605481
20
-1.625453
30
0
11
39.605481
21
-1.970564
31
0
39
0
210
0
220
0
230
1
0
LINE
5
80
100
AcDbEntity
8
1
62
256
6
ByLayer
370
18
48
1
60
0
100
AcDbLine
10
40.249519
20
23.416038
30
0
11
40.249519
21
22.091186
31
0
39
0
210
0
220
0
230
1
0
LINE
5
81
100
AcDbEntity
8
1
62
256
6
ByLayer
370
18
48
1
60
0
100
AcDbLine
10
40.249519
20
-0.091186
30
0
11
40.249519
21
-1.416038
31
0
39
0
210
0
220
0
230
1
0
LINE
5
82
100
AcDbEntity
8
1
62
256
6
ByLayer
370
18
48
1
60
0
100
AcDbLine
10
40.249519
20
-1.935284
30
0
11
40.249519
21
-2.976796
31
0
39
0
210
0
220
0
230
1
0
LINE
5
83
100
AcDbEntity
8
1
62
256
6
ByLayer
370
18
48
1
60
0
100
AcDbLine
10
40.249519
20
24.976796
30
0
11
40.249519
21
23.935284
31
0
39
0
210
0
220
0
230
1
0
LINE
5
84
100
AcDbEntity
8
1
62
256
6
ByLayer
370
18
48
1
60
0
100
AcDbLine
10
39.605481
20
25.510129
30
0
11
39.605481
21
25.233543
31
0
39
0
210
0
220
0
230
1
0
LINE
5
85
100
AcDbEntity
8
1
62
256
6
ByLayer
370
18
48
1
60
0
100
AcDbLine
10
39.605481
20
-3.233543
30
0
11
39.605481
21
-3.510129
31
0
39
0
210
0
220
0
230
1
0
LINE
5
86
100
AcDbEntity
8
1
62
256
6
ByLayer
370
18
48
1
60
0
100
AcDbLine
10
39.605481
20
-4.533364
30
0
11
39.605481
21
-4.759193
31
0
39
0
210
0
220
0
230
1
0
LINE
5
87
100
AcDbEntity
8
1
62
256
6
ByLayer
370
18
48
1
60
0
100
AcDbLine
10
39.605481
20
26.759193
30
0
11
39.605481
21
26.533364
31
0
39
0
210
0
220
0
230
1
0
LINE
5
88
100
AcDbEntity
8
1
62
256
6
ByLayer
370
18
48
1
60
0
100
AcDbLine
10
40.249519
20
26.232979
30
0
11
40.249519
21
25.391969
31
0
39
0
210
0
220
0
230
1
0
LINE
5
89
100
AcDbEntity
8
1
62
256
6
ByLayer
370
18
48
1
60
0
100
AcDbLine
10
40.249519
20
-3.391969
30
0
11
40.249519
21
-4.232979
31
0
39
0
210
0
220
0
230
1
0
LINE
5
8A
100
AcDbEntity
8
1
62
256
6
ByLayer
370
18
48
1
60
0
100
AcDbLine
10
39.605481
20
27.782744
30
0
11
39.605481
21
27.597502
31
0
39
0
210
0
220
0
230
1
0
LINE
5
8B
100
AcDbEntity
8
1
62
256
6
ByLayer
370
18
48
1
60
0
100
AcDbLine
10
39.605481
20
-5.597502
30
0
11
39.605481
21
-5.782744
31
0
39
0
210
0
220
0
230
1
0
LINE
5
8C
100
AcDbEntity
8
1
62
256
6
ByLayer
370
18
48
1
60
0
100
AcDbLine
10
40.249519
20
-4.570355
30
0
11
40.249519
21
-5.255352
31
0
39
0
210
0
220
0
230
1
0
LINE
5
8D
100
AcDbEntity
8
1
62
256
6
ByLayer
370
18
48
1
60
0
100
AcDbLine
10
40.249519
20
27.255352
30
0
11
40.249519
21
26.570355
31
0
39
0
210
0
220
0
230
1
0
LINE
5
8E
100
AcDbEntity
8
1
62
256
6
ByLayer
370
18
48
1
60
0
100
AcDbLine
10
40.324519
20
-4.385077
30
0
11
40.324519
21
-5.246756
31
0
39
0
210
0
220
0
230
1
0
LINE
5
8F
100
AcDbEntity
8
1
62
256
6
ByLayer
370
18
48
1
60
0
100
AcDbLine
10
40.324519
20
27.246756
30
0
11
40.324519
21
26.385077
31
0
39
0
210
0
220
0
230
1
0
LINE
5
90
100
AcDbEntity
8
1
62
256
6
ByLayer
370
18
48
1
60
0
100
AcDbLine
10
39.605481
20
-6.46908
30
0
11
39.605481
21
-6.620126
31
0
39
0
210
0
220
0
230
1
0
LINE
5
91
100
AcDbEntity
8
1
62
256
6
ByLayer
370
18
48
1
60
0
100
AcDbLine
10
39.605481
20
28.620126
30
0
11
39.605481
21
28.46908
31
0
39
0
210
0
220
0
230
1
0
LINE
5
92
100
AcDbEntity
8
1
62
256
6
ByLayer
370
18
48
1
60
0
100
AcDbLine
10
40.249519
20
28.085938
30
0
11
40.249519
21
27.530067
31
0
39
0
210
0
220
0
230
1
0
LINE
5
93
100
AcDbEntity
8
1
62
256
6
ByLayer
370
18
48
1
60
0
100
AcDbLine
10
40.249519
20
-5.530067
30
0
11
40.249519
21
-6.085938
31
0
39
0
210
0
220
0
230
1
0
LINE
5
94
100
AcDbEntity
8
1
62
256
6
ByLayer
370
18
48
1
60
0
100
AcDbLine
10
40.324519
20
-5.367575
30
0
11
40.324519
21
-6.066347
31
0
39
0
210
0
220
0
230
1
0
LINE
5
95
100
AcDbEntity
8
1
62
256
6
ByLayer
370
18
48
1
60
0
100
AcDbLine
10
40.324519
20
28.066347
30
0
11
40.324519
21
27.367575
31
0
39
0
210
0
220
0
230
1
0
LINE
5
96
100
AcDbEntity
8
1
62
256
6
ByLayer
370
18
48
1
60
0
100
AcDbLine
10
39.605481
20
-7.17582
30
0
11
39.605481
21
-7.296917
31
0
39
0
210
0
220
0
230
1
0
LINE
5
97
100
AcDbEntity
8
1
62
256
6
ByLayer
370
18
48
1
60
0
100
AcDbLine
10
39.605481
20
29.296917
30
0
11
39.605481
21
29.17582
31
0
39
0
210
0
220
0
230
1
0
LINE
5
98
100
AcDbEntity
8
1
62
256
6
ByLayer
370
18
48
1
60
0
100
AcDbLine
10
40.249519
20
28.751679
30
0
11
40.249519
21
28.307522
31
0
39
0
210
0
220
0
230
1
0
LINE
5
99
100
AcDbEntity
8
1
62
256
6
ByLayer
370
18
48
1
60
0
100
AcDbLine
10
40.249519
20
-6.307522
30
0
11
40.249519
21
-6.751679
31
0
39
0
210
0
220
0
230
1
0
LINE
5
9A
100
AcDbEntity
8
1
62
256
6
ByLayer
370
18
48
1
60
0
100
AcDbLine
10
40.324519
20
28.721831
30
0
11
40.324519
21
28.163752
31
0
39
0
210
0
220
0
230
1
0
LINE
5
9B
100
AcDbEntity
8
1
62
256
6
ByLayer
370
18
48
1
60
0
100
AcDbLine
10
40.324519
20
-6.163752
30
0
11
40.324519
21
-6.721831
31
0
39
0
210
0
220
0
230
1
0
LINE
5
9C
100
AcDbEntity
8
1
62
256
6
ByLayer
370
18
48
1
60
0
100
AcDbLine
10
39.605481
20
29.83044
30
0
11
39.605481
21
29.736384
31
0
39
0
210
0
220
0
230
1
0
LINE
5
9D
100
AcDbEntity
8
1
62
256
6
ByLayer
370
18
48
1
60
0
100
AcDbLine
10
39.605481
20
-7.736384
30
0
11
39.605481
21
-7.83044
31
0
39
0
210
0
220
0
230
1
0
LINE
5
9E
100
AcDbEntity
8
1
62
256
6
ByLayer
370
18
48
1
60
0
100
AcDbLine
10
40.249519
20
-6.926446
30
0
11
40.249519
21
-7.270603
31
0
39
0
210
0
220
0
230
1
0
LINE
5
9F
100
AcDbEntity
8
1
62
256
6
ByLayer
370
18
48
1
60
0
100
AcDbLine
10
40.249519
20
29.270603
30
0
11
40.249519
21
28.926446
31
0
39
0
210
0
220
0
230
1
0
LINE
5
A0
100
AcDbEntity
8
1
62
256
6
ByLayer
370
18
48
1
60
0
100
AcDbLine
10
40.324519
20
-6.798631
30
0
11
40.324519
21
-7.230919
31
0
39
0
210
0
220
0
230
1
0
LINE
5
A1
100
AcDbEntity
8
1
62
256
6
ByLayer
370
18
48
1
60
0
100
AcDbLine
10
40.324519
20
29.230919
30
0
11
40.324519
21
28.798631
31
0
39
0
210
0
220
0
230
1
0
LINE
5
A2
100
AcDbEntity
8
1
62
256
6
ByLayer
370
18
48
1
60
0
100
AcDbLine
10
39.605481
20
30.232624
30
0
11
39.605481
21
30.163605
31
0
39
0
210
0
220
0
230
1
0
LINE
5
A3
100
AcDbEntity
8
1
62
256
6
ByLayer
370
18
48
1
60
0
100
AcDbLine
10
39.605481
20
-8.163605
30
0
11
39.605481
21
-8.232624
31
0
39
0
210
0
220
0
230
1
0
LINE
5
A4
100
AcDbEntity
8
1
62
256
6
ByLayer
370
18
48
1
60
0
100
AcDbLine
10
40.249519
20
-7.402844
30
0
11
40.249519
21
-7.654966
31
0
39
0
210
0
220
0
230
1
0
LINE
5
A5
100
AcDbEntity
8
1
62
256
6
ByLayer
370
18
48
1
60
0
100
AcDbLine
10
40.249519
20
29.654966
30
0
11
40.249519
21
29.402844
31
0
39
0
210
0
220
0
230
1
0
LINE
5
A6
100
AcDbEntity
8
1
62
256
6
ByLayer
370
18
48
1
60
0
100
AcDbLine
10
40.324519
20
-7.289018
30
0
11
40.324519
21
-7.605631
31
0
39
0
210
0
220
0
230
1
0
LINE
5
A7
100
AcDbEntity
8
1
62
256
6
ByLayer
370
18
48
1
60
0
100
AcDbLine
10
40.324519
20
29.605631
30
0
11
40.324519
21
29.289018
31
0
39
0
210
0
220
0
230
1
0
LINE
5
A8
100
AcDbEntity
8
1
62
256
6
ByLayer
370
18
48
1
60
0
100
AcDbLine
10
39.605481
20
-8.466264
30
0
11
39.605481
21
-8.51159
31
0
39
0
210
0
220
0
230
1
0
LINE
5
A9
100
AcDbEntity
8
1
62
256
6
ByLayer
370
18
48
1
60
0
100
AcDbLine
10
39.605481
20
30.51159
30
0
11
39.605481
21
30.466264
31
0
39
0
210
0
220
0
230
1
0
LINE
5
AA
100
AcDbEntity
8
1
62
256
6
ByLayer
370
18
48
1
60
0
100
AcDbLine
10
40.249519
20
-7.747582
30
0
11
40.249519
21
-7.912973
31
0
39
0
210
0
220
0
230
1
0
LINE
5
AB
100
AcDbEntity
8
1
62
256
6
ByLayer
370
18
48
1
60
0
100
AcDbLine
10
40.249519
20
29.912973
30
0
11
40.249519
21
29.747582
31
0
39
0
210
0
220
0
230
1
0
LINE
5
AC
100
AcDbEntity
8
1
62
256
6
ByLayer
370
18
48
1
60
0
100
AcDbLine
10
40.324519
20
-7.646315
30
0
11
40.324519
21
-7.853982
31
0
39
0
210
0
220
0
230
1
0
LINE
5
AD
100
AcDbEntity
8
1
62
256
6
ByLayer
370
18
48
1
60
0
100
AcDbLine
10
40.324519
20
29.853982
30
0
11
40.324519
21
29.646315
31
0
39
0
210
0
220
0
230
1
0
LINE
5
AE
100
AcDbEntity
8
1
62
256
6
ByLayer
370
18
48
1
60
0
100
AcDbLine
10
39.605481
20
-8.650117
30
0
11
39.605481
21
-8.672581
31
0
39
0
210
0
220
0
230
1
0
LINE
5
AF
100
AcDbEntity
8
1
62
256
6
ByLayer
370
18
48
1
60
0
100
AcDbLine
10
39.605481
20
30.672581
30
0
11
39.605481
21
30.650117
31
0
39
0
210
0
220
0
230
1
0
LINE
5
B0
100
AcDbEntity
8
1
62
256
6
ByLayer
370
18
48
1
60
0
100
AcDbLine
10
40.249519
20
-7.967842
30
0
11
40.249519
21
-8.049761
31
0
39
0
210
0
220
0
230
1
0
LINE
5
B1
100
AcDbEntity
8
1
62
256
6
ByLayer
370
18
48
1
60
0
100
AcDbLine
10
40.249519
20
30.049761
30
0
11
40.249519
21
29.967842
31
0
39
0
210
0
220
0
230
1
0
LINE
5
B2
100
AcDbEntity
8
1
62
256
6
ByLayer
370
18
48
1
60
0
100
AcDbLine
10
40.324519
20
29.980931
30
0
11
40.324519
21
29.878081
31
0
39
0
210
0
220
0
230
1
0
LINE
5
B3
100
AcDbEntity
8
1
62
256
6
ByLayer
370
18
48
1
60
0
100
AcDbLine
10
40.324519
20
-7.878081
30
0
11
40.324519
21
-7.980931
31
0
39
0
210
0
220
0
230
1
0
LINE
5
B4
100
AcDbEntity
8
1
62
256
6
ByLayer
370
18
48
1
60
0
100
AcDbLine
10
39.520481
20
-8.804038
30
0
11
39.52231
21
-8.802193
31
0
39
0
210
0
220
0
230
1
0
LINE
5
B5
100
AcDbEntity
8
1
62
256
6
ByLayer
370
18
48
1
60
0
100
AcDbLine
10
39.324519
20
-9
30
0
11
39.324519
21
31
31
0
39
0
210
0
220
0
230
1
0
LINE
5
B6
100
AcDbEntity
8
1
62
256
6
ByLayer
370
18
48
1
60
0
100
AcDbLine
10
51
20
16.3995
30
0
11
51
21
25.3995
31
0
39
0
210
0
220
0
230
1
0
LINE
5
B7
100
AcDbEntity
8
1
62
256
6
ByLayer
370
18
48
1
60
0
100
AcDbLine
10
50.5
20
15.8995
30
0
11
50.5
21
25.8995
31
0
39
0
210
0
220
0
230
1
0
LINE
5
B8
100
AcDbEntity
8
1
62
256
6
ByLayer
370
18
48
1
60
0
100
AcDbLine
10
50.5
20
-3.8995
30
0
11
50.5
21
6.1005
31
0
39
0
210
0
220
0
230
1
0
LINE
5
B9
100
AcDbEntity
8
1
62
256
6
ByLayer
370
18
48
1
60
0
100
AcDbLine
10
45
20
15.8995
30
0
11
45
21
25.8995
31
0
39
0
210
0
220
0
230
1
0
LINE
5
BA
100
AcDbEntity
8
1
62
256
6
ByLayer
370
18
48
1
60
0
100
AcDbLine
10
45
20
-3.8995
30
0
11
45
21
6.1005
31
0
39
0
210
0
220
0
230
1
0
LINE
5
BB
100
AcDbEntity
8
1
62
256
6
ByLayer
370
18
48
1
60
0
100
AcDbLine
10
51
20
-3.3995
30
0
11
51
21
5.6005
31
0
39
0
210
0
220
0
230
1
0
LINE
5
BC
100
AcDbEntity
8
1
62
256
6
ByLayer
370
18
48
1
60
0
100
AcDbLine
10
40.324519
20
-4.2366
30
0
11
40.324519
21
26.2366
31
0
39
0
210
0
220
0
230
1
0
LINE
5
BD
100
AcDbEntity
8
1
62
256
6
ByLayer
370
18
48
1
60
0
100
AcDbLine
10
50.5
20
-3.8995
30
0
11
51
21
-3.3995
31
0
39
0
210
0
220
0
230
1
0
LINE
5
BE
100
AcDbEntity
8
1
62
256
6
ByLayer
370
18
48
1
60
0
100
AcDbLine
10
50.5
20
15.8995
30
0
11
51
21
16.3995
31
0
39
0
210
0
220
0
230
1
0
LINE
5
BF
100
AcDbEntity
8
1
62
256
6
ByLayer
370
18
48
1
60
0
100
AcDbLine
10
40.324519
20
-1.8995
30
0
11
45
21
-1.8995
31
0
39
0
210
0
220
0
230
1
0
LINE
5
C0
100
AcDbEntity
8
1
62
256
6
ByLayer
370
18
48
1
60
0
100
AcDbLine
10
45
20
-3.8995
30
0
11
50.5
21
-3.8995
31
0
39
0
210
0
220
0
230
1
0
LINE
5
C1
100
AcDbEntity
8
1
62
256
6
ByLayer
370
18
48
1
60
0
100
AcDbLine
10
45
20
6.1005
30
0
11
50.5
21
6.1005
31
0
39
0
210
0
220
0
230
1
0
LINE
5
C2
100
AcDbEntity
8
1
62
256
6
ByLayer
370
18
48
1
60
0
100
AcDbLine
10
40.324519
20
23.8995
30
0
11
45
21
23.8995
31
0
39
0
210
0
220
0
230
1
0
LINE
5
C3
100
AcDbEntity
8
1
62
256
6
ByLayer
370
18
48
1
60
0
100
AcDbLine
10
40.324519
20
17.8995
30
0
11
45
21
17.8995
31
0
39
0
210
0
220
0
230
1
0
LINE
5
C4
100
AcDbEntity
8
1
62
256
6
ByLayer
370
18
48
1
60
0
100
AcDbLine
10
45
20
15.8995
30
0
11
50.5
21
15.8995
31
0
39
0
210
0
220
0
230
1
0
LINE
5
C5
100
AcDbEntity
8
1
62
256
6
ByLayer
370
18
48
1
60
0
100
AcDbLine
10
45
20
25.8995
30
0
11
50.5
21
25.8995
31
0
39
0
210
0
220
0
230
1
0
LINE
5
C6
100
AcDbEntity
8
1
62
256
6
ByLayer
370
18
48
1
60
0
100
AcDbLine
10
40.324519
20
4.1005
30
0
11
45
21
4.1005
31
0
39
0
210
0
220
0
230
1
0
LINE
5
C7
100
AcDbEntity
8
1
62
256
6
ByLayer
370
18
48
1
60
0
100
AcDbLine
10
50.5
20
6.1005
30
0
11
51
21
5.6005
31
0
39
0
210
0
220
0
230
1
0
LINE
5
C8
100
AcDbEntity
8
1
62
256
6
ByLayer
370
18
48
1
60
0
100
AcDbLine
10
50.5
20
25.8995
30
0
11
51
21
25.3995
31
0
39
0
210
0
220
0
230
1
0
LINE
5
C9
100
AcDbEntity
8
1
62
256
6
ByLayer
370
18
48
1
60
0
100
AcDbLine
10
39.824519
20
-4.2366
30
0
11
39.824519
21
26.2366
31
0
39
0
210
0
220
0
230
1
0
LINE
5
CA
100
AcDbEntity
8
81
62
256
6
ByLayer
370
18
48
1
60
0
100
AcDbLine
10
40
20
11
30
0
11
45
21
11
31
0
39
0
210
0
220
0
230
1
0
LINE
5
CB
100
AcDbEntity
8
80
62
256
6
ByLayer
370
13
48
1
60
0
100
AcDbLine
10
0
20
0
30
0
11
-7
21
0
31
0
39
0
210
0
220
0
230
1
0
LINE
5
CC
100
AcDbEntity
8
1
62
256
6
ByLayer
370
18
48
0.05
60
1
100
AcDbLine
10
39.324519
20
-9
30
0
11
23.4
21
-9
31
0
39
0
210
0
220
0
230
1
0
LINE
5
CD
100
AcDbEntity
8
1
62
256
6
ByLayer
370
18
48
1
60
0
100
AcDbLine
10
0
20
-24.7
30
0
11
0
21
24.7
31
0
39
0
210
0
220
0
230
1
0
LINE
5
CE
100
AcDbEntity
8
SK1
62
256
6
ByLayer
370
18
48
1
60
0
100
AcDbLine
10
-30
20
-15.970112
30
0
11
-30
21
15.970112
31
0
39
0
210
0
220
0
230
1
0
LINE
5
D0
100
AcDbEntity
8
SK1
62
256
6
ByLayer
370
18
48
1
60
0
100
AcDbLine
10
-2.1
20
17.528142
30
0
11
-2.1
21
-17.528142
31
0
39
0
210
0
220
0
230
1
0
LINE
5
D1
100
AcDbEntity
8
SK1
62
256
6
ByLayer
370
18
48
1
60
0
100
AcDbLine
10
-28.5
20
-16.836137
30
0
11
-28.5
21
16.836137
31
0
39
0
210
0
220
0
230
1
0
LINE
5
D2
100
AcDbEntity
8
SK1
62
256
6
ByLayer
370
18
48
1
60
0
100
AcDbLine
10
-28.5
20
-16.836137
30
0
11
-2.094298
21
-17.528292
31
0
39
0
210
0
220
0
230
1
0
LINE
5
D3
100
AcDbEntity
8
SK1
62
256
6
ByLayer
370
18
48
1
60
0
100
AcDbLine
10
-28.5
20
16.836137
30
0
11
-2.094298
21
17.528292
31
0
39
0
210
0
220
0
230
1
0
LINE
5
D4
100
AcDbEntity
8
SK1
62
256
6
ByLayer
370
18
48
1
60
0
100
AcDbLine
10
-30
20
15.970112
30
0
11
-28.5
21
16.836137
31
0
39
0
210
0
220
0
230
1
0
LINE
5
D5
100
AcDbEntity
8
SK1
62
256
6
ByLayer
370
18
48
1
60
0
100
AcDbLine
10
-30
20
-15.970112
30
0
11
-28.5
21
-16.836137
31
0
39
0
210
0
220
0
230
1
0
LINE
5
D6
100
AcDbEntity
8
1
62
256
6
ByLayer
370
18
48
1
60
0
100
AcDbLine
10
0
20
24.7
30
0
11
0.3
21
25
31
0
39
0
210
0
220
0
230
1
0
LINE
5
D7
100
AcDbEntity
8
1
62
256
6
ByLayer
370
18
48
1
60
0
100
AcDbLine
10
0
20
-24.7
30
0
11
0.3
21
-25
31
0
39
0
210
0
220
0
230
1
0
LINE
5
D8
100
AcDbEntity
8
1
62
256
6
ByLayer
370
18
48
1
60
0
100
AcDbLine
10
8.538675
20
-7.529667
30
0
11
8.538675
21
-23.83913
31
0
39
0
210
0
220
0
230
1
0
LINE
5
D9
100
AcDbEntity
8
1
62
256
6
ByLayer
370
18
48
1
60
0
100
AcDbLine
10
8.538675
20
7.529667
30
0
11
8.538675
21
23.83913
31
0
39
0
210
0
220
0
230
1
0
LINE
5
DA
100
AcDbEntity
8
1
62
256
6
ByLayer
370
18
48
1
60
0
100
AcDbLine
10
11.461325
20
-7.529667
30
0
11
11.461325
21
-23.83913
31
0
39
0
210
0
220
0
230
1
0
LINE
5
DB
100
AcDbEntity
8
1
62
256
6
ByLayer
370
18
48
1
60
0
100
AcDbLine
10
11.461325
20
7.529667
30
0
11
11.461325
21
23.83913
31
0
39
0
210
0
220
0
230
1
0
LINE
5
DC
100
AcDbEntity
8
1
62
256
6
ByLayer
370
18
48
0.05
60
1
100
AcDbLine
10
15.809615
20
-25
30
0
11
0.3
21
-25
31
0
39
0
210
0
220
0
230
1
0
LINE
5
DD
100
AcDbEntity
8
1
62
256
6
ByLayer
370
18
48
0.05
60
1
100
AcDbLine
10
19.999975
20
-19.743558
30
0
11
19.999975
21
16.670228
31
0
39
0
210
0
220
0
230
1
0
LINE
5
DE
100
AcDbEntity
8
1
62
256
6
ByLayer
370
18
48
0.05
60
1
100
AcDbLine
10
39.324519
20
25
30
0
11
0.3
21
25
31
0
39
0
210
0
220
0
230
1
0
LINE
5
DF
100
AcDbEntity
8
SK4
62
256
6
ByLayer
370
13
48
0.05
60
0
100
AcDbLine
10
42.066785
20
0
30
0
11
-31.557245
21
0
31
0
39
0
210
0
220
0
230
1
0
LINE
5
E1
100
AcDbEntity
8
4
62
256
6
ByLayer
370
13
48
0.05
60
0
100
AcDbLine
10
0
20
0
30
0
11
40.324519
21
0
31
0
39
0
210
0
220
0
230
1
0
LINE
5
E3
100
AcDbEntity
8
1
62
256
6
ByLayer
370
18
48
1
60
0
100
AcDbLine
10
15.809615
20
-25
30
0
11
0.3
21
-25
31
0
39
0
210
0
220
0
230
1
0
LINE
5
E4
100
AcDbEntity
8
1
62
256
6
ByLayer
370
18
48
1
60
0
100
AcDbLine
10
19.999975
20
-25
30
0
11
0.3
21
-25
31
0
39
0
210
0
220
0
230
1
0
LINE
5
E5
100
AcDbEntity
8
1
62
256
6
ByLayer
370
18
48
0.05
60
1
100
AcDbLine
10
19.999975
20
-25
30
0
11
19.999975
21
16.670228
31
0
39
0
210
0
220
0
230
1
0
LINE
5
E6
100
AcDbEntity
8
1
62
256
6
ByLayer
370
18
48
1
60
0
100
AcDbLine
10
19.999975
20
25
30
0
11
19.999975
21
0
31
0
39
0
210
0
220
0
230
1
0
LINE
5
E7
100
AcDbEntity
8
1
62
256
6
ByLayer
370
18
48
1
60
0
100
AcDbLine
10
26.1819
20
-9
30
0
11
39.324519
21
-9
31
0
39
0
210
0
220
0
230
1
0
LINE
5
E8
100
AcDbEntity
8
1
62
256
6
ByLayer
370
18
48
1
60
0
100
AcDbLine
10
19.999975
20
0
30
0
11
19.999975
21
-25
31
0
39
0
210
0
220
0
230
1
0
LINE
5
E9
100
AcDbEntity
8
1
62
256
6
ByLayer
370
18
48
1
60
0
100
AcDbLine
10
19.999975
20
25
30
0
11
0.3
21
25
31
0
39
0
210
0
220
0
230
1
0
LINE
5
EA
100
AcDbEntity
8
1
62
256
6
ByLayer
370
18
48
0.05
60
1
100
AcDbLine
10
39.324519
20
31
30
0
11
19.624544
21
31
31
0
39
0
210
0
220
0
230
1
0
LINE
5
EB
100
AcDbEntity
8
1
62
256
6
ByLayer
370
18
48
0.05
60
1
100
AcDbLine
10
29
20
-24.7
30
0
11
29
21
24.7
31
0
39
0
210
0
220
0
230
1
0
LINE
5
EC
100
AcDbEntity
8
1
62
256
6
ByLayer
370
18
48
0.05
60
1
100
AcDbLine
10
29
20
31
30
0
11
29
21
-24.7
31
0
39
0
210
0
220
0
230
1
0
LINE
5
ED
100
AcDbEntity
8
1
62
256
6
ByLayer
370
18
48
0.05
60
1
100
AcDbLine
10
29
20
31
30
0
11
39.324519
21
31
31
0
39
0
210
0
220
0
230
1
0
LINE
5
EE
100
AcDbEntity
8
1
62
256
6
ByLayer
370
18
48
0.05
60
1
100
AcDbLine
10
28.845291
20
31.225821
30
0
11
19.999975
21
25
31
0
39
0
210
0
220
0
230
1
0
LINE
5
EF
100
AcDbEntity
8
1
62
256
6
ByLayer
370
18
48
1
60
0
100
AcDbLine
10
28.524457
20
31
30
0
11
39.324519
21
31
31
0
39
0
210
0
220
0
230
1
0
LINE
5
F0
100
AcDbEntity
8
1
62
256
6
ByLayer
370
18
48
1
60
0
100
AcDbLine
10
28.524457
20
31
30
0
11
19.999975
21
25
31
0
39
0
210
0
220
0
230
1
0
MTEXT
5
1B3
100
AcDbEntity
8
SK6
62
256
6
ByLayer
370
18
48
1
60
0
100
AcDbMText
10
6.621111
20
-34.34333
30
0
210
0
220
0
230
1
1
\W0.7173;C5-570-40-RG
40
3.5
41
0
44
1.084337
50
0
71
7
72
5
7
iso_b_vert
0
DIMENSION
5
1C1
100
AcDbEntity
8
2
62
256
6
ByLayer
370
13
48
1
60
0
100
AcDbDimension
2
DimnDraft3D1
10
40
20
52.103888
30
0
11
18.089469
21
52.103888
31
0
70
32
71
5
72
1
41
1
210
0
220
0
230
1
3
Standard
100
AcDbAlignedDimension
13
0
23
1.5875
33
0
14
40
24
12.5875
34
0
50
0
100
AcDbRotatedDimension
1001
ACAD
1000
DSTYLE
1002
{
1070
   279
1070
     0
1070
   172
1070
     1
1070
   173
1070
     1
1070
   340
1005
1B4
1070
   271
1070
     6
1070
    77
1070
     1
1070
    73
1070
     0
1070
   171
1070
     3
1070
   274
1070
     4
1070
   177
1070
   254
1070
   176
1070
   254
1070
   178
1070
   254
1070
    78
1070
     8
1070
    41
1041
3.175
1070
   147
1041
1.500003
1070
    42
1041
1.5875
1070
    44
1041
3.175
1070
   140
1041
3.000007
1070
   343
1005
0
1070
   344
1005
0
1002
}
0
DIMENSION
5
1CC
100
AcDbEntity
8
SK2
62
256
6
ByLayer
370
13
48
1
60
0
100
AcDbDimension
2
DimnDraft3D2
10
-30
20
62.024212
30
0
11
3.159624
21
62.024212
31
0
70
32
71
5
72
1
41
1
210
0
220
0
230
1
3
Standard
100
AcDbAlignedDimension
13
39.824519
23
27.8241
33
0
14
-30
24
17.557612
34
0
50
0
100
AcDbRotatedDimension
1001
ACAD
1000
DSTYLE
1002
{
1070
   279
1070
     0
1070
   172
1070
     1
1070
   173
1070
     1
1070
   340
1005
1B4
1070
   271
1070
     0
1070
    77
1070
     1
1070
    73
1070
     0
1070
   171
1070
     3
1070
   274
1070
     4
1070
   177
1070
   254
1070
   176
1070
   254
1070
   178
1070
   254
1070
    78
1070
     8
1070
    41
1041
3.175
1070
   147
1041
1.500003
1070
    42
1041
1.5875
1070
    44
1041
3.175
1070
   140
1041
3.000007
1070
   343
1005
0
1070
   344
1005
0
1002
}
0
DIMENSION
5
1D6
100
AcDbEntity
8
SK2
62
256
6
ByLayer
370
13
48
1
60
0
100
AcDbDimension
2
DimnDraft3D3
10
65.493315
20
-9
30
0
11
65.493315
21
6.768412
31
0
70
32
71
5
72
1
41
1
210
0
220
0
230
1
3
Standard
100
AcDbAlignedDimension
13
40.912019
23
31
33
0
14
40.912019
24
-9
34
0
50
90
100
AcDbRotatedDimension
1001
ACAD
1000
DSTYLE
1002
{
1070
    74
1070
     0
1070
   279
1070
     0
1070
   172
1070
     1
1070
   173
1070
     1
1070
   340
1005
1B4
1070
    77
1070
     1
1070
    73
1070
     0
1070
   171
1070
     3
1070
   274
1070
     4
1070
   177
1070
   254
1070
   176
1070
   254
1070
   178
1070
   254
1070
    78
1070
     8
1070
    41
1041
3.175
1070
   147
1041
1.500003
1070
    42
1041
1.5875
1070
    44
1041
3.175
1070
   140
1041
3.000007
1070
   343
1005
0
1070
   344
1005
0
1002
}
0
DIMENSION
5
1E4
100
AcDbEntity
8
SK2
62
256
6
ByLayer
370
13
48
1
60
0
100
AcDbDimension
2
DimnDraft3D4
10
-41.043796
20
25
30
0
11
-41.043796
21
-4.073684
31
0
70
32
71
5
72
1
41
1
210
0
220
0
230
1
3
Standard
100
AcDbAlignedDimension
13
-1.2
23
-25
33
0
14
-1.2
24
25
34
0
50
90
100
AcDbRotatedDimension
1001
ACAD
1000
DSTYLE
1002
{
1070
    74
1070
     0
1070
   279
1070
     0
1070
   173
1070
     1
1070
   340
1005
1B4
1070
   271
1070
     0
1070
   272
1070
     2
1070
    77
1070
     1
1070
    73
1070
     0
1070
   171
1070
     4
1070
   274
1070
     4
1070
   177
1070
   254
1070
   176
1070
   254
1070
   178
1070
   254
1070
    41
1041
3.0
1070
   147
1041
1.5
1070
    42
1041
1.5
1070
    44
1041
3.0
1070
   140
1041
3.0
1070
   343
1005
1E5
1070
   344
1005
1E5
1002
}
0
DIMENSION
5
1F9
100
AcDbEntity
8
SK2
62
256
6
ByLayer
370
18
48
1
60
0
100
AcDbDimension
2
DimnDraft3D5
10
29
20
37.212291
30
0
11
12.747368
21
37.212291
31
0
70
32
71
5
72
1
41
1
210
0
220
0
230
1
3
Standard
100
AcDbAlignedDimension
13
0
23
26.7
33
0
14
29
24
33
34
0
50
0
100
AcDbRotatedDimension
1001
ACAD
1000
DSTYLE
1002
{
1070
   279
1070
     0
1070
   172
1070
     1
1070
   173
1070
     1
1070
   340
1005
1B4
1070
   271
1070
     0
1070
    77
1070
     1
1070
    73
1070
     0
1070
   171
1070
     3
1070
   274
1070
     4
1070
   177
1070
   254
1070
   176
1070
   254
1070
   178
1070
   254
1070
    78
1070
     8
1070
    41
1041
3.175
1070
   147
1041
1.5
1070
    42
1041
2.0
1070
    44
1041
2.0
1070
   140
1041
3.0
1070
   343
1005
1E5
1070
   344
1005
1E5
1002
}
0
DIMENSION
5
207
100
AcDbEntity
8
SK2
62
256
6
ByLayer
370
18
48
1
60
0
100
AcDbDimension
2
DimnDraft3D6
10
19.999975
20
25
30
0
11
52.571508
21
38.614317
31
0
70
34
71
5
72
1
41
1
210
0
220
0
230
1
3
Standard
100
AcDb2LineAngularDimension
13
29
23
31
33
0
14
39.324519
24
31
34
0
15
28.845291
25
31.225821
35
0
16
49.711462
26
37.708705
36
0
40
0
0
ENDSEC
0
SECTION
2
OBJECTS
0
DICTIONARY
5
272
330
0
100
AcDbDictionary
280
0
281
1
3
ACAD_GROUP
350
273
3
ACAD_MLINESTYLE
350
274
0
DICTIONARY
5
273
330
0
100
AcDbDictionary
280
0
281
1
0
DICTIONARY
5
274
330
0
100
AcDbDictionary
280
0
281
1
3
Standard
350
18
0
MLINESTYLE
5
18
330
274
100
AcDbMlineStyle
2
Standard
70
0
3

62
256
51
90
52
90
71
2
49
-0.5
62
256
6
ByLayer
49
0.5
62
256
6
ByLayer
0
RASTERVARIABLES
5
260
330

100
AcDbRasterVariables
90
0
70
1
71
1
72
1
0
ENDSEC
0
EOF
