0
SECTION
2
HEADER
9
$ACADVER
1
AC1015
9
$DWGCODEPAGE
3
ANSI_1252
9
$HANDSEED
5
17f
9
$ANGBASE
50
0
9
$ANGDIR
70
0
9
$ATTMODE
70
1
9
$AUNITS
70
0
9
$AUPREC
70
0
9
$CECOLOR
62
256
9
$CELTSCALE
40
1
9
$CELTYPE
6
ByLayer
9
$CELWEIGHT
370
18
9
$CLAYER
8
0
9
$CMLJUST
70
0
9
$CMLSCALE
40
1
9
$CMLSTYLE
2
Standard
9
$DIMSTYLE
2
Standard
9
$TEXTSIZE
40
0.2
9
$TEXTSTYLE
7
Standard
9
$LUNITS
70
2
9
$LUPREC
70
4
9
$EXTNAMES
290
1
9
$INSUNITS
70
4
9
$LTSCALE
40
1
9
$LWDISPLAY
290
1
9
$PDMODE
70
0
9
$PDSIZE
40
0
9
$PLINEGEN
70
0
0
ENDSEC
0
SECTION
2
CLASSES
0
CLASS
1
RASTERVARIABLES
2
AcDbRasterVariables
3
ISM
90
0
280
0
281
0
0
ENDSEC
0
SECTION
2
TABLES
0
TABLE
2
VPORT
5
175
100
AcDbSymbolTable
0
VPORT
5
1
100
AcDbSymbolTableRecord
100
AcDbViewportTableRecord
2
*Active
70
0
10
0
20
0
11
1
21
1
12
-1
22
1
13
0
23
0
14
0.5
24
0.5
15
10
25
10
16
0
26
0
36
1
17
0
27
0
37
0
0
ENDTAB
0
TABLE
2
LTYPE
5
176
100
AcDbSymbolTable
0
LTYPE
5
14
100
AcDbSymbolTableRecord
100
AcDbLinetypeTableRecord
70
0
2
ByBlock
3

72
65
73
0
40
0
0
LTYPE
5
15
100
AcDbSymbolTableRecord
100
AcDbLinetypeTableRecord
70
0
2
ByLayer
3

72
65
73
0
40
0
0
LTYPE
5
16
100
AcDbSymbolTableRecord
100
AcDbLinetypeTableRecord
70
0
2
CONTINUOUS
3
Solid line
72
65
73
0
40
0
0
LTYPE
5
6A
100
AcDbSymbolTableRecord
100
AcDbLinetypeTableRecord
70
0
2
CENTER
3
____ _ ____ _ ____ _ ____
72
65
73
4
40
47.5
49
22
74
0
49
-8.5
74
0
49
8.5
74
0
49
-8.5
74
0
0
LTYPE
5
6B
100
AcDbSymbolTableRecord
100
AcDbLinetypeTableRecord
70
0
2
DASHED
3
__ __ __ __ __ __ __ __ __
72
65
73
2
40
25.72
49
12.86
74
0
49
-12.86
74
0
0
ENDTAB
0
TABLE
2
LAYER
5
177
100
AcDbSymbolTable
0
LAYER
5
10
100
AcDbSymbolTableRecord
100
AcDbLayerTableRecord
2
0
70
0
62
7
6
CONTINUOUS
290
1
370
-3
390
0
0
LAYER
5
6D
100
AcDbSymbolTableRecord
100
AcDbLayerTableRecord
2
80
70
0
62
-6
6
CONTINUOUS
290
1
370
-3
390
0
0
LAYER
5
6F
100
AcDbSymbolTableRecord
100
AcDbLayerTableRecord
2
81
70
0
62
-3
6
CONTINUOUS
290
1
370
-3
390
0
0
LAYER
5
74
100
AcDbSymbolTableRecord
100
AcDbLayerTableRecord
2
1
70
0
62
4
6
CONTINUOUS
290
1
370
-3
390
0
0
LAYER
5
B0
100
AcDbSymbolTableRecord
100
AcDbLayerTableRecord
2
4
70
0
62
-2
6
CENTER
290
1
370
-3
390
0
0
LAYER
5
F4
100
AcDbSymbolTableRecord
100
AcDbLayerTableRecord
2
2
70
0
62
7
6
CONTINUOUS
290
1
370
-3
390
0
0
LAYER
5
161
100
AcDbSymbolTableRecord
100
AcDbLayerTableRecord
2
SK1
70
0
62
4
6
CONTINUOUS
290
1
370
-3
390
0
0
LAYER
5
162
100
AcDbSymbolTableRecord
100
AcDbLayerTableRecord
2
SK4
70
0
62
2
6
CENTER
290
1
370
-3
390
0
0
LAYER
5
163
100
AcDbSymbolTableRecord
100
AcDbLayerTableRecord
2
SK6
70
0
62
5
6
CONTINUOUS
290
1
370
-3
390
0
0
LAYER
5
164
100
AcDbSymbolTableRecord
100
AcDbLayerTableRecord
2
SK2
70
0
62
7
6
CONTINUOUS
290
1
370
-3
390
0
0
ENDTAB
0
TABLE
2
STYLE
5
178
100
AcDbSymbolTable
0
STYLE
5
11
100
AcDbSymbolTableRecord
100
AcDbTextStyleTableRecord
2
Standard
3
txt
70
0
71
0
40
0
41
1
42
0
50
0
0
STYLE
5
D9
100
AcDbSymbolTableRecord
100
AcDbTextStyleTableRecord
2
iso_b_vert
3
simplex.shx
70
0
71
0
40
0
41
1
42
0
50
0
0
STYLE
5
DA
100
AcDbSymbolTableRecord
100
AcDbTextStyleTableRecord
2
DWGDirectTextStyle
3
simplex
70
0
71
0
40
0
41
1
42
0
50
0
0
ENDTAB
0
TABLE
2
DIMSTYLE
5
179
100
AcDbSymbolTable
100
AcDbDimStyleTable
0
DIMSTYLE
105
27
100
AcDbSymbolTableRecord
100
AcDbDimStyleTableRecord
2
Standard
70
0
3
<>
41
0.18
42
0.0625
44
0.18
140
0.18
147
0.09
73
0
74
0
77
1
271
2
275
0
278
52
280
0
340
11
0
ENDTAB
0
TABLE
2
VIEW
5
17a
100
AcDbSymbolTable
0
ENDTAB
0
TABLE
2
UCS
5
17b
100
AcDbSymbolTable
0
ENDTAB
0
TABLE
2
APPID
5
17c
100
AcDbSymbolTable
0
APPID
5
12
100
AcDbSymbolTableRecord
100
AcDbRegAppTableRecord
2
ACAD
70
0
0
ENDTAB
0
TABLE
2
BLOCK_RECORD
5
17d
100
AcDbSymbolTable
0
BLOCK_RECORD
5
1F
100
AcDbSymbolTableRecord
100
AcDbBlockTableRecord
2
*Model_Space
340
0
70
0
0
BLOCK_RECORD
5
1B
100
AcDbSymbolTableRecord
100
AcDbBlockTableRecord
2
*Paper_Space
340
0
70
0
0
BLOCK_RECORD
5
23
100
AcDbSymbolTableRecord
100
AcDbBlockTableRecord
2
*Paper_Space0
340
0
70
0
0
BLOCK_RECORD
5
DC
100
AcDbSymbolTableRecord
100
AcDbBlockTableRecord
2
DimnDraft3D1
340
0
70
0
0
BLOCK_RECORD
5
E8
100
AcDbSymbolTableRecord
100
AcDbBlockTableRecord
2
DimnDraft3D2
340
0
70
0
0
BLOCK_RECORD
5
F2
100
AcDbSymbolTableRecord
100
AcDbBlockTableRecord
2
DimnDraft3D3
340
0
70
0
0
BLOCK_RECORD
5
FD
100
AcDbSymbolTableRecord
100
AcDbBlockTableRecord
2
DimnDraft3D4
340
0
70
0
0
ENDTAB
0
ENDSEC
0
SECTION
2
BLOCKS
0
BLOCK
5
20
100
AcDbEntity
8
0
100
AcDbBlockBegin
2
*Model_Space
70
0
10
0
20
0
30
0
3
*Model_Space
0
ENDBLK
5
21
100
AcDbEntity
8
0
100
AcDbBlockEnd
0
BLOCK
5
1C
100
AcDbEntity
8
0
100
AcDbBlockBegin
2
*Paper_Space
70
0
10
0
20
0
30
0
3
*Paper_Space
0
ENDBLK
5
1D
100
AcDbEntity
8
0
100
AcDbBlockEnd
0
BLOCK
5
24
100
AcDbEntity
8
0
100
AcDbBlockBegin
2
*Paper_Space0
70
0
10
0
20
0
30
0
3
*Paper_Space0
0
ENDBLK
5
25
100
AcDbEntity
8
0
100
AcDbBlockEnd
0
BLOCK
5
E5
100
AcDbEntity
8
0
100
AcDbBlockBegin
2
DimnDraft3D1
70
0
10
0
20
0
30
0
3
DimnDraft3D1
0
MTEXT
5
DD
100
AcDbEntity
8
SK2
62
256
6
ByLayer
370
18
48
1
60
0
100
AcDbMText
10
-45
20
2.897368
30
0
210
0
220
0
230
1
1
\W0.6563;50
40
3
41
0
44
1.084337
50
90
71
7
72
5
7
iso_b_vert
0
MTEXT
5
DF
100
AcDbEntity
8
SK2
62
256
6
ByLayer
370
18
48
1
60
0
100
AcDbMText
10
-45
20
-3.379194
30
0
210
0
220
0
230
1
1
%%c
40
3
41
0
44
1.084337
50
90
71
7
72
5
7
iso_b_vert
0
LINE
5
E0
100
AcDbEntity
8
SK2
62
256
6
ByLayer
370
13
48
1
60
0
100
AcDbLine
10
-1.7
20
-25
30
0
11
-45.5
21
-25
31
0
39
0
210
0
220
0
230
1
0
LINE
5
E1
100
AcDbEntity
8
SK2
62
256
6
ByLayer
370
13
48
1
60
0
100
AcDbLine
10
-1.7
20
25
30
0
11
-45.5
21
25
31
0
39
0
210
0
220
0
230
1
0
LINE
5
E2
100
AcDbEntity
8
SK2
62
256
6
ByLayer
370
13
48
1
60
0
100
AcDbLine
10
-43.5
20
-25
30
0
11
-43.5
21
25
31
0
39
0
210
0
220
0
230
1
0
SOLID
5
E3
100
AcDbEntity
8
SK2
62
256
6
ByLayer
370
13
48
1
60
0
100
AcDbTrace
10
-43.5
20
-25
30
0
11
-43.833706
21
-21.825001
31
0
12
-43.166294
22
-21.824999
32
0
13
-43.5
23
-25
33
0
39
0
210
0
220
0
230
1
0
SOLID
5
E4
100
AcDbEntity
8
SK2
62
256
6
ByLayer
370
13
48
1
60
0
100
AcDbTrace
10
-43.5
20
25
30
0
11
-43.166294
21
21.825001
31
0
12
-43.833706
22
21.824999
32
0
13
-43.5
23
25
33
0
39
0
210
0
220
0
230
1
0
ENDBLK
5
E6
100
AcDbEntity
8
0
100
AcDbBlockEnd
0
BLOCK
5
EF
100
AcDbEntity
8
0
100
AcDbBlockBegin
2
DimnDraft3D2
70
0
10
0
20
0
30
0
3
DimnDraft3D2
0
MTEXT
5
E9
100
AcDbEntity
8
SK2
62
256
6
ByLayer
370
18
48
1
60
0
100
AcDbMText
10
63.131705
20
12.497368
30
0
210
0
220
0
230
1
1
\W0.6563;27
40
3
41
0
44
1.084337
50
90
71
7
72
5
7
iso_b_vert
0
LINE
5
EA
100
AcDbEntity
8
SK2
62
256
6
ByLayer
370
13
48
1
60
0
100
AcDbLine
10
53.245252
20
0
30
0
11
65.881705
21
0
31
0
39
0
210
0
220
0
230
1
0
LINE
5
EB
100
AcDbEntity
8
SK2
62
256
6
ByLayer
370
13
48
1
60
0
100
AcDbLine
10
33
20
27
30
0
11
65.881705
21
27
31
0
39
0
210
0
220
0
230
1
0
LINE
5
EC
100
AcDbEntity
8
SK2
62
256
6
ByLayer
370
13
48
1
60
0
100
AcDbLine
10
63.881705
20
0
30
0
11
63.881705
21
27
31
0
39
0
210
0
220
0
230
1
0
SOLID
5
ED
100
AcDbEntity
8
SK2
62
256
6
ByLayer
370
13
48
1
60
0
100
AcDbTrace
10
63.881705
20
0
30
0
11
63.547999
21
3.174999
31
0
12
64.215411
22
3.175001
32
0
13
63.881705
23
0
33
0
39
0
210
0
220
0
230
1
0
SOLID
5
EE
100
AcDbEntity
8
SK2
62
256
6
ByLayer
370
13
48
1
60
0
100
AcDbTrace
10
63.881705
20
27
30
0
11
64.215411
21
23.825001
31
0
12
63.547999
22
23.824999
32
0
13
63.881705
23
27
33
0
39
0
210
0
220
0
230
1
0
ENDBLK
5
F0
100
AcDbEntity
8
0
100
AcDbBlockEnd
0
BLOCK
5
FA
100
AcDbEntity
8
0
100
AcDbBlockBegin
2
DimnDraft3D3
70
0
10
0
20
0
30
0
3
DimnDraft3D3
0
MTEXT
5
F3
100
AcDbEntity
8
2
62
256
6
ByLayer
370
18
48
1
60
0
100
AcDbMText
10
14.832895
20
55.852363
30
0
210
0
220
0
230
1
1
\W0.6351;31
40
3
41
0
44
1.084337
50
0
71
7
72
5
7
iso_b_vert
0
LINE
5
F5
100
AcDbEntity
8
2
62
256
6
ByLayer
370
13
48
1
60
0
100
AcDbLine
10
0
20
26.7
30
0
11
0
21
57.102363
31
0
39
0
210
0
220
0
230
1
0
LINE
5
F6
100
AcDbEntity
8
2
62
256
6
ByLayer
370
13
48
1
60
0
100
AcDbLine
10
31
20
34
30
0
11
31
21
57.102363
31
0
39
0
210
0
220
0
230
1
0
LINE
5
F7
100
AcDbEntity
8
2
62
256
6
ByLayer
370
13
48
1
60
0
100
AcDbLine
10
0
20
55.102363
30
0
11
31
21
55.102363
31
0
39
0
210
0
220
0
230
1
0
SOLID
5
F8
100
AcDbEntity
8
2
62
256
6
ByLayer
370
13
48
1
60
0
100
AcDbTrace
10
0
20
55.102363
30
0
11
3.174999
21
55.436069
31
0
12
3.175001
22
54.768657
32
0
13
0
23
55.102363
33
0
39
0
210
0
220
0
230
1
0
SOLID
5
F9
100
AcDbEntity
8
2
62
256
6
ByLayer
370
13
48
1
60
0
100
AcDbTrace
10
31
20
55.102363
30
0
11
27.825001
21
54.768657
31
0
12
27.824999
22
55.436069
32
0
13
31
23
55.102363
33
0
39
0
210
0
220
0
230
1
0
ENDBLK
5
FB
100
AcDbEntity
8
0
100
AcDbBlockEnd
0
BLOCK
5
105
100
AcDbEntity
8
0
100
AcDbBlockBegin
2
DimnDraft3D4
70
0
10
0
20
0
30
0
3
DimnDraft3D4
0
MTEXT
5
FE
100
AcDbEntity
8
SK2
62
256
6
ByLayer
370
18
48
1
60
0
100
AcDbMText
10
34.2
20
46.665724
30
0
210
0
220
0
230
1
1
\W0.7361;40
40
3
41
0
44
1.084337
50
0
71
7
72
5
7
iso_b_vert
0
MTEXT
5
FF
100
AcDbEntity
8
SK2
62
256
6
ByLayer
370
18
48
1
60
0
100
AcDbMText
10
27.923437
20
46.665724
30
0
210
0
220
0
230
1
1
%%c
40
3
41
0
44
1.084337
50
0
71
7
72
5
7
iso_b_vert
0
LINE
5
100
100
AcDbEntity
8
SK2
62
256
6
ByLayer
370
13
48
1
60
0
100
AcDbLine
10
12
20
28.324519
30
0
11
12
21
47.165724
31
0
39
0
210
0
220
0
230
1
0
LINE
5
101
100
AcDbEntity
8
SK2
62
256
6
ByLayer
370
13
48
1
60
0
100
AcDbLine
10
51
20
28.324519
30
0
11
51
21
47.165724
31
0
39
0
210
0
220
0
230
1
0
LINE
5
102
100
AcDbEntity
8
SK2
62
256
6
ByLayer
370
13
48
1
60
0
100
AcDbLine
10
12
20
45.165724
30
0
11
51
21
45.165724
31
0
39
0
210
0
220
0
230
1
0
SOLID
5
103
100
AcDbEntity
8
SK2
62
256
6
ByLayer
370
13
48
1
60
0
100
AcDbTrace
10
12
20
45.165724
30
0
11
15.174999
21
45.49943
31
0
12
15.175001
22
44.832018
32
0
13
12
23
45.165724
33
0
39
0
210
0
220
0
230
1
0
SOLID
5
104
100
AcDbEntity
8
SK2
62
256
6
ByLayer
370
13
48
1
60
0
100
AcDbTrace
10
51
20
45.165724
30
0
11
47.825001
21
44.832018
31
0
12
47.824999
22
45.49943
32
0
13
51
23
45.165724
33
0
39
0
210
0
220
0
230
1
0
ENDBLK
5
106
100
AcDbEntity
8
0
100
AcDbBlockEnd
0
ENDSEC
0
SECTION
2
ENTITIES
0
CIRCLE
5
B5
100
AcDbEntity
8
1
62
256
6
ByLayer
370
18
48
1
60
0
100
AcDbCircle
10
-31
20
7
30
0
40
4.14143307609568
39
0
210
-1.22460635382238E-16
220
0
230
-1
0
CIRCLE
5
B6
100
AcDbEntity
8
1
62
256
6
ByLayer
370
18
48
1
60
0
100
AcDbCircle
10
-31
20
7
30
0
40
3.17170746233157
39
0
210
-1.22460635382238E-16
220
0
230
-1
0
CIRCLE
5
B7
100
AcDbEntity
8
1
62
256
6
ByLayer
370
18
48
1
60
0
100
AcDbCircle
10
-31
20
7
30
0
40
3.5
39
0
210
0
220
0
230
-1
0
ELLIPSE
5
B8
100
AcDbEntity
8
1
62
256
6
ByLayer
370
18
48
1
60
0
100
AcDbEllipse
10
16.969233
20
-24.531826
30
0
11
8.65927457071932E-16
21
14.1421356237309
31
0
210
0
220
0
230
1
40
0.707107
41
0.198218788478251
42
0.322483812520613
0
ELLIPSE
5
B9
100
AcDbEntity
8
1
62
256
6
ByLayer
370
18
48
1
60
0
100
AcDbEllipse
10
29.3
20
-26.904641
30
0
11
-16.6141205368538
21
-19.1405020391916
31
2.0345757572602E-15
210
-1.22460635382238E-16
220
1.23259516440783E-32
230
-1
40
0.753439
41
2.68135207343506
42
2.78264603908771
0
ELLIPSE
5
BA
100
AcDbEntity
8
1
62
256
6
ByLayer
370
18
48
1
60
0
100
AcDbEllipse
10
29.3
20
-26.904641
30
0
11
-16.6141205373704
21
-19.1405020436169
31
2.03457575732347E-15
210
-1.22460635382238E-16
220
1.23259516440783E-32
230
-1
40
0.753439
41
2.68135207354259
42
2.78264603918728
0
ELLIPSE
5
BB
100
AcDbEntity
8
1
62
256
6
ByLayer
370
18
48
1
60
0
100
AcDbEllipse
10
29.3
20
-26.904641
30
0
11
-16.6141205368538
21
-19.1405020391916
31
2.0345757572602E-15
210
-1.22460635382238E-16
220
1.23259516440783E-32
230
-1
40
0.753439
41
2.68135207343506
42
2.78264603908771
0
ELLIPSE
5
BC
100
AcDbEntity
8
1
62
256
6
ByLayer
370
18
48
1
60
0
100
AcDbEllipse
10
18.817693
20
-23.083778
30
0
11
-3.57605237865174
21
11.4547743673296
31
4.37925646449855E-16
210
-1.22460635382238E-16
220
-6.16297582203915E-33
230
-1
40
1
41
-0.021166711407764
42
0.023348658634659
0
ELLIPSE
5
BD
100
AcDbEntity
8
1
62
256
6
ByLayer
370
18
48
1
60
0
100
AcDbEllipse
10
16.969233
20
-24.531826
30
0
11
8.65927457071932E-16
21
14.1421356237309
31
0
210
0
220
0
230
1
40
0.707107
41
0.198218788478251
42
0.322483812520613
0
POINT
5
6C
100
AcDbEntity
8
80
62
256
6
ByLayer
370
13
48
1
60
0
100
AcDbPoint
10
0
20
0
30
0
39
0
210
0
220
0
230
1
50
360
0
POINT
5
6E
100
AcDbEntity
8
81
62
256
6
ByLayer
370
18
48
1
60
0
100
AcDbPoint
10
31
20
27
30
0
39
0
210
0
220
0
230
1
50
360
0
SPLINE
5
BE
100
AcDbEntity
8
SK1
62
256
6
ByLayer
370
18
48
1
60
0
100
AcDbSpline
70
4
71
3
72
51
73
47
40
0
40
0
40
0
40
0
40
0.0036315390846953
40
0.0329680707935682
40
0.0476268778337137
40
0.0769822681863697
40
0.0916834150918136
40
0.106381936352327
40
0.121081153135496
40
0.135779600369772
40
0.150472080753082
40
0.16516703964907
40
0.194502179950167
40
0.223816017811569
40
0.253117963859835
40
0.282413072167371
40
0.311703983366178
40
0.340992164944299
40
0.370278517830426
40
0.399563609501556
40
0.424645158846139
40
0.449727097962857
40
0.475037940687289
40
0.500348906673884
40
0.508502770437475
40
0.541132244989681
40
0.573762096624217
40
0.606392713727905
40
0.639024559099689
40
0.671658308505482
40
0.704294973220082
40
0.736936150929159
40
0.769584768883152
40
0.802246523686954
40
0.8186012335353
40
0.834952834961262
40
0.850647244919667
40
0.866338455245805
40
0.881982887139944
40
0.897626612790829
40
0.913312174018698
40
0.929001055402156
40
0.94466581190359
40
0.96033255233635
40
0.991630405487347
40
1
40
1
40
1
40
1
41
1
10
-2.19993724359906
20
-17.5200917093891
30
0
41
1
10
-2.19993604433898
20
-17.5201514735331
30
0
41
1
10
-2.199924914432
20
-17.5179609957904
30
0
41
1
10
-2.19990555340838
20
-17.4784600409091
30
0
41
1
10
-2.1998676848346
20
-17.3314756597327
30
0
41
1
10
-2.1998304637977
20
-17.1387722954106
30
0
41
1
10
-2.19978934694386
20
-16.8558326805191
30
0
41
1
10
-2.19975997019632
20
-16.5942893666525
30
0
41
1
10
-2.19973698962961
20
-16.279271733294
30
0
41
1
10
-2.19972478696585
20
-15.9114745163921
30
0
41
1
10
-2.19972577539222
20
-15.4924769628818
30
0
41
1
10
-2.19973936703657
20
-14.8759077155024
30
0
41
1
10
-2.19976939101314
20
-14.011241561438
30
0
41
1
10
-2.19980597714911
20
-12.8700339888312
30
0
41
1
10
-2.19983801428773
20
-11.6524615096257
30
0
41
1
10
-2.19986440455429
20
-10.3772131802349
30
0
41
1
10
-2.19988553200477
20
-9.05726035813504
30
0
41
1
10
-2.19990207011721
20
-7.70237936863798
30
0
41
1
10
-2.19991473757352
20
-6.32026766633039
30
0
41
1
10
-2.19992368154807
20
-4.98435366846976
30
0
41
1
10
-2.19992984586262
20
-3.70265924245478
30
0
41
1
10
-2.19993384443014
20
-2.47673377998618
30
0
41
1
10
-2.1999362673117
20
-1.24161702027654
30
0
41
1
10
-2.19993702930823
20
-0.280504392377926
30
0
41
1
10
-2.19993659149723
20
0.800103573143037
30
0
41
1
10
-2.199935135902
20
2.00000607458031
30
0
41
1
10
-2.19993048560071
20
3.59243710137062
30
0
41
1
10
-2.19992277390628
20
5.1713988795658
30
0
41
1
10
-2.19991151442832
20
6.73003916184019
30
0
41
1
10
-2.19989599420886
20
8.26060631290796
30
0
41
1
10
-2.19987530265094
20
9.75374221945113
30
0
41
1
10
-2.19984846350703
20
11.1976989465212
30
0
41
1
10
-2.19981467979809
20
12.5764614885994
30
0
41
1
10
-2.19978115920966
20
13.6527164239419
30
0
41
1
10
-2.19975401226336
20
14.4510196196826
30
0
41
1
10
-2.19973653398573
20
15.0046244004244
30
0
41
1
10
-2.19972538965576
20
15.5062276880709
30
0
41
1
10
-2.19972511297338
20
15.9500614596671
30
0
41
1
10
-2.19973956857106
20
16.3351343800809
30
0
41
1
10
-2.19976628059682
20
16.6591952972896
30
0
41
1
10
-2.19979826831051
20
16.9240433274655
30
0
41
1
10
-2.19983101427928
20
17.134240013337
30
0
41
1
10
-2.1998606691344
20
17.2946228950584
30
0
41
1
10
-2.1998957727752
20
17.4481787618077
30
0
41
1
10
-2.19991987888634
20
17.51171821305
30
0
41
1
10
-2.19993375640108
20
17.5199671645523
30
0
41
1
10
-2.19993654272997
20
17.5201004076592
30
0
0
SPLINE
5
BF
100
AcDbEntity
8
SK1
62
256
6
ByLayer
370
18
48
1
60
0
100
AcDbSpline
70
4
71
2
72
6
73
3
40
0
40
0
40
0
40
1
40
1
40
1
41
1
10
-30
20
-15.9423013487186
30
0
41
1
10
-29.2501952787077
20
-16.4010253845872
30
0
41
1
10
-28.5003904504266
20
-16.8597456617469
30
0
0
SPLINE
5
C0
100
AcDbEntity
8
SK1
62
256
6
ByLayer
370
18
48
1
60
0
100
AcDbSpline
70
4
71
2
72
6
73
3
40
0
40
0
40
0
40
1
40
1
40
1
41
1
10
-28.5004032853135
20
16.8579102610954
30
0
41
1
10
-29.250201613525
20
16.3993636736336
30
0
41
1
10
-30
20
15.9408160639395
30
0
0
SPLINE
5
C1
100
AcDbEntity
8
SK1
62
256
6
ByLayer
370
18
48
1
60
0
100
AcDbSpline
70
4
71
2
72
6
73
3
40
0
40
0
40
0
40
1
40
1
40
1
41
1
10
-28.5004731679065
20
-16.8593393543735
30
0
41
1
10
-15.3502049979055
20
-17.1897198630478
30
0
41
1
10
-2.19993682790444
20
-17.520100371722
30
0
0
SPLINE
5
C2
100
AcDbEntity
8
SK1
62
256
6
ByLayer
370
18
48
1
60
0
100
AcDbSpline
70
4
71
2
72
6
73
3
40
0
40
0
40
0
40
1
40
1
40
1
41
1
10
-2.19993654212713
20
17.5201003788694
30
0
41
1
10
-15.3502048550168
20
17.189719866606
30
0
41
1
10
-28.5004731679065
20
16.8593393543424
30
0
0
SPLINE
5
C3
100
AcDbEntity
8
1
62
256
6
ByLayer
370
18
48
1
60
0
100
AcDbSpline
70
4
71
3
72
18
73
14
40
0
40
0
40
0
40
0
40
0.125
40
0.125
40
0.25
40
0.25
40
0.5
40
0.5
40
0.75
40
0.75
40
0.875
40
0.875
40
1
40
1
40
1
40
1
41
1
10
10
20
13.1532341319505
30
0
41
1
10
9.1360453181007
20
12.399458764613
30
0
41
1
10
8.52925391654938
20
11.463740520539
30
0
41
1
10
7.60775557444699
20
9.40315319166491
30
0
41
1
10
7.30537764346174
20
8.30464699412344
30
0
41
1
10
6.63831721502374
20
4.85185875856063
30
0
41
1
10
6.51244021852076
20
2.44467602350416
30
0
41
1
10
6.51223826704392
20
-2.44011097286484
30
0
41
1
10
6.63679168799577
20
-4.83803953851808
30
0
41
1
10
7.30316611985075
20
-8.29614155626051
30
0
41
1
10
7.60822317529995
20
-9.40462387317105
30
0
41
1
10
8.53012234931518
20
-11.4652567633561
30
0
41
1
10
9.13671410568572
20
-12.4000422623568
30
0
41
1
10
10
20
-13.1532341319505
30
0
0
SPLINE
5
C4
100
AcDbEntity
8
1
62
256
6
ByLayer
370
18
48
1
60
0
100
AcDbSpline
70
4
71
3
72
8
73
4
40
0
40
0
40
0
40
0
40
1
40
1
40
1
40
1
41
1
10
10
20
-13.9312056763491
30
0
41
1
10
9.89405045507182
20
-14.3739292947928
30
0
41
1
10
9.80971681124365
20
-14.8075754477726
30
0
41
1
10
9.74324891761098
20
-15.2317424762273
30
0
0
SPLINE
5
C5
100
AcDbEntity
8
1
62
256
6
ByLayer
370
18
48
1
60
0
100
AcDbSpline
70
4
71
3
72
10
73
6
40
0
40
0
40
0
40
0
40
0.5
40
0.5
40
1
40
1
40
1
40
1
41
1
10
9.74324891761096
20
-15.2317424762273
30
0
41
1
10
8.88018765851404
20
-16.2291655025461
30
0
41
1
10
8.25462426727175
20
-17.2891388550964
30
0
41
1
10
7.39268612140911
20
-19.2594503265384
30
0
41
1
10
7.14514780216578
20
-20.1768259084198
30
0
41
1
10
7
20
-21
30
0
0
SPLINE
5
C6
100
AcDbEntity
8
1
62
256
6
ByLayer
370
18
48
1
60
0
100
AcDbSpline
70
4
71
3
72
10
73
6
40
0
40
0
40
0
40
0
40
0.5
40
0.5
40
1
40
1
40
1
40
1
41
1
10
7
20
-21
30
0
41
1
10
7.14513572670392
20
-20.1768943917671
30
0
41
1
10
7.39267735900515
20
-19.2561683833343
30
0
41
1
10
8.26644015310128
20
-17.2654757843196
30
0
41
1
10
8.88247715036929
20
-16.2265195815632
30
0
41
1
10
9.74324891761097
20
-15.2317424762273
30
0
0
SPLINE
5
C7
100
AcDbEntity
8
1
62
256
6
ByLayer
370
18
48
1
60
0
100
AcDbSpline
70
4
71
3
72
8
73
4
40
0
40
0
40
0
40
0
40
1
40
1
40
1
40
1
41
1
10
9.74324891761098
20
-15.2317424762273
30
0
41
1
10
9.80968485498392
20
-14.807779377685
30
0
41
1
10
9.89399783052086
20
-14.374149193157
30
0
41
1
10
10
20
-13.9312056763491
30
0
0
SPLINE
5
C8
100
AcDbEntity
8
1
62
256
6
ByLayer
370
18
48
1
60
0
100
AcDbSpline
70
4
71
3
72
18
73
14
40
0
40
0
40
0
40
0
40
0.125
40
0.125
40
0.25
40
0.25
40
0.5
40
0.5
40
0.75
40
0.75
40
0.875
40
0.875
40
1
40
1
40
1
40
1
41
1
10
10
20
-13.1532341319505
30
0
41
1
10
9.1360453181007
20
-12.399458764613
30
0
41
1
10
8.52925391654938
20
-11.463740520539
30
0
41
1
10
7.60775557444699
20
-9.4031531916649
30
0
41
1
10
7.30537764346174
20
-8.30464699412344
30
0
41
1
10
6.63831721502373
20
-4.85185875856063
30
0
41
1
10
6.51244021852076
20
-2.44467602350416
30
0
41
1
10
6.51223826704392
20
2.44011097286484
30
0
41
1
10
6.63679168799577
20
4.83803953851808
30
0
41
1
10
7.30316611985075
20
8.29614155626051
30
0
41
1
10
7.60822317529995
20
9.40462387317106
30
0
41
1
10
8.53012234931517
20
11.4652567633561
30
0
41
1
10
9.13671410568571
20
12.4000422623568
30
0
41
1
10
10
20
13.1532341319505
30
0
0
SPLINE
5
C9
100
AcDbEntity
8
1
62
256
6
ByLayer
370
18
48
1
60
0
100
AcDbSpline
70
4
71
3
72
8
73
4
40
0
40
0
40
0
40
0
40
1
40
1
40
1
40
1
41
1
10
13.8
20
21.4441595093993
30
0
41
1
10
12.1925281030167
20
18.8062212738617
30
0
41
1
10
10.9256881411963
20
16.0576779703915
30
0
41
1
10
9.99999999999999
20
13.1532341319505
30
0
0
SPLINE
5
CA
100
AcDbEntity
8
1
62
256
6
ByLayer
370
18
48
1
60
0
100
AcDbSpline
70
4
71
3
72
18
73
14
40
0
40
0
40
0
40
0
40
0.125
40
0.125
40
0.25
40
0.25
40
0.5
40
0.5
40
0.75
40
0.75
40
0.875
40
0.875
40
1
40
1
40
1
40
1
41
1
10
10
20
13.1532341319505
30
0
41
1
10
9.1360453181007
20
12.399458764613
30
0
41
1
10
8.52925391654938
20
11.463740520539
30
0
41
1
10
7.60775557444699
20
9.40315319166491
30
0
41
1
10
7.30537764346174
20
8.30464699412344
30
0
41
1
10
6.63831721502374
20
4.85185875856063
30
0
41
1
10
6.51244021852076
20
2.44467602350416
30
0
41
1
10
6.51223826704392
20
-2.44011097286484
30
0
41
1
10
6.63679168799577
20
-4.83803953851808
30
0
41
1
10
7.30316611985075
20
-8.29614155626051
30
0
41
1
10
7.60822317529995
20
-9.40462387317105
30
0
41
1
10
8.53012234931518
20
-11.4652567633561
30
0
41
1
10
9.13671410568572
20
-12.4000422623568
30
0
41
1
10
10
20
-13.1532341319505
30
0
0
SPLINE
5
CB
100
AcDbEntity
8
1
62
256
6
ByLayer
370
18
48
1
60
0
100
AcDbSpline
70
4
71
3
72
8
73
4
40
0
40
0
40
0
40
0
40
1
40
1
40
1
40
1
41
1
10
9.99999999999999
20
-13.1532341319505
30
0
41
1
10
10.0232226037553
20
-13.2260974920694
30
0
41
1
10
10.0466625710337
20
-13.2988669809625
30
0
41
1
10
10.0703200135061
20
-13.3715432267054
30
0
0
SPLINE
5
CC
100
AcDbEntity
8
1
62
256
6
ByLayer
370
18
48
1
60
0
100
AcDbSpline
70
4
71
3
72
8
73
4
40
0
40
0
40
0
40
0
40
1
40
1
40
1
40
1
41
1
10
10.0703200135061
20
-13.3715432267054
30
0
41
1
10
11.1369201305089
20
-12.4961152900148
30
0
41
1
10
12.4336193238486
20
-11.764393611791
30
0
41
1
10
13.8
20
-11.1187008494981
30
0
0
SPLINE
5
CD
100
AcDbEntity
8
1
62
256
6
ByLayer
370
18
48
1
60
0
100
AcDbSpline
70
4
71
3
72
8
73
4
40
0
40
0
40
0
40
0
40
1
40
1
40
1
40
1
41
1
10
16.7012252274698
20
26
30
0
41
1
10
15.7084640789881
20
24.4989667792975
30
0
41
1
10
14.737369173366
20
22.982427138138
30
0
41
1
10
13.8
20
21.4441595093993
30
0
0
SPLINE
5
CE
100
AcDbEntity
8
1
62
256
6
ByLayer
370
18
48
1
60
0
100
AcDbSpline
70
4
71
3
72
8
73
4
40
0
40
0
40
0
40
0
40
1
40
1
40
1
40
1
41
1
10
13.8
20
21.4441595093993
30
0
41
1
10
12.1973883124444
20
18.8141971098973
30
0
41
1
10
10.9164724977232
20
16.0287629203746
30
0
41
1
10
9.99999999999998
20
13.1532341319505
30
0
0
SPLINE
5
CF
100
AcDbEntity
8
1
62
256
6
ByLayer
370
18
48
1
60
0
100
AcDbSpline
70
4
71
3
72
8
73
4
40
0
40
0
40
0
40
0
40
1
40
1
40
1
40
1
41
1
10
9.99999999999999
20
13.1532341319505
30
0
41
1
10
10.9256881411963
20
16.0576779703915
30
0
41
1
10
12.1925281030167
20
18.8062212738617
30
0
41
1
10
13.8
20
21.4441595093993
30
0
0
SPLINE
5
D0
100
AcDbEntity
8
1
62
256
6
ByLayer
370
18
48
1
60
0
100
AcDbSpline
70
4
71
3
72
8
73
4
40
0
40
0
40
0
40
0
40
1
40
1
40
1
40
1
41
1
10
13.8
20
21.4441595093993
30
0
41
1
10
14.738446425631
20
22.9841949606079
30
0
41
1
10
15.709189590645
20
24.5000637371112
30
0
41
1
10
16.7012252274698
20
26
30
0
0
SPLINE
5
D1
100
AcDbEntity
8
1
62
256
6
ByLayer
370
18
48
1
60
0
100
AcDbSpline
70
4
71
3
72
8
73
4
40
0
40
0
40
0
40
0
40
1
40
1
40
1
40
1
41
1
10
13.8
20
21.4441595093993
30
0
41
1
10
14.738446425631
20
22.9841949606079
30
0
41
1
10
15.709189590645
20
24.5000637371112
30
0
41
1
10
16.7012252274698
20
26
30
0
0
SPLINE
5
D2
100
AcDbEntity
8
1
62
256
6
ByLayer
370
18
48
1
60
0
100
AcDbSpline
70
4
71
3
72
16
73
12
40
0
40
0
40
0
40
0
40
0.25
40
0.25
40
0.5
40
0.5
40
0.75
40
0.75
40
0.875
40
0.875
40
1
40
1
40
1
40
1
41
1
10
41.7533118927031
20
-4.02350202502368
30
0
41
1
10
43.0251127107379
20
-3.65881900884792
30
0
41
1
10
44.1340819343577
20
-3.12085757486721
30
0
41
1
10
46.1063431595408
20
-1.80082971451412
30
0
41
1
10
46.9615480573501
20
-1.01645019029743
30
0
41
1
10
48.389701046153
20
0.702475296047856
30
0
41
1
10
48.9779030288689
20
1.64386424801921
30
0
41
1
10
49.677227223472
20
3.24646670358135
30
0
41
1
10
49.8771893051884
20
3.80668764831397
30
0
41
1
10
50.2053989862671
20
5.03877295702827
30
0
41
1
10
50.3332891244223
20
5.70326061624783
30
0
41
1
10
50.4
20
6.46576941326423
30
0
0
SPLINE
5
D3
100
AcDbEntity
8
1
62
256
6
ByLayer
370
18
48
1
60
0
100
AcDbSpline
70
4
71
3
72
16
73
12
40
0
40
0
40
0
40
0
40
0.125
40
0.125
40
0.25
40
0.25
40
0.5
40
0.5
40
0.75
40
0.75
40
1
40
1
40
1
40
1
41
1
10
50.4
20
6.46576941326423
30
0
41
1
10
50.3328261118986
20
5.69796835888578
30
0
41
1
10
50.2065603309583
20
5.04398398700679
30
0
41
1
10
49.8781394109539
20
3.80940836699583
30
0
41
1
10
49.6774155739991
20
3.24774348724167
30
0
41
1
10
48.9859031118056
20
1.66052254609026
30
0
41
1
10
48.3988638450154
20
0.714280510131145
30
0
41
1
10
46.9591235917014
20
-1.02014151746011
30
0
41
1
10
46.1203874362173
20
-1.78908421095525
30
0
41
1
10
44.1525546885339
20
-3.11080111531926
30
0
41
1
10
43.0210387999866
20
-3.65998718395783
30
0
41
1
10
41.7533118927031
20
-4.02350202502368
30
0
0
SPLINE
5
D4
100
AcDbEntity
8
1
62
256
6
ByLayer
370
18
48
1
60
0
100
AcDbSpline
70
4
71
3
72
8
73
4
40
0
40
0
40
0
40
0
40
1
40
1
40
1
40
1
41
1
10
13.8
20
-11.1187008494981
30
0
41
1
10
12.4336193238486
20
-11.764393611791
30
0
41
1
10
11.1369201305089
20
-12.4961152900148
30
0
41
1
10
10.0703200135061
20
-13.3715432267054
30
0
0
SPLINE
5
D5
100
AcDbEntity
8
1
62
256
6
ByLayer
370
18
48
1
60
0
100
AcDbSpline
70
4
71
3
72
8
73
4
40
0
40
0
40
0
40
0
40
1
40
1
40
1
40
1
41
1
10
10.0703200135061
20
-13.3715432267054
30
0
41
1
10
10.0451777512713
20
-13.5588724666777
30
0
41
1
10
10.0217441815421
20
-13.7454568223037
30
0
41
1
10
10
20
-13.9312056763491
30
0
0
SPLINE
5
D6
100
AcDbEntity
8
1
62
256
6
ByLayer
370
18
48
1
60
0
100
AcDbSpline
70
4
71
3
72
8
73
4
40
0
40
0
40
0
40
0
40
1
40
1
40
1
40
1
41
1
10
10
20
-13.9312056763491
30
0
41
1
10
9.89405045507182
20
-14.3739292947928
30
0
41
1
10
9.80971681124365
20
-14.8075754477726
30
0
41
1
10
9.74324891761098
20
-15.2317424762273
30
0
0
SPLINE
5
D7
100
AcDbEntity
8
1
62
256
6
ByLayer
370
18
48
1
60
0
100
AcDbSpline
70
4
71
3
72
8
73
4
40
0
40
0
40
0
40
0
40
1
40
1
40
1
40
1
41
1
10
9.74324891761096
20
-15.2317424762273
30
0
41
1
10
11.1170281463308
20
-13.6440926757512
30
0
41
1
10
12.942484211228
20
-12.3977115423072
30
0
41
1
10
15
20
-11.7072575794898
30
0
0
LINE
5
70
100
AcDbEntity
8
SK1
62
256
6
ByLayer
370
18
48
1
60
0
100
AcDbLine
10
-28.500473
20
-16.859339
30
0
11
-28.500473
21
16.859339
31
0
39
0
210
0
220
0
230
1
0
LINE
5
72
100
AcDbEntity
8
SK1
62
256
6
ByLayer
370
18
48
1
60
0
100
AcDbLine
10
-30
20
15.941311
30
0
11
-30
21
-15.942398
31
0
39
0
210
0
220
0
230
1
0
LINE
5
73
100
AcDbEntity
8
1
62
256
6
ByLayer
370
18
48
1
60
0
100
AcDbLine
10
0
20
-24.7
30
0
11
0
21
24.7
31
0
39
0
210
0
220
0
230
1
0
LINE
5
75
100
AcDbEntity
8
1
62
256
6
ByLayer
370
18
48
1
60
0
100
AcDbLine
10
0
20
-24.7
30
0
11
0.3
21
-25
31
0
39
0
210
0
220
0
230
1
0
LINE
5
76
100
AcDbEntity
8
1
62
256
6
ByLayer
370
18
48
1
60
0
100
AcDbLine
10
0.3
20
25
30
0
11
0
21
24.7
31
0
39
0
210
0
220
0
230
1
0
LINE
5
77
100
AcDbEntity
8
SK1
62
256
6
ByLayer
370
18
48
1
60
0
100
AcDbLine
10
0
20
-17.3
30
0
11
-2.19993
21
-17.3
31
0
39
0
210
0
220
0
230
1
0
LINE
5
78
100
AcDbEntity
8
SK1
62
256
6
ByLayer
370
18
48
1
60
0
100
AcDbLine
10
0
20
17.3
30
0
11
-2.19993
21
17.3
31
0
39
0
210
0
220
0
230
1
0
LINE
5
79
100
AcDbEntity
8
1
62
256
6
ByLayer
370
18
48
1
60
0
100
AcDbLine
10
16.100505
20
37.5
30
0
11
16.600505
21
38
31
0
39
0
210
0
220
0
230
1
0
LINE
5
7A
100
AcDbEntity
8
1
62
256
6
ByLayer
370
18
48
1
60
0
100
AcDbLine
10
16.100505
20
32
30
0
11
16.100505
21
37.5
31
0
39
0
210
0
220
0
230
1
0
LINE
5
7B
100
AcDbEntity
8
1
62
256
6
ByLayer
370
18
48
1
60
0
100
AcDbLine
10
12
20
26.324519
30
0
11
12
21
26
31
0
39
0
210
0
220
0
230
1
0
LINE
5
7C
100
AcDbEntity
8
1
62
256
6
ByLayer
370
18
48
1
60
0
100
AcDbLine
10
26.100505
20
37.5
30
0
11
26.100505
21
32
31
0
39
0
210
0
220
0
230
1
0
LINE
5
7D
100
AcDbEntity
8
1
62
256
6
ByLayer
370
18
48
1
60
0
100
AcDbLine
10
25.600505
20
38
30
0
11
26.100505
21
37.5
31
0
39
0
210
0
220
0
230
1
0
LINE
5
7E
100
AcDbEntity
8
1
62
256
6
ByLayer
370
18
48
1
60
0
100
AcDbLine
10
25.600505
20
38
30
0
11
16.600505
21
38
31
0
39
0
210
0
220
0
230
1
0
LINE
5
7F
100
AcDbEntity
8
1
62
256
6
ByLayer
370
18
48
1
60
0
100
AcDbLine
10
26.100505
20
32
30
0
11
16.100505
21
32
31
0
39
0
210
0
220
0
230
1
0
LINE
5
80
100
AcDbEntity
8
1
62
256
6
ByLayer
370
18
48
1
60
0
100
AcDbLine
10
24.100505
20
32
30
0
11
24.100505
21
27.324519
31
0
39
0
210
0
220
0
230
1
0
LINE
5
81
100
AcDbEntity
8
1
62
256
6
ByLayer
370
18
48
1
60
0
100
AcDbLine
10
18.100505
20
27.324519
30
0
11
18.100505
21
32
31
0
39
0
210
0
220
0
230
1
0
LINE
5
82
100
AcDbEntity
8
1
62
256
6
ByLayer
370
18
48
1
60
0
100
AcDbLine
10
35.899495
20
37.5
30
0
11
36.399495
21
38
31
0
39
0
210
0
220
0
230
1
0
LINE
5
83
100
AcDbEntity
8
1
62
256
6
ByLayer
370
18
48
1
60
0
100
AcDbLine
10
35.899495
20
32
30
0
11
35.899495
21
37.5
31
0
39
0
210
0
220
0
230
1
0
LINE
5
84
100
AcDbEntity
8
1
62
256
6
ByLayer
370
18
48
1
60
0
100
AcDbLine
10
51
20
26.324519
30
0
11
51
21
26
31
0
39
0
210
0
220
0
230
1
0
LINE
5
85
100
AcDbEntity
8
1
62
256
6
ByLayer
370
18
48
1
60
0
100
AcDbLine
10
45.899495
20
37.5
30
0
11
45.899495
21
32
31
0
39
0
210
0
220
0
230
1
0
LINE
5
86
100
AcDbEntity
8
1
62
256
6
ByLayer
370
18
48
1
60
0
100
AcDbLine
10
45.399495
20
38
30
0
11
45.899495
21
37.5
31
0
39
0
210
0
220
0
230
1
0
LINE
5
87
100
AcDbEntity
8
1
62
256
6
ByLayer
370
18
48
1
60
0
100
AcDbLine
10
45.399495
20
38
30
0
11
36.399495
21
38
31
0
39
0
210
0
220
0
230
1
0
LINE
5
88
100
AcDbEntity
8
1
62
256
6
ByLayer
370
18
48
1
60
0
100
AcDbLine
10
45.899495
20
32
30
0
11
35.899495
21
32
31
0
39
0
210
0
220
0
230
1
0
LINE
5
89
100
AcDbEntity
8
1
62
256
6
ByLayer
370
18
48
1
60
0
100
AcDbLine
10
43.899495
20
32
30
0
11
43.899495
21
27.324519
31
0
39
0
210
0
220
0
230
1
0
LINE
5
8A
100
AcDbEntity
8
1
62
256
6
ByLayer
370
18
48
1
60
0
100
AcDbLine
10
37.899495
20
27.324519
30
0
11
37.899495
21
32
31
0
39
0
210
0
220
0
230
1
0
LINE
5
8B
100
AcDbEntity
8
1
62
256
6
ByLayer
370
18
48
1
60
0
100
AcDbLine
10
37.779976
20
-3.062452
30
0
11
37.779976
21
26
31
0
39
0
210
0
220
0
230
1
0
LINE
5
8C
100
AcDbEntity
8
1
62
256
6
ByLayer
370
18
48
1
60
0
100
AcDbLine
10
32.154701
20
9
30
0
11
33.309401
21
7
31
0
39
0
210
0
220
0
230
1
0
LINE
5
8D
100
AcDbEntity
8
1
62
256
6
ByLayer
370
18
48
1
60
0
100
AcDbLine
10
33.309401
20
7
30
0
11
32.154701
21
5
31
0
39
0
210
0
220
0
230
1
0
LINE
5
8E
100
AcDbEntity
8
1
62
256
6
ByLayer
370
18
48
1
60
0
100
AcDbLine
10
29.845299
20
9
30
0
11
28.690599
21
7
31
0
39
0
210
0
220
0
230
1
0
LINE
5
8F
100
AcDbEntity
8
1
62
256
6
ByLayer
370
18
48
1
60
0
100
AcDbLine
10
32.154701
20
5
30
0
11
29.845299
21
5
31
0
39
0
210
0
220
0
230
1
0
LINE
5
90
100
AcDbEntity
8
1
62
256
6
ByLayer
370
18
48
1
60
0
100
AcDbLine
10
29.845299
20
5
30
0
11
28.690599
21
7
31
0
39
0
210
0
220
0
230
1
0
LINE
5
91
100
AcDbEntity
8
1
62
256
6
ByLayer
370
18
48
1
60
0
100
AcDbLine
10
29.845299
20
9
30
0
11
32.154701
21
9
31
0
39
0
210
0
220
0
230
1
0
LINE
5
92
100
AcDbEntity
8
1
62
256
6
ByLayer
370
18
48
1
60
0
100
AcDbLine
10
12
20
26.324519
30
0
11
13
21
27.324519
31
0
39
0
210
0
220
0
230
1
0
LINE
5
93
100
AcDbEntity
8
1
62
256
6
ByLayer
370
18
48
1
60
0
100
AcDbLine
10
51
20
26.324519
30
0
11
50
21
27.324519
31
0
39
0
210
0
220
0
230
1
0
LINE
5
94
100
AcDbEntity
8
1
62
256
6
ByLayer
370
18
48
1
60
0
100
AcDbLine
10
50
20
27.324519
30
0
11
13
21
27.324519
31
0
39
0
210
0
220
0
230
1
0
LINE
5
95
100
AcDbEntity
8
1
62
256
6
ByLayer
370
18
48
1
60
0
100
AcDbLine
10
10
20
13.153234
30
0
11
10
21
25
31
0
39
0
210
0
220
0
230
1
0
LINE
5
96
100
AcDbEntity
8
1
62
256
6
ByLayer
370
18
48
1
60
0
100
AcDbLine
10
10
20
-13.153234
30
0
11
10
21
-13.931206
31
0
39
0
210
0
220
0
230
1
0
LINE
5
97
100
AcDbEntity
8
1
62
256
6
ByLayer
370
18
48
1
60
0
100
AcDbLine
10
6.294692
20
-25
30
0
11
7
21
-21
31
0
39
0
210
0
220
0
230
1
0
LINE
5
98
100
AcDbEntity
8
1
62
256
6
ByLayer
370
18
48
1
60
0
100
AcDbLine
10
10
20
-13.931206
30
0
11
10
21
-13.153234
31
0
39
0
210
0
220
0
230
1
0
LINE
5
99
100
AcDbEntity
8
1
62
256
6
ByLayer
370
18
48
1
60
0
100
AcDbLine
10
13.8
20
-11.118701
30
0
11
13.8
21
21.44416
31
0
39
0
210
0
220
0
230
1
0
LINE
5
9A
100
AcDbEntity
8
1
62
256
6
ByLayer
370
18
48
1
60
0
100
AcDbLine
10
16.701225
20
26
30
0
11
10.8391
21
26
31
0
39
0
210
0
220
0
230
1
0
LINE
5
9B
100
AcDbEntity
8
1
62
256
6
ByLayer
370
18
48
1
60
0
100
AcDbLine
10
10
20
13.153234
30
0
11
10
21
25
31
0
39
0
210
0
220
0
230
1
0
LINE
5
9C
100
AcDbEntity
8
1
62
256
6
ByLayer
370
18
48
1
60
0
100
AcDbLine
10
16.701225
20
26
30
0
11
37.779976
21
26
31
0
39
0
210
0
220
0
230
1
0
LINE
5
9D
100
AcDbEntity
8
1
62
256
6
ByLayer
370
18
48
1
60
0
100
AcDbLine
10
37.779976
20
26
30
0
11
37.779976
21
-4.195872
31
0
39
0
210
0
220
0
230
1
0
LINE
5
9E
100
AcDbEntity
8
1
62
256
6
ByLayer
370
18
48
1
60
0
100
AcDbLine
10
37.779976
20
-4.195872
30
0
11
15
21
-10.666609
31
0
39
0
210
0
220
0
230
1
0
LINE
5
9F
100
AcDbEntity
8
1
62
256
6
ByLayer
370
18
48
1
60
0
100
AcDbLine
10
13.8
20
-11.118701
30
0
11
13.8
21
21.44416
31
0
39
0
210
0
220
0
230
1
0
LINE
5
A0
100
AcDbEntity
8
1
62
256
6
ByLayer
370
18
48
1
60
0
100
AcDbLine
10
37.779976
20
26
30
0
11
51.3
21
26
31
0
39
0
210
0
220
0
230
1
0
LINE
5
A1
100
AcDbEntity
8
1
62
256
6
ByLayer
370
18
48
1
60
0
100
AcDbLine
10
37.779976
20
26
30
0
11
37.779976
21
-4.195872
31
0
39
0
210
0
220
0
230
1
0
LINE
5
A2
100
AcDbEntity
8
1
62
256
6
ByLayer
370
18
48
1
60
0
100
AcDbLine
10
39.789262
20
-4.586684
30
0
11
41.753312
21
-4.023502
31
0
39
0
210
0
220
0
230
1
0
LINE
5
A3
100
AcDbEntity
8
1
62
256
6
ByLayer
370
18
48
1
60
0
100
AcDbLine
10
50.4
20
6.465769
30
0
11
51.3
21
16.752816
31
0
39
0
210
0
220
0
230
1
0
LINE
5
A4
100
AcDbEntity
8
1
62
256
6
ByLayer
370
18
48
1
60
0
100
AcDbLine
10
41.753312
20
-4.023502
30
0
11
39.789262
21
-4.586684
31
0
39
0
210
0
220
0
230
1
0
LINE
5
A5
100
AcDbEntity
8
1
62
256
6
ByLayer
370
18
48
1
60
0
100
AcDbLine
10
37.779976
20
-4.195872
30
0
11
37.779976
21
26
31
0
39
0
210
0
220
0
230
1
0
LINE
5
A6
100
AcDbEntity
8
1
62
256
6
ByLayer
370
18
48
1
60
0
100
AcDbLine
10
39.789262
20
-4.586684
30
0
11
15.510045
21
-11.548638
31
0
39
0
210
0
220
0
230
1
0
LINE
5
A7
100
AcDbEntity
8
1
62
256
6
ByLayer
370
18
48
1
60
0
100
AcDbLine
10
15
20
-11.707258
30
0
11
15
21
-10.666609
31
0
39
0
210
0
220
0
230
1
0
LINE
5
A8
100
AcDbEntity
8
1
62
256
6
ByLayer
370
18
48
1
60
0
100
AcDbLine
10
15
20
-10.666609
30
0
11
37.779976
21
-4.195872
31
0
39
0
210
0
220
0
230
1
0
LINE
5
A9
100
AcDbEntity
8
1
62
256
6
ByLayer
370
18
48
1
60
0
100
AcDbLine
10
15
20
-11.707258
30
0
11
15
21
-10.666609
31
0
39
0
210
0
220
0
230
1
0
LINE
5
AA
100
AcDbEntity
8
1
62
256
6
ByLayer
370
18
48
1
60
0
100
AcDbLine
10
51
20
26
30
0
11
12
21
26
31
0
39
0
210
0
220
0
230
1
0
LINE
5
AB
100
AcDbEntity
8
1
62
256
6
ByLayer
370
18
48
1
60
0
100
AcDbLine
10
6.294692
20
-25
30
0
11
0.3
21
-25
31
0
39
0
210
0
220
0
230
1
0
LINE
5
AC
100
AcDbEntity
8
1
62
256
6
ByLayer
370
18
48
1
60
0
100
AcDbLine
10
0.3
20
25
30
0
11
10
21
25
31
0
39
0
210
0
220
0
230
1
0
LINE
5
AD
100
AcDbEntity
8
1
62
256
6
ByLayer
370
18
48
1
60
0
100
AcDbLine
10
10
20
25
30
0
11
10.8391
21
26
31
0
39
0
210
0
220
0
230
1
0
LINE
5
AE
100
AcDbEntity
8
1
62
256
6
ByLayer
370
18
48
1
60
0
100
AcDbLine
10
51.3
20
26
30
0
11
51.3
21
16.752816
31
0
39
0
210
0
220
0
230
1
0
LINE
5
AF
100
AcDbEntity
8
4
62
256
6
ByLayer
370
13
48
0.05
60
0
100
AcDbLine
10
0
20
0
30
0
11
51.245252
21
0
31
0
39
0
210
0
220
0
230
1
0
LINE
5
B1
100
AcDbEntity
8
SK4
62
256
6
ByLayer
370
13
48
0.05
60
0
100
AcDbLine
10
51.245252
20
0
30
0
11
-33
21
0
31
0
39
0
210
0
220
0
230
1
0
LINE
5
B3
100
AcDbEntity
8
80
62
256
6
ByLayer
370
13
48
1
60
0
100
AcDbLine
10
0
20
0
30
0
11
-6.976482
21
0
31
0
39
0
210
0
220
0
230
1
0
LINE
5
B4
100
AcDbEntity
8
81
62
256
6
ByLayer
370
13
48
1
60
0
100
AcDbLine
10
31
20
27
30
0
11
31
21
32
31
0
39
0
210
0
220
0
230
1
0
MTEXT
5
D8
100
AcDbEntity
8
SK6
62
256
6
ByLayer
370
18
48
1
60
0
100
AcDbMText
10
3.551849
20
-34.443154
30
0
210
0
220
0
230
1
1
\W0.7221;C5-570-40-RF-T
40
3.5
41
0
44
1.084337
50
0
71
7
72
5
7
iso_b_vert
0
DIMENSION
5
E7
100
AcDbEntity
8
SK2
62
256
6
ByLayer
370
13
48
1
60
0
100
AcDbDimension
2
DimnDraft3D1
10
-45.5
20
25
30
0
11
-45.75
21
2.147368
31
0
70
33
71
5
72
1
41
1
210
0
220
0
230
1
3
Standard
100
AcDbAlignedDimension
13
-1.7
23
-25
33
0
14
-1.7
24
25
34
0
1001
ACAD
1000
DSTYLE
1002
{
1070
   279
1070
     0
1070
    74
1070
     0
1070
   173
1070
     1
1070
   340
1005
D9
1070
   271
1070
     3
1070
   272
1070
     3
1070
    77
1070
     1
1070
    73
1070
     0
1070
   171
1070
     3
1070
   274
1070
     3
1070
   177
1070
   254
1070
   176
1070
   254
1070
   178
1070
   254
1070
    78
1070
     8
1070
    41
1041
3.175
1070
   147
1041
1.5
1070
    42
1041
2.0
1070
    44
1041
2.0
1070
   140
1041
3.0
1070
   343
1005
0
1070
   344
1005
0
1002
}
0
DIMENSION
5
F1
100
AcDbEntity
8
SK2
62
256
6
ByLayer
370
13
48
1
60
0
100
AcDbDimension
2
DimnDraft3D2
10
27
20
-63.881705
30
0
11
11.747368
21
-63.881705
31
0
70
32
71
5
72
1
41
1
210
0
220
0
230
1
3
Standard
100
AcDbAlignedDimension
13
0
23
-53.245252
33
0
14
27
24
-33
34
0
50
0
100
AcDbRotatedDimension
1001
ACAD
1000
DSTYLE
1002
{
1070
   279
1070
     0
1070
   172
1070
     1
1070
   173
1070
     1
1070
   340
1005
D9
1070
   271
1070
     3
1070
   272
1070
     3
1070
    77
1070
     1
1070
    73
1070
     0
1070
   171
1070
     3
1070
   274
1070
     3
1070
   177
1070
   254
1070
   176
1070
   254
1070
   178
1070
   254
1070
    78
1070
     8
1070
    41
1041
3.175
1070
   147
1041
1.5
1070
    42
1041
2.0
1070
    44
1041
2.0
1070
   140
1041
3.0
1070
   343
1005
0
1070
   344
1005
0
1002
}
0
DIMENSION
5
FC
100
AcDbEntity
8
2
62
256
6
ByLayer
370
13
48
1
60
0
100
AcDbDimension
2
DimnDraft3D3
10
31
20
55.102363
30
0
11
14.082895
21
55.102363
31
0
70
32
71
5
72
1
41
1
210
0
220
0
230
1
3
Standard
100
AcDbAlignedDimension
13
0
23
26.7
33
0
14
31
24
34
34
0
50
0
100
AcDbRotatedDimension
1001
ACAD
1000
DSTYLE
1002
{
1070
   279
1070
     0
1070
   172
1070
     1
1070
   173
1070
     1
1070
   340
1005
D9
1070
   271
1070
     3
1070
   272
1070
     3
1070
    77
1070
     1
1070
    73
1070
     0
1070
   171
1070
     3
1070
   274
1070
     3
1070
   177
1070
   254
1070
   176
1070
   254
1070
   178
1070
   254
1070
    78
1070
     8
1070
    41
1041
3.175
1070
   147
1041
1.5
1070
    42
1041
2.0
1070
    44
1041
2.0
1070
   140
1041
3.0
1070
   343
1005
0
1070
   344
1005
0
1002
}
0
DIMENSION
5
107
100
AcDbEntity
8
SK2
62
256
6
ByLayer
370
13
48
1
60
0
100
AcDbDimension
2
DimnDraft3D4
10
51
20
47.165724
30
0
11
33.45
21
47.415724
31
0
70
33
71
5
72
1
41
1
210
0
220
0
230
1
3
Standard
100
AcDbAlignedDimension
13
12
23
28.324519
33
0
14
51
24
28.324519
34
0
1001
ACAD
1000
DSTYLE
1002
{
1070
   279
1070
     0
1070
    74
1070
     0
1070
   173
1070
     1
1070
   340
1005
D9
1070
   271
1070
     3
1070
   272
1070
     3
1070
    77
1070
     1
1070
    73
1070
     0
1070
   171
1070
     3
1070
   274
1070
     3
1070
   177
1070
   254
1070
   176
1070
   254
1070
   178
1070
   254
1070
    78
1070
     8
1070
    41
1041
3.175
1070
   147
1041
1.5
1070
    42
1041
2.0
1070
    44
1041
2.0
1070
   140
1041
3.0
1070
   343
1005
0
1070
   344
1005
0
1002
}
0
ENDSEC
0
SECTION
2
OBJECTS
0
DICTIONARY
5
172
330
0
100
AcDbDictionary
280
0
281
1
3
ACAD_GROUP
350
173
3
ACAD_MLINESTYLE
350
174
0
DICTIONARY
5
173
330
0
100
AcDbDictionary
280
0
281
1
0
DICTIONARY
5
174
330
0
100
AcDbDictionary
280
0
281
1
3
Standard
350
18
0
MLINESTYLE
5
18
330
174
100
AcDbMlineStyle
2
Standard
70
0
3

62
256
51
90
52
90
71
2
49
-0.5
62
256
6
ByLayer
49
0.5
62
256
6
ByLayer
0
RASTERVARIABLES
5
160
330

100
AcDbRasterVariables
90
0
70
1
71
1
72
1
0
ENDSEC
0
EOF
