0
SECTION
2
HEADER
9
$ACADVER
1
AC1015
9
$DWGCODEPAGE
3
ANSI_1252
9
$HANDSEED
5
242
9
$ANGBASE
50
0
9
$ANGDIR
70
0
9
$ATTMODE
70
1
9
$AUNITS
70
0
9
$AUPREC
70
0
9
$CECOLOR
62
256
9
$CELTSCALE
40
1
9
$CELTYPE
6
ByLayer
9
$CELWEIGHT
370
18
9
$CLAYER
8
0
9
$CMLJUST
70
0
9
$CMLSCALE
40
1
9
$CMLSTYLE
2
Standard
9
$DIMSTYLE
2
Standard
9
$TEXTSIZE
40
0.2
9
$TEXTSTYLE
7
Standard
9
$LUNITS
70
2
9
$LUPREC
70
4
9
$EXTNAMES
290
1
9
$INSUNITS
70
4
9
$LTSCALE
40
1
9
$LWDISPLAY
290
1
9
$PDMODE
70
0
9
$PDSIZE
40
0
9
$PLINEGEN
70
0
0
ENDSEC
0
SECTION
2
CLASSES
0
CLASS
1
RASTERVARIABLES
2
AcDbRasterVariables
3
ISM
90
0
280
0
281
0
0
ENDSEC
0
SECTION
2
TABLES
0
TABLE
2
VPORT
5
238
100
AcDbSymbolTable
0
VPORT
5
1
100
AcDbSymbolTableRecord
100
AcDbViewportTableRecord
2
*Active
70
0
10
0
20
0
11
1
21
1
12
-1
22
1
13
0
23
0
14
0.5
24
0.5
15
10
25
10
16
0
26
0
36
1
17
0
27
0
37
0
0
ENDTAB
0
TABLE
2
LTYPE
5
239
100
AcDbSymbolTable
0
LTYPE
5
14
100
AcDbSymbolTableRecord
100
AcDbLinetypeTableRecord
70
0
2
ByBlock
3

72
65
73
0
40
0
0
LTYPE
5
15
100
AcDbSymbolTableRecord
100
AcDbLinetypeTableRecord
70
0
2
ByLayer
3

72
65
73
0
40
0
0
LTYPE
5
16
100
AcDbSymbolTableRecord
100
AcDbLinetypeTableRecord
70
0
2
CONTINUOUS
3
Solid line
72
65
73
0
40
0
0
LTYPE
5
6A
100
AcDbSymbolTableRecord
100
AcDbLinetypeTableRecord
70
0
2
CENTER
3
____ _ ____ _ ____ _ ____
72
65
73
4
40
47.5
49
22
74
0
49
-8.5
74
0
49
8.5
74
0
49
-8.5
74
0
0
LTYPE
5
6B
100
AcDbSymbolTableRecord
100
AcDbLinetypeTableRecord
70
0
2
DASHED
3
__ __ __ __ __ __ __ __ __
72
65
73
2
40
25.72
49
12.86
74
0
49
-12.86
74
0
0
ENDTAB
0
TABLE
2
LAYER
5
23a
100
AcDbSymbolTable
0
LAYER
5
10
100
AcDbSymbolTableRecord
100
AcDbLayerTableRecord
2
0
70
0
62
7
6
CONTINUOUS
290
1
370
-3
390
0
0
LAYER
5
6D
100
AcDbSymbolTableRecord
100
AcDbLayerTableRecord
2
80
70
0
62
-6
6
CONTINUOUS
290
1
370
-3
390
0
0
LAYER
5
6F
100
AcDbSymbolTableRecord
100
AcDbLayerTableRecord
2
81
70
0
62
-3
6
CONTINUOUS
290
1
370
-3
390
0
0
LAYER
5
72
100
AcDbSymbolTableRecord
100
AcDbLayerTableRecord
2
4
70
0
62
-2
6
CENTER
290
1
370
-3
390
0
0
LAYER
5
77
100
AcDbSymbolTableRecord
100
AcDbLayerTableRecord
2
1
70
0
62
4
6
CONTINUOUS
290
1
370
-3
390
0
0
LAYER
5
195
100
AcDbSymbolTableRecord
100
AcDbLayerTableRecord
2
2
70
0
62
7
6
CONTINUOUS
290
1
370
-3
390
0
0
LAYER
5
224
100
AcDbSymbolTableRecord
100
AcDbLayerTableRecord
2
SK4
70
0
62
2
6
CENTER
290
1
370
-3
390
0
0
LAYER
5
225
100
AcDbSymbolTableRecord
100
AcDbLayerTableRecord
2
SK1
70
0
62
4
6
CONTINUOUS
290
1
370
-3
390
0
0
LAYER
5
226
100
AcDbSymbolTableRecord
100
AcDbLayerTableRecord
2
SK6
70
0
62
5
6
CONTINUOUS
290
1
370
-3
390
0
0
LAYER
5
227
100
AcDbSymbolTableRecord
100
AcDbLayerTableRecord
2
SK2
70
0
62
7
6
CONTINUOUS
290
1
370
-3
390
0
0
ENDTAB
0
TABLE
2
STYLE
5
23b
100
AcDbSymbolTable
0
STYLE
5
11
100
AcDbSymbolTableRecord
100
AcDbTextStyleTableRecord
2
Standard
3
txt
70
0
71
0
40
0
41
1
42
0
50
0
0
STYLE
5
190
100
AcDbSymbolTableRecord
100
AcDbTextStyleTableRecord
2
iso_b_vert
3
simplex.shx
70
0
71
0
40
0
41
1
42
0
50
0
0
STYLE
5
191
100
AcDbSymbolTableRecord
100
AcDbTextStyleTableRecord
2
DWGDirectTextStyle
3
simplex
70
0
71
0
40
0
41
1
42
0
50
0
0
ENDTAB
0
TABLE
2
DIMSTYLE
5
23c
100
AcDbSymbolTable
100
AcDbDimStyleTable
0
DIMSTYLE
105
27
100
AcDbSymbolTableRecord
100
AcDbDimStyleTableRecord
2
Standard
70
0
3
<>
41
0.18
42
0.0625
44
0.18
140
0.18
147
0.09
73
0
74
0
77
1
271
2
275
0
278
52
280
0
340
11
0
ENDTAB
0
TABLE
2
VIEW
5
23d
100
AcDbSymbolTable
0
ENDTAB
0
TABLE
2
UCS
5
23e
100
AcDbSymbolTable
0
ENDTAB
0
TABLE
2
APPID
5
23f
100
AcDbSymbolTable
0
APPID
5
12
100
AcDbSymbolTableRecord
100
AcDbRegAppTableRecord
2
ACAD
70
0
0
ENDTAB
0
TABLE
2
BLOCK_RECORD
5
240
100
AcDbSymbolTable
0
BLOCK_RECORD
5
1F
100
AcDbSymbolTableRecord
100
AcDbBlockTableRecord
2
*Model_Space
340
0
70
0
0
BLOCK_RECORD
5
1B
100
AcDbSymbolTableRecord
100
AcDbBlockTableRecord
2
*Paper_Space
340
0
70
0
0
BLOCK_RECORD
5
23
100
AcDbSymbolTableRecord
100
AcDbBlockTableRecord
2
*Paper_Space0
340
0
70
0
0
BLOCK_RECORD
5
193
100
AcDbSymbolTableRecord
100
AcDbBlockTableRecord
2
DimnDraft3D1
340
0
70
0
0
BLOCK_RECORD
5
19E
100
AcDbSymbolTableRecord
100
AcDbBlockTableRecord
2
DimnDraft3D2
340
0
70
0
0
BLOCK_RECORD
5
1AA
100
AcDbSymbolTableRecord
100
AcDbBlockTableRecord
2
DimnDraft3D3
340
0
70
0
0
BLOCK_RECORD
5
1B5
100
AcDbSymbolTableRecord
100
AcDbBlockTableRecord
2
DimnDraft3D4
340
0
70
0
0
BLOCK_RECORD
5
1C0
100
AcDbSymbolTableRecord
100
AcDbBlockTableRecord
2
DimnDraft3D55
340
0
70
0
0
ENDTAB
0
ENDSEC
0
SECTION
2
BLOCKS
0
BLOCK
5
20
100
AcDbEntity
8
0
100
AcDbBlockBegin
2
*Model_Space
70
0
10
0
20
0
30
0
3
*Model_Space
0
ENDBLK
5
21
100
AcDbEntity
8
0
100
AcDbBlockEnd
0
BLOCK
5
1C
100
AcDbEntity
8
0
100
AcDbBlockBegin
2
*Paper_Space
70
0
10
0
20
0
30
0
3
*Paper_Space
0
ENDBLK
5
1D
100
AcDbEntity
8
0
100
AcDbBlockEnd
0
BLOCK
5
24
100
AcDbEntity
8
0
100
AcDbBlockBegin
2
*Paper_Space0
70
0
10
0
20
0
30
0
3
*Paper_Space0
0
ENDBLK
5
25
100
AcDbEntity
8
0
100
AcDbBlockEnd
0
BLOCK
5
19B
100
AcDbEntity
8
0
100
AcDbBlockBegin
2
DimnDraft3D1
70
0
10
0
20
0
30
0
3
DimnDraft3D1
0
MTEXT
5
194
100
AcDbEntity
8
2
62
256
6
ByLayer
370
13
48
1
60
0
100
AcDbMText
10
181.710658
20
59.460561
30
0
210
0
220
0
230
1
1
\W0.7138;368
40
3.175
41
0
44
1.084337
50
0
71
7
72
5
7
iso_b_vert
0
LINE
5
196
100
AcDbEntity
8
2
62
256
6
ByLayer
370
13
48
1
60
0
100
AcDbLine
10
0
20
1.5875
30
0
11
0
21
61.841811
31
0
39
0
210
0
220
0
230
1
0
LINE
5
197
100
AcDbEntity
8
2
62
256
6
ByLayer
370
13
48
1
60
0
100
AcDbLine
10
368
20
-3.4125
30
0
11
368
21
61.841811
31
0
39
0
210
0
220
0
230
1
0
LINE
5
198
100
AcDbEntity
8
2
62
256
6
ByLayer
370
13
48
1
60
0
100
AcDbLine
10
0
20
58.666811
30
0
11
368
21
58.666811
31
0
39
0
210
0
220
0
230
1
0
SOLID
5
199
100
AcDbEntity
8
2
62
256
6
ByLayer
370
13
48
1
60
0
100
AcDbTrace
10
0
20
58.666811
30
0
11
3.174998
21
59.084807
31
0
12
3.175002
22
58.248814
32
0
13
0
23
58.666811
33
0
39
0
210
0
220
0
230
1
0
SOLID
5
19A
100
AcDbEntity
8
2
62
256
6
ByLayer
370
13
48
1
60
0
100
AcDbTrace
10
368
20
58.666811
30
0
11
364.825002
21
58.248814
31
0
12
364.824998
22
59.084807
32
0
13
368
23
58.666811
33
0
39
0
210
0
220
0
230
1
0
ENDBLK
5
19C
100
AcDbEntity
8
0
100
AcDbBlockEnd
0
BLOCK
5
1A7
100
AcDbEntity
8
0
100
AcDbBlockBegin
2
DimnDraft3D2
70
0
10
0
20
0
30
0
3
DimnDraft3D2
0
MTEXT
5
19F
100
AcDbEntity
8
SK2
62
256
6
ByLayer
370
13
48
1
60
0
100
AcDbMText
10
-58.036222
20
-4.25309
30
0
210
0
220
0
230
1
1
%%c
40
3.175
41
0
44
1.084337
50
90
71
7
72
5
7
iso_b_vert
0
MTEXT
5
1A1
100
AcDbEntity
8
SK2
62
256
6
ByLayer
370
13
48
1
60
0
100
AcDbMText
10
-58.036222
20
3.659605
30
0
210
0
220
0
230
1
1
\W0.6740;50
40
3.175
41
0
44
1.084337
50
90
71
7
72
5
7
iso_b_vert
0
LINE
5
1A2
100
AcDbEntity
8
SK2
62
256
6
ByLayer
370
13
48
1
60
0
100
AcDbLine
10
-1.2875
20
25
30
0
11
-59.623722
21
25
31
0
39
0
210
0
220
0
230
1
0
LINE
5
1A3
100
AcDbEntity
8
SK2
62
256
6
ByLayer
370
13
48
1
60
0
100
AcDbLine
10
-1.2875
20
-25
30
0
11
-59.623722
21
-25
31
0
39
0
210
0
220
0
230
1
0
LINE
5
1A4
100
AcDbEntity
8
SK2
62
256
6
ByLayer
370
13
48
1
60
0
100
AcDbLine
10
-56.448722
20
25
30
0
11
-56.448722
21
-25
31
0
39
0
210
0
220
0
230
1
0
SOLID
5
1A5
100
AcDbEntity
8
SK2
62
256
6
ByLayer
370
13
48
1
60
0
100
AcDbTrace
10
-56.448722
20
25
30
0
11
-56.030726
21
21.825002
31
0
12
-56.866719
22
21.824998
32
0
13
-56.448722
23
25
33
0
39
0
210
0
220
0
230
1
0
SOLID
5
1A6
100
AcDbEntity
8
SK2
62
256
6
ByLayer
370
13
48
1
60
0
100
AcDbTrace
10
-56.448722
20
-25
30
0
11
-56.866719
21
-21.825002
31
0
12
-56.030726
22
-21.824998
32
0
13
-56.448722
23
-25
33
0
39
0
210
0
220
0
230
1
0
ENDBLK
5
1A8
100
AcDbEntity
8
0
100
AcDbBlockEnd
0
BLOCK
5
1B2
100
AcDbEntity
8
0
100
AcDbBlockBegin
2
DimnDraft3D3
70
0
10
0
20
0
30
0
3
DimnDraft3D3
0
MTEXT
5
1AB
100
AcDbEntity
8
SK2
62
256
6
ByLayer
370
13
48
1
60
0
100
AcDbMText
10
424.950994
20
35.480095
30
0
210
0
220
0
230
1
1
%%c
40
3.175
41
0
44
1.084337
50
90
71
7
72
5
7
iso_b_vert
0
MTEXT
5
1AC
100
AcDbEntity
8
SK2
62
256
6
ByLayer
370
13
48
1
60
0
100
AcDbMText
10
424.950994
20
43.39279
30
0
210
0
220
0
230
1
1
\W0.6740;50
40
3.175
41
0
44
1.084337
50
90
71
7
72
5
7
iso_b_vert
0
LINE
5
1AD
100
AcDbEntity
8
SK2
62
256
6
ByLayer
370
13
48
1
60
0
100
AcDbLine
10
365.2875
20
25
30
0
11
429.713494
21
25
31
0
39
0
210
0
220
0
230
1
0
LINE
5
1AE
100
AcDbEntity
8
SK2
62
256
6
ByLayer
370
13
48
1
60
0
100
AcDbLine
10
365.2875
20
-25
30
0
11
429.713494
21
-25
31
0
39
0
210
0
220
0
230
1
0
LINE
5
1AF
100
AcDbEntity
8
SK2
62
256
6
ByLayer
370
13
48
1
60
0
100
AcDbLine
10
426.538494
20
-25
30
0
11
426.538494
21
46.392329
31
0
39
0
210
0
220
0
230
1
0
SOLID
5
1B0
100
AcDbEntity
8
SK2
62
256
6
ByLayer
370
13
48
1
60
0
100
AcDbTrace
10
426.538494
20
25
30
0
11
426.95649
21
21.825002
31
0
12
426.120497
22
21.824998
32
0
13
426.538494
23
25
33
0
39
0
210
0
220
0
230
1
0
SOLID
5
1B1
100
AcDbEntity
8
SK2
62
256
6
ByLayer
370
13
48
1
60
0
100
AcDbTrace
10
426.538494
20
-25
30
0
11
426.120497
21
-21.825002
31
0
12
426.95649
22
-21.824998
32
0
13
426.538494
23
-25
33
0
39
0
210
0
220
0
230
1
0
ENDBLK
5
1B3
100
AcDbEntity
8
0
100
AcDbBlockEnd
0
BLOCK
5
1BD
100
AcDbEntity
8
0
100
AcDbBlockBegin
2
DimnDraft3D4
70
0
10
0
20
0
30
0
3
DimnDraft3D4
0
MTEXT
5
1B6
100
AcDbEntity
8
SK2
62
256
6
ByLayer
370
13
48
1
60
0
100
AcDbMText
10
407.776739
20
34.269089
30
0
210
0
220
0
230
1
1
%%c
40
3.175
41
0
44
1.084337
50
90
71
7
72
5
7
iso_b_vert
0
MTEXT
5
1B7
100
AcDbEntity
8
SK2
62
256
6
ByLayer
370
13
48
1
60
0
100
AcDbMText
10
407.776739
20
42.181785
30
0
210
0
220
0
230
1
1
\W0.7361;40
40
3.175
41
0
44
1.084337
50
90
71
7
72
5
7
iso_b_vert
0
LINE
5
1B8
100
AcDbEntity
8
SK2
62
256
6
ByLayer
370
13
48
1
60
0
100
AcDbLine
10
368.9125
20
15
30
0
11
412.539239
21
15
31
0
39
0
210
0
220
0
230
1
0
LINE
5
1B9
100
AcDbEntity
8
SK2
62
256
6
ByLayer
370
13
48
1
60
0
100
AcDbLine
10
368.9125
20
-25
30
0
11
412.539239
21
-25
31
0
39
0
210
0
220
0
230
1
0
LINE
5
1BA
100
AcDbEntity
8
SK2
62
256
6
ByLayer
370
13
48
1
60
0
100
AcDbLine
10
409.364239
20
-25
30
0
11
409.364239
21
45.515535
31
0
39
0
210
0
220
0
230
1
0
SOLID
5
1BB
100
AcDbEntity
8
SK2
62
256
6
ByLayer
370
13
48
1
60
0
100
AcDbTrace
10
409.364239
20
15
30
0
11
409.782236
21
11.825002
31
0
12
408.946242
22
11.824998
32
0
13
409.364239
23
15
33
0
39
0
210
0
220
0
230
1
0
SOLID
5
1BC
100
AcDbEntity
8
SK2
62
256
6
ByLayer
370
13
48
1
60
0
100
AcDbTrace
10
409.364239
20
-25
30
0
11
408.946242
21
-21.825002
31
0
12
409.782236
22
-21.824998
32
0
13
409.364239
23
-25
33
0
39
0
210
0
220
0
230
1
0
ENDBLK
5
1BE
100
AcDbEntity
8
0
100
AcDbBlockEnd
0
BLOCK
5
1C1
100
AcDbEntity
8
0
100
AcDbBlockBegin
2
DimnDraft3D55
70
0
10
0
20
0
30
0
3
DimnDraft3D55
0
LINE
5
1C3
100
AcDbEntity
8
SK2
62
256
6
ByLayer
370
25
48
1
60
0
100
AcDbLine
10
369.9125
20
-5
30
0
11
398.997999
21
-5
31
0
39
0
210
0
220
0
230
1
0
LINE
5
1C4
100
AcDbEntity
8
SK2
62
256
6
ByLayer
370
25
48
1
60
0
100
AcDbLine
10
376.5875
20
0
30
0
11
398.997999
21
0
31
0
39
0
210
0
220
0
230
1
0
LINE
5
1C5
100
AcDbEntity
8
SK2
62
256
6
ByLayer
370
25
48
1
60
0
100
AcDbLine
10
395.822999
20
-5
30
0
11
395.822999
21
-12.9375
31
0
39
0
210
0
220
0
230
1
0
LINE
5
1C6
100
AcDbEntity
8
SK2
62
256
6
ByLayer
370
25
48
1
60
0
100
AcDbLine
10
395.822999
20
0
30
0
11
395.822999
21
9.283509
31
0
39
0
210
0
220
0
230
1
0
SOLID
5
1C7
100
AcDbEntity
8
SK2
62
256
6
ByLayer
370
25
48
1
60
0
100
AcDbTrace
10
395.822999
20
-5
30
0
11
396.240996
21
-8.174998
31
0
12
395.405003
22
-8.175002
32
0
13
395.822999
23
-5
33
0
39
0
210
0
220
0
230
1
0
SOLID
5
1C8
100
AcDbEntity
8
SK2
62
256
6
ByLayer
370
25
48
1
60
0
100
AcDbTrace
10
395.822999
20
0
30
0
11
395.405003
21
3.174998
31
0
12
396.240996
22
3.175002
32
0
13
395.822999
23
0
33
0
39
0
210
0
220
0
230
1
0
MTEXT
5
1C9
100
AcDbEntity
8
SK2
62
256
6
ByLayer
370
13
48
1
60
0
100
AcDbMText
10
395.029249
20
8.656864
30
0
210
0
220
0
230
1
1
\W0.5404;5
40
3.175
41
0
44
1.084337
50
90
71
7
72
5
7
iso_b_vert
0
ENDBLK
5
1C2
100
AcDbEntity
8
0
100
AcDbBlockEnd
0
ENDSEC
0
SECTION
2
ENTITIES
0
ARC
5
FC
100
AcDbEntity
8
1
62
256
6
ByLayer
370
18
48
1
60
0
100
AcDbCircle
39
0
10
-366.3
20
15.3
30
0
40
0.3
210
0
220
0
230
-1
100
AcDbArc
50
270
51
0
0
ARC
5
FE
100
AcDbEntity
8
1
62
256
6
ByLayer
370
18
48
1
60
0
100
AcDbCircle
39
0
10
363.7
20
-24.7
30
0
40
0.3
210
0
220
0
230
1
100
AcDbArc
50
270
51
0
0
ARC
5
FF
100
AcDbEntity
8
1
62
256
6
ByLayer
370
18
48
1
60
0
100
AcDbCircle
39
0
10
363.7
20
24.7
30
0
40
0.3
210
0
220
0
230
1
100
AcDbArc
50
0
51
90
0
CIRCLE
5
FD
100
AcDbEntity
8
1
62
256
6
ByLayer
370
18
48
1
60
0
100
AcDbCircle
10
356
20
0
30
0
40
1.5
39
0
210
0
220
0
230
1
0
ELLIPSE
5
100
100
AcDbEntity
8
1
62
256
6
ByLayer
370
18
48
1
60
0
100
AcDbEllipse
10
366.3
20
-23.791
30
0
11
0.299999999994021
21
0
31
0
210
0
220
0
230
1
40
0.925665
41
1.5707963267949
42
2.46410968331708
0
ELLIPSE
5
101
100
AcDbEntity
8
1
62
256
6
ByLayer
370
18
48
1
60
0
100
AcDbEllipse
10
-1.056258
20
0
30
0
11
11.7092723497275
21
24.6771864409377
31
0
210
0
220
0
230
1
40
0.341999
41
-1.08183270048919
42
-0.167213071909056
0
ELLIPSE
5
102
100
AcDbEntity
8
1
62
256
6
ByLayer
370
18
48
1
60
0
100
AcDbEllipse
10
21.056258
20
0
30
0
11
-11.7092723497273
21
24.6771864409375
31
0
210
0
220
0
230
1
40
0.341999
41
0.167213071909059
42
1.0818327004892
0
ELLIPSE
5
103
100
AcDbEntity
8
1
62
256
6
ByLayer
370
18
48
1
60
0
100
AcDbEllipse
10
-1.056258
20
0
30
0
11
-11.7092723497274
21
24.6771864409377
31
0
210
0
220
0
230
1
40
0.341999
41
-2.97437958168074
42
-2.0597599531006
0
ELLIPSE
5
104
100
AcDbEntity
8
1
62
256
6
ByLayer
370
18
48
1
60
0
100
AcDbEllipse
10
21.056258
20
0
30
0
11
11.7092723497276
21
24.677186440938
31
0
210
0
220
0
230
1
40
0.341999
41
2.05975995310061
42
2.97437958168074
0
POINT
5
6C
100
AcDbEntity
8
80
62
256
6
ByLayer
370
18
48
1
60
0
100
AcDbPoint
10
0
20
0
30
0
39
0
210
0
220
0
230
1
50
360
0
POINT
5
6E
100
AcDbEntity
8
81
62
256
6
ByLayer
370
18
48
1
60
0
100
AcDbPoint
10
368
20
-5
30
0
39
0
210
0
220
0
230
1
50
360
0
SPLINE
5
105
100
AcDbEntity
8
1
62
256
6
ByLayer
370
18
48
1
60
0
100
AcDbSpline
70
4
71
3
72
11
73
7
40
0
40
0
40
0
40
0
40
0.275209774590476
40
0.53357894849216
40
0.775155885168025
40
1
40
1
40
1
40
1
41
1
10
365.676677644263
20
-23.8028667910023
30
0
41
1
10
365.647937194228
20
-23.6592661132069
30
0
41
1
10
365.598444517087
20
-23.3568809653772
30
0
41
1
10
365.542688216441
20
-22.8495084146797
30
0
41
1
10
365.508463285602
20
-22.3169764979383
30
0
41
1
10
365.500704008755
20
-21.9404657094295
30
0
41
1
10
365.5
20
-21.7510204081632
30
0
0
SPLINE
5
106
100
AcDbEntity
8
1
62
256
6
ByLayer
370
18
48
1
60
0
100
AcDbSpline
70
4
71
3
72
13
73
9
40
0
40
0
40
0
40
0
40
0.234229384570014
40
0.441436544238139
40
0.621618559016358
40
0.774773375895151
40
0.900900143088899
40
1
40
1
40
1
40
1
41
1
10
366
20
-25
30
0
41
1
10
365.978401694846
20
-24.9999421910086
30
0
41
1
10
365.936635495797
20
-24.9583812616576
30
0
41
1
10
365.875480135876
20
-24.7895352469332
30
0
41
1
10
365.819378998244
20
-24.5592697284229
30
0
41
1
10
365.768205819913
20
-24.3031078571561
30
0
41
1
10
365.722696106206
20
-24.0508858816201
30
0
41
1
10
365.691196936489
20
-23.8812844231068
30
0
41
1
10
365.676677644263
20
-23.8028667910023
30
0
0
SPLINE
5
107
100
AcDbEntity
8
1
62
256
6
ByLayer
370
18
48
1
60
0
100
AcDbSpline
70
4
71
1
72
4
73
2
40
0
40
0
40
1
40
1
41
1
10
365.5
20
-21.7510204081632
30
0
41
1
10
366
20
-21.316
30
0
0
SPLINE
5
108
100
AcDbEntity
8
1
62
256
6
ByLayer
370
18
48
1
60
0
100
AcDbSpline
70
4
71
3
72
11
73
7
40
0
40
0
40
0
40
0
40
0.233301037036025
40
0.489455612058116
40
0.745007114375315
40
1
40
1
40
1
40
1
41
1
10
366.000035926759
20
-21.3807521101306
30
0
41
1
10
366.000285382314
20
-21.5943335659828
30
0
41
1
10
366.003253130792
20
-22.0231060306867
30
0
41
1
10
366.015663222243
20
-22.6146019131637
30
0
41
1
10
366.036653902357
20
-23.1558873038511
30
0
41
1
10
366.055546614326
20
-23.4708848180294
30
0
41
1
10
366.066254116598
20
-23.6169285456934
30
0
0
SPLINE
5
109
100
AcDbEntity
8
1
62
256
6
ByLayer
370
18
48
1
60
0
100
AcDbSpline
70
4
71
1
72
4
73
2
40
0
40
0
40
1
40
1
41
1
10
366
20
-21.316
30
0
41
1
10
366.000035926759
20
-21.3807521101306
30
0
0
SPLINE
5
10A
100
AcDbEntity
8
1
62
256
6
ByLayer
370
18
48
1
60
0
100
AcDbSpline
70
4
71
3
72
15
73
11
40
0
40
0
40
0
40
0
40
0.0772625601944666
40
0.231843070044649
40
0.387015062711721
40
0.540160061117498
40
0.693855174499811
40
0.939889546874154
40
0.991545197933257
40
1
40
1
40
1
40
1
41
1
10
366.3
20
-23.5133004926108
30
0
41
1
10
366.299806112707
20
-23.5890001657308
30
0
41
1
10
366.296656266673
20
-23.8076589742645
30
0
41
1
10
366.276335246706
20
-24.1305764996089
30
0
41
1
10
366.236745236732
20
-24.4477106286634
30
0
41
1
10
366.186049014551
20
-24.6946530137455
30
0
41
1
10
366.116271760974
20
-24.9063059252968
30
0
41
1
10
366.053104534263
20
-24.9892353617751
30
0
41
1
10
366.00972027473
20
-24.9997452842333
30
0
41
1
10
366.00119881134
20
-24.999999999538
30
0
41
1
10
366
20
-25
30
0
0
SPLINE
5
10B
100
AcDbEntity
8
1
62
256
6
ByLayer
370
18
48
1
60
0
100
AcDbSpline
70
4
71
3
72
12
73
8
40
0
40
0
40
0
40
0
40
0.0814684080198013
40
0.28295438716173
40
0.496494800032541
40
0.831758491132749
40
1
40
1
40
1
40
1
41
1
10
367.555
20
-24.77
30
0
41
1
10
367.555015582329
20
-24.7699841495472
30
0
41
1
10
367.556077393944
20
-24.7689115960186
30
0
41
1
10
367.564760637255
20
-24.7601387505968
30
0
41
1
10
367.589381414209
20
-24.7352841727275
30
0
41
1
10
367.622628100026
20
-24.701772156945
30
0
41
1
10
367.648254823464
20
-24.6759963201806
30
0
41
1
10
367.657250000005
20
-24.6669526077322
30
0
0
SPLINE
5
10C
100
AcDbEntity
8
1
62
256
6
ByLayer
370
18
48
1
60
0
100
AcDbSpline
70
4
71
2
72
6
73
3
40
0
40
0
40
0
40
1
40
1
40
1
41
1
10
368.325
20
-6.54140701060841
30
0
41
1
10
368.103860243448
20
-7.65129455942993
30
0
41
1
10
367.657249999991
20
-8.66688021116472
30
0
0
SPLINE
5
10D
100
AcDbEntity
8
1
62
256
6
ByLayer
370
18
48
1
60
0
100
AcDbSpline
70
4
71
2
72
6
73
3
40
0
40
0
40
0
40
1
40
1
40
1
41
1
10
367.65725
20
-12.5108818292089
30
0
41
1
10
368.083894802745
20
-10.8059612581617
30
0
41
1
10
368.325
20
-9.05325150625472
30
0
0
SPLINE
5
10E
100
AcDbEntity
8
1
62
256
6
ByLayer
370
18
48
1
60
0
100
AcDbSpline
70
4
71
3
72
14
73
10
40
0
40
0
40
0
40
0
40
0.108418701021964
40
0.180167597010936
40
0.252422528712217
40
0.317844072553252
40
0.418649479187744
40
0.607004012534461
40
1
40
1
40
1
40
1
41
1
10
367.657250000027
20
-13.3165319633417
30
0
41
1
10
367.64997141586
20
-13.3252661533819
30
0
41
1
10
367.637423488915
20
-13.3367232035545
30
0
41
1
10
367.6181585045
20
-13.3474656485804
30
0
41
1
10
367.602527381033
20
-13.3486467044095
30
0
41
1
10
367.587727804689
20
-13.3412071876311
30
0
41
1
10
367.572043538821
20
-13.3193318484152
30
0
41
1
10
367.557258581185
20
-13.2613586317057
30
0
41
1
10
367.552549383968
20
-13.2080249944438
30
0
41
1
10
367.555038128083
20
-13.1675712688107
30
0
0
SPLINE
5
10F
100
AcDbEntity
8
1
62
256
6
ByLayer
370
18
48
1
60
0
100
AcDbSpline
70
4
71
1
72
4
73
2
40
0
40
0
40
1
40
1
41
1
10
368.325
20
-12.5457307174572
30
0
41
1
10
367.65725
20
-13.3165319633644
30
0
0
SPLINE
5
110
100
AcDbEntity
8
1
62
256
6
ByLayer
370
18
48
1
60
0
100
AcDbSpline
70
4
71
1
72
4
73
2
40
0
40
0
40
1
40
1
41
1
10
367.65725
20
-15.4256727570724
30
0
41
1
10
368.325
20
-13.3586321419794
30
0
0
SPLINE
5
111
100
AcDbEntity
8
1
62
256
6
ByLayer
370
18
48
1
60
0
100
AcDbSpline
70
4
71
3
72
14
73
10
40
0
40
0
40
0
40
0
40
0.078382987138437
40
0.215707446420584
40
0.317812290822903
40
0.419869148103238
40
0.563517127420423
40
0.809794822448901
40
1
40
1
40
1
40
1
41
1
10
367.65725000001
20
-15.9719368077072
30
0
41
1
10
367.652444151996
20
-15.9765324929058
30
0
41
1
10
367.639151691486
20
-15.9877108997616
30
0
41
1
10
367.618336548231
20
-16.0001173756791
30
0
41
1
10
367.597444554273
20
-16.0028007933593
30
0
41
1
10
367.580149715048
20
-15.9953555751338
30
0
41
1
10
367.563926018898
20
-15.9720067645132
30
0
41
1
10
367.556259895161
20
-15.9328510655049
30
0
41
1
10
367.554587480467
20
-15.901180037617
30
0
41
1
10
367.555017244399
20
-15.8864398912317
30
0
0
SPLINE
5
112
100
AcDbEntity
8
1
62
256
6
ByLayer
370
18
48
1
60
0
100
AcDbSpline
70
4
71
1
72
4
73
2
40
0
40
0
40
1
40
1
41
1
10
368.325
20
-15.3440885798799
30
0
41
1
10
367.65725
20
-15.9719368077127
30
0
0
SPLINE
5
113
100
AcDbEntity
8
1
62
256
6
ByLayer
370
18
48
1
60
0
100
AcDbSpline
70
4
71
1
72
4
73
2
40
0
40
0
40
1
40
1
41
1
10
367.65725
20
-17.5090350955933
30
0
41
1
10
368.325
20
-15.8997529695359
30
0
0
SPLINE
5
114
100
AcDbEntity
8
1
62
256
6
ByLayer
370
18
48
1
60
0
100
AcDbSpline
70
4
71
3
72
13
73
9
40
0
40
0
40
0
40
0
40
0.110242213151557
40
0.282557275529555
40
0.412606166269115
40
0.542428032765977
40
0.733732087688938
40
1
40
1
40
1
40
1
41
1
10
367.657250000004
20
-17.9267973886488
30
0
41
1
10
367.650803050241
20
-17.9324740321066
30
0
41
1
10
367.634460670417
20
-17.9449728016786
30
0
41
1
10
367.609769049183
20
-17.9576961890998
30
0
41
1
10
367.587437063047
20
-17.9584727781845
30
0
41
1
10
367.569985716961
20
-17.9480918057826
30
0
41
1
10
367.557500913942
20
-17.9211431497262
30
0
41
1
10
367.554230160885
20
-17.8950860188413
30
0
41
1
10
367.555002425298
20
-17.8772250208737
30
0
0
SPLINE
5
115
100
AcDbEntity
8
1
62
256
6
ByLayer
370
18
48
1
60
0
100
AcDbSpline
70
4
71
1
72
4
73
2
40
0
40
0
40
1
40
1
41
1
10
368.325
20
-17.3516106251948
30
0
41
1
10
367.65725
20
-17.9267973886504
30
0
0
SPLINE
5
116
100
AcDbEntity
8
1
62
256
6
ByLayer
370
18
48
1
60
0
100
AcDbSpline
70
4
71
1
72
4
73
2
40
0
40
0
40
1
40
1
41
1
10
367.65725
20
-19.1335510614992
30
0
41
1
10
368.325
20
-17.7766387719495
30
0
0
SPLINE
5
117
100
AcDbEntity
8
1
62
256
6
ByLayer
370
18
48
1
60
0
100
AcDbSpline
70
4
71
3
72
13
73
9
40
0
40
0
40
0
40
0
40
0.138853390640135
40
0.341511995921698
40
0.518494759973564
40
0.669260172088991
40
0.905494557461915
40
1
40
1
40
1
40
1
41
1
10
367.657250000002
20
-19.4679225924795
30
0
41
1
10
367.64930360173
20
-19.4746550714136
30
0
41
1
10
367.63025527438
20
-19.4886415791471
30
0
41
1
10
367.60109405941
20
-19.502844162702
30
0
41
1
10
367.577380561363
20
-19.5015211440535
30
0
41
1
10
367.561214372378
20
-19.4866340293344
30
0
41
1
10
367.55569115143
20
-19.464542384589
30
0
41
1
10
367.554915850397
20
-19.4472215794255
30
0
41
1
10
367.555003412463
20
-19.4419827618974
30
0
0
SPLINE
5
118
100
AcDbEntity
8
1
62
256
6
ByLayer
370
18
48
1
60
0
100
AcDbSpline
70
4
71
1
72
4
73
2
40
0
40
0
40
1
40
1
41
1
10
368.325
20
-18.9148985452446
30
0
41
1
10
367.65725
20
-19.4679225924801
30
0
0
SPLINE
5
119
100
AcDbEntity
8
1
62
256
6
ByLayer
370
18
48
1
60
0
100
AcDbSpline
70
4
71
1
72
4
73
2
40
0
40
0
40
1
40
1
41
1
10
367.65725
20
-20.4446939818576
30
0
41
1
10
368.325
20
-19.2541356041277
30
0
0
SPLINE
5
11A
100
AcDbEntity
8
1
62
256
6
ByLayer
370
18
48
1
60
0
100
AcDbSpline
70
4
71
3
72
13
73
9
40
0
40
0
40
0
40
0
40
0.166242911182852
40
0.360375890725111
40
0.555799720089143
40
0.724316208407315
40
0.963610848020853
40
1
40
1
40
1
40
1
41
1
10
367.657250000001
20
-20.7174895437142
30
0
41
1
10
367.647934269861
20
-20.7252528119712
30
0
41
1
10
367.628418910791
20
-20.739446680958
30
0
41
1
10
367.598923790555
20
-20.7545791493184
30
0
41
1
10
367.575130693618
20
-20.756077901086
30
0
41
1
10
367.559249471883
20
-20.7435020486445
30
0
41
1
10
367.555257148099
20
-20.7256644826508
30
0
41
1
10
367.554989085092
20
-20.712940665717
30
0
41
1
10
367.555000472764
20
-20.7112166191105
30
0
0
SPLINE
5
11B
100
AcDbEntity
8
1
62
256
6
ByLayer
370
18
48
1
60
0
100
AcDbSpline
70
4
71
1
72
4
73
2
40
0
40
0
40
1
40
1
41
1
10
368.325
20
-20.1718989586826
30
0
41
1
10
367.65725
20
-20.7174895437145
30
0
0
SPLINE
5
11C
100
AcDbEntity
8
1
62
256
6
ByLayer
370
18
48
1
60
0
100
AcDbSpline
70
4
71
1
72
4
73
2
40
0
40
0
40
1
40
1
41
1
10
367.65725
20
-21.5172600263618
30
0
41
1
10
368.325
20
-20.4472737184539
30
0
0
SPLINE
5
11D
100
AcDbEntity
8
1
62
256
6
ByLayer
370
18
48
1
60
0
100
AcDbSpline
70
4
71
3
72
12
73
8
40
0
40
0
40
0
40
0
40
0.191366235578183
40
0.400705424394602
40
0.611426159911714
40
0.793354321085301
40
1
40
1
40
1
40
1
41
1
10
367.65725
20
-21.7409130865538
30
0
41
1
10
367.646627503721
20
-21.7497667997621
30
0
41
1
10
367.625380799525
20
-21.7653795144078
30
0
41
1
10
367.594288505919
20
-21.7819777186297
30
0
41
1
10
367.570624438789
20
-21.7844723098295
30
0
41
1
10
367.557467676365
20
-21.772957705561
30
0
41
1
10
367.554735111693
20
-21.7597810462401
30
0
41
1
10
367.555000725937
20
-21.7508635079355
30
0
0
SPLINE
5
11E
100
AcDbEntity
8
1
62
256
6
ByLayer
370
18
48
1
60
0
100
AcDbSpline
70
4
71
1
72
4
73
2
40
0
40
0
40
1
40
1
41
1
10
368.325
20
-21.1940925803361
30
0
41
1
10
367.65725
20
-21.740913086554
30
0
0
SPLINE
5
11F
100
AcDbEntity
8
1
62
256
6
ByLayer
370
18
48
1
60
0
100
AcDbSpline
70
4
71
1
72
4
73
2
40
0
40
0
40
1
40
1
41
1
10
367.65725
20
-22.3954357623967
30
0
41
1
10
368.325
20
-21.4181652094505
30
0
0
SPLINE
5
120
100
AcDbEntity
8
1
62
256
6
ByLayer
370
18
48
1
60
0
100
AcDbSpline
70
4
71
3
72
12
73
8
40
0
40
0
40
0
40
0
40
0.215086515550103
40
0.437438636714204
40
0.661293538621306
40
0.85384397139676
40
1
40
1
40
1
40
1
41
1
10
367.65725
20
-22.57773774939
30
0
41
1
10
367.645373678305
20
-22.5877389163179
30
0
41
1
10
367.622562049811
20
-22.6048994976594
30
0
41
1
10
367.590147318654
20
-22.6233332368948
30
0
41
1
10
367.566888680885
20
-22.6271121694883
30
0
41
1
10
367.556591726899
20
-22.6176023962012
30
0
41
1
10
367.554873954984
20
-22.607528238927
30
0
41
1
10
367.55500147232
20
-22.6022405721771
30
0
0
SPLINE
5
121
100
AcDbEntity
8
1
62
256
6
ByLayer
370
18
48
1
60
0
100
AcDbSpline
70
4
71
1
72
4
73
2
40
0
40
0
40
1
40
1
41
1
10
368.325
20
-22.0238289168013
30
0
41
1
10
367.65725
20
-22.5777377493901
30
0
0
SPLINE
5
122
100
AcDbEntity
8
1
62
256
6
ByLayer
370
18
48
1
60
0
100
AcDbSpline
70
4
71
1
72
4
73
2
40
0
40
0
40
1
40
1
41
1
10
367.65725
20
-23.1075258373112
30
0
41
1
10
368.325
20
-22.204477102103
30
0
0
SPLINE
5
123
100
AcDbEntity
8
1
62
256
6
ByLayer
370
18
48
1
60
0
100
AcDbSpline
70
4
71
3
72
12
73
8
40
0
40
0
40
0
40
0
40
0.238383637776316
40
0.472578322840616
40
0.708422830413691
40
0.909970655360732
40
1
40
1
40
1
40
1
41
1
10
367.65725
20
-23.2536450551967
30
0
41
1
10
367.644154353144
20
-23.264869634683
30
0
41
1
10
367.619908768226
20
-23.2837252912934
30
0
41
1
10
367.586411318166
20
-23.3043177379196
30
0
41
1
10
367.563744385307
20
-23.3097189328798
30
0
41
1
10
367.555900889281
20
-23.3020816888986
30
0
41
1
10
367.554957692867
20
-23.2945959471498
30
0
41
1
10
367.555000724703
20
-23.2919300405605
30
0
0
SPLINE
5
124
100
AcDbEntity
8
1
62
256
6
ByLayer
370
18
48
1
60
0
100
AcDbSpline
70
4
71
1
72
4
73
2
40
0
40
0
40
1
40
1
41
1
10
368.325
20
-22.6882126704918
30
0
41
1
10
367.65725
20
-23.2536450551968
30
0
0
SPLINE
5
125
100
AcDbEntity
8
1
62
256
6
ByLayer
370
18
48
1
60
0
100
AcDbSpline
70
4
71
1
72
4
73
2
40
0
40
0
40
1
40
1
41
1
10
367.65725
20
-23.6725412982302
30
0
41
1
10
368.325
20
-22.8306454136905
30
0
0
SPLINE
5
126
100
AcDbEntity
8
1
62
256
6
ByLayer
370
18
48
1
60
0
100
AcDbSpline
70
4
71
3
72
12
73
8
40
0
40
0
40
0
40
0
40
0.261192139426416
40
0.50595672887215
40
0.752535483089808
40
0.961563574781954
40
1
40
1
40
1
40
1
41
1
10
367.65725
20
-23.786012115824
30
0
41
1
10
367.64295433266
20
-23.798555389981
30
0
41
1
10
367.617380061953
20
-23.8192714267596
30
0
41
1
10
367.583004380813
20
-23.8423427456429
30
0
41
1
10
367.561085004117
20
-23.8496710722452
30
0
41
1
10
367.555355221632
20
-23.8437531907419
30
0
41
1
10
367.554994103838
20
-23.8383826837501
30
0
41
1
10
367.555000075114
20
-23.8374837408244
30
0
0
SPLINE
5
127
100
AcDbEntity
8
1
62
256
6
ByLayer
370
18
48
1
60
0
100
AcDbSpline
70
4
71
1
72
4
73
2
40
0
40
0
40
1
40
1
41
1
10
368.325
20
-23.2053559142514
30
0
41
1
10
367.65725
20
-23.7860121158241
30
0
0
SPLINE
5
128
100
AcDbEntity
8
1
62
256
6
ByLayer
370
18
48
1
60
0
100
AcDbSpline
70
4
71
1
72
4
73
2
40
0
40
0
40
1
40
1
41
1
10
367.65725
20
-24.1035364558329
30
0
41
1
10
368.325
20
-23.3131045806204
30
0
0
SPLINE
5
129
100
AcDbEntity
8
1
62
256
6
ByLayer
370
18
48
1
60
0
100
AcDbSpline
70
4
71
3
72
12
73
8
40
0
40
0
40
0
40
0
40
0.282977018566789
40
0.536553999364208
40
0.750837094272322
40
0.965613435476459
40
1
40
1
40
1
40
1
41
1
10
367.65725
20
-24.1867908893245
30
0
41
1
10
367.641760186522
20
-24.2007697381244
30
0
41
1
10
367.614943225208
20
-24.2235385350738
30
0
41
1
10
367.581692039333
20
-24.248055497566
30
0
41
1
10
367.561024500697
20
-24.2581756177889
30
0
41
1
10
367.555340370391
20
-24.2556494640045
30
0
41
1
10
367.554996731975
20
-24.2516310044636
30
0
41
1
10
367.555000030127
20
-24.2510233429179
30
0
0
SPLINE
5
12A
100
AcDbEntity
8
1
62
256
6
ByLayer
370
18
48
1
60
0
100
AcDbSpline
70
4
71
1
72
4
73
2
40
0
40
0
40
1
40
1
41
1
10
368.325
20
-23.587552298584
30
0
41
1
10
367.65725
20
-24.1867908893245
30
0
0
SPLINE
5
12B
100
AcDbEntity
8
1
62
256
6
ByLayer
370
18
48
1
60
0
100
AcDbSpline
70
4
71
1
72
4
73
2
40
0
40
0
40
1
40
1
41
1
10
367.65725
20
-24.4094413032564
30
0
41
1
10
368.325
20
-23.6630030512968
30
0
0
SPLINE
5
12C
100
AcDbEntity
8
1
62
256
6
ByLayer
370
18
48
1
60
0
100
AcDbSpline
70
4
71
3
72
11
73
7
40
0
40
0
40
0
40
0
40
0.304632312554617
40
0.566084194491762
40
0.784880098668193
40
1
40
1
40
1
40
1
41
1
10
367.65725
20
-24.4641115400997
30
0
41
1
10
367.64055915088
20
-24.4796684885192
30
0
41
1
10
367.612558144472
20
-24.5047063539096
30
0
41
1
10
367.578899199237
20
-24.5321569777169
30
0
41
1
10
367.559153228533
20
-24.5445727998412
30
0
41
1
10
367.555154530637
20
-24.5435466217527
30
0
41
1
10
367.555000003065
20
-24.5410513391963
30
0
0
SPLINE
5
12D
100
AcDbEntity
8
1
62
256
6
ByLayer
370
18
48
1
60
0
100
AcDbSpline
70
4
71
1
72
4
73
2
40
0
40
0
40
1
40
1
41
1
10
368.325
20
-23.8430150703283
30
0
41
1
10
367.65725
20
-24.4641115400998
30
0
0
SPLINE
5
12E
100
AcDbEntity
8
1
62
256
6
ByLayer
370
18
48
1
60
0
100
AcDbSpline
70
4
71
1
72
4
73
2
40
0
40
0
40
1
40
1
41
1
10
367.65725
20
-24.5961148774388
30
0
41
1
10
368.325
20
-23.8877094006841
30
0
0
SPLINE
5
12F
100
AcDbEntity
8
1
62
256
6
ByLayer
370
18
48
1
60
0
100
AcDbSpline
70
4
71
3
72
11
73
7
40
0
40
0
40
0
40
0
40
0.37299689053662
40
0.628682077128822
40
0.886371579237609
40
1
40
1
40
1
40
1
41
1
10
367.65725
20
-24.6232090000647
30
0
41
1
10
367.636507587212
20
-24.6432655346522
30
0
41
1
10
367.606116904081
20
-24.6719382822497
30
0
41
1
10
367.57095169087
20
-24.7034254966986
30
0
41
1
10
367.556864851729
20
-24.7140265710949
30
0
41
1
10
367.55502596866
20
-24.7136706022192
30
0
41
1
10
367.555000044758
20
-24.7130031276509
30
0
0
SPLINE
5
130
100
AcDbEntity
8
1
62
256
6
ByLayer
370
18
48
1
60
0
100
AcDbSpline
70
4
71
1
72
4
73
2
40
0
40
0
40
1
40
1
41
1
10
368.325
20
-23.9768631082337
30
0
41
1
10
367.65725
20
-24.6232090000648
30
0
0
SPLINE
5
131
100
AcDbEntity
8
1
62
256
6
ByLayer
370
18
48
1
60
0
100
AcDbSpline
70
4
71
1
72
4
73
2
40
0
40
0
40
1
40
1
41
1
10
367.65725
20
-24.6669526077377
30
0
41
1
10
368.325
20
-23.991667907708
30
0
0
SPLINE
5
132
100
AcDbEntity
8
1
62
256
6
ByLayer
370
18
48
1
60
0
100
AcDbSpline
70
4
71
3
72
11
73
7
40
0
40
0
40
0
40
0
40
0.363787721950196
40
0.633109824668596
40
0.856330372739899
40
1
40
1
40
1
40
1
41
1
10
367.65725
20
14.6669526077377
30
0
41
1
10
367.637106503078
20
14.6872119969314
30
0
41
1
10
367.606499723285
20
14.7180158423594
30
0
41
1
10
367.572549591026
20
14.7522724919801
30
0
41
1
10
367.557491476118
20
14.7674829407209
30
0
41
1
10
367.555088777225
20
14.7699097409186
30
0
41
1
10
367.555
20
14.77
30
0
0
SPLINE
5
133
100
AcDbEntity
8
1
62
256
6
ByLayer
370
18
48
1
60
0
100
AcDbSpline
70
4
71
1
72
4
73
2
40
0
40
0
40
1
40
1
41
1
10
368.325
20
13.991667907708
30
0
41
1
10
367.65725
20
14.6669526077377
30
0
0
SPLINE
5
134
100
AcDbEntity
8
1
62
256
6
ByLayer
370
18
48
1
60
0
100
AcDbSpline
70
4
71
1
72
4
73
2
40
0
40
0
40
1
40
1
41
1
10
367.65725
20
14.6232090000648
30
0
41
1
10
368.325
20
13.9768631082337
30
0
0
SPLINE
5
135
100
AcDbEntity
8
1
62
256
6
ByLayer
370
18
48
1
60
0
100
AcDbSpline
70
4
71
3
72
11
73
7
40
0
40
0
40
0
40
0
40
0.35354489500491
40
0.637649992213673
40
0.866481616419193
40
1
40
1
40
1
40
1
41
1
10
367.65725
20
14.5961148774388
30
0
41
1
10
367.637736231931
20
14.6166212011108
30
0
41
1
10
367.606877005414
20
14.649762420808
30
0
41
1
10
367.572532958045
20
14.6884341492299
30
0
41
1
10
367.557376965567
20
14.7075135390098
30
0
41
1
10
367.555102572038
20
14.7120495720826
30
0
41
1
10
367.555000029089
20
14.7130051391009
30
0
0
SPLINE
5
136
100
AcDbEntity
8
1
62
256
6
ByLayer
370
18
48
1
60
0
100
AcDbSpline
70
4
71
1
72
4
73
2
40
0
40
0
40
1
40
1
41
1
10
368.325
20
13.8877094006841
30
0
41
1
10
367.65725
20
14.5961148774388
30
0
0
SPLINE
5
137
100
AcDbEntity
8
1
62
256
6
ByLayer
370
18
48
1
60
0
100
AcDbSpline
70
4
71
1
72
4
73
2
40
0
40
0
40
1
40
1
41
1
10
367.65725
20
14.4641115400998
30
0
41
1
10
368.325
20
13.8430150703283
30
0
0
SPLINE
5
138
100
AcDbEntity
8
1
62
256
6
ByLayer
370
18
48
1
60
0
100
AcDbSpline
70
4
71
3
72
11
73
7
40
0
40
0
40
0
40
0
40
0.342011787836947
40
0.642198228721842
40
0.876725351047483
40
1
40
1
40
1
40
1
41
1
10
367.65725
20
14.4094413032564
30
0
41
1
10
367.638405962704
20
14.4302315216882
30
0
41
1
10
367.607246454178
20
14.4659783235364
30
0
41
1
10
367.572478698652
20
14.5093812544871
30
0
41
1
10
367.557238712117
20
14.5326216917596
30
0
41
1
10
367.555107377871
20
14.5393112426375
30
0
41
1
10
367.555000074588
20
14.5410298872621
30
0
0
SPLINE
5
139
100
AcDbEntity
8
1
62
256
6
ByLayer
370
18
48
1
60
0
100
AcDbSpline
70
4
71
1
72
4
73
2
40
0
40
0
40
1
40
1
41
1
10
368.325
20
13.6630030512968
30
0
41
1
10
367.65725
20
14.4094413032565
30
0
0
SPLINE
5
13A
100
AcDbEntity
8
1
62
256
6
ByLayer
370
18
48
1
60
0
100
AcDbSpline
70
4
71
1
72
4
73
2
40
0
40
0
40
1
40
1
41
1
10
367.65725
20
14.1867908893245
30
0
41
1
10
368.325
20
13.587552298584
30
0
0
SPLINE
5
13B
100
AcDbEntity
8
1
62
256
6
ByLayer
370
18
48
1
60
0
100
AcDbSpline
70
4
71
3
72
11
73
7
40
0
40
0
40
0
40
0
40
0.329250067109517
40
0.647313353418117
40
0.887590104473787
40
1
40
1
40
1
40
1
41
1
10
367.65725
20
14.1035364558329
30
0
41
1
10
367.639125826007
20
14.1246406317614
30
0
41
1
10
367.60760557301
20
14.1633405571413
30
0
41
1
10
367.572379703214
20
14.2119075998365
30
0
41
1
10
367.557086797367
20
14.2396890076993
30
0
41
1
10
367.555109283244
20
14.2486011368986
30
0
41
1
10
367.555000241861
20
14.250975551376
30
0
0
SPLINE
5
13C
100
AcDbEntity
8
1
62
256
6
ByLayer
370
18
48
1
60
0
100
AcDbSpline
70
4
71
1
72
4
73
2
40
0
40
0
40
1
40
1
41
1
10
368.325
20
13.3131045806204
30
0
41
1
10
367.65725
20
14.1035364558329
30
0
0
SPLINE
5
13D
100
AcDbEntity
8
1
62
256
6
ByLayer
370
18
48
1
60
0
100
AcDbSpline
70
4
71
1
72
4
73
2
40
0
40
0
40
1
40
1
41
1
10
367.65725
20
13.7860121158241
30
0
41
1
10
368.325
20
13.2053559142514
30
0
0
SPLINE
5
13E
100
AcDbEntity
8
1
62
256
6
ByLayer
370
18
48
1
60
0
100
AcDbSpline
70
4
71
3
72
11
73
7
40
0
40
0
40
0
40
0
40
0.441839920560168
40
0.734050487715047
40
0.961867500839324
40
1
40
1
40
1
40
1
41
1
10
367.65725
20
13.6725412982302
30
0
41
1
10
367.632309326615
20
13.7032457165448
30
0
41
1
10
367.597979001521
20
13.7497389857026
30
0
41
1
10
367.564594625596
20
13.8046483170383
30
0
41
1
10
367.555573313104
20
13.8285226969549
30
0
41
1
10
367.555015021059
20
13.8363594717354
30
0
41
1
10
367.555000312325
20
13.8374254774193
30
0
0
SPLINE
5
13F
100
AcDbEntity
8
1
62
256
6
ByLayer
370
18
48
1
60
0
100
AcDbSpline
70
4
71
1
72
4
73
2
40
0
40
0
40
1
40
1
41
1
10
368.325
20
12.8306454136905
30
0
41
1
10
367.65725
20
13.6725412982302
30
0
0
SPLINE
5
140
100
AcDbEntity
8
1
62
256
6
ByLayer
370
18
48
1
60
0
100
AcDbSpline
70
4
71
1
72
4
73
2
40
0
40
0
40
1
40
1
41
1
10
367.65725
20
13.2536450551968
30
0
41
1
10
368.325
20
12.6882126704918
30
0
0
SPLINE
5
141
100
AcDbEntity
8
1
62
256
6
ByLayer
370
18
48
1
60
0
100
AcDbSpline
70
4
71
3
72
11
73
7
40
0
40
0
40
0
40
0
40
0.46935175865461
40
0.761993777863504
40
0.988709287791793
40
1
40
1
40
1
40
1
41
1
10
367.65725
20
13.1075258373112
30
0
41
1
10
367.630514136621
20
13.1426232148381
30
0
41
1
10
367.595252507034
20
13.1949484938442
30
0
41
1
10
367.562509008144
20
13.257086338131
30
0
41
1
10
367.555160567664
20
13.2829901513205
30
0
41
1
10
367.555001680443
20
13.2916794237046
30
0
41
1
10
367.555000066086
20
13.292086575487
30
0
0
SPLINE
5
142
100
AcDbEntity
8
1
62
256
6
ByLayer
370
18
48
1
60
0
100
AcDbSpline
70
4
71
1
72
4
73
2
40
0
40
0
40
1
40
1
41
1
10
368.325
20
12.204477102103
30
0
41
1
10
367.65725
20
13.1075258373112
30
0
0
SPLINE
5
143
100
AcDbEntity
8
1
62
256
6
ByLayer
370
18
48
1
60
0
100
AcDbSpline
70
4
71
1
72
4
73
2
40
0
40
0
40
1
40
1
41
1
10
367.65725
20
12.5777377493901
30
0
41
1
10
368.325
20
12.0238289168013
30
0
0
SPLINE
5
144
100
AcDbEntity
8
1
62
256
6
ByLayer
370
18
48
1
60
0
100
AcDbSpline
70
4
71
3
72
10
73
6
40
0
40
0
40
0
40
0
40
0.500655634822278
40
0.790172015434966
40
1
40
1
40
1
40
1
41
1
10
367.65725
20
12.3954357623967
30
0
41
1
10
367.628459400728
20
12.4360513359831
30
0
41
1
10
367.592593064923
20
12.495054100592
30
0
41
1
10
367.560646526087
20
12.565410693159
30
0
41
1
10
367.555617495467
20
12.5922713314739
30
0
41
1
10
367.555000081396
20
12.602545625745
30
0
0
SPLINE
5
145
100
AcDbEntity
8
1
62
256
6
ByLayer
370
18
48
1
60
0
100
AcDbSpline
70
4
71
1
72
4
73
2
40
0
40
0
40
1
40
1
41
1
10
368.325
20
11.4181652094505
30
0
41
1
10
367.65725
20
12.3954357623967
30
0
0
SPLINE
5
146
100
AcDbEntity
8
1
62
256
6
ByLayer
370
18
48
1
60
0
100
AcDbSpline
70
4
71
1
72
4
73
2
40
0
40
0
40
1
40
1
41
1
10
367.65725
20
11.740913086554
30
0
41
1
10
368.325
20
11.1940925803361
30
0
0
SPLINE
5
147
100
AcDbEntity
8
1
62
256
6
ByLayer
370
18
48
1
60
0
100
AcDbSpline
70
4
71
3
72
10
73
6
40
0
40
0
40
0
40
0
40
0.538057462057382
40
0.818130138821904
40
1
40
1
40
1
40
1
41
1
10
367.65725
20
11.5172600263618
30
0
41
1
10
367.626027033555
20
11.5650666634061
30
0
41
1
10
367.589523572285
20
11.6324796523193
30
0
41
1
10
367.55969065873
20
11.7107563317592
30
0
41
1
10
367.55549982106
20
11.7400235417015
30
0
41
1
10
367.555000929875
20
11.7508182535806
30
0
0
SPLINE
5
148
100
AcDbEntity
8
1
62
256
6
ByLayer
370
18
48
1
60
0
100
AcDbSpline
70
4
71
1
72
4
73
2
40
0
40
0
40
1
40
1
41
1
10
368.325
20
10.4472737184539
30
0
41
1
10
367.65725
20
11.5172600263618
30
0
0
SPLINE
5
149
100
AcDbEntity
8
1
62
256
6
ByLayer
370
18
48
1
60
0
100
AcDbSpline
70
4
71
1
72
4
73
2
40
0
40
0
40
1
40
1
41
1
10
367.65725
20
10.7174895437145
30
0
41
1
10
368.325
20
10.1718989586826
30
0
0
SPLINE
5
14A
100
AcDbEntity
8
1
62
256
6
ByLayer
370
18
48
1
60
0
100
AcDbSpline
70
4
71
3
72
10
73
6
40
0
40
0
40
0
40
0
40
0.54730122273761
40
0.825627972936689
40
1
40
1
40
1
40
1
41
1
10
367.65725
20
10.4446939818576
30
0
41
1
10
367.625542403747
20
10.4982707951335
30
0
41
1
10
367.588937240184
20
10.5744018380708
30
0
41
1
10
367.559737360316
20
10.6632659657322
30
0
41
1
10
367.555569917055
20
10.697517894207
30
0
41
1
10
367.555008535533
20
10.7101151220354
30
0
0
SPLINE
5
14B
100
AcDbEntity
8
1
62
256
6
ByLayer
370
18
48
1
60
0
100
AcDbSpline
70
4
71
1
72
4
73
2
40
0
40
0
40
1
40
1
41
1
10
368.325
20
9.25413560412766
30
0
41
1
10
367.65725
20
10.4446939818576
30
0
0
SPLINE
5
14C
100
AcDbEntity
8
1
62
256
6
ByLayer
370
18
48
1
60
0
100
AcDbSpline
70
4
71
1
72
4
73
2
40
0
40
0
40
1
40
1
41
1
10
367.65725
20
9.46792259248016
30
0
41
1
10
368.325
20
8.91489854524457
30
0
0
SPLINE
5
14D
100
AcDbEntity
8
1
62
256
6
ByLayer
370
18
48
1
60
0
100
AcDbSpline
70
4
71
3
72
10
73
6
40
0
40
0
40
0
40
0
40
0.613007207669848
40
0.839592277898158
40
1
40
1
40
1
40
1
41
1
10
367.65725
20
9.1335510614992
30
0
41
1
10
367.621142460231
20
9.20196192581191
30
0
41
1
10
367.584893743717
20
9.29074427879304
30
0
41
1
10
367.558712646654
20
9.39260619921629
30
0
41
1
10
367.555429709201
20
9.42786247776351
30
0
41
1
10
367.555003423148
20
9.44198101996937
30
0
0
SPLINE
5
14E
100
AcDbEntity
8
1
62
256
6
ByLayer
370
18
48
1
60
0
100
AcDbSpline
70
4
71
1
72
4
73
2
40
0
40
0
40
1
40
1
41
1
10
368.325
20
7.77663877194952
30
0
41
1
10
367.65725
20
9.1335510614992
30
0
0
SPLINE
5
14F
100
AcDbEntity
8
1
62
256
6
ByLayer
370
18
48
1
60
0
100
AcDbSpline
70
4
71
1
72
4
73
2
40
0
40
0
40
1
40
1
41
1
10
367.65725
20
7.92679738865046
30
0
41
1
10
368.325
20
7.35161062519481
30
0
0
SPLINE
5
150
100
AcDbEntity
8
1
62
256
6
ByLayer
370
18
48
1
60
0
100
AcDbSpline
70
4
71
2
72
6
73
3
40
0
40
0
40
0
40
1
40
1
40
1
41
1
10
367.65725
20
7.50903509559324
30
0
41
1
10
367.56449452426
20
7.70763626904253
30
0
41
1
10
367.555002402522
20
7.8772305165886
30
0
0
SPLINE
5
151
100
AcDbEntity
8
1
62
256
6
ByLayer
370
18
48
1
60
0
100
AcDbSpline
70
4
71
1
72
4
73
2
40
0
40
0
40
1
40
1
41
1
10
368.325
20
5.89975296953596
30
0
41
1
10
367.65725
20
7.50903509559325
30
0
0
SPLINE
5
152
100
AcDbEntity
8
1
62
256
6
ByLayer
370
18
48
1
60
0
100
AcDbSpline
70
4
71
1
72
4
73
2
40
0
40
0
40
1
40
1
41
1
10
367.65725
20
5.97193680771275
30
0
41
1
10
368.325
20
5.34408857987987
30
0
0
SPLINE
5
153
100
AcDbEntity
8
1
62
256
6
ByLayer
370
18
48
1
60
0
100
AcDbSpline
70
4
71
2
72
6
73
3
40
0
40
0
40
0
40
1
40
1
40
1
41
1
10
367.65725
20
5.4256727570724
30
0
41
1
10
367.564248120375
20
5.66879477476662
30
0
41
1
10
367.555011360507
20
5.88720871497617
30
0
0
SPLINE
5
154
100
AcDbEntity
8
1
62
256
6
ByLayer
370
18
48
1
60
0
100
AcDbSpline
70
4
71
1
72
4
73
2
40
0
40
0
40
1
40
1
41
1
10
368.325
20
3.35863214197945
30
0
41
1
10
367.65725
20
5.42567275707241
30
0
0
SPLINE
5
155
100
AcDbEntity
8
1
62
256
6
ByLayer
370
18
48
1
60
0
100
AcDbSpline
70
4
71
1
72
4
73
2
40
0
40
0
40
1
40
1
41
1
10
367.65725
20
3.31653196335602
30
0
41
1
10
368.325
20
2.54573071745719
30
0
0
SPLINE
5
156
100
AcDbEntity
8
1
62
256
6
ByLayer
370
18
48
1
60
0
100
AcDbSpline
70
4
71
3
72
10
73
6
40
0
40
0
40
0
40
0
40
0.532327471744187
40
0.833599534488231
40
1
40
1
40
1
40
1
41
1
10
367.65725
20
2.51088182920888
30
0
41
1
10
367.627311546927
20
2.62947589062372
30
0
41
1
10
367.591106560034
20
2.81323255642325
30
0
41
1
10
367.558371562559
20
3.03392348671714
30
0
41
1
10
367.55512048653
20
3.13331899347951
30
0
41
1
10
367.55503138987
20
3.16839397322252
30
0
0
SPLINE
5
157
100
AcDbEntity
8
1
62
256
6
ByLayer
370
18
48
1
60
0
100
AcDbSpline
70
4
71
2
72
6
73
3
40
0
40
0
40
0
40
1
40
1
40
1
41
1
10
368.325
20
-0.946748493745275
30
0
41
1
10
368.083904837032
20
0.805950476476356
30
0
41
1
10
367.65725
20
2.51088182920889
30
0
0
SPLINE
5
158
100
AcDbEntity
8
1
62
256
6
ByLayer
370
18
48
1
60
0
100
AcDbSpline
70
4
71
2
72
6
73
3
40
0
40
0
40
0
40
1
40
1
40
1
41
1
10
367.65725
20
-1.33311978885541
30
0
41
1
10
368.10370184491
20
-2.34863682979561
30
0
41
1
10
368.325
20
-3.45859298939159
30
0
0
SPLINE
5
159
100
AcDbEntity
8
1
62
256
6
ByLayer
370
18
48
1
60
0
100
AcDbSpline
70
4
71
3
72
18
73
14
40
0
40
0
40
0
40
0
40
0.0092762998696721
40
0.0685629894723307
40
0.095130419620976
40
0.117592414010546
40
0.133540352720886
40
0.149529937915874
40
0.169950422014987
40
0.205700982060644
40
0.318776697925372
40
0.839906372188253
40
1
40
1
40
1
40
1
41
1
10
367.657249999991
20
-8.66688021116478
30
0
41
1
10
367.656530488482
20
-8.66856317894026
30
0
41
1
10
367.651090051693
20
-8.68088522224515
30
0
41
1
10
367.642732472879
20
-8.69760154146172
30
0
41
1
10
367.630691624417
20
-8.71356954482094
30
0
41
1
10
367.622113310392
20
-8.72071043232441
30
0
41
1
10
367.614212181307
20
-8.72311277646664
30
0
41
1
10
367.606874679365
20
-8.72152338403558
30
0
41
1
10
367.598465296464
20
-8.71437670222436
30
0
41
1
10
367.584596086649
20
-8.68888331459691
30
0
41
1
10
367.558360975623
20
-8.56390605424577
30
0
41
1
10
367.556219231416
20
-8.40505327877111
30
0
41
1
10
367.554724613401
20
-8.26975155857361
30
0
41
1
10
367.555022756186
20
-8.23774823726638
30
0
0
SPLINE
5
15A
100
AcDbEntity
8
1
62
256
6
ByLayer
370
18
48
1
60
0
100
AcDbSpline
70
4
71
3
72
18
73
14
40
0
40
0
40
0
40
0
40
0.0395444285094812
40
0.67802034459017
40
0.738430857524608
40
0.801710634747784
40
0.823803287774094
40
0.846100958295136
40
0.862570653665478
40
0.879008358511241
40
0.905141278302679
40
0.957073783427118
40
1
40
1
40
1
40
1
41
1
10
367.55502714837
20
-1.72406232064283
30
0
41
1
10
367.553140836076
20
-1.71678014636809
30
0
41
1
10
367.522476480544
20
-1.59213363405621
30
0
41
1
10
367.555777472251
20
-1.45008558682334
30
0
41
1
10
367.583529798869
20
-1.31927294275
30
0
41
1
10
367.592010013278
20
-1.29578980217493
30
0
41
1
10
367.601643329807
20
-1.28248486296599
30
0
41
1
10
367.608716698738
20
-1.277599351772
30
0
41
1
10
367.616167497367
20
-1.27717104100077
30
0
41
1
10
367.624105074739
20
-1.2805553027003
30
0
41
1
10
367.635418046783
20
-1.29130243274715
30
0
41
1
10
367.646658383319
20
-1.31014202751108
30
0
41
1
10
367.654218463864
20
-1.32565238043882
30
0
41
1
10
367.65725
20
-1.33311978885535
30
0
0
SPLINE
5
15B
100
AcDbEntity
8
1
62
256
6
ByLayer
370
18
48
1
60
0
100
AcDbSpline
70
4
71
3
72
13
73
9
40
0
40
0
40
0
40
0
40
0.0811644644495036
40
0.177297495011784
40
0.43385616087229
40
0.690627755600709
40
0.946967123447407
40
1
40
1
40
1
40
1
41
1
10
367.555022756186
20
-8.23774823726638
30
0
41
1
10
367.556685354627
20
-8.06294436151314
30
0
41
1
10
367.563432827021
20
-7.68035355924423
30
0
41
1
10
367.615581614573
20
-6.73861968644327
30
0
41
1
10
367.637544089998
20
-5.41246717223805
30
0
41
1
10
367.612774682816
20
-3.73611925432294
30
0
41
1
10
367.56595767677
20
-2.50477944649583
30
0
41
1
10
367.556512388559
20
-1.83821624321733
30
0
41
1
10
367.55502714837
20
-1.72406232064283
30
0
0
SPLINE
5
15C
100
AcDbEntity
8
1
62
256
6
ByLayer
370
18
48
1
60
0
100
AcDbSpline
70
4
71
3
72
10
73
6
40
0
40
0
40
0
40
0
40
0.0927554397803491
40
0.545697818068572
40
1
40
1
40
1
40
1
41
1
10
367.555038128083
20
-13.1675712688107
30
0
41
1
10
367.555388989701
20
-13.1479841945513
30
0
41
1
10
367.559039956352
20
-13.0323212615753
30
0
41
1
10
367.588693640007
20
-12.8116779316101
30
0
41
1
10
367.630758281869
20
-12.6119288053594
30
0
41
1
10
367.65725
20
-12.5108818292089
30
0
0
SPLINE
5
15D
100
AcDbEntity
8
1
62
256
6
ByLayer
370
18
48
1
60
0
100
AcDbSpline
70
4
71
3
72
14
73
10
40
0
40
0
40
0
40
0
40
0.287575987648429
40
0.590056088238468
40
0.679730591758066
40
0.750554707071274
40
0.821712627364985
40
0.902192848581152
40
1
40
1
40
1
40
1
41
1
10
367.55503138987
20
3.16839397322252
30
0
41
1
10
367.553750469309
20
3.19725849610803
30
0
41
1
10
367.557233909262
20
3.25172471982688
30
0
41
1
10
367.567713507383
20
3.31385691431805
30
0
41
1
10
367.588436644206
20
3.34169214268598
30
0
41
1
10
367.60287063449
20
3.34879122758392
30
0
41
1
10
367.619472193805
20
3.3471392234769
30
0
41
1
10
367.638437550164
20
3.33580917716618
30
0
41
1
10
367.650736120683
20
3.32429921370007
30
0
41
1
10
367.657250000004
20
3.3165319633604
30
0
0
SPLINE
5
15E
100
AcDbEntity
8
1
62
256
6
ByLayer
370
18
48
1
60
0
100
AcDbSpline
70
4
71
3
72
10
73
6
40
0
40
0
40
0
40
0
40
0.183048331564678
40
0.859515705817616
40
1
40
1
40
1
40
1
41
1
10
367.555017244399
20
-15.8864398912317
30
0
41
1
10
367.555942472327
20
-15.859984397635
30
0
41
1
10
367.564464988637
20
-15.7346650724014
30
0
41
1
10
367.606509813794
20
-15.5749695797467
30
0
41
1
10
367.649401846817
20
-15.4476588174961
30
0
41
1
10
367.65725
20
-15.4256727570726
30
0
0
SPLINE
5
15F
100
AcDbEntity
8
1
62
256
6
ByLayer
370
18
48
1
60
0
100
AcDbSpline
70
4
71
3
72
14
73
10
40
0
40
0
40
0
40
0
40
0.134830546589709
40
0.43227857117454
40
0.556416845271764
40
0.68167978560741
40
0.793859150360901
40
0.921826329767073
40
1
40
1
40
1
40
1
41
1
10
367.555011360507
20
5.88720871497617
30
0
41
1
10
367.554794910831
20
5.89752135388959
30
0
41
1
10
367.555917857637
20
5.92911664548902
30
0
41
1
10
367.562018268893
20
5.96783879652348
30
0
41
1
10
367.579160760749
20
5.99436158486955
30
0
41
1
10
367.596635088183
20
6.0032599089764
30
0
41
1
10
367.619157766394
20
5.99975226820529
30
0
41
1
10
367.639812086508
20
5.98715456565475
30
0
41
1
10
367.652478051636
20
5.97649384030145
30
0
41
1
10
367.65725
20
5.97193680771274
30
0
0
SPLINE
5
160
100
AcDbEntity
8
1
62
256
6
ByLayer
370
18
48
1
60
0
100
AcDbSpline
70
4
71
3
72
10
73
6
40
0
40
0
40
0
40
0
40
0.0340274245102301
40
0.415044787859227
40
1
40
1
40
1
40
1
41
1
10
367.555002425298
20
-17.8772250208737
30
0
41
1
10
367.555036900651
20
-17.8735391069519
30
0
41
1
10
367.55598463012
20
-17.8283224309487
30
0
41
1
10
367.58089688564
20
-17.7052962332343
30
0
41
1
10
367.622322050846
20
-17.5852936659418
30
0
41
1
10
367.65725
20
-17.5090350955932
30
0
0
SPLINE
5
161
100
AcDbEntity
8
1
62
256
6
ByLayer
370
18
48
1
60
0
100
AcDbSpline
70
4
71
3
72
14
73
10
40
0
40
0
40
0
40
0
40
0.0617078890034434
40
0.263114248683762
40
0.466061522331142
40
0.602372188178623
40
0.739176880902228
40
0.869036933416684
40
1
40
1
40
1
40
1
41
1
10
367.555002402522
20
7.8772305165886
30
0
41
1
10
367.554969421878
20
7.8811445502881
30
0
41
1
10
367.555292053417
20
7.89747144451425
30
0
41
1
10
367.55859860252
20
7.92456189918572
30
0
41
1
10
367.570451001359
20
7.94900760243555
30
0
41
1
10
367.589461027341
20
7.95912057074493
30
0
41
1
10
367.610946039811
20
7.9568307474429
30
0
41
1
10
367.634417727209
20
7.94487838036172
30
0
41
1
10
367.649564454984
20
7.93357622746184
30
0
41
1
10
367.65725
20
7.92679738865044
30
0
0
SPLINE
5
162
100
AcDbEntity
8
1
62
256
6
ByLayer
370
18
48
1
60
0
100
AcDbSpline
70
4
71
3
72
10
73
6
40
0
40
0
40
0
40
0
40
0.192958189275837
40
0.662877134872715
40
1
40
1
40
1
40
1
41
1
10
367.555003412463
20
-19.4419827618974
30
0
41
1
10
367.555775357579
20
-19.424746853521
30
0
41
1
10
367.562247184345
20
-19.3638370838713
30
0
41
1
10
367.599082328815
20
-19.2562196219806
30
0
41
1
10
367.638177661418
20
-19.170320730928
30
0
41
1
10
367.65725
20
-19.1335510614992
30
0
0
SPLINE
5
163
100
AcDbEntity
8
1
62
256
6
ByLayer
370
18
48
1
60
0
100
AcDbSpline
70
4
71
3
72
13
73
9
40
0
40
0
40
0
40
0
40
0.106322020951521
40
0.308092026541457
40
0.511861720184155
40
0.687387669813857
40
0.838178876361797
40
1
40
1
40
1
40
1
41
1
10
367.555003423148
20
9.44198101996938
30
0
41
1
10
367.554902748484
20
9.44788074348423
30
0
41
1
10
367.5557309423
20
9.4639528573803
30
0
41
1
10
367.561449200834
20
9.48733599954956
30
0
41
1
10
367.578391104751
20
9.50284483394628
30
0
41
1
10
367.603424866665
20
9.50148916190897
30
0
41
1
10
367.630477830277
20
9.48835017570575
30
0
41
1
10
367.647958903935
20
9.47580161303445
30
0
41
1
10
367.65725
20
9.46792259248016
30
0
0
SPLINE
5
164
100
AcDbEntity
8
1
62
256
6
ByLayer
370
18
48
1
60
0
100
AcDbSpline
70
4
71
1
72
4
73
2
40
0
40
0
40
1
40
1
41
1
10
365.676677644263
20
-23.8028667910023
30
0
41
1
10
366.066254116598
20
-23.6169285456934
30
0
0
SPLINE
5
165
100
AcDbEntity
8
1
62
256
6
ByLayer
370
18
48
1
60
0
100
AcDbSpline
70
4
71
3
72
13
73
9
40
0
40
0
40
0
40
0
40
0.156938698583275
40
0.349316531427563
40
0.543113493975798
40
0.714312677860583
40
0.930589975772173
40
1
40
1
40
1
40
1
41
1
10
367.555008535533
20
10.7101151220354
30
0
41
1
10
367.554764424077
20
10.7178825742426
30
0
41
1
10
367.556326840231
20
10.7330199523803
30
0
41
1
10
367.565117235662
20
10.7510191699904
30
0
41
1
10
367.58431428651
20
10.7571096349773
30
0
41
1
10
367.612372194197
20
10.74899564906
30
0
41
1
10
367.637679226159
20
10.7329360348717
30
0
41
1
10
367.653396743984
20
10.72066053656
30
0
41
1
10
367.657250000002
20
10.717489543714
30
0
0
SPLINE
5
166
100
AcDbEntity
8
1
62
256
6
ByLayer
370
18
48
1
60
0
100
AcDbSpline
70
4
71
3
72
10
73
6
40
0
40
0
40
0
40
0
40
0.230543928052981
40
0.670249368460683
40
1
40
1
40
1
40
1
41
1
10
367.555000472764
20
-20.7112166191105
30
0
41
1
10
367.555973870088
20
-20.6941926951022
30
0
41
1
10
367.563390370997
20
-20.6424094026311
30
0
41
1
10
367.601280134767
20
-20.5483980008889
30
0
41
1
10
367.638677503405
20
-20.4764629670544
30
0
41
1
10
367.65725
20
-20.4446939818575
30
0
0
SPLINE
5
167
100
AcDbEntity
8
1
62
256
6
ByLayer
370
18
48
1
60
0
100
AcDbSpline
70
4
71
3
72
13
73
9
40
0
40
0
40
0
40
0
40
0.0632694644459656
40
0.276663840458767
40
0.491667190860636
40
0.676297285292061
40
0.91134629009851
40
1
40
1
40
1
40
1
41
1
10
367.555000929875
20
11.7508182535806
30
0
41
1
10
367.554969985234
20
11.7534297023435
30
0
41
1
10
367.55550091994
20
11.7641829123098
30
0
41
1
10
367.560935326727
20
11.779474812584
30
0
41
1
10
367.579425426928
20
11.7851478318844
30
0
41
1
10
367.607960906403
20
11.7759274024369
30
0
41
1
10
367.635043745722
20
11.7584802199496
30
0
41
1
10
367.652419939031
20
11.7448966802659
30
0
41
1
10
367.657250000005
20
11.7409130865523
30
0
0
SPLINE
5
168
100
AcDbEntity
8
1
62
256
6
ByLayer
370
18
48
1
60
0
100
AcDbSpline
70
4
71
3
72
11
73
7
40
0
40
0
40
0
40
0
40
0.0302362271658583
40
0.300567593954906
40
0.740596753790221
40
1
40
1
40
1
40
1
41
1
10
367.555000725937
20
-21.7508635079355
30
0
41
1
10
367.555017361135
20
-21.7491477519593
30
0
41
1
10
367.555575568672
20
-21.7318046022457
30
0
41
1
10
367.569149254964
20
-21.6789954170122
30
0
41
1
10
367.607837049872
20
-21.5985027415872
30
0
41
1
10
367.642867396602
20
-21.5396035419021
30
0
41
1
10
367.65725
20
-21.5172600263618
30
0
0
SPLINE
5
169
100
AcDbEntity
8
1
62
256
6
ByLayer
370
18
48
1
60
0
100
AcDbSpline
70
4
71
3
72
13
73
9
40
0
40
0
40
0
40
0
40
0.0212809377381329
40
0.238561386112277
40
0.457168607694775
40
0.649648659773682
40
0.903508497126451
40
1
40
1
40
1
40
1
41
1
10
367.555000081396
20
12.602545625745
30
0
41
1
10
367.55499712244
20
12.6032852321386
30
0
41
1
10
367.555161987586
20
12.6113772392832
30
0
41
1
10
367.559253003597
20
12.6236047693758
30
0
41
1
10
367.57688156024
20
12.6269244451721
30
0
41
1
10
367.605349565434
20
12.6158580447934
30
0
41
1
10
367.633524661658
20
12.5968329280773
30
0
41
1
10
367.652052428589
20
12.5820731962956
30
0
41
1
10
367.657250000005
20
12.5777377493884
30
0
0
SPLINE
5
16A
100
AcDbEntity
8
1
62
256
6
ByLayer
370
18
48
1
60
0
100
AcDbSpline
70
4
71
3
72
11
73
7
40
0
40
0
40
0
40
0
40
0.0812329922284549
40
0.361133281662965
40
0.796537058091778
40
1
40
1
40
1
40
1
41
1
10
367.55500147232
20
-22.6022405721771
30
0
41
1
10
367.555099462372
20
-22.5984504549655
30
0
41
1
10
367.556719074078
20
-22.580709703447
30
0
41
1
10
367.574802179398
20
-22.5294836558492
30
0
41
1
10
367.613632517066
20
-22.4603267694139
30
0
41
1
10
367.646115482642
20
-22.4113458694241
30
0
41
1
10
367.65725
20
-22.3954357623967
30
0
0
SPLINE
5
16B
100
AcDbEntity
8
1
62
256
6
ByLayer
370
18
48
1
60
0
100
AcDbSpline
70
4
71
3
72
17
73
13
40
0
40
0
40
0
40
0
40
0.0507857834256025
40
0.112612384426466
40
0.185431529404425
40
0.269227604340061
40
0.364038304420406
40
0.46997854963967
40
0.568891855670289
40
0.729699389714151
40
0.873623271360208
40
1
40
1
40
1
40
1
41
1
10
366.066254116598
20
-23.6169285456941
30
0
41
1
10
366.069124431629
20
-23.663349829914
30
0
41
1
10
366.074758282106
20
-23.7637049978882
30
0
41
1
10
366.081234159721
20
-23.9194418027446
30
0
41
1
10
366.085445120749
20
-24.0898776074382
30
0
41
1
10
366.086362876722
20
-24.2685180581411
30
0
41
1
10
366.083192256307
20
-24.4479143430649
30
0
41
1
10
366.075841150782
20
-24.6096045149284
30
0
41
1
10
366.062912120797
20
-24.7726896403078
30
0
41
1
10
366.044088687371
20
-24.9045528570836
30
0
41
1
10
366.021011936332
20
-24.9841535357727
30
0
41
1
10
366.006758749153
20
-25.0000226401856
30
0
41
1
10
366
20
-25
30
0
0
SPLINE
5
16C
100
AcDbEntity
8
1
62
256
6
ByLayer
370
18
48
1
60
0
100
AcDbSpline
70
4
71
3
72
12
73
8
40
0
40
0
40
0
40
0
40
0.203982101215697
40
0.422892038301112
40
0.621225759785465
40
0.890379488772339
40
1
40
1
40
1
40
1
41
1
10
367.555000066085
20
13.292086575487
30
0
41
1
10
367.554897963952
20
13.2983003785211
30
0
41
1
10
367.558176529177
20
13.3071735753694
30
0
41
1
10
367.574243124086
20
13.3084735293176
30
0
41
1
10
367.602275393741
20
13.2955987473305
30
0
41
1
10
367.631553976018
20
13.2748245964976
30
0
41
1
10
367.651377526233
20
13.258638471764
30
0
41
1
10
367.657250000007
20
13.2536450551943
30
0
0
SPLINE
5
16D
100
AcDbEntity
8
1
62
256
6
ByLayer
370
18
48
1
60
0
100
AcDbSpline
70
4
71
3
72
11
73
7
40
0
40
0
40
0
40
0
40
0.130632392229584
40
0.415548682631198
40
0.843413418810489
40
1
40
1
40
1
40
1
41
1
10
367.555000724703
20
-23.2919300405605
30
0
41
1
10
367.555219444984
20
-23.2869735895815
30
0
41
1
10
367.55799512545
20
-23.2695849031442
30
0
41
1
10
367.580249725645
20
-23.2201944449455
30
0
41
1
10
367.618700276632
20
-23.1601189387494
30
0
41
1
10
367.648761892694
20
-23.1187907830027
30
0
41
1
10
367.65725
20
-23.1075258373111
30
0
0
SPLINE
5
16E
100
AcDbEntity
8
1
62
256
6
ByLayer
370
18
48
1
60
0
100
AcDbSpline
70
4
71
3
72
11
73
7
40
0
40
0
40
0
40
0
40
0.14340616013555
40
0.416179409660889
40
0.813457131819913
40
1
40
1
40
1
40
1
41
1
10
367.555000075114
20
-23.8374837408244
30
0
41
1
10
367.555218734815
20
-23.8332559112073
30
0
41
1
10
367.558158421244
20
-23.8190743086718
30
0
41
1
10
367.579864871635
20
-23.7772067985676
30
0
41
1
10
367.617427602226
20
-23.7232747229728
30
0
41
1
10
367.647143977536
20
-23.685075854437
30
0
41
1
10
367.65725
20
-23.6725412982298
30
0
0
SPLINE
5
16F
100
AcDbEntity
8
1
62
256
6
ByLayer
370
18
48
1
60
0
100
AcDbSpline
70
4
71
3
72
12
73
8
40
0
40
0
40
0
40
0
40
0.171820385506366
40
0.389124108028802
40
0.591678114719626
40
0.873622739350071
40
1
40
1
40
1
40
1
41
1
10
367.555000312325
20
13.8374254774193
30
0
41
1
10
367.554945951919
20
13.8415859421234
30
0
41
1
10
367.557566085497
20
13.8479456508417
30
0
41
1
10
367.571645644364
20
13.8471547875957
30
0
41
1
10
367.598948282838
20
13.8325246100649
30
0
41
1
10
367.629289303415
20
13.8097517340526
30
0
41
1
10
367.650490893341
20
13.7919055473377
30
0
41
1
10
367.657250000011
20
13.7860121158196
30
0
0
SPLINE
5
170
100
AcDbEntity
8
1
62
256
6
ByLayer
370
18
48
1
60
0
100
AcDbSpline
70
4
71
3
72
12
73
8
40
0
40
0
40
0
40
0
40
0.0937750043520439
40
0.3150792939644
40
0.520086113400844
40
0.799364997268524
40
1
40
1
40
1
40
1
41
1
10
367.555000241861
20
14.250975551376
30
0
41
1
10
367.554980723118
20
14.252660330552
30
0
41
1
10
367.55616667344
20
14.2569820460955
30
0
41
1
10
367.565470450961
20
14.256718152267
30
0
41
1
10
367.589775411851
20
14.2426519312952
30
0
41
1
10
367.621987058705
20
14.2176386678643
30
0
41
1
10
367.646436280983
20
14.1965225182805
30
0
41
1
10
367.65725
20
14.1867908893245
30
0
0
SPLINE
5
171
100
AcDbEntity
8
1
62
256
6
ByLayer
370
18
48
1
60
0
100
AcDbSpline
70
4
71
3
72
11
73
7
40
0
40
0
40
0
40
0
40
0.151510210552078
40
0.411847092875866
40
0.780628591293263
40
1
40
1
40
1
40
1
41
1
10
367.555000030127
20
-24.2510233429179
30
0
41
1
10
367.555213291713
20
-24.2477351167947
30
0
41
1
10
367.558226651058
20
-24.2366590343581
30
0
41
1
10
367.57901732713
20
-24.2017481251854
30
0
41
1
10
367.615762487581
20
-24.1531383553435
30
0
41
1
10
367.645364287079
20
-24.1174078722661
30
0
41
1
10
367.65725
20
-24.1035364558303
30
0
0
SPLINE
5
172
100
AcDbEntity
8
1
62
256
6
ByLayer
370
18
48
1
60
0
100
AcDbSpline
70
4
71
3
72
12
73
8
40
0
40
0
40
0
40
0
40
0.0040678379005906
40
0.193259184993763
40
0.453930994611825
40
0.816503936930189
40
1
40
1
40
1
40
1
41
1
10
367.555000003065
20
-24.5410513391963
30
0
41
1
10
367.555000102346
20
-24.540998898705
30
0
41
1
10
367.555041908087
20
-24.5384715788752
30
0
41
1
10
367.559763366211
20
-24.5278958526447
30
0
41
1
10
367.583394766297
20
-24.494953440049
30
0
41
1
10
367.61968179993
20
-24.4515850423524
30
0
41
1
10
367.64738507519
20
-24.4203496943217
30
0
41
1
10
367.657250000001
20
-24.4094413032536
30
0
0
SPLINE
5
173
100
AcDbEntity
8
1
62
256
6
ByLayer
370
18
48
1
60
0
100
AcDbSpline
70
4
71
3
72
12
73
8
40
0
40
0
40
0
40
0
40
0.0805814427705903
40
0.294856636486427
40
0.501424598235896
40
0.7955078134861
40
1
40
1
40
1
40
1
41
1
10
367.555000074588
20
14.5410298872621
30
0
41
1
10
367.554994909587
20
14.5419980562034
30
0
41
1
10
367.555997909948
20
14.5444659198811
30
0
41
1
10
367.564538790173
20
14.541741577563
30
0
41
1
10
367.588322652416
20
14.524900506125
30
0
41
1
10
367.620983720608
20
14.4972337835865
30
0
41
1
10
367.646251711464
20
14.4743399506937
30
0
41
1
10
367.65725
20
14.4641115400998
30
0
0
SPLINE
5
174
100
AcDbEntity
8
1
62
256
6
ByLayer
370
18
48
1
60
0
100
AcDbSpline
70
4
71
3
72
12
73
8
40
0
40
0
40
0
40
0
40
0.101523682145535
40
0.298670259603602
40
0.57996006148641
40
0.971009684658946
40
1
40
1
40
1
40
1
41
1
10
367.555000044758
20
-24.7130031276509
30
0
41
1
10
367.555046733676
20
-24.7123126748356
30
0
41
1
10
367.556492157933
20
-24.7090003075641
30
0
41
1
10
367.567719690897
20
-24.6941913394475
30
0
41
1
10
367.599047395785
20
-24.6582641268284
30
0
41
1
10
367.633679505405
20
-24.6209690724058
30
0
41
1
10
367.655717722443
20
-24.5977282863562
30
0
41
1
10
367.65725
20
-24.5961148774388
30
0
0
SPLINE
5
175
100
AcDbEntity
8
1
62
256
6
ByLayer
370
18
48
1
60
0
100
AcDbSpline
70
4
71
3
72
12
73
8
40
0
40
0
40
0
40
0
40
0.101897259976039
40
0.309477308976128
40
0.520977748882403
40
0.84370223084694
40
1
40
1
40
1
40
1
41
1
10
367.555000029089
20
14.7130051391009
30
0
41
1
10
367.555013028712
20
14.7136125625675
30
0
41
1
10
367.556404817249
20
14.7140568873087
30
0
41
1
10
367.566369579928
20
14.7070410064692
30
0
41
1
10
367.591854792125
20
14.6849792726466
30
0
41
1
10
367.624433074224
20
14.6546523938096
30
0
41
1
10
367.648908641859
20
14.6312544707722
30
0
41
1
10
367.657250000007
20
14.6232090000593
30
0
0
SPLINE
5
176
100
AcDbEntity
8
1
62
256
6
ByLayer
370
18
48
1
60
0
100
AcDbSpline
70
4
71
3
72
12
73
8
40
0
40
0
40
0
40
0
40
0.45964430597275
40
0.642726098164927
40
0.827224710285287
40
0.942229897394032
40
1
40
1
40
1
40
1
41
1
10
11.8943375672976
20
8.05584836782959
30
0
41
1
10
11.8706099476331
20
7.94573224796368
30
0
41
1
10
11.8113426472373
20
7.80565268512444
30
0
41
1
10
11.6954747324324
20
7.6419938903024
30
0
41
1
10
11.6035890511572
20
7.56467770031644
30
0
41
1
10
11.5186515565361
20
7.53341137556468
30
0
41
1
10
11.4759305516652
20
7.52978436585087
30
0
41
1
10
11.4613248654054
20
7.52966679426651
30
0
0
SPLINE
5
177
100
AcDbEntity
8
1
62
256
6
ByLayer
370
18
48
1
60
0
100
AcDbSpline
70
4
71
3
72
12
73
8
40
0
40
0
40
0
40
0
40
0.111858040727051
40
0.249615564081442
40
0.46651232529518
40
0.883363308578639
40
1
40
1
40
1
40
1
41
1
10
11.4613248654054
20
23.8391299750498
30
0
41
1
10
11.4902024771471
20
23.8388589976892
30
0
41
1
10
11.5512049415473
20
23.835735226663
30
0
41
1
10
11.6532263618684
20
23.8170102166348
30
0
41
1
10
11.7782175608377
20
23.7714946431972
30
0
41
1
10
11.8507722029758
20
23.7164634042063
30
0
41
1
10
11.8873565915029
20
23.6756140303032
30
0
41
1
10
11.8943375672977
20
23.6665017920803
30
0
0
SPLINE
5
178
100
AcDbEntity
8
1
62
256
6
ByLayer
370
18
48
1
60
0
100
AcDbSpline
70
4
71
3
72
12
73
8
40
0
40
0
40
0
40
0
40
0.459644305972746
40
0.642726098164922
40
0.827224710285279
40
0.942229897394028
40
1
40
1
40
1
40
1
41
1
10
8.10566243270276
20
23.6665017920802
30
0
41
1
10
8.12939005236719
20
23.7038077009472
30
0
41
1
10
8.18865735276298
20
23.7505385119534
30
0
41
1
10
8.30452526756795
20
23.8034353169049
30
0
41
1
10
8.3964109488431
20
23.8280652820461
30
0
41
1
10
8.48134844346423
20
23.8379462243758
30
0
41
1
10
8.52406944833518
20
23.8390940049541
30
0
41
1
10
8.53867513459492
20
23.8391299750499
30
0
0
SPLINE
5
179
100
AcDbEntity
8
1
62
256
6
ByLayer
370
18
48
1
60
0
100
AcDbSpline
70
4
71
3
72
12
73
8
40
0
40
0
40
0
40
0
40
0.11185804072705
40
0.249615564081429
40
0.466512325295161
40
0.883363308578582
40
1
40
1
40
1
40
1
41
1
10
8.53867513459498
20
7.52966679426681
30
0
41
1
10
8.50979752285321
20
7.53055100813418
30
0
41
1
10
8.44879505845305
20
7.54041112540634
30
0
41
1
10
8.34677363813193
20
7.59950838736049
30
0
41
1
10
8.22178243916264
20
7.74142185662894
30
0
41
1
10
8.14922779702453
20
7.90844135819101
30
0
41
1
10
8.11264340849748
20
8.0290626828666
30
0
41
1
10
8.10566243270261
20
8.05584836782957
30
0
0
SPLINE
5
17A
100
AcDbEntity
8
1
62
256
6
ByLayer
370
18
48
1
60
0
100
AcDbSpline
70
4
71
3
72
12
73
8
40
0
40
0
40
0
40
0
40
0.459644305972738
40
0.642726098164922
40
0.827224710285285
40
0.942229897394027
40
1
40
1
40
1
40
1
41
1
10
11.8943375672976
20
-23.6665017920802
30
0
41
1
10
11.8706099476331
20
-23.7038077009472
30
0
41
1
10
11.8113426472374
20
-23.7505385119535
30
0
41
1
10
11.6954747324324
20
-23.8034353169049
30
0
41
1
10
11.6035890511572
20
-23.8280652820461
30
0
41
1
10
11.5186515565361
20
-23.8379462243758
30
0
41
1
10
11.4759305516652
20
-23.8390940049542
30
0
41
1
10
11.4613248654054
20
-23.8391299750499
30
0
0
SPLINE
5
17B
100
AcDbEntity
8
1
62
256
6
ByLayer
370
18
48
1
60
0
100
AcDbSpline
70
4
71
3
72
12
73
8
40
0
40
0
40
0
40
0
40
0.111858040727054
40
0.249615564081426
40
0.46651232529517
40
0.883363308578615
40
1
40
1
40
1
40
1
41
1
10
11.4613248654054
20
-7.5296667942668
30
0
41
1
10
11.4902024771471
20
-7.53055100813417
30
0
41
1
10
11.5512049415473
20
-7.54041112540634
30
0
41
1
10
11.6532263618684
20
-7.59950838736048
30
0
41
1
10
11.7782175608377
20
-7.74142185662893
30
0
41
1
10
11.8507722029758
20
-7.908441358191
30
0
41
1
10
11.8873565915029
20
-8.02906268286658
30
0
41
1
10
11.8943375672977
20
-8.05584836782954
30
0
0
SPLINE
5
17C
100
AcDbEntity
8
1
62
256
6
ByLayer
370
18
48
1
60
0
100
AcDbSpline
70
4
71
3
72
12
73
8
40
0
40
0
40
0
40
0
40
0.459644305972774
40
0.642726098164951
40
0.827224710285304
40
0.942229897394048
40
1
40
1
40
1
40
1
41
1
10
8.10566243270276
20
-8.0558483678296
30
0
41
1
10
8.1293900523672
20
-7.94573224796368
30
0
41
1
10
8.18865735276299
20
-7.80565268512443
30
0
41
1
10
8.30452526756797
20
-7.64199389030239
30
0
41
1
10
8.39641094884314
20
-7.56467770031644
30
0
41
1
10
8.48134844346424
20
-7.53341137556466
30
0
41
1
10
8.52406944833519
20
-7.52978436585086
30
0
41
1
10
8.53867513459492
20
-7.5296667942665
30
0
0
SPLINE
5
17D
100
AcDbEntity
8
1
62
256
6
ByLayer
370
18
48
1
60
0
100
AcDbSpline
70
4
71
3
72
12
73
8
40
0
40
0
40
0
40
0
40
0.111858040727049
40
0.249615564081434
40
0.466512325295171
40
0.883363308578596
40
1
40
1
40
1
40
1
41
1
10
8.53867513459498
20
-23.8391299750498
30
0
41
1
10
8.50979752285321
20
-23.8388589976892
30
0
41
1
10
8.44879505845305
20
-23.8357352266631
30
0
41
1
10
8.34677363813194
20
-23.8170102166348
30
0
41
1
10
8.22178243916264
20
-23.7714946431973
30
0
41
1
10
8.14922779702455
20
-23.7164634042063
30
0
41
1
10
8.11264340849748
20
-23.6756140303032
30
0
41
1
10
8.10566243270261
20
-23.6665017920803
30
0
0
SPLINE
5
17E
100
AcDbEntity
8
SK1
62
256
6
ByLayer
370
18
48
1
60
0
100
AcDbSpline
70
4
71
3
72
17
73
13
40
0
40
0
40
0
40
0
40
0.129370912103411
40
0.161372773538191
40
0.19372682331285
40
0.211711561197416
40
0.229736208407059
40
0.253017678427751
40
0.293608414907825
40
0.419265595808747
40
0.708969528885545
40
1
40
1
40
1
40
1
41
1
10
-0.194976888869529
20
5.10125345319332
30
0
41
1
10
-0.183219625916508
20
5.07120426726468
30
0
41
1
10
-0.162390524911
20
5.04107223907578
30
0
41
1
10
-0.130111017059981
20
5.0124309231
30
0
41
1
10
-0.113155423190493
20
5.00509307846742
30
0
41
1
10
-0.0975701196438435
20
5.00610079648088
30
0
41
1
10
-0.0846174580071416
20
5.01239379007439
30
0
41
1
10
-0.0698020180417213
20
5.02721710860269
30
0
41
1
10
-0.0458259794041153
20
5.070693893369
30
0
41
1
10
-0.0183770255554135
20
5.1863683457107
30
0
41
1
10
-0.0014413681688211
20
5.36390309927639
30
0
41
1
10
0.002293818803962
20
5.50769526896496
30
0
41
1
10
-3.18E-14
20
5.57923236301403
30
0
0
SPLINE
5
17F
100
AcDbEntity
8
SK1
62
256
6
ByLayer
370
18
48
1
60
0
100
AcDbSpline
70
4
71
3
72
18
73
14
40
0
40
0
40
0
40
0
40
0.51561148367079
40
0.606510907428586
40
0.693265321606381
40
0.726532304130214
40
0.760070668004362
40
0.778839374661109
40
0.797715271312197
40
0.815112837074452
40
0.84547660300724
40
0.922248768039867
40
1
40
1
40
1
40
1
41
1
10
6E-16
20
-5.5792303660677
30
0
41
1
10
0.0069355605930239
20
-5.45145300375908
30
0
41
1
10
-0.0028336610067976
20
-5.30029554557322
30
0
41
1
10
-0.0324270977886226
20
-5.12589476460431
30
0
41
1
10
-0.0469547088854323
20
-5.07301429964288
30
0
41
1
10
-0.0638796745903207
20
-5.03696291616059
30
0
41
1
10
-0.0769595507711511
20
-5.01879344864667
30
0
41
1
10
-0.0913435766459419
20
-5.00838711478588
30
0
41
1
10
-0.103898239085563
20
-5.00506725881668
30
0
41
1
10
-0.118635156888467
20
-5.00693088781316
30
0
41
1
10
-0.142826495355206
20
-5.02036432159236
30
0
41
1
10
-0.169052332461887
20
-5.054117267773
30
0
41
1
10
-0.187358447100356
20
-5.08431871683344
30
0
41
1
10
-0.194976888875457
20
-5.1012508689536
30
0
0
SPLINE
5
180
100
AcDbEntity
8
SK1
62
256
6
ByLayer
370
18
48
1
60
0
100
AcDbSpline
70
4
71
3
72
18
73
14
40
0
40
0
40
0
40
0
40
0.0867859088116185
40
0.174388230920706
40
0.204391489438829
40
0.23467196748713
40
0.261445125233816
40
0.297643777124908
40
0.363600770559178
40
0.470801777334221
40
0.578521326755766
40
0.789147305204536
40
1
40
1
40
1
40
1
41
1
10
-0.194976888875294
20
-5.10125086895557
30
0
41
1
10
-0.221878345272022
20
-5.16279248735198
30
0
41
1
10
-0.292002752064242
20
-5.27443945265231
30
0
41
1
10
-0.397923044699525
20
-5.39867139422103
30
0
41
1
10
-0.506734254707708
20
-5.45369824756888
30
0
41
1
10
-0.580832647301702
20
-5.46537303816402
30
0
41
1
10
-0.65946490690954
20
-5.45016266314575
30
0
41
1
10
-0.753549961975746
20
-5.39783335120498
30
0
41
1
10
-0.867975744858158
20
-5.27541375293599
30
0
41
1
10
-0.97942453197602
20
-5.08791011466085
30
0
41
1
10
-1.10321158466251
20
-4.78542505141133
30
0
41
1
10
-1.21974815506085
20
-4.39418134204471
30
0
41
1
10
-1.28840714285459
20
-4.07352225908796
30
0
41
1
10
-1.31543506509546
20
-3.9102693958132
30
0
0
SPLINE
5
181
100
AcDbEntity
8
SK1
62
256
6
ByLayer
370
18
48
1
60
0
100
AcDbSpline
70
4
71
3
72
18
73
14
40
0
40
0
40
0
40
0
40
0.290028556667395
40
0.438228540433392
40
0.585914467467156
40
0.660011386656569
40
0.711459327226578
40
0.742523658862843
40
0.768661978383096
40
0.794825512308793
40
0.830632631424473
40
0.89532463886038
40
1
40
1
40
1
40
1
41
1
10
-1.31543506509497
20
3.91027172665455
30
0
41
1
10
-1.2783146293522
20
4.13520612454479
30
0
41
1
10
-1.20043175605494
20
4.46656088286044
30
0
41
1
10
-1.06545246966135
20
4.89629725804773
30
0
41
1
10
-0.944829963032211
20
5.15538116405765
30
0
41
1
10
-0.821911731500873
20
5.3299851929371
30
0
41
1
10
-0.727830289462275
20
5.41484436947949
30
0
41
1
10
-0.645691157501381
20
5.45425148201708
30
0
41
1
10
-0.574713313233483
20
5.46468268235863
30
0
41
1
10
-0.500539379347293
20
5.45184544398561
30
0
41
1
10
-0.408083717975226
20
5.40259983893206
30
0
41
1
10
-0.297157983214791
20
5.28403205813642
30
0
41
1
10
-0.226849889315825
20
5.1762780196345
30
0
41
1
10
-0.194976888875295
20
5.10125345321177
30
0
0
SPLINE
5
182
100
AcDbEntity
8
SK1
62
256
6
ByLayer
370
18
48
1
60
0
100
AcDbSpline
70
4
71
2
72
6
73
3
40
0
40
0
40
0
40
1
40
1
40
1
41
1
10
-28.5
20
-16.8545212066649
30
0
41
1
10
-15.2499999987993
20
-17.1871851888411
30
0
41
1
10
-2
20
-17.5198482068776
30
0
0
SPLINE
5
183
100
AcDbEntity
8
SK1
62
256
6
ByLayer
370
18
48
1
60
0
100
AcDbSpline
70
4
71
2
72
6
73
3
40
0
40
0
40
0
40
1
40
1
40
1
41
1
10
-2
20
17.5198479235724
30
0
41
1
10
-15.2499999987995
20
17.1871849060498
30
0
41
1
10
-28.5
20
16.8545209244112
30
0
0
SPLINE
5
184
100
AcDbEntity
8
SK1
62
256
6
ByLayer
370
18
48
1
60
0
100
AcDbSpline
70
4
71
3
72
13
73
9
40
0
40
0
40
0
40
0
40
0.239409099367175
40
0.368297400752082
40
0.499931438691476
40
0.631576866358061
40
0.760496583550944
40
1
40
1
40
1
40
1
41
1
10
-2
20
-17.525129116923
30
0
41
1
10
-1.999091257198
20
-17.4990813944884
30
0
41
1
10
-1.99103211472606
20
-17.4617233046648
30
0
41
1
10
-1.9656349589192
20
-17.4155240253433
30
0
41
1
10
-1.93886250822576
20
-17.3842556209573
30
0
41
1
10
-1.90627575278676
20
-17.3590990612904
30
0
41
1
10
-1.8588387546789
20
-17.3360651360603
30
0
41
1
10
-1.82110932008981
20
-17.3298953840654
30
0
41
1
10
-1.7950399779393
20
-17.3302974649008
30
0
0
SPLINE
5
185
100
AcDbEntity
8
SK1
62
256
6
ByLayer
370
18
48
1
60
0
100
AcDbSpline
70
4
71
3
72
13
73
9
40
0
40
0
40
0
40
0
40
0.25566431255886
40
0.393283104703447
40
0.533811529302292
40
0.674327795722664
40
0.811913052470539
40
1
40
1
40
1
40
1
41
1
10
-1.7950399779393
20
17.3302973195575
30
0
41
1
10
-1.82110932009616
20
17.3298952387249
30
0
41
1
10
-1.85883863471189
20
17.336064693352
30
0
41
1
10
-1.90627597098527
20
17.3590994568546
30
0
41
1
10
-1.93886166140053
20
17.3842533767782
30
0
41
1
10
-1.96563809251062
20
17.415531647338
30
0
41
1
10
-1.98780770297255
20
17.455849018032
30
0
41
1
10
-1.99605051841839
20
17.4864531869698
30
0
41
1
10
-1.99849243767098
20
17.505144640418
30
0
0
SPLINE
5
186
100
AcDbEntity
8
SK1
62
256
6
ByLayer
370
18
48
1
60
0
100
AcDbSpline
70
4
71
1
72
4
73
2
40
0
40
0
40
1
40
1
41
1
10
-1.99849243767098
20
17.505144640418
30
0
41
1
10
-2
20
17.5251289721744
30
0
0
SPLINE
5
187
100
AcDbEntity
8
SK1
62
256
6
ByLayer
370
18
48
1
60
0
100
AcDbSpline
70
4
71
3
72
17
73
13
40
0
40
0
40
0
40
0
40
0.099106691486527
40
0.198192594110712
40
0.299572892017746
40
0.400912257008715
40
0.500457652743408
40
0.600003201073907
40
0.70388338766856
40
0.807808442102307
40
0.9038951623681
40
1
40
1
40
1
40
1
41
1
10
-1.31543506509497
20
-3.91026939581315
30
0
41
1
10
-1.36028224669224
20
-3.6659123755082
30
0
41
1
10
-1.44441779668686
20
-3.17116817263623
30
0
41
1
10
-1.55780793439527
20
-2.40463952292471
30
0
41
1
10
-1.64885235851604
20
-1.61433533993538
30
0
41
1
10
-1.70939050306725
20
-0.807493432008662
30
0
41
1
10
-1.72959530003108
20
0.0037094397141646
30
0
41
1
10
-1.70883262403854
20
0.821723015145857
30
0
41
1
10
-1.64644433354021
20
1.64191501898709
30
0
41
1
10
-1.55345884751516
20
2.43690391310076
30
0
41
1
10
-1.44061841886798
20
3.19373322287958
30
0
41
1
10
-1.3588805243892
20
3.67332000097437
30
0
41
1
10
-1.31543506509498
20
3.91027172665454
30
0
0
SPLINE
5
188
100
AcDbEntity
8
SK1
62
256
6
ByLayer
370
18
48
1
60
0
100
AcDbSpline
70
4
71
2
72
6
73
3
40
0
40
0
40
0
40
1
40
1
40
1
41
1
10
-1.7950399779393
20
-17.3250646819565
30
0
41
1
10
-0.99500843340304
20
-17.3451508243471
30
0
41
1
10
-0.194976888875294
20
-17.3652369633
30
0
0
SPLINE
5
189
100
AcDbEntity
8
SK1
62
256
6
ByLayer
370
18
48
1
60
0
100
AcDbSpline
70
4
71
2
72
6
73
3
40
0
40
0
40
0
40
1
40
1
40
1
41
1
10
-0.194976888875294
20
17.3652366802367
30
0
41
1
10
-0.995008433403041
20
17.3451505413152
30
0
41
1
10
-1.7950399779393
20
17.3250643989562
30
0
0
SPLINE
5
18A
100
AcDbEntity
8
SK1
62
256
6
ByLayer
370
18
48
1
60
0
100
AcDbSpline
70
4
71
2
72
6
73
3
40
0
40
0
40
0
40
1
40
1
40
1
41
1
10
-30
20
-15.9932495545753
30
0
41
1
10
-29.2499990770552
20
-16.4260289695447
30
0
41
1
10
-28.5
20
-16.8588008432385
30
0
0
SPLINE
5
18B
100
AcDbEntity
8
SK1
62
256
6
ByLayer
370
18
48
1
60
0
100
AcDbSpline
70
4
71
1
72
4
73
2
40
0
40
0
40
1
40
1
41
1
10
-28.5
20
16.8588006436881
30
0
41
1
10
-28.5182632749506
20
16.8482621885213
30
0
0
SPLINE
5
18C
100
AcDbEntity
8
SK1
62
256
6
ByLayer
370
18
48
1
60
0
100
AcDbSpline
70
4
71
2
72
6
73
3
40
0
40
0
40
0
40
1
40
1
40
1
41
1
10
-28.5182632749506
20
16.8482621885213
30
0
41
1
10
-29.2591307368908
20
16.4207594505486
30
0
41
1
10
-30
20
15.9932493559076
30
0
0
SPLINE
5
18D
100
AcDbEntity
8
SK1
62
256
6
ByLayer
370
18
48
1
60
0
100
AcDbSpline
70
4
71
3
72
17
73
13
40
0
40
0
40
0
40
0
40
0.0657405250608482
40
0.0931315984050747
40
0.105639316665768
40
0.118289849751272
40
0.132330539140505
40
0.149102116193677
40
0.195229911635311
40
0.352416534372445
40
0.681552097443074
40
1
40
1
40
1
40
1
41
1
10
-0.194976888875294
20
-17.3704796738454
30
0
41
1
10
-0.184926114337182
20
-17.3701675468223
30
0
41
1
10
-0.167892865658177
20
-17.3722898591775
30
0
41
1
10
-0.144673929027913
20
-17.3779439318182
30
0
41
1
10
-0.13173722444779
20
-17.3822681291168
30
0
41
1
10
-0.122235622319248
20
-17.3859937717034
30
0
41
1
10
-0.112945867333305
20
-17.3902057898519
30
0
41
1
10
-0.0996054288575623
20
-17.3971073459557
30
0
41
1
10
-0.0745980169557996
20
-17.4131359529555
30
0
41
1
10
-0.0465484577174271
20
-17.4393867676843
30
0
41
1
10
-0.0231681414262751
20
-17.471011828054
30
0
41
1
10
-0.0118381604286297
20
-17.491392623169
30
0
41
1
10
-0.0091268142652181
20
-17.4998993790104
30
0
0
SPLINE
5
18E
100
AcDbEntity
8
SK1
62
256
6
ByLayer
370
18
48
1
60
0
100
AcDbSpline
70
4
71
3
72
20
73
16
40
0
40
0
40
0
40
0
40
0.249814146886974
40
0.526503846245778
40
0.686697029492538
40
0.728728501849308
40
0.742686125913147
40
0.748433515901963
40
0.753650984965104
40
0.758614572191084
40
0.763605266474416
40
0.774533387170733
40
0.803360483171444
40
0.890097715918537
40
1
40
1
40
1
40
1
41
1
10
-0.0055290424768812
20
17.5155581838581
30
0
41
1
10
-0.0069434837188841
20
17.5104812929902
30
0
41
1
10
-0.0130634616924972
20
17.4960371607014
30
0
41
1
10
-0.0261500861196188
20
17.4703890738096
30
0
41
1
10
-0.0441505822817461
20
17.4427102550032
30
0
41
1
10
-0.0662518526838957
20
17.4202643041788
30
0
41
1
10
-0.077608038213836
20
17.4109258542121
30
0
41
1
10
-0.0834912354402302
20
17.4065442098929
30
0
41
1
10
-0.0877257454814942
20
17.4035721294878
30
0
41
1
10
-0.0920441584208021
20
17.4007204601046
30
0
41
1
10
-0.0980292419790842
20
17.3970060721714
30
0
41
1
10
-0.109927005295208
20
17.3903589926141
30
0
41
1
10
-0.134486640869427
20
17.3796505264795
30
0
41
1
10
-0.162355119989476
20
17.3731655742944
30
0
41
1
10
-0.184964907174979
20
17.3699554274787
30
0
41
1
10
-0.194976888875294
20
17.3704795286247
30
0
0
INSERT
5
1CA
100
AcDbEntity
8
SK2
62
256
6
ByLayer
370
25
48
1
60
0
100
AcDbBlockReference
2
DimnDraft3D55
10
0
20
0
30
0
41
1
42
1
43
1
50
0
210
0
220
0
230
1
0
LINE
5
70
100
AcDbEntity
8
81
62
256
6
ByLayer
370
18
48
1
60
0
100
AcDbLine
10
368
20
-5
30
0
11
404.8
21
-5
31
0
39
0
210
0
220
0
230
1
0
LINE
5
71
100
AcDbEntity
8
4
62
256
6
ByLayer
370
18
48
0.05
60
0
100
AcDbLine
10
0
20
0
30
0
11
368
21
0
31
0
39
0
210
0
220
0
230
1
0
LINE
5
73
100
AcDbEntity
8
SK4
62
256
6
ByLayer
370
18
48
0.05
60
0
100
AcDbLine
10
-35
20
0
30
0
11
375
21
0
31
0
39
0
210
0
220
0
230
1
0
LINE
5
75
100
AcDbEntity
8
80
62
256
6
ByLayer
370
18
48
1
60
0
100
AcDbLine
10
0
20
0
30
0
11
-36.8
21
0
31
0
39
0
210
0
220
0
230
1
0
LINE
5
76
100
AcDbEntity
8
1
62
256
6
ByLayer
370
18
48
1
60
0
100
AcDbLine
10
365.5
20
25
30
0
11
364
21
25
31
0
39
0
210
0
220
0
230
1
0
LINE
5
78
100
AcDbEntity
8
1
62
256
6
ByLayer
370
18
48
1
60
0
100
AcDbLine
10
364
20
-25
30
0
11
366
21
-25
31
0
39
0
210
0
220
0
230
1
0
LINE
5
79
100
AcDbEntity
8
1
62
256
6
ByLayer
370
18
48
1
60
0
100
AcDbLine
10
366
20
24.5
30
0
11
365.5
21
25
31
0
39
0
210
0
220
0
230
1
0
LINE
5
7A
100
AcDbEntity
8
1
62
256
6
ByLayer
370
18
48
1
60
0
100
AcDbLine
10
366
20
-25
30
0
11
367.325
21
-25
31
0
39
0
210
0
220
0
230
1
0
LINE
5
7B
100
AcDbEntity
8
1
62
256
6
ByLayer
370
18
48
1
60
0
100
AcDbLine
10
367.325
20
15
30
0
11
366.3
21
15
31
0
39
0
210
0
220
0
230
1
0
LINE
5
7C
100
AcDbEntity
8
1
62
256
6
ByLayer
370
18
48
1
60
0
100
AcDbLine
10
367.325
20
-25
30
0
11
367.556678
21
-24.768322
31
0
39
0
210
0
220
0
230
1
0
LINE
5
7D
100
AcDbEntity
8
1
62
256
6
ByLayer
370
18
48
1
60
0
100
AcDbLine
10
367.556678
20
14.768322
30
0
11
367.325
21
15
31
0
39
0
210
0
220
0
230
1
0
LINE
5
7E
100
AcDbEntity
8
1
62
256
6
ByLayer
370
18
48
1
60
0
100
AcDbLine
10
367.65725
20
-8.66688
30
0
11
367.65725
21
-1.33312
31
0
39
0
210
0
220
0
230
1
0
LINE
5
7F
100
AcDbEntity
8
1
62
256
6
ByLayer
370
18
48
1
60
0
100
AcDbLine
10
368.325
20
-6.541407
30
0
11
368.325
21
-3.458593
31
0
39
0
210
0
220
0
230
1
0
LINE
5
80
100
AcDbEntity
8
1
62
256
6
ByLayer
370
18
48
1
60
0
100
AcDbLine
10
367.65725
20
-13.316532
30
0
11
367.65725
21
-12.510882
31
0
39
0
210
0
220
0
230
1
0
LINE
5
81
100
AcDbEntity
8
1
62
256
6
ByLayer
370
18
48
1
60
0
100
AcDbLine
10
367.65725
20
2.510882
30
0
11
367.65725
21
3.316532
31
0
39
0
210
0
220
0
230
1
0
LINE
5
82
100
AcDbEntity
8
1
62
256
6
ByLayer
370
18
48
1
60
0
100
AcDbLine
10
368.325
20
-12.545731
30
0
11
368.325
21
-9.053252
31
0
39
0
210
0
220
0
230
1
0
LINE
5
83
100
AcDbEntity
8
1
62
256
6
ByLayer
370
18
48
1
60
0
100
AcDbLine
10
368.325
20
-0.946748
30
0
11
368.325
21
2.545731
31
0
39
0
210
0
220
0
230
1
0
LINE
5
84
100
AcDbEntity
8
1
62
256
6
ByLayer
370
18
48
1
60
0
100
AcDbLine
10
367.65725
20
-15.971937
30
0
11
367.65725
21
-15.425673
31
0
39
0
210
0
220
0
230
1
0
LINE
5
85
100
AcDbEntity
8
1
62
256
6
ByLayer
370
18
48
1
60
0
100
AcDbLine
10
367.65725
20
5.425673
30
0
11
367.65725
21
5.971937
31
0
39
0
210
0
220
0
230
1
0
LINE
5
86
100
AcDbEntity
8
1
62
256
6
ByLayer
370
18
48
1
60
0
100
AcDbLine
10
368.325
20
-15.344089
30
0
11
368.325
21
-13.358632
31
0
39
0
210
0
220
0
230
1
0
LINE
5
87
100
AcDbEntity
8
1
62
256
6
ByLayer
370
18
48
1
60
0
100
AcDbLine
10
368.325
20
3.358632
30
0
11
368.325
21
5.344089
31
0
39
0
210
0
220
0
230
1
0
LINE
5
88
100
AcDbEntity
8
1
62
256
6
ByLayer
370
18
48
1
60
0
100
AcDbLine
10
367.65725
20
-17.926797
30
0
11
367.65725
21
-17.509035
31
0
39
0
210
0
220
0
230
1
0
LINE
5
89
100
AcDbEntity
8
1
62
256
6
ByLayer
370
18
48
1
60
0
100
AcDbLine
10
367.65725
20
7.509035
30
0
11
367.65725
21
7.926797
31
0
39
0
210
0
220
0
230
1
0
LINE
5
8A
100
AcDbEntity
8
1
62
256
6
ByLayer
370
18
48
1
60
0
100
AcDbLine
10
368.325
20
-17.351611
30
0
11
368.325
21
-15.899753
31
0
39
0
210
0
220
0
230
1
0
LINE
5
8B
100
AcDbEntity
8
1
62
256
6
ByLayer
370
18
48
1
60
0
100
AcDbLine
10
368.325
20
5.899753
30
0
11
368.325
21
7.351611
31
0
39
0
210
0
220
0
230
1
0
LINE
5
8C
100
AcDbEntity
8
1
62
256
6
ByLayer
370
18
48
1
60
0
100
AcDbLine
10
367.65725
20
-19.467923
30
0
11
367.65725
21
-19.133551
31
0
39
0
210
0
220
0
230
1
0
LINE
5
8D
100
AcDbEntity
8
1
62
256
6
ByLayer
370
18
48
1
60
0
100
AcDbLine
10
367.65725
20
9.133551
30
0
11
367.65725
21
9.467923
31
0
39
0
210
0
220
0
230
1
0
LINE
5
8E
100
AcDbEntity
8
1
62
256
6
ByLayer
370
18
48
1
60
0
100
AcDbLine
10
368.325
20
7.776639
30
0
11
368.325
21
8.914899
31
0
39
0
210
0
220
0
230
1
0
LINE
5
8F
100
AcDbEntity
8
1
62
256
6
ByLayer
370
18
48
1
60
0
100
AcDbLine
10
368.325
20
-18.914899
30
0
11
368.325
21
-17.776639
31
0
39
0
210
0
220
0
230
1
0
LINE
5
90
100
AcDbEntity
8
1
62
256
6
ByLayer
370
18
48
1
60
0
100
AcDbLine
10
367.65725
20
10.444694
30
0
11
367.65725
21
10.71749
31
0
39
0
210
0
220
0
230
1
0
LINE
5
91
100
AcDbEntity
8
1
62
256
6
ByLayer
370
18
48
1
60
0
100
AcDbLine
10
367.65725
20
-20.71749
30
0
11
367.65725
21
-20.444694
31
0
39
0
210
0
220
0
230
1
0
LINE
5
92
100
AcDbEntity
8
1
62
256
6
ByLayer
370
18
48
1
60
0
100
AcDbLine
10
368.325
20
-20.171899
30
0
11
368.325
21
-19.254136
31
0
39
0
210
0
220
0
230
1
0
LINE
5
93
100
AcDbEntity
8
1
62
256
6
ByLayer
370
18
48
1
60
0
100
AcDbLine
10
368.325
20
9.254136
30
0
11
368.325
21
10.171899
31
0
39
0
210
0
220
0
230
1
0
LINE
5
94
100
AcDbEntity
8
1
62
256
6
ByLayer
370
18
48
1
60
0
100
AcDbLine
10
367.65725
20
11.51726
30
0
11
367.65725
21
11.740913
31
0
39
0
210
0
220
0
230
1
0
LINE
5
95
100
AcDbEntity
8
1
62
256
6
ByLayer
370
18
48
1
60
0
100
AcDbLine
10
367.65725
20
-21.740913
30
0
11
367.65725
21
-21.51726
31
0
39
0
210
0
220
0
230
1
0
LINE
5
96
100
AcDbEntity
8
1
62
256
6
ByLayer
370
18
48
1
60
0
100
AcDbLine
10
368.325
20
10.447274
30
0
11
368.325
21
11.194093
31
0
39
0
210
0
220
0
230
1
0
LINE
5
97
100
AcDbEntity
8
1
62
256
6
ByLayer
370
18
48
1
60
0
100
AcDbLine
10
368.325
20
-21.194093
30
0
11
368.325
21
-20.447274
31
0
39
0
210
0
220
0
230
1
0
LINE
5
98
100
AcDbEntity
8
1
62
256
6
ByLayer
370
18
48
1
60
0
100
AcDbLine
10
367.65725
20
12.395436
30
0
11
367.65725
21
12.577738
31
0
39
0
210
0
220
0
230
1
0
LINE
5
99
100
AcDbEntity
8
1
62
256
6
ByLayer
370
18
48
1
60
0
100
AcDbLine
10
367.65725
20
-22.577738
30
0
11
367.65725
21
-22.395436
31
0
39
0
210
0
220
0
230
1
0
LINE
5
9A
100
AcDbEntity
8
1
62
256
6
ByLayer
370
18
48
1
60
0
100
AcDbLine
10
368.325
20
-22.023829
30
0
11
368.325
21
-21.418165
31
0
39
0
210
0
220
0
230
1
0
LINE
5
9B
100
AcDbEntity
8
1
62
256
6
ByLayer
370
18
48
1
60
0
100
AcDbLine
10
368.325
20
11.418165
30
0
11
368.325
21
12.023829
31
0
39
0
210
0
220
0
230
1
0
LINE
5
9C
100
AcDbEntity
8
1
62
256
6
ByLayer
370
18
48
1
60
0
100
AcDbLine
10
367.65725
20
13.107526
30
0
11
367.65725
21
13.253645
31
0
39
0
210
0
220
0
230
1
0
LINE
5
9D
100
AcDbEntity
8
1
62
256
6
ByLayer
370
18
48
1
60
0
100
AcDbLine
10
367.65725
20
-23.253645
30
0
11
367.65725
21
-23.107526
31
0
39
0
210
0
220
0
230
1
0
LINE
5
9E
100
AcDbEntity
8
1
62
256
6
ByLayer
370
18
48
1
60
0
100
AcDbLine
10
368.325
20
-22.688213
30
0
11
368.325
21
-22.204477
31
0
39
0
210
0
220
0
230
1
0
LINE
5
9F
100
AcDbEntity
8
1
62
256
6
ByLayer
370
18
48
1
60
0
100
AcDbLine
10
368.325
20
12.204477
30
0
11
368.325
21
12.688213
31
0
39
0
210
0
220
0
230
1
0
LINE
5
A0
100
AcDbEntity
8
1
62
256
6
ByLayer
370
18
48
1
60
0
100
AcDbLine
10
367.65725
20
-23.786012
30
0
11
367.65725
21
-23.672541
31
0
39
0
210
0
220
0
230
1
0
LINE
5
A1
100
AcDbEntity
8
1
62
256
6
ByLayer
370
18
48
1
60
0
100
AcDbLine
10
367.65725
20
13.672541
30
0
11
367.65725
21
13.786012
31
0
39
0
210
0
220
0
230
1
0
LINE
5
A2
100
AcDbEntity
8
1
62
256
6
ByLayer
370
18
48
1
60
0
100
AcDbLine
10
368.325
20
12.830645
30
0
11
368.325
21
13.205356
31
0
39
0
210
0
220
0
230
1
0
LINE
5
A3
100
AcDbEntity
8
1
62
256
6
ByLayer
370
18
48
1
60
0
100
AcDbLine
10
368.325
20
-23.205356
30
0
11
368.325
21
-22.830645
31
0
39
0
210
0
220
0
230
1
0
LINE
5
A4
100
AcDbEntity
8
1
62
256
6
ByLayer
370
18
48
1
60
0
100
AcDbLine
10
367.65725
20
14.103536
30
0
11
367.65725
21
14.186791
31
0
39
0
210
0
220
0
230
1
0
LINE
5
A5
100
AcDbEntity
8
1
62
256
6
ByLayer
370
18
48
1
60
0
100
AcDbLine
10
367.65725
20
-24.186791
30
0
11
367.65725
21
-24.103536
31
0
39
0
210
0
220
0
230
1
0
LINE
5
A6
100
AcDbEntity
8
1
62
256
6
ByLayer
370
18
48
1
60
0
100
AcDbLine
10
368.325
20
-23.587552
30
0
11
368.325
21
-23.313105
31
0
39
0
210
0
220
0
230
1
0
LINE
5
A7
100
AcDbEntity
8
1
62
256
6
ByLayer
370
18
48
1
60
0
100
AcDbLine
10
368.325
20
13.313105
30
0
11
368.325
21
13.587552
31
0
39
0
210
0
220
0
230
1
0
LINE
5
A8
100
AcDbEntity
8
1
62
256
6
ByLayer
370
18
48
1
60
0
100
AcDbLine
10
367.65725
20
-24.464112
30
0
11
367.65725
21
-24.409441
31
0
39
0
210
0
220
0
230
1
0
LINE
5
A9
100
AcDbEntity
8
1
62
256
6
ByLayer
370
18
48
1
60
0
100
AcDbLine
10
367.65725
20
14.409441
30
0
11
367.65725
21
14.464112
31
0
39
0
210
0
220
0
230
1
0
LINE
5
AA
100
AcDbEntity
8
1
62
256
6
ByLayer
370
18
48
1
60
0
100
AcDbLine
10
368.325
20
-23.843015
30
0
11
368.325
21
-23.663003
31
0
39
0
210
0
220
0
230
1
0
LINE
5
AB
100
AcDbEntity
8
1
62
256
6
ByLayer
370
18
48
1
60
0
100
AcDbLine
10
368.325
20
13.663003
30
0
11
368.325
21
13.843015
31
0
39
0
210
0
220
0
230
1
0
LINE
5
AC
100
AcDbEntity
8
1
62
256
6
ByLayer
370
18
48
1
60
0
100
AcDbLine
10
367.65725
20
-24.623209
30
0
11
367.65725
21
-24.596115
31
0
39
0
210
0
220
0
230
1
0
LINE
5
AD
100
AcDbEntity
8
1
62
256
6
ByLayer
370
18
48
1
60
0
100
AcDbLine
10
367.65725
20
14.596115
30
0
11
367.65725
21
14.623209
31
0
39
0
210
0
220
0
230
1
0
LINE
5
AE
100
AcDbEntity
8
1
62
256
6
ByLayer
370
18
48
1
60
0
100
AcDbLine
10
368.325
20
13.887709
30
0
11
368.325
21
13.976863
31
0
39
0
210
0
220
0
230
1
0
LINE
5
AF
100
AcDbEntity
8
1
62
256
6
ByLayer
370
18
48
1
60
0
100
AcDbLine
10
368.325
20
-23.976863
30
0
11
368.325
21
-23.887709
31
0
39
0
210
0
220
0
230
1
0
LINE
5
B0
100
AcDbEntity
8
SK1
62
256
6
ByLayer
370
18
48
1
60
0
100
AcDbLine
10
378
20
-9.899495
30
0
11
372
21
-9.899495
31
0
39
0
210
0
220
0
230
1
0
LINE
5
B2
100
AcDbEntity
8
SK1
62
256
6
ByLayer
370
18
48
1
60
0
100
AcDbLine
10
372
20
-19.899495
30
0
11
378
21
-19.899495
31
0
39
0
210
0
220
0
230
1
0
LINE
5
B3
100
AcDbEntity
8
SK1
62
256
6
ByLayer
370
18
48
1
60
0
100
AcDbLine
10
372
20
-11.899495
30
0
11
368.325
21
-11.899495
31
0
39
0
210
0
220
0
230
1
0
LINE
5
B4
100
AcDbEntity
8
SK1
62
256
6
ByLayer
370
18
48
1
60
0
100
AcDbLine
10
368.325
20
-17.899495
30
0
11
372
21
-17.899495
31
0
39
0
210
0
220
0
230
1
0
LINE
5
B5
100
AcDbEntity
8
SK1
62
256
6
ByLayer
370
18
48
1
60
0
100
AcDbLine
10
378
20
9.899495
30
0
11
372
21
9.899495
31
0
39
0
210
0
220
0
230
1
0
LINE
5
B6
100
AcDbEntity
8
SK1
62
256
6
ByLayer
370
18
48
1
60
0
100
AcDbLine
10
372
20
-0.100505
30
0
11
378
21
-0.100505
31
0
39
0
210
0
220
0
230
1
0
LINE
5
B7
100
AcDbEntity
8
SK1
62
256
6
ByLayer
370
18
48
1
60
0
100
AcDbLine
10
372
20
7.899495
30
0
11
368.325
21
7.899495
31
0
39
0
210
0
220
0
230
1
0
LINE
5
B8
100
AcDbEntity
8
SK1
62
256
6
ByLayer
370
18
48
1
60
0
100
AcDbLine
10
368.325
20
1.899495
30
0
11
372
21
1.899495
31
0
39
0
210
0
220
0
230
1
0
LINE
5
B9
100
AcDbEntity
8
1
62
256
6
ByLayer
370
18
48
1
60
0
100
AcDbLine
10
363.7
20
25
30
0
11
0.3
21
25
31
0
39
0
210
0
220
0
230
1
0
LINE
5
BA
100
AcDbEntity
8
1
62
256
6
ByLayer
370
18
48
1
60
0
100
AcDbLine
10
0.3
20
-25
30
0
11
363.7
21
-25
31
0
39
0
210
0
220
0
230
1
0
LINE
5
BB
100
AcDbEntity
8
1
62
256
6
ByLayer
370
18
48
1
60
0
100
AcDbLine
10
11.461325
20
7.529667
30
0
11
8.538675
21
7.529667
31
0
39
0
210
0
220
0
230
1
0
LINE
5
BC
100
AcDbEntity
8
1
62
256
6
ByLayer
370
18
48
1
60
0
100
AcDbLine
10
8.538675
20
23.83913
30
0
11
11.461325
21
23.83913
31
0
39
0
210
0
220
0
230
1
0
LINE
5
BD
100
AcDbEntity
8
1
62
256
6
ByLayer
370
18
48
1
60
0
100
AcDbLine
10
11.461325
20
-23.83913
30
0
11
8.538675
21
-23.83913
31
0
39
0
210
0
220
0
230
1
0
LINE
5
BE
100
AcDbEntity
8
1
62
256
6
ByLayer
370
18
48
1
60
0
100
AcDbLine
10
8.538675
20
-7.529667
30
0
11
11.461325
21
-7.529667
31
0
39
0
210
0
220
0
230
1
0
LINE
5
BF
100
AcDbEntity
8
1
62
256
6
ByLayer
370
18
48
1
60
0
100
AcDbLine
10
0.3
20
25
30
0
11
0
21
24.7
31
0
39
0
210
0
220
0
230
1
0
LINE
5
C0
100
AcDbEntity
8
1
62
256
6
ByLayer
370
18
48
1
60
0
100
AcDbLine
10
0
20
-24.7
30
0
11
0.3
21
-25
31
0
39
0
210
0
220
0
230
1
0
LINE
5
C1
100
AcDbEntity
8
1
62
256
6
ByLayer
370
18
48
1
60
0
100
AcDbLine
10
8.538675
20
-23.83913
30
0
11
8.538675
21
-7.529667
31
0
39
0
210
0
220
0
230
1
0
LINE
5
C2
100
AcDbEntity
8
1
62
256
6
ByLayer
370
18
48
1
60
0
100
AcDbLine
10
8.105662
20
-23.666502
30
0
11
8.105662
21
-8.055848
31
0
39
0
210
0
220
0
230
1
0
LINE
5
C3
100
AcDbEntity
8
1
62
256
6
ByLayer
370
18
48
1
60
0
100
AcDbLine
10
11.894338
20
8.055848
30
0
11
11.894338
21
23.666502
31
0
39
0
210
0
220
0
230
1
0
LINE
5
C4
100
AcDbEntity
8
1
62
256
6
ByLayer
370
18
48
1
60
0
100
AcDbLine
10
11.461325
20
7.529667
30
0
11
11.461325
21
23.83913
31
0
39
0
210
0
220
0
230
1
0
LINE
5
C5
100
AcDbEntity
8
1
62
256
6
ByLayer
370
18
48
1
60
0
100
AcDbLine
10
11.894338
20
-23.666502
30
0
11
11.894338
21
-8.055848
31
0
39
0
210
0
220
0
230
1
0
LINE
5
C6
100
AcDbEntity
8
1
62
256
6
ByLayer
370
18
48
1
60
0
100
AcDbLine
10
11.461325
20
-23.83913
30
0
11
11.461325
21
-7.529667
31
0
39
0
210
0
220
0
230
1
0
LINE
5
C7
100
AcDbEntity
8
1
62
256
6
ByLayer
370
18
48
1
60
0
100
AcDbLine
10
8.538675
20
7.529667
30
0
11
8.538675
21
23.83913
31
0
39
0
210
0
220
0
230
1
0
LINE
5
C8
100
AcDbEntity
8
1
62
256
6
ByLayer
370
18
48
1
60
0
100
AcDbLine
10
8.105662
20
8.055848
30
0
11
8.105662
21
23.666502
31
0
39
0
210
0
220
0
230
1
0
LINE
5
C9
100
AcDbEntity
8
1
62
256
6
ByLayer
370
18
48
1
60
0
100
AcDbLine
10
364
20
25
30
0
11
364
21
0
31
0
39
0
210
0
220
0
230
1
0
LINE
5
CA
100
AcDbEntity
8
1
62
256
6
ByLayer
370
18
48
1
60
0
100
AcDbLine
10
365.5
20
-21.75102
30
0
11
365.5
21
25
31
0
39
0
210
0
220
0
230
1
0
LINE
5
CB
100
AcDbEntity
8
1
62
256
6
ByLayer
370
18
48
1
60
0
100
AcDbLine
10
364
20
0
30
0
11
364
21
-25
31
0
39
0
210
0
220
0
230
1
0
LINE
5
CC
100
AcDbEntity
8
1
62
256
6
ByLayer
370
18
48
1
60
0
100
AcDbLine
10
366
20
24.5
30
0
11
366
21
-21.316
31
0
39
0
210
0
220
0
230
1
0
LINE
5
CD
100
AcDbEntity
8
1
62
256
6
ByLayer
370
18
48
1
60
0
100
AcDbLine
10
366.3
20
15
30
0
11
366.3
21
-23.5133
31
0
39
0
210
0
220
0
230
1
0
LINE
5
CE
100
AcDbEntity
8
1
62
256
6
ByLayer
370
18
48
1
60
0
100
AcDbLine
10
367.325
20
-25
30
0
11
367.325
21
15
31
0
39
0
210
0
220
0
230
1
0
LINE
5
CF
100
AcDbEntity
8
1
62
256
6
ByLayer
370
18
48
1
60
0
100
AcDbLine
10
368.325
20
-6.541407
30
0
11
368.325
21
-9.053252
31
0
39
0
210
0
220
0
230
1
0
LINE
5
D0
100
AcDbEntity
8
1
62
256
6
ByLayer
370
18
48
1
60
0
100
AcDbLine
10
368.325
20
-12.545731
30
0
11
368.325
21
-13.358632
31
0
39
0
210
0
220
0
230
1
0
LINE
5
D1
100
AcDbEntity
8
1
62
256
6
ByLayer
370
18
48
1
60
0
100
AcDbLine
10
368.325
20
-15.344089
30
0
11
368.325
21
-15.899753
31
0
39
0
210
0
220
0
230
1
0
LINE
5
D2
100
AcDbEntity
8
1
62
256
6
ByLayer
370
18
48
1
60
0
100
AcDbLine
10
368.325
20
-17.351611
30
0
11
368.325
21
-17.776639
31
0
39
0
210
0
220
0
230
1
0
LINE
5
D3
100
AcDbEntity
8
1
62
256
6
ByLayer
370
18
48
1
60
0
100
AcDbLine
10
368.325
20
-18.914899
30
0
11
368.325
21
-19.254136
31
0
39
0
210
0
220
0
230
1
0
LINE
5
D4
100
AcDbEntity
8
1
62
256
6
ByLayer
370
18
48
1
60
0
100
AcDbLine
10
368.325
20
-20.171899
30
0
11
368.325
21
-20.447274
31
0
39
0
210
0
220
0
230
1
0
LINE
5
D5
100
AcDbEntity
8
1
62
256
6
ByLayer
370
18
48
1
60
0
100
AcDbLine
10
368.325
20
-21.194093
30
0
11
368.325
21
-21.418165
31
0
39
0
210
0
220
0
230
1
0
LINE
5
D6
100
AcDbEntity
8
1
62
256
6
ByLayer
370
18
48
1
60
0
100
AcDbLine
10
368.325
20
-22.023829
30
0
11
368.325
21
-22.204477
31
0
39
0
210
0
220
0
230
1
0
LINE
5
D7
100
AcDbEntity
8
1
62
256
6
ByLayer
370
18
48
1
60
0
100
AcDbLine
10
368.325
20
-22.688213
30
0
11
368.325
21
-22.830645
31
0
39
0
210
0
220
0
230
1
0
LINE
5
D8
100
AcDbEntity
8
1
62
256
6
ByLayer
370
18
48
1
60
0
100
AcDbLine
10
368.325
20
-23.205356
30
0
11
368.325
21
-23.313105
31
0
39
0
210
0
220
0
230
1
0
LINE
5
D9
100
AcDbEntity
8
1
62
256
6
ByLayer
370
18
48
1
60
0
100
AcDbLine
10
368.325
20
-23.587552
30
0
11
368.325
21
-23.663003
31
0
39
0
210
0
220
0
230
1
0
LINE
5
DA
100
AcDbEntity
8
1
62
256
6
ByLayer
370
18
48
1
60
0
100
AcDbLine
10
368.325
20
-23.843015
30
0
11
368.325
21
-23.887709
31
0
39
0
210
0
220
0
230
1
0
LINE
5
DB
100
AcDbEntity
8
1
62
256
6
ByLayer
370
18
48
1
60
0
100
AcDbLine
10
368.325
20
-23.976863
30
0
11
368.325
21
-23.991668
31
0
39
0
210
0
220
0
230
1
0
LINE
5
DC
100
AcDbEntity
8
1
62
256
6
ByLayer
370
18
48
1
60
0
100
AcDbLine
10
368.325
20
13.991668
30
0
11
368.325
21
13.976863
31
0
39
0
210
0
220
0
230
1
0
LINE
5
DD
100
AcDbEntity
8
1
62
256
6
ByLayer
370
18
48
1
60
0
100
AcDbLine
10
368.325
20
13.887709
30
0
11
368.325
21
13.843015
31
0
39
0
210
0
220
0
230
1
0
LINE
5
DE
100
AcDbEntity
8
1
62
256
6
ByLayer
370
18
48
1
60
0
100
AcDbLine
10
368.325
20
13.663003
30
0
11
368.325
21
13.587552
31
0
39
0
210
0
220
0
230
1
0
LINE
5
DF
100
AcDbEntity
8
1
62
256
6
ByLayer
370
18
48
1
60
0
100
AcDbLine
10
368.325
20
13.313105
30
0
11
368.325
21
13.205356
31
0
39
0
210
0
220
0
230
1
0
LINE
5
E0
100
AcDbEntity
8
1
62
256
6
ByLayer
370
18
48
1
60
0
100
AcDbLine
10
368.325
20
12.830645
30
0
11
368.325
21
12.688213
31
0
39
0
210
0
220
0
230
1
0
LINE
5
E1
100
AcDbEntity
8
1
62
256
6
ByLayer
370
18
48
1
60
0
100
AcDbLine
10
368.325
20
12.204477
30
0
11
368.325
21
12.023829
31
0
39
0
210
0
220
0
230
1
0
LINE
5
E2
100
AcDbEntity
8
1
62
256
6
ByLayer
370
18
48
1
60
0
100
AcDbLine
10
368.325
20
11.418165
30
0
11
368.325
21
11.194093
31
0
39
0
210
0
220
0
230
1
0
LINE
5
E3
100
AcDbEntity
8
1
62
256
6
ByLayer
370
18
48
1
60
0
100
AcDbLine
10
368.325
20
10.447274
30
0
11
368.325
21
10.171899
31
0
39
0
210
0
220
0
230
1
0
LINE
5
E4
100
AcDbEntity
8
1
62
256
6
ByLayer
370
18
48
1
60
0
100
AcDbLine
10
368.325
20
9.254136
30
0
11
368.325
21
8.914899
31
0
39
0
210
0
220
0
230
1
0
LINE
5
E5
100
AcDbEntity
8
1
62
256
6
ByLayer
370
18
48
1
60
0
100
AcDbLine
10
368.325
20
7.776639
30
0
11
368.325
21
7.351611
31
0
39
0
210
0
220
0
230
1
0
LINE
5
E6
100
AcDbEntity
8
1
62
256
6
ByLayer
370
18
48
1
60
0
100
AcDbLine
10
368.325
20
5.899753
30
0
11
368.325
21
5.344089
31
0
39
0
210
0
220
0
230
1
0
LINE
5
E7
100
AcDbEntity
8
1
62
256
6
ByLayer
370
18
48
1
60
0
100
AcDbLine
10
368.325
20
3.358632
30
0
11
368.325
21
2.545731
31
0
39
0
210
0
220
0
230
1
0
LINE
5
E8
100
AcDbEntity
8
1
62
256
6
ByLayer
370
18
48
1
60
0
100
AcDbLine
10
368.325
20
-0.946748
30
0
11
368.325
21
-3.458593
31
0
39
0
210
0
220
0
230
1
0
LINE
5
E9
100
AcDbEntity
8
SK1
62
256
6
ByLayer
370
18
48
1
60
0
100
AcDbLine
10
378
20
-9.899495
30
0
11
378
21
-19.899495
31
0
39
0
210
0
220
0
230
1
0
LINE
5
EA
100
AcDbEntity
8
SK1
62
256
6
ByLayer
370
18
48
1
60
0
100
AcDbLine
10
372
20
-9.899495
30
0
11
372
21
-19.899495
31
0
39
0
210
0
220
0
230
1
0
LINE
5
EB
100
AcDbEntity
8
SK1
62
256
6
ByLayer
370
18
48
1
60
0
100
AcDbLine
10
378
20
9.899495
30
0
11
378
21
4.899495
31
0
39
0
210
0
220
0
230
1
0
LINE
5
EC
100
AcDbEntity
8
SK1
62
256
6
ByLayer
370
18
48
1
60
0
100
AcDbLine
10
372
20
9.899495
30
0
11
372
21
4.899495
31
0
39
0
210
0
220
0
230
1
0
LINE
5
ED
100
AcDbEntity
8
SK1
62
256
6
ByLayer
370
18
48
1
60
0
100
AcDbLine
10
372
20
4.899495
30
0
11
372
21
-0.100505
31
0
39
0
210
0
220
0
230
1
0
LINE
5
EE
100
AcDbEntity
8
SK1
62
256
6
ByLayer
370
18
48
1
60
0
100
AcDbLine
10
378
20
4.899495
30
0
11
378
21
-0.100505
31
0
39
0
210
0
220
0
230
1
0
LINE
5
EF
100
AcDbEntity
8
1
62
256
6
ByLayer
370
18
48
1
60
0
100
AcDbLine
10
363.7
20
-25
30
0
11
363.7
21
0
31
0
39
0
210
0
220
0
230
1
0
LINE
5
F0
100
AcDbEntity
8
1
62
256
6
ByLayer
370
18
48
1
60
0
100
AcDbLine
10
363.7
20
0
30
0
11
363.7
21
25
31
0
39
0
210
0
220
0
230
1
0
LINE
5
F1
100
AcDbEntity
8
1
62
256
6
ByLayer
370
18
48
1
60
0
100
AcDbLine
10
0.3
20
-25
30
0
11
0.3
21
0
31
0
39
0
210
0
220
0
230
1
0
LINE
5
F2
100
AcDbEntity
8
1
62
256
6
ByLayer
370
18
48
1
60
0
100
AcDbLine
10
0.3
20
0
30
0
11
0.3
21
25
31
0
39
0
210
0
220
0
230
1
0
LINE
5
F3
100
AcDbEntity
8
1
62
256
6
ByLayer
370
18
48
1
60
0
100
AcDbLine
10
0
20
-24.7
30
0
11
0
21
0
31
0
39
0
210
0
220
0
230
1
0
LINE
5
F4
100
AcDbEntity
8
1
62
256
6
ByLayer
370
18
48
1
60
0
100
AcDbLine
10
0
20
0
30
0
11
0
21
24.7
31
0
39
0
210
0
220
0
230
1
0
LINE
5
F5
100
AcDbEntity
8
SK1
62
256
6
ByLayer
370
18
48
1
60
0
100
AcDbLine
10
-1.315435
20
-3.910269
30
0
11
-1.315435
21
3.910272
31
0
39
0
210
0
220
0
230
1
0
LINE
5
F6
100
AcDbEntity
8
SK1
62
256
6
ByLayer
370
18
48
1
60
0
100
AcDbLine
10
-2
20
17.519847
30
0
11
-2
21
-17.519847
31
0
39
0
210
0
220
0
230
1
0
LINE
5
F7
100
AcDbEntity
8
SK1
62
256
6
ByLayer
370
18
48
1
60
0
100
AcDbLine
10
-28.5
20
16.854548
30
0
11
-28.5
21
-16.854549
31
0
39
0
210
0
220
0
230
1
0
LINE
5
F8
100
AcDbEntity
8
SK1
62
256
6
ByLayer
370
18
48
1
60
0
100
AcDbLine
10
-1.79504
20
17.325072
30
0
11
-1.79504
21
-17.325072
31
0
39
0
210
0
220
0
230
1
0
LINE
5
F9
100
AcDbEntity
8
SK1
62
256
6
ByLayer
370
18
48
1
60
0
100
AcDbLine
10
-0.194977
20
17.365242
30
0
11
-0.194977
21
5.101253
31
0
39
0
210
0
220
0
230
1
0
LINE
5
FA
100
AcDbEntity
8
SK1
62
256
6
ByLayer
370
18
48
1
60
0
100
AcDbLine
10
-0.194977
20
-5.101251
30
0
11
-0.194977
21
-17.365243
31
0
39
0
210
0
220
0
230
1
0
LINE
5
FB
100
AcDbEntity
8
SK1
62
256
6
ByLayer
370
18
48
1
60
0
100
AcDbLine
10
-30
20
15.993274
30
0
11
-30
21
-15.993274
31
0
39
0
210
0
220
0
230
1
0
MTEXT
5
18F
100
AcDbEntity
8
SK6
62
256
6
ByLayer
370
13
48
1
60
0
100
AcDbMText
10
-19.479194
20
67.453302
30
0
210
0
220
0
230
1
1
\W0.7261;C5-570-3C 50 368-40L
40
3.175
41
0
44
1.084337
50
0
71
7
72
5
7
iso_b_vert
0
DIMENSION
5
19D
100
AcDbEntity
8
2
62
256
6
ByLayer
370
13
48
1
60
0
100
AcDbDimension
2
DimnDraft3D1
10
368
20
58.666811
30
0
11
180.916908
21
58.666811
31
0
70
32
71
5
72
1
41
1
210
0
220
0
230
1
3
Standard
100
AcDbAlignedDimension
13
0
23
1.5875
33
0
14
368
24
-3.4125
34
0
50
0
100
AcDbRotatedDimension
1001
ACAD
1000
DSTYLE
1002
{
1070
   279
1070
     0
1070
   173
1070
     1
1070
   340
1005
190
1070
   271
1070
     1
1070
   272
1070
     2
1070
    77
1070
     1
1070
    73
1070
     0
1070
   171
1070
     3
1070
   274
1070
     4
1070
   177
1070
     7
1070
   176
1070
     7
1070
   178
1070
     7
1070
    78
1070
     8
1070
    48
1040
-0.005
1070
    41
1041
3.175
1070
   147
1041
1.5875
1070
    42
1041
1.5875
1070
    44
1041
3.175
1070
   140
1041
3.175
1070
   343
1005
0
1070
   344
1005
0
1002
}
0
DIMENSION
5
1A9
100
AcDbEntity
8
SK2
62
256
6
ByLayer
370
13
48
1
60
0
100
AcDbDimension
2
DimnDraft3D2
10
-56.448722
20
-25
30
0
11
-56.448722
21
-6.659145
31
0
70
32
71
5
72
1
41
1
210
0
220
0
230
1
3
Standard
100
AcDbAlignedDimension
13
-1.2875
23
25
33
0
14
-1.2875
24
-25
34
0
50
90
100
AcDbRotatedDimension
1001
ACAD
1000
DSTYLE
1002
{
1070
    74
1070
     0
1070
   279
1070
     0
1070
   173
1070
     1
1070
   340
1005
190
1070
   271
1070
     1
1070
   272
1070
     2
1070
    77
1070
     1
1070
    73
1070
     0
1070
   171
1070
     3
1070
   274
1070
     4
1070
   177
1070
     7
1070
   176
1070
     7
1070
   178
1070
     7
1070
    78
1070
     8
1070
    48
1040
-0.005
1070
    41
1041
3.175
1070
   147
1041
1.5875
1070
    42
1041
1.5875
1070
    44
1041
3.175
1070
   140
1041
3.175
1070
   343
1005
0
1070
   344
1005
0
1002
}
0
DIMENSION
5
1B4
100
AcDbEntity
8
SK2
62
256
6
ByLayer
370
13
48
1
60
0
100
AcDbDimension
2
DimnDraft3D3
10
426.538494
20
-25
30
0
11
426.538494
21
33.07404
31
0
70
32
71
5
72
1
41
1
210
0
220
0
230
1
3
Standard
100
AcDbAlignedDimension
13
365.2875
23
25
33
0
14
365.2875
24
-25
34
0
50
90
100
AcDbRotatedDimension
1001
ACAD
1000
DSTYLE
1002
{
1070
    74
1070
     0
1070
   279
1070
     0
1070
   173
1070
     1
1070
   340
1005
190
1070
   271
1070
     1
1070
   272
1070
     2
1070
    77
1070
     1
1070
    73
1070
     0
1070
   171
1070
     3
1070
   274
1070
     4
1070
   177
1070
     7
1070
   176
1070
     7
1070
   178
1070
     7
1070
    78
1070
     8
1070
    48
1040
-0.005
1070
    41
1041
3.175
1070
   147
1041
1.5875
1070
    42
1041
1.5875
1070
    44
1041
3.175
1070
   140
1041
3.175
1070
   343
1005
0
1070
   344
1005
0
1002
}
0
DIMENSION
5
1BF
100
AcDbEntity
8
SK2
62
256
6
ByLayer
370
13
48
1
60
0
100
AcDbDimension
2
DimnDraft3D4
10
409.364239
20
-25
30
0
11
409.364239
21
31.863035
31
0
70
32
71
5
72
1
41
1
210
0
220
0
230
1
3
Standard
100
AcDbAlignedDimension
13
368.9125
23
15
33
0
14
368.9125
24
-25
34
0
50
90
100
AcDbRotatedDimension
1001
ACAD
1000
DSTYLE
1002
{
1070
    74
1070
     0
1070
   279
1070
     0
1070
   173
1070
     1
1070
   340
1005
190
1070
   271
1070
     1
1070
   272
1070
     2
1070
    77
1070
     1
1070
    73
1070
     0
1070
   171
1070
     3
1070
   274
1070
     4
1070
   177
1070
     7
1070
   176
1070
     7
1070
   178
1070
     7
1070
    78
1070
     8
1070
    48
1040
-0.005
1070
    41
1041
3.175
1070
   147
1041
1.5875
1070
    42
1041
1.5875
1070
    44
1041
3.175
1070
   140
1041
3.175
1070
   343
1005
0
1070
   344
1005
0
1002
}
0
ENDSEC
0
SECTION
2
OBJECTS
0
DICTIONARY
5
235
330
0
100
AcDbDictionary
280
0
281
1
3
ACAD_GROUP
350
236
3
ACAD_MLINESTYLE
350
237
0
DICTIONARY
5
236
330
0
100
AcDbDictionary
280
0
281
1
0
DICTIONARY
5
237
330
0
100
AcDbDictionary
280
0
281
1
3
Standard
350
18
0
MLINESTYLE
5
18
330
237
100
AcDbMlineStyle
2
Standard
70
0
3

62
256
51
90
52
90
71
2
49
-0.5
62
256
6
ByLayer
49
0.5
62
256
6
ByLayer
0
RASTERVARIABLES
5
223
330

100
AcDbRasterVariables
90
0
70
1
71
1
72
1
0
ENDSEC
0
EOF
