0
SECTION
2
HEADER
9
$ACADVER
1
AC1015
9
$DWGCODEPAGE
3
ANSI_1252
9
$HANDSEED
5
245
9
$ANGBASE
50
0
9
$ANGDIR
70
0
9
$ATTMODE
70
1
9
$AUNITS
70
0
9
$AUPREC
70
0
9
$CECOLOR
62
256
9
$CELTSCALE
40
1
9
$CELTYPE
6
ByLayer
9
$CELWEIGHT
370
18
9
$CLAYER
8
0
9
$CMLJUST
70
0
9
$CMLSCALE
40
1
9
$CMLSTYLE
2
Standard
9
$DIMSTYLE
2
Standard
9
$TEXTSIZE
40
0.2
9
$TEXTSTYLE
7
Standard
9
$LUNITS
70
2
9
$LUPREC
70
4
9
$EXTNAMES
290
1
9
$INSUNITS
70
4
9
$LTSCALE
40
1
9
$LWDISPLAY
290
1
9
$PDMODE
70
0
9
$PDSIZE
40
0
9
$PLINEGEN
70
0
0
ENDSEC
0
SECTION
2
CLASSES
0
CLASS
1
RASTERVARIABLES
2
AcDbRasterVariables
3
ISM
90
0
280
0
281
0
0
ENDSEC
0
SECTION
2
TABLES
0
TABLE
2
VPORT
5
23b
100
AcDbSymbolTable
0
VPORT
5
1
100
AcDbSymbolTableRecord
100
AcDbViewportTableRecord
2
*Active
70
0
10
0
20
0
11
1
21
1
12
-1
22
1
13
0
23
0
14
0.5
24
0.5
15
10
25
10
16
0
26
0
36
1
17
0
27
0
37
0
0
ENDTAB
0
TABLE
2
LTYPE
5
23c
100
AcDbSymbolTable
0
LTYPE
5
14
100
AcDbSymbolTableRecord
100
AcDbLinetypeTableRecord
70
0
2
ByBlock
3

72
65
73
0
40
0
0
LTYPE
5
15
100
AcDbSymbolTableRecord
100
AcDbLinetypeTableRecord
70
0
2
ByLayer
3

72
65
73
0
40
0
0
LTYPE
5
16
100
AcDbSymbolTableRecord
100
AcDbLinetypeTableRecord
70
0
2
CONTINUOUS
3
Solid line
72
65
73
0
40
0
0
LTYPE
5
6A
100
AcDbSymbolTableRecord
100
AcDbLinetypeTableRecord
70
0
2
CENTER
3
____ _ ____ _ ____ _ ____
72
65
73
4
40
47.5
49
22
74
0
49
-8.5
74
0
49
8.5
74
0
49
-8.5
74
0
0
LTYPE
5
6B
100
AcDbSymbolTableRecord
100
AcDbLinetypeTableRecord
70
0
2
DASHED
3
__ __ __ __ __ __ __ __ __
72
65
73
2
40
25.72
49
12.86
74
0
49
-12.86
74
0
0
ENDTAB
0
TABLE
2
LAYER
5
23d
100
AcDbSymbolTable
0
LAYER
5
10
100
AcDbSymbolTableRecord
100
AcDbLayerTableRecord
2
0
70
0
62
7
6
CONTINUOUS
290
1
370
-3
390
0
0
LAYER
5
6D
100
AcDbSymbolTableRecord
100
AcDbLayerTableRecord
2
80
70
0
62
-6
6
CONTINUOUS
290
1
370
-3
390
0
0
LAYER
5
6F
100
AcDbSymbolTableRecord
100
AcDbLayerTableRecord
2
81
70
0
62
-3
6
CONTINUOUS
290
1
370
-3
390
0
0
LAYER
5
72
100
AcDbSymbolTableRecord
100
AcDbLayerTableRecord
2
4
70
0
62
-2
6
CENTER
290
1
370
-3
390
0
0
LAYER
5
80
100
AcDbSymbolTableRecord
100
AcDbLayerTableRecord
2
1
70
0
62
4
6
CONTINUOUS
290
1
370
-3
390
0
0
LAYER
5
1A3
100
AcDbSymbolTableRecord
100
AcDbLayerTableRecord
2
2
70
0
62
7
6
CONTINUOUS
290
1
370
-3
390
0
0
LAYER
5
227
100
AcDbSymbolTableRecord
100
AcDbLayerTableRecord
2
SK4
70
0
62
2
6
CENTER
290
1
370
-3
390
0
0
LAYER
5
228
100
AcDbSymbolTableRecord
100
AcDbLayerTableRecord
2
SK1
70
0
62
4
6
CONTINUOUS
290
1
370
-3
390
0
0
LAYER
5
229
100
AcDbSymbolTableRecord
100
AcDbLayerTableRecord
2
SK6
70
0
62
5
6
CONTINUOUS
290
1
370
-3
390
0
0
LAYER
5
22a
100
AcDbSymbolTableRecord
100
AcDbLayerTableRecord
2
SK2
70
0
62
7
6
CONTINUOUS
290
1
370
-3
390
0
0
ENDTAB
0
TABLE
2
STYLE
5
23e
100
AcDbSymbolTable
0
STYLE
5
11
100
AcDbSymbolTableRecord
100
AcDbTextStyleTableRecord
2
Standard
3
txt
70
0
71
0
40
0
41
1
42
0
50
0
0
STYLE
5
19E
100
AcDbSymbolTableRecord
100
AcDbTextStyleTableRecord
2
iso_b_vert
3
simplex.shx
70
0
71
0
40
0
41
1
42
0
50
0
0
STYLE
5
19F
100
AcDbSymbolTableRecord
100
AcDbTextStyleTableRecord
2
DWGDirectTextStyle
3
simplex
70
0
71
0
40
0
41
1
42
0
50
0
0
ENDTAB
0
TABLE
2
DIMSTYLE
5
23f
100
AcDbSymbolTable
100
AcDbDimStyleTable
0
DIMSTYLE
105
27
100
AcDbSymbolTableRecord
100
AcDbDimStyleTableRecord
2
Standard
70
0
3
<>
41
0.18
42
0.0625
44
0.18
140
0.18
147
0.09
73
0
74
0
77
1
271
2
275
0
278
52
280
0
340
11
0
ENDTAB
0
TABLE
2
VIEW
5
240
100
AcDbSymbolTable
0
ENDTAB
0
TABLE
2
UCS
5
241
100
AcDbSymbolTable
0
ENDTAB
0
TABLE
2
APPID
5
242
100
AcDbSymbolTable
0
APPID
5
12
100
AcDbSymbolTableRecord
100
AcDbRegAppTableRecord
2
ACAD
70
0
0
ENDTAB
0
TABLE
2
BLOCK_RECORD
5
243
100
AcDbSymbolTable
0
BLOCK_RECORD
5
1F
100
AcDbSymbolTableRecord
100
AcDbBlockTableRecord
2
*Model_Space
340
0
70
0
0
BLOCK_RECORD
5
1B
100
AcDbSymbolTableRecord
100
AcDbBlockTableRecord
2
*Paper_Space
340
0
70
0
0
BLOCK_RECORD
5
23
100
AcDbSymbolTableRecord
100
AcDbBlockTableRecord
2
*Paper_Space0
340
0
70
0
0
BLOCK_RECORD
5
1A1
100
AcDbSymbolTableRecord
100
AcDbBlockTableRecord
2
DimnDraft3D1
340
0
70
0
0
BLOCK_RECORD
5
1AC
100
AcDbSymbolTableRecord
100
AcDbBlockTableRecord
2
DimnDraft3D2
340
0
70
0
0
BLOCK_RECORD
5
1B8
100
AcDbSymbolTableRecord
100
AcDbBlockTableRecord
2
DimnDraft3D3
340
0
70
0
0
BLOCK_RECORD
5
1C3
100
AcDbSymbolTableRecord
100
AcDbBlockTableRecord
2
DimnDraft3D44
340
0
70
0
0
ENDTAB
0
ENDSEC
0
SECTION
2
BLOCKS
0
BLOCK
5
20
100
AcDbEntity
8
0
100
AcDbBlockBegin
2
*Model_Space
70
0
10
0
20
0
30
0
3
*Model_Space
0
ENDBLK
5
21
100
AcDbEntity
8
0
100
AcDbBlockEnd
0
BLOCK
5
1C
100
AcDbEntity
8
0
100
AcDbBlockBegin
2
*Paper_Space
70
0
10
0
20
0
30
0
3
*Paper_Space
0
ENDBLK
5
1D
100
AcDbEntity
8
0
100
AcDbBlockEnd
0
BLOCK
5
24
100
AcDbEntity
8
0
100
AcDbBlockBegin
2
*Paper_Space0
70
0
10
0
20
0
30
0
3
*Paper_Space0
0
ENDBLK
5
25
100
AcDbEntity
8
0
100
AcDbBlockEnd
0
BLOCK
5
1A9
100
AcDbEntity
8
0
100
AcDbBlockBegin
2
DimnDraft3D1
70
0
10
0
20
0
30
0
3
DimnDraft3D1
0
MTEXT
5
1A2
100
AcDbEntity
8
2
62
256
6
ByLayer
370
13
48
1
60
0
100
AcDbMText
10
109.210658
20
39.0878
30
0
210
0
220
0
230
1
1
\W0.7138;223
40
3.175
41
0
44
1.084337
50
0
71
7
72
5
7
iso_b_vert
0
LINE
5
1A4
100
AcDbEntity
8
2
62
256
6
ByLayer
370
13
48
1
60
0
100
AcDbLine
10
0
20
1.5875
30
0
11
0
21
41.46905
31
0
39
0
210
0
220
0
230
1
0
LINE
5
1A5
100
AcDbEntity
8
2
62
256
6
ByLayer
370
13
48
1
60
0
100
AcDbLine
10
223
20
-3.4125
30
0
11
223
21
41.46905
31
0
39
0
210
0
220
0
230
1
0
LINE
5
1A6
100
AcDbEntity
8
2
62
256
6
ByLayer
370
13
48
1
60
0
100
AcDbLine
10
0
20
38.29405
30
0
11
223
21
38.29405
31
0
39
0
210
0
220
0
230
1
0
SOLID
5
1A7
100
AcDbEntity
8
2
62
256
6
ByLayer
370
13
48
1
60
0
100
AcDbTrace
10
0
20
38.29405
30
0
11
3.174998
21
38.712047
31
0
12
3.175002
22
37.876054
32
0
13
0
23
38.29405
33
0
39
0
210
0
220
0
230
1
0
SOLID
5
1A8
100
AcDbEntity
8
2
62
256
6
ByLayer
370
13
48
1
60
0
100
AcDbTrace
10
223
20
38.29405
30
0
11
219.825002
21
37.876054
31
0
12
219.824998
22
38.712047
32
0
13
223
23
38.29405
33
0
39
0
210
0
220
0
230
1
0
ENDBLK
5
1AA
100
AcDbEntity
8
0
100
AcDbBlockEnd
0
BLOCK
5
1B5
100
AcDbEntity
8
0
100
AcDbBlockBegin
2
DimnDraft3D2
70
0
10
0
20
0
30
0
3
DimnDraft3D2
0
MTEXT
5
1AD
100
AcDbEntity
8
SK2
62
256
6
ByLayer
370
13
48
1
60
0
100
AcDbMText
10
-51.171838
20
-4.25309
30
0
210
0
220
0
230
1
1
%%c
40
3.175
41
0
44
1.084337
50
90
71
7
72
5
7
iso_b_vert
0
MTEXT
5
1AF
100
AcDbEntity
8
SK2
62
256
6
ByLayer
370
13
48
1
60
0
100
AcDbMText
10
-51.171838
20
3.659605
30
0
210
0
220
0
230
1
1
\W0.6740;50
40
3.175
41
0
44
1.084337
50
90
71
7
72
5
7
iso_b_vert
0
LINE
5
1B0
100
AcDbEntity
8
SK2
62
256
6
ByLayer
370
13
48
1
60
0
100
AcDbLine
10
-1.2875
20
25
30
0
11
-52.759338
21
25
31
0
39
0
210
0
220
0
230
1
0
LINE
5
1B1
100
AcDbEntity
8
SK2
62
256
6
ByLayer
370
13
48
1
60
0
100
AcDbLine
10
-1.2875
20
-25
30
0
11
-52.759338
21
-25
31
0
39
0
210
0
220
0
230
1
0
LINE
5
1B2
100
AcDbEntity
8
SK2
62
256
6
ByLayer
370
13
48
1
60
0
100
AcDbLine
10
-49.584338
20
25
30
0
11
-49.584338
21
-25
31
0
39
0
210
0
220
0
230
1
0
SOLID
5
1B3
100
AcDbEntity
8
SK2
62
256
6
ByLayer
370
13
48
1
60
0
100
AcDbTrace
10
-49.584338
20
25
30
0
11
-49.166341
21
21.825002
31
0
12
-50.002335
22
21.824998
32
0
13
-49.584338
23
25
33
0
39
0
210
0
220
0
230
1
0
SOLID
5
1B4
100
AcDbEntity
8
SK2
62
256
6
ByLayer
370
13
48
1
60
0
100
AcDbTrace
10
-49.584338
20
-25
30
0
11
-50.002335
21
-21.825002
31
0
12
-49.166341
22
-21.824998
32
0
13
-49.584338
23
-25
33
0
39
0
210
0
220
0
230
1
0
ENDBLK
5
1B6
100
AcDbEntity
8
0
100
AcDbBlockEnd
0
BLOCK
5
1C0
100
AcDbEntity
8
0
100
AcDbBlockBegin
2
DimnDraft3D3
70
0
10
0
20
0
30
0
3
DimnDraft3D3
0
MTEXT
5
1B9
100
AcDbEntity
8
SK2
62
256
6
ByLayer
370
13
48
1
60
0
100
AcDbMText
10
259.848086
20
27.514822
30
0
210
0
220
0
230
1
1
%%c
40
3.175
41
0
44
1.084337
50
90
71
7
72
5
7
iso_b_vert
0
MTEXT
5
1BA
100
AcDbEntity
8
SK2
62
256
6
ByLayer
370
13
48
1
60
0
100
AcDbMText
10
259.848086
20
35.427517
30
0
210
0
220
0
230
1
1
\W0.7361;40
40
3.175
41
0
44
1.084337
50
90
71
7
72
5
7
iso_b_vert
0
LINE
5
1BB
100
AcDbEntity
8
SK2
62
256
6
ByLayer
370
13
48
1
60
0
100
AcDbLine
10
223.9125
20
15
30
0
11
264.610586
21
15
31
0
39
0
210
0
220
0
230
1
0
LINE
5
1BC
100
AcDbEntity
8
SK2
62
256
6
ByLayer
370
13
48
1
60
0
100
AcDbLine
10
223.9125
20
-25
30
0
11
264.610586
21
-25
31
0
39
0
210
0
220
0
230
1
0
LINE
5
1BD
100
AcDbEntity
8
SK2
62
256
6
ByLayer
370
13
48
1
60
0
100
AcDbLine
10
261.435586
20
-25
30
0
11
261.435586
21
38.761267
31
0
39
0
210
0
220
0
230
1
0
SOLID
5
1BE
100
AcDbEntity
8
SK2
62
256
6
ByLayer
370
13
48
1
60
0
100
AcDbTrace
10
261.435586
20
15
30
0
11
261.853583
21
11.825002
31
0
12
261.017589
22
11.824998
32
0
13
261.435586
23
15
33
0
39
0
210
0
220
0
230
1
0
SOLID
5
1BF
100
AcDbEntity
8
SK2
62
256
6
ByLayer
370
13
48
1
60
0
100
AcDbTrace
10
261.435586
20
-25
30
0
11
261.017589
21
-21.825002
31
0
12
261.853583
22
-21.824998
32
0
13
261.435586
23
-25
33
0
39
0
210
0
220
0
230
1
0
ENDBLK
5
1C1
100
AcDbEntity
8
0
100
AcDbBlockEnd
0
BLOCK
5
1C4
100
AcDbEntity
8
0
100
AcDbBlockBegin
2
DimnDraft3D44
70
0
10
0
20
0
30
0
3
DimnDraft3D44
0
LINE
5
1C6
100
AcDbEntity
8
SK2
62
256
6
ByLayer
370
25
48
1
60
0
100
AcDbLine
10
224.9125
20
-5
30
0
11
249.589701
21
-5
31
0
39
0
210
0
220
0
230
1
0
LINE
5
1C7
100
AcDbEntity
8
SK2
62
256
6
ByLayer
370
25
48
1
60
0
100
AcDbLine
10
231.5875
20
0
30
0
11
249.589701
21
0
31
0
39
0
210
0
220
0
230
1
0
LINE
5
1C8
100
AcDbEntity
8
SK2
62
256
6
ByLayer
370
25
48
1
60
0
100
AcDbLine
10
246.414701
20
-5
30
0
11
246.414701
21
-12.9375
31
0
39
0
210
0
220
0
230
1
0
LINE
5
1C9
100
AcDbEntity
8
SK2
62
256
6
ByLayer
370
25
48
1
60
0
100
AcDbLine
10
246.414701
20
0
30
0
11
246.414701
21
6.993774
31
0
39
0
210
0
220
0
230
1
0
SOLID
5
1CA
100
AcDbEntity
8
SK2
62
256
6
ByLayer
370
25
48
1
60
0
100
AcDbTrace
10
246.414701
20
-5
30
0
11
246.832697
21
-8.174998
31
0
12
245.996704
22
-8.175002
32
0
13
246.414701
23
-5
33
0
39
0
210
0
220
0
230
1
0
SOLID
5
1CB
100
AcDbEntity
8
SK2
62
256
6
ByLayer
370
25
48
1
60
0
100
AcDbTrace
10
246.414701
20
0
30
0
11
245.996704
21
3.174998
31
0
12
246.832697
22
3.175002
32
0
13
246.414701
23
0
33
0
39
0
210
0
220
0
230
1
0
MTEXT
5
1CC
100
AcDbEntity
8
SK2
62
256
6
ByLayer
370
13
48
1
60
0
100
AcDbMText
10
245.620951
20
6.367129
30
0
210
0
220
0
230
1
1
\W0.5404;5
40
3.175
41
0
44
1.084337
50
90
71
7
72
5
7
iso_b_vert
0
ENDBLK
5
1C5
100
AcDbEntity
8
0
100
AcDbBlockEnd
0
ENDSEC
0
SECTION
2
ENTITIES
0
ARC
5
102
100
AcDbEntity
8
1
62
256
6
ByLayer
370
18
48
1
60
0
100
AcDbCircle
39
0
10
218.6
20
-24.6
30
0
40
0.4
210
0
220
0
230
1
100
AcDbArc
50
270
51
0
0
ARC
5
103
100
AcDbEntity
8
1
62
256
6
ByLayer
370
18
48
1
60
0
100
AcDbCircle
39
0
10
218.6
20
24.6
30
0
40
0.4
210
0
220
0
230
1
100
AcDbArc
50
0
51
90
0
ARC
5
104
100
AcDbEntity
8
SK1
62
256
6
ByLayer
370
18
48
1
60
0
100
AcDbCircle
39
0
10
0.6
20
18.75
30
0
40
1
210
0
220
0
230
-1
100
AcDbArc
50
233.130102
51
246.421822
0
ARC
5
105
100
AcDbEntity
8
SK1
62
256
6
ByLayer
370
18
48
1
60
0
100
AcDbCircle
39
0
10
0.6
20
-18.75
30
0
40
1
210
0
220
0
230
-1
100
AcDbArc
50
113.578178
51
126.869898
0
ARC
5
106
100
AcDbEntity
8
1
62
256
6
ByLayer
370
18
48
1
60
0
100
AcDbCircle
39
0
10
219.4
20
24.6
30
0
40
0.4
210
0
220
0
230
1
100
AcDbArc
50
90
51
180
0
ARC
5
107
100
AcDbEntity
8
1
62
256
6
ByLayer
370
18
48
1
60
0
100
AcDbCircle
39
0
10
219.4
20
-24.6
30
0
40
0.4
210
0
220
0
230
1
100
AcDbArc
50
180
51
270
0
ARC
5
108
100
AcDbEntity
8
1
62
256
6
ByLayer
370
18
48
1
60
0
100
AcDbCircle
39
0
10
-221.3
20
15.3
30
0
40
0.3
210
0
220
0
230
-1
100
AcDbArc
50
270
51
0
0
CIRCLE
5
101
100
AcDbEntity
8
1
62
256
6
ByLayer
370
18
48
1
60
0
100
AcDbCircle
10
212
20
0
30
0
40
1.5
39
0
210
0
220
0
230
1
0
ELLIPSE
5
109
100
AcDbEntity
8
1
62
256
6
ByLayer
370
18
48
1
60
0
100
AcDbEllipse
10
221.3
20
-23.791
30
0
11
0.300000000001621
21
0
31
0
210
0
220
0
230
1
40
0.925665
41
1.5707963267949
42
2.46410968329459
0
ELLIPSE
5
10A
100
AcDbEntity
8
1
62
256
6
ByLayer
370
18
48
1
60
0
100
AcDbEllipse
10
-1.056258
20
0
30
0
11
11.7092723497253
21
24.677186440935
31
0
210
0
220
0
230
1
40
0.341999
41
-1.08183270048935
42
-0.16721307190899
0
ELLIPSE
5
10B
100
AcDbEntity
8
1
62
256
6
ByLayer
370
18
48
1
60
0
100
AcDbEllipse
10
21.056258
20
0
30
0
11
-11.7092723497294
21
24.6771864409402
31
0
210
0
220
0
230
1
40
0.341999
41
0.167213071908968
42
1.08183270048919
0
ELLIPSE
5
10C
100
AcDbEntity
8
1
62
256
6
ByLayer
370
18
48
1
60
0
100
AcDbEllipse
10
-1.056258
20
0
30
0
11
-11.7092723497256
21
24.6771864409354
31
0
210
0
220
0
230
1
40
0.341999
41
-2.97437958168081
42
-2.05975995310045
0
ELLIPSE
5
10D
100
AcDbEntity
8
1
62
256
6
ByLayer
370
18
48
1
60
0
100
AcDbEllipse
10
21.056258
20
0
30
0
11
11.7092723497299
21
24.6771864409408
31
0
210
0
220
0
230
1
40
0.341999
41
2.05975995310062
42
2.97437958168083
0
POINT
5
6C
100
AcDbEntity
8
80
62
256
6
ByLayer
370
18
48
1
60
0
100
AcDbPoint
10
0
20
0
30
0
39
0
210
0
220
0
230
1
50
360
0
POINT
5
6E
100
AcDbEntity
8
81
62
256
6
ByLayer
370
18
48
1
60
0
100
AcDbPoint
10
223
20
-5
30
0
39
0
210
0
220
0
230
1
50
360
0
SPLINE
5
10E
100
AcDbEntity
8
1
62
256
6
ByLayer
370
18
48
1
60
0
100
AcDbSpline
70
4
71
3
72
13
73
9
40
0
40
0
40
0
40
0
40
0.0811068003230501
40
0.54205969579374
40
0.698217929308328
40
0.855466894270602
40
0.966212236972897
40
1
40
1
40
1
40
1
41
1
10
11.8943375672974
20
23.6665017920809
30
0
41
1
10
11.8894428381777
20
23.6728293617709
30
0
41
1
10
11.8534346287606
20
23.7145200781299
30
0
41
1
10
11.7877522749415
20
23.7663890526222
30
0
41
1
10
11.6656255980129
20
23.8124861135428
30
0
41
1
10
11.5793223070755
20
23.8319383085952
30
0
41
1
10
11.5056611588718
20
23.8385548003315
30
0
41
1
10
11.4698010058117
20
23.8391220894067
30
0
41
1
10
11.4613248654052
20
23.8391299750504
30
0
0
SPLINE
5
10F
100
AcDbEntity
8
1
62
256
6
ByLayer
370
18
48
1
60
0
100
AcDbSpline
70
4
71
3
72
12
73
8
40
0
40
0
40
0
40
0
40
0.0777065243411475
40
0.182768991260447
40
0.355509705274232
40
0.661119206188002
40
1
40
1
40
1
40
1
41
1
10
8.53867513459481
20
23.8391299750504
30
0
41
1
10
8.51889061425139
20
23.8390510092636
30
0
41
1
10
8.47384249247805
20
23.837417080354
30
0
41
1
10
8.390979334746
20
23.8265956452496
30
0
41
1
10
8.28079022698233
20
23.7967264721263
30
0
41
1
10
8.17813160018114
20
23.7411879478121
30
0
41
1
10
8.12412228713196
20
23.6935586164053
30
0
41
1
10
8.10566243270259
20
23.6665017920809
30
0
0
SPLINE
5
110
100
AcDbEntity
8
1
62
256
6
ByLayer
370
18
48
1
60
0
100
AcDbSpline
70
4
71
3
72
13
73
9
40
0
40
0
40
0
40
0
40
0.0811068003230366
40
0.542059695793718
40
0.698217929308301
40
0.855466894270596
40
0.966212236972867
40
1
40
1
40
1
40
1
41
1
10
8.10566243270259
20
8.05584836782774
30
0
41
1
10
8.11055716182229
20
8.037251714098
30
0
41
1
10
8.14656537123944
20
7.91434257650656
30
0
41
1
10
8.21224772505842
20
7.75704006565195
30
0
41
1
10
8.33437440198708
20
7.61365769814303
30
0
41
1
10
8.42067769292451
20
7.55243803205592
30
0
41
1
10
8.49433884112822
20
7.53148602816117
30
0
41
1
10
8.53019899418831
20
7.52969262189673
30
0
41
1
10
8.53867513459481
20
7.52966679426498
30
0
0
SPLINE
5
111
100
AcDbEntity
8
1
62
256
6
ByLayer
370
18
48
1
60
0
100
AcDbSpline
70
4
71
3
72
12
73
8
40
0
40
0
40
0
40
0
40
0.0777065243411817
40
0.182768991260496
40
0.355509705274344
40
0.661119206188212
40
1
40
1
40
1
40
1
41
1
10
11.4613248654052
20
7.52966679426499
30
0
41
1
10
11.4811093857486
20
7.52992453895395
30
0
41
1
10
11.526157507522
20
7.53508753718822
30
0
41
1
10
11.609020665254
20
7.56930040674385
30
0
41
1
10
11.7192097730177
20
7.66302821977538
30
0
41
1
10
11.8218683998189
20
7.83415197314229
30
0
41
1
10
11.875877712868
20
7.97612018956257
30
0
41
1
10
11.8943375672974
20
8.05584836782772
30
0
0
SPLINE
5
112
100
AcDbEntity
8
1
62
256
6
ByLayer
370
18
48
1
60
0
100
AcDbSpline
70
4
71
3
72
13
73
9
40
0
40
0
40
0
40
0
40
0.081106800323012
40
0.542059695793596
40
0.698217929308227
40
0.855466894270571
40
0.966212236972817
40
1
40
1
40
1
40
1
41
1
10
11.8943375672974
20
-8.05584836782772
30
0
41
1
10
11.8894428381777
20
-8.03725171409799
30
0
41
1
10
11.8534346287606
20
-7.91434257650657
30
0
41
1
10
11.7877522749416
20
-7.75704006565199
30
0
41
1
10
11.665625598013
20
-7.61365769814305
30
0
41
1
10
11.5793223070755
20
-7.55243803205596
30
0
41
1
10
11.5056611588718
20
-7.53148602816111
30
0
41
1
10
11.4698010058117
20
-7.52969262189673
30
0
41
1
10
11.4613248654052
20
-7.52966679426498
30
0
0
SPLINE
5
113
100
AcDbEntity
8
1
62
256
6
ByLayer
370
18
48
1
60
0
100
AcDbSpline
70
4
71
3
72
12
73
8
40
0
40
0
40
0
40
0
40
0.0777065243411248
40
0.182768991260443
40
0.355509705274211
40
0.661119206187974
40
1
40
1
40
1
40
1
41
1
10
8.53867513459481
20
-7.529666794265
30
0
41
1
10
8.5188906142514
20
-7.52992453895396
30
0
41
1
10
8.47384249247806
20
-7.53508753718821
30
0
41
1
10
8.39097933474603
20
-7.56930040674382
30
0
41
1
10
8.28079022698235
20
-7.66302821977532
30
0
41
1
10
8.17813160018116
20
-7.8341519731422
30
0
41
1
10
8.12412228713197
20
-7.97612018956252
30
0
41
1
10
8.10566243270259
20
-8.05584836782773
30
0
0
SPLINE
5
114
100
AcDbEntity
8
1
62
256
6
ByLayer
370
18
48
1
60
0
100
AcDbSpline
70
4
71
3
72
13
73
9
40
0
40
0
40
0
40
0
40
0.081106800323024
40
0.542059695793695
40
0.69821792930829
40
0.855466894270574
40
0.966212236972855
40
1
40
1
40
1
40
1
41
1
10
8.10566243270259
20
-23.6665017920809
30
0
41
1
10
8.11055716182229
20
-23.6728293617709
30
0
41
1
10
8.14656537123945
20
-23.7145200781299
30
0
41
1
10
8.21224772505843
20
-23.7663890526222
30
0
41
1
10
8.33437440198707
20
-23.8124861135428
30
0
41
1
10
8.4206776929245
20
-23.8319383085952
30
0
41
1
10
8.49433884112822
20
-23.8385548003315
30
0
41
1
10
8.5301989941883
20
-23.8391220894067
30
0
41
1
10
8.53867513459481
20
-23.8391299750504
30
0
0
SPLINE
5
115
100
AcDbEntity
8
1
62
256
6
ByLayer
370
18
48
1
60
0
100
AcDbSpline
70
4
71
3
72
12
73
8
40
0
40
0
40
0
40
0
40
0.0777065243411798
40
0.182768991260499
40
0.355509705274316
40
0.66111920618818
40
1
40
1
40
1
40
1
41
1
10
11.4613248654052
20
-23.8391299750504
30
0
41
1
10
11.4811093857486
20
-23.8390510092636
30
0
41
1
10
11.526157507522
20
-23.837417080354
30
0
41
1
10
11.609020665254
20
-23.8265956452496
30
0
41
1
10
11.7192097730177
20
-23.7967264721261
30
0
41
1
10
11.8218683998189
20
-23.7411879478122
30
0
41
1
10
11.875877712868
20
-23.6935586164053
30
0
41
1
10
11.8943375672974
20
-23.6665017920809
30
0
0
SPLINE
5
116
100
AcDbEntity
8
SK1
62
256
6
ByLayer
370
18
48
1
60
0
100
AcDbSpline
70
4
71
3
72
17
73
13
40
0
40
0
40
0
40
0
40
0.465485506351383
40
0.669701843128612
40
0.774084356421135
40
0.856371664793533
40
0.897755153898635
40
0.917428272144475
40
0.937237772131972
40
0.955191624681787
40
0.984018190502026
40
1
40
1
40
1
40
1
41
1
10
-0.200000000000038
20
-5.88142397393346
30
0
41
1
10
-0.1960647808782
20
-5.75474600051132
30
0
41
1
10
-0.206716278472284
20
-5.57221313865745
30
0
41
1
10
-0.236369718937367
20
-5.35851195688537
30
0
41
1
10
-0.265123837646852
20
-5.2522119738577
30
0
41
1
10
-0.291115782477693
20
-5.19220348818486
30
0
41
1
10
-0.318091310485836
20
-5.15994791139139
30
0
41
1
10
-0.338430402128573
20
-5.14828626530394
30
0
41
1
10
-0.354699344248621
20
-5.14548380678132
30
0
41
1
10
-0.372899440263032
20
-5.14897430103643
30
0
41
1
10
-0.387749096358135
20
-5.15784519057131
30
0
41
1
10
-0.39691878097133
20
-5.16560053879508
30
0
41
1
10
-0.400000000000051
20
-5.16866679574503
30
0
0
SPLINE
5
117
100
AcDbEntity
8
SK1
62
256
6
ByLayer
370
18
48
1
60
0
100
AcDbSpline
70
4
71
3
72
16
73
12
40
0
40
0
40
0
40
0
40
0.0439503849784364
40
0.0882962095956771
40
0.119823748748281
40
0.151333080321581
40
0.197785752387551
40
0.285208338526594
40
0.432294100651084
40
0.58008530169941
40
1
40
1
40
1
40
1
41
1
10
-0.40000000000004
20
-5.16866679574529
30
0
41
1
10
-0.420260552159719
20
-5.18959123991625
30
0
41
1
10
-0.465532793809269
20
-5.2245968957623
30
0
41
1
10
-0.540325064014482
20
-5.25975746385926
30
0
41
1
10
-0.61556627839364
20
-5.26603853608321
30
0
41
1
10
-0.689853412389385
20
-5.24890814810322
30
0
41
1
10
-0.785804329696922
20
-5.19137211714253
30
0
41
1
10
-0.905339112737123
20
-5.05378758708942
30
0
41
1
10
-1.02152968139801
20
-4.84183055168614
30
0
41
1
10
-1.17561394769092
20
-4.42035003265136
30
0
41
1
10
-1.26556409785408
20
-4.07230605007437
30
0
41
1
10
-1.30710678118655
20
-3.80474664113272
30
0
0
SPLINE
5
118
100
AcDbEntity
8
SK1
62
256
6
ByLayer
370
18
48
1
60
0
100
AcDbSpline
70
4
71
3
72
16
73
12
40
0
40
0
40
0
40
0
40
0.351058812479026
40
0.5494902428823
40
0.745650751445105
40
0.831752432968096
40
0.866430020907749
40
0.901364413669998
40
0.932606866569399
40
0.9831220084694
40
1
40
1
40
1
40
1
41
1
10
-1.30710678118655
20
3.80474436172741
30
0
41
1
10
-1.26978415806151
20
4.02733440489884
30
0
41
1
10
-1.18638534235563
20
4.36574772826711
30
0
41
1
10
-1.04345715092741
20
4.81143795815714
30
0
41
1
10
-0.896883993281788
20
5.07907048283341
30
0
41
1
10
-0.744504610413007
20
5.22449701225534
30
0
41
1
10
-0.644314188243217
20
5.26265754541682
30
0
41
1
10
-0.573027760448872
20
5.26521974999095
30
0
41
1
10
-0.49556838382239
20
5.24252370697401
30
0
41
1
10
-0.440485899594335
20
5.20534570545953
30
0
41
1
10
-0.407839795734877
20
5.17633421110904
30
0
41
1
10
-0.400000000000011
20
5.16866682996364
30
0
0
SPLINE
5
119
100
AcDbEntity
8
SK1
62
256
6
ByLayer
370
18
48
1
60
0
100
AcDbSpline
70
4
71
3
72
17
73
13
40
0
40
0
40
0
40
0
40
0.030351422025331
40
0.053615508725247
40
0.0719362364152785
40
0.0902747582477841
40
0.115197940679842
40
0.159565658929424
40
0.2981382029904
40
0.587610881223527
40
0.878287013648287
40
1
40
1
40
1
40
1
41
1
10
-0.40000000000004
20
5.16866682996297
30
0
41
1
10
-0.394167575628449
20
5.16254689062886
30
0
41
1
10
-0.38267128971226
20
5.15403748188184
30
0
41
1
10
-0.364264031241587
20
5.14642716889599
30
0
41
1
10
-0.347332913984079
20
5.14606544583305
30
0
41
1
10
-0.330541138979943
20
5.15183291494149
30
0
41
1
10
-0.310401603395069
20
5.16756125175962
30
0
41
1
10
-0.276165558567053
20
5.21722886754103
30
0
41
1
10
-0.236739282710337
20
5.34658114116619
30
0
41
1
10
-0.207575999148844
20
5.54435821740557
30
0
41
1
10
-0.201433990875352
20
5.73654934889382
30
0
41
1
10
-0.199982261339106
20
5.84846084555253
30
0
41
1
10
-0.200000000000038
20
5.88142452370542
30
0
0
SPLINE
5
11A
100
AcDbEntity
8
SK1
62
256
6
ByLayer
370
18
48
1
60
0
100
AcDbSpline
70
4
71
3
72
14
73
10
40
0
40
0
40
0
40
0
40
0.106385868855732
40
0.253705813711891
40
0.401007656750247
40
0.548297602518327
40
0.695579676619922
40
0.84285651901813
40
1
40
1
40
1
40
1
41
1
10
-2.19993687480718
20
-17.5201003687863
30
0
41
1
10
-2.19994421610192
20
-17.5193673450503
30
0
41
1
10
-2.19995986090332
20
-17.4927860913816
30
0
41
1
10
-2.19997656138666
20
-17.3524594073249
30
0
41
1
10
-2.1999882010107
20
-17.0884031980282
30
0
41
1
10
-2.19999491450112
20
-16.7229200646697
30
0
41
1
10
-2.19999839687952
20
-16.2635090711791
30
0
41
1
10
-2.19999979498391
20
-15.702993954098
30
0
41
1
10
-2.20000009281284
20
-15.2662928156273
30
0
41
1
10
-2.2
20
-15.024780864565
30
0
0
SPLINE
5
11B
100
AcDbEntity
8
SK1
62
256
6
ByLayer
370
18
48
1
60
0
100
AcDbSpline
70
4
71
2
72
6
73
3
40
0
40
0
40
0
40
1
40
1
40
1
41
1
10
-2.19492113517946
20
17.5202263833815
30
0
41
1
10
-2.59746056758973
20
17.5101131917171
30
0
41
1
10
-3
20
17.5000000000527
30
0
0
SPLINE
5
11C
100
AcDbEntity
8
SK1
62
256
6
ByLayer
370
18
48
1
60
0
100
AcDbSpline
70
4
71
2
72
6
73
3
40
0
40
0
40
0
40
1
40
1
40
1
41
1
10
-3
20
-17.5000000000204
30
0
41
1
10
-2.60962946156203
20
-17.5098074667118
30
0
41
1
10
-2.21925892312405
20
-17.5196149334032
30
0
0
SPLINE
5
11D
100
AcDbEntity
8
SK1
62
256
6
ByLayer
370
18
48
1
60
0
100
AcDbSpline
70
4
71
1
72
4
73
2
40
0
40
0
40
1
40
1
41
1
10
-2.21925892312405
20
-17.5196149334032
30
0
41
1
10
-2.19492113517946
20
-17.5202263833491
30
0
0
SPLINE
5
11E
100
AcDbEntity
8
SK1
62
256
6
ByLayer
370
18
48
1
60
0
100
AcDbSpline
70
4
71
3
72
15
73
11
40
0
40
0
40
0
40
0
40
0.0482444824239489
40
0.186325294515882
40
0.324838366494798
40
0.462925346447214
40
0.601017879197507
40
0.73911849271798
40
0.877230953544085
40
1
40
1
40
1
40
1
41
1
10
-2.2
20
15.0247809138972
30
0
41
1
10
-2.20000000464518
20
15.0987890669644
30
0
41
1
10
-2.19999996083217
20
15.3789129024177
30
0
41
1
10
-2.1999996140758
20
15.829707793837
30
0
41
1
10
-2.19999801160332
20
16.3302819971791
30
0
41
1
10
-2.19999447065123
20
16.752240062316
30
0
41
1
10
-2.1999879804146
20
17.0906743060054
30
0
41
1
10
-2.19997713306249
20
17.3398329959724
30
0
41
1
10
-2.19996107278978
20
17.4876542352199
30
0
41
1
10
-2.19994531729302
20
17.5191036010008
30
0
41
1
10
-2.19993687627273
20
17.5201003696443
30
0
0
SPLINE
5
11F
100
AcDbEntity
8
SK1
62
256
6
ByLayer
370
18
48
1
60
0
100
AcDbSpline
70
4
71
2
72
6
73
3
40
0
40
0
40
0
40
1
40
1
40
1
41
1
10
-3
20
17.5000000000527
30
0
41
1
10
-15.7502365839532
20
17.1796696772131
30
0
41
1
10
-28.5004731679065
20
16.8593393543735
30
0
0
SPLINE
5
120
100
AcDbEntity
8
SK1
62
256
6
ByLayer
370
18
48
1
60
0
100
AcDbSpline
70
4
71
2
72
6
73
3
40
0
40
0
40
0
40
1
40
1
40
1
41
1
10
-28.5004731679065
20
-16.8593393543424
30
0
41
1
10
-15.7502365839532
20
-17.1796696771814
30
0
41
1
10
-3
20
-17.5000000000204
30
0
0
SPLINE
5
121
100
AcDbEntity
8
SK1
62
256
6
ByLayer
370
18
48
1
60
0
100
AcDbSpline
70
4
71
3
72
13
73
9
40
0
40
0
40
0
40
0
40
0.239468143101076
40
0.368375717557467
40
0.500016413682604
40
0.631654380070979
40
0.760554427529312
40
1
40
1
40
1
40
1
41
1
10
-2
20
17.3251501409626
30
0
41
1
10
-2.02607195862894
20
17.3254032171872
30
0
41
1
10
-2.06363514911804
20
17.3325204701499
30
0
41
1
10
-2.11047805080219
20
17.3567460306058
30
0
41
1
10
-2.14242236455519
20
17.382721349279
30
0
41
1
10
-2.1684004741973
20
17.414662371353
30
0
41
1
10
-2.19262861856615
20
17.4615002450208
30
0
41
1
10
-2.19974657466873
20
17.4990601036781
30
0
41
1
10
-2.2
20
17.5251299249899
30
0
0
SPLINE
5
122
100
AcDbEntity
8
SK1
62
256
6
ByLayer
370
18
48
1
60
0
100
AcDbSpline
70
4
71
3
72
13
73
9
40
0
40
0
40
0
40
0
40
0.239445575724636
40
0.368345624848073
40
0.499983592440204
40
0.631624288955064
40
0.760531862675224
40
1
40
1
40
1
40
1
41
1
10
-2.2
20
-17.5251299251292
30
0
41
1
10
-2.19974657467479
20
-17.4990601038703
30
0
41
1
10
-2.19262861856452
20
-17.4615002452731
30
0
41
1
10
-2.16840047423857
20
-17.4146623717452
30
0
41
1
10
-2.14242236464553
20
-17.38272134974
30
0
41
1
10
-2.11047805094366
20
-17.3567460311214
30
0
41
1
10
-2.06363514965123
20
-17.3325204707743
30
0
41
1
10
-2.02607195888454
20
-17.3254032177991
30
0
41
1
10
-2
20
-17.3251501414068
30
0
0
SPLINE
5
123
100
AcDbEntity
8
SK1
62
256
6
ByLayer
370
18
48
1
60
0
100
AcDbSpline
70
4
71
3
72
16
73
12
40
0
40
0
40
0
40
0
40
0.101870722793165
40
0.203718363389488
40
0.308089951926134
40
0.41241525276698
40
0.52916162839408
40
0.64639156167225
40
0.763296187326094
40
0.881625644108369
40
1
40
1
40
1
40
1
41
1
10
-1.30710678118655
20
3.80474436172741
30
0
41
1
10
-1.35281755127321
20
3.56030061780931
30
0
41
1
10
-1.43825474283597
20
3.06526047616153
30
0
41
1
10
-1.55260961619649
20
2.29746051127423
30
0
41
1
10
-1.64288396017671
20
1.5051199607552
30
0
41
1
10
-1.70375008696193
20
0.658796178987245
30
0
41
1
10
-1.71477648367589
20
-0.231403505662118
30
0
41
1
10
-1.67300909917653
20
-1.15039276708553
30
0
41
1
10
-1.5850927092093
20
-2.05785190512705
30
0
41
1
10
-1.45861282398588
20
-2.94424663120603
30
0
41
1
10
-1.36053835676226
20
-3.52065829215743
30
0
41
1
10
-1.30710678118664
20
-3.80474664113296
30
0
0
SPLINE
5
124
100
AcDbEntity
8
SK1
62
256
6
ByLayer
370
18
48
1
60
0
100
AcDbSpline
70
4
71
2
72
6
73
3
40
0
40
0
40
0
40
1
40
1
40
1
41
1
10
-0.400000000000017
20
17.3251501409626
30
0
41
1
10
-1.20000000000001
20
17.3251501409626
30
0
41
1
10
-2
20
17.3251501409626
30
0
0
SPLINE
5
125
100
AcDbEntity
8
SK1
62
256
6
ByLayer
370
18
48
1
60
0
100
AcDbSpline
70
4
71
2
72
6
73
3
40
0
40
0
40
0
40
1
40
1
40
1
41
1
10
-2
20
-17.3251501414068
30
0
41
1
10
-1.20000000000001
20
-17.3251501414068
30
0
41
1
10
-0.400000000000017
20
-17.3251501414068
30
0
0
SPLINE
5
126
100
AcDbEntity
8
SK1
62
256
6
ByLayer
370
18
48
1
60
0
100
AcDbSpline
70
4
71
2
72
6
73
3
40
0
40
0
40
0
40
1
40
1
40
1
41
1
10
-28.5003904504266
20
16.8597456617469
30
0
41
1
10
-29.2501952787077
20
16.4010253845871
30
0
41
1
10
-30
20
15.9423013487186
30
0
0
SPLINE
5
127
100
AcDbEntity
8
SK1
62
256
6
ByLayer
370
18
48
1
60
0
100
AcDbSpline
70
4
71
2
72
6
73
3
40
0
40
0
40
0
40
1
40
1
40
1
41
1
10
-30
20
-15.9408160639395
30
0
41
1
10
-29.250201613525
20
-16.3993636736336
30
0
41
1
10
-28.5004032853135
20
-16.8579102610953
30
0
0
SPLINE
5
128
100
AcDbEntity
8
SK1
62
256
6
ByLayer
370
18
48
1
60
0
100
AcDbSpline
70
4
71
3
72
11
73
7
40
0
40
0
40
0
40
0
40
0.245755007744109
40
0.501794198211038
40
0.756953870258406
40
1
40
1
40
1
40
1
41
1
10
-0.200000000000015
20
17.5191731511753
30
0
41
1
10
-0.199994647676402
20
17.493844966999
30
0
41
1
10
-0.209350242264538
20
17.4456228534321
30
0
41
1
10
-0.254178184246646
20
17.3766360753192
30
0
41
1
10
-0.324420736760804
20
17.33275982811
30
0
41
1
10
-0.373991067023655
20
17.3239685556465
30
0
41
1
10
-0.400000000000017
20
17.3241476526065
30
0
0
SPLINE
5
129
100
AcDbEntity
8
SK1
62
256
6
ByLayer
370
18
48
1
60
0
100
AcDbSpline
70
4
71
3
72
11
73
7
40
0
40
0
40
0
40
0
40
0.243046950854861
40
0.498204668192408
40
0.754242469704643
40
1
40
1
40
1
40
1
41
1
10
-0.400000000000017
20
-17.3241468641747
30
0
41
1
10
-0.373991174653844
20
-17.3239674893689
30
0
41
1
10
-0.324421202647711
20
-17.332758304075
30
0
41
1
10
-0.254178044541194
20
-17.376633929413
30
0
41
1
10
-0.20935004437607
20
-17.4456203921355
30
0
41
1
10
-0.199994500672228
20
-17.4938412312525
30
0
41
1
10
-0.200000000000015
20
-17.5191688355708
30
0
0
SPLINE
5
12A
100
AcDbEntity
8
1
62
256
6
ByLayer
370
18
48
1
60
0
100
AcDbSpline
70
4
71
1
72
4
73
2
40
0
40
0
40
1
40
1
41
1
10
221
20
-21.316
30
0
41
1
10
220.5
20
-21.7510204081632
30
0
0
SPLINE
5
12B
100
AcDbEntity
8
1
62
256
6
ByLayer
370
18
48
1
60
0
100
AcDbSpline
70
4
71
3
72
11
73
7
40
0
40
0
40
0
40
0
40
0.275209774590478
40
0.533578948492162
40
0.775155885168026
40
1
40
1
40
1
40
1
41
1
10
220.676677644262
20
-23.8028667910024
30
0
41
1
10
220.647937194228
20
-23.659266113207
30
0
41
1
10
220.598444517087
20
-23.3568809653772
30
0
41
1
10
220.542688216441
20
-22.8495084146797
30
0
41
1
10
220.508463285602
20
-22.3169764979383
30
0
41
1
10
220.500704008755
20
-21.9404657094295
30
0
41
1
10
220.5
20
-21.7510204081632
30
0
0
SPLINE
5
12C
100
AcDbEntity
8
1
62
256
6
ByLayer
370
18
48
1
60
0
100
AcDbSpline
70
4
71
3
72
13
73
9
40
0
40
0
40
0
40
0
40
0.234233345026276
40
0.441442883867395
40
0.621625694913564
40
0.774779723028364
40
0.900904113315956
40
1
40
1
40
1
40
1
41
1
10
221
20
-25
30
0
41
1
10
220.978398453828
20
-24.9999421892926
30
0
41
1
10
220.9366270786
20
-24.9583799746659
30
0
41
1
10
220.875466456767
20
-24.7895295044998
30
0
41
1
10
220.819363423177
20
-24.5592601264633
30
0
41
1
10
220.768191776654
20
-24.3030971650967
30
0
41
1
10
220.722686575767
20
-24.050878421604
30
0
41
1
10
220.691193557512
20
-23.8812813224098
30
0
41
1
10
220.676677644262
20
-23.8028667910024
30
0
0
SPLINE
5
12D
100
AcDbEntity
8
1
62
256
6
ByLayer
370
18
48
1
60
0
100
AcDbSpline
70
4
71
3
72
11
73
7
40
0
40
0
40
0
40
0
40
0.233301037036051
40
0.489455612058134
40
0.745007114375324
40
1
40
1
40
1
40
1
41
1
10
221.000035926759
20
-21.3807521101305
30
0
41
1
10
221.000285382314
20
-21.5943335659828
30
0
41
1
10
221.003253130792
20
-22.0231060306867
30
0
41
1
10
221.015663222243
20
-22.6146019131637
30
0
41
1
10
221.036653902357
20
-23.1558873038511
30
0
41
1
10
221.055546614326
20
-23.4708848180294
30
0
41
1
10
221.066254116598
20
-23.6169285456934
30
0
0
SPLINE
5
12E
100
AcDbEntity
8
1
62
256
6
ByLayer
370
18
48
1
60
0
100
AcDbSpline
70
4
71
1
72
4
73
2
40
0
40
0
40
1
40
1
41
1
10
221
20
-21.316
30
0
41
1
10
221.000035926759
20
-21.3807521101305
30
0
0
SPLINE
5
12F
100
AcDbEntity
8
1
62
256
6
ByLayer
370
18
48
1
60
0
100
AcDbSpline
70
4
71
3
72
16
73
12
40
0
40
0
40
0
40
0
40
0.077260268804055
40
0.231836194230719
40
0.387003584932554
40
0.540144041488049
40
0.693834596705216
40
0.755437992900388
40
0.971332699208903
40
0.991545448678913
40
1
40
1
40
1
40
1
41
1
10
221.3
20
-23.5133004926109
30
0
41
1
10
221.299806112707
20
-23.5890001657308
30
0
41
1
10
221.29665624951
20
-23.8076589941601
30
0
41
1
10
221.276335372832
20
-24.1305763533989
30
0
41
1
10
221.236744778733
20
-24.4477111595946
30
0
41
1
10
221.186050698176
20
-24.6946510620212
30
0
41
1
10
221.139543506746
20
-24.8357077197149
30
0
41
1
10
221.081950244714
20
-24.9545199226803
30
0
41
1
10
221.039929029892
20
-24.9953318040214
30
0
41
1
10
221.005262961342
20
-24.9998785265712
30
0
41
1
10
221.001198732379
20
-24.9999999997316
30
0
41
1
10
221
20
-25
30
0
0
SPLINE
5
130
100
AcDbEntity
8
1
62
256
6
ByLayer
370
18
48
1
60
0
100
AcDbSpline
70
4
71
3
72
12
73
8
40
0
40
0
40
0
40
0
40
0.0814684080198237
40
0.282954387161716
40
0.496494800032581
40
0.831758491132864
40
1
40
1
40
1
40
1
41
1
10
222.555
20
14.77
30
0
41
1
10
222.555015582329
20
14.7699841495472
30
0
41
1
10
222.556077393944
20
14.7689115960186
30
0
41
1
10
222.564760637255
20
14.7601387505968
30
0
41
1
10
222.589381414209
20
14.7352841727275
30
0
41
1
10
222.622628100026
20
14.701772156945
30
0
41
1
10
222.648254823464
20
14.6759963201806
30
0
41
1
10
222.657250000005
20
14.6669526077322
30
0
0
SPLINE
5
131
100
AcDbEntity
8
1
62
256
6
ByLayer
370
18
48
1
60
0
100
AcDbSpline
70
4
71
2
72
6
73
3
40
0
40
0
40
0
40
1
40
1
40
1
41
1
10
223.325
20
-9.05325150625474
30
0
41
1
10
223.083904837032
20
-10.8059504764764
30
0
41
1
10
222.65725
20
-12.5108818292089
30
0
0
SPLINE
5
132
100
AcDbEntity
8
1
62
256
6
ByLayer
370
18
48
1
60
0
100
AcDbSpline
70
4
71
3
72
10
73
6
40
0
40
0
40
0
40
0
40
0.532327471744183
40
0.833599534488217
40
1
40
1
40
1
40
1
41
1
10
222.65725
20
-12.5108818292089
30
0
41
1
10
222.627311546927
20
-12.6294758906237
30
0
41
1
10
222.591106560034
20
-12.8132325564232
30
0
41
1
10
222.558371562559
20
-13.0339234867171
30
0
41
1
10
222.55512048653
20
-13.1333189934795
30
0
41
1
10
222.55503138987
20
-13.1683939732225
30
0
0
SPLINE
5
133
100
AcDbEntity
8
1
62
256
6
ByLayer
370
18
48
1
60
0
100
AcDbSpline
70
4
71
1
72
4
73
2
40
0
40
0
40
1
40
1
41
1
10
222.65725
20
-13.3165319633728
30
0
41
1
10
223.325
20
-12.5457307174572
30
0
0
SPLINE
5
134
100
AcDbEntity
8
1
62
256
6
ByLayer
370
18
48
1
60
0
100
AcDbSpline
70
4
71
1
72
4
73
2
40
0
40
0
40
1
40
1
41
1
10
223.325
20
-13.3586321419795
30
0
41
1
10
222.65725
20
-15.4256727570724
30
0
0
SPLINE
5
135
100
AcDbEntity
8
1
62
256
6
ByLayer
370
18
48
1
60
0
100
AcDbSpline
70
4
71
2
72
6
73
3
40
0
40
0
40
0
40
1
40
1
40
1
41
1
10
222.65725
20
-15.4256727570724
30
0
41
1
10
222.564248120375
20
-15.6687947747666
30
0
41
1
10
222.555011360507
20
-15.8872087149762
30
0
0
SPLINE
5
136
100
AcDbEntity
8
1
62
256
6
ByLayer
370
18
48
1
60
0
100
AcDbSpline
70
4
71
1
72
4
73
2
40
0
40
0
40
1
40
1
41
1
10
222.65725
20
-15.9719368077127
30
0
41
1
10
223.325
20
-15.3440885798799
30
0
0
SPLINE
5
137
100
AcDbEntity
8
1
62
256
6
ByLayer
370
18
48
1
60
0
100
AcDbSpline
70
4
71
1
72
4
73
2
40
0
40
0
40
1
40
1
41
1
10
223.325
20
-15.899752969536
30
0
41
1
10
222.65725
20
-17.5090350955932
30
0
0
SPLINE
5
138
100
AcDbEntity
8
1
62
256
6
ByLayer
370
18
48
1
60
0
100
AcDbSpline
70
4
71
2
72
6
73
3
40
0
40
0
40
0
40
1
40
1
40
1
41
1
10
222.65725
20
-17.5090350955932
30
0
41
1
10
222.56449452426
20
-17.7076362690425
30
0
41
1
10
222.555002402522
20
-17.8772305165886
30
0
0
SPLINE
5
139
100
AcDbEntity
8
1
62
256
6
ByLayer
370
18
48
1
60
0
100
AcDbSpline
70
4
71
1
72
4
73
2
40
0
40
0
40
1
40
1
41
1
10
222.65725
20
-17.9267973886504
30
0
41
1
10
223.325
20
-17.3516106251948
30
0
0
SPLINE
5
13A
100
AcDbEntity
8
1
62
256
6
ByLayer
370
18
48
1
60
0
100
AcDbSpline
70
4
71
1
72
4
73
2
40
0
40
0
40
1
40
1
41
1
10
223.325
20
-17.7766387719495
30
0
41
1
10
222.65725
20
-19.1335510614992
30
0
0
SPLINE
5
13B
100
AcDbEntity
8
1
62
256
6
ByLayer
370
18
48
1
60
0
100
AcDbSpline
70
4
71
3
72
10
73
6
40
0
40
0
40
0
40
0
40
0.613007207669804
40
0.839592277898139
40
1
40
1
40
1
40
1
41
1
10
222.65725
20
-19.1335510614992
30
0
41
1
10
222.621142460231
20
-19.2019619258119
30
0
41
1
10
222.584893743717
20
-19.290744278793
30
0
41
1
10
222.558712646654
20
-19.3926061992163
30
0
41
1
10
222.555429709201
20
-19.4278624777635
30
0
41
1
10
222.555003423148
20
-19.4419810199694
30
0
0
SPLINE
5
13C
100
AcDbEntity
8
1
62
256
6
ByLayer
370
18
48
1
60
0
100
AcDbSpline
70
4
71
1
72
4
73
2
40
0
40
0
40
1
40
1
41
1
10
222.65725
20
-19.4679225924802
30
0
41
1
10
223.325
20
-18.9148985452446
30
0
0
SPLINE
5
13D
100
AcDbEntity
8
1
62
256
6
ByLayer
370
18
48
1
60
0
100
AcDbSpline
70
4
71
1
72
4
73
2
40
0
40
0
40
1
40
1
41
1
10
223.325
20
-19.2541356041277
30
0
41
1
10
222.65725
20
-20.4446939818576
30
0
0
SPLINE
5
13E
100
AcDbEntity
8
1
62
256
6
ByLayer
370
18
48
1
60
0
100
AcDbSpline
70
4
71
3
72
10
73
6
40
0
40
0
40
0
40
0
40
0.547301222737596
40
0.825627972936681
40
1
40
1
40
1
40
1
41
1
10
222.65725
20
-20.4446939818576
30
0
41
1
10
222.625542403747
20
-20.4982707951335
30
0
41
1
10
222.588937240184
20
-20.5744018380708
30
0
41
1
10
222.559737360317
20
-20.6632659657322
30
0
41
1
10
222.555569917055
20
-20.6975178942071
30
0
41
1
10
222.555008535533
20
-20.7101151220355
30
0
0
SPLINE
5
13F
100
AcDbEntity
8
1
62
256
6
ByLayer
370
18
48
1
60
0
100
AcDbSpline
70
4
71
1
72
4
73
2
40
0
40
0
40
1
40
1
41
1
10
222.65725
20
-20.7174895437145
30
0
41
1
10
223.325
20
-20.1718989586826
30
0
0
SPLINE
5
140
100
AcDbEntity
8
1
62
256
6
ByLayer
370
18
48
1
60
0
100
AcDbSpline
70
4
71
1
72
4
73
2
40
0
40
0
40
1
40
1
41
1
10
223.325
20
-20.4472737184539
30
0
41
1
10
222.65725
20
-21.5172600263618
30
0
0
SPLINE
5
141
100
AcDbEntity
8
1
62
256
6
ByLayer
370
18
48
1
60
0
100
AcDbSpline
70
4
71
3
72
10
73
6
40
0
40
0
40
0
40
0
40
0.538057462057365
40
0.818130138821898
40
1
40
1
40
1
40
1
41
1
10
222.65725
20
-21.5172600263618
30
0
41
1
10
222.626027033555
20
-21.5650666634061
30
0
41
1
10
222.589523572285
20
-21.6324796523193
30
0
41
1
10
222.55969065873
20
-21.7107563317592
30
0
41
1
10
222.55549982106
20
-21.7400235417015
30
0
41
1
10
222.555000929875
20
-21.7508182535806
30
0
0
SPLINE
5
142
100
AcDbEntity
8
1
62
256
6
ByLayer
370
18
48
1
60
0
100
AcDbSpline
70
4
71
1
72
4
73
2
40
0
40
0
40
1
40
1
41
1
10
222.65725
20
-21.740913086554
30
0
41
1
10
223.325
20
-21.1940925803361
30
0
0
SPLINE
5
143
100
AcDbEntity
8
1
62
256
6
ByLayer
370
18
48
1
60
0
100
AcDbSpline
70
4
71
1
72
4
73
2
40
0
40
0
40
1
40
1
41
1
10
223.325
20
-21.4181652094505
30
0
41
1
10
222.65725
20
-22.3954357623967
30
0
0
SPLINE
5
144
100
AcDbEntity
8
1
62
256
6
ByLayer
370
18
48
1
60
0
100
AcDbSpline
70
4
71
3
72
10
73
6
40
0
40
0
40
0
40
0
40
0.500655634822202
40
0.790172015434948
40
1
40
1
40
1
40
1
41
1
10
222.65725
20
-22.3954357623967
30
0
41
1
10
222.628459400728
20
-22.4360513359831
30
0
41
1
10
222.592593064923
20
-22.495054100592
30
0
41
1
10
222.560646526087
20
-22.565410693159
30
0
41
1
10
222.555617495467
20
-22.5922713314739
30
0
41
1
10
222.555000081396
20
-22.602545625745
30
0
0
SPLINE
5
145
100
AcDbEntity
8
1
62
256
6
ByLayer
370
18
48
1
60
0
100
AcDbSpline
70
4
71
1
72
4
73
2
40
0
40
0
40
1
40
1
41
1
10
222.65725
20
-22.5777377493901
30
0
41
1
10
223.325
20
-22.0238289168013
30
0
0
SPLINE
5
146
100
AcDbEntity
8
1
62
256
6
ByLayer
370
18
48
1
60
0
100
AcDbSpline
70
4
71
1
72
4
73
2
40
0
40
0
40
1
40
1
41
1
10
223.325
20
-22.204477102103
30
0
41
1
10
222.65725
20
-23.1075258373112
30
0
0
SPLINE
5
147
100
AcDbEntity
8
1
62
256
6
ByLayer
370
18
48
1
60
0
100
AcDbSpline
70
4
71
3
72
11
73
7
40
0
40
0
40
0
40
0
40
0.469351758654582
40
0.761993777863476
40
0.988709287791778
40
1
40
1
40
1
40
1
41
1
10
222.65725
20
-23.1075258373112
30
0
41
1
10
222.630514136621
20
-23.1426232148381
30
0
41
1
10
222.595252507034
20
-23.1949484938442
30
0
41
1
10
222.562509008144
20
-23.2570863381311
30
0
41
1
10
222.555160567665
20
-23.2829901513204
30
0
41
1
10
222.555001680443
20
-23.2916794237046
30
0
41
1
10
222.555000066086
20
-23.292086575487
30
0
0
SPLINE
5
148
100
AcDbEntity
8
1
62
256
6
ByLayer
370
18
48
1
60
0
100
AcDbSpline
70
4
71
1
72
4
73
2
40
0
40
0
40
1
40
1
41
1
10
222.65725
20
-23.2536450551968
30
0
41
1
10
223.325
20
-22.6882126704918
30
0
0
SPLINE
5
149
100
AcDbEntity
8
1
62
256
6
ByLayer
370
18
48
1
60
0
100
AcDbSpline
70
4
71
1
72
4
73
2
40
0
40
0
40
1
40
1
41
1
10
223.325
20
-22.8306454136905
30
0
41
1
10
222.65725
20
-23.6725412982302
30
0
0
SPLINE
5
14A
100
AcDbEntity
8
1
62
256
6
ByLayer
370
18
48
1
60
0
100
AcDbSpline
70
4
71
3
72
11
73
7
40
0
40
0
40
0
40
0
40
0.441839920560114
40
0.734050487715029
40
0.96186750083932
40
1
40
1
40
1
40
1
41
1
10
222.65725
20
-23.6725412982302
30
0
41
1
10
222.632309326615
20
-23.7032457165448
30
0
41
1
10
222.59797900152
20
-23.7497389857026
30
0
41
1
10
222.564594625596
20
-23.8046483170383
30
0
41
1
10
222.555573313104
20
-23.8285226969549
30
0
41
1
10
222.555015021059
20
-23.8363594717354
30
0
41
1
10
222.555000312325
20
-23.8374254774193
30
0
0
SPLINE
5
14B
100
AcDbEntity
8
1
62
256
6
ByLayer
370
18
48
1
60
0
100
AcDbSpline
70
4
71
1
72
4
73
2
40
0
40
0
40
1
40
1
41
1
10
222.65725
20
-23.7860121158241
30
0
41
1
10
223.325
20
-23.2053559142514
30
0
0
SPLINE
5
14C
100
AcDbEntity
8
1
62
256
6
ByLayer
370
18
48
1
60
0
100
AcDbSpline
70
4
71
1
72
4
73
2
40
0
40
0
40
1
40
1
41
1
10
223.325
20
-23.3131045806204
30
0
41
1
10
222.65725
20
-24.1035364558329
30
0
0
SPLINE
5
14D
100
AcDbEntity
8
1
62
256
6
ByLayer
370
18
48
1
60
0
100
AcDbSpline
70
4
71
3
72
11
73
7
40
0
40
0
40
0
40
0
40
0.3292500671095
40
0.647313353418157
40
0.887590104473803
40
1
40
1
40
1
40
1
41
1
10
222.65725
20
-24.1035364558329
30
0
41
1
10
222.639125826007
20
-24.1246406317614
30
0
41
1
10
222.60760557301
20
-24.1633405571413
30
0
41
1
10
222.572379703214
20
-24.2119075998364
30
0
41
1
10
222.557086797367
20
-24.2396890076993
30
0
41
1
10
222.555109283244
20
-24.2486011368986
30
0
41
1
10
222.555000241862
20
-24.250975551376
30
0
0
SPLINE
5
14E
100
AcDbEntity
8
1
62
256
6
ByLayer
370
18
48
1
60
0
100
AcDbSpline
70
4
71
1
72
4
73
2
40
0
40
0
40
1
40
1
41
1
10
222.65725
20
-24.1867908893245
30
0
41
1
10
223.325
20
-23.587552298584
30
0
0
SPLINE
5
14F
100
AcDbEntity
8
1
62
256
6
ByLayer
370
18
48
1
60
0
100
AcDbSpline
70
4
71
1
72
4
73
2
40
0
40
0
40
1
40
1
41
1
10
223.325
20
-23.6630030512968
30
0
41
1
10
222.65725
20
-24.4094413032564
30
0
0
SPLINE
5
150
100
AcDbEntity
8
1
62
256
6
ByLayer
370
18
48
1
60
0
100
AcDbSpline
70
4
71
3
72
11
73
7
40
0
40
0
40
0
40
0
40
0.342011787836871
40
0.642198228721823
40
0.876725351047485
40
1
40
1
40
1
40
1
41
1
10
222.65725
20
-24.4094413032564
30
0
41
1
10
222.638405962704
20
-24.4302315216882
30
0
41
1
10
222.607246454178
20
-24.4659783235364
30
0
41
1
10
222.572478698652
20
-24.5093812544871
30
0
41
1
10
222.557238712117
20
-24.5326216917596
30
0
41
1
10
222.555107377871
20
-24.5393112426375
30
0
41
1
10
222.555000074588
20
-24.5410298872621
30
0
0
SPLINE
5
151
100
AcDbEntity
8
1
62
256
6
ByLayer
370
18
48
1
60
0
100
AcDbSpline
70
4
71
1
72
4
73
2
40
0
40
0
40
1
40
1
41
1
10
222.65725
20
-24.4641115400998
30
0
41
1
10
223.325
20
-23.8430150703283
30
0
0
SPLINE
5
152
100
AcDbEntity
8
1
62
256
6
ByLayer
370
18
48
1
60
0
100
AcDbSpline
70
4
71
1
72
4
73
2
40
0
40
0
40
1
40
1
41
1
10
223.325
20
-23.8877094006841
30
0
41
1
10
222.65725
20
-24.5961148774388
30
0
0
SPLINE
5
153
100
AcDbEntity
8
1
62
256
6
ByLayer
370
18
48
1
60
0
100
AcDbSpline
70
4
71
3
72
11
73
7
40
0
40
0
40
0
40
0
40
0.353544895004882
40
0.637649992213709
40
0.866481616419204
40
1
40
1
40
1
40
1
41
1
10
222.65725
20
-24.5961148774388
30
0
41
1
10
222.637736231931
20
-24.6166212011108
30
0
41
1
10
222.606877005414
20
-24.649762420808
30
0
41
1
10
222.572532958044
20
-24.6884341492299
30
0
41
1
10
222.557376965567
20
-24.7075135390098
30
0
41
1
10
222.555102572038
20
-24.7120495720826
30
0
41
1
10
222.555000029089
20
-24.7130051391009
30
0
0
SPLINE
5
154
100
AcDbEntity
8
1
62
256
6
ByLayer
370
18
48
1
60
0
100
AcDbSpline
70
4
71
1
72
4
73
2
40
0
40
0
40
1
40
1
41
1
10
222.65725
20
-24.6232090000648
30
0
41
1
10
223.325
20
-23.9768631082337
30
0
0
SPLINE
5
155
100
AcDbEntity
8
1
62
256
6
ByLayer
370
18
48
1
60
0
100
AcDbSpline
70
4
71
1
72
4
73
2
40
0
40
0
40
1
40
1
41
1
10
223.325
20
-23.991667907708
30
0
41
1
10
222.65725
20
-24.6669526077377
30
0
0
SPLINE
5
156
100
AcDbEntity
8
1
62
256
6
ByLayer
370
18
48
1
60
0
100
AcDbSpline
70
4
71
3
72
11
73
7
40
0
40
0
40
0
40
0
40
0.363787721950115
40
0.633109824668522
40
0.856330372739872
40
1
40
1
40
1
40
1
41
1
10
222.65725
20
-24.6669526077377
30
0
41
1
10
222.637106503078
20
-24.6872119969314
30
0
41
1
10
222.606499723284
20
-24.7180158423594
30
0
41
1
10
222.572549591026
20
-24.7522724919801
30
0
41
1
10
222.557491476118
20
-24.7674829407209
30
0
41
1
10
222.555088777225
20
-24.7699097409186
30
0
41
1
10
222.555
20
-24.77
30
0
0
SPLINE
5
157
100
AcDbEntity
8
1
62
256
6
ByLayer
370
18
48
1
60
0
100
AcDbSpline
70
4
71
1
72
4
73
2
40
0
40
0
40
1
40
1
41
1
10
222.65725
20
14.6669526077377
30
0
41
1
10
223.325
20
13.991667907708
30
0
0
SPLINE
5
158
100
AcDbEntity
8
1
62
256
6
ByLayer
370
18
48
1
60
0
100
AcDbSpline
70
4
71
1
72
4
73
2
40
0
40
0
40
1
40
1
41
1
10
223.325
20
13.9768631082337
30
0
41
1
10
222.65725
20
14.6232090000648
30
0
0
SPLINE
5
159
100
AcDbEntity
8
1
62
256
6
ByLayer
370
18
48
1
60
0
100
AcDbSpline
70
4
71
3
72
10
73
6
40
0
40
0
40
0
40
0
40
0.420813233720217
40
0.709275987469655
40
1
40
1
40
1
40
1
41
1
10
222.65725
20
14.6232090000647
30
0
41
1
10
222.636507587211
20
14.6432655346522
30
0
41
1
10
222.606247411039
20
14.6718183371001
30
0
41
1
10
222.570645937365
20
14.7037065058532
30
0
41
1
10
222.560087947498
20
14.7114894215746
30
0
41
1
10
222.556760432117
20
14.7132672240648
30
0
0
SPLINE
5
15A
100
AcDbEntity
8
1
62
256
6
ByLayer
370
18
48
1
60
0
100
AcDbSpline
70
4
71
1
72
4
73
2
40
0
40
0
40
1
40
1
41
1
10
222.65725
20
14.5961148774388
30
0
41
1
10
223.325
20
13.8877094006841
30
0
0
SPLINE
5
15B
100
AcDbEntity
8
1
62
256
6
ByLayer
370
18
48
1
60
0
100
AcDbSpline
70
4
71
1
72
4
73
2
40
0
40
0
40
1
40
1
41
1
10
223.325
20
13.8430150703283
30
0
41
1
10
222.65725
20
14.4641115400998
30
0
0
SPLINE
5
15C
100
AcDbEntity
8
1
62
256
6
ByLayer
370
18
48
1
60
0
100
AcDbSpline
70
4
71
3
72
11
73
7
40
0
40
0
40
0
40
0
40
0.304632312554634
40
0.566084194491748
40
0.784880098668202
40
1
40
1
40
1
40
1
41
1
10
222.65725
20
14.4641115400997
30
0
41
1
10
222.64055915088
20
14.4796684885192
30
0
41
1
10
222.612558144472
20
14.5047063539096
30
0
41
1
10
222.578899199237
20
14.5321569777169
30
0
41
1
10
222.559153228532
20
14.5445727998412
30
0
41
1
10
222.555154530637
20
14.5435466217527
30
0
41
1
10
222.555000003065
20
14.5410513391962
30
0
0
SPLINE
5
15D
100
AcDbEntity
8
1
62
256
6
ByLayer
370
18
48
1
60
0
100
AcDbSpline
70
4
71
1
72
4
73
2
40
0
40
0
40
1
40
1
41
1
10
222.65725
20
14.4094413032565
30
0
41
1
10
223.325
20
13.6630030512968
30
0
0
SPLINE
5
15E
100
AcDbEntity
8
1
62
256
6
ByLayer
370
18
48
1
60
0
100
AcDbSpline
70
4
71
1
72
4
73
2
40
0
40
0
40
1
40
1
41
1
10
223.325
20
13.587552298584
30
0
41
1
10
222.65725
20
14.1867908893245
30
0
0
SPLINE
5
15F
100
AcDbEntity
8
1
62
256
6
ByLayer
370
18
48
1
60
0
100
AcDbSpline
70
4
71
3
72
12
73
8
40
0
40
0
40
0
40
0
40
0.28297701856683
40
0.536553999364187
40
0.750837094272264
40
0.965613435476449
40
1
40
1
40
1
40
1
41
1
10
222.65725
20
14.1867908893245
30
0
41
1
10
222.641760186522
20
14.2007697381244
30
0
41
1
10
222.614943225208
20
14.2235385350738
30
0
41
1
10
222.581692039333
20
14.248055497566
30
0
41
1
10
222.561024500697
20
14.2581756177889
30
0
41
1
10
222.555340370391
20
14.2556494640046
30
0
41
1
10
222.554996731975
20
14.2516310044636
30
0
41
1
10
222.555000030128
20
14.2510233429179
30
0
0
SPLINE
5
160
100
AcDbEntity
8
1
62
256
6
ByLayer
370
18
48
1
60
0
100
AcDbSpline
70
4
71
1
72
4
73
2
40
0
40
0
40
1
40
1
41
1
10
222.65725
20
14.1035364558329
30
0
41
1
10
223.325
20
13.3131045806204
30
0
0
SPLINE
5
161
100
AcDbEntity
8
1
62
256
6
ByLayer
370
18
48
1
60
0
100
AcDbSpline
70
4
71
1
72
4
73
2
40
0
40
0
40
1
40
1
41
1
10
223.325
20
13.2053559142514
30
0
41
1
10
222.65725
20
13.7860121158241
30
0
0
SPLINE
5
162
100
AcDbEntity
8
1
62
256
6
ByLayer
370
18
48
1
60
0
100
AcDbSpline
70
4
71
3
72
12
73
8
40
0
40
0
40
0
40
0
40
0.261192139426368
40
0.505956728872163
40
0.752535483089816
40
0.961563574781974
40
1
40
1
40
1
40
1
41
1
10
222.65725
20
13.786012115824
30
0
41
1
10
222.64295433266
20
13.7985553899809
30
0
41
1
10
222.617380061953
20
13.8192714267596
30
0
41
1
10
222.583004380813
20
13.8423427456429
30
0
41
1
10
222.561085004117
20
13.8496710722452
30
0
41
1
10
222.555355221632
20
13.8437531907419
30
0
41
1
10
222.554994103838
20
13.8383826837501
30
0
41
1
10
222.555000075114
20
13.8374837408244
30
0
0
SPLINE
5
163
100
AcDbEntity
8
1
62
256
6
ByLayer
370
18
48
1
60
0
100
AcDbSpline
70
4
71
1
72
4
73
2
40
0
40
0
40
1
40
1
41
1
10
222.65725
20
13.6725412982302
30
0
41
1
10
223.325
20
12.8306454136905
30
0
0
SPLINE
5
164
100
AcDbEntity
8
1
62
256
6
ByLayer
370
18
48
1
60
0
100
AcDbSpline
70
4
71
1
72
4
73
2
40
0
40
0
40
1
40
1
41
1
10
223.325
20
12.6882126704918
30
0
41
1
10
222.65725
20
13.2536450551968
30
0
0
SPLINE
5
165
100
AcDbEntity
8
1
62
256
6
ByLayer
370
18
48
1
60
0
100
AcDbSpline
70
4
71
3
72
12
73
8
40
0
40
0
40
0
40
0
40
0.238383637776229
40
0.472578322840688
40
0.70842283041366
40
0.909970655360701
40
1
40
1
40
1
40
1
41
1
10
222.65725
20
13.2536450551967
30
0
41
1
10
222.644154353144
20
13.264869634683
30
0
41
1
10
222.619908768226
20
13.2837252912934
30
0
41
1
10
222.586411318166
20
13.3043177379196
30
0
41
1
10
222.563744385307
20
13.3097189328798
30
0
41
1
10
222.555900889281
20
13.3020816888986
30
0
41
1
10
222.554957692868
20
13.2945959471497
30
0
41
1
10
222.555000724703
20
13.2919300405605
30
0
0
SPLINE
5
166
100
AcDbEntity
8
1
62
256
6
ByLayer
370
18
48
1
60
0
100
AcDbSpline
70
4
71
1
72
4
73
2
40
0
40
0
40
1
40
1
41
1
10
222.65725
20
13.1075258373112
30
0
41
1
10
223.325
20
12.204477102103
30
0
0
SPLINE
5
167
100
AcDbEntity
8
1
62
256
6
ByLayer
370
18
48
1
60
0
100
AcDbSpline
70
4
71
1
72
4
73
2
40
0
40
0
40
1
40
1
41
1
10
223.325
20
12.0238289168013
30
0
41
1
10
222.65725
20
12.5777377493901
30
0
0
SPLINE
5
168
100
AcDbEntity
8
1
62
256
6
ByLayer
370
18
48
1
60
0
100
AcDbSpline
70
4
71
3
72
11
73
7
40
0
40
0
40
0
40
0
40
0.251903770191652
40
0.512316829969139
40
0.774489907728096
40
1
40
1
40
1
40
1
41
1
10
222.65725
20
12.57773774939
30
0
41
1
10
222.645373678305
20
12.5877389163178
30
0
41
1
10
222.622561317996
20
12.6048874369878
30
0
41
1
10
222.590149980525
20
12.6233771058182
30
0
41
1
10
222.5668793199
20
12.6269578958826
30
0
41
1
10
222.559284153767
20
12.6203570523906
30
0
41
1
10
222.557190960659
20
12.6154127785628
30
0
0
SPLINE
5
169
100
AcDbEntity
8
1
62
256
6
ByLayer
370
18
48
1
60
0
100
AcDbSpline
70
4
71
1
72
4
73
2
40
0
40
0
40
1
40
1
41
1
10
222.557190960659
20
12.6154127785628
30
0
41
1
10
222.55500147232
20
12.6022405721771
30
0
0
SPLINE
5
16A
100
AcDbEntity
8
1
62
256
6
ByLayer
370
18
48
1
60
0
100
AcDbSpline
70
4
71
1
72
4
73
2
40
0
40
0
40
1
40
1
41
1
10
222.65725
20
12.3954357623967
30
0
41
1
10
223.325
20
11.4181652094505
30
0
0
SPLINE
5
16B
100
AcDbEntity
8
1
62
256
6
ByLayer
370
18
48
1
60
0
100
AcDbSpline
70
4
71
1
72
4
73
2
40
0
40
0
40
1
40
1
41
1
10
223.325
20
11.1940925803361
30
0
41
1
10
222.65725
20
11.740913086554
30
0
0
SPLINE
5
16C
100
AcDbEntity
8
1
62
256
6
ByLayer
370
18
48
1
60
0
100
AcDbSpline
70
4
71
3
72
12
73
8
40
0
40
0
40
0
40
0
40
0.191366235578354
40
0.40070542439461
40
0.611426159911721
40
0.793354321085338
40
1
40
1
40
1
40
1
41
1
10
222.65725
20
11.7409130865538
30
0
41
1
10
222.646627503721
20
11.7497667997621
30
0
41
1
10
222.625380799525
20
11.7653795144078
30
0
41
1
10
222.594288505919
20
11.7819777186297
30
0
41
1
10
222.570624438789
20
11.7844723098295
30
0
41
1
10
222.557467676365
20
11.772957705561
30
0
41
1
10
222.554735111693
20
11.7597810462401
30
0
41
1
10
222.555000725937
20
11.7508635079355
30
0
0
SPLINE
5
16D
100
AcDbEntity
8
1
62
256
6
ByLayer
370
18
48
1
60
0
100
AcDbSpline
70
4
71
1
72
4
73
2
40
0
40
0
40
1
40
1
41
1
10
222.65725
20
11.5172600263618
30
0
41
1
10
223.325
20
10.4472737184539
30
0
0
SPLINE
5
16E
100
AcDbEntity
8
1
62
256
6
ByLayer
370
18
48
1
60
0
100
AcDbSpline
70
4
71
1
72
4
73
2
40
0
40
0
40
1
40
1
41
1
10
223.325
20
10.1718989586826
30
0
41
1
10
222.65725
20
10.7174895437145
30
0
0
SPLINE
5
16F
100
AcDbEntity
8
1
62
256
6
ByLayer
370
18
48
1
60
0
100
AcDbSpline
70
4
71
3
72
13
73
9
40
0
40
0
40
0
40
0
40
0.166242911182865
40
0.360375890725063
40
0.55579972008917
40
0.724316208407324
40
0.963610848020895
40
1
40
1
40
1
40
1
41
1
10
222.657250000001
20
10.7174895437142
30
0
41
1
10
222.647934269862
20
10.7252528119712
30
0
41
1
10
222.628418910791
20
10.739446680958
30
0
41
1
10
222.598923790555
20
10.7545791493184
30
0
41
1
10
222.575130693618
20
10.756077901086
30
0
41
1
10
222.559249471884
20
10.7435020486445
30
0
41
1
10
222.555257148098
20
10.7256644826508
30
0
41
1
10
222.554989085093
20
10.712940665717
30
0
41
1
10
222.555000472764
20
10.7112166191105
30
0
0
SPLINE
5
170
100
AcDbEntity
8
1
62
256
6
ByLayer
370
18
48
1
60
0
100
AcDbSpline
70
4
71
1
72
4
73
2
40
0
40
0
40
1
40
1
41
1
10
222.65725
20
10.4446939818576
30
0
41
1
10
223.325
20
9.25413560412765
30
0
0
SPLINE
5
171
100
AcDbEntity
8
1
62
256
6
ByLayer
370
18
48
1
60
0
100
AcDbSpline
70
4
71
1
72
4
73
2
40
0
40
0
40
1
40
1
41
1
10
223.325
20
8.91489854524457
30
0
41
1
10
222.65725
20
9.46792259248016
30
0
0
SPLINE
5
172
100
AcDbEntity
8
1
62
256
6
ByLayer
370
18
48
1
60
0
100
AcDbSpline
70
4
71
3
72
13
73
9
40
0
40
0
40
0
40
0
40
0.138853390640135
40
0.341511995921691
40
0.518494759973437
40
0.669260172088961
40
0.905494557461863
40
1
40
1
40
1
40
1
41
1
10
222.657250000002
20
9.46792259247949
30
0
41
1
10
222.64930360173
20
9.47465507141357
30
0
41
1
10
222.63025527438
20
9.4886415791471
30
0
41
1
10
222.60109405941
20
9.50284416270202
30
0
41
1
10
222.577380561363
20
9.50152114405353
30
0
41
1
10
222.561214372378
20
9.48663402933438
30
0
41
1
10
222.55569115143
20
9.46454238458903
30
0
41
1
10
222.554915850397
20
9.44722157942555
30
0
41
1
10
222.555003412463
20
9.44198276189736
30
0
0
SPLINE
5
173
100
AcDbEntity
8
1
62
256
6
ByLayer
370
18
48
1
60
0
100
AcDbSpline
70
4
71
1
72
4
73
2
40
0
40
0
40
1
40
1
41
1
10
222.65725
20
9.1335510614992
30
0
41
1
10
223.325
20
7.77663877194953
30
0
0
SPLINE
5
174
100
AcDbEntity
8
1
62
256
6
ByLayer
370
18
48
1
60
0
100
AcDbSpline
70
4
71
1
72
4
73
2
40
0
40
0
40
1
40
1
41
1
10
223.325
20
7.35161062519481
30
0
41
1
10
222.65725
20
7.92679738865046
30
0
0
SPLINE
5
175
100
AcDbEntity
8
1
62
256
6
ByLayer
370
18
48
1
60
0
100
AcDbSpline
70
4
71
3
72
13
73
9
40
0
40
0
40
0
40
0
40
0.110242213151441
40
0.282557275529304
40
0.412606166268958
40
0.542428032765847
40
0.733732087688847
40
1
40
1
40
1
40
1
41
1
10
222.657250000004
20
7.92679738864877
30
0
41
1
10
222.650803050241
20
7.93247403210657
30
0
41
1
10
222.634460670417
20
7.94497280167862
30
0
41
1
10
222.609769049183
20
7.95769618909984
30
0
41
1
10
222.587437063047
20
7.95847277818451
30
0
41
1
10
222.569985716961
20
7.94809180578258
30
0
41
1
10
222.557500913942
20
7.9211431497262
30
0
41
1
10
222.554230160885
20
7.8950860188413
30
0
41
1
10
222.555002425298
20
7.87722502087375
30
0
0
SPLINE
5
176
100
AcDbEntity
8
1
62
256
6
ByLayer
370
18
48
1
60
0
100
AcDbSpline
70
4
71
1
72
4
73
2
40
0
40
0
40
1
40
1
41
1
10
222.65725
20
7.50903509559325
30
0
41
1
10
223.325
20
5.89975296953596
30
0
0
SPLINE
5
177
100
AcDbEntity
8
1
62
256
6
ByLayer
370
18
48
1
60
0
100
AcDbSpline
70
4
71
1
72
4
73
2
40
0
40
0
40
1
40
1
41
1
10
223.325
20
5.34408857987987
30
0
41
1
10
222.65725
20
5.97193680771275
30
0
0
SPLINE
5
178
100
AcDbEntity
8
1
62
256
6
ByLayer
370
18
48
1
60
0
100
AcDbSpline
70
4
71
3
72
14
73
10
40
0
40
0
40
0
40
0
40
0.0783829871385898
40
0.215707446420637
40
0.317812290822951
40
0.41986914810334
40
0.563517127420476
40
0.809794822449011
40
1
40
1
40
1
40
1
41
1
10
222.65725000001
20
5.97193680770723
30
0
41
1
10
222.652444151996
20
5.97653249290582
30
0
41
1
10
222.639151691486
20
5.98771089976153
30
0
41
1
10
222.618336548231
20
6.00011737567907
30
0
41
1
10
222.597444554273
20
6.00280079335929
30
0
41
1
10
222.580149715048
20
5.99535557513384
30
0
41
1
10
222.563926018899
20
5.97200676451316
30
0
41
1
10
222.556259895161
20
5.93285106550482
30
0
41
1
10
222.554587480467
20
5.90118003761698
30
0
41
1
10
222.555017244399
20
5.88643989123168
30
0
0
SPLINE
5
179
100
AcDbEntity
8
1
62
256
6
ByLayer
370
18
48
1
60
0
100
AcDbSpline
70
4
71
1
72
4
73
2
40
0
40
0
40
1
40
1
41
1
10
222.65725
20
5.4256727570724
30
0
41
1
10
223.325
20
3.35863214197945
30
0
0
SPLINE
5
17A
100
AcDbEntity
8
1
62
256
6
ByLayer
370
18
48
1
60
0
100
AcDbSpline
70
4
71
1
72
4
73
2
40
0
40
0
40
1
40
1
41
1
10
223.325
20
2.54573071745719
30
0
41
1
10
222.65725
20
3.31653196336442
30
0
0
SPLINE
5
17B
100
AcDbEntity
8
1
62
256
6
ByLayer
370
18
48
1
60
0
100
AcDbSpline
70
4
71
3
72
14
73
10
40
0
40
0
40
0
40
0
40
0.108418701021886
40
0.180167597011038
40
0.252422528712138
40
0.317844072553231
40
0.418649479187713
40
0.607004012534373
40
1
40
1
40
1
40
1
41
1
10
222.657250000027
20
3.31653196334173
30
0
41
1
10
222.64997141586
20
3.32526615338189
30
0
41
1
10
222.637423488915
20
3.33672320355455
30
0
41
1
10
222.618158504499
20
3.34746564858035
30
0
41
1
10
222.602527381033
20
3.34864670440951
30
0
41
1
10
222.587727804689
20
3.34120718763109
30
0
41
1
10
222.572043538821
20
3.31933184841524
30
0
41
1
10
222.557258581184
20
3.26135863170573
30
0
41
1
10
222.552549383968
20
3.20802499444376
30
0
41
1
10
222.555038128083
20
3.16757126881069
30
0
0
SPLINE
5
17C
100
AcDbEntity
8
1
62
256
6
ByLayer
370
18
48
1
60
0
100
AcDbSpline
70
4
71
2
72
6
73
3
40
0
40
0
40
0
40
1
40
1
40
1
41
1
10
222.65725
20
2.51088182920888
30
0
41
1
10
223.083894802745
20
0.805961258161682
30
0
41
1
10
223.325
20
-0.946748493745264
30
0
0
SPLINE
5
17D
100
AcDbEntity
8
1
62
256
6
ByLayer
370
18
48
1
60
0
100
AcDbSpline
70
4
71
2
72
6
73
3
40
0
40
0
40
0
40
1
40
1
40
1
41
1
10
223.325
20
-3.45859298939159
30
0
41
1
10
223.103860243445
20
-2.34870544057465
30
0
41
1
10
222.65725
20
-1.33311978883765
30
0
0
SPLINE
5
17E
100
AcDbEntity
8
1
62
256
6
ByLayer
370
18
48
1
60
0
100
AcDbSpline
70
4
71
3
72
18
73
14
40
0
40
0
40
0
40
0
40
0.0092762998804194
40
0.0685629894824113
40
0.0951304196307771
40
0.117592414020098
40
0.133540352730263
40
0.149529937925089
40
0.169950422023963
40
0.205700982069256
40
0.31877669793272
40
0.839906372189822
40
1
40
1
40
1
40
1
41
1
10
222.657249999994
20
-1.33311978884112
30
0
41
1
10
222.656530488484
20
-1.33143682106365
30
0
41
1
10
222.651090051694
20
-1.31911477775677
30
0
41
1
10
222.642732472879
20
-1.30239845853826
30
0
41
1
10
222.630691624417
20
-1.28643045517907
30
0
41
1
10
222.622113310393
20
-1.27928956767561
30
0
41
1
10
222.614212181307
20
-1.27688722353333
30
0
41
1
10
222.606874679365
20
-1.27847661596445
30
0
41
1
10
222.598465296463
20
-1.28562329777562
30
0
41
1
10
222.584596086649
20
-1.3111166854031
30
0
41
1
10
222.558360975623
20
-1.43609394575422
30
0
41
1
10
222.556219231416
20
-1.59494672122892
30
0
41
1
10
222.554724613401
20
-1.73024844142643
30
0
41
1
10
222.555022756186
20
-1.7622517627337
30
0
0
SPLINE
5
17F
100
AcDbEntity
8
1
62
256
6
ByLayer
370
18
48
1
60
0
100
AcDbSpline
70
4
71
2
72
6
73
3
40
0
40
0
40
0
40
1
40
1
40
1
41
1
10
222.65725
20
-8.66688021114458
30
0
41
1
10
223.10370184491
20
-7.65136317020439
30
0
41
1
10
223.325
20
-6.54140701060846
30
0
0
SPLINE
5
180
100
AcDbEntity
8
1
62
256
6
ByLayer
370
18
48
1
60
0
100
AcDbSpline
70
4
71
3
72
18
73
14
40
0
40
0
40
0
40
0
40
0.0395444285088489
40
0.67802034459015
40
0.738430857524402
40
0.801710634747505
40
0.823803287773814
40
0.846100958294934
40
0.862570653665247
40
0.879008358511005
40
0.905141278302448
40
0.957073783426556
40
1
40
1
40
1
40
1
41
1
10
222.55502714837
20
-8.2759376793572
30
0
41
1
10
222.553140836075
20
-8.28321985363181
30
0
41
1
10
222.522476480543
20
-8.40786636594363
30
0
41
1
10
222.555777472251
20
-8.54991441317643
30
0
41
1
10
222.583529798869
20
-8.68072705724995
30
0
41
1
10
222.592010013278
20
-8.70421019782492
30
0
41
1
10
222.601643329806
20
-8.71751513703396
30
0
41
1
10
222.608716698738
20
-8.72240064822797
30
0
41
1
10
222.616167497366
20
-8.72282895899923
30
0
41
1
10
222.624105074739
20
-8.71944469729974
30
0
41
1
10
222.635418046783
20
-8.70869756725299
30
0
41
1
10
222.646658383319
20
-8.68985797248904
30
0
41
1
10
222.654218463864
20
-8.67434761956126
30
0
41
1
10
222.65725
20
-8.66688021114463
30
0
0
SPLINE
5
181
100
AcDbEntity
8
1
62
256
6
ByLayer
370
18
48
1
60
0
100
AcDbSpline
70
4
71
3
72
13
73
9
40
0
40
0
40
0
40
0
40
0.0811644644494767
40
0.177297495011748
40
0.43385616087223
40
0.690627755600623
40
0.946967123447297
40
1
40
1
40
1
40
1
41
1
10
222.555022756186
20
-1.7622517627337
30
0
41
1
10
222.556685354627
20
-1.93705563848688
30
0
41
1
10
222.563432827021
20
-2.31964644075571
30
0
41
1
10
222.615581614573
20
-3.26138031355653
30
0
41
1
10
222.637544089998
20
-4.58753282776161
30
0
41
1
10
222.612774682817
20
-6.26388074567654
30
0
41
1
10
222.56595767677
20
-7.49522055350378
30
0
41
1
10
222.556512388559
20
-8.16178375678246
30
0
41
1
10
222.55502714837
20
-8.2759376793572
30
0
0
SPLINE
5
182
100
AcDbEntity
8
1
62
256
6
ByLayer
370
18
48
1
60
0
100
AcDbSpline
70
4
71
3
72
10
73
6
40
0
40
0
40
0
40
0
40
0.0927554397802502
40
0.545697818068521
40
1
40
1
40
1
40
1
41
1
10
222.555038128083
20
3.16757126881069
30
0
41
1
10
222.555388989701
20
3.14798419455128
30
0
41
1
10
222.559039956352
20
3.03232126157533
30
0
41
1
10
222.588693640007
20
2.81167793161012
30
0
41
1
10
222.630758281869
20
2.6119288053594
30
0
41
1
10
222.65725
20
2.51088182920891
30
0
0
SPLINE
5
183
100
AcDbEntity
8
1
62
256
6
ByLayer
370
18
48
1
60
0
100
AcDbSpline
70
4
71
3
72
14
73
10
40
0
40
0
40
0
40
0
40
0.287575987658948
40
0.590056088260117
40
0.679730591783027
40
0.75055470709873
40
0.821712627395105
40
0.902192848614294
40
1
40
1
40
1
40
1
41
1
10
222.55503138987
20
-13.1683939732225
30
0
41
1
10
222.553750469309
20
-13.197258496108
30
0
41
1
10
222.557233909261
20
-13.2517247198269
30
0
41
1
10
222.567713507383
20
-13.3138569143181
30
0
41
1
10
222.588436644206
20
-13.341692142686
30
0
41
1
10
222.60287063449
20
-13.3487912275839
30
0
41
1
10
222.619472193805
20
-13.3471392234769
30
0
41
1
10
222.638437550162
20
-13.3358091771679
30
0
41
1
10
222.650736120678
20
-13.3242992137047
30
0
41
1
10
222.657249999996
20
-13.3165319633686
30
0
0
SPLINE
5
184
100
AcDbEntity
8
1
62
256
6
ByLayer
370
18
48
1
60
0
100
AcDbSpline
70
4
71
3
72
10
73
6
40
0
40
0
40
0
40
0
40
0.18304833156479
40
0.859515705817957
40
1
40
1
40
1
40
1
41
1
10
222.555017244399
20
5.88643989123168
30
0
41
1
10
222.555942472327
20
5.859984397635
30
0
41
1
10
222.564464988637
20
5.73466507240127
30
0
41
1
10
222.606509813794
20
5.57496957974665
30
0
41
1
10
222.649401846817
20
5.44765881749607
30
0
41
1
10
222.65725
20
5.42567275707261
30
0
0
SPLINE
5
185
100
AcDbEntity
8
1
62
256
6
ByLayer
370
18
48
1
60
0
100
AcDbSpline
70
4
71
3
72
14
73
10
40
0
40
0
40
0
40
0
40
0.134830546589706
40
0.432278571174559
40
0.556416845271789
40
0.681679785607496
40
0.793859150360915
40
0.92182632976701
40
1
40
1
40
1
40
1
41
1
10
222.555011360507
20
-15.8872087149762
30
0
41
1
10
222.554794910832
20
-15.8975213538896
30
0
41
1
10
222.555917857637
20
-15.929116645489
30
0
41
1
10
222.562018268893
20
-15.9678387965235
30
0
41
1
10
222.579160760749
20
-15.9943615848696
30
0
41
1
10
222.596635088183
20
-16.0032599089764
30
0
41
1
10
222.619157766394
20
-15.9997522682053
30
0
41
1
10
222.639812086508
20
-15.9871545656547
30
0
41
1
10
222.652478051636
20
-15.9764938403015
30
0
41
1
10
222.65725
20
-15.9719368077127
30
0
0
SPLINE
5
186
100
AcDbEntity
8
1
62
256
6
ByLayer
370
18
48
1
60
0
100
AcDbSpline
70
4
71
3
72
10
73
6
40
0
40
0
40
0
40
0
40
0.0340274245101562
40
0.415044787859046
40
1
40
1
40
1
40
1
41
1
10
222.555002425299
20
7.87722502087375
30
0
41
1
10
222.555036900651
20
7.87353910695187
30
0
41
1
10
222.55598463012
20
7.82832243094872
30
0
41
1
10
222.58089688564
20
7.7052962332343
30
0
41
1
10
222.622322050846
20
7.58529366594181
30
0
41
1
10
222.65725
20
7.50903509559325
30
0
0
SPLINE
5
187
100
AcDbEntity
8
1
62
256
6
ByLayer
370
18
48
1
60
0
100
AcDbSpline
70
4
71
3
72
12
73
8
40
0
40
0
40
0
40
0
40
0.0979770994025308
40
0.417761348084652
40
0.739992192872307
40
0.956420333148223
40
1
40
1
40
1
40
1
41
1
10
222.555002402522
20
-17.8772305165886
30
0
41
1
10
222.554969421878
20
-17.8811445502881
30
0
41
1
10
222.555291463342
20
-17.897471343141
30
0
41
1
10
222.558605880554
20
-17.9245631495318
30
0
41
1
10
222.570428322715
20
-17.9490037063071
30
0
41
1
10
222.585130850077
20
-17.9568037966047
30
0
41
1
10
222.592932332292
20
-17.9576298558313
30
0
41
1
10
222.594277264759
20
-17.9577034296875
30
0
0
SPLINE
5
188
100
AcDbEntity
8
1
62
256
6
ByLayer
370
18
48
1
60
0
100
AcDbSpline
70
4
71
3
72
10
73
6
40
0
40
0
40
0
40
0
40
0.296083748073374
40
0.64655345243545
40
1
40
1
40
1
40
1
41
1
10
222.594277264759
20
-17.9577034296875
30
0
41
1
10
222.599841711318
20
-17.9578507471848
30
0
41
1
10
222.612429874276
20
-17.9560830599782
30
0
41
1
10
222.634453442418
20
-17.9448577479213
30
0
41
1
10
222.649564454984
20
-17.9335762274618
30
0
41
1
10
222.65725
20
-17.9267973886504
30
0
0
SPLINE
5
189
100
AcDbEntity
8
1
62
256
6
ByLayer
370
18
48
1
60
0
100
AcDbSpline
70
4
71
3
72
10
73
6
40
0
40
0
40
0
40
0
40
0.192958189275829
40
0.662877134872623
40
1
40
1
40
1
40
1
41
1
10
222.555003412463
20
9.44198276189736
30
0
41
1
10
222.555775357579
20
9.42474685352101
30
0
41
1
10
222.562247184345
20
9.36383708387129
30
0
41
1
10
222.599082328815
20
9.25621962198057
30
0
41
1
10
222.638177661418
20
9.170320730928
30
0
41
1
10
222.65725
20
9.1335510614992
30
0
0
SPLINE
5
18A
100
AcDbEntity
8
1
62
256
6
ByLayer
370
18
48
1
60
0
100
AcDbSpline
70
4
71
3
72
13
73
9
40
0
40
0
40
0
40
0
40
0.106322020951535
40
0.308092026541436
40
0.511861720184206
40
0.687387669813883
40
0.838178876361813
40
1
40
1
40
1
40
1
41
1
10
222.555003423148
20
-19.4419810199694
30
0
41
1
10
222.554902748484
20
-19.4478807434842
30
0
41
1
10
222.5557309423
20
-19.4639528573803
30
0
41
1
10
222.561449200834
20
-19.4873359995496
30
0
41
1
10
222.578391104751
20
-19.5028448339463
30
0
41
1
10
222.603424866665
20
-19.501489161909
30
0
41
1
10
222.630477830277
20
-19.4883501757057
30
0
41
1
10
222.647958903935
20
-19.4758016130344
30
0
41
1
10
222.65725
20
-19.4679225924802
30
0
0
SPLINE
5
18B
100
AcDbEntity
8
1
62
256
6
ByLayer
370
18
48
1
60
0
100
AcDbSpline
70
4
71
1
72
4
73
2
40
0
40
0
40
1
40
1
41
1
10
221.066254116598
20
-23.6169285456933
30
0
41
1
10
220.676677644262
20
-23.8028667910024
30
0
0
SPLINE
5
18C
100
AcDbEntity
8
1
62
256
6
ByLayer
370
18
48
1
60
0
100
AcDbSpline
70
4
71
3
72
13
73
9
40
0
40
0
40
0
40
0
40
0.156938698583258
40
0.349316531427496
40
0.543113493975721
40
0.714312677860503
40
0.930589975772082
40
1
40
1
40
1
40
1
41
1
10
222.555008535533
20
-20.7101151220355
30
0
41
1
10
222.554764424077
20
-20.7178825742427
30
0
41
1
10
222.556326840231
20
-20.7330199523803
30
0
41
1
10
222.565117235662
20
-20.7510191699904
30
0
41
1
10
222.58431428651
20
-20.7571096349773
30
0
41
1
10
222.612372194197
20
-20.74899564906
30
0
41
1
10
222.63767922616
20
-20.7329360348716
30
0
41
1
10
222.653396743984
20
-20.72066053656
30
0
41
1
10
222.657250000002
20
-20.717489543714
30
0
0
SPLINE
5
18D
100
AcDbEntity
8
1
62
256
6
ByLayer
370
18
48
1
60
0
100
AcDbSpline
70
4
71
3
72
10
73
6
40
0
40
0
40
0
40
0
40
0.230543928053028
40
0.670249368460764
40
1
40
1
40
1
40
1
41
1
10
222.555000472764
20
10.7112166191105
30
0
41
1
10
222.555973870088
20
10.6941926951022
30
0
41
1
10
222.563390370997
20
10.6424094026311
30
0
41
1
10
222.601280134767
20
10.5483980008889
30
0
41
1
10
222.638677503405
20
10.4764629670544
30
0
41
1
10
222.65725
20
10.4446939818576
30
0
0
SPLINE
5
18E
100
AcDbEntity
8
1
62
256
6
ByLayer
370
18
48
1
60
0
100
AcDbSpline
70
4
71
3
72
13
73
9
40
0
40
0
40
0
40
0
40
0.0632694644459665
40
0.276663840458764
40
0.491667190860656
40
0.676297285292028
40
0.911346290098575
40
1
40
1
40
1
40
1
41
1
10
222.555000929875
20
-21.7508182535806
30
0
41
1
10
222.554969985234
20
-21.7534297023435
30
0
41
1
10
222.55550091994
20
-21.7641829123098
30
0
41
1
10
222.560935326727
20
-21.779474812584
30
0
41
1
10
222.579425426929
20
-21.7851478318844
30
0
41
1
10
222.607960906402
20
-21.7759274024369
30
0
41
1
10
222.635043745723
20
-21.7584802199496
30
0
41
1
10
222.65241993903
20
-21.7448966802659
30
0
41
1
10
222.657250000005
20
-21.7409130865523
30
0
0
SPLINE
5
18F
100
AcDbEntity
8
1
62
256
6
ByLayer
370
18
48
1
60
0
100
AcDbSpline
70
4
71
3
72
11
73
7
40
0
40
0
40
0
40
0
40
0.0302362271658809
40
0.300567593954907
40
0.740596753790237
40
1
40
1
40
1
40
1
41
1
10
222.555000725937
20
11.7508635079355
30
0
41
1
10
222.555017361135
20
11.7491477519593
30
0
41
1
10
222.555575568673
20
11.7318046022458
30
0
41
1
10
222.569149254964
20
11.6789954170122
30
0
41
1
10
222.607837049872
20
11.5985027415872
30
0
41
1
10
222.642867396602
20
11.5396035419021
30
0
41
1
10
222.65725
20
11.5172600263618
30
0
0
SPLINE
5
190
100
AcDbEntity
8
1
62
256
6
ByLayer
370
18
48
1
60
0
100
AcDbSpline
70
4
71
3
72
13
73
9
40
0
40
0
40
0
40
0
40
0.0212809377381279
40
0.238561386112236
40
0.45716860769476
40
0.649648659773644
40
0.90350849712655
40
1
40
1
40
1
40
1
41
1
10
222.555000081396
20
-22.602545625745
30
0
41
1
10
222.55499712244
20
-22.6032852321386
30
0
41
1
10
222.555161987586
20
-22.6113772392832
30
0
41
1
10
222.559253003597
20
-22.6236047693758
30
0
41
1
10
222.57688156024
20
-22.6269244451721
30
0
41
1
10
222.605349565434
20
-22.6158580447934
30
0
41
1
10
222.633524661658
20
-22.5968329280773
30
0
41
1
10
222.652052428589
20
-22.5820731962956
30
0
41
1
10
222.657250000005
20
-22.5777377493884
30
0
0
SPLINE
5
191
100
AcDbEntity
8
1
62
256
6
ByLayer
370
18
48
1
60
0
100
AcDbSpline
70
4
71
3
72
11
73
7
40
0
40
0
40
0
40
0
40
0.0812329922284524
40
0.361133281662967
40
0.796537058091842
40
1
40
1
40
1
40
1
41
1
10
222.55500147232
20
12.6022405721771
30
0
41
1
10
222.555099462372
20
12.5984504549655
30
0
41
1
10
222.556719074078
20
12.580709703447
30
0
41
1
10
222.574802179398
20
12.5294836558492
30
0
41
1
10
222.613632517066
20
12.4603267694139
30
0
41
1
10
222.646115482642
20
12.4113458694242
30
0
41
1
10
222.65725
20
12.3954357623967
30
0
0
SPLINE
5
192
100
AcDbEntity
8
1
62
256
6
ByLayer
370
18
48
1
60
0
100
AcDbSpline
70
4
71
3
72
17
73
13
40
0
40
0
40
0
40
0
40
0.0499965867240486
40
0.111370201416705
40
0.184069733146068
40
0.26807681483603
40
0.363427700186735
40
0.470238676568415
40
0.568000544545302
40
0.726841829770044
40
0.871062851993725
40
1
40
1
40
1
40
1
41
1
10
221.066254116598
20
-23.6169285456933
30
0
41
1
10
221.069079911492
20
-23.6626292263938
30
0
41
1
10
221.074664029297
20
-23.7619165571116
30
0
41
1
10
221.081155066846
20
-23.9166618443369
30
0
41
1
10
221.085431460326
20
-24.0870605785312
30
0
41
1
10
221.086414482659
20
-24.2664318733134
30
0
41
1
10
221.083259778711
20
-24.4470838451493
30
0
41
1
10
221.075897126441
20
-24.6089707816891
30
0
41
1
10
221.063048116621
20
-24.7711651026294
30
0
41
1
10
221.044395151989
20
-24.9028059596736
30
0
41
1
10
221.021294709649
20
-24.9836619618057
30
0
41
1
10
221.006897047492
20
-25.0000236968277
30
0
41
1
10
221
20
-25
30
0
0
SPLINE
5
193
100
AcDbEntity
8
1
62
256
6
ByLayer
370
18
48
1
60
0
100
AcDbSpline
70
4
71
3
72
11
73
7
40
0
40
0
40
0
40
0
40
0.130632392229578
40
0.415548682631225
40
0.843413418810507
40
1
40
1
40
1
40
1
41
1
10
222.555000724703
20
13.2919300405605
30
0
41
1
10
222.555219444984
20
13.2869735895815
30
0
41
1
10
222.55799512545
20
13.2695849031442
30
0
41
1
10
222.580249725645
20
13.2201944449455
30
0
41
1
10
222.618700276632
20
13.1601189387494
30
0
41
1
10
222.648761892694
20
13.1187907830027
30
0
41
1
10
222.65725
20
13.1075258373112
30
0
0
SPLINE
5
194
100
AcDbEntity
8
1
62
256
6
ByLayer
370
18
48
1
60
0
100
AcDbSpline
70
4
71
3
72
12
73
8
40
0
40
0
40
0
40
0
40
0.203982101215697
40
0.42289203830104
40
0.621225759785527
40
0.890379488772321
40
1
40
1
40
1
40
1
41
1
10
222.555000066086
20
-23.292086575487
30
0
41
1
10
222.554897963952
20
-23.2983003785211
30
0
41
1
10
222.558176529177
20
-23.3071735753694
30
0
41
1
10
222.574243124086
20
-23.3084735293176
30
0
41
1
10
222.602275393741
20
-23.2955987473305
30
0
41
1
10
222.631553976018
20
-23.2748245964975
30
0
41
1
10
222.651377526233
20
-23.258638471764
30
0
41
1
10
222.657250000007
20
-23.2536450551943
30
0
0
SPLINE
5
195
100
AcDbEntity
8
1
62
256
6
ByLayer
370
18
48
1
60
0
100
AcDbSpline
70
4
71
3
72
11
73
7
40
0
40
0
40
0
40
0
40
0.143406160135579
40
0.416179409660961
40
0.813457131819948
40
1
40
1
40
1
40
1
41
1
10
222.555000075114
20
13.8374837408244
30
0
41
1
10
222.555218734815
20
13.8332559112073
30
0
41
1
10
222.558158421244
20
13.8190743086718
30
0
41
1
10
222.579864871635
20
13.7772067985676
30
0
41
1
10
222.617427602227
20
13.7232747229728
30
0
41
1
10
222.647143977536
20
13.685075854437
30
0
41
1
10
222.65725
20
13.6725412982299
30
0
0
SPLINE
5
196
100
AcDbEntity
8
1
62
256
6
ByLayer
370
18
48
1
60
0
100
AcDbSpline
70
4
71
3
72
12
73
8
40
0
40
0
40
0
40
0
40
0.17182038550637
40
0.389124108028721
40
0.591678114719536
40
0.873622739350212
40
1
40
1
40
1
40
1
41
1
10
222.555000312325
20
-23.8374254774193
30
0
41
1
10
222.554945951919
20
-23.8415859421234
30
0
41
1
10
222.557566085496
20
-23.8479456508417
30
0
41
1
10
222.571645644364
20
-23.8471547875957
30
0
41
1
10
222.598948282838
20
-23.8325246100649
30
0
41
1
10
222.629289303415
20
-23.8097517340526
30
0
41
1
10
222.650490893341
20
-23.7919055473377
30
0
41
1
10
222.657250000011
20
-23.7860121158195
30
0
0
SPLINE
5
197
100
AcDbEntity
8
1
62
256
6
ByLayer
370
18
48
1
60
0
100
AcDbSpline
70
4
71
3
72
11
73
7
40
0
40
0
40
0
40
0
40
0.151510210552055
40
0.411847092875887
40
0.780628591293152
40
1
40
1
40
1
40
1
41
1
10
222.555000030128
20
14.2510233429179
30
0
41
1
10
222.555213291713
20
14.2477351167947
30
0
41
1
10
222.558226651058
20
14.2366590343581
30
0
41
1
10
222.57901732713
20
14.2017481251854
30
0
41
1
10
222.61576248758
20
14.1531383553434
30
0
41
1
10
222.645364287079
20
14.1174078722661
30
0
41
1
10
222.65725
20
14.1035364558303
30
0
0
SPLINE
5
198
100
AcDbEntity
8
1
62
256
6
ByLayer
370
18
48
1
60
0
100
AcDbSpline
70
4
71
3
72
12
73
8
40
0
40
0
40
0
40
0
40
0.0937750043520619
40
0.315079293964405
40
0.520086113400866
40
0.799364997268629
40
1
40
1
40
1
40
1
41
1
10
222.555000241862
20
-24.250975551376
30
0
41
1
10
222.554980723118
20
-24.252660330552
30
0
41
1
10
222.55616667344
20
-24.2569820460955
30
0
41
1
10
222.56547045096
20
-24.256718152267
30
0
41
1
10
222.589775411851
20
-24.2426519312952
30
0
41
1
10
222.621987058705
20
-24.2176386678643
30
0
41
1
10
222.646436280983
20
-24.1965225182805
30
0
41
1
10
222.65725
20
-24.1867908893245
30
0
0
SPLINE
5
199
100
AcDbEntity
8
1
62
256
6
ByLayer
370
18
48
1
60
0
100
AcDbSpline
70
4
71
3
72
12
73
8
40
0
40
0
40
0
40
0
40
0.0805814427706064
40
0.294856636486406
40
0.501424598235996
40
0.79550781348622
40
1
40
1
40
1
40
1
41
1
10
222.555000074588
20
-24.5410298872621
30
0
41
1
10
222.554994909587
20
-24.5419980562034
30
0
41
1
10
222.555997909948
20
-24.5444659198811
30
0
41
1
10
222.564538790173
20
-24.541741577563
30
0
41
1
10
222.588322652416
20
-24.524900506125
30
0
41
1
10
222.620983720609
20
-24.4972337835865
30
0
41
1
10
222.646251711464
20
-24.4743399506937
30
0
41
1
10
222.65725
20
-24.4641115400998
30
0
0
SPLINE
5
19A
100
AcDbEntity
8
1
62
256
6
ByLayer
370
18
48
1
60
0
100
AcDbSpline
70
4
71
3
72
12
73
8
40
0
40
0
40
0
40
0
40
0.0040678379005704
40
0.193259184993767
40
0.45393099461181
40
0.81650393693019
40
1
40
1
40
1
40
1
41
1
10
222.555000003065
20
14.5410513391962
30
0
41
1
10
222.555000102346
20
14.540998898705
30
0
41
1
10
222.555041908088
20
14.5384715788753
30
0
41
1
10
222.55976336621
20
14.5278958526446
30
0
41
1
10
222.583394766297
20
14.4949534400491
30
0
41
1
10
222.61968179993
20
14.4515850423524
30
0
41
1
10
222.64738507519
20
14.4203496943217
30
0
41
1
10
222.657250000001
20
14.4094413032536
30
0
0
SPLINE
5
19B
100
AcDbEntity
8
1
62
256
6
ByLayer
370
18
48
1
60
0
100
AcDbSpline
70
4
71
3
72
11
73
7
40
0
40
0
40
0
40
0
40
0.231131739999607
40
0.466628672010512
40
0.825968942986483
40
1
40
1
40
1
40
1
41
1
10
222.556420372692
20
-24.7134051731836
30
0
41
1
10
222.55867953327
20
-24.7123941008887
30
0
41
1
10
222.566217544612
20
-24.70717662938
30
0
41
1
10
222.591921726394
20
-24.6849195640167
30
0
41
1
10
222.62442260669
20
-24.6546617313603
30
0
41
1
10
222.648908641859
20
-24.6312544707722
30
0
41
1
10
222.657250000007
20
-24.6232090000593
30
0
0
SPLINE
5
19C
100
AcDbEntity
8
1
62
256
6
ByLayer
370
18
48
1
60
0
100
AcDbSpline
70
4
71
3
72
12
73
8
40
0
40
0
40
0
40
0
40
0.101523682145537
40
0.298670259603602
40
0.579960061486477
40
0.971009684658999
40
1
40
1
40
1
40
1
41
1
10
222.555000044758
20
14.7130031276509
30
0
41
1
10
222.555046733676
20
14.7123126748356
30
0
41
1
10
222.556492157933
20
14.7090003075641
30
0
41
1
10
222.567719690897
20
14.6941913394474
30
0
41
1
10
222.599047395786
20
14.6582641268284
30
0
41
1
10
222.633679505405
20
14.6209690724058
30
0
41
1
10
222.655717722443
20
14.5977282863562
30
0
41
1
10
222.65725
20
14.5961148774388
30
0
0
INSERT
5
1CD
100
AcDbEntity
8
SK2
62
256
6
ByLayer
370
25
48
1
60
0
100
AcDbBlockReference
2
DimnDraft3D44
10
0
20
0
30
0
41
1
42
1
43
1
50
0
210
0
220
0
230
1
0
LINE
5
70
100
AcDbEntity
8
81
62
256
6
ByLayer
370
18
48
1
60
0
100
AcDbLine
10
223
20
-5
30
0
11
245.3
21
-5
31
0
39
0
210
0
220
0
230
1
0
LINE
5
71
100
AcDbEntity
8
4
62
256
6
ByLayer
370
18
48
0.05
60
0
100
AcDbLine
10
0
20
0
30
0
11
223
21
0
31
0
39
0
210
0
220
0
230
1
0
LINE
5
73
100
AcDbEntity
8
SK4
62
256
6
ByLayer
370
18
48
0.05
60
0
100
AcDbLine
10
-35
20
0
30
0
11
230
21
0
31
0
39
0
210
0
220
0
230
1
0
LINE
5
75
100
AcDbEntity
8
80
62
256
6
ByLayer
370
18
48
1
60
0
100
AcDbLine
10
0
20
0
30
0
11
-22.3
21
0
31
0
39
0
210
0
220
0
230
1
0
LINE
5
76
100
AcDbEntity
8
SK1
62
256
6
ByLayer
370
18
48
1
60
0
100
AcDbLine
10
233
20
9.899495
30
0
11
227
21
9.899495
31
0
39
0
210
0
220
0
230
1
0
LINE
5
78
100
AcDbEntity
8
SK1
62
256
6
ByLayer
370
18
48
1
60
0
100
AcDbLine
10
227
20
-0.100505
30
0
11
233
21
-0.100505
31
0
39
0
210
0
220
0
230
1
0
LINE
5
79
100
AcDbEntity
8
SK1
62
256
6
ByLayer
370
18
48
1
60
0
100
AcDbLine
10
227
20
7.899495
30
0
11
223.325
21
7.899495
31
0
39
0
210
0
220
0
230
1
0
LINE
5
7A
100
AcDbEntity
8
SK1
62
256
6
ByLayer
370
18
48
1
60
0
100
AcDbLine
10
223.325
20
1.899495
30
0
11
227
21
1.899495
31
0
39
0
210
0
220
0
230
1
0
LINE
5
7B
100
AcDbEntity
8
SK1
62
256
6
ByLayer
370
18
48
1
60
0
100
AcDbLine
10
233
20
-9.899495
30
0
11
227
21
-9.899495
31
0
39
0
210
0
220
0
230
1
0
LINE
5
7C
100
AcDbEntity
8
SK1
62
256
6
ByLayer
370
18
48
1
60
0
100
AcDbLine
10
227
20
-19.899495
30
0
11
233
21
-19.899495
31
0
39
0
210
0
220
0
230
1
0
LINE
5
7D
100
AcDbEntity
8
SK1
62
256
6
ByLayer
370
18
48
1
60
0
100
AcDbLine
10
227
20
-11.899495
30
0
11
223.325
21
-11.899495
31
0
39
0
210
0
220
0
230
1
0
LINE
5
7E
100
AcDbEntity
8
SK1
62
256
6
ByLayer
370
18
48
1
60
0
100
AcDbLine
10
223.325
20
-17.899495
30
0
11
227
21
-17.899495
31
0
39
0
210
0
220
0
230
1
0
LINE
5
7F
100
AcDbEntity
8
1
62
256
6
ByLayer
370
18
48
1
60
0
100
AcDbLine
10
0.3
20
25
30
0
11
0
21
24.7
31
0
39
0
210
0
220
0
230
1
0
LINE
5
81
100
AcDbEntity
8
1
62
256
6
ByLayer
370
18
48
1
60
0
100
AcDbLine
10
0
20
-24.7
30
0
11
0.3
21
-25
31
0
39
0
210
0
220
0
230
1
0
LINE
5
82
100
AcDbEntity
8
1
62
256
6
ByLayer
370
18
48
1
60
0
100
AcDbLine
10
218.6
20
25
30
0
11
0.3
21
25
31
0
39
0
210
0
220
0
230
1
0
LINE
5
83
100
AcDbEntity
8
1
62
256
6
ByLayer
370
18
48
1
60
0
100
AcDbLine
10
0.3
20
-25
30
0
11
218.6
21
-25
31
0
39
0
210
0
220
0
230
1
0
LINE
5
84
100
AcDbEntity
8
1
62
256
6
ByLayer
370
18
48
1
60
0
100
AcDbLine
10
8.538675
20
23.83913
30
0
11
11.461325
21
23.83913
31
0
39
0
210
0
220
0
230
1
0
LINE
5
85
100
AcDbEntity
8
1
62
256
6
ByLayer
370
18
48
1
60
0
100
AcDbLine
10
11.461325
20
7.529667
30
0
11
8.538675
21
7.529667
31
0
39
0
210
0
220
0
230
1
0
LINE
5
86
100
AcDbEntity
8
1
62
256
6
ByLayer
370
18
48
1
60
0
100
AcDbLine
10
8.538675
20
-7.529667
30
0
11
11.461325
21
-7.529667
31
0
39
0
210
0
220
0
230
1
0
LINE
5
87
100
AcDbEntity
8
1
62
256
6
ByLayer
370
18
48
1
60
0
100
AcDbLine
10
11.461325
20
-23.83913
30
0
11
8.538675
21
-23.83913
31
0
39
0
210
0
220
0
230
1
0
LINE
5
88
100
AcDbEntity
8
1
62
256
6
ByLayer
370
18
48
1
60
0
100
AcDbLine
10
8.105662
20
8.055848
30
0
11
8.105662
21
23.666502
31
0
39
0
210
0
220
0
230
1
0
LINE
5
89
100
AcDbEntity
8
1
62
256
6
ByLayer
370
18
48
1
60
0
100
AcDbLine
10
8.538675
20
7.529667
30
0
11
8.538675
21
23.83913
31
0
39
0
210
0
220
0
230
1
0
LINE
5
8A
100
AcDbEntity
8
1
62
256
6
ByLayer
370
18
48
1
60
0
100
AcDbLine
10
11.461325
20
-23.83913
30
0
11
11.461325
21
-7.529667
31
0
39
0
210
0
220
0
230
1
0
LINE
5
8B
100
AcDbEntity
8
1
62
256
6
ByLayer
370
18
48
1
60
0
100
AcDbLine
10
11.894338
20
-23.666502
30
0
11
11.894338
21
-8.055848
31
0
39
0
210
0
220
0
230
1
0
LINE
5
8C
100
AcDbEntity
8
1
62
256
6
ByLayer
370
18
48
1
60
0
100
AcDbLine
10
11.461325
20
7.529667
30
0
11
11.461325
21
23.83913
31
0
39
0
210
0
220
0
230
1
0
LINE
5
8D
100
AcDbEntity
8
1
62
256
6
ByLayer
370
18
48
1
60
0
100
AcDbLine
10
11.894338
20
8.055848
30
0
11
11.894338
21
23.666502
31
0
39
0
210
0
220
0
230
1
0
LINE
5
8E
100
AcDbEntity
8
1
62
256
6
ByLayer
370
18
48
1
60
0
100
AcDbLine
10
8.105662
20
-23.666502
30
0
11
8.105662
21
-8.055848
31
0
39
0
210
0
220
0
230
1
0
LINE
5
8F
100
AcDbEntity
8
1
62
256
6
ByLayer
370
18
48
1
60
0
100
AcDbLine
10
8.538675
20
-23.83913
30
0
11
8.538675
21
-7.529667
31
0
39
0
210
0
220
0
230
1
0
LINE
5
90
100
AcDbEntity
8
1
62
256
6
ByLayer
370
18
48
1
60
0
100
AcDbLine
10
221
20
24.5
30
0
11
220.5
21
25
31
0
39
0
210
0
220
0
230
1
0
LINE
5
91
100
AcDbEntity
8
1
62
256
6
ByLayer
370
18
48
1
60
0
100
AcDbLine
10
219.4
20
-25
30
0
11
221
21
-25
31
0
39
0
210
0
220
0
230
1
0
LINE
5
92
100
AcDbEntity
8
1
62
256
6
ByLayer
370
18
48
1
60
0
100
AcDbLine
10
220.5
20
25
30
0
11
219.4
21
25
31
0
39
0
210
0
220
0
230
1
0
LINE
5
93
100
AcDbEntity
8
1
62
256
6
ByLayer
370
18
48
1
60
0
100
AcDbLine
10
221
20
-25
30
0
11
222.325
21
-25
31
0
39
0
210
0
220
0
230
1
0
LINE
5
94
100
AcDbEntity
8
1
62
256
6
ByLayer
370
18
48
1
60
0
100
AcDbLine
10
222.325
20
15
30
0
11
221.3
21
15
31
0
39
0
210
0
220
0
230
1
0
LINE
5
95
100
AcDbEntity
8
1
62
256
6
ByLayer
370
18
48
1
60
0
100
AcDbLine
10
222.325
20
-25
30
0
11
222.556678
21
-24.768322
31
0
39
0
210
0
220
0
230
1
0
LINE
5
96
100
AcDbEntity
8
1
62
256
6
ByLayer
370
18
48
1
60
0
100
AcDbLine
10
222.556678
20
14.768322
30
0
11
222.325
21
15
31
0
39
0
210
0
220
0
230
1
0
LINE
5
97
100
AcDbEntity
8
1
62
256
6
ByLayer
370
18
48
1
60
0
100
AcDbLine
10
222.65725
20
-8.66688
30
0
11
222.65725
21
-1.33312
31
0
39
0
210
0
220
0
230
1
0
LINE
5
98
100
AcDbEntity
8
1
62
256
6
ByLayer
370
18
48
1
60
0
100
AcDbLine
10
223.325
20
-6.541407
30
0
11
223.325
21
-3.458593
31
0
39
0
210
0
220
0
230
1
0
LINE
5
99
100
AcDbEntity
8
1
62
256
6
ByLayer
370
18
48
1
60
0
100
AcDbLine
10
222.65725
20
-13.316532
30
0
11
222.65725
21
-12.510882
31
0
39
0
210
0
220
0
230
1
0
LINE
5
9A
100
AcDbEntity
8
1
62
256
6
ByLayer
370
18
48
1
60
0
100
AcDbLine
10
222.65725
20
2.510882
30
0
11
222.65725
21
3.316532
31
0
39
0
210
0
220
0
230
1
0
LINE
5
9B
100
AcDbEntity
8
1
62
256
6
ByLayer
370
18
48
1
60
0
100
AcDbLine
10
223.325
20
-12.545731
30
0
11
223.325
21
-9.053252
31
0
39
0
210
0
220
0
230
1
0
LINE
5
9C
100
AcDbEntity
8
1
62
256
6
ByLayer
370
18
48
1
60
0
100
AcDbLine
10
223.325
20
-0.946748
30
0
11
223.325
21
2.545731
31
0
39
0
210
0
220
0
230
1
0
LINE
5
9D
100
AcDbEntity
8
1
62
256
6
ByLayer
370
18
48
1
60
0
100
AcDbLine
10
222.65725
20
-15.971937
30
0
11
222.65725
21
-15.425673
31
0
39
0
210
0
220
0
230
1
0
LINE
5
9E
100
AcDbEntity
8
1
62
256
6
ByLayer
370
18
48
1
60
0
100
AcDbLine
10
222.65725
20
5.425673
30
0
11
222.65725
21
5.971937
31
0
39
0
210
0
220
0
230
1
0
LINE
5
9F
100
AcDbEntity
8
1
62
256
6
ByLayer
370
18
48
1
60
0
100
AcDbLine
10
223.325
20
-15.344089
30
0
11
223.325
21
-13.358632
31
0
39
0
210
0
220
0
230
1
0
LINE
5
A0
100
AcDbEntity
8
1
62
256
6
ByLayer
370
18
48
1
60
0
100
AcDbLine
10
223.325
20
3.358632
30
0
11
223.325
21
5.344089
31
0
39
0
210
0
220
0
230
1
0
LINE
5
A1
100
AcDbEntity
8
1
62
256
6
ByLayer
370
18
48
1
60
0
100
AcDbLine
10
222.65725
20
-17.926797
30
0
11
222.65725
21
-17.509035
31
0
39
0
210
0
220
0
230
1
0
LINE
5
A2
100
AcDbEntity
8
1
62
256
6
ByLayer
370
18
48
1
60
0
100
AcDbLine
10
222.65725
20
7.509035
30
0
11
222.65725
21
7.926797
31
0
39
0
210
0
220
0
230
1
0
LINE
5
A3
100
AcDbEntity
8
1
62
256
6
ByLayer
370
18
48
1
60
0
100
AcDbLine
10
223.325
20
-17.351611
30
0
11
223.325
21
-15.899753
31
0
39
0
210
0
220
0
230
1
0
LINE
5
A4
100
AcDbEntity
8
1
62
256
6
ByLayer
370
18
48
1
60
0
100
AcDbLine
10
223.325
20
5.899753
30
0
11
223.325
21
7.351611
31
0
39
0
210
0
220
0
230
1
0
LINE
5
A5
100
AcDbEntity
8
1
62
256
6
ByLayer
370
18
48
1
60
0
100
AcDbLine
10
222.65725
20
-19.467923
30
0
11
222.65725
21
-19.133551
31
0
39
0
210
0
220
0
230
1
0
LINE
5
A6
100
AcDbEntity
8
1
62
256
6
ByLayer
370
18
48
1
60
0
100
AcDbLine
10
222.65725
20
9.133551
30
0
11
222.65725
21
9.467923
31
0
39
0
210
0
220
0
230
1
0
LINE
5
A7
100
AcDbEntity
8
1
62
256
6
ByLayer
370
18
48
1
60
0
100
AcDbLine
10
223.325
20
7.776639
30
0
11
223.325
21
8.914899
31
0
39
0
210
0
220
0
230
1
0
LINE
5
A8
100
AcDbEntity
8
1
62
256
6
ByLayer
370
18
48
1
60
0
100
AcDbLine
10
223.325
20
-18.914899
30
0
11
223.325
21
-17.776639
31
0
39
0
210
0
220
0
230
1
0
LINE
5
A9
100
AcDbEntity
8
1
62
256
6
ByLayer
370
18
48
1
60
0
100
AcDbLine
10
222.65725
20
-20.71749
30
0
11
222.65725
21
-20.444694
31
0
39
0
210
0
220
0
230
1
0
LINE
5
AA
100
AcDbEntity
8
1
62
256
6
ByLayer
370
18
48
1
60
0
100
AcDbLine
10
222.65725
20
10.444694
30
0
11
222.65725
21
10.71749
31
0
39
0
210
0
220
0
230
1
0
LINE
5
AB
100
AcDbEntity
8
1
62
256
6
ByLayer
370
18
48
1
60
0
100
AcDbLine
10
223.325
20
-20.171899
30
0
11
223.325
21
-19.254136
31
0
39
0
210
0
220
0
230
1
0
LINE
5
AC
100
AcDbEntity
8
1
62
256
6
ByLayer
370
18
48
1
60
0
100
AcDbLine
10
223.325
20
9.254136
30
0
11
223.325
21
10.171899
31
0
39
0
210
0
220
0
230
1
0
LINE
5
AD
100
AcDbEntity
8
1
62
256
6
ByLayer
370
18
48
1
60
0
100
AcDbLine
10
222.65725
20
-21.740913
30
0
11
222.65725
21
-21.51726
31
0
39
0
210
0
220
0
230
1
0
LINE
5
AE
100
AcDbEntity
8
1
62
256
6
ByLayer
370
18
48
1
60
0
100
AcDbLine
10
222.65725
20
11.51726
30
0
11
222.65725
21
11.740913
31
0
39
0
210
0
220
0
230
1
0
LINE
5
AF
100
AcDbEntity
8
1
62
256
6
ByLayer
370
18
48
1
60
0
100
AcDbLine
10
223.325
20
10.447274
30
0
11
223.325
21
11.194093
31
0
39
0
210
0
220
0
230
1
0
LINE
5
B0
100
AcDbEntity
8
1
62
256
6
ByLayer
370
18
48
1
60
0
100
AcDbLine
10
223.325
20
-21.194093
30
0
11
223.325
21
-20.447274
31
0
39
0
210
0
220
0
230
1
0
LINE
5
B1
100
AcDbEntity
8
1
62
256
6
ByLayer
370
18
48
1
60
0
100
AcDbLine
10
222.65725
20
-22.577738
30
0
11
222.65725
21
-22.395436
31
0
39
0
210
0
220
0
230
1
0
LINE
5
B2
100
AcDbEntity
8
1
62
256
6
ByLayer
370
18
48
1
60
0
100
AcDbLine
10
222.65725
20
12.395436
30
0
11
222.65725
21
12.577738
31
0
39
0
210
0
220
0
230
1
0
LINE
5
B3
100
AcDbEntity
8
1
62
256
6
ByLayer
370
18
48
1
60
0
100
AcDbLine
10
223.325
20
-22.023829
30
0
11
223.325
21
-21.418165
31
0
39
0
210
0
220
0
230
1
0
LINE
5
B4
100
AcDbEntity
8
1
62
256
6
ByLayer
370
18
48
1
60
0
100
AcDbLine
10
223.325
20
11.418165
30
0
11
223.325
21
12.023829
31
0
39
0
210
0
220
0
230
1
0
LINE
5
B5
100
AcDbEntity
8
1
62
256
6
ByLayer
370
18
48
1
60
0
100
AcDbLine
10
222.65725
20
13.107526
30
0
11
222.65725
21
13.253645
31
0
39
0
210
0
220
0
230
1
0
LINE
5
B6
100
AcDbEntity
8
1
62
256
6
ByLayer
370
18
48
1
60
0
100
AcDbLine
10
222.65725
20
-23.253645
30
0
11
222.65725
21
-23.107526
31
0
39
0
210
0
220
0
230
1
0
LINE
5
B7
100
AcDbEntity
8
1
62
256
6
ByLayer
370
18
48
1
60
0
100
AcDbLine
10
223.325
20
12.204477
30
0
11
223.325
21
12.688213
31
0
39
0
210
0
220
0
230
1
0
LINE
5
B8
100
AcDbEntity
8
1
62
256
6
ByLayer
370
18
48
1
60
0
100
AcDbLine
10
223.325
20
-22.688213
30
0
11
223.325
21
-22.204477
31
0
39
0
210
0
220
0
230
1
0
LINE
5
B9
100
AcDbEntity
8
1
62
256
6
ByLayer
370
18
48
1
60
0
100
AcDbLine
10
222.65725
20
-23.786012
30
0
11
222.65725
21
-23.672541
31
0
39
0
210
0
220
0
230
1
0
LINE
5
BA
100
AcDbEntity
8
1
62
256
6
ByLayer
370
18
48
1
60
0
100
AcDbLine
10
222.65725
20
13.672541
30
0
11
222.65725
21
13.786012
31
0
39
0
210
0
220
0
230
1
0
LINE
5
BB
100
AcDbEntity
8
1
62
256
6
ByLayer
370
18
48
1
60
0
100
AcDbLine
10
223.325
20
12.830645
30
0
11
223.325
21
13.205356
31
0
39
0
210
0
220
0
230
1
0
LINE
5
BC
100
AcDbEntity
8
1
62
256
6
ByLayer
370
18
48
1
60
0
100
AcDbLine
10
223.325
20
-23.205356
30
0
11
223.325
21
-22.830645
31
0
39
0
210
0
220
0
230
1
0
LINE
5
BD
100
AcDbEntity
8
1
62
256
6
ByLayer
370
18
48
1
60
0
100
AcDbLine
10
222.65725
20
14.103536
30
0
11
222.65725
21
14.186791
31
0
39
0
210
0
220
0
230
1
0
LINE
5
BE
100
AcDbEntity
8
1
62
256
6
ByLayer
370
18
48
1
60
0
100
AcDbLine
10
222.65725
20
-24.186791
30
0
11
222.65725
21
-24.103536
31
0
39
0
210
0
220
0
230
1
0
LINE
5
BF
100
AcDbEntity
8
1
62
256
6
ByLayer
370
18
48
1
60
0
100
AcDbLine
10
223.325
20
13.313105
30
0
11
223.325
21
13.587552
31
0
39
0
210
0
220
0
230
1
0
LINE
5
C0
100
AcDbEntity
8
1
62
256
6
ByLayer
370
18
48
1
60
0
100
AcDbLine
10
223.325
20
-23.587552
30
0
11
223.325
21
-23.313105
31
0
39
0
210
0
220
0
230
1
0
LINE
5
C1
100
AcDbEntity
8
1
62
256
6
ByLayer
370
18
48
1
60
0
100
AcDbLine
10
222.65725
20
-24.464112
30
0
11
222.65725
21
-24.409441
31
0
39
0
210
0
220
0
230
1
0
LINE
5
C2
100
AcDbEntity
8
1
62
256
6
ByLayer
370
18
48
1
60
0
100
AcDbLine
10
222.65725
20
14.409441
30
0
11
222.65725
21
14.464112
31
0
39
0
210
0
220
0
230
1
0
LINE
5
C3
100
AcDbEntity
8
1
62
256
6
ByLayer
370
18
48
1
60
0
100
AcDbLine
10
223.325
20
-23.843015
30
0
11
223.325
21
-23.663003
31
0
39
0
210
0
220
0
230
1
0
LINE
5
C4
100
AcDbEntity
8
1
62
256
6
ByLayer
370
18
48
1
60
0
100
AcDbLine
10
223.325
20
13.663003
30
0
11
223.325
21
13.843015
31
0
39
0
210
0
220
0
230
1
0
LINE
5
C5
100
AcDbEntity
8
1
62
256
6
ByLayer
370
18
48
1
60
0
100
AcDbLine
10
222.65725
20
-24.623209
30
0
11
222.65725
21
-24.596115
31
0
39
0
210
0
220
0
230
1
0
LINE
5
C6
100
AcDbEntity
8
1
62
256
6
ByLayer
370
18
48
1
60
0
100
AcDbLine
10
222.65725
20
14.596115
30
0
11
222.65725
21
14.623209
31
0
39
0
210
0
220
0
230
1
0
LINE
5
C7
100
AcDbEntity
8
1
62
256
6
ByLayer
370
18
48
1
60
0
100
AcDbLine
10
223.325
20
-23.976863
30
0
11
223.325
21
-23.887709
31
0
39
0
210
0
220
0
230
1
0
LINE
5
C8
100
AcDbEntity
8
1
62
256
6
ByLayer
370
18
48
1
60
0
100
AcDbLine
10
223.325
20
13.887709
30
0
11
223.325
21
13.976863
31
0
39
0
210
0
220
0
230
1
0
LINE
5
C9
100
AcDbEntity
8
SK1
62
256
6
ByLayer
370
18
48
1
60
0
100
AcDbLine
10
233
20
9.899495
30
0
11
233
21
-0.100505
31
0
39
0
210
0
220
0
230
1
0
LINE
5
CA
100
AcDbEntity
8
SK1
62
256
6
ByLayer
370
18
48
1
60
0
100
AcDbLine
10
227
20
9.899495
30
0
11
227
21
-0.100505
31
0
39
0
210
0
220
0
230
1
0
LINE
5
CB
100
AcDbEntity
8
SK1
62
256
6
ByLayer
370
18
48
1
60
0
100
AcDbLine
10
233
20
-9.899495
30
0
11
233
21
-19.899495
31
0
39
0
210
0
220
0
230
1
0
LINE
5
CC
100
AcDbEntity
8
SK1
62
256
6
ByLayer
370
18
48
1
60
0
100
AcDbLine
10
227
20
-9.899495
30
0
11
227
21
-19.899495
31
0
39
0
210
0
220
0
230
1
0
LINE
5
CD
100
AcDbEntity
8
1
62
256
6
ByLayer
370
18
48
1
60
0
100
AcDbLine
10
0.3
20
25
30
0
11
0.3
21
-25
31
0
39
0
210
0
220
0
230
1
0
LINE
5
CE
100
AcDbEntity
8
1
62
256
6
ByLayer
370
18
48
1
60
0
100
AcDbLine
10
0
20
-24.7
30
0
11
0
21
24.7
31
0
39
0
210
0
220
0
230
1
0
LINE
5
CF
100
AcDbEntity
8
1
62
256
6
ByLayer
370
18
48
1
60
0
100
AcDbLine
10
218.6
20
-25
30
0
11
218.6
21
0
31
0
39
0
210
0
220
0
230
1
0
LINE
5
D0
100
AcDbEntity
8
1
62
256
6
ByLayer
370
18
48
1
60
0
100
AcDbLine
10
219
20
24.6
30
0
11
219
21
0
31
0
39
0
210
0
220
0
230
1
0
LINE
5
D1
100
AcDbEntity
8
1
62
256
6
ByLayer
370
18
48
1
60
0
100
AcDbLine
10
219
20
0
30
0
11
219
21
-24.6
31
0
39
0
210
0
220
0
230
1
0
LINE
5
D2
100
AcDbEntity
8
1
62
256
6
ByLayer
370
18
48
1
60
0
100
AcDbLine
10
218.6
20
0
30
0
11
218.6
21
25
31
0
39
0
210
0
220
0
230
1
0
LINE
5
D3
100
AcDbEntity
8
SK1
62
256
6
ByLayer
370
18
48
1
60
0
100
AcDbLine
10
-0.2
20
17.833485
30
0
11
-0.2
21
5.881425
31
0
39
0
210
0
220
0
230
1
0
LINE
5
D4
100
AcDbEntity
8
SK1
62
256
6
ByLayer
370
18
48
1
60
0
100
AcDbLine
10
-1.307107
20
3.804744
30
0
11
-1.307107
21
-3.804747
31
0
39
0
210
0
220
0
230
1
0
LINE
5
D5
100
AcDbEntity
8
SK1
62
256
6
ByLayer
370
18
48
1
60
0
100
AcDbLine
10
-0.2
20
-5.881424
30
0
11
-0.2
21
-17.833485
31
0
39
0
210
0
220
0
230
1
0
LINE
5
D6
100
AcDbEntity
8
1
62
256
6
ByLayer
370
18
48
1
60
0
100
AcDbLine
10
221
20
24.5
30
0
11
221
21
-21.316
31
0
39
0
210
0
220
0
230
1
0
LINE
5
D7
100
AcDbEntity
8
1
62
256
6
ByLayer
370
18
48
1
60
0
100
AcDbLine
10
220.5
20
-21.75102
30
0
11
220.5
21
25
31
0
39
0
210
0
220
0
230
1
0
LINE
5
D8
100
AcDbEntity
8
1
62
256
6
ByLayer
370
18
48
1
60
0
100
AcDbLine
10
219.4
20
25
30
0
11
219.4
21
0
31
0
39
0
210
0
220
0
230
1
0
LINE
5
D9
100
AcDbEntity
8
1
62
256
6
ByLayer
370
18
48
1
60
0
100
AcDbLine
10
219.4
20
0
30
0
11
219.4
21
-25
31
0
39
0
210
0
220
0
230
1
0
LINE
5
DA
100
AcDbEntity
8
1
62
256
6
ByLayer
370
18
48
1
60
0
100
AcDbLine
10
219
20
-24.6
30
0
11
219
21
0
31
0
39
0
210
0
220
0
230
1
0
LINE
5
DB
100
AcDbEntity
8
1
62
256
6
ByLayer
370
18
48
1
60
0
100
AcDbLine
10
219
20
0
30
0
11
219
21
24.6
31
0
39
0
210
0
220
0
230
1
0
LINE
5
DC
100
AcDbEntity
8
1
62
256
6
ByLayer
370
18
48
1
60
0
100
AcDbLine
10
221.3
20
15
30
0
11
221.3
21
-23.5133
31
0
39
0
210
0
220
0
230
1
0
LINE
5
DD
100
AcDbEntity
8
1
62
256
6
ByLayer
370
18
48
1
60
0
100
AcDbLine
10
222.325
20
-25
30
0
11
222.325
21
15
31
0
39
0
210
0
220
0
230
1
0
LINE
5
DE
100
AcDbEntity
8
1
62
256
6
ByLayer
370
18
48
1
60
0
100
AcDbLine
10
223.325
20
-9.053252
30
0
11
223.325
21
-6.541407
31
0
39
0
210
0
220
0
230
1
0
LINE
5
DF
100
AcDbEntity
8
1
62
256
6
ByLayer
370
18
48
1
60
0
100
AcDbLine
10
223.325
20
-13.358632
30
0
11
223.325
21
-12.545731
31
0
39
0
210
0
220
0
230
1
0
LINE
5
E0
100
AcDbEntity
8
1
62
256
6
ByLayer
370
18
48
1
60
0
100
AcDbLine
10
223.325
20
-15.899753
30
0
11
223.325
21
-15.344089
31
0
39
0
210
0
220
0
230
1
0
LINE
5
E1
100
AcDbEntity
8
1
62
256
6
ByLayer
370
18
48
1
60
0
100
AcDbLine
10
223.325
20
-17.776639
30
0
11
223.325
21
-17.351611
31
0
39
0
210
0
220
0
230
1
0
LINE
5
E2
100
AcDbEntity
8
1
62
256
6
ByLayer
370
18
48
1
60
0
100
AcDbLine
10
223.325
20
-19.254136
30
0
11
223.325
21
-18.914899
31
0
39
0
210
0
220
0
230
1
0
LINE
5
E3
100
AcDbEntity
8
1
62
256
6
ByLayer
370
18
48
1
60
0
100
AcDbLine
10
223.325
20
-20.447274
30
0
11
223.325
21
-20.171899
31
0
39
0
210
0
220
0
230
1
0
LINE
5
E4
100
AcDbEntity
8
1
62
256
6
ByLayer
370
18
48
1
60
0
100
AcDbLine
10
223.325
20
-21.418165
30
0
11
223.325
21
-21.194093
31
0
39
0
210
0
220
0
230
1
0
LINE
5
E5
100
AcDbEntity
8
1
62
256
6
ByLayer
370
18
48
1
60
0
100
AcDbLine
10
223.325
20
-22.204477
30
0
11
223.325
21
-22.023829
31
0
39
0
210
0
220
0
230
1
0
LINE
5
E6
100
AcDbEntity
8
1
62
256
6
ByLayer
370
18
48
1
60
0
100
AcDbLine
10
223.325
20
-22.830645
30
0
11
223.325
21
-22.688213
31
0
39
0
210
0
220
0
230
1
0
LINE
5
E7
100
AcDbEntity
8
1
62
256
6
ByLayer
370
18
48
1
60
0
100
AcDbLine
10
223.325
20
-23.313105
30
0
11
223.325
21
-23.205356
31
0
39
0
210
0
220
0
230
1
0
LINE
5
E8
100
AcDbEntity
8
1
62
256
6
ByLayer
370
18
48
1
60
0
100
AcDbLine
10
223.325
20
-23.663003
30
0
11
223.325
21
-23.587552
31
0
39
0
210
0
220
0
230
1
0
LINE
5
E9
100
AcDbEntity
8
1
62
256
6
ByLayer
370
18
48
1
60
0
100
AcDbLine
10
223.325
20
-23.887709
30
0
11
223.325
21
-23.843015
31
0
39
0
210
0
220
0
230
1
0
LINE
5
EA
100
AcDbEntity
8
1
62
256
6
ByLayer
370
18
48
1
60
0
100
AcDbLine
10
223.325
20
-23.991668
30
0
11
223.325
21
-23.976863
31
0
39
0
210
0
220
0
230
1
0
LINE
5
EB
100
AcDbEntity
8
1
62
256
6
ByLayer
370
18
48
1
60
0
100
AcDbLine
10
223.325
20
13.976863
30
0
11
223.325
21
13.991668
31
0
39
0
210
0
220
0
230
1
0
LINE
5
EC
100
AcDbEntity
8
1
62
256
6
ByLayer
370
18
48
1
60
0
100
AcDbLine
10
223.325
20
13.843015
30
0
11
223.325
21
13.887709
31
0
39
0
210
0
220
0
230
1
0
LINE
5
ED
100
AcDbEntity
8
1
62
256
6
ByLayer
370
18
48
1
60
0
100
AcDbLine
10
223.325
20
13.587552
30
0
11
223.325
21
13.663003
31
0
39
0
210
0
220
0
230
1
0
LINE
5
EE
100
AcDbEntity
8
1
62
256
6
ByLayer
370
18
48
1
60
0
100
AcDbLine
10
223.325
20
13.205356
30
0
11
223.325
21
13.313105
31
0
39
0
210
0
220
0
230
1
0
LINE
5
EF
100
AcDbEntity
8
1
62
256
6
ByLayer
370
18
48
1
60
0
100
AcDbLine
10
223.325
20
12.688213
30
0
11
223.325
21
12.830645
31
0
39
0
210
0
220
0
230
1
0
LINE
5
F0
100
AcDbEntity
8
1
62
256
6
ByLayer
370
18
48
1
60
0
100
AcDbLine
10
223.325
20
12.023829
30
0
11
223.325
21
12.204477
31
0
39
0
210
0
220
0
230
1
0
LINE
5
F1
100
AcDbEntity
8
1
62
256
6
ByLayer
370
18
48
1
60
0
100
AcDbLine
10
223.325
20
11.194093
30
0
11
223.325
21
11.418165
31
0
39
0
210
0
220
0
230
1
0
LINE
5
F2
100
AcDbEntity
8
1
62
256
6
ByLayer
370
18
48
1
60
0
100
AcDbLine
10
223.325
20
10.171899
30
0
11
223.325
21
10.447274
31
0
39
0
210
0
220
0
230
1
0
LINE
5
F3
100
AcDbEntity
8
1
62
256
6
ByLayer
370
18
48
1
60
0
100
AcDbLine
10
223.325
20
8.914899
30
0
11
223.325
21
9.254136
31
0
39
0
210
0
220
0
230
1
0
LINE
5
F4
100
AcDbEntity
8
1
62
256
6
ByLayer
370
18
48
1
60
0
100
AcDbLine
10
223.325
20
7.351611
30
0
11
223.325
21
7.776639
31
0
39
0
210
0
220
0
230
1
0
LINE
5
F5
100
AcDbEntity
8
1
62
256
6
ByLayer
370
18
48
1
60
0
100
AcDbLine
10
223.325
20
5.344089
30
0
11
223.325
21
5.899753
31
0
39
0
210
0
220
0
230
1
0
LINE
5
F6
100
AcDbEntity
8
1
62
256
6
ByLayer
370
18
48
1
60
0
100
AcDbLine
10
223.325
20
2.545731
30
0
11
223.325
21
3.358632
31
0
39
0
210
0
220
0
230
1
0
LINE
5
F7
100
AcDbEntity
8
1
62
256
6
ByLayer
370
18
48
1
60
0
100
AcDbLine
10
223.325
20
-3.458593
30
0
11
223.325
21
-0.946748
31
0
39
0
210
0
220
0
230
1
0
LINE
5
F8
100
AcDbEntity
8
SK1
62
256
6
ByLayer
370
18
48
1
60
0
100
AcDbLine
10
-3
20
-17.5
30
0
11
-3
21
17.5
31
0
39
0
210
0
220
0
230
1
0
LINE
5
F9
100
AcDbEntity
8
SK1
62
256
6
ByLayer
370
18
48
1
60
0
100
AcDbLine
10
-2.2
20
10.241692
30
0
11
-2.2
21
15.024781
31
0
39
0
210
0
220
0
230
1
0
LINE
5
FA
100
AcDbEntity
8
SK1
62
256
6
ByLayer
370
18
48
1
60
0
100
AcDbLine
10
-2.2
20
-10.241692
30
0
11
-2.2
21
10.241692
31
0
39
0
210
0
220
0
230
1
0
LINE
5
FB
100
AcDbEntity
8
SK1
62
256
6
ByLayer
370
18
48
1
60
0
100
AcDbLine
10
-2.2
20
-15.024781
30
0
11
-2.2
21
-10.241692
31
0
39
0
210
0
220
0
230
1
0
LINE
5
FC
100
AcDbEntity
8
SK1
62
256
6
ByLayer
370
18
48
1
60
0
100
AcDbLine
10
-2
20
17.32515
30
0
11
-2
21
-17.32515
31
0
39
0
210
0
220
0
230
1
0
LINE
5
FD
100
AcDbEntity
8
SK1
62
256
6
ByLayer
370
18
48
1
60
0
100
AcDbLine
10
-0.4
20
-5.168667
30
0
11
-0.4
21
-17.324079
31
0
39
0
210
0
220
0
230
1
0
LINE
5
FE
100
AcDbEntity
8
SK1
62
256
6
ByLayer
370
18
48
1
60
0
100
AcDbLine
10
-28.500473
20
16.858585
30
0
11
-28.500473
21
-16.858922
31
0
39
0
210
0
220
0
230
1
0
LINE
5
FF
100
AcDbEntity
8
SK1
62
256
6
ByLayer
370
18
48
1
60
0
100
AcDbLine
10
-30
20
-15.941004
30
0
11
-30
21
15.941952
31
0
39
0
210
0
220
0
230
1
0
LINE
5
100
100
AcDbEntity
8
SK1
62
256
6
ByLayer
370
18
48
1
60
0
100
AcDbLine
10
-0.4
20
17.32408
30
0
11
-0.4
21
5.168667
31
0
39
0
210
0
220
0
230
1
0
MTEXT
5
19D
100
AcDbEntity
8
SK6
62
256
6
ByLayer
370
13
48
1
60
0
100
AcDbMText
10
8.219929
20
53.218289
30
0
210
0
220
0
230
1
1
\W0.7261;C5-570-3C 50 223-40L
40
3.175
41
0
44
1.084337
50
0
71
7
72
5
7
iso_b_vert
0
DIMENSION
5
1AB
100
AcDbEntity
8
2
62
256
6
ByLayer
370
13
48
1
60
0
100
AcDbDimension
2
DimnDraft3D1
10
223
20
38.29405
30
0
11
108.416908
21
38.29405
31
0
70
32
71
5
72
1
41
1
210
0
220
0
230
1
3
Standard
100
AcDbAlignedDimension
13
0
23
1.5875
33
0
14
223
24
-3.4125
34
0
50
0
100
AcDbRotatedDimension
1001
ACAD
1000
DSTYLE
1002
{
1070
   279
1070
     0
1070
   173
1070
     1
1070
   340
1005
19E
1070
   271
1070
     1
1070
   272
1070
     2
1070
    77
1070
     1
1070
    73
1070
     0
1070
   171
1070
     3
1070
   274
1070
     4
1070
   177
1070
     7
1070
   176
1070
     7
1070
   178
1070
     7
1070
    78
1070
     8
1070
    48
1040
-0.005
1070
    41
1041
3.175
1070
   147
1041
1.5875
1070
    42
1041
1.5875
1070
    44
1041
3.175
1070
   140
1041
3.175
1070
   343
1005
0
1070
   344
1005
0
1002
}
0
DIMENSION
5
1B7
100
AcDbEntity
8
SK2
62
256
6
ByLayer
370
13
48
1
60
0
100
AcDbDimension
2
DimnDraft3D2
10
-49.584338
20
-25
30
0
11
-49.584338
21
-6.659145
31
0
70
32
71
5
72
1
41
1
210
0
220
0
230
1
3
Standard
100
AcDbAlignedDimension
13
-1.2875
23
25
33
0
14
-1.2875
24
-25
34
0
50
90
100
AcDbRotatedDimension
1001
ACAD
1000
DSTYLE
1002
{
1070
    74
1070
     0
1070
   279
1070
     0
1070
   173
1070
     1
1070
   340
1005
19E
1070
   271
1070
     1
1070
   272
1070
     2
1070
    77
1070
     1
1070
    73
1070
     0
1070
   171
1070
     3
1070
   274
1070
     4
1070
   177
1070
     7
1070
   176
1070
     7
1070
   178
1070
     7
1070
    78
1070
     8
1070
    48
1040
-0.005
1070
    41
1041
3.175
1070
   147
1041
1.5875
1070
    42
1041
1.5875
1070
    44
1041
3.175
1070
   140
1041
3.175
1070
   343
1005
0
1070
   344
1005
0
1002
}
0
DIMENSION
5
1C2
100
AcDbEntity
8
SK2
62
256
6
ByLayer
370
13
48
1
60
0
100
AcDbDimension
2
DimnDraft3D3
10
261.435586
20
-25
30
0
11
261.435586
21
25.108767
31
0
70
32
71
5
72
1
41
1
210
0
220
0
230
1
3
Standard
100
AcDbAlignedDimension
13
223.9125
23
15
33
0
14
223.9125
24
-25
34
0
50
90
100
AcDbRotatedDimension
1001
ACAD
1000
DSTYLE
1002
{
1070
    74
1070
     0
1070
   279
1070
     0
1070
   173
1070
     1
1070
   340
1005
19E
1070
   271
1070
     1
1070
   272
1070
     2
1070
    77
1070
     1
1070
    73
1070
     0
1070
   171
1070
     3
1070
   274
1070
     4
1070
   177
1070
     7
1070
   176
1070
     7
1070
   178
1070
     7
1070
    78
1070
     8
1070
    48
1040
-0.005
1070
    41
1041
3.175
1070
   147
1041
1.5875
1070
    42
1041
1.5875
1070
    44
1041
3.175
1070
   140
1041
3.175
1070
   343
1005
0
1070
   344
1005
0
1002
}
0
ENDSEC
0
SECTION
2
OBJECTS
0
DICTIONARY
5
238
330
0
100
AcDbDictionary
280
0
281
1
3
ACAD_GROUP
350
239
3
ACAD_MLINESTYLE
350
23a
0
DICTIONARY
5
239
330
0
100
AcDbDictionary
280
0
281
1
0
DICTIONARY
5
23a
330
0
100
AcDbDictionary
280
0
281
1
3
Standard
350
18
0
MLINESTYLE
5
18
330
23a
100
AcDbMlineStyle
2
Standard
70
0
3

62
256
51
90
52
90
71
2
49
-0.5
62
256
6
ByLayer
49
0.5
62
256
6
ByLayer
0
RASTERVARIABLES
5
226
330

100
AcDbRasterVariables
90
0
70
1
71
1
72
1
0
ENDSEC
0
EOF
