0
SECTION
2
HEADER
9
$ACADVER
1
AC1015
9
$DWGCODEPAGE
3
ANSI_1252
9
$HANDSEED
5
286
9
$ANGBASE
50
0
9
$ANGDIR
70
0
9
$ATTMODE
70
1
9
$AUNITS
70
0
9
$AUPREC
70
0
9
$CECOLOR
62
256
9
$CELTSCALE
40
1
9
$CELTYPE
6
ByLayer
9
$CELWEIGHT
370
18
9
$CLAYER
8
0
9
$CMLJUST
70
0
9
$CMLSCALE
40
1
9
$CMLSTYLE
2
Standard
9
$DIMSTYLE
2
Standard
9
$TEXTSIZE
40
0.2
9
$TEXTSTYLE
7
Standard
9
$LUNITS
70
2
9
$LUPREC
70
4
9
$EXTNAMES
290
1
9
$INSUNITS
70
4
9
$LTSCALE
40
1
9
$LWDISPLAY
290
1
9
$PDMODE
70
0
9
$PDSIZE
40
0
9
$PLINEGEN
70
0
0
ENDSEC
0
SECTION
2
CLASSES
0
CLASS
1
RASTERVARIABLES
2
AcDbRasterVariables
3
ISM
90
0
280
0
281
0
0
ENDSEC
0
SECTION
2
TABLES
0
TABLE
2
VPORT
5
27c
100
AcDbSymbolTable
0
VPORT
5
1
100
AcDbSymbolTableRecord
100
AcDbViewportTableRecord
2
*Active
70
0
10
0
20
0
11
1
21
1
12
-1
22
1
13
0
23
0
14
0.5
24
0.5
15
10
25
10
16
0
26
0
36
1
17
0
27
0
37
0
0
ENDTAB
0
TABLE
2
LTYPE
5
27d
100
AcDbSymbolTable
0
LTYPE
5
14
100
AcDbSymbolTableRecord
100
AcDbLinetypeTableRecord
70
0
2
ByBlock
3

72
65
73
0
40
0
0
LTYPE
5
15
100
AcDbSymbolTableRecord
100
AcDbLinetypeTableRecord
70
0
2
ByLayer
3

72
65
73
0
40
0
0
LTYPE
5
16
100
AcDbSymbolTableRecord
100
AcDbLinetypeTableRecord
70
0
2
CONTINUOUS
3
Solid line
72
65
73
0
40
0
0
LTYPE
5
6A
100
AcDbSymbolTableRecord
100
AcDbLinetypeTableRecord
70
0
2
CENTER
3
____ _ ____ _ ____ _ ____
72
65
73
4
40
47.5
49
22
74
0
49
-8.5
74
0
49
8.5
74
0
49
-8.5
74
0
0
LTYPE
5
6B
100
AcDbSymbolTableRecord
100
AcDbLinetypeTableRecord
70
0
2
DASHED
3
__ __ __ __ __ __ __ __ __
72
65
73
2
40
25.72
49
12.86
74
0
49
-12.86
74
0
0
ENDTAB
0
TABLE
2
LAYER
5
27e
100
AcDbSymbolTable
0
LAYER
5
10
100
AcDbSymbolTableRecord
100
AcDbLayerTableRecord
2
0
70
0
62
7
6
CONTINUOUS
290
1
370
-3
390
0
0
LAYER
5
6D
100
AcDbSymbolTableRecord
100
AcDbLayerTableRecord
2
80
70
0
62
-6
6
CONTINUOUS
290
1
370
-3
390
0
0
LAYER
5
6F
100
AcDbSymbolTableRecord
100
AcDbLayerTableRecord
2
81
70
0
62
-3
6
CONTINUOUS
290
1
370
-3
390
0
0
LAYER
5
76
100
AcDbSymbolTableRecord
100
AcDbLayerTableRecord
2
1
70
0
62
4
6
CONTINUOUS
290
1
370
-3
390
0
0
LAYER
5
94
100
AcDbSymbolTableRecord
100
AcDbLayerTableRecord
2
4
70
0
62
-2
6
CENTER
290
1
370
-3
390
0
0
LAYER
5
1F0
100
AcDbSymbolTableRecord
100
AcDbLayerTableRecord
2
2
70
0
62
7
6
CONTINUOUS
290
1
370
-3
390
0
0
LAYER
5
268
100
AcDbSymbolTableRecord
100
AcDbLayerTableRecord
2
SK2
70
0
62
7
6
CONTINUOUS
290
1
370
-3
390
0
0
LAYER
5
269
100
AcDbSymbolTableRecord
100
AcDbLayerTableRecord
2
SK1
70
0
62
4
6
CONTINUOUS
290
1
370
-3
390
0
0
LAYER
5
26a
100
AcDbSymbolTableRecord
100
AcDbLayerTableRecord
2
SK4
70
0
62
2
6
CENTER
290
1
370
-3
390
0
0
LAYER
5
26b
100
AcDbSymbolTableRecord
100
AcDbLayerTableRecord
2
SK6
70
0
62
5
6
CONTINUOUS
290
1
370
-3
390
0
0
ENDTAB
0
TABLE
2
STYLE
5
27f
100
AcDbSymbolTable
0
STYLE
5
11
100
AcDbSymbolTableRecord
100
AcDbTextStyleTableRecord
2
Standard
3
txt
70
0
71
0
40
0
41
1
42
0
50
0
0
STYLE
5
1E1
100
AcDbSymbolTableRecord
100
AcDbTextStyleTableRecord
2
iso_b_vert
3
simplex.shx
70
0
71
0
40
0
41
1
42
0
50
0
0
STYLE
5
1E2
100
AcDbSymbolTableRecord
100
AcDbTextStyleTableRecord
2
DWGDirectTextStyle
3
simplex
70
0
71
0
40
0
41
1
42
0
50
0
0
ENDTAB
0
TABLE
2
DIMSTYLE
5
280
100
AcDbSymbolTable
100
AcDbDimStyleTable
0
DIMSTYLE
105
27
100
AcDbSymbolTableRecord
100
AcDbDimStyleTableRecord
2
Standard
70
0
3
<>
41
0.18
42
0.0625
44
0.18
140
0.18
147
0.09
73
0
74
0
77
1
271
2
275
0
278
52
280
0
340
11
0
ENDTAB
0
TABLE
2
VIEW
5
281
100
AcDbSymbolTable
0
ENDTAB
0
TABLE
2
UCS
5
282
100
AcDbSymbolTable
0
ENDTAB
0
TABLE
2
APPID
5
283
100
AcDbSymbolTable
0
APPID
5
12
100
AcDbSymbolTableRecord
100
AcDbRegAppTableRecord
2
ACAD
70
0
0
ENDTAB
0
TABLE
2
BLOCK_RECORD
5
284
100
AcDbSymbolTable
0
BLOCK_RECORD
5
1F
100
AcDbSymbolTableRecord
100
AcDbBlockTableRecord
2
*Model_Space
340
0
70
0
0
BLOCK_RECORD
5
1B
100
AcDbSymbolTableRecord
100
AcDbBlockTableRecord
2
*Paper_Space
340
0
70
0
0
BLOCK_RECORD
5
23
100
AcDbSymbolTableRecord
100
AcDbBlockTableRecord
2
*Paper_Space0
340
0
70
0
0
BLOCK_RECORD
5
1E4
100
AcDbSymbolTableRecord
100
AcDbBlockTableRecord
2
DimnDraft3D1
340
0
70
0
0
BLOCK_RECORD
5
1EE
100
AcDbSymbolTableRecord
100
AcDbBlockTableRecord
2
DimnDraft3D2
340
0
70
0
0
BLOCK_RECORD
5
1F9
100
AcDbSymbolTableRecord
100
AcDbBlockTableRecord
2
DimnDraft3D3
340
0
70
0
0
BLOCK_RECORD
5
204
100
AcDbSymbolTableRecord
100
AcDbBlockTableRecord
2
DimnDraft3D4
340
0
70
0
0
ENDTAB
0
ENDSEC
0
SECTION
2
BLOCKS
0
BLOCK
5
20
100
AcDbEntity
8
0
100
AcDbBlockBegin
2
*Model_Space
70
0
10
0
20
0
30
0
3
*Model_Space
0
ENDBLK
5
21
100
AcDbEntity
8
0
100
AcDbBlockEnd
0
BLOCK
5
1C
100
AcDbEntity
8
0
100
AcDbBlockBegin
2
*Paper_Space
70
0
10
0
20
0
30
0
3
*Paper_Space
0
ENDBLK
5
1D
100
AcDbEntity
8
0
100
AcDbBlockEnd
0
BLOCK
5
24
100
AcDbEntity
8
0
100
AcDbBlockBegin
2
*Paper_Space0
70
0
10
0
20
0
30
0
3
*Paper_Space0
0
ENDBLK
5
25
100
AcDbEntity
8
0
100
AcDbBlockEnd
0
BLOCK
5
1EB
100
AcDbEntity
8
0
100
AcDbBlockBegin
2
DimnDraft3D1
70
0
10
0
20
0
30
0
3
DimnDraft3D1
0
MTEXT
5
1E5
100
AcDbEntity
8
SK2
62
256
6
ByLayer
370
18
48
1
60
0
100
AcDbMText
10
118.013077
20
10.875
30
0
210
0
220
0
230
1
1
\W0.7121;5.0
40
3.5
41
0
44
1.084337
50
90
71
7
72
5
7
iso_b_vert
0
LINE
5
1E6
100
AcDbEntity
8
SK2
62
256
6
ByLayer
370
13
48
1
60
0
100
AcDbLine
10
99.5875
20
-5
30
0
11
120.888211
21
-5
31
0
39
0
210
0
220
0
230
1
0
LINE
5
1E7
100
AcDbEntity
8
SK2
62
256
6
ByLayer
370
13
48
1
60
0
100
AcDbLine
10
99.5875
20
0
30
0
11
120.888211
21
0
31
0
39
0
210
0
220
0
230
1
0
LINE
5
1E8
100
AcDbEntity
8
SK2
62
256
6
ByLayer
370
13
48
1
60
0
100
AcDbLine
10
118.888211
20
15.598932
30
0
11
118.888211
21
-13.75
31
0
39
0
210
0
220
0
230
1
0
SOLID
5
1E9
100
AcDbEntity
8
SK2
62
256
6
ByLayer
370
13
48
1
60
0
100
AcDbTrace
10
118.888211
20
-5
30
0
11
119.348994
21
-8.499998
31
0
12
118.427427
22
-8.500002
32
0
13
118.888211
23
-5
33
0
39
0
210
0
220
0
230
1
0
SOLID
5
1EA
100
AcDbEntity
8
SK2
62
256
6
ByLayer
370
13
48
1
60
0
100
AcDbTrace
10
118.888211
20
0
30
0
11
118.427427
21
3.499998
31
0
12
119.348994
22
3.500002
32
0
13
118.888211
23
0
33
0
39
0
210
0
220
0
230
1
0
ENDBLK
5
1EC
100
AcDbEntity
8
0
100
AcDbBlockEnd
0
BLOCK
5
1F6
100
AcDbEntity
8
0
100
AcDbBlockBegin
2
DimnDraft3D2
70
0
10
0
20
0
30
0
3
DimnDraft3D2
0
MTEXT
5
1EF
100
AcDbEntity
8
2
62
256
6
ByLayer
370
18
48
1
60
0
100
AcDbMText
10
45.767801
20
42.475134
30
0
210
0
220
0
230
1
1
\W0.7346;98.0
40
3.5
41
0
44
1.084337
50
0
71
7
72
5
7
iso_b_vert
0
LINE
5
1F1
100
AcDbEntity
8
2
62
256
6
ByLayer
370
13
48
1
60
0
100
AcDbLine
10
0
20
26.5875
30
0
11
0
21
43.6
31
0
39
0
210
0
220
0
230
1
0
LINE
5
1F2
100
AcDbEntity
8
2
62
256
6
ByLayer
370
13
48
1
60
0
100
AcDbLine
10
98
20
16.5875
30
0
11
98
21
43.6
31
0
39
0
210
0
220
0
230
1
0
LINE
5
1F3
100
AcDbEntity
8
2
62
256
6
ByLayer
370
13
48
1
60
0
100
AcDbLine
10
0
20
41.6
30
0
11
98
21
41.6
31
0
39
0
210
0
220
0
230
1
0
SOLID
5
1F4
100
AcDbEntity
8
2
62
256
6
ByLayer
370
13
48
1
60
0
100
AcDbTrace
10
0
20
41.6
30
0
11
3.499998
21
42.060784
31
0
12
3.500002
22
41.139216
32
0
13
0
23
41.6
33
0
39
0
210
0
220
0
230
1
0
SOLID
5
1F5
100
AcDbEntity
8
2
62
256
6
ByLayer
370
13
48
1
60
0
100
AcDbTrace
10
98
20
41.6
30
0
11
94.500002
21
41.139216
31
0
12
94.499998
22
42.060784
32
0
13
98
23
41.6
33
0
39
0
210
0
220
0
230
1
0
ENDBLK
5
1F7
100
AcDbEntity
8
0
100
AcDbBlockEnd
0
BLOCK
5
201
100
AcDbEntity
8
0
100
AcDbBlockBegin
2
DimnDraft3D3
70
0
10
0
20
0
30
0
3
DimnDraft3D3
0
MTEXT
5
1FA
100
AcDbEntity
8
SK2
62
256
6
ByLayer
370
18
48
1
60
0
100
AcDbMText
10
-53.350134
20
3.159534
30
0
210
0
220
0
230
1
1
\W0.6740;50
40
3.5
41
0
44
1.084337
50
90
71
7
72
5
7
iso_b_vert
0
MTEXT
5
1FB
100
AcDbEntity
8
SK2
62
256
6
ByLayer
370
18
48
1
60
0
100
AcDbMText
10
-53.350134
20
-3.813122
30
0
210
0
220
0
230
1
1
%%c
40
3.5
41
0
44
1.084337
50
90
71
7
72
5
7
iso_b_vert
0
LINE
5
1FC
100
AcDbEntity
8
SK2
62
256
6
ByLayer
370
13
48
1
60
0
100
AcDbLine
10
-1.5875
20
25
30
0
11
-53.6
21
25
31
0
39
0
210
0
220
0
230
1
0
LINE
5
1FD
100
AcDbEntity
8
SK2
62
256
6
ByLayer
370
13
48
1
60
0
100
AcDbLine
10
-1.5875
20
-25
30
0
11
-53.6
21
-25
31
0
39
0
210
0
220
0
230
1
0
LINE
5
1FE
100
AcDbEntity
8
SK2
62
256
6
ByLayer
370
13
48
1
60
0
100
AcDbLine
10
-51.6
20
25
30
0
11
-51.6
21
-25
31
0
39
0
210
0
220
0
230
1
0
SOLID
5
1FF
100
AcDbEntity
8
SK2
62
256
6
ByLayer
370
13
48
1
60
0
100
AcDbTrace
10
-51.6
20
25
30
0
11
-51.139216
21
21.500002
31
0
12
-52.060784
22
21.499998
32
0
13
-51.6
23
25
33
0
39
0
210
0
220
0
230
1
0
SOLID
5
200
100
AcDbEntity
8
SK2
62
256
6
ByLayer
370
13
48
1
60
0
100
AcDbTrace
10
-51.6
20
-25
30
0
11
-52.060784
21
-21.500002
31
0
12
-51.139216
22
-21.499998
32
0
13
-51.6
23
-25
33
0
39
0
210
0
220
0
230
1
0
ENDBLK
5
202
100
AcDbEntity
8
0
100
AcDbBlockEnd
0
BLOCK
5
20C
100
AcDbEntity
8
0
100
AcDbBlockBegin
2
DimnDraft3D4
70
0
10
0
20
0
30
0
3
DimnDraft3D4
0
MTEXT
5
205
100
AcDbEntity
8
SK2
62
256
6
ByLayer
370
18
48
1
60
0
100
AcDbMText
10
127.138077
20
-2.024733
30
0
210
0
220
0
230
1
1
\W0.7361;40
40
3.5
41
0
44
1.084337
50
90
71
7
72
5
7
iso_b_vert
0
MTEXT
5
206
100
AcDbEntity
8
SK2
62
256
6
ByLayer
370
18
48
1
60
0
100
AcDbMText
10
127.138077
20
-8.997389
30
0
210
0
220
0
230
1
1
%%c
40
3.5
41
0
44
1.084337
50
90
71
7
72
5
7
iso_b_vert
0
LINE
5
207
100
AcDbEntity
8
SK2
62
256
6
ByLayer
370
13
48
1
60
0
100
AcDbLine
10
99.5875
20
15
30
0
11
130.888211
21
15
31
0
39
0
210
0
220
0
230
1
0
LINE
5
208
100
AcDbEntity
8
SK2
62
256
6
ByLayer
370
13
48
1
60
0
100
AcDbLine
10
99.5875
20
-25
30
0
11
130.888211
21
-25
31
0
39
0
210
0
220
0
230
1
0
LINE
5
209
100
AcDbEntity
8
SK2
62
256
6
ByLayer
370
13
48
1
60
0
100
AcDbLine
10
128.888211
20
15
30
0
11
128.888211
21
-25
31
0
39
0
210
0
220
0
230
1
0
SOLID
5
20A
100
AcDbEntity
8
SK2
62
256
6
ByLayer
370
13
48
1
60
0
100
AcDbTrace
10
128.888211
20
15
30
0
11
129.348994
21
11.500002
31
0
12
128.427427
22
11.499998
32
0
13
128.888211
23
15
33
0
39
0
210
0
220
0
230
1
0
SOLID
5
20B
100
AcDbEntity
8
SK2
62
256
6
ByLayer
370
13
48
1
60
0
100
AcDbTrace
10
128.888211
20
-25
30
0
11
128.427427
21
-21.500002
31
0
12
129.348994
22
-21.499998
32
0
13
128.888211
23
-25
33
0
39
0
210
0
220
0
230
1
0
ENDBLK
5
20D
100
AcDbEntity
8
0
100
AcDbBlockEnd
0
ENDSEC
0
SECTION
2
ENTITIES
0
ARC
5
121
100
AcDbEntity
8
1
62
256
6
ByLayer
370
18
48
1
60
0
100
AcDbCircle
39
0
10
107.9255
20
-10.499495
30
0
40
0.6
210
0
220
0
230
1
100
AcDbArc
50
0
51
90
0
ARC
5
122
100
AcDbEntity
8
1
62
256
6
ByLayer
370
18
48
1
60
0
100
AcDbCircle
39
0
10
107.9255
20
0.499495
30
0
40
0.6
210
0
220
0
230
1
100
AcDbArc
50
270
51
0
0
ARC
5
123
100
AcDbEntity
8
1
62
256
6
ByLayer
370
18
48
1
60
0
100
AcDbCircle
39
0
10
107.9255
20
-19.299495
30
0
40
0.6
210
0
220
0
230
1
100
AcDbArc
50
270
51
0
0
ARC
5
124
100
AcDbEntity
8
1
62
256
6
ByLayer
370
18
48
1
60
0
100
AcDbCircle
39
0
10
-102.4255
20
-11.649495
30
0
40
0.25
210
0
220
0
230
-1
100
AcDbArc
50
180
51
270
0
ARC
5
125
100
AcDbEntity
8
1
62
256
6
ByLayer
370
18
48
1
60
0
100
AcDbCircle
39
0
10
-102.4255
20
8.149495
30
0
40
0.25
210
0
220
0
230
-1
100
AcDbArc
50
180
51
270
0
ARC
5
126
100
AcDbEntity
8
1
62
256
6
ByLayer
370
18
48
1
60
0
100
AcDbCircle
39
0
10
107.9255
20
9.299495
30
0
40
0.6
210
0
220
0
230
1
100
AcDbArc
50
0
51
90
0
ARC
5
127
100
AcDbEntity
8
1
62
256
6
ByLayer
370
18
48
1
60
0
100
AcDbCircle
39
0
10
107.9255
20
0.499495
30
0
40
0.6
210
0
220
0
230
1
100
AcDbArc
50
270
51
0
0
ARC
5
128
100
AcDbEntity
8
1
62
256
6
ByLayer
370
18
48
1
60
0
100
AcDbCircle
39
0
10
-102.4255
20
8.149495
30
0
40
0.25
210
0
220
0
230
-1
100
AcDbArc
50
180
51
270
0
ARC
5
129
100
AcDbEntity
8
1
62
256
6
ByLayer
370
18
48
1
60
0
100
AcDbCircle
39
0
10
-93.8
20
16
30
0
40
1
210
0
220
0
230
-1
100
AcDbArc
50
270
51
345
0
ARC
5
12A
100
AcDbEntity
8
1
62
256
6
ByLayer
370
18
48
1
60
0
100
AcDbCircle
39
0
10
-102.4255
20
1.649495
30
0
40
0.25
210
0
220
0
230
-1
100
AcDbArc
50
90
51
180
0
ARC
5
12B
100
AcDbEntity
8
1
62
256
6
ByLayer
370
18
48
1
60
0
100
AcDbCircle
39
0
10
-102.4255
20
-18.149495
30
0
40
0.25
210
0
220
0
230
-1
100
AcDbArc
50
90
51
180
0
ARC
5
12C
100
AcDbEntity
8
1
62
256
6
ByLayer
370
18
48
1
60
0
100
AcDbCircle
39
0
10
107.9255
20
9.299495
30
0
40
0.6
210
0
220
0
230
1
100
AcDbArc
50
0
51
90
0
ARC
5
12D
100
AcDbEntity
8
1
62
256
6
ByLayer
370
18
48
1
60
0
100
AcDbCircle
39
0
10
-102.4255
20
1.649495
30
0
40
0.25
210
0
220
0
230
-1
100
AcDbArc
50
90
51
180
0
ELLIPSE
5
12E
100
AcDbEntity
8
1
62
256
6
ByLayer
370
18
48
1
60
0
100
AcDbEllipse
10
21.056258
20
0
30
0
11
11.7092723497283
21
24.6771864409385
31
0
210
0
220
0
230
-1
40
0.341999
41
-2.97437958168083
42
-2.05975995310056
0
ELLIPSE
5
12F
100
AcDbEntity
8
1
62
256
6
ByLayer
370
18
48
1
60
0
100
AcDbEllipse
10
-1.056258
20
0
30
0
11
11.7092723497278
21
24.6771864409382
31
0
210
0
220
0
230
-1
40
0.341999
41
0.167213071908978
42
1.08183270048925
0
ELLIPSE
5
130
100
AcDbEntity
8
1
62
256
6
ByLayer
370
18
48
1
60
0
100
AcDbEllipse
10
21.056258
20
0
30
0
11
11.7092723497284
21
-24.6771864409387
31
0
210
0
220
0
230
-1
40
0.341999
41
2.05975995310056
42
2.97437958168082
0
ELLIPSE
5
131
100
AcDbEntity
8
1
62
256
6
ByLayer
370
18
48
1
60
0
100
AcDbEllipse
10
-1.056258
20
0
30
0
11
11.7092723497269
21
-24.6771864409372
31
0
210
0
220
0
230
-1
40
0.341999
41
-1.08183270048929
42
-0.16721307190898
0
POINT
5
6C
100
AcDbEntity
8
80
62
256
6
ByLayer
370
18
48
1
60
0
100
AcDbPoint
10
0
20
0
30
0
39
0
210
0
220
0
230
1
50
360
0
POINT
5
6E
100
AcDbEntity
8
81
62
256
6
ByLayer
370
18
48
1
60
0
100
AcDbPoint
10
98
20
-5
30
0
39
0
210
0
220
0
230
1
50
360
0
POINT
5
70
100
AcDbEntity
8
SK2
62
256
6
ByLayer
370
18
48
1
60
1
100
AcDbPoint
10
0
20
25
30
0
39
0
210
0
220
0
230
1
50
360
0
POINT
5
72
100
AcDbEntity
8
SK2
62
256
6
ByLayer
370
18
48
1
60
1
100
AcDbPoint
10
0
20
-25
30
0
39
0
210
0
220
0
230
1
50
360
0
POINT
5
73
100
AcDbEntity
8
SK2
62
256
6
ByLayer
370
18
48
1
60
1
100
AcDbPoint
10
98
20
15
30
0
39
0
210
0
220
0
230
1
50
360
0
POINT
5
74
100
AcDbEntity
8
SK2
62
256
6
ByLayer
370
18
48
1
60
1
100
AcDbPoint
10
98
20
-25
30
0
39
0
210
0
220
0
230
1
50
360
0
SPLINE
5
132
100
AcDbEntity
8
SK1
62
256
6
ByLayer
370
18
48
1
60
0
100
AcDbSpline
70
4
71
2
72
6
73
3
40
0
40
0
40
0
40
1
40
1
40
1
41
1
10
-28.5
20
-16.8545316091351
30
0
41
1
10
-15.3499999982428
20
-17.1846808487114
30
0
41
1
10
-2.19999999999999
20
-17.5148290000611
30
0
0
SPLINE
5
133
100
AcDbEntity
8
SK1
62
256
6
ByLayer
370
18
48
1
60
0
100
AcDbSpline
70
4
71
2
72
6
73
3
40
0
40
0
40
0
40
1
40
1
40
1
41
1
10
-30
20
-15.9931874249212
30
0
41
1
10
-29.2499999297894
20
-16.425998517687
30
0
41
1
10
-28.5
20
-16.8588088951667
30
0
0
SPLINE
5
134
100
AcDbEntity
8
SK1
62
256
6
ByLayer
370
18
48
1
60
0
100
AcDbSpline
70
4
71
3
72
13
73
9
40
0
40
0
40
0
40
0
40
0.239406556343043
40
0.368294011542703
40
0.499927738071867
40
0.63157346105366
40
0.760494011740437
40
1
40
1
40
1
40
1
41
1
10
-2.19999999999999
20
-17.5200962264206
30
0
41
1
10
-2.19909121920765
20
-17.494049013599
30
0
41
1
10
-2.19103207709688
20
-17.4566916816953
30
0
41
1
10
-2.16563490775658
20
-17.4104934409328
30
0
41
1
10
-2.13886243910253
20
-17.379225724067
30
0
41
1
10
-2.10627567684699
20
-17.3540697297104
30
0
41
1
10
-2.05883863807622
20
-17.3310363194718
30
0
41
1
10
-2.0211092598112
20
-17.3248666993254
30
0
41
1
10
-1.99503997793928
20
-17.3252688086104
30
0
0
SPLINE
5
135
100
AcDbEntity
8
SK1
62
256
6
ByLayer
370
18
48
1
60
0
100
AcDbSpline
70
4
71
2
72
6
73
3
40
0
40
0
40
0
40
1
40
1
40
1
41
1
10
-1.99503997793928
20
-17.3200478774323
30
0
41
1
10
-1.19497688886898
20
-17.340134563042
30
0
41
1
10
-0.394913799811292
20
-17.3602212447177
30
0
0
SPLINE
5
136
100
AcDbEntity
8
SK1
62
256
6
ByLayer
370
18
48
1
60
0
100
AcDbSpline
70
4
71
3
72
11
73
7
40
0
40
0
40
0
40
0
40
0.242589954178666
40
0.502544718947617
40
0.761087572808693
40
1
40
1
40
1
40
1
41
1
10
-0.200000000000017
20
17.5545583467653
30
0
41
1
10
-0.20095788927037
20
17.528914023106
30
0
41
1
10
-0.211248315226271
20
17.4799022728817
30
0
41
1
10
-0.255179720944199
20
17.413949611085
30
0
41
1
10
-0.321113897423828
20
17.3707504109673
30
0
41
1
10
-0.369683795840217
20
17.3607068368228
30
0
41
1
10
-0.394913799811292
20
17.3597802673791
30
0
0
SPLINE
5
137
100
AcDbEntity
8
SK1
62
256
6
ByLayer
370
18
48
1
60
0
100
AcDbSpline
70
4
71
2
72
6
73
3
40
0
40
0
40
0
40
1
40
1
40
1
41
1
10
-2.19999999999999
20
17.5148287077807
30
0
41
1
10
-15.3499999982431
20
17.1846805562453
30
0
41
1
10
-28.5
20
16.8545313165689
30
0
0
SPLINE
5
138
100
AcDbEntity
8
SK1
62
256
6
ByLayer
370
18
48
1
60
0
100
AcDbSpline
70
4
71
3
72
13
73
9
40
0
40
0
40
0
40
0
40
0.239505987673052
40
0.368426538155646
40
0.500072261058253
40
0.631705987654754
40
0.760593443052828
40
1
40
1
40
1
40
1
41
1
10
-1.99503997793928
20
17.3252686883829
30
0
41
1
10
-2.02110925982339
20
17.3248665791032
30
0
41
1
10
-2.05883863809936
20
17.3310361992814
30
0
41
1
10
-2.10627567686481
20
17.3540696096461
30
0
41
1
10
-2.13886243911924
20
17.3792256041407
30
0
41
1
10
-2.16563490776915
20
17.4104933211739
30
0
41
1
10
-2.19103207710595
20
17.4566915621889
30
0
41
1
10
-2.19909121921685
20
17.4940488942773
30
0
41
1
10
-2.19999999999999
20
17.5200961072231
30
0
0
SPLINE
5
139
100
AcDbEntity
8
SK1
62
256
6
ByLayer
370
18
48
1
60
0
100
AcDbSpline
70
4
71
2
72
6
73
3
40
0
40
0
40
0
40
1
40
1
40
1
41
1
10
-28.5
20
16.8588088260863
30
0
41
1
10
-29.2499999297871
20
16.4259984461422
30
0
41
1
10
-30
20
15.9931873508859
30
0
0
SPLINE
5
13A
100
AcDbEntity
8
SK1
62
256
6
ByLayer
370
18
48
1
60
0
100
AcDbSpline
70
4
71
2
72
6
73
3
40
0
40
0
40
0
40
1
40
1
40
1
41
1
10
-0.394913799811292
20
17.3602209523781
30
0
41
1
10
-1.19497688886898
20
17.3401342706943
30
0
41
1
10
-1.99503997793928
20
17.3200475850767
30
0
0
SPLINE
5
13B
100
AcDbEntity
8
SK1
62
256
6
ByLayer
370
18
48
1
60
0
100
AcDbSpline
70
4
71
3
72
11
73
7
40
0
40
0
40
0
40
0
40
0.238912427113115
40
0.497455280942484
40
0.757410045745039
40
1
40
1
40
1
40
1
41
1
10
-0.394913799811292
20
-17.3597801301672
30
0
41
1
10
-0.369683795838398
20
-17.3607066995757
30
0
41
1
10
-0.321113897416467
20
-17.3707502735068
30
0
41
1
10
-0.255179720936411
20
-17.4139494728385
30
0
41
1
10
-0.211248315224623
20
-17.4799021334557
30
0
41
1
10
-0.20095788926875
20
-17.5289138828002
30
0
41
1
10
-0.200000000000017
20
-17.5545582060013
30
0
0
SPLINE
5
13C
100
AcDbEntity
8
SK1
62
256
6
ByLayer
370
18
48
1
60
0
100
AcDbSpline
70
4
71
3
72
45
73
41
40
0
40
0
40
0
40
0
40
0.0183638457703329
40
0.0466953502046295
40
0.0750268546389262
40
0.103358359073223
40
0.160021367941816
40
0.216684376810409
40
0.245015881244706
40
0.273347385679003
40
0.301678890113299
40
0.330010394547596
40
0.358341898981893
40
0.386673403416189
40
0.415004907850486
40
0.429170660067634
40
0.443336412284782
40
0.471667916719079
40
0.485833668936227
40
0.492916545044802
40
0.499999421153376
40
0.50708229726195
40
0.514165173370524
40
0.528330925587672
40
0.556662430021969
40
0.570828182239117
40
0.584993934456266
40
0.613325438890562
40
0.641656943324859
40
0.669988447759156
40
0.698319952193452
40
0.726651456627749
40
0.754982961062046
40
0.783314465496342
40
0.839977474364936
40
0.896640483233529
40
0.924971987667825
40
0.953303492102122
40
0.981634996536419
40
1
40
1
40
1
40
1
41
1
10
-30
20
-15.9933157813092
30
0
41
1
10
-30
20
-15.9901937762159
30
0
41
1
10
-30
20
-15.9552410444495
30
0
41
1
10
-30
20
-15.7965331178349
30
0
41
1
10
-30
20
-15.4890632796306
30
0
41
1
10
-30
20
-14.9202435431779
30
0
41
1
10
-30
20
-13.9430327235572
30
0
41
1
10
-30
20
-12.6450678356931
30
0
41
1
10
-30
20
-11.42137036219
30
0
41
1
10
-30
20
-10.4224345134304
30
0
41
1
10
-30
20
-9.34179268341313
30
0
41
1
10
-30
20
-8.18272261240932
30
0
41
1
10
-30
20
-6.94914665451279
30
0
41
1
10
-30
20
-5.64597210397028
30
0
41
1
10
-30
20
-4.51272453462846
30
0
41
1
10
-30
20
-3.56968201835699
30
0
41
1
10
-30
20
-2.6153059233497
30
0
41
1
10
-30
20
-1.67591474804155
30
0
41
1
10
-30
20
-0.833341855678952
30
0
41
1
10
-30
20
-0.354131622770439
30
0
41
1
10
-30
20
4.002277763E-07
30
0
41
1
10
-30
20
0.354131996183753
30
0
41
1
10
-30
20
0.8333415404785
30
0
41
1
10
-30
20
1.675914880346
30
0
41
1
10
-30
20
2.61530613672116
30
0
41
1
10
-30
20
3.56968220154852
30
0
41
1
10
-30
20
4.51272494557483
30
0
41
1
10
-30
20
5.64597176408017
30
0
41
1
10
-30
20
6.94914704263562
30
0
41
1
10
-30
20
8.18272269843544
30
0
41
1
10
-30
20
9.34179238961875
30
0
41
1
10
-30
20
10.4224348167646
30
0
41
1
10
-30
20
11.421370391299
30
0
41
1
10
-30
20
12.6450674903883
30
0
41
1
10
-30
20
13.9430330734596
30
0
41
1
10
-30
20
14.9202427964398
30
0
41
1
10
-30
20
15.4890634139888
30
0
41
1
10
-30
20
15.7965327535813
30
0
41
1
10
-30
20
15.9552429480861
30
0
41
1
10
-30
20
15.9901952885781
30
0
41
1
10
-30
20
15.9933162188048
30
0
0
SPLINE
5
13D
100
AcDbEntity
8
SK1
62
256
6
ByLayer
370
18
48
1
60
0
100
AcDbSpline
70
4
71
3
72
20
73
16
40
0
40
0
40
0
40
0
40
0.0411527557889171
40
0.113602951177307
40
0.186053146565697
40
0.258503341954087
40
0.403403732730867
40
0.548304123507647
40
0.620754318896037
40
0.693204514284427
40
0.765654709672817
40
0.838104905061207
40
0.910555100449597
40
0.983005295837987
40
1
40
1
40
1
40
1
41
1
10
-0.200000000000017
20
17.5678954941522
30
0
41
1
10
-0.200000000000017
20
17.5625116388382
30
0
41
1
10
-0.200000000000017
20
17.5230998409311
30
0
41
1
10
-0.200000000000017
20
17.3563637126861
30
0
41
1
10
-0.200000000000017
20
17.025651689934
30
0
41
1
10
-0.200000000000017
20
16.4197046477863
30
0
41
1
10
-0.200000000000017
20
15.3750949753851
30
0
41
1
10
-0.200000000000017
20
13.9904902630881
30
0
41
1
10
-0.200000000000017
20
12.6940608651256
30
0
41
1
10
-0.200000000000017
20
11.6298862423998
30
0
41
1
10
-0.200000000000017
20
10.4757654026211
30
0
41
1
10
-0.200000000000017
20
9.23334543659817
30
0
41
1
10
-0.200000000000017
20
7.90375553528958
30
0
41
1
10
-0.200000000000017
20
6.84892354046241
30
0
41
1
10
-0.200000000000017
20
6.24422115048941
30
0
41
1
10
-0.200000000000017
20
6.1285406827036
30
0
0
SPLINE
5
13E
100
AcDbEntity
8
SK1
62
256
6
ByLayer
370
13
48
1
60
0
100
AcDbSpline
70
4
71
3
72
20
73
16
40
0
40
0
40
0
40
0
40
0.0337680662298193
40
0.104477923104353
40
0.175187779978886
40
0.245897636853419
40
0.387317350602486
40
0.528737064351553
40
0.599446921226086
40
0.67015677810062
40
0.740866634975153
40
0.811576491849686
40
0.88228634872422
40
0.952996205598753
40
1
40
1
40
1
40
1
41
1
10
-0.394913799811292
20
17.3598229030557
30
0
41
1
10
-0.394913799811292
20
17.3529963885561
30
0
41
1
10
-0.394913799811292
20
17.3128915920427
30
0
41
1
10
-0.394913799811292
20
17.1536376810083
30
0
41
1
10
-0.394913799811292
20
16.8259464323311
30
0
41
1
10
-0.394913799811292
20
16.2248245878661
30
0
41
1
10
-0.394913799811292
20
15.1889746622834
30
0
41
1
10
-0.394913799811292
20
13.8156301488903
30
0
41
1
10
-0.394913799811292
20
12.5286535254346
30
0
41
1
10
-0.394913799811292
20
11.4729578043957
30
0
41
1
10
-0.394913799811292
20
10.3283867090429
30
0
41
1
10
-0.394913799811292
20
9.09679950047928
30
0
41
1
10
-0.394913799811292
20
7.77968825069564
30
0
41
1
10
-0.394913799811292
20
6.53483606378791
30
0
41
1
10
-0.394913799811292
20
5.71905630139051
30
0
41
1
10
-0.394913799811292
20
5.38724490303878
30
0
0
SPLINE
5
13F
100
AcDbEntity
8
SK1
62
256
6
ByLayer
370
18
48
1
60
0
100
AcDbSpline
70
4
71
3
72
30
73
26
40
0
40
0
40
0
40
0
40
0.125
40
0.125
40
0.25
40
0.25
40
0.375
40
0.375
40
0.40625
40
0.40625
40
0.4375
40
0.4375
40
0.5
40
0.5
40
0.5625
40
0.5625
40
0.625
40
0.625
40
0.75
40
0.75
40
0.8125
40
0.8125
40
0.875
40
0.875
40
1
40
1
40
1
40
1
41
1
10
-1.30710678118655
20
-3.91808269248793
30
0
41
1
10
-1.36342296385064
20
-3.60715642249775
30
0
41
1
10
-1.41678689271535
20
-3.29287187674927
30
0
41
1
10
-1.51435013598103
20
-2.65639932915295
30
0
41
1
10
-1.55846884179033
20
-2.33418302861881
30
0
41
1
10
-1.63296978491243
20
-1.68004719877024
30
0
41
1
10
-1.66337509736468
20
-1.34813830750838
30
0
41
1
10
-1.68970631303114
20
-0.925864288812164
30
0
41
1
10
-1.69439129498724
20
-0.840882546248253
30
0
41
1
10
-1.70245250680873
20
-0.670897601193587
30
0
41
1
10
-1.70582437938029
20
-0.586052568901891
30
0
41
1
10
-1.71388361409092
20
-0.331968562037986
30
0
41
1
10
-1.71646782396985
20
-0.163187101305908
30
0
41
1
10
-1.71636335941633
20
0.173213348331899
30
0
41
1
10
-1.71367008139578
20
0.34083166255536
30
0
41
1
10
-1.70293626023371
20
0.674902568806147
30
0
41
1
10
-1.69494665814693
20
0.841362289300548
30
0
41
1
10
-1.66399327242203
20
1.33914312869118
30
0
41
1
10
-1.63408221528164
20
1.66887252592326
30
0
41
1
10
-1.57830442880825
20
2.16069253761427
30
0
41
1
10
-1.55787000582583
20
2.32431800389296
30
0
41
1
10
-1.51394731043968
20
2.65007047288915
30
0
41
1
10
-1.49055743488208
20
2.81150726182858
30
0
41
1
10
-1.41696122519085
20
3.29195215520878
30
0
41
1
10
-1.3634250101253
20
3.60714571014046
30
0
41
1
10
-1.30710678118655
20
3.91808311129771
30
0
0
SPLINE
5
140
100
AcDbEntity
8
SK1
62
256
6
ByLayer
370
13
48
1
60
0
100
AcDbSpline
70
4
71
3
72
45
73
41
40
0
40
0
40
0
40
0
40
0.0143964898098443
40
0.0429613814372424
40
0.0715262730646405
40
0.100091164692039
40
0.157220947946835
40
0.214350731201631
40
0.242915622829029
40
0.271480514456427
40
0.300045406083826
40
0.328610297711224
40
0.357175189338622
40
0.38574008096602
40
0.414304972593418
40
0.428587418407117
40
0.442869864220816
40
0.471434755848214
40
0.485717201661913
40
0.492858424568763
40
0.499999647475612
40
0.507140870382462
40
0.514282093289311
40
0.52856453910301
40
0.557129430730409
40
0.571411876544108
40
0.585694322357807
40
0.614259213985205
40
0.642824105612603
40
0.671388997240001
40
0.699953888867399
40
0.728518780494797
40
0.757083672122195
40
0.785648563749593
40
0.84277834700439
40
0.899908130259186
40
0.928473021886584
40
0.957037913513982
40
0.98560280514138
40
1
40
1
40
1
40
1
41
1
10
-1.99503997793926
20
17.3207234224445
30
0
41
1
10
-1.99503997793928
20
17.3142492859139
30
0
41
1
10
-1.99503997793931
20
17.2745092190208
30
0
41
1
10
-1.99503997793928
20
17.1138751154123
30
0
41
1
10
-1.99503997793928
20
16.7867763596001
30
0
41
1
10
-1.99503997793928
20
16.1866009265939
30
0
41
1
10
-1.99503997793928
20
15.1524691326423
30
0
41
1
10
-1.99503997793928
20
13.7813331880937
30
0
41
1
10
-1.99503997793928
20
12.4962106263157
30
0
41
1
10
-1.99503997793928
20
11.4421779521075
30
0
41
1
10
-1.99503997793928
20
10.2994799380558
30
0
41
1
10
-1.99503997793928
20
9.07001746022104
30
0
41
1
10
-1.99503997793928
20
7.75535376586828
30
0
41
1
10
-1.99503997793928
20
6.35676341745574
30
0
41
1
10
-1.99503997793928
20
5.12318926412425
30
0
41
1
10
-1.99503997793928
20
4.09531236648536
30
0
41
1
10
-1.99503997793928
20
3.04236295320666
30
0
41
1
10
-1.99503997793928
20
1.95640625727882
30
0
41
1
10
-1.99503997793928
20
0.981337226851394
30
0
41
1
10
-1.99503997793928
20
0.420771319084707
30
0
41
1
10
-1.99503997793928
20
6.88173714E-08
30
0
41
1
10
-1.99503997793928
20
-0.420771221994357
30
0
41
1
10
-1.99503997793928
20
-0.981337209960486
30
0
41
1
10
-1.99503997793928
20
-1.95640624898675
30
0
41
1
10
-1.99503997793928
20
-3.04236280324244
30
0
41
1
10
-1.99503997793928
20
-4.0953123914187
30
0
41
1
10
-1.99503997793928
20
-5.12318891405303
30
0
41
1
10
-1.99503997793928
20
-6.35676356337379
30
0
41
1
10
-1.99503997793928
20
-7.75535358782813
30
0
41
1
10
-1.99503997793928
20
-9.07001720037854
30
0
41
1
10
-1.99503997793928
20
-10.2994801886281
30
0
41
1
10
-1.99503997793928
20
-11.4421777785236
30
0
41
1
10
-1.99503997793928
20
-12.4962104807244
30
0
41
1
10
-1.99503997793928
20
-13.7813335607202
30
0
41
1
10
-1.99503997793928
20
-15.152468715744
30
0
41
1
10
-1.99503997793928
20
-16.1866016937524
30
0
41
1
10
-1.99503997793928
20
-16.786776230537
30
0
41
1
10
-1.99503997793928
20
-17.1138754381146
30
0
41
1
10
-1.99503997793928
20
-17.274511359378
30
0
41
1
10
-1.99503997793928
20
-17.3142508688424
30
0
41
1
10
-1.99503997793928
20
-17.3207245780839
30
0
0
SPLINE
5
141
100
AcDbEntity
8
SK1
62
256
6
ByLayer
370
18
48
1
60
0
100
AcDbSpline
70
4
71
3
72
32
73
28
40
0
40
0
40
0
40
0
40
0.0312499999999992
40
0.0312499999999992
40
0.0624999999999984
40
0.0624999999999984
40
0.0937499999999977
40
0.0937499999999977
40
0.124999999999997
40
0.124999999999997
40
0.156249999999996
40
0.156249999999996
40
0.187499999999996
40
0.187499999999996
40
0.249999999999996
40
0.249999999999996
40
0.312499999999997
40
0.312499999999997
40
0.374999999999998
40
0.374999999999998
40
0.499999999999999
40
0.499999999999999
40
0.625
40
0.625
40
0.75
40
0.75
40
1
40
1
40
1
40
1
41
1
10
-0.394913799811292
20
-5.38724256160785
30
0
41
1
10
-0.411056331481689
20
-5.40096705709072
30
0
41
1
10
-0.428167571421085
20
-5.41359596702645
30
0
41
1
10
-0.465243842399843
20
-5.43564998709786
30
0
41
1
10
-0.485181785775097
20
-5.44498472977625
30
0
41
1
10
-0.527084358655003
20
-5.45802310642136
30
0
41
1
10
-0.549712129856715
20
-5.46177888945653
30
0
41
1
10
-0.594583752204926
20
-5.46190211761595
30
0
41
1
10
-0.617332847382016
20
-5.45828493727092
30
0
41
1
10
-0.659998030986742
20
-5.4452224540847
30
0
41
1
10
-0.680380496424021
20
-5.43574711585012
30
0
41
1
10
-0.717826906306072
20
-5.41366379171245
30
0
41
1
10
-0.735187935399324
20
-5.40097830060952
30
0
41
1
10
-0.784458452137216
20
-5.35950654192547
30
0
41
1
10
-0.812482621038868
20
-5.32846061496338
30
0
41
1
10
-0.863582196387256
20
-5.26323158283498
30
0
41
1
10
-0.886670718365792
20
-5.22873034693703
30
0
41
1
10
-0.929029640850729
20
-5.15857889561175
30
0
41
1
10
-0.948347177186207
20
-5.12284414993096
30
0
41
1
10
-1.00255771394654
20
-5.01423503792978
30
0
41
1
10
-1.03377854809037
20
-4.93997760418031
30
0
41
1
10
-1.09059413059555
20
-4.78904752584498
30
0
41
1
10
-1.11609621830422
20
-4.71234577760799
30
0
41
1
10
-1.16310814037331
20
-4.55700258195827
30
0
41
1
10
-1.18457252825829
20
-4.4784107078415
30
0
41
1
10
-1.24415567180659
20
-4.24116014101821
30
0
41
1
10
-1.2776606709638
20
-4.08065708556941
30
0
41
1
10
-1.30710678118655
20
-3.91808269248793
30
0
0
SPLINE
5
142
100
AcDbEntity
8
SK1
62
256
6
ByLayer
370
18
48
1
60
0
100
AcDbSpline
70
4
71
3
72
32
73
28
40
0
40
0
40
0
40
0
40
0.249999999999998
40
0.249999999999998
40
0.374999999999997
40
0.374999999999997
40
0.499999999999997
40
0.499999999999997
40
0.624999999999997
40
0.624999999999997
40
0.687499999999996
40
0.687499999999996
40
0.749999999999996
40
0.749999999999996
40
0.812499999999995
40
0.812499999999995
40
0.843749999999996
40
0.843749999999996
40
0.874999999999997
40
0.874999999999997
40
0.890624999999997
40
0.890624999999997
40
0.906249999999998
40
0.906249999999998
40
0.937499999999998
40
0.937499999999998
40
1
40
1
40
1
40
1
41
1
10
-1.30710678118655
20
3.91808311129773
30
0
41
1
10
-1.27767538362411
20
4.08057618757042
30
0
41
1
10
-1.24419096070108
20
4.24098765739043
30
0
41
1
10
-1.18465962380088
20
4.47808143591084
30
0
41
1
10
-1.16322641885091
20
4.55658654617713
30
0
41
1
10
-1.11622081339453
20
4.71196262616601
30
0
41
1
10
-1.09072783956068
20
4.78866062339219
30
0
41
1
10
-1.03396027230482
20
4.93953094779022
30
0
41
1
10
-1.00277623392995
20
5.01373263568618
30
0
41
1
10
-0.948685190431007
20
5.1222025819495
30
0
41
1
10
-0.929418355061671
20
5.15788155457756
30
0
41
1
10
-0.887207638430851
20
5.22789848621369
30
0
41
1
10
-0.864122395129357
20
5.26246883011029
30
0
41
1
10
-0.813063784087035
20
5.32779515181215
30
0
41
1
10
-0.785188235536481
20
5.35873160222474
30
0
41
1
10
-0.73634132235469
20
5.40008757388514
30
0
41
1
10
-0.718704728838105
20
5.41307616107974
30
0
41
1
10
-0.68109042505219
20
5.43539999221906
30
0
41
1
10
-0.660679139807655
20
5.44494090294222
30
0
41
1
10
-0.628779113836117
20
5.45481846069109
30
0
41
1
10
-0.617932285477281
20
5.45738916347958
30
0
41
1
10
-0.595755791454053
20
5.460899222482
30
0
41
1
10
-0.584290866885169
20
5.46183060563837
30
0
41
1
10
-0.550367797420392
20
5.46186904162576
30
0
41
1
10
-0.528055384786228
20
5.45826434527578
30
0
41
1
10
-0.464148785594148
20
5.43856597575441
30
0
41
1
10
-0.4273401714741
20
5.41481400234119
30
0
41
1
10
-0.394913799811292
20
5.38724490303798
30
0
0
SPLINE
5
143
100
AcDbEntity
8
SK1
62
256
6
ByLayer
370
18
48
1
60
0
100
AcDbSpline
70
4
71
3
72
10
73
6
40
0
40
0
40
0
40
0
40
0.5
40
0.5
40
1
40
1
40
1
40
1
41
1
10
0
20
-5.59084178336474
30
0
41
1
10
-0.0263362950988721
20
-5.6833569191449
30
0
41
1
10
-0.0551840705731479
20
-5.77467039414981
30
0
41
1
10
-0.120484964942364
20
-5.95425247849945
30
0
41
1
10
-0.156757673658632
20
-6.04256970895179
30
0
41
1
10
-0.199999999996351
20
-6.12853949501226
30
0
0
SPLINE
5
144
100
AcDbEntity
8
SK1
62
256
6
ByLayer
370
18
48
1
60
0
100
AcDbSpline
70
4
71
3
72
45
73
41
40
0
40
0
40
0
40
0
40
0.0138691991120611
40
0.0424651345396364
40
0.0710610699672118
40
0.0996570053947871
40
0.156848876249938
40
0.214040747105088
40
0.242636682532664
40
0.271232617960239
40
0.299828553387815
40
0.32842448881539
40
0.357020424242965
40
0.38561635967054
40
0.414212295098116
40
0.428510262811904
40
0.442808230525691
40
0.471404165953267
40
0.485702133667054
40
0.492851117523948
40
0.500000101380842
40
0.507149085237736
40
0.51429806909463
40
0.528596036808417
40
0.557191972235993
40
0.57148993994978
40
0.585787907663568
40
0.614383843091143
40
0.642979778518719
40
0.671575713946294
40
0.700171649373869
40
0.728767584801445
40
0.75736352022902
40
0.785959455656595
40
0.843151326511746
40
0.900343197366897
40
0.928939132794472
40
0.957535068222047
40
0.986131003649623
40
1
40
1
40
1
40
1
41
1
10
-2.19999999999999
20
17.5147525424121
30
0
41
1
10
-2.19999999999999
20
17.5079648962542
30
0
41
1
10
-2.20000000000002
20
17.4676153204563
30
0
41
1
10
-2.19999999999999
20
17.3066644250431
30
0
41
1
10
-2.19999999999999
20
16.9766929599708
30
0
41
1
10
-2.19999999999999
20
16.3719288388599
30
0
41
1
10
-2.19999999999999
20
15.3294666616432
30
0
41
1
10
-2.19999999999999
20
13.9476224427057
30
0
41
1
10
-2.19999999999999
20
12.6535104390874
30
0
41
1
10
-2.19999999999999
20
11.5914144609754
30
0
41
1
10
-2.19999999999999
20
10.4396347881955
30
0
41
1
10
-2.19999999999999
20
9.19987052615136
30
0
41
1
10
-2.19999999999999
20
7.87333982787851
30
0
41
1
10
-2.19999999999999
20
6.4607857552443
30
0
41
1
10
-2.19999999999999
20
5.21252898167785
30
0
41
1
10
-2.19999999999999
20
4.17223684682958
30
0
41
1
10
-2.19999999999999
20
3.10486150423552
30
0
41
1
10
-2.19999999999999
20
1.99745537289451
30
0
41
1
10
-2.19999999999999
20
1.00299597482069
30
0
41
1
10
-2.19999999999999
20
0.430523794544825
30
0
41
1
10
-2.19999999999999
20
2.03164063E-08
30
0
41
1
10
-2.19999999999999
20
-0.430523737893537
30
0
41
1
10
-2.19999999999999
20
-1.00299590932914
30
0
41
1
10
-2.19999999999999
20
-1.99745538275133
30
0
41
1
10
-2.19999999999999
20
-3.10486136355075
30
0
41
1
10
-2.19999999999999
20
-4.17223690222141
30
0
41
1
10
-2.19999999999999
20
-5.21252864051553
30
0
41
1
10
-2.19999999999999
20
-6.46078587277512
30
0
41
1
10
-2.19999999999999
20
-7.87333968058334
30
0
41
1
10
-2.19999999999999
20
-9.19987024087132
30
0
41
1
10
-2.19999999999999
20
-10.4396350324424
30
0
41
1
10
-2.19999999999999
20
-11.5914143063802
30
0
41
1
10
-2.19999999999999
20
-12.6535102764493
30
0
41
1
10
-2.19999999999999
20
-13.9476228193307
30
0
41
1
10
-2.19999999999999
20
-15.3294662349403
30
0
41
1
10
-2.19999999999999
20
-16.3719296090069
30
0
41
1
10
-2.19999999999999
20
-16.9766928316826
30
0
41
1
10
-2.19999999999999
20
-17.3066647416644
30
0
41
1
10
-2.19999999999999
20
-17.4676154194635
30
0
41
1
10
-2.19999999999999
20
-17.5079647971899
30
0
41
1
10
-2.19999999999999
20
-17.5147524576059
30
0
0
SPLINE
5
145
100
AcDbEntity
8
SK1
62
256
6
ByLayer
370
18
48
1
60
0
100
AcDbSpline
70
4
71
3
72
8
73
4
40
0
40
0
40
0
40
0
40
1
40
1
40
1
40
1
41
1
10
-0.0921467517117662
20
17.5703207785711
30
0
41
1
10
-0.123678356297631
20
17.5703192270606
30
0
41
1
10
-0.158652135289401
20
17.5694765477709
30
0
41
1
10
-0.199999999996379
20
17.5678954941522
30
0
0
SPLINE
5
146
100
AcDbEntity
8
SK1
62
256
6
ByLayer
370
18
48
1
60
0
100
AcDbSpline
70
4
71
3
72
10
73
6
40
0
40
0
40
0
40
0
40
0.5
40
0.5
40
1
40
1
40
1
40
1
41
1
10
-0.200000000000017
20
6.1285406827036
30
0
41
1
10
-0.156757675992992
20
6.04257107114418
30
0
41
1
10
-0.120484961900104
20
5.95425401706126
30
0
41
1
10
-0.0551840630306799
20
5.77467228126494
30
0
41
1
10
-0.0263362878809232
20
5.68335897850545
30
0
41
1
10
1.705E-13
20
5.59084400956894
30
0
0
SPLINE
5
147
100
AcDbEntity
8
SK1
62
256
6
ByLayer
370
18
48
1
60
0
100
AcDbSpline
70
4
71
3
72
8
73
4
40
0
40
0
40
0
40
0
40
1
40
1
40
1
40
1
41
0.980125716641431
10
-0.200000000000028
20
6.07843244581186
30
0
41
0.980125716641431
10
-0.200000000000057
20
6.08463002352103
30
0
41
0.980125716641431
10
-0.200000000000057
20
6.09082535712451
30
0
41
0.980125716641431
10
-0.200000000000057
20
6.09701844581184
30
0
0
SPLINE
5
148
100
AcDbEntity
8
SK1
62
256
6
ByLayer
370
18
48
1
60
0
100
AcDbSpline
70
4
71
3
72
8
73
4
40
0
40
0
40
0
40
0
40
1
40
1
40
1
40
1
41
1
10
-0.200000000000017
20
-17.5678956551955
30
0
41
1
10
-0.158647770558673
20
-17.5694768599048
30
0
41
1
10
-0.123670968142221
20
-17.5703195350958
30
0
41
1
10
-0.0921367507582147
20
-17.5703208979864
30
0
0
SPLINE
5
149
100
AcDbEntity
8
SK1
62
256
6
ByLayer
370
13
48
1
60
0
100
AcDbSpline
70
4
71
3
72
20
73
16
40
0
40
0
40
0
40
0
40
0.047003857410939
40
0.117713655515884
40
0.188423453620829
40
0.259133251725774
40
0.329843049830718
40
0.400552847935663
40
0.471262646040608
40
0.612682242250497
40
0.754101838460387
40
0.824811636565332
40
0.895521434670276
40
0.966231232775221
40
1
40
1
40
1
40
1
41
1
10
-0.394913799811292
20
-5.38724256160785
30
0
41
1
10
-0.394913799811292
20
-5.71905475014273
30
0
41
1
10
-0.394913799811292
20
-6.53483549462592
30
0
41
1
10
-0.394913799811292
20
-7.7796880789966
30
0
41
1
10
-0.394913799811292
20
-9.09679923539031
30
0
41
1
10
-0.394913799811292
20
-10.3283869583107
30
0
41
1
10
-0.394913799811292
20
-11.4729576347282
30
0
41
1
10
-0.394913799811292
20
-12.5286533763275
30
0
41
1
10
-0.394913799811292
20
-13.8156305223415
30
0
41
1
10
-0.394913799811292
20
-15.1889742433629
30
0
41
1
10
-0.394913799811292
20
-16.224825355641
30
0
41
1
10
-0.394913799811292
20
-16.8259463034278
30
0
41
1
10
-0.394913799811292
20
-17.1536380024563
30
0
41
1
10
-0.394913799811263
20
-17.3128928099038
30
0
41
1
10
-0.394913799811292
20
-17.3529972366566
30
0
41
1
10
-0.394913799811292
20
-17.3598235615115
30
0
0
SPLINE
5
14A
100
AcDbEntity
8
SK1
62
256
6
ByLayer
370
18
48
1
60
0
100
AcDbSpline
70
4
71
3
72
45
73
41
40
0
40
0
40
0
40
0
40
0.0161744566801439
40
0.0446347880214701
40
0.0730951193627964
40
0.101555450704123
40
0.158476113386775
40
0.215396776069428
40
0.243857107410754
40
0.27231743875208
40
0.300777770093406
40
0.329238101434732
40
0.357698432776059
40
0.386158764117385
40
0.414619095458711
40
0.428849261129374
40
0.443079426800037
40
0.471539758141364
40
0.485769923812027
40
0.492885006647358
40
0.50000008948269
40
0.507115172318021
40
0.514230255153353
40
0.528460420824016
40
0.556920752165342
40
0.571150917836005
40
0.585381083506669
40
0.613841414847995
40
0.642301746189321
40
0.670762077530647
40
0.699222408871974
40
0.7276827402133
40
0.756143071554626
40
0.784603402895952
40
0.841524065578605
40
0.898444728261257
40
0.926905059602583
40
0.95536539094391
40
0.983825722285236
40
1
40
1
40
1
40
1
41
1
10
-28.5
20
16.8572679974003
30
0
41
1
10
-28.5
20
16.8520505576065
30
0
41
1
10
-28.5
20
16.8140882578926
30
0
41
1
10
-28.5
20
16.6531187925377
30
0
41
1
10
-28.5
20
16.3328856609547
30
0
41
1
10
-28.5
20
15.7436769514769
30
0
41
1
10
-28.5
20
14.7294543359372
30
0
41
1
10
-28.5
20
13.3839106046769
30
0
41
1
10
-28.5
20
12.1202723366856
30
0
41
1
10
-28.5
20
11.0855105352455
30
0
41
1
10
-28.5
20
9.96451720849825
30
0
41
1
10
-28.5
20
8.75967545377557
30
0
41
1
10
-28.5
20
7.47337327542297
30
0
41
1
10
-28.5
20
6.10815549439155
30
0
41
1
10
-28.5
20
4.9096720321497
30
0
41
1
10
-28.5
20
3.9114668992739
30
0
41
1
10
-28.5
20
2.89299469927084
30
0
41
1
10
-28.5
20
1.85830102725041
30
0
41
1
10
-28.5
20
0.929573956929886
30
0
41
1
10
-28.5
20
0.39746341502854
30
0
41
1
10
-28.5
20
1.847321585E-07
30
0
41
1
10
-28.5
20
-0.397463221290906
30
0
41
1
10
-28.5
20
-0.929574056191939
30
0
41
1
10
-28.5
20
-1.85830097558352
30
0
41
1
10
-28.5
20
-2.89299452712916
30
0
41
1
10
-28.5
20
-3.91146685141305
30
0
41
1
10
-28.5
20
-4.90967166078667
30
0
41
1
10
-28.5
20
-6.10815570815367
30
0
41
1
10
-28.5
20
-7.47337302390389
30
0
41
1
10
-28.5
20
-8.75967525472745
30
0
41
1
10
-28.5
20
-9.96451747418803
30
0
41
1
10
-28.5
20
-11.0855103162798
30
0
41
1
10
-28.5
20
-12.1202722318355
30
0
41
1
10
-28.5
20
-13.3839109677473
30
0
41
1
10
-28.5
20
-14.7294539424714
30
0
41
1
10
-28.5
20
-15.7436777114932
30
0
41
1
10
-28.5
20
-16.3328855300396
30
0
41
1
10
-28.5
20
-16.653119129773
30
0
41
1
10
-28.5
20
-16.8140884186509
30
0
41
1
10
-28.5
20
-16.8520505062005
30
0
41
1
10
-28.5
20
-16.857268002557
30
0
0
SPLINE
5
14B
100
AcDbEntity
8
SK1
62
256
6
ByLayer
370
18
48
1
60
0
100
AcDbSpline
70
4
71
3
72
8
73
4
40
0
40
0
40
0
40
0
40
1
40
1
40
1
40
1
41
0.980125716641434
10
-0.199999999999998
20
-6.09733116858075
30
0
41
0.980125716641434
10
-0.199999999999998
20
-6.09103348976926
30
0
41
0.980125716641434
10
-0.199999999999998
20
-6.08473348950055
30
0
41
0.980125716641434
10
-0.200000000000027
20
-6.07843116862764
30
0
0
SPLINE
5
14C
100
AcDbEntity
8
SK1
62
256
6
ByLayer
370
18
48
1
60
0
100
AcDbSpline
70
4
71
3
72
26
73
22
40
0
40
0
40
0
40
0
40
0.0312500000000005
40
0.0312500000000005
40
0.062500000000001
40
0.062500000000001
40
0.0937500000000015
40
0.0937500000000015
40
0.125000000000002
40
0.125000000000002
40
0.187500000000003
40
0.187500000000003
40
0.250000000000004
40
0.250000000000004
40
0.375000000000003
40
0.375000000000003
40
0.500000000000003
40
0.500000000000003
40
0.750000000000001
40
0.750000000000001
40
1
40
1
40
1
40
1
41
1
10
-0.394913799809103
20
5.38724490303881
30
0
41
1
10
-0.388649866092578
20
5.38191926832218
30
0
41
1
10
-0.381798613971
20
5.37724701067964
30
0
41
1
10
-0.36663190093924
20
5.37078830603718
30
0
41
1
10
-0.358239511690414
20
5.36911498831623
30
0
41
1
10
-0.341344926981606
20
5.37086979141577
30
0
41
1
10
-0.333033202589888
20
5.37434773304167
30
0
41
1
10
-0.318577749103355
20
5.3843005254995
30
0
41
1
10
-0.312400979321552
20
5.39054104494753
30
0
41
1
10
-0.29583148662644
20
5.41090649401403
30
0
41
1
10
-0.287591117889974
20
5.42618911912561
30
0
41
1
10
-0.273296210573392
20
5.45757128507671
30
0
41
1
10
-0.267463037667568
20
5.47353830586394
30
0
41
1
10
-0.251984748535051
20
5.52184612225128
30
0
41
1
10
-0.244365057600788
20
5.55459465358774
30
0
41
1
10
-0.231573562776532
20
5.6205357075076
30
0
41
1
10
-0.226533735280697
20
5.65356559342112
30
0
41
1
10
-0.21392002833079
20
5.75227393156237
30
0
41
1
10
-0.208771139684643
20
5.81781617640925
30
0
41
1
10
-0.201932717755426
20
5.94845143863398
30
0
41
1
10
-0.200330038101583
20
6.01354333629575
30
0
41
1
10
-0.200000000000017
20
6.0784324458117
30
0
0
SPLINE
5
14D
100
AcDbEntity
8
SK1
62
256
6
ByLayer
370
18
48
1
60
0
100
AcDbSpline
70
4
71
3
72
20
73
16
40
0
40
0
40
0
40
0
40
0.0169947585570173
40
0.0894449528884673
40
0.161895147219917
40
0.234345341551367
40
0.306795535882817
40
0.379245730214267
40
0.451695924545717
40
0.596596313208617
40
0.741496701871517
40
0.813946896202967
40
0.886397090534417
40
0.958847284865867
40
1
40
1
40
1
40
1
41
1
10
-0.200000000000017
20
-6.12853949501147
30
0
41
1
10
-0.200000000000017
20
-6.24422036059772
30
0
41
1
10
-0.200000000000017
20
-6.84892323096861
30
0
41
1
10
-0.200000000000017
20
-7.9037553959202
30
0
41
1
10
-0.200000000000017
20
-9.23334514476059
30
0
41
1
10
-0.200000000000017
20
-10.4757656452374
30
0
41
1
10
-0.200000000000017
20
-11.6298860926996
30
0
41
1
10
-0.200000000000017
20
-12.6940606980929
30
0
41
1
10
-0.200000000000017
20
-13.9904906407439
30
0
41
1
10
-0.200000000000017
20
-15.3750945461546
30
0
41
1
10
-0.200000000000017
20
-16.4197054187038
30
0
41
1
10
-0.200000000000017
20
-17.0256515618456
30
0
41
1
10
-0.200000000000017
20
-17.3563640277397
30
0
41
1
10
-0.200000000000017
20
-17.5231003722359
30
0
41
1
10
-0.200000000000017
20
-17.5625118656995
30
0
41
1
10
-0.200000000000017
20
-17.5678956551955
30
0
0
SPLINE
5
14E
100
AcDbEntity
8
SK1
62
256
6
ByLayer
370
18
48
1
60
0
100
AcDbSpline
70
4
71
3
72
28
73
24
40
0
40
0
40
0
40
0
40
0.250000000000001
40
0.250000000000001
40
0.500000000000002
40
0.500000000000002
40
0.625000000000003
40
0.625000000000003
40
0.750000000000003
40
0.750000000000003
40
0.812500000000004
40
0.812500000000004
40
0.843750000000003
40
0.843750000000003
40
0.875000000000003
40
0.875000000000003
40
0.906250000000002
40
0.906250000000002
40
0.937500000000001
40
0.937500000000001
40
0.968750000000001
40
0.968750000000001
40
1
40
1
40
1
40
1
41
1
10
-0.200000000000017
20
-6.07843116862756
30
0
41
1
10
-0.200329859654744
20
-6.01357702681159
30
0
41
1
10
-0.201930655445096
20
-5.94848814748218
30
0
41
1
10
-0.208773542204597
20
-5.81776970228771
30
0
41
1
10
-0.213933058044091
20
-5.75209301058729
30
0
41
1
10
-0.226581907125791
20
-5.65322539656984
30
0
41
1
10
-0.231616433421493
20
-5.6202929490232
30
0
41
1
10
-0.244374377579419
20
-5.55456420326033
30
0
41
1
10
-0.252035382751359
20
-5.52169220269835
30
0
41
1
10
-0.267422418729041
20
-5.47365965349925
30
0
41
1
10
-0.273206407019188
20
-5.45783596374687
30
0
41
1
10
-0.283724888362002
20
-5.43464123738525
30
0
41
1
10
-0.287542348293442
20
-5.42700107315454
30
0
41
1
10
-0.296164698039036
20
-5.41201401791542
30
0
41
1
10
-0.301003751718952
20
-5.40461199814789
30
0
41
1
10
-0.31201932633951
20
-5.39094692539055
30
0
41
1
10
-0.318249907555952
20
-5.38460165612528
30
0
41
1
10
-0.332559804953661
20
-5.37459778054654
30
0
41
1
10
-0.340894665894922
20
-5.3709894160074
30
0
41
1
10
-0.357931156529872
20
-5.36907270427514
30
0
41
1
10
-0.366427856888862
20
-5.37072488685558
30
0
41
1
10
-0.381681431788621
20
-5.37716945917046
30
0
41
1
10
-0.388608058083719
20
-5.38188137503886
30
0
41
1
10
-0.394913799811292
20
-5.38724256160015
30
0
0
SPLINE
5
14F
100
AcDbEntity
8
1
62
256
6
ByLayer
370
18
48
1
60
0
100
AcDbSpline
70
4
71
3
72
14
73
10
40
0
40
0
40
0
40
0
40
0.25
40
0.25
40
0.5
40
0.5
40
0.75
40
0.75
40
1
40
1
40
1
40
1
41
1
10
98.3245
20
-23.9809298975149
30
0
41
1
10
98.3245
20
-23.9802749397073
30
0
41
1
10
98.3222686570517
20
-23.9818256856907
30
0
41
1
10
98.3141089561459
20
-23.9887118861319
30
0
41
1
10
98.308141619218
20
-23.9940733211362
30
0
41
1
10
98.2940927457414
20
-24.0070547541498
30
0
41
1
10
98.2858401844453
20
-24.0148307852947
30
0
41
1
10
98.2684278710244
20
-24.0314404543229
30
0
41
1
10
98.2591841270818
20
-24.040350490592
30
0
41
1
10
98.2495
20
-24.0497595350354
30
0
0
SPLINE
5
150
100
AcDbEntity
8
1
62
256
6
ByLayer
370
18
48
1
60
0
100
AcDbSpline
70
4
71
3
72
8
73
4
40
0
40
0
40
0
40
0
40
1
40
1
40
1
40
1
41
1
10
98.2495
20
5.41462793875593
30
0
41
1
10
98.035436607666
20
5.61705275803973
30
0
41
1
10
97.8207399691693
20
5.81857838232773
30
0
41
1
10
97.6055
20
6.01933248954907
30
0
0
SPLINE
5
151
100
AcDbEntity
8
1
62
256
6
ByLayer
370
18
48
1
60
0
100
AcDbSpline
70
4
71
3
72
8
73
4
40
0
40
0
40
0
40
0
40
1
40
1
40
1
40
1
41
1
10
97.6055
20
14.4662256251216
30
0
41
1
10
97.8210594377484
20
14.2277459581948
30
0
41
1
10
98.0357525342201
20
13.9882311427327
30
0
41
1
10
98.2495
20
13.7475864397169
30
0
0
SPLINE
5
152
100
AcDbEntity
8
1
62
256
6
ByLayer
370
18
48
1
60
0
100
AcDbSpline
70
4
71
3
72
8
73
4
40
0
40
0
40
0
40
0
40
1
40
1
40
1
40
1
41
1
10
97.6055
20
14.6500792121577
30
0
41
1
10
97.8208603034311
20
14.4235405354009
30
0
41
1
10
98.0355472223686
20
14.1961543314658
30
0
41
1
10
98.2495
20
13.9678441313361
30
0
0
SPLINE
5
153
100
AcDbEntity
8
1
62
256
6
ByLayer
370
18
48
1
60
0
100
AcDbSpline
70
4
71
3
72
22
73
18
40
0
40
0
40
0
40
0
40
0.0624999999999909
40
0.0624999999999909
40
0.124999999999982
40
0.124999999999982
40
0.187499999999973
40
0.187499999999973
40
0.249999999999963
40
0.249999999999963
40
0.37499999999997
40
0.37499999999997
40
0.499999999999976
40
0.499999999999976
40
0.749999999999988
40
0.749999999999988
40
1
40
1
40
1
40
1
41
1
10
97.6055
20
9.51007727765045
30
0
41
1
10
97.5979531350987
20
9.51632370351433
30
0
41
1
10
97.5903309748307
20
9.52192824566367
30
0
41
1
10
97.5752150014688
20
9.53107584203715
30
0
41
1
10
97.5678082632911
20
9.534541370949
30
0
41
1
10
97.5541074431752
20
9.53831811566715
30
0
41
1
10
97.5479040735975
20
9.53859250235826
30
0
41
1
10
97.5373699622982
20
9.53579049075941
30
0
41
1
10
97.5332138313417
20
9.53282520776605
30
0
41
1
10
97.5234244585301
20
9.52014194122006
30
0
41
1
10
97.5208914796619
20
9.50720783722639
30
0
41
1
10
97.5201926535017
20
9.47891574267831
30
0
41
1
10
97.5219655798816
20
9.46331662379936
30
0
41
1
10
97.5312522763401
20
9.41377848404923
30
0
41
1
10
97.5425200942079
20
9.3781366276165
30
0
41
1
10
97.5702156333429
20
9.30622488762319
30
0
41
1
10
97.5866797204593
20
9.26998156296014
30
0
41
1
10
97.6055
20
9.23348971252764
30
0
0
SPLINE
5
154
100
AcDbEntity
8
1
62
256
6
ByLayer
370
18
48
1
60
0
100
AcDbSpline
70
4
71
3
72
29
73
25
40
0
40
0
40
0
40
0
40
0.249999999999976
40
0.249999999999976
40
0.499999999999953
40
0.624999999999938
40
0.624999999999938
40
0.749999999999923
40
0.749999999999923
40
0.812499999999909
40
0.812499999999909
40
0.8437499999999
40
0.8437499999999
40
0.859374999999911
40
0.859374999999911
40
0.874999999999921
40
0.874999999999921
40
0.890624999999932
40
0.890624999999932
40
0.906249999999943
40
0.906249999999943
40
0.937499999999969
40
0.937499999999969
40
1
40
1
40
1
40
1
41
1
10
98.3245000000001
20
-7.37436329715183
30
0
41
1
10
98.3245000000001
20
-7.31940641055138
30
0
41
1
10
98.3240323999323
20
-7.26449631457643
30
0
41
1
10
98.321844723872
20
-7.15482541361607
30
0
41
1
10
98.319316428687
20
-7.07267512182784
30
0
41
1
10
98.3143104212239
20
-6.99088027341253
30
0
41
1
10
98.3099789692881
20
-6.93650712811919
30
0
41
1
10
98.3074068235438
20
-6.90939960539302
30
0
41
1
10
98.3015807534019
20
-6.86948409506138
30
0
41
1
10
98.2993630930082
20
-6.85625551520198
30
0
41
1
10
98.294437082563
20
-6.83706853659706
30
0
41
1
10
98.2925937216098
20
-6.83082493458897
30
0
41
1
10
98.2885431714969
20
-6.82243858632916
30
0
41
1
10
98.2869632734355
20
-6.81977404820759
30
0
41
1
10
98.2828407766148
20
-6.81622276581189
30
0
41
1
10
98.2801531501683
20
-6.81579903545227
30
0
41
1
10
98.2754571598491
20
-6.8184796529836
30
0
41
1
10
98.2734636569784
20
-6.82104485592961
30
0
41
1
10
98.2700739002268
20
-6.82643038646299
30
0
41
1
10
98.2686013610436
20
-6.82940234054863
30
0
41
1
10
98.2645355434312
20
-6.83857501600241
30
0
41
1
10
98.2622853935206
20
-6.84504506658359
30
0
41
1
10
98.2560686746893
20
-6.86469526426222
30
0
41
1
10
98.2526604819255
20
-6.87818615996491
30
0
41
1
10
98.2495000000001
20
-6.89174587477098
30
0
0
SPLINE
5
155
100
AcDbEntity
8
1
62
256
6
ByLayer
370
18
48
1
60
0
100
AcDbSpline
70
4
71
3
72
8
73
4
40
0
40
0
40
0
40
0
40
1
40
1
40
1
40
1
41
1
10
98.2495
20
-23.9678441313361
30
0
41
1
10
98.0355472223686
20
-24.1961543314659
30
0
41
1
10
97.8208603034311
20
-24.4235405354009
30
0
41
1
10
97.6055
20
-24.6500792121577
30
0
0
SPLINE
5
156
100
AcDbEntity
8
1
62
256
6
ByLayer
370
18
48
1
60
0
100
AcDbSpline
70
4
71
3
72
22
73
18
40
0
40
0
40
0
40
0
40
0.249999999999998
40
0.249999999999998
40
0.374999999999999
40
0.374999999999999
40
0.499999999999997
40
0.499999999999997
40
0.624999999999995
40
0.624999999999995
40
0.749999999999994
40
0.749999999999994
40
0.812499999999995
40
0.812499999999995
40
0.874999999999997
40
0.874999999999997
40
1
40
1
40
1
40
1
41
1
10
11.8943375672973
20
8.05584836782776
30
0
41
1
10
11.8788923030149
20
7.99849169434916
30
0
41
1
10
11.8604037172645
20
7.9421825395126
30
0
41
1
10
11.8264575712212
20
7.85991012495421
30
0
41
1
10
11.814096269969
20
7.83285506058496
30
0
41
1
10
11.7867462210776
20
7.77968328642046
30
0
41
1
10
11.7716842562431
20
7.75344388356999
30
0
41
1
10
11.7384769785308
20
7.70292805784933
30
0
41
1
10
11.7203772593316
20
7.67866353751188
30
0
41
1
10
11.6800242532304
20
7.63291014136067
30
0
41
1
10
11.6579517648702
20
7.61165433162102
30
0
41
1
10
11.6215461384038
20
7.58390025536201
30
0
41
1
10
11.6088302857937
20
7.57531366225024
30
0
41
1
10
11.5819453465864
20
7.55980672066917
30
0
41
1
10
11.5678144986017
20
7.55293791940406
30
0
41
1
10
11.5243601613891
20
7.5361019895085
30
0
41
1
10
11.4930267682388
20
7.52966679426481
30
0
41
1
10
11.4613248654052
20
7.52966679426481
30
0
0
SPLINE
5
157
100
AcDbEntity
8
1
62
256
6
ByLayer
370
18
48
1
60
0
100
AcDbSpline
70
4
71
3
72
14
73
10
40
0
40
0
40
0
40
0
40
0.25
40
0.25
40
0.5
40
0.5
40
0.75
40
0.75
40
1
40
1
40
1
40
1
41
1
10
98.2495
20
-22.9264544727241
30
0
41
1
10
98.2594452716602
20
-22.9137839384981
30
0
41
1
10
98.2688578737818
20
-22.9012296925005
30
0
41
1
10
98.2860631262544
20
-22.8769739480124
30
0
41
1
10
98.2939188644348
20
-22.865200408821
30
0
41
1
10
98.3077301342475
20
-22.8425488566719
30
0
41
1
10
98.313549981919
20
-22.8318834523871
30
0
41
1
10
98.3219388885768
20
-22.8129323227158
30
0
41
1
10
98.324500000001
20
-22.8045938255255
30
0
41
1
10
98.324500000001
20
-22.7986396737449
30
0
0
SPLINE
5
158
100
AcDbEntity
8
1
62
256
6
ByLayer
370
18
48
1
60
0
100
AcDbSpline
70
4
71
3
72
22
73
18
40
0
40
0
40
0
40
0
40
0.250000000000098
40
0.250000000000098
40
0.312500000000098
40
0.312500000000098
40
0.375000000000099
40
0.375000000000099
40
0.500000000000079
40
0.500000000000079
40
0.625000000000059
40
0.625000000000059
40
0.75000000000004
40
0.75000000000004
40
0.87500000000002
40
0.87500000000002
40
1
40
1
40
1
40
1
41
1
10
97.6055
20
14.5115512430934
30
0
41
1
10
97.582537997433
20
14.5328190622729
30
0
41
1
10
97.5607535476664
20
14.5519654120075
30
0
41
1
10
97.5404048884699
20
14.567455670588
30
0
41
1
10
97.5367592237661
20
14.5700669054193
30
0
41
1
10
97.5304144574532
20
14.574200409037
30
0
41
1
10
97.5277190447527
20
14.5757123360829
30
0
41
1
10
97.521544858164
20
14.5782568081098
30
0
41
1
10
97.5198761092045
20
14.5773008110934
30
0
41
1
10
97.521565633523
20
14.5705019246576
30
0
41
1
10
97.5248695785995
20
14.5646759138373
30
0
41
1
10
97.5348644937966
20
14.5500522686143
30
0
41
1
10
97.5416097334609
20
14.5411548521571
30
0
41
1
10
97.5570551246182
20
14.521869396227
30
0
41
1
10
97.5659412283818
20
14.511247283255
30
0
41
1
10
97.5848489615513
20
14.4893103171526
30
0
41
1
10
97.5949114395793
20
14.4779400570609
30
0
41
1
10
97.6055
20
14.4662256251216
30
0
0
SPLINE
5
159
100
AcDbEntity
8
1
62
256
6
ByLayer
370
18
48
1
60
0
100
AcDbSpline
70
4
71
3
72
28
73
24
40
0
40
0
40
0
40
0
40
0.0312500000000001
40
0.0312500000000001
40
0.0625000000000003
40
0.0625000000000003
40
0.0937500000000004
40
0.0937500000000004
40
0.125000000000001
40
0.125000000000001
40
0.156250000000001
40
0.156250000000001
40
0.187500000000001
40
0.187500000000001
40
0.250000000000001
40
0.250000000000001
40
0.375000000000005
40
0.375000000000005
40
0.500000000000008
40
0.500000000000008
40
0.750000000000004
40
0.750000000000004
40
1
40
1
40
1
40
1
41
1
10
97.6055000000003
20
3.3736110174267
30
0
41
1
10
97.6000047373562
20
3.37978753275482
30
0
41
1
10
97.5942117994271
20
3.38544000419921
30
0
41
1
10
97.5821363315484
20
3.39446580599062
30
0
41
1
10
97.5757647756298
20
3.39785124933783
30
0
41
1
10
97.5633172962781
20
3.4002949759265
30
0
41
1
10
97.5575147722731
20
3.39919648353936
30
0
41
1
10
97.5478233717979
20
3.39340034883725
30
0
41
1
10
97.5438090778881
20
3.38877626134621
30
0
41
1
10
97.5372371666876
20
3.37796395532274
30
0
41
1
10
97.534613239458
20
3.37171127711898
30
0
41
1
10
97.5303085729235
20
3.35860754730578
30
0
41
1
10
97.5286038692419
20
3.35169550185071
30
0
41
1
10
97.5243703523158
20
3.33024655544989
30
0
41
1
10
97.5227222129098
20
3.31500768205495
30
0
41
1
10
97.5197634773029
20
3.26920455495943
30
0
41
1
10
97.5202942584136
20
3.23786352107086
30
0
41
1
10
97.5236192209956
20
3.17441960623168
30
0
41
1
10
97.5265141599264
20
3.14228555379819
30
0
41
1
10
97.5376441464779
20
3.04503534315219
30
0
41
1
10
97.5483373226414
20
2.97887805299882
30
0
41
1
10
97.5737839041931
20
2.84691878935365
30
0
41
1
10
97.5886061523185
20
2.78086412303725
30
0
41
1
10
97.6055
20
2.71473982249824
30
0
0
SPLINE
5
15A
100
AcDbEntity
8
1
62
256
6
ByLayer
370
18
48
1
60
0
100
AcDbSpline
70
4
71
3
72
14
73
10
40
0
40
0
40
0
40
0
40
0.25
40
0.25
40
0.5
40
0.5
40
0.75
40
0.75
40
1
40
1
40
1
40
1
41
1
10
98.2495
20
-20.5703702247132
30
0
41
1
10
98.2596892182419
20
-20.5537244060086
30
0
41
1
10
98.2691410712168
20
-20.5371479955474
30
0
41
1
10
98.286488561992
20
-20.5041362228495
30
0
41
1
10
98.2943464228541
20
-20.4877581462692
30
0
41
1
10
98.3078272140934
20
-20.4560122948547
30
0
41
1
10
98.3135248842869
20
-20.4405314920262
30
0
41
1
10
98.3219195342536
20
-20.4107737469565
30
0
41
1
10
98.3245
20
-20.397025683911
30
0
41
1
10
98.3245
20
-20.3850933995447
30
0
0
SPLINE
5
15B
100
AcDbEntity
8
1
62
256
6
ByLayer
370
18
48
1
60
0
100
AcDbSpline
70
4
71
3
72
8
73
4
40
0
40
0
40
0
40
0
40
1
40
1
40
1
40
1
41
1
10
98.2495
20
14.0497595350354
30
0
41
1
10
98.0352478964824
20
14.2579256967411
30
0
41
1
10
97.8205696375729
20
14.4655042942751
30
0
41
1
10
97.6055
20
14.67254327625
30
0
0
SPLINE
5
15C
100
AcDbEntity
8
1
62
256
6
ByLayer
370
18
48
1
60
0
100
AcDbSpline
70
4
71
3
72
12
73
8
40
0
40
0
40
0
40
0
40
0.250000000000016
40
0.250000000000016
40
0.500000000000033
40
0.500000000000033
40
1
40
1
40
1
40
1
41
1
10
98.3245000000089
20
11.3675876053922
30
0
41
1
10
98.3245000000084
20
11.3772221576382
30
0
41
1
10
98.3218736994013
20
11.3890583159479
30
0
41
1
10
98.313449392423
20
11.4145929308426
30
0
41
1
10
98.3076705406041
20
11.4282616213632
30
0
41
1
10
98.287041271642
20
11.4708624306539
30
0
41
1
10
98.2696463919063
20
11.5001337171809
30
0
41
1
10
98.2495
20
11.5300799335829
30
0
0
SPLINE
5
15D
100
AcDbEntity
8
1
62
256
6
ByLayer
370
18
48
1
60
0
100
AcDbSpline
70
4
71
3
72
8
73
4
40
0
40
0
40
0
40
0
40
1
40
1
40
1
40
1
41
1
10
98.2495
20
-21.5300799335829
30
0
41
1
10
98.0373746492063
20
-21.845389577551
30
0
41
1
10
97.8226281001308
20
-22.1583021627903
30
0
41
1
10
97.6055
20
-22.4690368442116
30
0
0
SPLINE
5
15E
100
AcDbEntity
8
1
62
256
6
ByLayer
370
18
48
1
60
0
100
AcDbSpline
70
4
71
3
72
20
73
16
40
0
40
0
40
0
40
0
40
0.249999999999966
40
0.249999999999966
40
0.374999999999972
40
0.374999999999972
40
0.499999999999978
40
0.499999999999978
40
0.624999999999983
40
0.624999999999983
40
0.749999999999989
40
0.749999999999989
40
0.874999999999994
40
0.874999999999994
40
1
40
1
40
1
40
1
41
1
10
97.6055
20
-24.4662256251216
30
0
41
1
10
97.5842527177492
20
-24.4897321106051
30
0
41
1
10
97.564759178412
20
-24.512245602338
30
0
41
1
10
97.5415388101569
20
-24.5412455910611
30
0
41
1
10
97.5348191531313
20
-24.5501143780702
30
0
41
1
10
97.5248488902685
20
-24.5647104400403
30
0
41
1
10
97.52154227505
20
-24.5705386140865
30
0
41
1
10
97.5198797900557
20
-24.5773439817586
30
0
41
1
10
97.5215268512072
20
-24.5782810305199
30
0
41
1
10
97.5299273542161
20
-24.5747851907473
30
0
41
1
10
97.5364749055012
20
-24.5704541370686
30
0
41
1
10
97.5527289309234
20
-24.5580671841505
30
0
41
1
10
97.5623212415122
20
-24.5501066098877
30
0
41
1
10
97.5830767110617
20
-24.5320647148509
30
0
41
1
10
97.5940553495815
20
-24.5221514838591
30
0
41
1
10
97.6055
20
-24.5115512430935
30
0
0
SPLINE
5
15F
100
AcDbEntity
8
1
62
256
6
ByLayer
370
18
48
1
60
0
100
AcDbSpline
70
4
71
3
72
8
73
4
40
0
40
0
40
0
40
0
40
1
40
1
40
1
40
1
41
1
10
97.6055
20
-21.7826993267326
30
0
41
1
10
97.8201732371937
20
-21.6069229874504
30
0
41
1
10
98.0348401170212
20
-21.4311362953957
30
0
41
1
10
98.2495
20
-21.255338212375
30
0
0
SPLINE
5
160
100
AcDbEntity
8
1
62
256
6
ByLayer
370
18
48
1
60
0
100
AcDbSpline
70
4
71
3
72
14
73
10
40
0
40
0
40
0
40
0
40
0.25
40
0.25
40
0.5
40
0.5
40
0.75
40
0.75
40
1
40
1
40
1
40
1
41
1
10
98.3245000000001
20
-22.7218227111436
30
0
41
1
10
98.3245000000001
20
-22.7167636827918
30
0
41
1
10
98.3227493810509
20
-22.7133264469951
30
0
41
1
10
98.3152458304778
20
-22.7108983856197
30
0
41
1
10
98.3096041240067
20
-22.7119307814348
30
0
41
1
10
98.2953158700719
20
-22.7181361744954
30
0
41
1
10
98.2869391226995
20
-22.7231633913709
30
0
41
1
10
98.2687589075684
20
-22.7359097762675
30
0
41
1
10
98.2592455734683
20
-22.7434107750192
30
0
41
1
10
98.2495
20
-22.7516701480928
30
0
0
SPLINE
5
161
100
AcDbEntity
8
1
62
256
6
ByLayer
370
18
48
1
60
0
100
AcDbSpline
70
4
71
3
72
8
73
4
40
0
40
0
40
0
40
0
40
1
40
1
40
1
40
1
41
1
10
98.2495
20
2.63358295813441
30
0
41
1
10
98.0373665452931
20
2.88319830325085
30
0
41
1
10
97.8225293003014
20
3.12967639832343
30
0
41
1
10
97.6055
20
3.37361101742621
30
0
0
SPLINE
5
162
100
AcDbEntity
8
1
62
256
6
ByLayer
370
18
48
1
60
0
100
AcDbSpline
70
4
71
3
72
8
73
4
40
0
40
0
40
0
40
0
40
1
40
1
40
1
40
1
41
1
10
98.2495
20
11.255338212375
30
0
41
1
10
98.0348401170212
20
11.4311362953957
30
0
41
1
10
97.8201732371937
20
11.6069229874504
30
0
41
1
10
97.6055
20
11.7826993267326
30
0
0
SPLINE
5
163
100
AcDbEntity
8
1
62
256
6
ByLayer
370
18
48
1
60
0
100
AcDbSpline
70
4
71
3
72
12
73
8
40
0
40
0
40
0
40
0
40
0.499999999999993
40
0.499999999999993
40
0.749999999999996
40
0.749999999999996
40
1
40
1
40
1
40
1
41
1
10
98.2495
20
-17.9353083296313
30
0
41
1
10
98.2704007391946
20
-17.8914091058621
30
0
41
1
10
98.2879822475923
20
-17.8472681461818
30
0
41
1
10
98.3079572516775
20
-17.782864662175
30
0
41
1
10
98.3135713793242
20
-17.7616176300328
30
0
41
1
10
98.3218661041996
20
-17.7197509393174
30
0
41
1
10
98.3245
20
-17.6996254052808
30
0
41
1
10
98.3245
20
-17.68098768619
30
0
0
SPLINE
5
164
100
AcDbEntity
8
1
62
256
6
ByLayer
370
18
48
1
60
0
100
AcDbSpline
70
4
71
3
72
8
73
4
40
0
40
0
40
0
40
0
40
1
40
1
40
1
40
1
41
1
10
97.6055
20
-17.9705056015293
30
0
41
1
10
97.8203319606478
20
-17.7859304687196
30
0
41
1
10
98.0350057378338
20
-17.6011103791874
30
0
41
1
10
98.2495
20
-17.4160122997165
30
0
0
SPLINE
5
165
100
AcDbEntity
8
1
62
256
6
ByLayer
370
18
48
1
60
0
100
AcDbSpline
70
4
71
3
72
20
73
16
40
0
40
0
40
0
40
0
40
0.250000000000005
40
0.250000000000005
40
0.375000000000004
40
0.375000000000004
40
0.500000000000004
40
0.500000000000004
40
0.625000000000003
40
0.625000000000003
40
0.750000000000002
40
0.750000000000002
40
0.875000000000001
40
0.875000000000001
40
1
40
1
40
1
40
1
41
1
10
98.3245000000103
20
-15.4758747057858
30
0
41
1
10
98.3245000000109
20
-15.4622480685126
30
0
41
1
10
98.3237200066662
20
-15.4489518311855
30
0
41
1
10
98.3205608214897
20
-15.4305545407479
30
0
41
1
10
98.3191774382012
20
-15.4247046537611
30
0
41
1
10
98.3154601805353
20
-15.4138219207665
30
0
41
1
10
98.3130942942822
20
-15.4087403605803
30
0
41
1
10
98.3071073011926
20
-15.4003169334066
30
0
41
1
10
98.3033938502502
20
-15.39688473922
30
0
41
1
10
98.294518318095
20
-15.3929059165864
30
0
41
1
10
98.2892737818143
20
-15.3923980908058
30
0
41
1
10
98.2781480202121
20
-15.3946418601522
30
0
41
1
10
98.2722402591585
20
-15.3973541368364
30
0
41
1
10
98.2607361074498
20
-15.4047199434934
30
0
41
1
10
98.2549952414778
20
-15.4094314721799
30
0
41
1
10
98.2494999999997
20
-15.4146279387547
30
0
0
SPLINE
5
166
100
AcDbEntity
8
1
62
256
6
ByLayer
370
18
48
1
60
0
100
AcDbSpline
70
4
71
3
72
24
73
20
40
0
40
0
40
0
40
0
40
0.250000000000027
40
0.250000000000027
40
0.375000000000023
40
0.375000000000023
40
0.500000000000019
40
0.500000000000019
40
0.625000000000015
40
0.625000000000015
40
0.750000000000012
40
0.750000000000012
40
0.812500000000009
40
0.812500000000009
40
0.875000000000006
40
0.875000000000006
40
0.937500000000003
40
0.937500000000003
40
1
40
1
40
1
40
1
41
1
10
97.6055
20
-21.5974568928041
30
0
41
1
10
97.5859306350477
20
-21.627954617671
30
0
41
1
10
97.5684043776613
20
-21.6584924379041
30
0
41
1
10
97.546981041172
20
-21.7021612457543
30
0
41
1
10
97.5406367983317
20
-21.7163852039588
30
0
41
1
10
97.5300049616654
20
-21.7439749121278
30
0
41
1
10
97.5257550687406
20
-21.7572748958538
30
0
41
1
10
97.5206023010412
20
-21.7813697613153
30
0
41
1
10
97.5196580046164
20
-21.7924512939754
30
0
41
1
10
97.5230585867861
20
-21.8094781184496
30
0
41
1
10
97.5275718217049
20
-21.8154965617002
30
0
41
1
10
97.5392932037596
20
-21.8179133314042
30
0
41
1
10
97.5438737154884
20
-21.8176420951081
30
0
41
1
10
97.5543259951703
20
-21.8150413247482
30
0
41
1
10
97.5602042505498
20
-21.8126777169457
30
0
41
1
10
97.5724281931626
20
-21.8063867311992
30
0
41
1
10
97.5789268310879
20
-21.8023930464153
30
0
41
1
10
97.5921113198276
20
-21.7932881819859
30
0
41
1
10
97.5987765869106
20
-21.7882045166475
30
0
41
1
10
97.6055
20
-21.7826993267328
30
0
0
SPLINE
5
167
100
AcDbEntity
8
1
62
256
6
ByLayer
370
18
48
1
60
0
100
AcDbSpline
70
4
71
3
72
8
73
4
40
0
40
0
40
0
40
0
40
1
40
1
40
1
40
1
41
1
10
97.6055
20
-19.5100772776499
30
0
41
1
10
97.8202039791954
20
-19.3323700434185
30
0
41
1
10
98.0348720691877
20
-19.1546049768552
30
0
41
1
10
98.2495
20
-18.9767752987127
30
0
0
SPLINE
5
168
100
AcDbEntity
8
1
62
256
6
ByLayer
370
18
48
1
60
0
100
AcDbSpline
70
4
71
3
72
14
73
10
40
0
40
0
40
0
40
0
40
0.25
40
0.25
40
0.5
40
0.5
40
0.75
40
0.75
40
1
40
1
40
1
40
1
41
1
10
98.3245
20
13.988914520495
30
0
41
1
10
98.3245
20
13.9894247455032
30
0
41
1
10
98.322179475846
20
13.9922388158723
30
0
41
1
10
98.3139404238711
20
14.0013490604847
30
0
41
1
10
98.3079761818693
20
14.0077021283887
30
0
41
1
10
98.2940034076216
20
14.0223363275757
30
0
41
1
10
98.2858210468891
20
14.0308010647053
30
0
41
1
10
98.2684517336469
20
14.0486391867036
30
0
41
1
10
98.2592082059552
20
14.0580727111611
30
0
41
1
10
98.2495
20
14.0679370847154
30
0
0
SPLINE
5
169
100
AcDbEntity
8
1
62
256
6
ByLayer
370
18
48
1
60
0
100
AcDbSpline
70
4
71
3
72
14
73
10
40
0
40
0
40
0
40
0
40
0.25
40
0.25
40
0.5
40
0.5
40
0.75
40
0.75
40
1
40
1
40
1
40
1
41
1
10
98.3245000000001
20
13.6463193271823
30
0
41
1
10
98.3245000000001
20
13.6493536764683
30
0
41
1
10
98.3220340114651
20
13.6547938153032
30
0
41
1
10
98.3136941357516
20
13.6685224069777
30
0
41
1
10
98.3077590882458
20
13.6769402543422
30
0
41
1
10
98.2939317352527
20
13.6951434737655
30
0
41
1
10
98.2858752775872
20
13.7051515681115
30
0
41
1
10
98.2685537467018
20
13.7258583546616
30
0
41
1
10
98.2592867142816
20
13.7365681993686
30
0
41
1
10
98.2495
20
13.7475864397169
30
0
0
SPLINE
5
16A
100
AcDbEntity
8
1
62
256
6
ByLayer
370
18
48
1
60
0
100
AcDbSpline
70
4
71
3
72
20
73
16
40
0
40
0
40
0
40
0
40
0.249999999999972
40
0.249999999999972
40
0.499999999999944
40
0.499999999999944
40
0.624999999999947
40
0.624999999999947
40
0.74999999999995
40
0.74999999999995
40
0.812499999999951
40
0.812499999999951
40
0.874999999999953
40
0.874999999999953
40
1
40
1
40
1
40
1
41
1
10
97.6055
20
-19.2334897125277
30
0
41
1
10
97.5866517826199
20
-19.2700357334337
30
0
41
1
10
97.5700039298075
20
-19.3067132975129
30
0
41
1
10
97.5423540195795
20
-19.3786299644915
30
0
41
1
10
97.531260620271
20
-19.41370522735
30
0
41
1
10
97.5219459700353
20
-19.463435638372
30
0
41
1
10
97.520163421698
20
-19.4791290996217
30
0
41
1
10
97.520937540741
20
-19.5076437025055
30
0
41
1
10
97.5235318896775
20
-19.5204133683111
30
0
41
1
10
97.5333610563208
20
-19.5329477804308
30
0
41
1
10
97.53766255767
20
-19.5359341976593
30
0
41
1
10
97.548184540343
20
-19.5385975268391
30
0
41
1
10
97.5543955213243
20
-19.5382783252421
30
0
41
1
10
97.5749730316655
20
-19.5324844686064
30
0
41
1
10
97.5904547654825
20
-19.5225299905647
30
0
41
1
10
97.6055
20
-19.5100772776504
30
0
0
SPLINE
5
16B
100
AcDbEntity
8
1
62
256
6
ByLayer
370
18
48
1
60
0
100
AcDbSpline
70
4
71
3
72
8
73
4
40
0
40
0
40
0
40
0
40
1
40
1
40
1
40
1
41
1
10
97.6055
20
-23.8304003628102
30
0
41
1
10
97.8203025465447
20
-23.6440075237985
30
0
41
1
10
98.0349733553288
20
-23.4574120577276
30
0
41
1
10
98.2495
20
-23.2705960321683
30
0
0
SPLINE
5
16C
100
AcDbEntity
8
1
62
256
6
ByLayer
370
18
48
1
60
0
100
AcDbSpline
70
4
71
3
72
12
73
8
40
0
40
0
40
0
40
0
40
0.500000000000013
40
0.500000000000013
40
0.750000000000007
40
0.750000000000007
40
1
40
1
40
1
40
1
41
1
10
98.2495000000002
20
-16.0912167009135
30
0
41
1
10
98.2707493762863
20
-16.0375053187211
30
0
41
1
10
98.288114006892
20
-15.984092352797
30
0
41
1
10
98.308033340519
20
-15.9044186364489
30
0
41
1
10
98.3136471049519
20
-15.8778062422475
30
0
41
1
10
98.3218575668026
20
-15.8254042330729
30
0
41
1
10
98.3245
20
-15.799843273403
30
0
41
1
10
98.3245
20
-15.775463961686
30
0
0
SPLINE
5
16D
100
AcDbEntity
8
1
62
256
6
ByLayer
370
18
48
1
60
0
100
AcDbSpline
70
4
71
3
72
22
73
18
40
0
40
0
40
0
40
0
40
0.125000000000045
40
0.125000000000045
40
0.25000000000009
40
0.25000000000009
40
0.312500000000086
40
0.312500000000086
40
0.375000000000082
40
0.375000000000082
40
0.500000000000067
40
0.500000000000067
40
0.625000000000052
40
0.625000000000052
40
0.750000000000037
40
0.750000000000037
40
1
40
1
40
1
40
1
41
1
10
97.6055
20
12.6200829661946
30
0
41
1
10
97.5925334988623
20
12.6308327834681
30
0
41
1
10
97.5797531930942
20
12.6402864467316
30
0
41
1
10
97.5562544517051
20
12.6543029161531
30
0
41
1
10
97.5454908274749
20
12.6587687434616
30
0
41
1
10
97.5334892269528
20
12.6596867674203
30
0
41
1
10
97.530205563054
20
12.6590766548954
30
0
41
1
10
97.5250177333854
20
12.6560886458349
30
0
41
1
10
97.5231561197148
20
12.6536974519131
30
0
41
1
10
97.519717166478
20
12.6445192588561
30
0
41
1
10
97.5201814178571
20
12.6355833444458
30
0
41
1
10
97.5247925885223
20
12.6150938819369
30
0
41
1
10
97.528964218601
20
12.603315273369
30
0
41
1
10
97.5395772269018
20
12.578624642831
30
0
41
1
10
97.546127538049
20
12.5654512705205
30
0
41
1
10
97.5681084752691
20
12.5251641327109
30
0
41
1
10
97.5856544550338
20
12.4974380464926
30
0
41
1
10
97.6055
20
12.4690368442116
30
0
0
SPLINE
5
16E
100
AcDbEntity
8
1
62
256
6
ByLayer
370
18
48
1
60
0
100
AcDbSpline
70
4
71
3
72
22
73
18
40
0
40
0
40
0
40
0
40
0.249999999999999
40
0.249999999999999
40
0.375
40
0.375
40
0.500000000000001
40
0.500000000000001
40
0.625000000000002
40
0.625000000000002
40
0.750000000000002
40
0.750000000000002
40
0.812500000000002
40
0.812500000000002
40
0.875000000000001
40
0.875000000000001
40
1
40
1
40
1
40
1
41
1
10
11.8943375672973
20
-23.6665017920809
30
0
41
1
10
11.8788923030149
20
-23.6860254491252
30
0
41
1
10
11.8604037172645
20
-23.7049589195931
30
0
41
1
10
11.8264575712212
20
-23.7323123198157
30
0
41
1
10
11.814096269969
20
-23.7412544902042
30
0
41
1
10
11.7867462210776
20
-23.7587312609862
30
0
41
1
10
11.7716842562431
20
-23.7673055542944
30
0
41
1
10
11.7384769785308
20
-23.7837256270429
30
0
41
1
10
11.7203772593316
20
-23.7915679133937
30
0
41
1
10
11.6800242532304
20
-23.8062861503817
30
0
41
1
10
11.6579517648702
20
-23.8130866432223
30
0
41
1
10
11.6215461384038
20
-23.8219342456095
30
0
41
1
10
11.6088302857937
20
-23.8246655611125
30
0
41
1
10
11.5819453465864
20
-23.8295906076134
30
0
41
1
10
11.5678144986017
20
-23.8317679461286
30
0
41
1
10
11.5243601613891
20
-23.8370993498304
30
0
41
1
10
11.4930267682388
20
-23.8391299750504
30
0
41
1
10
11.4613248654052
20
-23.8391299750504
30
0
0
SPLINE
5
16F
100
AcDbEntity
8
1
62
256
6
ByLayer
370
18
48
1
60
0
100
AcDbSpline
70
4
71
3
72
22
73
18
40
0
40
0
40
0
40
0
40
0.250000000000005
40
0.250000000000005
40
0.500000000000011
40
0.500000000000011
40
0.625000000000019
40
0.625000000000019
40
0.687500000000035
40
0.687500000000035
40
0.750000000000051
40
0.750000000000051
40
0.87500000000003
40
0.87500000000003
40
0.937500000000015
40
0.937500000000015
40
1
40
1
40
1
40
1
41
1
10
97.6055
20
-22.4690368442116
30
0
41
1
10
97.5855915537273
20
-22.4975280653222
30
0
41
1
10
97.56769567603
20
-22.5258635508601
30
0
41
1
10
97.5386672707896
20
-22.5791828628332
30
0
41
1
10
97.5270549522047
20
-22.6049237622155
30
0
41
1
10
97.5201581473621
20
-22.6357460390406
30
0
41
1
10
97.5196999481554
20
-22.6445659272815
30
0
41
1
10
97.5232122879929
20
-22.6538000958584
30
0
41
1
10
97.5250723321222
20
-22.6561404219929
30
0
41
1
10
97.5302755446604
20
-22.6590961389691
30
0
41
1
10
97.5336738502519
20
-22.6596962012999
30
0
41
1
10
97.5456268441332
20
-22.6587096977066
30
0
41
1
10
97.5563272950884
20
-22.654265132238
30
0
41
1
10
97.5739236789625
20
-22.6437607679609
30
0
41
1
10
97.5801432038352
20
-22.6395811173997
30
0
41
1
10
97.5926860165345
20
-22.6304254554861
30
0
41
1
10
97.5990533120789
20
-22.6254275627389
30
0
41
1
10
97.6055
20
-22.6200829661947
30
0
0
SPLINE
5
170
100
AcDbEntity
8
1
62
256
6
ByLayer
370
18
48
1
60
0
100
AcDbSpline
70
4
71
3
72
20
73
16
40
0
40
0
40
0
40
0
40
0.0625000000000036
40
0.0625000000000036
40
0.125000000000007
40
0.125000000000007
40
0.250000000000006
40
0.250000000000006
40
0.375000000000006
40
0.375000000000006
40
0.500000000000005
40
0.500000000000005
40
0.750000000000002
40
0.750000000000002
40
1
40
1
40
1
40
1
41
1
10
8.53867513459485
20
7.52966679426504
30
0
41
1
10
8.52279868798013
20
7.52966679426504
30
0
41
1
10
8.50721568825679
20
7.53122440152947
30
0
41
1
10
8.4765841212581
20
7.53717584664554
30
0
41
1
10
8.46140599697401
20
7.54162522662261
30
0
41
1
10
8.41759599948898
20
7.55857361750105
30
0
41
1
10
8.39103491659972
20
7.57431556968109
30
0
41
1
10
8.3417075440052
20
7.61190750686262
30
0
41
1
10
8.31983115452974
20
7.633073252412
30
0
41
1
10
8.27975402284392
20
7.67851551807124
30
0
41
1
10
8.26148999258899
20
7.70297658390786
30
0
41
1
10
8.2117396173519
20
7.77866338250453
30
0
41
1
10
8.18512193927677
20
7.83191947486046
30
0
41
1
10
8.13975567725331
20
7.94172327888188
30
0
41
1
10
8.12111376292623
20
7.99846916820707
30
0
41
1
10
8.10566243270247
20
8.05584836782771
30
0
0
SPLINE
5
171
100
AcDbEntity
8
1
62
256
6
ByLayer
370
18
48
1
60
0
100
AcDbSpline
70
4
71
3
72
20
73
16
40
0
40
0
40
0
40
0
40
0.0625
40
0.0625
40
0.125
40
0.125
40
0.25
40
0.25
40
0.375
40
0.375
40
0.499999999999999
40
0.499999999999999
40
0.75
40
0.75
40
1
40
1
40
1
40
1
41
1
10
8.53867513459485
20
-23.8391299750503
30
0
41
1
10
8.52279868798013
20
-23.8391299750503
30
0
41
1
10
8.50721568825679
20
-23.8386381480423
30
0
41
1
10
8.47658412125807
20
-23.8367571199657
30
0
41
1
10
8.46140599697401
20
-23.8353503028192
30
0
41
1
10
8.41759599948898
20
-23.8299833264009
30
0
41
1
10
8.39103491659972
20
-23.824989671385
30
0
41
1
10
8.34170754400517
20
-23.8130059693791
30
0
41
1
10
8.31983115452974
20
-23.8062336877526
30
0
41
1
10
8.27975402284392
20
-23.7916155212569
30
0
41
1
10
8.26148999258896
20
-23.7837098766636
30
0
41
1
10
8.2117396173519
20
-23.7591079584198
30
0
41
1
10
8.18512193927677
20
-23.7416171457992
30
0
41
1
10
8.13975567725331
20
-23.7051129235882
30
0
41
1
10
8.1211137629262
20
-23.6860331168061
30
0
41
1
10
8.10566243270247
20
-23.6665017920809
30
0
0
SPLINE
5
172
100
AcDbEntity
8
1
62
256
6
ByLayer
370
18
48
1
60
0
100
AcDbSpline
70
4
71
3
72
12
73
8
40
0
40
0
40
0
40
0
40
0.500000000000016
40
0.500000000000016
40
0.750000000000008
40
0.750000000000008
40
1
40
1
40
1
40
1
41
1
10
98.2495
20
-23.7475864397169
30
0
41
1
10
98.2690960393408
20
-23.7255245029813
30
0
41
1
10
98.2870555714388
20
-23.7041980616753
30
0
41
1
10
98.3077712526587
20
-23.6769230565227
30
0
41
1
10
98.3137084244209
20
-23.6685026888432
30
0
41
1
10
98.3220552838793
20
-23.6547549787377
30
0
41
1
10
98.3245000000001
20
-23.6493424979473
30
0
41
1
10
98.3245000000001
20
-23.6463193271823
30
0
0
SPLINE
5
173
100
AcDbEntity
8
1
62
256
6
ByLayer
370
18
48
1
60
0
100
AcDbSpline
70
4
71
3
72
10
73
6
40
0
40
0
40
0
40
0
40
0.500000000000001
40
0.500000000000001
40
1
40
1
40
1
40
1
41
1
10
97.6055000000008
20
-8.78272843686867
30
0
41
1
10
97.7396225398739
20
-8.47972837989292
30
0
41
1
10
97.8621250055221
20
-8.17145220039208
30
0
41
1
10
98.0787110718596
20
-7.54199618770932
30
0
41
1
10
98.172800078506
20
-7.2208188091152
30
0
41
1
10
98.2495000000006
20
-6.89174587477129
30
0
0
SPLINE
5
174
100
AcDbEntity
8
1
62
256
6
ByLayer
370
18
48
1
60
0
100
AcDbSpline
70
4
71
3
72
14
73
10
40
0
40
0
40
0
40
0
40
0.25
40
0.25
40
0.5
40
0.5
40
0.75
40
0.75
40
1
40
1
40
1
40
1
41
1
10
98.2495
20
8.97677529871243
30
0
41
1
10
98.259733022903
20
8.96829674160014
30
0
41
1
10
98.2702346636054
20
8.96110396998236
30
0
41
1
10
98.289965723692
20
8.95233899806041
30
0
41
1
10
98.2990953847833
20
8.95102521335389
30
0
41
1
10
98.31290217886
20
8.95550717491076
30
0
41
1
10
98.3176394355067
20
8.96110144715095
30
0
41
1
10
98.3233787738377
20
8.97578391081896
30
0
41
1
10
98.3245000000044
20
8.98486364456068
30
0
41
1
10
98.3245000000043
20
8.99465257289157
30
0
0
SPLINE
5
175
100
AcDbEntity
8
1
62
256
6
ByLayer
370
18
48
1
60
0
100
AcDbSpline
70
4
71
3
72
20
73
16
40
0
40
0
40
0
40
0
40
0.124999999999968
40
0.124999999999968
40
0.187499999999956
40
0.187499999999956
40
0.249999999999944
40
0.249999999999944
40
0.374999999999953
40
0.374999999999953
40
0.499999999999962
40
0.499999999999962
40
0.749999999999981
40
0.749999999999981
40
1
40
1
40
1
40
1
41
1
10
97.6055
20
10.7591455874816
30
0
41
1
10
97.5912412099917
20
10.7707955390168
30
0
41
1
10
97.5768820097358
20
10.7804531729584
30
0
41
1
10
97.5574184338992
20
10.788465770257
30
0
41
1
10
97.55141786387
20
10.7899919676717
30
0
41
1
10
97.540736957698
20
10.7903960135116
30
0
41
1
10
97.5362947506051
20
10.7892784032771
30
0
41
1
10
97.5253975583987
20
10.7823442394069
30
0
41
1
10
97.521806464736
20
10.7729752613701
30
0
41
1
10
97.5198177849194
20
10.7505443210121
30
0
41
1
10
97.5212007233628
20
10.7375040508776
30
0
41
1
10
97.5298415453329
20
10.6949118150193
30
0
41
1
10
97.5413348811657
20
10.6631039636051
30
0
41
1
10
97.5695088592519
20
10.598922252976
30
0
41
1
10
97.5863155531056
20
10.56633153483
30
0
41
1
10
97.6055
20
10.5333158840139
30
0
0
SPLINE
5
176
100
AcDbEntity
8
1
62
256
6
ByLayer
370
18
48
1
60
0
100
AcDbSpline
70
4
71
3
72
8
73
4
40
0
40
0
40
0
40
0
40
1
40
1
40
1
40
1
41
1
10
97.6055
20
-3.31906645791383
30
0
41
1
10
97.6661423182086
20
-4.43968881930462
30
0
41
1
10
97.6661423182086
20
-5.56031118069538
30
0
41
1
10
97.6055
20
-6.68093354208617
30
0
0
SPLINE
5
177
100
AcDbEntity
8
1
62
256
6
ByLayer
370
18
48
1
60
0
100
AcDbSpline
70
4
71
3
72
22
73
18
40
0
40
0
40
0
40
0
40
0.125000000000041
40
0.125000000000041
40
0.250000000000082
40
0.250000000000082
40
0.312500000000078
40
0.312500000000078
40
0.375000000000074
40
0.375000000000074
40
0.500000000000066
40
0.500000000000066
40
0.625000000000057
40
0.625000000000057
40
0.750000000000049
40
0.750000000000049
40
1
40
1
40
1
40
1
41
1
10
97.6055
20
13.2968754376164
30
0
41
1
10
97.592993500049
20
13.3074523250385
30
0
41
1
10
97.5807062764317
20
13.3169884662058
30
0
41
1
10
97.5581387309791
20
13.3320952215856
30
0
41
1
10
97.5477275950538
20
13.3377169168032
30
0
41
1
10
97.5354434931643
20
13.3413685698684
30
0
41
1
10
97.5319682827651
20
13.3417770780818
30
0
41
1
10
97.5263821989246
20
13.3409817366965
30
0
41
1
10
97.5242299754903
20
13.3397516724482
30
0
41
1
10
97.5199462725363
20
13.3338790234322
30
0
41
1
10
97.5198997335546
20
13.3270135233085
30
0
41
1
10
97.5238716179545
20
13.3100249021397
30
0
41
1
10
97.5278862228096
20
13.2997612893051
30
0
41
1
10
97.5384305992329
20
13.277690421516
30
0
41
1
10
97.5449915632616
20
13.2657814976337
30
0
41
1
10
97.5674181822309
20
13.228501555755
30
0
41
1
10
97.5853406471265
20
13.2025463743235
30
0
41
1
10
97.6055
20
13.1757784213043
30
0
0
SPLINE
5
178
100
AcDbEntity
8
1
62
256
6
ByLayer
370
18
48
1
60
0
100
AcDbSpline
70
4
71
3
72
8
73
4
40
0
40
0
40
0
40
0
40
1
40
1
40
1
40
1
41
1
10
98.2495000000003
20
-9.5717458978616
30
0
41
1
10
98.0864300612877
20
-10.6335061812588
30
0
41
1
10
97.8697062205963
20
-11.680608826154
30
0
41
1
10
97.6055000000001
20
-12.7147398224983
30
0
0
SPLINE
5
179
100
AcDbEntity
8
1
62
256
6
ByLayer
370
18
48
1
60
0
100
AcDbSpline
70
4
71
3
72
12
73
8
40
0
40
0
40
0
40
0
40
0.49999999999999
40
0.49999999999999
40
0.749999999999995
40
0.749999999999995
40
1
40
1
40
1
40
1
41
1
10
98.2495
20
-22.3075317791604
30
0
41
1
10
98.269569104578
20
-22.2800446718393
30
0
41
1
10
98.2870379816785
20
-22.2533892277971
30
0
41
1
10
98.3077415968534
20
-22.2153783121061
30
0
41
1
10
98.3134913399265
20
-22.2034216639816
30
0
41
1
10
98.321898093649
20
-22.1814239866425
30
0
41
1
10
98.3245000000031
20
-22.1714323312695
30
0
41
1
10
98.3245000000032
20
-22.1637626739604
30
0
0
SPLINE
5
17A
100
AcDbEntity
8
1
62
256
6
ByLayer
370
18
48
1
60
0
100
AcDbSpline
70
4
71
3
72
90
73
86
40
0
40
0
40
0
40
0
40
0.0078128230096338
40
0.0078128230096338
40
0.0156256460192675
40
0.0156256460192675
40
0.031251292038535
40
0.031251292038535
40
0.0625025840770699
40
0.0625025840770699
40
0.0937538761156047
40
0.0937538761156047
40
0.12500516815414
40
0.12500516815414
40
0.140630814173407
40
0.140630814173407
40
0.156256460192674
40
0.156256460192674
40
0.187507752231209
40
0.187507752231209
40
0.218759044269744
40
0.218759044269744
40
0.250010336308278
40
0.250010336308278
40
0.265635982327546
40
0.265635982327546
40
0.273448805337179
40
0.273448805337179
40
0.281261628346813
40
0.281261628346813
40
0.312512920385348
40
0.312512920385348
40
0.343764212423882
40
0.343764212423882
40
0.375015504462416
40
0.375015504462416
40
0.390641150481684
40
0.390641150481684
40
0.398453973491317
40
0.398453973491317
40
0.406266796500951
40
0.406266796500951
40
0.437518088539485
40
0.437518088539485
40
0.46876938057802
40
0.46876938057802
40
0.500020672616554
40
0.500020672616554
40
0.515646318635822
40
0.515646318635822
40
0.531271964655089
40
0.531271964655089
40
0.562523256693624
40
0.562523256693624
40
0.593774548732158
40
0.625025840770693
40
0.625025840770693
40
0.64065148678996
40
0.64065148678996
40
0.648464309799594
40
0.648464309799594
40
0.656277132809227
40
0.656277132809227
40
0.687528424847762
40
0.687528424847762
40
0.718779716886296
40
0.750031008924831
40
0.750031008924831
40
0.765656654944098
40
0.765656654944098
40
0.773469477953731
40
0.773469477953731
40
0.781282300963365
40
0.781282300963365
40
0.8125335930019
40
0.8125335930019
40
0.843784885040434
40
0.875036177078968
40
0.875036177078968
40
0.906287469117502
40
0.906287469117502
40
0.937538761156037
40
0.937538761156037
40
0.968790053194571
40
1
40
1
40
1
40
1
41
1
10
92.8340741737105
20
-21.9803412596127
30
0
41
1
10
92.8287497200819
20
-21.8979111129166
30
0
41
1
10
92.8233235166273
20
-21.8137873197928
30
0
41
1
10
92.8122674151211
20
-21.6421217209137
30
0
41
1
10
92.8066307783704
20
-21.554474829867
30
0
41
1
10
92.7894814616806
20
-21.2873948083141
30
0
41
1
10
92.7777237221259
20
-21.1037359858179
30
0
41
1
10
92.7415128610482
20
-20.5362385085731
30
0
41
1
10
92.7161238472774
20
-20.135907098316
30
0
41
1
10
92.6630007372639
20
-19.292100341478
30
0
41
1
10
92.6352664780009
20
-18.8486235983018
30
0
41
1
10
92.5775500134298
20
-17.9184867746004
30
0
41
1
10
92.5475678081133
20
-17.4318283299542
30
0
41
1
10
92.5009427068
20
-16.6687563646722
30
0
41
1
10
92.4851160276142
20
-16.4087248100798
30
0
41
1
10
92.4529503352386
20
-15.8780455272847
30
0
41
1
10
92.4367063682822
20
-15.6089666185685
30
0
41
1
10
92.3875150524233
20
-14.7907168646979
30
0
41
1
10
92.3541095370928
20
-14.2305518630338
30
0
41
1
10
92.2861708935509
20
-13.0815012672805
30
0
41
1
10
92.2516376091475
20
-12.4926146039054
30
0
41
1
10
92.1814998146
20
-11.2861339626371
30
0
41
1
10
92.1458952655211
20
-10.6685409266523
30
0
41
1
10
92.0917009431099
20
-9.7201895306668
30
0
41
1
10
92.0735046475358
20
-9.40040739990269
30
0
41
1
10
92.0460124197415
20
-8.91513776374347
30
0
41
1
10
92.0368224424619
20
-8.75257221479552
30
0
41
1
10
92.0184616568757
20
-8.42707480910212
30
0
41
1
10
92.009280922931
20
-8.26396789464135
30
0
41
1
10
91.96337645857
20
-7.44665816366907
30
0
41
1
10
91.9266509066822
20
-6.78713924792712
30
0
41
1
10
91.8532097588028
20
-5.45701183066424
30
0
41
1
10
91.8164940997899
20
-4.78640286111298
30
0
41
1
10
91.7430733649251
20
-3.43411755419913
30
0
41
1
10
91.706368272405
20
-2.75244152230462
30
0
41
1
10
91.6513101255332
20
-1.72147443167819
30
0
41
1
10
91.63295723365
20
-1.37640810067205
30
0
41
1
10
91.6054257352964
20
-0.856656444332373
30
0
41
1
10
91.5962379927421
20
-0.682853113824308
30
0
41
1
10
91.5779353153289
20
-0.335924264782591
30
0
41
1
10
91.5688158171689
20
-0.162713464033232
30
0
41
1
10
91.5233750081092
20
0.702084191120576
30
0
41
1
10
91.487523204909
20
1.3899087146236
30
0
41
1
10
91.4167657004917
20
2.75772117120744
30
0
41
1
10
91.3818600576964
20
3.4377087280408
30
0
41
1
10
91.3129520489462
20
4.78987345114109
30
0
41
1
10
91.2789497068223
20
5.4620507917335
30
0
41
1
10
91.2286000461645
20
6.46435897863415
30
0
41
1
10
91.2119258880297
20
6.79746747177762
30
0
41
1
10
91.1787927999353
20
7.46166325799015
30
0
41
1
10
91.1623088013935
20
7.79326090468771
30
0
41
1
10
91.1136149017308
20
8.77607814191143
30
0
41
1
10
91.0820304191052
20
9.41796192491762
30
0
41
1
10
91.0205175605003
20
10.6757564896929
30
0
41
1
10
90.9606610754744
20
11.9075748199872
30
0
41
1
10
90.903985699326
20
13.0877191135594
30
0
41
1
10
90.8626459345752
20
13.9531560488585
30
0
41
1
10
90.8490607110149
20
14.238352322453
30
0
41
1
10
90.8289738145757
20
14.6611466550166
30
0
41
1
10
90.8223266874562
20
14.8012444693265
30
0
41
1
10
90.8091294449593
20
15.0797566358865
30
0
41
1
10
90.8025810610917
20
15.2181349626964
30
0
41
1
10
90.7702333817243
20
15.9025620367099
30
0
41
1
10
90.7454898918231
20
16.4288850897666
30
0
41
1
10
90.6981528889495
20
17.4402593482156
30
0
41
1
10
90.6529662472247
20
18.4103563316948
30
0
41
1
10
90.6119414006168
20
19.2984903732714
30
0
41
1
10
90.5827154698058
20
19.9334461333328
30
0
41
1
10
90.5732309597263
20
20.1399006894817
30
0
41
1
10
90.5593913607307
20
20.4416735110958
30
0
41
1
10
90.5548427114795
20
20.5409458378744
30
0
41
1
10
90.5458749542808
20
20.7368289036587
30
0
41
1
10
90.5414507867744
20
20.8335504197327
30
0
41
1
10
90.5197361599007
20
21.3086653905991
30
0
41
1
10
90.5036450798807
20
21.6619891094562
30
0
41
1
10
90.4739066284233
20
22.3166688230038
30
0
41
1
10
90.4466123263787
20
22.9193736000857
30
0
41
1
10
90.4240895360646
20
23.4190582716658
30
0
41
1
10
90.4039488481619
20
23.8666413902339
30
0
41
1
10
90.3950672022184
20
24.0644352607984
30
0
41
1
10
90.3797473304545
20
24.4060218748514
30
0
41
1
10
90.3734127475158
20
24.5475009635993
30
0
41
1
10
90.3632940843499
20
24.7736534920363
30
0
41
1
10
90.3557313724583
20
24.9428800583038
30
0
41
1
10
90.3531882372508
20
24.9998398878045
30
0
41
1
10
90.3531811177777
20
24.9999993266741
30
0
0
SPLINE
5
17B
100
AcDbEntity
8
1
62
256
6
ByLayer
370
18
48
1
60
0
100
AcDbSpline
70
4
71
3
72
20
73
16
40
0
40
0
40
0
40
0
40
0.0624999999999957
40
0.0624999999999957
40
0.124999999999992
40
0.124999999999992
40
0.249999999999991
40
0.249999999999991
40
0.37499999999999
40
0.37499999999999
40
0.49999999999999
40
0.49999999999999
40
0.749999999999995
40
0.749999999999995
40
1
40
1
40
1
40
1
41
1
10
11.4613248654051
20
23.8391299750503
30
0
41
1
10
11.4772013120199
20
23.8391299750503
30
0
41
1
10
11.4927843117432
20
23.8386381480423
30
0
41
1
10
11.5234158787419
20
23.8367571199657
30
0
41
1
10
11.538594003026
20
23.8353503028192
30
0
41
1
10
11.582404000511
20
23.8299833264009
30
0
41
1
10
11.6089650834003
20
23.8249896713849
30
0
41
1
10
11.6582924559948
20
23.813005969379
30
0
41
1
10
11.6801688454702
20
23.8062336877526
30
0
41
1
10
11.7202459771561
20
23.7916155212569
30
0
41
1
10
11.738510007411
20
23.7837098766636
30
0
41
1
10
11.788260382648
20
23.7591079584197
30
0
41
1
10
11.8148780607232
20
23.7416171457992
30
0
41
1
10
11.8602443227466
20
23.7051129235882
30
0
41
1
10
11.8788862370737
20
23.6860331168061
30
0
41
1
10
11.8943375672975
20
23.6665017920809
30
0
0
SPLINE
5
17C
100
AcDbEntity
8
1
62
256
6
ByLayer
370
18
48
1
60
0
100
AcDbSpline
70
4
71
3
72
14
73
10
40
0
40
0
40
0
40
0
40
0.25
40
0.25
40
0.5
40
0.5
40
0.75
40
0.75
40
1
40
1
40
1
40
1
41
1
10
98.2495
20
-21.5300799335829
30
0
41
1
10
98.2595755187232
20
-21.5151033727451
30
0
41
1
10
98.2689399471698
20
-21.5002821377311
30
0
41
1
10
98.2861613172573
20
-21.4709631921384
30
0
41
1
10
98.2940783650029
20
-21.4563504489578
30
0
41
1
10
98.3077457705477
20
-21.4280858342372
30
0
41
1
10
98.3134679634118
20
-21.414541490867
30
0
41
1
10
98.3218707399949
20
-21.3890624272171
30
0
41
1
10
98.3245000000085
20
-21.3772185365104
30
0
41
1
10
98.3245000000091
20
-21.3675876053921
30
0
0
SPLINE
5
17D
100
AcDbEntity
8
1
62
256
6
ByLayer
370
18
48
1
60
0
100
AcDbSpline
70
4
71
3
72
8
73
4
40
0
40
0
40
0
40
0
40
1
40
1
40
1
40
1
41
1
10
97.6055
20
9.23348971252764
30
0
41
1
10
97.8265103487022
20
8.80495853309321
30
0
41
1
10
98.0414057264598
20
8.37238268351763
30
0
41
1
10
98.2495
20
7.93530832963125
30
0
0
SPLINE
5
17E
100
AcDbEntity
8
1
62
256
6
ByLayer
370
18
48
1
60
0
100
AcDbSpline
70
4
71
3
72
14
73
10
40
0
40
0
40
0
40
0
40
0.25
40
0.25
40
0.5
40
0.5
40
0.75
40
0.75
40
1
40
1
40
1
40
1
41
1
10
98.3245
20
-23.2309126238238
30
0
41
1
10
98.3245
20
-23.2269178971008
30
0
41
1
10
98.3226261329832
20
-23.2247594643014
30
0
41
1
10
98.314843542028
20
-23.2248115931792
30
0
41
1
10
98.3091628945777
20
-23.226981040974
30
0
41
1
10
98.2948542225229
20
-23.2350325359301
30
0
41
1
10
98.2865896124374
20
-23.2407014516844
30
0
41
1
10
98.2686127181098
20
-23.254375599661
30
0
41
1
10
98.2592097044671
20
-23.2621405398416
30
0
41
1
10
98.2495
20
-23.2705960321683
30
0
0
SPLINE
5
17F
100
AcDbEntity
8
1
62
256
6
ByLayer
370
18
48
1
60
0
100
AcDbSpline
70
4
71
3
72
14
73
10
40
0
40
0
40
0
40
0
40
0.25
40
0.25
40
0.5
40
0.5
40
0.75
40
0.75
40
1
40
1
40
1
40
1
41
1
10
98.3245
20
12.7986396737458
30
0
41
1
10
98.3245000000001
20
12.80466776027
30
0
41
1
10
98.3219585951293
20
12.8129038412025
30
0
41
1
10
98.31345050483
20
12.8320919898525
30
0
41
1
10
98.3076457024703
20
12.8426975094091
30
0
41
1
10
98.2938160716918
20
12.8653586799415
30
0
41
1
10
98.2858454453667
20
12.8772918268094
30
0
41
1
10
98.2686722258868
20
12.9014801599266
30
0
41
1
10
98.2593984893986
20
12.9138435403137
30
0
41
1
10
98.2495
20
12.9264544727241
30
0
0
SPLINE
5
180
100
AcDbEntity
8
1
62
256
6
ByLayer
370
18
48
1
60
0
100
AcDbSpline
70
4
71
3
72
8
73
4
40
0
40
0
40
0
40
0
40
1
40
1
40
1
40
1
41
1
10
98.2495
20
12.7516701480928
30
0
41
1
10
98.0349138148107
20
12.9335319303368
30
0
41
1
10
97.8202447540081
20
13.11526338816
30
0
41
1
10
97.6055
20
13.2968754376164
30
0
0
SPLINE
5
181
100
AcDbEntity
8
1
62
256
6
ByLayer
370
18
48
1
60
0
100
AcDbSpline
70
4
71
3
72
8
73
4
40
0
40
0
40
0
40
0
40
1
40
1
40
1
40
1
41
1
10
98.2495
20
-23.7475864397169
30
0
41
1
10
98.0357525342201
20
-23.9882311427328
30
0
41
1
10
97.8210594377484
20
-24.2277459581948
30
0
41
1
10
97.6055
20
-24.4662256251216
30
0
0
SPLINE
5
182
100
AcDbEntity
8
1
62
256
6
ByLayer
370
18
48
1
60
0
100
AcDbSpline
70
4
71
3
72
14
73
10
40
0
40
0
40
0
40
0
40
0.25
40
0.25
40
0.5
40
0.5
40
0.75
40
0.75
40
1
40
1
40
1
40
1
41
1
10
98.2495000000009
20
14.0497595350347
30
0
41
1
10
98.2592507620438
20
14.0402857484307
30
0
41
1
10
98.2685315644711
20
14.0313407515936
30
0
41
1
10
98.2859568314169
20
14.0147203145367
30
0
41
1
10
98.2941812361887
20
14.006972118358
30
0
41
1
10
98.3081777641751
20
13.9940407991515
30
0
41
1
10
98.314130113209
20
13.9886933373445
30
0
41
1
10
98.3222743165323
20
13.9818216055315
30
0
41
1
10
98.3245
20
13.9802755671428
30
0
41
1
10
98.3245
20
13.9809298975149
30
0
0
SPLINE
5
183
100
AcDbEntity
8
1
62
256
6
ByLayer
370
18
48
1
60
0
100
AcDbSpline
70
4
71
3
72
8
73
4
40
0
40
0
40
0
40
0
40
1
40
1
40
1
40
1
41
1
10
98.2495
20
10.2329620912908
30
0
41
1
10
98.0348350239476
20
10.4083593488628
30
0
41
1
10
97.8201683008329
20
10.5837537555398
30
0
41
1
10
97.6055
20
10.7591455874816
30
0
0
SPLINE
5
184
100
AcDbEntity
8
1
62
256
6
ByLayer
370
18
48
1
60
0
100
AcDbSpline
70
4
71
3
72
8
73
4
40
0
40
0
40
0
40
0
40
1
40
1
40
1
40
1
41
1
10
98.2495
20
7.41601229971647
30
0
41
1
10
98.0350057378338
20
7.60111037918733
30
0
41
1
10
97.8203319606478
20
7.78593046871956
30
0
41
1
10
97.6055
20
7.97050560152925
30
0
0
SPLINE
5
185
100
AcDbEntity
8
1
62
256
6
ByLayer
370
18
48
1
60
0
100
AcDbSpline
70
4
71
3
72
14
73
10
40
0
40
0
40
0
40
0
40
0.25
40
0.25
40
0.5
40
0.5
40
0.75
40
0.75
40
1
40
1
40
1
40
1
41
1
10
98.3245000000001
20
-22.0663360248446
30
0
41
1
10
98.3245000000001
20
-22.0602063448816
30
0
41
1
10
98.3228790884289
20
-22.0554417118856
30
0
41
1
10
98.3157237685987
20
-22.050394459048
30
0
41
1
10
98.3101243352504
20
-22.0501458087765
30
0
41
1
10
98.2959401497
20
-22.0543147310199
30
0
41
1
10
98.2873637090464
20
-22.0586844662362
30
0
41
1
10
98.2690111551928
20
-22.0704653043413
30
0
41
1
10
98.259309512901
20
-22.0777868692096
30
0
41
1
10
98.2495
20
-22.0859271543189
30
0
0
SPLINE
5
186
100
AcDbEntity
8
1
62
256
6
ByLayer
370
18
48
1
60
0
100
AcDbSpline
70
4
71
3
72
12
73
8
40
0
40
0
40
0
40
0
40
0.500000000000005
40
0.500000000000005
40
0.750000000000002
40
0.750000000000002
40
1
40
1
40
1
40
1
41
1
10
98.2495
20
-19.3919878841886
30
0
41
1
10
98.2701003209502
20
-19.354338633359
30
0
41
1
10
98.2877787394772
20
-19.3163913811337
30
0
41
1
10
98.3078803980417
20
-19.2617098394659
30
0
41
1
10
98.3135259625515
20
-19.2438253173232
30
0
41
1
10
98.3218604786181
20
-19.2090213858312
30
0
41
1
10
98.3245
20
-19.1924069066608
30
0
41
1
10
98.3245
20
-19.1775976034379
30
0
0
SPLINE
5
187
100
AcDbEntity
8
1
62
256
6
ByLayer
370
18
48
1
60
0
100
AcDbSpline
70
4
71
3
72
8
73
4
40
0
40
0
40
0
40
0
40
1
40
1
40
1
40
1
41
1
10
97.6055
20
11.5974568928041
30
0
41
1
10
97.8234311235556
20
11.2578238253877
30
0
41
1
10
98.0382071317381
20
10.9155530145199
30
0
41
1
10
98.2495
20
10.5703702247132
30
0
0
SPLINE
5
188
100
AcDbEntity
8
1
62
256
6
ByLayer
370
18
48
1
60
0
100
AcDbSpline
70
4
71
3
72
16
73
12
40
0
40
0
40
0
40
0
40
0.250000000000085
40
0.250000000000085
40
0.500000000000169
40
0.500000000000169
40
0.625000000000168
40
0.625000000000168
40
0.750000000000166
40
0.750000000000166
40
1
40
1
40
1
40
1
41
1
10
98.3245000000002
20
-18.9946525728947
30
0
41
1
10
98.3245000000002
20
-18.9847939311251
30
0
41
1
10
98.323364700352
20
-18.9757224015114
30
0
41
1
10
98.3176184398475
20
-18.9610733983107
30
0
41
1
10
98.3128322576154
20
-18.9554349467433
30
0
41
1
10
98.3023862346089
20
-18.9521189582846
30
0
41
1
10
98.2984597623733
20
-18.9518627336726
30
0
41
1
10
98.2897035298766
20
-18.9530805456519
30
0
41
1
10
98.2849092874381
20
-18.9545789497624
30
0
41
1
10
98.2702584567929
20
-18.9611060017641
30
0
41
1
10
98.2597292289702
20
-18.9682998850581
30
0
41
1
10
98.2495
20
-18.9767752987124
30
0
0
SPLINE
5
189
100
AcDbEntity
8
1
62
256
6
ByLayer
370
18
48
1
60
0
100
AcDbSpline
70
4
71
3
72
8
73
4
40
0
40
0
40
0
40
0
40
1
40
1
40
1
40
1
41
1
10
97.6055
20
13.7363442052147
30
0
41
1
10
97.821632798019
20
13.46793539229
30
0
41
1
10
98.036344592726
20
13.1980199940686
30
0
41
1
10
98.2495
20
12.9264544727241
30
0
0
SPLINE
5
18A
100
AcDbEntity
8
1
62
256
6
ByLayer
370
18
48
1
60
0
100
AcDbSpline
70
4
71
3
72
8
73
4
40
0
40
0
40
0
40
0
40
1
40
1
40
1
40
1
41
1
10
97.6055
20
-24.5115512430934
30
0
41
1
10
97.8204626786589
20
-24.31244894935
30
0
41
1
10
98.0351378607354
20
-24.1129342405493
30
0
41
1
10
98.2495
20
-23.9129704705177
30
0
0
SPLINE
5
18B
100
AcDbEntity
8
1
62
256
6
ByLayer
370
18
48
1
60
0
100
AcDbSpline
70
4
71
3
72
8
73
4
40
0
40
0
40
0
40
0
40
1
40
1
40
1
40
1
41
1
10
98.2495
20
-17.9353083296313
30
0
41
1
10
98.0414057264598
20
-18.3723826835177
30
0
41
1
10
97.8265103487022
20
-18.8049585330932
30
0
41
1
10
97.6055
20
-19.2334897125277
30
0
0
SPLINE
5
18C
100
AcDbEntity
8
1
62
256
6
ByLayer
370
18
48
1
60
0
100
AcDbSpline
70
4
71
3
72
8
73
4
40
0
40
0
40
0
40
0
40
1
40
1
40
1
40
1
41
1
10
97.6055
20
-20.7591455874816
30
0
41
1
10
97.8201683008329
20
-20.5837537555398
30
0
41
1
10
98.0348350239476
20
-20.4083593488628
30
0
41
1
10
98.2495
20
-20.2329620912908
30
0
0
SPLINE
5
18D
100
AcDbEntity
8
1
62
256
6
ByLayer
370
18
48
1
60
0
100
AcDbSpline
70
4
71
3
72
8
73
4
40
0
40
0
40
0
40
0
40
1
40
1
40
1
40
1
41
1
10
97.6055
20
14.7184503955052
30
0
41
1
10
97.8207000524708
20
14.5023166855204
30
0
41
1
10
98.0353821421022
20
14.2854992733109
30
0
41
1
10
98.2495
20
14.0679370847154
30
0
0
SPLINE
5
18E
100
AcDbEntity
8
1
62
256
6
ByLayer
370
18
48
1
60
0
100
AcDbSpline
70
4
71
3
72
8
73
4
40
0
40
0
40
0
40
0
40
1
40
1
40
1
40
1
41
1
10
97.6055
20
-13.3736110174262
30
0
41
1
10
97.8225293003014
20
-13.1296763983234
30
0
41
1
10
98.0373665452931
20
-12.8831983032509
30
0
41
1
10
98.2495
20
-12.6335829581344
30
0
0
SPLINE
5
18F
100
AcDbEntity
8
1
62
256
6
ByLayer
370
18
48
1
60
0
100
AcDbSpline
70
4
71
3
72
24
73
20
40
0
40
0
40
0
40
0
40
0.0625000000000321
40
0.0625000000000321
40
0.0937500000000263
40
0.0937500000000263
40
0.125000000000021
40
0.125000000000021
40
0.187500000000009
40
0.187500000000009
40
0.249999999999998
40
0.249999999999998
40
0.374999999999998
40
0.374999999999998
40
0.499999999999997
40
0.499999999999997
40
0.749999999999999
40
0.749999999999999
40
1
40
1
40
1
40
1
41
1
10
97.6055000000005
20
6.01933248955075
30
0
41
1
10
97.5963514999414
20
6.02786528654426
30
0
41
1
10
97.5866876697863
20
6.03519990669929
30
0
41
1
10
97.5723330899366
20
6.04182000623811
30
0
41
1
10
97.567554778791
20
6.0432723168305
30
0
41
1
10
97.5586414963532
20
6.04425085338201
30
0
41
1
10
97.5543655001453
20
6.04377545461881
30
0
41
1
10
97.5430939816221
20
6.03971048768673
30
0
41
1
10
97.5373469222961
20
6.0335113934087
30
0
41
1
10
97.5289338815003
20
6.01793447613011
30
0
41
1
10
97.5261574723944
20
6.00858243147934
30
0
41
1
10
97.5204500881332
20
5.97888478005345
30
0
41
1
10
97.5199364302341
20
5.95636684520744
30
0
41
1
10
97.5218901242229
20
5.91059149971133
30
0
41
1
10
97.5244417108911
20
5.88694932565971
30
0
41
1
10
97.5351213490498
20
5.81454611730419
30
0
41
1
10
97.5459598179365
20
5.7658633474735
30
0
41
1
10
97.5721839896752
20
5.66796329634954
30
0
41
1
10
97.5876647221102
20
5.61873629515082
30
0
41
1
10
97.6054999999999
20
5.56924233257854
30
0
0
SPLINE
5
190
100
AcDbEntity
8
1
62
256
6
ByLayer
370
18
48
1
60
0
100
AcDbSpline
70
4
71
3
72
8
73
4
40
0
40
0
40
0
40
0
40
1
40
1
40
1
40
1
41
1
10
98.2495
20
-22.3075317791604
30
0
41
1
10
98.0367823196005
20
-22.5988748078191
30
0
41
1
10
97.8220560392467
20
-22.8882313992869
30
0
41
1
10
97.6055
20
-23.1757784213043
30
0
0
SPLINE
5
191
100
AcDbEntity
8
1
62
256
6
ByLayer
370
18
48
1
60
0
100
AcDbSpline
70
4
71
3
72
8
73
4
40
0
40
0
40
0
40
0
40
1
40
1
40
1
40
1
41
1
10
97.6055
20
14.1635661381751
30
0
41
1
10
97.8213104962891
20
13.9112851613349
30
0
41
1
10
98.036011628907
20
13.6577519784764
30
0
41
1
10
98.2495
20
13.4028498781752
30
0
0
SPLINE
5
192
100
AcDbEntity
8
1
62
256
6
ByLayer
370
18
48
1
60
0
100
AcDbSpline
70
4
71
3
72
14
73
10
40
0
40
0
40
0
40
0
40
0.25
40
0.25
40
0.5
40
0.5
40
0.75
40
0.75
40
1
40
1
40
1
40
1
41
1
10
98.3245
20
13.2890240128757
30
0
41
1
10
98.3245
20
13.2934918735214
30
0
41
1
10
98.3219923463416
20
13.3002811047651
30
0
41
1
10
98.313542185526
20
13.3166495690633
30
0
41
1
10
98.3076717384724
20
13.326113517657
30
0
41
1
10
98.2938197835889
20
13.3464514484414
30
0
41
1
10
98.285784157645
20
13.3573907805796
30
0
41
1
10
98.2685852242045
20
13.3796566607554
30
0
41
1
10
98.2593328298394
20
13.3911096182017
30
0
41
1
10
98.2495
20
13.4028498781752
30
0
0
SPLINE
5
193
100
AcDbEntity
8
1
62
256
6
ByLayer
370
18
48
1
60
0
100
AcDbSpline
70
4
71
3
72
14
73
10
40
0
40
0
40
0
40
0
40
0.25
40
0.25
40
0.5
40
0.5
40
0.75
40
0.75
40
1
40
1
40
1
40
1
41
1
10
98.2495
20
13.2705960321683
30
0
41
1
10
98.2592295119836
20
13.2621232908817
30
0
41
1
10
98.2688025775435
20
13.2542265447333
30
0
41
1
10
98.2866018633678
20
13.2406968240446
30
0
41
1
10
98.2949542474703
20
13.2349725137476
30
0
41
1
10
98.309141149508
20
13.2269970357157
30
0
41
1
10
98.3149572318673
20
13.2247944411961
30
0
41
1
10
98.3226030338568
20
13.2247762044744
30
0
41
1
10
98.3245000000001
20
13.2269651603499
30
0
41
1
10
98.3245000000001
20
13.2309126238238
30
0
0
SPLINE
5
194
100
AcDbEntity
8
1
62
256
6
ByLayer
370
18
48
1
60
0
100
AcDbSpline
70
4
71
3
72
8
73
4
40
0
40
0
40
0
40
0
40
1
40
1
40
1
40
1
41
1
10
98.2495
20
-20.5703702247132
30
0
41
1
10
98.0382071317381
20
-20.9155530145199
30
0
41
1
10
97.8234311235556
20
-21.2578238253877
30
0
41
1
10
97.6055
20
-21.5974568928041
30
0
0
SPLINE
5
195
100
AcDbEntity
8
1
62
256
6
ByLayer
370
18
48
1
60
0
100
AcDbSpline
70
4
71
3
72
18
73
14
40
0
40
0
40
0
40
0
40
0.124999999999996
40
0.124999999999996
40
0.249999999999992
40
0.249999999999992
40
0.374999999999988
40
0.374999999999988
40
0.499999999999983
40
0.499999999999983
40
0.749999999999992
40
0.749999999999992
40
1
40
1
40
1
40
1
41
1
10
98.2494999999984
20
2.6335829581316
30
0
41
1
10
98.2554139583019
20
2.62662406169042
30
0
41
1
10
98.2617704585627
20
2.62030972372824
30
0
41
1
10
98.2753056805867
20
2.61142405447762
30
0
41
1
10
98.2825539823758
20
2.60917728824273
30
0
41
1
10
98.2950877586339
20
2.61165495551524
30
0
41
1
10
98.3002300690961
20
2.61609947706609
30
0
41
1
10
98.3081590515472
20
2.62751165373624
30
0
41
1
10
98.3111279719403
20
2.63451707959229
30
0
41
1
10
98.3182224099558
20
2.65669355896867
30
0
41
1
10
98.3207451881801
20
2.67337802668857
30
0
41
1
10
98.3239121953916
20
2.70715170013844
30
0
41
1
10
98.3245
20
2.72451069593026
30
0
41
1
10
98.3245
20
2.74214285318712
30
0
0
SPLINE
5
196
100
AcDbEntity
8
1
62
256
6
ByLayer
370
18
48
1
60
0
100
AcDbSpline
70
4
71
3
72
14
73
10
40
0
40
0
40
0
40
0
40
0.249137036272802
40
0.249137036272802
40
0.499424690848534
40
0.499424690848534
40
0.749712345424267
40
0.749712345424267
40
1
40
1
40
1
40
1
41
1
10
97.5205010070968
20
14.8039989842351
30
0
41
1
10
97.5205591996371
20
14.8039402888467
30
0
41
1
10
97.5231782053043
20
14.8012984444833
30
0
41
1
10
97.5325099783761
20
14.7918899641521
30
0
41
1
10
97.5392844828075
20
14.7850614653389
30
0
41
1
10
97.5551493578736
20
14.7690814809519
30
0
41
1
10
97.5644347870153
20
14.7597336572633
30
0
41
1
10
97.5840916007173
20
14.7399607665406
30
0
41
1
10
97.5945385189195
20
14.729459433587
30
0
41
1
10
97.6055
20
14.7184503955052
30
0
0
SPLINE
5
197
100
AcDbEntity
8
1
62
256
6
ByLayer
370
18
48
1
60
0
100
AcDbSpline
70
4
71
3
72
24
73
20
40
0
40
0
40
0
40
0
40
0.249999999999989
40
0.249999999999989
40
0.374999999999984
40
0.374999999999984
40
0.499999999999979
40
0.499999999999979
40
0.624999999999973
40
0.624999999999973
40
0.68749999999998
40
0.68749999999998
40
0.749999999999987
40
0.749999999999987
40
0.812499999999994
40
0.812499999999994
40
0.875000000000001
40
0.875000000000001
40
1
40
1
40
1
40
1
41
1
10
97.6055
20
-23.7363442052147
30
0
41
1
10
97.584933659893
20
-23.7618849236292
30
0
41
1
10
97.5662642298246
20
-23.7868862910127
30
0
41
1
10
97.543766769786
20
-23.8209469214415
30
0
41
1
10
97.5370921639868
20
-23.8318990550104
30
0
41
1
10
97.5267461011529
20
-23.8513838063828
30
0
41
1
10
97.5229510871462
20
-23.8601468439845
30
0
41
1
10
97.5197443444473
20
-23.8737149412441
30
0
41
1
10
97.5203964193229
20
-23.8785001258788
30
0
41
1
10
97.5254777593788
20
-23.8812221123845
30
0
41
1
10
97.5278883759314
20
-23.8813989058139
30
0
41
1
10
97.5338383866355
20
-23.8802752371659
30
0
41
1
10
97.5373848683436
20
-23.8789999511004
30
0
41
1
10
97.545559270928
20
-23.8751024509133
30
0
41
1
10
97.5501882859262
20
-23.8724678743437
30
0
41
1
10
97.5599922427559
20
-23.8662329420271
30
0
41
1
10
97.5652186566671
20
-23.8626093330227
30
0
41
1
10
97.5817540202294
20
-23.8504066896326
30
0
41
1
10
97.5934479686377
20
-23.8408583968401
30
0
41
1
10
97.6055
20
-23.8304003628102
30
0
0
SPLINE
5
198
100
AcDbEntity
8
1
62
256
6
ByLayer
370
18
48
1
60
0
100
AcDbSpline
70
4
71
3
72
8
73
4
40
0
40
0
40
0
40
0
40
1
40
1
40
1
40
1
41
1
10
98.2495
20
13.9129704705177
30
0
41
1
10
98.0351378607354
20
14.1129342405493
30
0
41
1
10
97.8204626786589
20
14.31244894935
30
0
41
1
10
97.6055
20
14.5115512430934
30
0
0
SPLINE
5
199
100
AcDbEntity
8
1
62
256
6
ByLayer
370
18
48
1
60
0
100
AcDbSpline
70
4
71
3
72
14
73
10
40
0
40
0
40
0
40
0
40
0.25
40
0.25
40
0.5
40
0.5
40
0.75
40
0.75
40
1
40
1
40
1
40
1
41
1
10
98.2495
20
13.654960886978
30
0
41
1
10
98.2592159985016
20
13.646223193626
30
0
41
1
10
98.2687261650705
20
13.6379823211317
30
0
41
1
10
98.2863466387967
20
13.6235082432094
30
0
41
1
10
98.2946257999411
20
13.6171378972796
30
0
41
1
10
98.3087737819881
20
13.6074583306913
30
0
41
1
10
98.3146448825017
20
13.6041706494089
30
0
41
1
10
98.3224850003474
20
13.6018182843393
30
0
41
1
10
98.3245
20
13.6027592296194
30
0
41
1
10
98.3245
20
13.6056268367876
30
0
0
SPLINE
5
19A
100
AcDbEntity
8
1
62
256
6
ByLayer
370
18
48
1
60
0
100
AcDbSpline
70
4
71
3
72
18
73
14
40
0
40
0
40
0
40
0
40
0.250000000000008
40
0.250000000000008
40
0.500000000000017
40
0.500000000000017
40
0.625000000000013
40
0.625000000000013
40
0.750000000000008
40
0.750000000000008
40
0.875000000000004
40
0.875000000000004
40
1
40
1
40
1
40
1
41
1
10
98.3245
20
-12.7421428531871
30
0
41
1
10
98.3245
20
-12.7245176993837
30
0
41
1
10
98.3239122919799
20
-12.7071717485021
30
0
41
1
10
98.3207529083203
20
-12.6734413846414
30
0
41
1
10
98.3182332122497
20
-12.6567428508802
30
0
41
1
10
98.3111398930036
20
-12.6345466094669
30
0
41
1
10
98.3081771461697
20
-12.6275421986267
30
0
41
1
10
98.3002308808572
20
-12.6160961548196
30
0
41
1
10
98.2951355455778
20
-12.611654585214
30
0
41
1
10
98.2824510330992
20
-12.6091667968877
30
0
41
1
10
98.2752644858578
20
-12.611435898954
30
0
41
1
10
98.2616724654686
20
-12.6203894104481
30
0
41
1
10
98.255362671196
20
-12.6266844107274
30
0
41
1
10
98.2495
20
-12.6335829581344
30
0
0
SPLINE
5
19B
100
AcDbEntity
8
1
62
256
6
ByLayer
370
18
48
1
60
0
100
AcDbSpline
70
4
71
3
72
14
73
10
40
0
40
0
40
0
40
0
40
0.25
40
0.25
40
0.5
40
0.5
40
0.75
40
0.75
40
1
40
1
40
1
40
1
41
1
10
98.2495
20
13.9129704705177
30
0
41
1
10
98.2592181581408
20
13.903905065842
30
0
41
1
10
98.2686645692863
20
13.8952835726591
30
0
41
1
10
98.2861495352744
20
13.8797984618444
30
0
41
1
10
98.2943752214035
20
13.8727705037188
30
0
41
1
10
98.3084746373257
20
13.8614390573629
30
0
41
1
10
98.3143816471265
20
13.8571198467059
30
0
41
1
10
98.3223777513261
20
13.8525031712641
30
0
41
1
10
98.3245
20
13.8522049260041
30
0
41
1
10
98.3245
20
13.8539790198802
30
0
0
SPLINE
5
19C
100
AcDbEntity
8
1
62
256
6
ByLayer
370
18
48
1
60
0
100
AcDbSpline
70
4
71
3
72
8
73
4
40
0
40
0
40
0
40
0
40
1
40
1
40
1
40
1
41
1
10
97.6055
20
-16.0193324895491
30
0
41
1
10
97.8207399691693
20
-15.8185783823277
30
0
41
1
10
98.035436607666
20
-15.6170527580397
30
0
41
1
10
98.2495
20
-15.4146279387559
30
0
0
SPLINE
5
19D
100
AcDbEntity
8
1
62
256
6
ByLayer
370
18
48
1
60
0
100
AcDbSpline
70
4
71
3
72
14
73
10
40
0
40
0
40
0
40
0
40
0.25
40
0.25
40
0.5
40
0.5
40
0.75
40
0.75
40
1
40
1
40
1
40
1
41
1
10
98.3245
20
-20.2365834598287
30
0
41
1
10
98.3245
20
-20.2280574715485
30
0
41
1
10
98.3232265794519
20
-20.2206332405458
30
0
41
1
10
98.31687672309
20
-20.2094874469187
30
0
41
1
10
98.3116771773874
20
-20.2060071462588
30
0
41
1
10
98.2976317133279
20
-20.2051536604223
30
0
41
1
10
98.2887191089604
20
-20.2077937103421
30
0
41
1
10
98.2697156290151
20
-20.217628287636
30
0
41
1
10
98.2595363211322
20
-20.2247616701736
30
0
41
1
10
98.2495
20
-20.2329620912906
30
0
0
SPLINE
5
19E
100
AcDbEntity
8
1
62
256
6
ByLayer
370
18
48
1
60
0
100
AcDbSpline
70
4
71
3
72
12
73
8
40
0
40
0
40
0
40
0
40
0.249999999999998
40
0.249999999999998
40
0.499999999999996
40
0.499999999999996
40
1
40
1
40
1
40
1
41
1
10
98.3245
20
7.68098768618992
30
0
41
1
10
98.3245000000001
20
7.69970714527074
30
0
41
1
10
98.3218553248734
20
7.71979491474607
30
0
41
1
10
98.3135999420662
20
7.76148387237254
30
0
41
1
10
98.3078812973899
20
7.78314743734003
30
0
41
1
10
98.2877834430177
20
7.84783236502628
30
0
41
1
10
98.2704170019078
20
7.89137494819539
30
0
41
1
10
98.2495000000001
20
7.93530832963125
30
0
0
SPLINE
5
19F
100
AcDbEntity
8
1
62
256
6
ByLayer
370
18
48
1
60
0
100
AcDbSpline
70
4
71
3
72
8
73
4
40
0
40
0
40
0
40
0
40
1
40
1
40
1
40
1
41
1
10
97.6055
20
10.533315884014
30
0
41
1
10
97.8246182466614
20
10.1562223165521
30
0
41
1
10
98.0394393316016
20
9.77589582489915
30
0
41
1
10
98.2495
20
9.39198788418858
30
0
0
SPLINE
5
1A0
100
AcDbEntity
8
1
62
256
6
ByLayer
370
18
48
1
60
0
100
AcDbSpline
70
4
71
3
72
12
73
8
40
0
40
0
40
0
40
0
40
0.5
40
0.5
40
0.75
40
0.75
40
1
40
1
40
1
40
1
41
1
10
98.2495000000001
20
-13.6144050421731
30
0
41
1
10
98.2712546187304
20
-13.5414192630682
30
0
41
1
10
98.2887186806718
20
-13.4683926299573
30
0
41
1
10
98.3085114899594
20
-13.3587664318823
30
0
41
1
10
98.3139715238253
20
-13.3223883770075
30
0
41
1
10
98.321917021225
20
-13.2505240515009
30
0
41
1
10
98.3245
20
-13.2149528282924
30
0
41
1
10
98.3245
20
-13.1800854813312
30
0
0
SPLINE
5
1A1
100
AcDbEntity
8
1
62
256
6
ByLayer
370
18
48
1
60
0
100
AcDbSpline
70
4
71
3
72
22
73
18
40
0
40
0
40
0
40
0
40
0.250000000000017
40
0.250000000000017
40
0.375000000000014
40
0.375000000000014
40
0.500000000000011
40
0.500000000000011
40
0.625000000000007
40
0.625000000000007
40
0.750000000000004
40
0.750000000000004
40
0.812500000000004
40
0.812500000000004
40
0.875000000000004
40
0.875000000000004
40
1
40
1
40
1
40
1
41
1
10
97.6055
20
-23.1757784213043
30
0
41
1
10
97.5852735552583
20
-23.2026354601184
30
0
41
1
10
97.5669564518919
20
-23.2292229400243
30
0
41
1
10
97.5448335316356
20
-23.2660678844065
30
0
41
1
10
97.5382665741826
20
-23.277998126621
30
0
41
1
10
97.5277428289439
20
-23.3000981082553
30
0
41
1
10
97.5238239716692
20
-23.3101313539303
30
0
41
1
10
97.5198638916738
20
-23.3272662268365
30
0
41
1
10
97.519984207007
20
-23.3340533284695
30
0
41
1
10
97.5257809812265
20
-23.3417522150087
30
0
41
1
10
97.5316010084183
20
-23.3425395578434
30
0
41
1
10
97.5437264553199
20
-23.3388915542783
30
0
41
1
10
97.548412658276
20
-23.3368666430988
30
0
41
1
10
97.5584723291246
20
-23.3315512620658
30
0
41
1
10
97.5638465541738
20
-23.3282779831857
30
0
41
1
10
97.5808532195466
20
-23.3168828358453
30
0
41
1
10
97.593068792019
20
-23.3073886497743
30
0
41
1
10
97.6055
20
-23.2968754376165
30
0
0
SPLINE
5
1A2
100
AcDbEntity
8
1
62
256
6
ByLayer
370
18
48
1
60
0
100
AcDbSpline
70
4
71
3
72
8
73
4
40
0
40
0
40
0
40
0
40
1
40
1
40
1
40
1
41
1
10
98.2495
20
-16.0912167009135
30
0
41
1
10
98.0449435898546
20
-16.6082675252432
30
0
41
1
10
97.829910422179
20
-17.1194546037458
30
0
41
1
10
97.6055
20
-17.6253933182575
30
0
0
SPLINE
5
1A3
100
AcDbEntity
8
1
62
256
6
ByLayer
370
18
48
1
60
0
100
AcDbSpline
70
4
71
3
72
24
73
20
40
0
40
0
40
0
40
0
40
0.0625000000000003
40
0.0625000000000003
40
0.125000000000001
40
0.125000000000001
40
0.187500000000001
40
0.187500000000001
40
0.250000000000001
40
0.250000000000001
40
0.500000000000001
40
0.500000000000001
40
0.750000000000001
40
0.750000000000001
40
0.812500000000001
40
0.812500000000001
40
0.875000000000001
40
0.875000000000001
40
1
40
1
40
1
40
1
41
1
10
93.8
20
-25
30
0
41
1
10
93.7740482899944
20
-25
30
0
41
1
10
93.7480724945246
20
-24.9959539661956
30
0
41
1
10
93.6962946635523
20
-24.9797858341589
30
0
41
1
10
93.67047467658
20
-24.9676642800023
30
0
41
1
10
93.6190771963762
20
-24.935340651613
30
0
41
1
10
93.593473337034
20
-24.9151099909452
30
0
41
1
10
93.5427826409334
20
-24.8667118823446
30
0
41
1
10
93.5176909554912
20
-24.8385520280096
30
0
41
1
10
93.3937489752333
20
-24.6781859213005
30
0
41
1
10
93.2994055244988
20
-24.4875152016737
30
0
41
1
10
93.1271650787337
20
-23.9835988413686
30
0
41
1
10
93.0491858777538
20
-23.6703625040759
30
0
41
1
10
92.9675985597657
20
-23.1998085301649
30
0
41
1
10
92.9520850136345
20
-23.1017317718979
30
0
41
1
10
92.9228565695265
20
-22.8975206840219
30
0
41
1
10
92.9091695208052
20
-22.7915642776648
30
0
41
1
10
92.8712632156814
20
-22.4628618516295
30
0
41
1
10
92.8501363269207
20
-22.2290063317043
30
0
41
1
10
92.83407417371
20
-21.9803412596055
30
0
0
SPLINE
5
1A4
100
AcDbEntity
8
1
62
256
6
ByLayer
370
18
48
1
60
0
100
AcDbSpline
70
4
71
3
72
8
73
4
40
0
40
0
40
0
40
0
40
1
40
1
40
1
40
1
41
1
10
97.6055
20
-23.2968754376164
30
0
41
1
10
97.8202447540081
20
-23.11526338816
30
0
41
1
10
98.0349138148107
20
-22.9335319303368
30
0
41
1
10
98.2495
20
-22.7516701480928
30
0
0
SPLINE
5
1A5
100
AcDbEntity
8
1
62
256
6
ByLayer
370
18
48
1
60
0
100
AcDbSpline
70
4
71
3
72
34
73
30
40
0
40
0
40
0
40
0
40
0.250000000000009
40
0.250000000000009
40
0.500000000000019
40
0.500000000000019
40
0.625000000000023
40
0.625000000000023
40
0.750000000000027
40
0.750000000000027
40
0.812500000000028
40
0.812500000000028
40
0.87500000000003
40
0.87500000000003
40
0.906250000000031
40
0.906250000000031
40
0.937500000000031
40
0.937500000000031
40
0.95312500000003
40
0.95312500000003
40
0.960937500000027
40
0.960937500000027
40
0.968750000000023
40
0.968750000000023
40
0.97656250000002
40
0.97656250000002
40
0.984375000000016
40
0.984375000000016
40
1
40
1
40
1
40
1
41
1
10
97.6055
20
-6.68093354208617
30
0
41
1
10
97.5953465332925
20
-6.86856162383228
30
0
41
1
10
97.5843708072372
20
-7.05602622870023
30
0
41
1
10
97.5624814887404
20
-7.43060998840176
30
0
41
1
10
97.551513851723
20
-7.61772984290457
30
0
41
1
10
97.5372027368806
20
-7.89812543294127
30
0
41
1
10
97.5327968300852
20
-7.99154315427978
30
0
41
1
10
97.5254831497148
20
-8.1782739904489
30
0
41
1
10
97.522535167938
20
-8.27154581726981
30
0
41
1
10
97.520533676288
20
-8.41078910394853
30
0
41
1
10
97.5202747525548
20
-8.45710621188073
30
0
41
1
10
97.5211546580903
20
-8.54944772811481
30
0
41
1
10
97.522240748443
20
-8.59548103644957
30
0
41
1
10
97.5260817286805
20
-8.66411512076127
30
0
41
1
10
97.5277367440043
20
-8.68693139674269
30
0
41
1
10
97.532408665708
20
-8.73185536769802
30
0
41
1
10
97.5353138606983
20
-8.75405257873123
30
0
41
1
10
97.5423699927684
20
-8.78613748291917
30
0
41
1
10
97.5451783656224
20
-8.79671257160268
30
0
41
1
10
97.5510156756256
20
-8.8110070008824
30
0
41
1
10
97.553273328892
20
-8.81559505581754
30
0
41
1
10
97.5588492493796
20
-8.82332137784252
30
0
41
1
10
97.5622569994082
20
-8.82651238166201
30
0
41
1
10
97.5703820707258
20
-8.82858172104378
30
0
41
1
10
97.5748176023891
20
-8.82712919062223
30
0
41
1
10
97.5827092358347
20
-8.82124552398929
30
0
41
1
10
97.5861296946894
20
-8.81718720805941
30
0
41
1
10
97.5956575801557
20
-8.80371592831955
30
0
41
1
10
97.6008116156138
20
-8.79332009981687
30
0
41
1
10
97.6055
20
-8.7827284368683
30
0
0
SPLINE
5
1A6
100
AcDbEntity
8
1
62
256
6
ByLayer
370
18
48
1
60
0
100
AcDbSpline
70
4
71
3
72
8
73
4
40
0
40
0
40
0
40
0
40
1
40
1
40
1
40
1
41
1
10
97.6055
20
-22.6200829661946
30
0
41
1
10
97.8202009468254
20
-22.4420861479081
30
0
41
1
10
98.0348686848346
20
-22.2640359061466
30
0
41
1
10
98.2495
20
-22.0859271543189
30
0
0
SPLINE
5
1A7
100
AcDbEntity
8
1
62
256
6
ByLayer
370
18
48
1
60
0
100
AcDbSpline
70
4
71
3
72
12
73
8
40
0
40
0
40
0
40
0
40
0.500000000000028
40
0.500000000000028
40
0.750000000000014
40
0.750000000000014
40
1
40
1
40
1
40
1
41
1
10
98.2495
20
-23.4028498781752
30
0
41
1
10
98.2692137713121
20
-23.3793119136173
30
0
41
1
10
98.2870761228951
20
-23.3563670284796
30
0
41
1
10
98.3077117374033
20
-23.3260475722175
30
0
41
1
10
98.3136263405846
20
-23.3165008078665
30
0
41
1
10
98.3220024813361
20
-23.3002470594535
30
0
41
1
10
98.3245000000003
20
-23.293440494456
30
0
41
1
10
98.3245000000003
20
-23.2890240128755
30
0
0
SPLINE
5
1A8
100
AcDbEntity
8
1
62
256
6
ByLayer
370
18
48
1
60
0
100
AcDbSpline
70
4
71
3
72
26
73
22
40
0
40
0
40
0
40
0
40
0.249999999999976
40
0.249999999999976
40
0.499999999999952
40
0.499999999999952
40
0.624999999999933
40
0.624999999999933
40
0.687499999999928
40
0.687499999999928
40
0.749999999999923
40
0.749999999999923
40
0.812499999999917
40
0.812499999999917
40
0.843749999999919
40
0.843749999999919
40
0.874999999999921
40
0.874999999999921
40
0.93749999999996
40
0.93749999999996
40
1
40
1
40
1
40
1
41
1
10
97.6055
20
-15.5692423325785
30
0
41
1
10
97.5876431568551
20
-15.6187961400233
30
0
41
1
10
97.5720151535184
20
-15.6685126312754
30
0
41
1
10
97.5457683658979
20
-15.7666601579881
30
0
41
1
10
97.5349848127961
20
-15.8153022796541
30
0
41
1
10
97.5244066800093
20
-15.8872728105717
30
0
41
1
10
97.5218528593706
20
-15.9110436505431
30
0
41
1
10
97.5204188041757
20
-15.9452806611476
30
0
41
1
10
97.5203401032587
20
-15.9564850710971
30
0
41
1
10
97.521316572032
20
-15.9783092712763
30
0
41
1
10
97.522379144929
20
-15.9889959860532
30
0
41
1
10
97.5262116700882
20
-16.0087892667801
30
0
41
1
10
97.528987116134
20
-16.0180751916217
30
0
41
1
10
97.5353102988491
20
-16.02971899791
30
0
41
1
10
97.5377554775791
20
-16.0331628737239
30
0
41
1
10
97.5435578935233
20
-16.0388720525555
30
0
41
1
10
97.5469352756758
20
-16.0411137199879
30
0
41
1
10
97.5582572753071
20
-16.0451424463261
30
0
41
1
10
97.567713171199
20
-16.0439723663318
30
0
41
1
10
97.5867407936386
20
-16.0351534278307
30
0
41
1
10
97.5963755984043
20
-16.0278428099313
30
0
41
1
10
97.6055000000005
20
-16.0193324895505
30
0
0
SPLINE
5
1A9
100
AcDbEntity
8
1
62
256
6
ByLayer
370
18
48
1
60
0
100
AcDbSpline
70
4
71
3
72
14
73
10
40
0
40
0
40
0
40
0
40
0.249999999999994
40
0.249999999999994
40
0.499999999999996
40
0.499999999999996
40
0.749999999999998
40
0.749999999999998
40
1
40
1
40
1
40
1
41
1
10
98.3245
20
-23.6056268367876
30
0
41
1
10
98.3245
20
-23.6027236160964
30
0
41
1
10
98.3225179945147
20
-23.6018009379686
30
0
41
1
10
98.3145530102954
20
-23.6042057169859
30
0
41
1
10
98.3087143087579
20
-23.6074938193305
30
0
41
1
10
98.2945271501969
20
-23.6172106493222
30
0
41
1
10
98.2862785502885
20
-23.6235597234354
30
0
41
1
10
98.2685178816954
20
-23.6381579323393
30
0
41
1
10
98.2591829382417
20
-23.646252925044
30
0
41
1
10
98.2495
20
-23.654960886978
30
0
0
SPLINE
5
1AA
100
AcDbEntity
8
1
62
256
6
ByLayer
370
18
48
1
60
0
100
AcDbSpline
70
4
71
3
72
8
73
4
40
0
40
0
40
0
40
0
40
1
40
1
40
1
40
1
41
1
10
98.2495
20
-23.4028498781752
30
0
41
1
10
98.036011628907
20
-23.6577519784765
30
0
41
1
10
97.8213104962891
20
-23.9112851613349
30
0
41
1
10
97.6055
20
-24.1635661381751
30
0
0
SPLINE
5
1AB
100
AcDbEntity
8
1
62
256
6
ByLayer
370
18
48
1
60
0
100
AcDbSpline
70
4
71
3
72
22
73
18
40
0
40
0
40
0
40
0
40
0.25
40
0.25
40
0.375000000000002
40
0.375000000000002
40
0.5
40
0.5
40
0.624999999999999
40
0.624999999999999
40
0.749999999999997
40
0.749999999999997
40
0.812499999999998
40
0.812499999999998
40
0.874999999999999
40
0.874999999999999
40
1
40
1
40
1
40
1
41
1
10
8.10566243270262
20
-8.05584836782779
30
0
41
1
10
8.12110769698504
20
-7.99849169434916
30
0
41
1
10
8.13959628273545
20
-7.94218253951254
30
0
41
1
10
8.17354242877875
20
-7.85991012495418
30
0
41
1
10
8.1859037300309
20
-7.83285506058491
30
0
41
1
10
8.21325377892236
20
-7.77968328642041
30
0
41
1
10
8.22831574375684
20
-7.75344388356993
30
0
41
1
10
8.26152302146917
20
-7.70292805784925
30
0
41
1
10
8.27962274066837
20
-7.6786635375118
30
0
41
1
10
8.31997574676953
20
-7.63291014136058
30
0
41
1
10
8.34204823512977
20
-7.61165433162094
30
0
41
1
10
8.37845386159617
20
-7.58390025536193
30
0
41
1
10
8.39116971420626
20
-7.57531366225015
30
0
41
1
10
8.41805465341358
20
-7.55980672066909
30
0
41
1
10
8.43218550139827
20
-7.55293791940397
30
0
41
1
10
8.47563983861085
20
-7.53610198950838
30
0
41
1
10
8.50697323176124
20
-7.52966679426473
30
0
41
1
10
8.5386751345948
20
-7.52966679426473
30
0
0
SPLINE
5
1AC
100
AcDbEntity
8
1
62
256
6
ByLayer
370
18
48
1
60
0
100
AcDbSpline
70
4
71
3
72
22
73
18
40
0
40
0
40
0
40
0
40
0.249999999999997
40
0.249999999999997
40
0.374999999999996
40
0.374999999999996
40
0.499999999999998
40
0.499999999999998
40
0.624999999999999
40
0.624999999999999
40
0.750000000000001
40
0.750000000000001
40
0.812499999999999
40
0.812499999999999
40
0.874999999999997
40
0.874999999999997
40
1
40
1
40
1
40
1
41
1
10
8.10566243270264
20
23.6665017920809
30
0
41
1
10
8.12110769698504
20
23.6860254491252
30
0
41
1
10
8.13959628273545
20
23.7049589195931
30
0
41
1
10
8.17354242877875
20
23.7323123198157
30
0
41
1
10
8.18590373003093
20
23.7412544902042
30
0
41
1
10
8.21325377892239
20
23.7587312609862
30
0
41
1
10
8.22831574375684
20
23.7673055542944
30
0
41
1
10
8.26152302146917
20
23.7837256270429
30
0
41
1
10
8.27962274066837
20
23.7915679133937
30
0
41
1
10
8.31997574676953
20
23.8062861503817
30
0
41
1
10
8.34204823512977
20
23.8130866432223
30
0
41
1
10
8.37845386159617
20
23.8219342456096
30
0
41
1
10
8.39116971420626
20
23.8246655611125
30
0
41
1
10
8.41805465341358
20
23.8295906076135
30
0
41
1
10
8.43218550139827
20
23.8317679461286
30
0
41
1
10
8.47563983861085
20
23.8370993498304
30
0
41
1
10
8.50697323176121
20
23.8391299750505
30
0
41
1
10
8.53867513459477
20
23.8391299750505
30
0
0
SPLINE
5
1AD
100
AcDbEntity
8
1
62
256
6
ByLayer
370
18
48
1
60
0
100
AcDbSpline
70
4
71
3
72
8
73
4
40
0
40
0
40
0
40
0
40
1
40
1
40
1
40
1
41
1
10
98.2495
20
-13.6144050421731
30
0
41
1
10
98.0529095032927
20
-14.2739574225089
30
0
41
1
10
97.8375575235841
20
-14.925268829173
30
0
41
1
10
97.6055
20
-15.5692423325785
30
0
0
SPLINE
5
1AE
100
AcDbEntity
8
1
62
256
6
ByLayer
370
18
48
1
60
0
100
AcDbSpline
70
4
71
3
72
8
73
4
40
0
40
0
40
0
40
0
40
1
40
1
40
1
40
1
41
1
10
97.6055
20
5.56924233257854
30
0
41
1
10
97.8375575235841
20
4.92526882917298
30
0
41
1
10
98.0529095032927
20
4.27395742250891
30
0
41
1
10
98.2495
20
3.61440504217313
30
0
0
SPLINE
5
1AF
100
AcDbEntity
8
1
62
256
6
ByLayer
370
18
48
1
60
0
100
AcDbSpline
70
4
71
3
72
28
73
24
40
0
40
0
40
0
40
0
40
0.250000000000008
40
0.250000000000008
40
0.500000000000017
40
0.500000000000017
40
0.625000000000023
40
0.625000000000023
40
0.750000000000029
40
0.750000000000029
40
0.812500000000031
40
0.812500000000031
40
0.843750000000026
40
0.843750000000026
40
0.875000000000021
40
0.875000000000021
40
0.906250000000015
40
0.906250000000015
40
0.93750000000001
40
0.93750000000001
40
0.968750000000005
40
0.968750000000005
40
1
40
1
40
1
40
1
41
1
10
97.6054999999997
20
-12.7147398224983
30
0
41
1
10
97.5885769852418
20
-12.780978286048
30
0
41
1
10
97.5737786406264
20
-12.8469679361494
30
0
41
1
10
97.5484174930481
20
-12.9784405235404
30
0
41
1
10
97.537797636014
20
-13.0439284447332
30
0
41
1
10
97.5265743250118
20
-13.1416448640677
30
0
41
1
10
97.5236218884951
20
-13.1741963552597
30
0
41
1
10
97.520256070083
20
-13.2387663711834
30
0
41
1
10
97.5197737989799
20
-13.270450062886
30
0
41
1
10
97.5228330742295
20
-13.316149061355
30
0
41
1
10
97.5244932097765
20
-13.3311487893485
30
0
41
1
10
97.5288006947063
20
-13.3525397666482
30
0
41
1
10
97.5305311270297
20
-13.3594094946838
30
0
41
1
10
97.5348759158401
20
-13.3723716083384
30
0
41
1
10
97.5375175995501
20
-13.3785400595507
30
0
41
1
10
97.5441354070325
20
-13.3891873548664
30
0
41
1
10
97.5481602808463
20
-13.3937178346547
30
0
41
1
10
97.5579708320388
20
-13.3993434501822
30
0
41
1
10
97.5637965862586
20
-13.4002822552637
30
0
41
1
10
97.5760487214158
20
-13.397708888386
30
0
41
1
10
97.5824296550994
20
-13.3942878530467
30
0
41
1
10
97.5944898049967
20
-13.3851889123082
30
0
41
1
10
97.6001094477987
20
-13.3796698412631
30
0
41
1
10
97.6055
20
-13.3736110174262
30
0
0
SPLINE
5
1B0
100
AcDbEntity
8
1
62
256
6
ByLayer
370
18
48
1
60
0
100
AcDbSpline
70
4
71
3
72
14
73
10
40
0
40
0
40
0
40
0
40
0.25
40
0.25
40
0.5
40
0.5
40
0.75
40
0.75
40
1
40
1
40
1
40
1
41
1
10
98.2495
20
12.7516701480928
30
0
41
1
10
98.2592472411427
20
12.7434093616652
30
0
41
1
10
98.2687842391549
20
12.7358911180699
30
0
41
1
10
98.2869426760122
20
12.7231617994199
30
0
41
1
10
98.295401197738
20
12.7180938406677
30
0
41
1
10
98.3096003699559
20
12.7119377182011
30
0
41
1
10
98.3153326448495
20
12.7109091615286
30
0
41
1
10
98.3227326686985
20
12.7133385198428
30
0
41
1
10
98.3245000000001
20
12.7167960692811
30
0
41
1
10
98.3245000000001
20
12.7218227111436
30
0
0
SPLINE
5
1B1
100
AcDbEntity
8
1
62
256
6
ByLayer
370
18
48
1
60
0
100
AcDbSpline
70
4
71
3
72
16
73
12
40
0
40
0
40
0
40
0
40
0.244870256100275
40
0.244870256100275
40
0.48974051220055
40
0.48974051220055
40
0.734610768300825
40
0.734610768300825
40
0.9794810244011
40
0.9794810244011
40
1
40
1
40
1
40
1
41
1
10
97.6055
20
-24.6500792121577
30
0
41
1
10
97.5946454997647
20
-24.6614971201053
30
0
41
1
10
97.5843093311552
20
-24.6724989869337
30
0
41
1
10
97.5650555070299
20
-24.6932971537009
30
0
41
1
10
97.5559904860575
20
-24.7032556166844
30
0
41
1
10
97.5402922665504
20
-24.7209485260459
30
0
41
1
10
97.5335960738648
20
-24.7287511946129
30
0
41
1
10
97.5238589844054
20
-24.740889765792
30
0
41
1
10
97.5209274233516
20
-24.7451121254574
30
0
41
1
10
97.5205123631195
20
-24.7469103574364
30
0
41
1
10
97.5204985695313
20
-24.7470311500933
30
0
41
1
10
97.520502839793
20
-24.7471338530941
30
0
0
SPLINE
5
1B2
100
AcDbEntity
8
1
62
256
6
ByLayer
370
18
48
1
60
0
100
AcDbSpline
70
4
71
3
72
14
73
10
40
0
40
0
40
0
40
0
40
0.137563763851491
40
0.137563763851491
40
0.425042509234327
40
0.425042509234327
40
0.712521254617164
40
0.712521254617164
40
1
40
1
40
1
40
1
41
1
10
97.5220149595514
20
-24.7472840728842
30
0
41
1
10
97.5230805660157
20
-24.7468148993615
30
0
41
1
10
97.5246954568229
20
-24.7457814913067
30
0
41
1
10
97.5312478930886
20
-24.7409318597075
30
0
41
1
10
97.5379815917346
20
-24.7352591146847
30
0
41
1
10
97.5540464393891
20
-24.721005839838
30
0
41
1
10
97.5635576945821
20
-24.7122726293567
30
0
41
1
10
97.5836466284833
20
-24.6934639928731
30
0
41
1
10
97.5943179210633
20
-24.6833078186817
30
0
41
1
10
97.6055
20
-24.6725432762501
30
0
0
SPLINE
5
1B3
100
AcDbEntity
8
1
62
256
6
ByLayer
370
18
48
1
60
0
100
AcDbSpline
70
4
71
3
72
18
73
14
40
0
40
0
40
0
40
0
40
0.124999999999993
40
0.124999999999993
40
0.249999999999985
40
0.249999999999985
40
0.374999999999978
40
0.374999999999978
40
0.49999999999997
40
0.49999999999997
40
0.749999999999985
40
0.749999999999985
40
1
40
1
40
1
40
1
41
1
10
98.2494999999998
20
5.41462793875513
30
0
41
1
10
98.2550049788101
20
5.40942226426449
30
0
41
1
10
98.2607471989824
20
5.40471028405079
30
0
41
1
10
98.2722719837174
20
5.3973363917776
30
0
41
1
10
98.2782056647285
20
5.39462177258608
30
0
41
1
10
98.2893124647998
20
5.39239882537689
30
0
41
1
10
98.2945557627869
20
5.39291259740202
30
0
41
1
10
98.3034343281571
20
5.396913079466
30
0
41
1
10
98.3071286351408
20
5.40034044417865
30
0
41
1
10
98.3160954547509
20
5.41297592211836
30
0
41
1
10
98.3195542386962
20
5.42459510897649
30
0
41
1
10
98.3237421835355
20
5.44918025464594
30
0
41
1
10
98.3245
20
5.46229665726341
30
0
41
1
10
98.3245000000001
20
5.4758747057918
30
0
0
SPLINE
5
1B4
100
AcDbEntity
8
1
62
256
6
ByLayer
370
18
48
1
60
0
100
AcDbSpline
70
4
71
3
72
8
73
4
40
0
40
0
40
0
40
0
40
1
40
1
40
1
40
1
41
1
10
98.2495
20
-24.0679370847154
30
0
41
1
10
98.0353821421022
20
-24.2854992733109
30
0
41
1
10
97.8207000524708
20
-24.5023166855204
30
0
41
1
10
97.6055
20
-24.7184503955053
30
0
0
SPLINE
5
1B5
100
AcDbEntity
8
1
62
256
6
ByLayer
370
18
48
1
60
0
100
AcDbSpline
70
4
71
3
72
8
73
4
40
0
40
0
40
0
40
0
40
1
40
1
40
1
40
1
41
1
10
98.2495
20
12.0859271543189
30
0
41
1
10
98.0348686848346
20
12.2640359061465
30
0
41
1
10
97.8202009468254
20
12.4420861479081
30
0
41
1
10
97.6055
20
12.6200829661946
30
0
0
SPLINE
5
1B6
100
AcDbEntity
8
1
62
256
6
ByLayer
370
18
48
1
60
0
100
AcDbSpline
70
4
71
3
72
14
73
10
40
0
40
0
40
0
40
0
40
0.25
40
0.25
40
0.5
40
0.5
40
0.75
40
0.75
40
1
40
1
40
1
40
1
41
1
10
98.2495
20
-24.0679370847154
30
0
41
1
10
98.2592112781078
20
-24.0580695895894
30
0
41
1
10
98.2684631746828
20
-24.0486275483862
30
0
41
1
10
98.2858574791356
20
-24.0307635373025
30
0
41
1
10
98.2940253176557
20
-24.0223134800282
30
0
41
1
10
98.3079744336769
20
-24.0077038595556
30
0
41
1
10
98.3139402091291
20
-24.0013494349122
30
0
41
1
10
98.3221868277213
20
-23.9922305495165
30
0
41
1
10
98.3245
20
-23.9894242585628
30
0
41
1
10
98.3245
20
-23.988914520495
30
0
0
SPLINE
5
1B7
100
AcDbEntity
8
1
62
256
6
ByLayer
370
18
48
1
60
0
100
AcDbSpline
70
4
71
3
72
8
73
4
40
0
40
0
40
0
40
0
40
1
40
1
40
1
40
1
41
1
10
98.2495
20
-19.3919878841886
30
0
41
1
10
98.0394393316016
20
-19.7758958248991
30
0
41
1
10
97.8246182466614
20
-20.1562223165521
30
0
41
1
10
97.6055
20
-20.533315884014
30
0
0
SPLINE
5
1B8
100
AcDbEntity
8
1
62
256
6
ByLayer
370
18
48
1
60
0
100
AcDbSpline
70
4
71
3
72
8
73
4
40
0
40
0
40
0
40
0
40
1
40
1
40
1
40
1
41
1
10
98.2495
20
13.2705960321683
30
0
41
1
10
98.0349733553288
20
13.4574120577276
30
0
41
1
10
97.8203025465447
20
13.6440075237985
30
0
41
1
10
97.6055
20
13.8304003628102
30
0
0
SPLINE
5
1B9
100
AcDbEntity
8
1
62
256
6
ByLayer
370
18
48
1
60
0
100
AcDbSpline
70
4
71
3
72
24
73
20
40
0
40
0
40
0
40
0
40
0.0624999999999913
40
0.0624999999999913
40
0.124999999999983
40
0.124999999999983
40
0.187499999999974
40
0.187499999999974
40
0.249999999999966
40
0.249999999999966
40
0.37499999999997
40
0.37499999999997
40
0.499999999999974
40
0.499999999999974
40
0.624999999999979
40
0.624999999999979
40
0.749999999999987
40
0.749999999999987
40
1
40
1
40
1
40
1
41
1
10
97.6055
20
7.97050560152925
30
0
41
1
10
97.5972284375665
20
7.97761220117161
30
0
41
1
10
97.5889144198408
20
7.98372808901584
30
0
41
1
10
97.5721570837898
20
7.99292841463938
30
0
41
1
10
97.563911018039
20
7.99578434456322
30
0
41
1
10
97.549332527511
20
7.99660792687317
30
0
41
1
10
97.5430585144056
20
7.99456982870356
30
0
41
1
10
97.5331756087365
20
7.98666433318874
30
0
41
1
10
97.529511798149
20
7.98085776016845
30
0
41
1
10
97.5216186437243
20
7.96063958687657
30
0
41
1
10
97.5201840617249
20
7.9433949621494
30
0
41
1
10
97.5209199022983
20
7.90773484786394
30
0
41
1
10
97.5231238534934
20
7.88887377785335
30
0
41
1
10
97.5298133073727
20
7.84985428552389
30
0
41
1
10
97.5343587101987
20
7.82963060680703
30
0
41
1
10
97.5449466014965
20
7.789293864749
30
0
41
1
10
97.5510225071257
20
7.76901608512085
30
0
41
1
10
97.5711758684454
20
7.70791114649739
30
0
41
1
10
97.5871256147204
20
7.66681881346418
30
0
41
1
10
97.6055
20
7.62539331825747
30
0
0
SPLINE
5
1BA
100
AcDbEntity
8
1
62
256
6
ByLayer
370
18
48
1
60
0
100
AcDbSpline
70
4
71
3
72
24
73
20
40
0
40
0
40
0
40
0
40
0.25
40
0.25
40
0.5
40
0.5
40
0.62500000000001
40
0.62500000000001
40
0.687500000000009
40
0.687500000000009
40
0.750000000000007
40
0.750000000000007
40
0.812500000000005
40
0.812500000000005
40
0.875000000000004
40
0.875000000000004
40
0.937500000000002
40
0.937500000000002
40
1
40
1
40
1
40
1
41
1
10
97.6055
20
-17.6253933182575
30
0
41
1
10
97.5871052913815
20
-17.6668646329223
30
0
41
1
10
97.5710912961356
20
-17.7081105915474
30
0
41
1
10
97.5440852439904
20
-17.7901074712468
30
0
41
1
10
97.5329517483909
20
-17.8312335257821
30
0
41
1
10
97.5230384094655
20
-17.8895338130816
30
0
41
1
10
97.5208319714489
20
-17.9086042462075
30
0
41
1
10
97.5203839976251
20
-17.9355470514791
30
0
41
1
10
97.5207198225128
20
-17.944158775789
30
0
41
1
10
97.5227347251932
20
-17.9603661394203
30
0
41
1
10
97.5244381152917
20
-17.9680544303653
30
0
41
1
10
97.529778126137
20
-17.9813298323849
30
0
41
1
10
97.5334545596744
20
-17.9870033162871
30
0
41
1
10
97.5434049494314
20
-17.9947235523584
30
0
41
1
10
97.5497502602555
20
-17.9966617979704
30
0
41
1
10
97.5642590289375
20
-17.9956830047329
30
0
41
1
10
97.5724545920519
20
-17.992782127915
30
0
41
1
10
97.588892883095
20
-17.9837225694706
30
0
41
1
10
97.59733722664
20
-17.9775187338988
30
0
41
1
10
97.6055000000001
20
-17.9705056015301
30
0
0
SPLINE
5
1BB
100
AcDbEntity
8
1
62
256
6
ByLayer
370
18
48
1
60
0
100
AcDbSpline
70
4
71
3
72
8
73
4
40
0
40
0
40
0
40
0
40
1
40
1
40
1
40
1
41
1
10
98.2495
20
-22.9264544727241
30
0
41
1
10
98.036344592726
20
-23.1980199940686
30
0
41
1
10
97.821632798019
20
-23.46793539229
30
0
41
1
10
97.6055
20
-23.7363442052147
30
0
0
SPLINE
5
1BC
100
AcDbEntity
8
1
62
256
6
ByLayer
370
18
48
1
60
0
100
AcDbSpline
70
4
71
3
72
14
73
10
40
0
40
0
40
0
40
0
40
0.25
40
0.25
40
0.5
40
0.5
40
0.75
40
0.75
40
1
40
1
40
1
40
1
41
1
10
98.3245
20
-23.8539790198802
30
0
41
1
10
98.3245
20
-23.852185749926
30
0
41
1
10
98.3223878094292
20
-23.8524939229067
30
0
41
1
10
98.3143250205302
20
-23.8571560020603
30
0
41
1
10
98.3084139015723
20
-23.8614855289318
30
0
41
1
10
98.2943158035337
20
-23.8728206174963
30
0
41
1
10
98.2860834716846
20
-23.879854510313
30
0
41
1
10
98.2684766460953
20
-23.8954524968059
30
0
41
1
10
98.2591819648805
20
-23.9039388280577
30
0
41
1
10
98.2495
20
-23.9129704705177
30
0
0
SPLINE
5
1BD
100
AcDbEntity
8
1
62
256
6
ByLayer
370
18
48
1
60
0
100
AcDbSpline
70
4
71
3
72
14
73
10
40
0
40
0
40
0
40
0
40
0.25
40
0.25
40
0.5
40
0.5
40
0.75
40
0.75
40
1
40
1
40
1
40
1
41
1
10
98.2495
20
12.0859271543189
30
0
41
1
10
98.259305222304
20
12.0777904297007
30
0
41
1
10
98.2689416505081
20
12.0705123566371
30
0
41
1
10
98.2873727965176
20
12.0586762048217
30
0
41
1
10
98.2959647459642
20
12.0543030091875
30
0
41
1
10
98.3101526926038
20
12.0501419836255
30
0
41
1
10
98.3157692403822
20
12.0504143348533
30
0
41
1
10
98.3228710110819
20
12.0554482778901
30
0
41
1
10
98.3245000000001
20
12.0602107169182
30
0
41
1
10
98.3245000000001
20
12.0663360248446
30
0
0
SPLINE
5
1BE
100
AcDbEntity
8
1
62
256
6
ByLayer
370
18
48
1
60
0
100
AcDbSpline
70
4
71
3
72
22
73
18
40
0
40
0
40
0
40
0
40
0.125
40
0.125
40
0.25
40
0.25
40
0.375
40
0.375
40
0.5
40
0.5
40
0.625
40
0.625
40
0.75
40
0.75
40
0.875
40
0.875
40
1
40
1
40
1
40
1
41
1
10
97.6055
20
14.232584456276
30
0
41
1
10
97.5937391002439
20
14.2431060346604
30
0
41
1
10
97.5822425516907
20
14.2529637034774
30
0
41
1
10
97.561004489412
20
14.2700210168544
30
0
41
1
10
97.5511713139169
20
14.2772898909988
30
0
41
1
10
97.5348594546792
20
14.287508216025
30
0
41
1
10
97.5284482392082
20
14.2903652507063
30
0
41
1
10
97.5209227239676
20
14.2903897893652
30
0
41
1
10
97.5197485987882
20
14.2875543836234
30
0
41
1
10
97.5222241743893
20
14.277369159435
30
0
41
1
10
97.5257825078704
20
14.2700835318898
30
0
41
1
10
97.5360083026821
20
14.2529765435597
30
0
41
1
10
97.542700715944
20
14.2431003754386
30
0
41
1
10
97.5579277503396
20
14.2221399537162
30
0
41
1
10
97.566628668
20
14.2108285302577
30
0
41
1
10
97.5851924552514
20
14.1876523821413
30
0
41
1
10
97.595079721552
20
14.1757473715766
30
0
41
1
10
97.6055
20
14.1635661381751
30
0
0
SPLINE
5
1BF
100
AcDbEntity
8
1
62
256
6
ByLayer
370
18
48
1
60
0
100
AcDbSpline
70
4
71
3
72
10
73
6
40
0
40
0
40
0
40
0
40
0.5
40
0.5
40
1
40
1
40
1
40
1
41
1
10
98.2495
20
-3.10825412522596
30
0
41
1
10
98.1728000785054
20
-2.77918119088252
30
0
41
1
10
98.078711071859
20
-2.45800381228889
30
0
41
1
10
97.8621250055218
20
-1.82854779960706
30
0
41
1
10
97.7396225398738
20
-1.52027162010666
30
0
41
1
10
97.6055000000008
20
-1.21727156313136
30
0
0
SPLINE
5
1C0
100
AcDbEntity
8
1
62
256
6
ByLayer
370
18
48
1
60
0
100
AcDbSpline
70
4
71
3
72
14
73
10
40
0
40
0
40
0
40
0
40
0.25
40
0.25
40
0.5
40
0.5
40
0.75
40
0.75
40
1
40
1
40
1
40
1
41
1
10
98.2495
20
7.4160122997163
30
0
41
1
10
98.2600853690691
20
7.40687764284769
30
0
41
1
10
98.2711217278699
20
7.39936506515724
30
0
41
1
10
98.2919675533707
20
7.39210637772587
30
0
41
1
10
98.3011759360961
20
7.39293743059272
30
0
41
1
10
98.3144074916597
20
7.40245779349988
30
0
41
1
10
98.3186099154229
20
7.41080188705774
30
0
41
1
10
98.3235869454226
20
7.42978726006589
30
0
41
1
10
98.3245
20
7.44045271787044
30
0
41
1
10
98.3245000000001
20
7.45179206956738
30
0
0
SPLINE
5
1C1
100
AcDbEntity
8
1
62
256
6
ByLayer
370
18
48
1
60
0
100
AcDbSpline
70
4
71
3
72
20
73
16
40
0
40
0
40
0
40
0
40
0.0625000000000002
40
0.0625000000000002
40
0.125000000000001
40
0.125000000000001
40
0.249999999999999
40
0.249999999999999
40
0.374999999999998
40
0.374999999999998
40
0.499999999999997
40
0.499999999999997
40
0.749999999999999
40
0.749999999999999
40
1
40
1
40
1
40
1
41
1
10
11.4613248654051
20
-7.52966679426513
30
0
41
1
10
11.4772013120199
20
-7.52966679426513
30
0
41
1
10
11.4927843117432
20
-7.53122440152956
30
0
41
1
10
11.5234158787419
20
-7.53717584664562
30
0
41
1
10
11.538594003026
20
-7.5416252266227
30
0
41
1
10
11.582404000511
20
-7.55857361750114
30
0
41
1
10
11.6089650834002
20
-7.57431556968117
30
0
41
1
10
11.6582924559948
20
-7.61190750686268
30
0
41
1
10
11.6801688454702
20
-7.63307325241209
30
0
41
1
10
11.720245977156
20
-7.67851551807129
30
0
41
1
10
11.738510007411
20
-7.70297658390791
30
0
41
1
10
11.788260382648
20
-7.77866338250459
30
0
41
1
10
11.8148780607232
20
-7.83191947486048
30
0
41
1
10
11.8602443227466
20
-7.94172327888188
30
0
41
1
10
11.8788862370737
20
-7.9984691682071
30
0
41
1
10
11.8943375672975
20
-8.05584836782774
30
0
0
SPLINE
5
1C2
100
AcDbEntity
8
1
62
256
6
ByLayer
370
18
48
1
60
0
100
AcDbSpline
70
4
71
3
72
30
73
26
40
0
40
0
40
0
40
0
40
0.0625000000000211
40
0.0625000000000211
40
0.0937500000000332
40
0.0937500000000332
40
0.109375000000036
40
0.109375000000036
40
0.125000000000039
40
0.125000000000039
40
0.140625000000042
40
0.140625000000042
40
0.156250000000045
40
0.156250000000045
40
0.187500000000043
40
0.187500000000043
40
0.250000000000043
40
0.250000000000043
40
0.375000000000037
40
0.375000000000037
40
0.500000000000031
40
0.500000000000031
40
0.750000000000016
40
0.750000000000016
40
1
40
1
40
1
40
1
41
1
10
98.2495
20
-3.10825412522598
30
0
41
1
10
98.2525852516023
20
-3.12149107225508
30
0
41
1
10
98.2558995972792
20
-3.13461822570252
30
0
41
1
10
98.2619053807286
20
-3.15382130104567
30
0
41
1
10
98.2640836821846
20
-3.16018089993145
30
0
41
1
10
98.2679839014834
20
-3.16928402609941
30
0
41
1
10
98.2693797552488
20
-3.17222382143342
30
0
41
1
10
98.2725811609239
20
-3.17769975868603
30
0
41
1
10
98.2743975026897
20
-3.18031703501981
30
0
41
1
10
98.2788481387302
20
-3.18380218965828
30
0
41
1
10
98.281541189178
20
-3.1841882859118
30
0
41
1
10
98.2859464023778
20
-3.18151404328645
30
0
41
1
10
98.2876661329156
20
-3.17899993628558
30
0
41
1
10
98.2919637677121
20
-3.17098731134396
30
0
41
1
10
98.293902185556
20
-3.16470908171323
30
0
41
1
10
98.2989931063469
20
-3.14568324825399
30
0
41
1
10
98.3012688288376
20
-3.13238512588717
30
0
41
1
10
98.3072342190547
20
-3.09226820422049
30
0
41
1
10
98.3098351252204
20
-3.06504702247469
30
0
41
1
10
98.3142149381814
20
-3.01055646272209
30
0
41
1
10
98.3159006901462
20
-2.98321235596026
30
0
41
1
10
98.3201218686793
20
-2.90102945045595
30
0
41
1
10
98.3218227272853
20
-2.84602940068999
30
0
41
1
10
98.3240293491824
20
-2.73590172153956
30
0
41
1
10
98.3245000000045
20
-2.68078491158266
30
0
41
1
10
98.3245000000045
20
-2.62563670288347
30
0
0
SPLINE
5
1C3
100
AcDbEntity
8
1
62
256
6
ByLayer
370
18
48
1
60
0
100
AcDbSpline
70
4
71
3
72
14
73
10
40
0
40
0
40
0
40
0
40
0.25
40
0.25
40
0.5
40
0.5
40
0.75
40
0.75
40
1
40
1
40
1
40
1
41
1
10
98.2495
20
11.2553382123749
30
0
41
1
10
98.2593988680458
20
11.2472314250126
30
0
41
1
10
98.2692232297387
20
11.2400961103482
30
0
41
1
10
98.2879744187915
20
11.2291854674856
30
0
41
1
10
98.2967314342812
20
11.2256010647453
30
0
41
1
10
98.3108522464072
20
11.2237352895698
30
0
41
1
10
98.3162924651551
20
11.2254991105443
30
0
41
1
10
98.3230201101131
20
11.2333581500304
30
0
41
1
10
98.3245000000004
20
11.2394805992425
30
0
41
1
10
98.3245000000004
20
11.246742763416
30
0
0
SPLINE
5
1C4
100
AcDbEntity
8
1
62
256
6
ByLayer
370
18
48
1
60
0
100
AcDbSpline
70
4
71
3
72
14
73
10
40
0
40
0
40
0
40
0
40
0.25
40
0.25
40
0.5
40
0.5
40
0.75
40
0.75
40
1
40
1
40
1
40
1
41
1
10
98.3245
20
13.8780838423543
30
0
41
1
10
98.3245
20
13.8798173955346
30
0
41
1
10
98.3221013638943
20
13.8839223696909
30
0
41
1
10
98.3138032295433
20
13.8952982718544
30
0
41
1
10
98.3078502165317
20
13.9026622738455
30
0
41
1
10
98.2939510937763
20
13.9190232687972
30
0
41
1
10
98.2858335791893
20
13.928226363608
30
0
41
1
10
98.268493944553
20
13.9474193398036
30
0
41
1
10
98.2592424533952
20
13.9574479050799
30
0
41
1
10
98.2495
20
13.9678441313361
30
0
0
SPLINE
5
1C5
100
AcDbEntity
8
1
62
256
6
ByLayer
370
18
48
1
60
0
100
AcDbSpline
70
4
71
3
72
22
73
18
40
0
40
0
40
0
40
0
40
0.249999999999973
40
0.249999999999973
40
0.37499999999997
40
0.37499999999997
40
0.499999999999966
40
0.499999999999966
40
0.624999999999962
40
0.624999999999962
40
0.687499999999969
40
0.687499999999969
40
0.749999999999975
40
0.749999999999975
40
0.874999999999987
40
0.874999999999987
40
1
40
1
40
1
40
1
41
1
10
97.6055
20
-24.1635661381751
30
0
41
1
10
97.5846180024195
20
-24.1879770488517
30
0
41
1
10
97.5655071796185
20
-24.2117045234637
30
0
41
1
10
97.5426899901217
20
-24.2431162129388
30
0
41
1
10
97.5359677807996
20
-24.2530413976178
30
0
41
1
10
97.5257886985559
20
-24.2700761212655
30
0
41
1
10
97.5222094422121
20
-24.2774045374631
30
0
41
1
10
97.5197505065652
20
-24.2875719003496
30
0
41
1
10
97.5209171874909
20
-24.290403795087
30
0
41
1
10
97.5266132401732
20
-24.2903641595357
30
0
41
1
10
97.5291885835889
20
-24.2896418406777
30
0
41
1
10
97.5353678257385
20
-24.2869190401383
30
0
41
1
10
97.5389962843699
20
-24.2849212703509
30
0
41
1
10
97.5513547524628
20
-24.2771657902722
30
0
41
1
10
97.561088840106
20
-24.2699596696236
30
0
41
1
10
97.5824853917302
20
-24.2527621693602
30
0
41
1
10
97.593773139625
20
-24.243075582227
30
0
41
1
10
97.6055
20
-24.2325844562761
30
0
0
SPLINE
5
1C6
100
AcDbEntity
8
1
62
256
6
ByLayer
370
18
48
1
60
0
100
AcDbSpline
70
4
71
3
72
12
73
8
40
0
40
0
40
0
40
0
40
0.249999999999999
40
0.249999999999999
40
0.499999999999997
40
0.499999999999997
40
1
40
1
40
1
40
1
41
1
10
98.3245
20
5.77546396168594
30
0
41
1
10
98.3245
20
5.7999091198559
30
0
41
1
10
98.3218179813059
20
5.82575094588418
30
0
41
1
10
98.3135624753292
20
5.87825088423148
30
0
41
1
10
98.3079815642766
20
5.90464219629339
30
0
41
1
10
98.2881010272376
20
5.98411119525511
30
0
41
1
10
98.2707624125431
20
6.03747236738388
30
0
41
1
10
98.2495000000004
20
6.09121670091346
30
0
0
SPLINE
5
1C7
100
AcDbEntity
8
1
62
256
6
ByLayer
370
18
48
1
60
0
100
AcDbSpline
70
4
71
3
72
34
73
30
40
0
40
0
40
0
40
0
40
0.015624999999997
40
0.015624999999997
40
0.0234374999999954
40
0.0234374999999954
40
0.0312499999999938
40
0.0312499999999938
40
0.0390624999999922
40
0.0390624999999922
40
0.0468749999999906
40
0.0468749999999906
40
0.0624999999999909
40
0.0624999999999909
40
0.0937499999999913
40
0.0937499999999913
40
0.124999999999992
40
0.124999999999992
40
0.187499999999993
40
0.187499999999993
40
0.249999999999994
40
0.249999999999994
40
0.374999999999995
40
0.374999999999995
40
0.499999999999996
40
0.499999999999996
40
0.749999999999998
40
0.749999999999998
40
1
40
1
40
1
40
1
41
1
10
97.6055
20
-1.2172715631317
30
0
41
1
10
97.6007705655568
20
-1.20658716282799
30
0
41
1
10
97.5955490543377
20
-1.19606105002782
30
0
41
1
10
97.5859003902771
20
-1.18252492849192
30
0
41
1
10
97.5823183437861
20
-1.17834473370814
30
0
41
1
10
97.5743140468774
20
-1.17262767042377
30
0
41
1
10
97.5697160151604
20
-1.17137772101376
30
0
41
1
10
97.5617186600989
20
-1.1738690460981
30
0
41
1
10
97.558300967182
20
-1.17726719122592
30
0
41
1
10
97.552786193003
20
-1.18528644620162
30
0
41
1
10
97.5506031074559
20
-1.18988101730619
30
0
41
1
10
97.5448209116843
20
-1.20444895895861
30
0
41
1
10
97.5420279700429
20
-1.21519006895642
30
0
41
1
10
97.5349886696624
20
-1.24793391237199
30
0
41
1
10
97.532125846609
20
-1.27040421077666
30
0
41
1
10
97.5275463608367
20
-1.31540899894597
30
0
41
1
10
97.5259366758227
20
-1.33807227650888
30
0
41
1
10
97.5221879375995
20
-1.40632946799224
30
0
41
1
10
97.5211237145157
20
-1.45218951034113
30
0
41
1
10
97.5202775475736
20
-1.54426412244243
30
0
41
1
10
97.5205447726049
20
-1.59048972200634
30
0
41
1
10
97.5225656456907
20
-1.72954059363568
30
0
41
1
10
97.5255202243384
20
-1.82280694025567
30
0
41
1
10
97.5328352228856
20
-2.00930133326455
30
0
41
1
10
97.5372388978757
20
-2.10261776087444
30
0
41
1
10
97.5515416895532
20
-2.38274582032849
30
0
41
1
10
97.5625016305453
20
-2.56973539008618
30
0
41
1
10
97.5843793089832
20
-2.94411855831797
30
0
41
1
10
97.5953521388833
20
-3.13154196308057
30
0
41
1
10
97.6055
20
-3.31906645791383
30
0
0
SPLINE
5
1C8
100
AcDbEntity
8
1
62
256
6
ByLayer
370
18
48
1
60
0
100
AcDbSpline
70
4
71
3
72
8
73
4
40
0
40
0
40
0
40
0
40
1
40
1
40
1
40
1
41
1
10
97.6055
20
13.1757784213043
30
0
41
1
10
97.8220560392467
20
12.8882313992869
30
0
41
1
10
98.0367823196005
20
12.5988748078191
30
0
41
1
10
98.2495
20
12.3075317791603
30
0
0
SPLINE
5
1C9
100
AcDbEntity
8
1
62
256
6
ByLayer
370
18
48
1
60
0
100
AcDbSpline
70
4
71
3
72
12
73
8
40
0
40
0
40
0
40
0
40
0.500000000000002
40
0.500000000000002
40
0.750000000000001
40
0.750000000000001
40
1
40
1
40
1
40
1
41
1
10
98.2495
20
-9.57174589786152
30
0
41
1
10
98.2734498749667
20
-9.41580651238857
30
0
41
1
10
98.2910679373763
20
-9.25978962707768
30
0
41
1
10
98.310080956516
20
-9.02558110117724
30
0
41
1
10
98.3151331006438
20
-8.94748237441928
30
0
41
1
10
98.3223201941463
20
-8.7912324466204
30
0
41
1
10
98.3245
20
-8.71323815752814
30
0
41
1
10
98.3245
20
-8.63551555823628
30
0
0
SPLINE
5
1CA
100
AcDbEntity
8
1
62
256
6
ByLayer
370
18
48
1
60
0
100
AcDbSpline
70
4
71
3
72
8
73
4
40
0
40
0
40
0
40
0
40
1
40
1
40
1
40
1
41
1
10
97.6055
20
-24.6725432762501
30
0
41
1
10
97.8205696375729
20
-24.4655042942751
30
0
41
1
10
98.0352478964824
20
-24.2579256967411
30
0
41
1
10
98.2495
20
-24.0497595350354
30
0
0
SPLINE
5
1CB
100
AcDbEntity
8
1
62
256
6
ByLayer
370
18
48
1
60
0
100
AcDbSpline
70
4
71
3
72
14
73
10
40
0
40
0
40
0
40
0
40
0.25
40
0.25
40
0.5
40
0.5
40
0.75
40
0.75
40
1
40
1
40
1
40
1
41
1
10
98.3245000000001
20
-21.2467427634162
30
0
41
1
10
98.3245000000001
20
-21.2394710002288
30
0
41
1
10
98.3230505526095
20
-21.2333911075695
30
0
41
1
10
98.3162559492657
20
-21.2254590605736
30
0
41
1
10
98.3108018796897
20
-21.2237332697389
30
0
41
1
10
98.2967025470418
20
-21.225613605279
30
0
41
1
10
98.2879424393728
20
-21.2292077635721
30
0
41
1
10
98.2693274731261
20
-21.2400317807445
30
0
41
1
10
98.2594058159219
20
-21.2472257349727
30
0
41
1
10
98.2495
20
-21.2553382123749
30
0
0
SPLINE
5
1CC
100
AcDbEntity
8
1
62
256
6
ByLayer
370
18
48
1
60
0
100
AcDbSpline
70
4
71
3
72
26
73
22
40
0
40
0
40
0
40
0
40
0.124999999999994
40
0.124999999999994
40
0.249999999999989
40
0.249999999999989
40
0.374999999999984
40
0.374999999999984
40
0.499999999999978
40
0.499999999999978
40
0.624999999999972
40
0.624999999999972
40
0.687499999999967
40
0.687499999999967
40
0.749999999999962
40
0.749999999999962
40
0.812499999999957
40
0.812499999999957
40
0.874999999999952
40
0.874999999999952
40
1
40
1
40
1
40
1
41
1
10
97.6055
20
-20.533315884014
30
0
41
1
10
97.5958918484872
20
-20.5498511209733
30
0
41
1
10
97.5868679239031
20
-20.5663315893324
30
0
41
1
10
97.5700189601487
20
-20.5991763737715
30
0
41
1
10
97.5621623485242
20
-20.6156164989991
30
0
41
1
10
97.5480821720497
20
-20.6477765695352
30
0
41
1
10
97.5418265485991
20
-20.663540203776
30
0
41
1
10
97.5312482185149
20
-20.694288246005
30
0
41
1
10
97.5268805409469
20
-20.7094347697568
30
0
41
1
10
97.5211849625344
20
-20.7376553641793
30
0
41
1
10
97.5197883614775
20
-20.750886664679
30
0
41
1
10
97.5213761954244
20
-20.7677676580937
30
0
41
1
10
97.5225190456038
20
-20.7728014149722
30
0
41
1
10
97.5264023723427
20
-20.7813297714474
30
0
41
1
10
97.5291736513424
20
-20.7847936570812
30
0
41
1
10
97.5364537580243
20
-20.789331006793
30
0
41
1
10
97.541055609124
20
-20.7904205302319
30
0
41
1
10
97.5515714596233
20
-20.7899479027122
30
0
41
1
10
97.5576596908641
20
-20.7883850305746
30
0
41
1
10
97.5769898352368
20
-20.7803707613263
30
0
41
1
10
97.5913559887425
20
-20.770701760591
30
0
41
1
10
97.6055
20
-20.7591455874819
30
0
0
SPLINE
5
1CD
100
AcDbEntity
8
1
62
256
6
ByLayer
370
18
48
1
60
0
100
AcDbSpline
70
4
71
3
72
12
73
8
40
0
40
0
40
0
40
0
40
0.56729100278693
40
0.56729100278693
40
0.850936504180393
40
0.850936504180393
40
1
40
1
40
1
40
1
41
1
10
97.6055
20
14.67254327625
30
0
41
1
10
97.5829955316989
20
14.6942074323789
30
0
41
1
10
97.5618803883319
20
14.7140674209438
30
0
41
1
10
97.5377038374728
20
14.735499342598
30
0
41
1
10
97.5310440689488
20
14.7411000824371
30
0
41
1
10
97.5243283600773
20
14.7460435311612
30
0
41
1
10
97.5226447527555
20
14.7470829990586
30
0
41
1
10
97.5216320442192
20
14.747437707207
30
0
0
SPLINE
5
1CE
100
AcDbEntity
8
1
62
256
6
ByLayer
370
18
48
1
60
0
100
AcDbSpline
70
4
71
3
72
16
73
12
40
0
40
0
40
0
40
0
40
0.0197386846160228
40
0.0197386846160228
40
0.264804013462017
40
0.264804013462017
40
0.509869342308011
40
0.509869342308011
40
0.754934671154006
40
0.754934671154006
40
1
40
1
40
1
40
1
41
1
10
97.5205028758574
20
14.7470721475968
30
0
41
1
10
97.5205053482064
20
14.7469673436313
30
0
41
1
10
97.520524302163
20
14.7468460802935
30
0
41
1
10
97.5210016685143
20
14.7449974364367
30
0
41
1
10
97.5239889034552
20
14.7407194293516
30
0
41
1
10
97.5336948862717
20
14.7286365874096
30
0
41
1
10
97.5404694325865
20
14.7207454646149
30
0
41
1
10
97.5561288184669
20
14.703103159907
30
0
41
1
10
97.5652095623421
20
14.6931288968653
30
0
41
1
10
97.5844816839385
20
14.6723146861223
30
0
41
1
10
97.5947308174893
20
14.6614073739258
30
0
41
1
10
97.6055
20
14.6500792121577
30
0
0
SPLINE
5
1CF
100
AcDbEntity
8
1
62
256
6
ByLayer
370
18
48
1
60
0
100
AcDbSpline
70
4
71
3
72
8
73
4
40
0
40
0
40
0
40
0
40
1
40
1
40
1
40
1
41
1
10
97.6055
20
7.62539331825747
30
0
41
1
10
97.829910422179
20
7.11945460374577
30
0
41
1
10
98.0449435898546
20
6.60826752524312
30
0
41
1
10
98.2495
20
6.09121670091349
30
0
0
SPLINE
5
1D0
100
AcDbEntity
8
1
62
256
6
ByLayer
370
18
48
1
60
0
100
AcDbSpline
70
4
71
3
72
12
73
8
40
0
40
0
40
0
40
0
40
0.250000000000001
40
0.250000000000001
40
0.500000000000001
40
0.500000000000001
40
1
40
1
40
1
40
1
41
1
10
98.3245
20
3.18008548133119
30
0
41
1
10
98.3245
20
3.21493915084142
30
0
41
1
10
98.3219169517558
20
3.25054591711105
30
0
41
1
10
98.313952554405
20
3.32253866084051
30
0
41
1
10
98.3084632666113
20
3.35905903325784
30
0
41
1
10
98.288693751875
20
3.46847945251025
30
0
41
1
10
98.2712510870855
20
3.54143111158027
30
0
41
1
10
98.2495000000002
20
3.61440504217313
30
0
0
SPLINE
5
1D1
100
AcDbEntity
8
1
62
256
6
ByLayer
370
18
48
1
60
0
100
AcDbSpline
70
4
71
3
72
12
73
8
40
0
40
0
40
0
40
0
40
0.25
40
0.25
40
0.500000000000001
40
0.500000000000001
40
1
40
1
40
1
40
1
41
1
10
98.3245
20
-1.36448444176372
30
0
41
1
10
98.3245
20
-1.28674675504078
30
0
41
1
10
98.322321213052
20
-1.20886639586857
30
0
41
1
10
98.3151576284524
20
-1.05297445046242
30
0
41
1
10
98.3101186540554
20
-0.974957444600648
30
0
41
1
10
98.2911229373505
20
-0.740740290623108
30
0
41
1
10
98.2734535414259
20
-0.58421736019443
30
0
41
1
10
98.2495000000001
20
-0.428254102138482
30
0
0
SPLINE
5
1D2
100
AcDbEntity
8
1
62
256
6
ByLayer
370
18
48
1
60
0
100
AcDbSpline
70
4
71
3
72
12
73
8
40
0
40
0
40
0
40
0
40
0.250000000000007
40
0.250000000000007
40
0.500000000000015
40
0.500000000000015
40
1
40
1
40
1
40
1
41
1
10
98.3245000000034
20
10.3850933995421
30
0
41
1
10
98.3245000000031
20
10.3970787264872
30
0
41
1
10
98.3218148236824
20
10.4112191757296
30
0
41
1
10
98.3134329178871
20
10.440781483875
30
0
41
1
10
98.3076441592111
20
10.4564966194783
30
0
41
1
10
98.2872039700729
20
10.5044683083614
30
0
41
1
10
98.2698428653544
20
10.5371366987856
30
0
41
1
10
98.2495
20
10.5703702247132
30
0
0
SPLINE
5
1D3
100
AcDbEntity
8
1
62
256
6
ByLayer
370
18
48
1
60
0
100
AcDbSpline
70
4
71
3
72
12
73
8
40
0
40
0
40
0
40
0
40
0.249999999999995
40
0.249999999999995
40
0.499999999999989
40
0.499999999999989
40
1
40
1
40
1
40
1
41
1
10
98.3245000000068
20
9.1775976034331
30
0
41
1
10
98.3245000000062
20
9.19243785106644
30
0
41
1
10
98.3218101058425
20
9.20926595337374
30
0
41
1
10
98.3135026485538
20
9.24388815157212
30
0
41
1
10
98.3078290051662
20
9.26188470172519
30
0
41
1
10
98.2874766500648
20
9.31714196024663
30
0
41
1
10
98.2700729926385
20
9.35438857871983
30
0
41
1
10
98.2495
20
9.39198788418861
30
0
0
SPLINE
5
1D4
100
AcDbEntity
8
1
62
256
6
ByLayer
370
18
48
1
60
0
100
AcDbSpline
70
4
71
3
72
22
73
18
40
0
40
0
40
0
40
0
40
0.12500000000005
40
0.12500000000005
40
0.18750000000005
40
0.18750000000005
40
0.250000000000051
40
0.250000000000051
40
0.31250000000005
40
0.31250000000005
40
0.37500000000005
40
0.37500000000005
40
0.500000000000037
40
0.500000000000037
40
0.750000000000019
40
0.750000000000019
40
1
40
1
40
1
40
1
41
1
10
97.6055
20
11.7826993267326
30
0
41
1
10
97.5919745228995
20
11.79377410663
30
0
41
1
10
97.5785728919488
20
11.8032351891507
30
0
41
1
10
97.5600728324478
20
11.8127399031512
30
0
41
1
10
97.5542464597728
20
11.8150706091349
30
0
41
1
10
97.5437822549354
20
11.8176552021779
30
0
41
1
10
97.5390803570253
20
11.8178985994965
30
0
41
1
10
97.5314043088806
20
11.8162564980175
30
0
41
1
10
97.5283069146796
20
11.814376925707
30
0
41
1
10
97.5236849638678
20
11.8087898475588
30
0
41
1
10
97.5221857379061
20
11.8051654829402
30
0
41
1
10
97.5196474365467
20
11.792280964629
30
0
41
1
10
97.5206044294397
20
11.7813013056084
30
0
41
1
10
97.5284300061337
20
11.744884787139
30
0
41
1
10
97.5400814481017
20
11.7161474341274
30
0
41
1
10
97.5688013884063
20
11.6577627074369
30
0
41
1
10
97.5859730146255
20
11.6278885715471
30
0
41
1
10
97.6055
20
11.5974568928041
30
0
0
SPLINE
5
1D5
100
AcDbEntity
8
1
62
256
6
ByLayer
370
18
48
1
60
0
100
AcDbSpline
70
4
71
3
72
14
73
10
40
0
40
0
40
0
40
0
40
0.25
40
0.25
40
0.5
40
0.5
40
0.75
40
0.75
40
1
40
1
40
1
40
1
41
1
10
98.2495
20
10.2329620912908
30
0
41
1
10
98.2595754747045
20
10.224729678792
30
0
41
1
10
98.2696634917799
20
10.2176576935563
30
0
41
1
10
98.2887340686952
20
10.2077835490403
30
0
41
1
10
98.2976723684018
20
10.2051360238348
30
0
41
1
10
98.3117771625899
20
10.2060335303123
30
0
41
1
10
98.3169055323747
20
10.2095373596982
30
0
41
1
10
98.3231989538685
20
10.2205854056194
30
0
41
1
10
98.3245000000012
20
10.228127808386
30
0
41
1
10
98.3245000000012
20
10.2365834598278
30
0
0
SPLINE
5
1D6
100
AcDbEntity
8
1
62
256
6
ByLayer
370
18
48
1
60
0
100
AcDbSpline
70
4
71
3
72
8
73
4
40
0
40
0
40
0
40
0
40
1
40
1
40
1
40
1
41
1
10
97.6055
20
-24.232584456276
30
0
41
1
10
97.8203746839424
20
-24.0403524947096
30
0
41
1
10
98.0350473703234
20
-23.8478202535533
30
0
41
1
10
98.2495
20
-23.654960886978
30
0
0
SPLINE
5
1D7
100
AcDbEntity
8
1
62
256
6
ByLayer
370
18
48
1
60
0
100
AcDbSpline
70
4
71
3
72
16
73
12
40
0
40
0
40
0
40
0
40
0.250000000000038
40
0.250000000000038
40
0.500000000000076
40
0.500000000000076
40
0.625000000000057
40
0.625000000000057
40
0.750000000000038
40
0.750000000000038
40
1
40
1
40
1
40
1
41
1
10
98.3245000000022
20
-17.4517920695658
30
0
41
1
10
98.3245000000022
20
-17.4403673839731
30
0
41
1
10
98.3235743306348
20
-17.429625754431
30
0
41
1
10
98.3185093869108
20
-17.4105343684029
30
0
41
1
10
98.3143452477188
20
-17.4023667097377
30
0
41
1
10
98.3043830436249
20
-17.3952686195637
30
0
41
1
10
98.3004139948647
20
-17.3938031093933
30
0
41
1
10
98.2915112087763
20
-17.3931584348768
30
0
41
1
10
98.2865270212046
20
-17.3939796046378
30
0
41
1
10
98.2710236762014
20
-17.3994427929496
30
0
41
1
10
98.2600273798581
20
-17.406927684706
30
0
41
1
10
98.2495
20
-17.4160122997158
30
0
0
SPLINE
5
1D8
100
AcDbEntity
8
1
62
256
6
ByLayer
370
18
48
1
60
0
100
AcDbSpline
70
4
71
3
72
22
73
18
40
0
40
0
40
0
40
0
40
0.124999999999954
40
0.124999999999954
40
0.249999999999908
40
0.249999999999908
40
0.312499999999906
40
0.312499999999906
40
0.374999999999903
40
0.374999999999903
40
0.499999999999923
40
0.499999999999923
40
0.624999999999943
40
0.624999999999943
40
0.749999999999964
40
0.749999999999964
40
1
40
1
40
1
40
1
41
1
10
97.6055
20
13.8304003628102
30
0
41
1
10
97.5933808080385
20
13.8409166748026
30
0
41
1
10
97.5815029684042
20
13.8505993513191
30
0
41
1
10
97.5596939458029
20
13.8666789353283
30
0
41
1
10
97.549522162378
20
13.8732288666946
30
0
41
1
10
97.5372715379926
20
13.8790458665807
30
0
41
1
10
97.5336365800475
20
13.8803378471185
30
0
41
1
10
97.5277224198726
20
13.8814041831677
30
0
41
1
10
97.525390108167
20
13.8812105482549
30
0
41
1
10
97.5203187268387
20
13.8783850311454
30
0
41
1
10
97.5197486324504
20
13.8735609996964
30
0
41
1
10
97.5230392710006
20
13.8599134489843
30
0
41
1
10
97.5268401757407
20
13.8511757274978
30
0
41
1
10
97.5373010855982
20
13.8315374121518
30
0
41
1
10
97.5438699092401
20
13.8207762383678
30
0
41
1
10
97.5666469913102
20
13.7863364356785
30
0
41
1
10
97.5850228332094
20
13.7617741819729
30
0
41
1
10
97.6055
20
13.7363442052147
30
0
0
SPLINE
5
1D9
100
AcDbEntity
8
1
62
256
6
ByLayer
370
18
48
1
60
0
100
AcDbSpline
70
4
71
3
72
12
73
8
40
0
40
0
40
0
40
0
40
0.250000000000015
40
0.250000000000015
40
0.50000000000003
40
0.50000000000003
40
1
40
1
40
1
40
1
41
1
10
98.3245000000014
20
12.1637626739618
30
0
41
1
10
98.3245000000013
20
12.1715373958859
30
0
41
1
10
98.3219119832026
20
12.1813988967018
30
0
41
1
10
98.3134329614606
20
12.2035631073316
30
0
41
1
10
98.3076482942255
20
12.2155633646175
30
0
41
1
10
98.2869260374197
20
12.2535669467309
30
0
41
1
10
98.2694532524702
20
12.2802033455515
30
0
41
1
10
98.2495
20
12.3075317791603
30
0
0
SPLINE
5
1DA
100
AcDbEntity
8
1
62
256
6
ByLayer
370
18
48
1
60
0
100
AcDbSpline
70
4
71
3
72
18
73
14
40
0
40
0
40
0
40
0
40
0.24996809560373
40
0.24996809560373
40
0.49993619120746
40
0.49993619120746
40
0.74990428681119
40
0.74990428681119
40
0.874888334613048
40
0.874888334613048
40
0.999872382414906
40
0.999872382414906
40
1
40
1
40
1
40
1
41
1
10
97.6055
20
-24.7184503955052
30
0
41
1
10
97.5944736150805
20
-24.729524619015
30
0
41
1
10
97.5838033692869
20
-24.7402505448279
30
0
41
1
10
97.5640834313705
20
-24.760087248044
30
0
41
1
10
97.5550149215231
20
-24.769216810136
30
0
41
1
10
97.5389994683375
20
-24.7853486325379
30
0
41
1
10
97.5323266018195
20
-24.7920748098037
30
0
41
1
10
97.5253343264305
20
-24.7991246202076
30
0
41
1
10
97.5235363040347
20
-24.8009378239267
30
0
41
1
10
97.5211007379348
20
-24.8033940774065
30
0
41
1
10
97.5204830212339
20
-24.8040171245137
30
0
41
1
10
97.5204996970217
20
-24.8040003055791
30
0
41
1
10
97.5205004011705
20
-24.8039995953858
30
0
41
1
10
97.5205011053155
20
-24.8039988851888
30
0
0
SPLINE
5
1DB
100
AcDbEntity
8
1
62
256
6
ByLayer
370
18
48
1
60
0
100
AcDbSpline
70
4
71
3
72
8
73
4
40
0
40
0
40
0
40
0
40
1
40
1
40
1
40
1
41
1
10
97.6055000000001
20
2.71473982249824
30
0
41
1
10
97.8697062205963
20
1.68060882615396
30
0
41
1
10
98.0864300612877
20
0.633506181258753
30
0
41
1
10
98.2495000000003
20
-0.428254102138396
30
0
0
SPLINE
5
1DC
100
AcDbEntity
8
1
62
256
6
ByLayer
370
18
48
1
60
0
100
AcDbSpline
70
4
71
3
72
8
73
4
40
0
40
0
40
0
40
0
40
1
40
1
40
1
40
1
41
1
10
98.2495
20
8.97677529871274
30
0
41
1
10
98.0348720691877
20
9.15460497685518
30
0
41
1
10
97.8202039791954
20
9.33237004341851
30
0
41
1
10
97.6055
20
9.51007727764988
30
0
0
SPLINE
5
1DD
100
AcDbEntity
8
1
62
256
6
ByLayer
370
18
48
1
60
0
100
AcDbSpline
70
4
71
3
72
14
73
10
40
0
40
0
40
0
40
0
40
0.25
40
0.25
40
0.5
40
0.5
40
0.75
40
0.75
40
1
40
1
40
1
40
1
41
1
10
98.2495
20
-23.9678441313361
30
0
41
1
10
98.2592496041162
20
-23.9574402745057
30
0
41
1
10
98.2685192515779
20
-23.9473921852377
30
0
41
1
10
98.2859116916071
20
-23.9281390396628
30
0
41
1
10
98.2939838635032
20
-23.918985371031
30
0
41
1
10
98.3078579262551
20
-23.9026525202925
30
0
41
1
10
98.313812257457
20
-23.8952874257051
30
0
41
1
10
98.3221165962266
20
-23.8838999530241
30
0
41
1
10
98.3245000000001
20
-23.8798131548509
30
0
41
1
10
98.3245000000001
20
-23.8780838423543
30
0
0
SPLINE
5
1DE
100
AcDbEntity
8
1
62
256
6
ByLayer
370
18
48
1
60
0
100
AcDbSpline
70
4
71
3
72
8
73
4
40
0
40
0
40
0
40
0
40
1
40
1
40
1
40
1
41
1
10
97.6055
20
12.4690368442116
30
0
41
1
10
97.8226281001308
20
12.1583021627902
30
0
41
1
10
98.0373746492063
20
11.845389577551
30
0
41
1
10
98.2495
20
11.5300799335829
30
0
0
SPLINE
5
1DF
100
AcDbEntity
8
1
62
256
6
ByLayer
370
18
48
1
60
0
100
AcDbSpline
70
4
71
3
72
8
73
4
40
0
40
0
40
0
40
0
40
1
40
1
40
1
40
1
41
1
10
98.2495
20
13.654960886978
30
0
41
1
10
98.0350473703234
20
13.8478202535533
30
0
41
1
10
97.8203746839424
20
14.0403524947096
30
0
41
1
10
97.6055
20
14.232584456276
30
0
0
LINE
5
75
100
AcDbEntity
8
1
62
256
6
ByLayer
370
18
48
1
60
0
100
AcDbLine
10
102.6755
20
-19.899495
30
0
11
107.9255
21
-19.899495
31
0
39
0
210
0
220
0
230
1
0
LINE
5
77
100
AcDbEntity
8
1
62
256
6
ByLayer
370
18
48
1
60
0
100
AcDbLine
10
102.4255
20
-11.899495
30
0
11
98.324484
21
-11.899495
31
0
39
0
210
0
220
0
230
1
0
LINE
5
78
100
AcDbEntity
8
1
62
256
6
ByLayer
370
18
48
1
60
0
100
AcDbLine
10
98.324484
20
-17.899495
30
0
11
102.4255
21
-17.899495
31
0
39
0
210
0
220
0
230
1
0
LINE
5
79
100
AcDbEntity
8
1
62
256
6
ByLayer
370
18
48
1
60
0
100
AcDbLine
10
107.9255
20
-9.899495
30
0
11
102.6755
21
-9.899495
31
0
39
0
210
0
220
0
230
1
0
LINE
5
7A
100
AcDbEntity
8
1
62
256
6
ByLayer
370
18
48
1
60
0
100
AcDbLine
10
107.9255
20
9.899495
30
0
11
102.6755
21
9.899495
31
0
39
0
210
0
220
0
230
1
0
LINE
5
7B
100
AcDbEntity
8
1
62
256
6
ByLayer
370
18
48
1
60
0
100
AcDbLine
10
97.3245
20
15
30
0
11
93.8
21
15
31
0
39
0
210
0
220
0
230
1
0
LINE
5
7C
100
AcDbEntity
8
1
62
256
6
ByLayer
370
18
48
1
60
0
100
AcDbLine
10
93.8
20
-25
30
0
11
97.3245
21
-25
31
0
39
0
210
0
220
0
230
1
0
LINE
5
7D
100
AcDbEntity
8
1
62
256
6
ByLayer
370
18
48
1
60
0
100
AcDbLine
10
0
20
-24.7
30
0
11
0.3
21
-25
31
0
39
0
210
0
220
0
230
1
0
LINE
5
7E
100
AcDbEntity
8
1
62
256
6
ByLayer
370
18
48
1
60
0
100
AcDbLine
10
0.3
20
25
30
0
11
0
21
24.7
31
0
39
0
210
0
220
0
230
1
0
LINE
5
7F
100
AcDbEntity
8
1
62
256
6
ByLayer
370
18
48
1
60
0
100
AcDbLine
10
92.834074
20
15.741181
30
0
11
90.353181
21
25
31
0
39
0
210
0
220
0
230
1
0
LINE
5
80
100
AcDbEntity
8
1
62
256
6
ByLayer
370
18
48
1
60
0
100
AcDbLine
10
90.35354
20
25
30
0
11
0.3
21
25
31
0
39
0
210
0
220
0
230
1
0
LINE
5
81
100
AcDbEntity
8
1
62
256
6
ByLayer
370
18
48
1
60
0
100
AcDbLine
10
0.3
20
-25
30
0
11
93.8
21
-25
31
0
39
0
210
0
220
0
230
1
0
LINE
5
82
100
AcDbEntity
8
1
62
256
6
ByLayer
370
18
48
1
60
0
100
AcDbLine
10
98.324484
20
1.899495
30
0
11
102.4255
21
1.899495
31
0
39
0
210
0
220
0
230
1
0
LINE
5
83
100
AcDbEntity
8
1
62
256
6
ByLayer
370
18
48
1
60
0
100
AcDbLine
10
102.4255
20
7.899495
30
0
11
98.324484
21
7.899495
31
0
39
0
210
0
220
0
230
1
0
LINE
5
84
100
AcDbEntity
8
1
62
256
6
ByLayer
370
18
48
1
60
0
100
AcDbLine
10
102.6755
20
-0.100505
30
0
11
107.9255
21
-0.100505
31
0
39
0
210
0
220
0
230
1
0
LINE
5
85
100
AcDbEntity
8
1
62
256
6
ByLayer
370
18
48
1
60
0
100
AcDbLine
10
97.3245
20
-25
30
0
11
97.521897
21
-24.802603
31
0
39
0
210
0
220
0
230
1
0
LINE
5
86
100
AcDbEntity
8
1
62
256
6
ByLayer
370
18
48
1
60
0
100
AcDbLine
10
97.521897
20
14.802603
30
0
11
97.3245
21
15
31
0
39
0
210
0
220
0
230
1
0
LINE
5
87
100
AcDbEntity
8
SK1
62
256
6
ByLayer
370
18
48
1
60
0
100
AcDbLine
10
-0.092684
20
-17.570321
30
0
11
0
21
-17.570321
31
0
39
0
210
0
220
0
230
1
0
LINE
5
89
100
AcDbEntity
8
SK1
62
256
6
ByLayer
370
18
48
1
60
0
100
AcDbLine
10
0
20
17.570321
30
0
11
-0.092785
21
17.570321
31
0
39
0
210
0
220
0
230
1
0
LINE
5
8A
100
AcDbEntity
8
1
62
256
6
ByLayer
370
18
48
1
60
0
100
AcDbLine
10
107.9255
20
9.899495
30
0
11
102.6755
21
9.899495
31
0
39
0
210
0
220
0
230
1
0
LINE
5
8B
100
AcDbEntity
8
1
62
256
6
ByLayer
370
18
48
1
60
0
100
AcDbLine
10
102.6755
20
-0.100505
30
0
11
107.9255
21
-0.100505
31
0
39
0
210
0
220
0
230
1
0
LINE
5
8C
100
AcDbEntity
8
1
62
256
6
ByLayer
370
18
48
1
60
0
100
AcDbLine
10
102.4255
20
7.899495
30
0
11
98.324484
21
7.899495
31
0
39
0
210
0
220
0
230
1
0
LINE
5
8D
100
AcDbEntity
8
1
62
256
6
ByLayer
370
18
48
1
60
0
100
AcDbLine
10
98.324484
20
1.899495
30
0
11
102.4255
21
1.899495
31
0
39
0
210
0
220
0
230
1
0
LINE
5
8E
100
AcDbEntity
8
1
62
256
6
ByLayer
370
13
48
1
60
0
100
AcDbLine
10
98.324383
20
7.285995
30
0
11
102.4255
21
7.285995
31
0
39
0
210
0
220
0
230
1
0
LINE
5
8F
100
AcDbEntity
8
1
62
256
6
ByLayer
370
13
48
1
60
0
100
AcDbLine
10
98.324383
20
2.512995
30
0
11
102.4255
21
2.512995
31
0
39
0
210
0
220
0
230
1
0
LINE
5
90
100
AcDbEntity
8
1
62
256
6
ByLayer
370
18
48
1
60
0
100
AcDbLine
10
102.4255
20
6.890651
30
0
11
102.4255
21
1.899495
31
0
39
0
210
0
220
0
230
1
0
LINE
5
91
100
AcDbEntity
8
80
62
256
6
ByLayer
370
18
48
1
60
0
100
AcDbLine
10
0
20
0
30
0
11
-5
21
0
31
0
39
0
210
0
220
0
230
1
0
LINE
5
92
100
AcDbEntity
8
81
62
256
6
ByLayer
370
18
48
1
60
0
100
AcDbLine
10
98
20
-5
30
0
11
103
21
-5
31
0
39
0
210
0
220
0
230
1
0
LINE
5
93
100
AcDbEntity
8
4
62
256
6
ByLayer
370
18
48
0.05
60
0
100
AcDbLine
10
0
20
0
30
0
11
98
21
0
31
0
39
0
210
0
220
0
230
1
0
LINE
5
95
100
AcDbEntity
8
SK4
62
256
6
ByLayer
370
18
48
0.05
60
0
100
AcDbLine
10
-35
20
0
30
0
11
103
21
0
31
0
39
0
210
0
220
0
230
1
0
LINE
5
97
100
AcDbEntity
8
SK1
62
256
6
ByLayer
370
18
48
1
60
0
100
AcDbLine
10
-0.394914
20
17.360257
30
0
11
-0.394914
21
17.359823
31
0
39
0
210
0
220
0
230
1
0
LINE
5
98
100
AcDbEntity
8
SK1
62
256
6
ByLayer
370
18
48
1
60
0
100
AcDbLine
10
-1.99504
20
17.325244
30
0
11
-1.99504
21
17.320724
31
0
39
0
210
0
220
0
230
1
0
LINE
5
99
100
AcDbEntity
8
SK1
62
256
6
ByLayer
370
18
48
1
60
0
100
AcDbLine
10
-1.99504
20
-17.320724
30
0
11
-1.99504
21
-17.325244
31
0
39
0
210
0
220
0
230
1
0
LINE
5
9A
100
AcDbEntity
8
SK1
62
256
6
ByLayer
370
13
48
1
60
0
100
AcDbLine
10
-1.307107
20
3.918083
30
0
11
-1.307107
21
-3.918083
31
0
39
0
210
0
220
0
230
1
0
LINE
5
9B
100
AcDbEntity
8
SK1
62
256
6
ByLayer
370
18
48
1
60
0
100
AcDbLine
10
-0.2
20
6.128541
30
0
11
-0.2
21
6.078432
31
0
39
0
210
0
220
0
230
1
0
LINE
5
9C
100
AcDbEntity
8
SK1
62
256
6
ByLayer
370
18
48
1
60
0
100
AcDbLine
10
-0.2
20
-6.078431
30
0
11
-0.2
21
-6.128539
31
0
39
0
210
0
220
0
230
1
0
LINE
5
9D
100
AcDbEntity
8
SK1
62
256
6
ByLayer
370
18
48
1
60
0
100
AcDbLine
10
-0.394914
20
-17.359823
30
0
11
-0.394914
21
-17.360257
31
0
39
0
210
0
220
0
230
1
0
LINE
5
9E
100
AcDbEntity
8
1
62
256
6
ByLayer
370
13
48
1
60
0
100
AcDbLine
10
8.105662
20
23.666502
30
0
11
8.105662
21
8.055848
31
0
39
0
210
0
220
0
230
1
0
LINE
5
9F
100
AcDbEntity
8
1
62
256
6
ByLayer
370
13
48
1
60
0
100
AcDbLine
10
98.2495
20
-23.654961
30
0
11
98.2495
21
-23.402698
31
0
39
0
210
0
220
0
230
1
0
LINE
5
A0
100
AcDbEntity
8
1
62
256
6
ByLayer
370
18
48
1
60
0
100
AcDbLine
10
98.3245
20
11.367588
30
0
11
98.3245
21
11.246743
31
0
39
0
210
0
220
0
230
1
0
LINE
5
A1
100
AcDbEntity
8
1
62
256
6
ByLayer
370
18
48
1
60
0
100
AcDbLine
10
98.3245
20
12.066336
30
0
11
98.3245
21
11.367557
31
0
39
0
210
0
220
0
230
1
0
LINE
5
A2
100
AcDbEntity
8
1
62
256
6
ByLayer
370
18
48
1
60
0
100
AcDbLine
10
98.3245
20
7.451792
30
0
11
98.3245
21
5.77508
31
0
39
0
210
0
220
0
230
1
0
LINE
5
A3
100
AcDbEntity
8
1
62
256
6
ByLayer
370
18
48
1
60
0
100
AcDbLine
10
98.3245
20
-15.77508
30
0
11
98.3245
21
-17.451792
31
0
39
0
210
0
220
0
230
1
0
LINE
5
A4
100
AcDbEntity
8
1
62
256
6
ByLayer
370
13
48
1
60
0
100
AcDbLine
10
98.2495
20
-18.976775
30
0
11
98.2495
21
-17.935311
31
0
39
0
210
0
220
0
230
1
0
LINE
5
A5
100
AcDbEntity
8
1
62
256
6
ByLayer
370
18
48
1
60
0
100
AcDbLine
10
0
20
-24.7
30
0
11
0
21
24.7
31
0
39
0
210
0
220
0
230
1
0
LINE
5
A6
100
AcDbEntity
8
1
62
256
6
ByLayer
370
13
48
1
60
0
100
AcDbLine
10
98.2495
20
9.391974
30
0
11
98.2495
21
10.232962
31
0
39
0
210
0
220
0
230
1
0
LINE
5
A7
100
AcDbEntity
8
1
62
256
6
ByLayer
370
18
48
1
60
0
100
AcDbLine
10
98.3245
20
3.180085
30
0
11
98.3245
21
2.742143
31
0
39
0
210
0
220
0
230
1
0
LINE
5
A8
100
AcDbEntity
8
1
62
256
6
ByLayer
370
18
48
1
60
0
100
AcDbLine
10
8.538675
20
23.83913
30
0
11
11.461325
21
23.83913
31
0
39
0
210
0
220
0
230
1
0
LINE
5
A9
100
AcDbEntity
8
1
62
256
6
ByLayer
370
18
48
1
60
0
100
AcDbLine
10
98.3245
20
-2.625637
30
0
11
98.3245
21
-7.374363
31
0
39
0
210
0
220
0
230
1
0
LINE
5
AA
100
AcDbEntity
8
1
62
256
6
ByLayer
370
18
48
1
60
0
100
AcDbLine
10
98.3245
20
13.853979
30
0
11
98.3245
21
13.646315
31
0
39
0
210
0
220
0
230
1
0
LINE
5
AB
100
AcDbEntity
8
1
62
256
6
ByLayer
370
18
48
1
60
0
100
AcDbLine
10
98.3245
20
13.98093
30
0
11
98.3245
21
13.877899
31
0
39
0
210
0
220
0
230
1
0
LINE
5
AC
100
AcDbEntity
8
1
62
256
6
ByLayer
370
13
48
1
60
0
100
AcDbLine
10
98.2495
20
-22.085927
30
0
11
98.2495
21
-21.530049
31
0
39
0
210
0
220
0
230
1
0
LINE
5
AD
100
AcDbEntity
8
1
62
256
6
ByLayer
370
18
48
1
60
0
100
AcDbLine
10
0.3
20
-25
30
0
11
0.3
21
25
31
0
39
0
210
0
220
0
230
1
0
LINE
5
AE
100
AcDbEntity
8
1
62
256
6
ByLayer
370
13
48
1
60
0
100
AcDbLine
10
97.6055
20
11.782699
30
0
11
97.6055
21
11.597446
31
0
39
0
210
0
220
0
230
1
0
LINE
5
AF
100
AcDbEntity
8
1
62
256
6
ByLayer
370
18
48
1
60
0
100
AcDbLine
10
98.3245
20
-23.230913
30
0
11
98.3245
21
-23.289024
31
0
39
0
210
0
220
0
230
1
0
LINE
5
B0
100
AcDbEntity
8
1
62
256
6
ByLayer
370
13
48
1
60
0
100
AcDbLine
10
98.2495
20
-22.75167
30
0
11
98.2495
21
-22.30746
31
0
39
0
210
0
220
0
230
1
0
LINE
5
B1
100
AcDbEntity
8
1
62
256
6
ByLayer
370
13
48
1
60
0
100
AcDbLine
10
11.461325
20
-7.529667
30
0
11
11.461325
21
-23.83913
31
0
39
0
210
0
220
0
230
1
0
LINE
5
B2
100
AcDbEntity
8
1
62
256
6
ByLayer
370
13
48
1
60
0
100
AcDbLine
10
8.538675
20
-7.529667
30
0
11
8.538675
21
-23.83913
31
0
39
0
210
0
220
0
230
1
0
LINE
5
B3
100
AcDbEntity
8
1
62
256
6
ByLayer
370
18
48
1
60
0
100
AcDbLine
10
98.3245
20
-21.367557
30
0
11
98.3245
21
-22.066336
31
0
39
0
210
0
220
0
230
1
0
LINE
5
B4
100
AcDbEntity
8
1
62
256
6
ByLayer
370
13
48
1
60
0
100
AcDbLine
10
98.2495
20
-23.270596
30
0
11
98.2495
21
-22.926445
31
0
39
0
210
0
220
0
230
1
0
LINE
5
B5
100
AcDbEntity
8
1
62
256
6
ByLayer
370
13
48
1
60
0
100
AcDbLine
10
98.2495
20
11.530049
30
0
11
98.2495
21
12.085927
31
0
39
0
210
0
220
0
230
1
0
LINE
5
B6
100
AcDbEntity
8
1
62
256
6
ByLayer
370
18
48
1
60
0
100
AcDbLine
10
98.3245
20
-1.364484
30
0
11
98.3245
21
-2.625637
31
0
39
0
210
0
220
0
230
1
0
LINE
5
B7
100
AcDbEntity
8
1
62
256
6
ByLayer
370
18
48
1
60
0
100
AcDbLine
10
98.3245
20
-22.721823
30
0
11
98.3245
21
-22.79864
31
0
39
0
210
0
220
0
230
1
0
LINE
5
B8
100
AcDbEntity
8
1
62
256
6
ByLayer
370
18
48
1
60
0
100
AcDbLine
10
98.3245
20
-23.853979
30
0
11
98.3245
21
-23.878084
31
0
39
0
210
0
220
0
230
1
0
LINE
5
B9
100
AcDbEntity
8
1
62
256
6
ByLayer
370
13
48
1
60
0
100
AcDbLine
10
97.6055
20
3.373611
30
0
11
97.6055
21
2.714713
31
0
39
0
210
0
220
0
230
1
0
LINE
5
BA
100
AcDbEntity
8
1
62
256
6
ByLayer
370
13
48
1
60
0
100
AcDbLine
10
97.6055
20
-12.714713
30
0
11
97.6055
21
-13.373611
31
0
39
0
210
0
220
0
230
1
0
LINE
5
BB
100
AcDbEntity
8
1
62
256
6
ByLayer
370
13
48
1
60
0
100
AcDbLine
10
98.2495
20
13.967827
30
0
11
98.2495
21
14.04976
31
0
39
0
210
0
220
0
230
1
0
LINE
5
BC
100
AcDbEntity
8
1
62
256
6
ByLayer
370
18
48
1
60
0
100
AcDbLine
10
8.538675
20
-7.529667
30
0
11
11.461325
21
-7.529667
31
0
39
0
210
0
220
0
230
1
0
LINE
5
BD
100
AcDbEntity
8
1
62
256
6
ByLayer
370
18
48
1
60
0
100
AcDbLine
10
98.3245
20
-22.798581
30
0
11
98.3245
21
-23.230913
31
0
39
0
210
0
220
0
230
1
0
LINE
5
BE
100
AcDbEntity
8
1
62
256
6
ByLayer
370
13
48
1
60
0
100
AcDbLine
10
98.2495
20
10.570347
30
0
11
98.2495
21
11.255338
31
0
39
0
210
0
220
0
230
1
0
LINE
5
BF
100
AcDbEntity
8
1
62
256
6
ByLayer
370
18
48
1
60
0
100
AcDbLine
10
98.3245
20
12.79864
30
0
11
98.3245
21
12.721823
31
0
39
0
210
0
220
0
230
1
0
LINE
5
C0
100
AcDbEntity
8
1
62
256
6
ByLayer
370
13
48
1
60
0
100
AcDbLine
10
97.6055
20
-24.466108
30
0
11
97.6055
21
-24.511551
31
0
39
0
210
0
220
0
230
1
0
LINE
5
C1
100
AcDbEntity
8
1
62
256
6
ByLayer
370
18
48
1
60
0
100
AcDbLine
10
11.461325
20
7.529667
30
0
11
8.538675
21
7.529667
31
0
39
0
210
0
220
0
230
1
0
LINE
5
C2
100
AcDbEntity
8
1
62
256
6
ByLayer
370
18
48
1
60
0
100
AcDbLine
10
98.3245
20
-19.177621
30
0
11
98.3245
21
-20.236583
31
0
39
0
210
0
220
0
230
1
0
LINE
5
C3
100
AcDbEntity
8
1
62
256
6
ByLayer
370
18
48
1
60
0
100
AcDbLine
10
98.3245
20
7.680988
30
0
11
98.3245
21
7.451792
31
0
39
0
210
0
220
0
230
1
0
LINE
5
C4
100
AcDbEntity
8
1
62
256
6
ByLayer
370
13
48
1
60
0
100
AcDbLine
10
97.6055
20
-22.468992
30
0
11
97.6055
21
-22.620083
31
0
39
0
210
0
220
0
230
1
0
LINE
5
C5
100
AcDbEntity
8
1
62
256
6
ByLayer
370
18
48
1
60
0
100
AcDbLine
10
98.3245
20
12.721823
30
0
11
98.3245
21
12.163684
31
0
39
0
210
0
220
0
230
1
0
LINE
5
C6
100
AcDbEntity
8
1
62
256
6
ByLayer
370
18
48
1
60
0
100
AcDbLine
10
98.3245
20
-17.681014
30
0
11
98.3245
21
-18.994653
31
0
39
0
210
0
220
0
230
1
0
LINE
5
C7
100
AcDbEntity
8
1
62
256
6
ByLayer
370
18
48
1
60
0
100
AcDbLine
10
98.3245
20
2.742143
30
0
11
98.3245
21
-1.36458
31
0
39
0
210
0
220
0
230
1
0
LINE
5
C8
100
AcDbEntity
8
1
62
256
6
ByLayer
370
18
48
1
60
0
100
AcDbLine
10
98.3245
20
-8.63542
30
0
11
98.3245
21
-12.742143
31
0
39
0
210
0
220
0
230
1
0
LINE
5
C9
100
AcDbEntity
8
1
62
256
6
ByLayer
370
18
48
1
60
0
100
AcDbLine
10
98.3245
20
-20.236583
30
0
11
98.3245
21
-20.385093
31
0
39
0
210
0
220
0
230
1
0
LINE
5
CA
100
AcDbEntity
8
1
62
256
6
ByLayer
370
13
48
1
60
0
100
AcDbLine
10
97.6055
20
-20.533307
30
0
11
97.6055
21
-20.759146
31
0
39
0
210
0
220
0
230
1
0
LINE
5
CB
100
AcDbEntity
8
1
62
256
6
ByLayer
370
13
48
1
60
0
100
AcDbLine
10
97.6055
20
-21.597446
30
0
11
97.6055
21
-21.782699
31
0
39
0
210
0
220
0
230
1
0
LINE
5
CC
100
AcDbEntity
8
1
62
256
6
ByLayer
370
13
48
1
60
0
100
AcDbLine
10
98.2495
20
13.402698
30
0
11
98.2495
21
13.654961
31
0
39
0
210
0
220
0
230
1
0
LINE
5
CD
100
AcDbEntity
8
1
62
256
6
ByLayer
370
13
48
1
60
0
100
AcDbLine
10
98.2495
20
-12.633583
30
0
11
98.2495
21
-9.571562
31
0
39
0
210
0
220
0
230
1
0
LINE
5
CE
100
AcDbEntity
8
1
62
256
6
ByLayer
370
13
48
1
60
0
100
AcDbLine
10
98.2495
20
-0.428438
30
0
11
98.2495
21
2.633583
31
0
39
0
210
0
220
0
230
1
0
LINE
5
CF
100
AcDbEntity
8
1
62
256
6
ByLayer
370
13
48
1
60
0
100
AcDbLine
10
97.6055
20
-23.175685
30
0
11
97.6055
21
-23.296875
31
0
39
0
210
0
220
0
230
1
0
LINE
5
D0
100
AcDbEntity
8
1
62
256
6
ByLayer
370
13
48
1
60
0
100
AcDbLine
10
93.8
20
15
30
0
11
93.8
21
-25
31
0
39
0
210
0
220
0
230
1
0
LINE
5
D1
100
AcDbEntity
8
1
62
256
6
ByLayer
370
18
48
1
60
0
100
AcDbLine
10
98.3245
20
10.236583
30
0
11
98.3245
21
9.177621
31
0
39
0
210
0
220
0
230
1
0
LINE
5
D2
100
AcDbEntity
8
1
62
256
6
ByLayer
370
13
48
1
60
0
100
AcDbLine
10
98.2495
20
12.30746
30
0
11
98.2495
21
12.75167
31
0
39
0
210
0
220
0
230
1
0
LINE
5
D3
100
AcDbEntity
8
1
62
256
6
ByLayer
370
18
48
1
60
0
100
AcDbLine
10
98.3245
20
-23.877899
30
0
11
98.3245
21
-23.98093
31
0
39
0
210
0
220
0
230
1
0
LINE
5
D4
100
AcDbEntity
8
1
62
256
6
ByLayer
370
18
48
1
60
0
100
AcDbLine
10
98.3245
20
-21.246743
30
0
11
98.3245
21
-21.367588
31
0
39
0
210
0
220
0
230
1
0
LINE
5
D5
100
AcDbEntity
8
1
62
256
6
ByLayer
370
18
48
1
60
0
100
AcDbLine
10
98.3245
20
-15.475875
30
0
11
98.3245
21
-15.775464
31
0
39
0
210
0
220
0
230
1
0
LINE
5
D6
100
AcDbEntity
8
1
62
256
6
ByLayer
370
13
48
1
60
0
100
AcDbLine
10
98.2495
20
-6.891746
30
0
11
98.2495
21
-3.108254
31
0
39
0
210
0
220
0
230
1
0
LINE
5
D7
100
AcDbEntity
8
1
62
256
6
ByLayer
370
13
48
1
60
0
100
AcDbLine
10
97.6055
20
6.019332
30
0
11
97.6055
21
5.568917
31
0
39
0
210
0
220
0
230
1
0
LINE
5
D8
100
AcDbEntity
8
1
62
256
6
ByLayer
370
13
48
1
60
0
100
AcDbLine
10
97.6055
20
-15.568917
30
0
11
97.6055
21
-16.019332
31
0
39
0
210
0
220
0
230
1
0
LINE
5
D9
100
AcDbEntity
8
1
62
256
6
ByLayer
370
13
48
1
60
0
100
AcDbLine
10
11.894338
20
-8.055848
30
0
11
11.894338
21
-23.666502
31
0
39
0
210
0
220
0
230
1
0
LINE
5
DA
100
AcDbEntity
8
1
62
256
6
ByLayer
370
13
48
1
60
0
100
AcDbLine
10
98.2495
20
7.935311
30
0
11
98.2495
21
8.976775
31
0
39
0
210
0
220
0
230
1
0
LINE
5
DB
100
AcDbEntity
8
1
62
256
6
ByLayer
370
13
48
1
60
0
100
AcDbLine
10
97.6055
20
-24.649908
30
0
11
97.6055
21
-24.672543
31
0
39
0
210
0
220
0
230
1
0
LINE
5
DC
100
AcDbEntity
8
1
62
256
6
ByLayer
370
13
48
1
60
0
100
AcDbLine
10
97.6055
20
-23.736267
30
0
11
97.6055
21
-23.8304
31
0
39
0
210
0
220
0
230
1
0
LINE
5
DD
100
AcDbEntity
8
1
62
256
6
ByLayer
370
13
48
1
60
0
100
AcDbLine
10
97.6055
20
14.672543
30
0
11
97.6055
21
14.649908
31
0
39
0
210
0
220
0
230
1
0
LINE
5
DE
100
AcDbEntity
8
1
62
256
6
ByLayer
370
18
48
1
60
0
100
AcDbLine
10
98.3245
20
-7.374363
30
0
11
98.3245
21
-8.635516
31
0
39
0
210
0
220
0
230
1
0
LINE
5
DF
100
AcDbEntity
8
1
62
256
6
ByLayer
370
18
48
1
60
0
100
AcDbLine
10
98.3245
20
11.246743
30
0
11
98.3245
21
10.385072
31
0
39
0
210
0
220
0
230
1
0
LINE
5
E0
100
AcDbEntity
8
1
62
256
6
ByLayer
370
13
48
1
60
0
100
AcDbLine
10
97.6055
20
-1.217272
30
0
11
97.6055
21
-3.319168
31
0
39
0
210
0
220
0
230
1
0
LINE
5
E1
100
AcDbEntity
8
1
62
256
6
ByLayer
370
13
48
1
60
0
100
AcDbLine
10
97.6055
20
-6.680832
30
0
11
97.6055
21
-8.782728
31
0
39
0
210
0
220
0
230
1
0
LINE
5
E2
100
AcDbEntity
8
1
62
256
6
ByLayer
370
18
48
1
60
0
100
AcDbLine
10
98.3245
20
5.775464
30
0
11
98.3245
21
5.475875
31
0
39
0
210
0
220
0
230
1
0
LINE
5
E3
100
AcDbEntity
8
1
62
256
6
ByLayer
370
13
48
1
60
0
100
AcDbLine
10
97.6055
20
7.970506
30
0
11
97.6055
21
7.625166
31
0
39
0
210
0
220
0
230
1
0
LINE
5
E4
100
AcDbEntity
8
1
62
256
6
ByLayer
370
13
48
1
60
0
100
AcDbLine
10
97.6055
20
-17.625166
30
0
11
97.6055
21
-17.970506
31
0
39
0
210
0
220
0
230
1
0
LINE
5
E5
100
AcDbEntity
8
1
62
256
6
ByLayer
370
13
48
1
60
0
100
AcDbLine
10
97.6055
20
-24.163428
30
0
11
97.6055
21
-24.232584
31
0
39
0
210
0
220
0
230
1
0
LINE
5
E6
100
AcDbEntity
8
1
62
256
6
ByLayer
370
18
48
1
60
0
100
AcDbLine
10
98.3245
20
-12.742143
30
0
11
98.3245
21
-13.180085
31
0
39
0
210
0
220
0
230
1
0
LINE
5
E7
100
AcDbEntity
8
1
62
256
6
ByLayer
370
18
48
1
60
0
100
AcDbLine
10
98.3245
20
-23.98093
30
0
11
98.3245
21
-23.988915
31
0
39
0
210
0
220
0
230
1
0
LINE
5
E8
100
AcDbEntity
8
1
62
256
6
ByLayer
370
13
48
1
60
0
100
AcDbLine
10
8.538675
20
23.83913
30
0
11
8.538675
21
7.529667
31
0
39
0
210
0
220
0
230
1
0
LINE
5
E9
100
AcDbEntity
8
1
62
256
6
ByLayer
370
18
48
1
60
0
100
AcDbLine
10
98.3245
20
13.230913
30
0
11
98.3245
21
12.798581
31
0
39
0
210
0
220
0
230
1
0
LINE
5
EA
100
AcDbEntity
8
1
62
256
6
ByLayer
370
13
48
1
60
0
100
AcDbLine
10
98.2495
20
12.926445
30
0
11
98.2495
21
13.270596
31
0
39
0
210
0
220
0
230
1
0
LINE
5
EB
100
AcDbEntity
8
1
62
256
6
ByLayer
370
13
48
1
60
0
100
AcDbLine
10
98.2495
20
-21.255338
30
0
11
98.2495
21
-20.570347
31
0
39
0
210
0
220
0
230
1
0
LINE
5
EC
100
AcDbEntity
8
1
62
256
6
ByLayer
370
18
48
1
60
0
100
AcDbLine
10
98.3245
20
8.994653
30
0
11
98.3245
21
7.681014
31
0
39
0
210
0
220
0
230
1
0
LINE
5
ED
100
AcDbEntity
8
1
62
256
6
ByLayer
370
13
48
1
60
0
100
AcDbLine
10
92.834074
20
15.741181
30
0
11
92.834074
21
-21.980341
31
0
39
0
210
0
220
0
230
1
0
LINE
5
EE
100
AcDbEntity
8
1
62
256
6
ByLayer
370
18
48
1
60
0
100
AcDbLine
10
98.3245
20
13.878084
30
0
11
98.3245
21
13.853979
31
0
39
0
210
0
220
0
230
1
0
LINE
5
EF
100
AcDbEntity
8
1
62
256
6
ByLayer
370
13
48
1
60
0
100
AcDbLine
10
11.461325
20
23.83913
30
0
11
11.461325
21
7.529667
31
0
39
0
210
0
220
0
230
1
0
LINE
5
F0
100
AcDbEntity
8
1
62
256
6
ByLayer
370
13
48
1
60
0
100
AcDbLine
10
98.2495
20
-17.416012
30
0
11
98.2495
21
-16.090991
31
0
39
0
210
0
220
0
230
1
0
LINE
5
F1
100
AcDbEntity
8
1
62
256
6
ByLayer
370
13
48
1
60
0
100
AcDbLine
10
98.2495
20
6.090991
30
0
11
98.2495
21
7.416012
31
0
39
0
210
0
220
0
230
1
0
LINE
5
F2
100
AcDbEntity
8
1
62
256
6
ByLayer
370
18
48
1
60
0
100
AcDbLine
10
98.3245
20
-18.994653
30
0
11
98.3245
21
-19.177598
31
0
39
0
210
0
220
0
230
1
0
LINE
5
F3
100
AcDbEntity
8
1
62
256
6
ByLayer
370
13
48
1
60
0
100
AcDbLine
10
97.6055
20
12.620083
30
0
11
97.6055
21
12.468992
31
0
39
0
210
0
220
0
230
1
0
LINE
5
F4
100
AcDbEntity
8
1
62
256
6
ByLayer
370
18
48
1
60
0
100
AcDbLine
10
98.3245
20
13.646319
30
0
11
98.3245
21
13.605627
31
0
39
0
210
0
220
0
230
1
0
LINE
5
F5
100
AcDbEntity
8
1
62
256
6
ByLayer
370
18
48
1
60
0
100
AcDbLine
10
98.3245
20
-17.451792
30
0
11
98.3245
21
-17.680988
31
0
39
0
210
0
220
0
230
1
0
LINE
5
F6
100
AcDbEntity
8
1
62
256
6
ByLayer
370
13
48
1
60
0
100
AcDbLine
10
98.2495
20
-23.91297
30
0
11
98.2495
21
-23.747456
31
0
39
0
210
0
220
0
230
1
0
LINE
5
F7
100
AcDbEntity
8
1
62
256
6
ByLayer
370
13
48
1
60
0
100
AcDbLine
10
98.2495
20
-15.414628
30
0
11
98.2495
21
-13.614199
31
0
39
0
210
0
220
0
230
1
0
LINE
5
F8
100
AcDbEntity
8
1
62
256
6
ByLayer
370
13
48
1
60
0
100
AcDbLine
10
98.2495
20
3.614199
30
0
11
98.2495
21
5.414628
31
0
39
0
210
0
220
0
230
1
0
LINE
5
F9
100
AcDbEntity
8
1
62
256
6
ByLayer
370
18
48
1
60
0
100
AcDbLine
10
98.3245
20
5.475875
30
0
11
98.3245
21
3.180021
31
0
39
0
210
0
220
0
230
1
0
LINE
5
FA
100
AcDbEntity
8
1
62
256
6
ByLayer
370
18
48
1
60
0
100
AcDbLine
10
98.3245
20
-13.180021
30
0
11
98.3245
21
-15.475875
31
0
39
0
210
0
220
0
230
1
0
LINE
5
FB
100
AcDbEntity
8
1
62
256
6
ByLayer
370
18
48
1
60
0
100
AcDbLine
10
98.3245
20
12.163763
30
0
11
98.3245
21
12.066336
31
0
39
0
210
0
220
0
230
1
0
LINE
5
FC
100
AcDbEntity
8
1
62
256
6
ByLayer
370
18
48
1
60
0
100
AcDbLine
10
98.3245
20
13.605627
30
0
11
98.3245
21
13.289015
31
0
39
0
210
0
220
0
230
1
0
LINE
5
FD
100
AcDbEntity
8
1
62
256
6
ByLayer
370
18
48
1
60
0
100
AcDbLine
10
98.3245
20
-22.163684
30
0
11
98.3245
21
-22.721823
31
0
39
0
210
0
220
0
230
1
0
LINE
5
FE
100
AcDbEntity
8
1
62
256
6
ByLayer
370
13
48
1
60
0
100
AcDbLine
10
97.6055
20
9.510077
30
0
11
97.6055
21
9.233479
31
0
39
0
210
0
220
0
230
1
0
LINE
5
FF
100
AcDbEntity
8
1
62
256
6
ByLayer
370
13
48
1
60
0
100
AcDbLine
10
97.6055
20
-19.233479
30
0
11
97.6055
21
-19.510077
31
0
39
0
210
0
220
0
230
1
0
LINE
5
100
100
AcDbEntity
8
1
62
256
6
ByLayer
370
18
48
1
60
0
100
AcDbLine
10
98.3245
20
9.177598
30
0
11
98.3245
21
8.994653
31
0
39
0
210
0
220
0
230
1
0
LINE
5
101
100
AcDbEntity
8
1
62
256
6
ByLayer
370
13
48
1
60
0
100
AcDbLine
10
98.2495
20
-20.232962
30
0
11
98.2495
21
-19.391974
31
0
39
0
210
0
220
0
230
1
0
LINE
5
102
100
AcDbEntity
8
1
62
256
6
ByLayer
370
18
48
1
60
0
100
AcDbLine
10
11.461325
20
-23.83913
30
0
11
8.538675
21
-23.83913
31
0
39
0
210
0
220
0
230
1
0
LINE
5
103
100
AcDbEntity
8
1
62
256
6
ByLayer
370
13
48
1
60
0
100
AcDbLine
10
97.6055
20
13.8304
30
0
11
97.6055
21
13.736267
31
0
39
0
210
0
220
0
230
1
0
LINE
5
104
100
AcDbEntity
8
1
62
256
6
ByLayer
370
13
48
1
60
0
100
AcDbLine
10
97.6055
20
14.232584
30
0
11
97.6055
21
14.163428
31
0
39
0
210
0
220
0
230
1
0
LINE
5
105
100
AcDbEntity
8
1
62
256
6
ByLayer
370
18
48
1
60
0
100
AcDbLine
10
98.3245
20
13.988915
30
0
11
98.3245
21
13.98093
31
0
39
0
210
0
220
0
230
1
0
LINE
5
106
100
AcDbEntity
8
1
62
256
6
ByLayer
370
13
48
1
60
0
100
AcDbLine
10
11.894338
20
23.666502
30
0
11
11.894338
21
8.055848
31
0
39
0
210
0
220
0
230
1
0
LINE
5
107
100
AcDbEntity
8
1
62
256
6
ByLayer
370
13
48
1
60
0
100
AcDbLine
10
98.2495
20
-24.04976
30
0
11
98.2495
21
-23.967827
31
0
39
0
210
0
220
0
230
1
0
LINE
5
108
100
AcDbEntity
8
1
62
256
6
ByLayer
370
13
48
1
60
0
100
AcDbLine
10
97.6055
20
13.296875
30
0
11
97.6055
21
13.175685
31
0
39
0
210
0
220
0
230
1
0
LINE
5
109
100
AcDbEntity
8
1
62
256
6
ByLayer
370
13
48
1
60
0
100
AcDbLine
10
8.105662
20
-8.055848
30
0
11
8.105662
21
-23.666502
31
0
39
0
210
0
220
0
230
1
0
LINE
5
10A
100
AcDbEntity
8
1
62
256
6
ByLayer
370
13
48
1
60
0
100
AcDbLine
10
97.6055
20
14.511551
30
0
11
97.6055
21
14.466108
31
0
39
0
210
0
220
0
230
1
0
LINE
5
10B
100
AcDbEntity
8
1
62
256
6
ByLayer
370
13
48
1
60
0
100
AcDbLine
10
98.2495
20
13.747456
30
0
11
98.2495
21
13.91297
31
0
39
0
210
0
220
0
230
1
0
LINE
5
10C
100
AcDbEntity
8
1
62
256
6
ByLayer
370
18
48
1
60
0
100
AcDbLine
10
98.3245
20
10.385093
30
0
11
98.3245
21
10.236583
31
0
39
0
210
0
220
0
230
1
0
LINE
5
10D
100
AcDbEntity
8
1
62
256
6
ByLayer
370
18
48
1
60
0
100
AcDbLine
10
98.3245
20
-23.646315
30
0
11
98.3245
21
-23.853979
31
0
39
0
210
0
220
0
230
1
0
LINE
5
10E
100
AcDbEntity
8
1
62
256
6
ByLayer
370
18
48
1
60
0
100
AcDbLine
10
98.3245
20
-22.066336
30
0
11
98.3245
21
-22.163763
31
0
39
0
210
0
220
0
230
1
0
LINE
5
10F
100
AcDbEntity
8
1
62
256
6
ByLayer
370
13
48
1
60
0
100
AcDbLine
10
97.6055
20
10.759146
30
0
11
97.6055
21
10.533307
31
0
39
0
210
0
220
0
230
1
0
LINE
5
110
100
AcDbEntity
8
1
62
256
6
ByLayer
370
18
48
1
60
0
100
AcDbLine
10
98.3245
20
-20.385072
30
0
11
98.3245
21
-21.246743
31
0
39
0
210
0
220
0
230
1
0
LINE
5
111
100
AcDbEntity
8
1
62
256
6
ByLayer
370
18
48
1
60
0
100
AcDbLine
10
97.3245
20
15
30
0
11
97.3245
21
-25
31
0
39
0
210
0
220
0
230
1
0
LINE
5
112
100
AcDbEntity
8
1
62
256
6
ByLayer
370
18
48
1
60
0
100
AcDbLine
10
98.3245
20
13.289024
30
0
11
98.3245
21
13.230913
31
0
39
0
210
0
220
0
230
1
0
LINE
5
113
100
AcDbEntity
8
1
62
256
6
ByLayer
370
18
48
1
60
0
100
AcDbLine
10
98.3245
20
-23.605627
30
0
11
98.3245
21
-23.646319
31
0
39
0
210
0
220
0
230
1
0
LINE
5
114
100
AcDbEntity
8
1
62
256
6
ByLayer
370
18
48
1
60
0
100
AcDbLine
10
98.3245
20
-23.289015
30
0
11
98.3245
21
-23.605627
31
0
39
0
210
0
220
0
230
1
0
LINE
5
115
100
AcDbEntity
8
1
62
256
6
ByLayer
370
13
48
1
60
0
100
AcDbLine
10
107.9255
20
-9.899495
30
0
11
107.9255
21
-19.899495
31
0
39
0
210
0
220
0
230
1
0
LINE
5
116
100
AcDbEntity
8
1
62
256
6
ByLayer
370
18
48
1
60
0
100
AcDbLine
10
108.5255
20
-19.299495
30
0
11
108.5255
21
-10.499495
31
0
39
0
210
0
220
0
230
1
0
LINE
5
117
100
AcDbEntity
8
1
62
256
6
ByLayer
370
13
48
1
60
0
100
AcDbLine
10
102.4255
20
-11.899495
30
0
11
102.4255
21
-17.899495
31
0
39
0
210
0
220
0
230
1
0
LINE
5
118
100
AcDbEntity
8
1
62
256
6
ByLayer
370
18
48
1
60
0
100
AcDbLine
10
102.6755
20
-19.899495
30
0
11
102.6755
21
-9.899495
31
0
39
0
210
0
220
0
230
1
0
LINE
5
119
100
AcDbEntity
8
1
62
256
6
ByLayer
370
18
48
1
60
0
100
AcDbLine
10
102.6755
20
9.899495
30
0
11
102.6755
21
-0.100505
31
0
39
0
210
0
220
0
230
1
0
LINE
5
11A
100
AcDbEntity
8
1
62
256
6
ByLayer
370
13
48
1
60
0
100
AcDbLine
10
107.9255
20
9.899495
30
0
11
107.9255
21
-0.100505
31
0
39
0
210
0
220
0
230
1
0
LINE
5
11B
100
AcDbEntity
8
1
62
256
6
ByLayer
370
18
48
1
60
0
100
AcDbLine
10
108.5255
20
9.299495
30
0
11
108.5255
21
0.499495
31
0
39
0
210
0
220
0
230
1
0
LINE
5
11C
100
AcDbEntity
8
1
62
256
6
ByLayer
370
18
48
1
60
0
100
AcDbLine
10
108.5255
20
9.299495
30
0
11
108.5255
21
0.499495
31
0
39
0
210
0
220
0
230
1
0
LINE
5
11D
100
AcDbEntity
8
1
62
256
6
ByLayer
370
13
48
1
60
0
100
AcDbLine
10
102.4255
20
7.899495
30
0
11
102.4255
21
1.899495
31
0
39
0
210
0
220
0
230
1
0
LINE
5
11E
100
AcDbEntity
8
1
62
256
6
ByLayer
370
18
48
1
60
0
100
AcDbLine
10
102.6755
20
9.899495
30
0
11
102.6755
21
-0.100505
31
0
39
0
210
0
220
0
230
1
0
LINE
5
11F
100
AcDbEntity
8
1
62
256
6
ByLayer
370
13
48
1
60
0
100
AcDbLine
10
102.4255
20
7.899495
30
0
11
102.4255
21
1.899495
31
0
39
0
210
0
220
0
230
1
0
LINE
5
120
100
AcDbEntity
8
1
62
256
6
ByLayer
370
13
48
1
60
0
100
AcDbLine
10
107.9255
20
9.899495
30
0
11
107.9255
21
-0.100505
31
0
39
0
210
0
220
0
230
1
0
MTEXT
5
1E0
100
AcDbEntity
8
SK6
62
256
6
ByLayer
370
18
48
1
60
0
100
AcDbMText
10
0.875
20
-35.874866
30
0
210
0
220
0
230
1
1
\W0.7261;C5-570-2C 50 098-40L
40
3.5
41
0
44
1.084337
50
0
71
7
72
5
7
iso_b_vert
0
DIMENSION
5
1ED
100
AcDbEntity
8
SK2
62
256
6
ByLayer
370
13
48
1
60
0
100
AcDbDimension
2
DimnDraft3D1
10
118.888211
20
0
30
0
11
118.888211
21
10
31
0
70
32
71
5
72
1
41
1
210
0
220
0
230
1
3
Standard
100
AcDbAlignedDimension
13
99.5875
23
-5
33
0
14
99.5875
24
0
34
0
50
90
100
AcDbRotatedDimension
1001
ACAD
1000
DSTYLE
1002
{
1070
    74
1070
     0
1070
   279
1070
     0
1070
   172
1070
     1
1070
   173
1070
     1
1070
   340
1005
1E1
1070
   271
1070
     2
1070
   272
1070
     2
1070
    77
1070
     1
1070
    73
1070
     0
1070
   171
1070
     3
1070
   274
1070
     4
1070
   177
1070
     2
1070
   176
1070
     2
1070
   178
1070
     2
1070
    78
1070
     8
1070
    48
1040
-0.005
1070
    41
1041
3.5
1070
   147
1041
1.75
1070
    42
1041
1.5875
1070
    44
1041
2.0
1070
   140
1041
3.5
1070
   343
1005
0
1070
   344
1005
0
1002
}
0
DIMENSION
5
1F8
100
AcDbEntity
8
2
62
256
6
ByLayer
370
13
48
1
60
0
100
AcDbDimension
2
DimnDraft3D2
10
98
20
41.6
30
0
11
44.892801
21
41.6
31
0
70
32
71
5
72
1
41
1
210
0
220
0
230
1
3
Standard
100
AcDbAlignedDimension
13
0
23
26.5875
33
0
14
98
24
16.5875
34
0
50
0
100
AcDbRotatedDimension
1001
ACAD
1000
DSTYLE
1002
{
1070
   279
1070
     0
1070
   172
1070
     1
1070
   173
1070
     1
1070
   340
1005
1E1
1070
   271
1070
     2
1070
   272
1070
     2
1070
    77
1070
     1
1070
    73
1070
     0
1070
   171
1070
     3
1070
   274
1070
     4
1070
   177
1070
     2
1070
   176
1070
     2
1070
   178
1070
     2
1070
    78
1070
     8
1070
    48
1040
-0.005
1070
    41
1041
3.5
1070
   147
1041
1.75
1070
    42
1041
1.5875
1070
    44
1041
2.0
1070
   140
1041
3.5
1070
   343
1005
0
1070
   344
1005
0
1002
}
0
DIMENSION
5
203
100
AcDbEntity
8
SK2
62
256
6
ByLayer
370
13
48
1
60
0
100
AcDbDimension
2
DimnDraft3D3
10
-53.6
20
-25
30
0
11
-54.225
21
2.284534
31
0
70
33
71
5
72
1
41
1
210
0
220
0
230
1
3
Standard
100
AcDbAlignedDimension
13
-1.5875
23
25
33
0
14
-1.5875
24
-25
34
0
1001
ACAD
1000
DSTYLE
1002
{
1070
   279
1070
     0
1070
    74
1070
     0
1070
   173
1070
     1
1070
   340
1005
1E1
1070
   271
1070
     2
1070
   272
1070
     2
1070
    77
1070
     1
1070
    73
1070
     0
1070
   171
1070
     3
1070
   274
1070
     4
1070
   177
1070
     2
1070
   176
1070
     2
1070
   178
1070
     2
1070
    78
1070
     8
1070
    48
1040
-0.005
1070
    41
1041
3.5
1070
   147
1041
1.75
1070
    42
1041
1.5875
1070
    44
1041
2.0
1070
   140
1041
3.5
1070
   343
1005
0
1070
   344
1005
0
1002
}
0
DIMENSION
5
20E
100
AcDbEntity
8
SK2
62
256
6
ByLayer
370
13
48
1
60
0
100
AcDbDimension
2
DimnDraft3D4
10
130.888211
20
-25
30
0
11
126.263211
21
-2.899733
31
0
70
33
71
5
72
1
41
1
210
0
220
0
230
1
3
Standard
100
AcDbAlignedDimension
13
99.5875
23
15
33
0
14
99.5875
24
-25
34
0
1001
ACAD
1000
DSTYLE
1002
{
1070
   279
1070
     0
1070
    74
1070
     0
1070
   173
1070
     1
1070
   340
1005
1E1
1070
   271
1070
     2
1070
   272
1070
     2
1070
    77
1070
     1
1070
    73
1070
     0
1070
   171
1070
     3
1070
   274
1070
     4
1070
   177
1070
     2
1070
   176
1070
     2
1070
   178
1070
     2
1070
    78
1070
     8
1070
    48
1040
-0.005
1070
    41
1041
3.5
1070
   147
1041
1.75
1070
    42
1041
1.5875
1070
    44
1041
2.0
1070
   140
1041
3.5
1070
   343
1005
0
1070
   344
1005
0
1002
}
0
ENDSEC
0
SECTION
2
OBJECTS
0
DICTIONARY
5
279
330
0
100
AcDbDictionary
280
0
281
1
3
ACAD_GROUP
350
27a
3
ACAD_MLINESTYLE
350
27b
0
DICTIONARY
5
27a
330
0
100
AcDbDictionary
280
0
281
1
0
DICTIONARY
5
27b
330
0
100
AcDbDictionary
280
0
281
1
3
Standard
350
18
0
MLINESTYLE
5
18
330
27b
100
AcDbMlineStyle
2
Standard
70
0
3

62
256
51
90
52
90
71
2
49
-0.5
62
256
6
ByLayer
49
0.5
62
256
6
ByLayer
0
RASTERVARIABLES
5
267
330

100
AcDbRasterVariables
90
0
70
1
71
1
72
1
0
ENDSEC
0
EOF
