0
SECTION
2
HEADER
9
$ACADVER
1
AC1015
9
$DWGCODEPAGE
3
ANSI_1252
9
$HANDSEED
5
174
9
$ANGBASE
50
0
9
$ANGDIR
70
0
9
$ATTMODE
70
1
9
$AUNITS
70
0
9
$AUPREC
70
0
9
$CECOLOR
62
256
9
$CELTSCALE
40
1
9
$CELTYPE
6
ByLayer
9
$CELWEIGHT
370
18
9
$CLAYER
8
0
9
$CMLJUST
70
0
9
$CMLSCALE
40
1
9
$CMLSTYLE
2
Standard
9
$DIMSTYLE
2
Standard
9
$TEXTSIZE
40
0.2
9
$TEXTSTYLE
7
Standard
9
$LUNITS
70
2
9
$LUPREC
70
4
9
$EXTNAMES
290
1
9
$INSUNITS
70
4
9
$LTSCALE
40
1
9
$LWDISPLAY
290
1
9
$PDMODE
70
0
9
$PDSIZE
40
0
9
$PLINEGEN
70
0
0
ENDSEC
0
SECTION
2
CLASSES
0
CLASS
1
RASTERVARIABLES
2
AcDbRasterVariables
3
ISM
90
0
280
0
281
0
0
ENDSEC
0
SECTION
2
TABLES
0
TABLE
2
VPORT
5
16a
100
AcDbSymbolTable
0
VPORT
5
1
100
AcDbSymbolTableRecord
100
AcDbViewportTableRecord
2
*Active
70
0
10
0
20
0
11
1
21
1
12
-1
22
1
13
0
23
0
14
0.5
24
0.5
15
10
25
10
16
0
26
0
36
1
17
0
27
0
37
0
0
ENDTAB
0
TABLE
2
LTYPE
5
16b
100
AcDbSymbolTable
0
LTYPE
5
14
100
AcDbSymbolTableRecord
100
AcDbLinetypeTableRecord
70
0
2
ByBlock
3

72
65
73
0
40
0
0
LTYPE
5
15
100
AcDbSymbolTableRecord
100
AcDbLinetypeTableRecord
70
0
2
ByLayer
3

72
65
73
0
40
0
0
LTYPE
5
16
100
AcDbSymbolTableRecord
100
AcDbLinetypeTableRecord
70
0
2
CONTINUOUS
3
Solid line
72
65
73
0
40
0
0
LTYPE
5
6A
100
AcDbSymbolTableRecord
100
AcDbLinetypeTableRecord
70
0
2
CENTER
3
____ _ ____ _ ____ _ ____
72
65
73
4
40
47.5
49
22
74
0
49
-8.5
74
0
49
8.5
74
0
49
-8.5
74
0
0
LTYPE
5
6B
100
AcDbSymbolTableRecord
100
AcDbLinetypeTableRecord
70
0
2
DASHED
3
__ __ __ __ __ __ __ __ __
72
65
73
2
40
25.72
49
12.86
74
0
49
-12.86
74
0
0
ENDTAB
0
TABLE
2
LAYER
5
16c
100
AcDbSymbolTable
0
LAYER
5
10
100
AcDbSymbolTableRecord
100
AcDbLayerTableRecord
2
0
70
0
62
7
6
CONTINUOUS
290
1
370
-3
390
0
0
LAYER
5
6D
100
AcDbSymbolTableRecord
100
AcDbLayerTableRecord
2
80
70
0
62
-6
6
CONTINUOUS
290
1
370
-3
390
0
0
LAYER
5
6F
100
AcDbSymbolTableRecord
100
AcDbLayerTableRecord
2
81
70
0
62
-3
6
CONTINUOUS
290
1
370
-3
390
0
0
LAYER
5
74
100
AcDbSymbolTableRecord
100
AcDbLayerTableRecord
2
1
70
0
62
4
6
CONTINUOUS
290
1
370
-3
390
0
0
LAYER
5
AD
100
AcDbSymbolTableRecord
100
AcDbLayerTableRecord
2
4
70
0
62
-2
6
CENTER
290
1
370
-3
390
0
0
LAYER
5
E9
100
AcDbSymbolTableRecord
100
AcDbLayerTableRecord
2
2
70
0
62
7
6
CONTINUOUS
290
1
370
-3
390
0
0
LAYER
5
156
100
AcDbSymbolTableRecord
100
AcDbLayerTableRecord
2
SK1
70
0
62
4
6
CONTINUOUS
290
1
370
-3
390
0
0
LAYER
5
157
100
AcDbSymbolTableRecord
100
AcDbLayerTableRecord
2
SK4
70
0
62
2
6
CENTER
290
1
370
-3
390
0
0
LAYER
5
158
100
AcDbSymbolTableRecord
100
AcDbLayerTableRecord
2
SK6
70
0
62
5
6
CONTINUOUS
290
1
370
-3
390
0
0
LAYER
5
159
100
AcDbSymbolTableRecord
100
AcDbLayerTableRecord
2
SK2
70
0
62
7
6
CONTINUOUS
290
1
370
-3
390
0
0
ENDTAB
0
TABLE
2
STYLE
5
16d
100
AcDbSymbolTable
0
STYLE
5
11
100
AcDbSymbolTableRecord
100
AcDbTextStyleTableRecord
2
Standard
3
txt
70
0
71
0
40
0
41
1
42
0
50
0
0
STYLE
5
CE
100
AcDbSymbolTableRecord
100
AcDbTextStyleTableRecord
2
iso_b_vert
3
simplex.shx
70
0
71
0
40
0
41
1
42
0
50
0
0
STYLE
5
CF
100
AcDbSymbolTableRecord
100
AcDbTextStyleTableRecord
2
DWGDirectTextStyle
3
simplex
70
0
71
0
40
0
41
1
42
0
50
0
0
ENDTAB
0
TABLE
2
DIMSTYLE
5
16e
100
AcDbSymbolTable
100
AcDbDimStyleTable
0
DIMSTYLE
105
27
100
AcDbSymbolTableRecord
100
AcDbDimStyleTableRecord
2
Standard
70
0
3
<>
41
0.18
42
0.0625
44
0.18
140
0.18
147
0.09
73
0
74
0
77
1
271
2
275
0
278
52
280
0
340
11
0
ENDTAB
0
TABLE
2
VIEW
5
16f
100
AcDbSymbolTable
0
ENDTAB
0
TABLE
2
UCS
5
170
100
AcDbSymbolTable
0
ENDTAB
0
TABLE
2
APPID
5
171
100
AcDbSymbolTable
0
APPID
5
12
100
AcDbSymbolTableRecord
100
AcDbRegAppTableRecord
2
ACAD
70
0
0
ENDTAB
0
TABLE
2
BLOCK_RECORD
5
172
100
AcDbSymbolTable
0
BLOCK_RECORD
5
1F
100
AcDbSymbolTableRecord
100
AcDbBlockTableRecord
2
*Model_Space
340
0
70
0
0
BLOCK_RECORD
5
1B
100
AcDbSymbolTableRecord
100
AcDbBlockTableRecord
2
*Paper_Space
340
0
70
0
0
BLOCK_RECORD
5
23
100
AcDbSymbolTableRecord
100
AcDbBlockTableRecord
2
*Paper_Space0
340
0
70
0
0
BLOCK_RECORD
5
D1
100
AcDbSymbolTableRecord
100
AcDbBlockTableRecord
2
DimnDraft3D1
340
0
70
0
0
BLOCK_RECORD
5
DD
100
AcDbSymbolTableRecord
100
AcDbBlockTableRecord
2
DimnDraft3D2
340
0
70
0
0
BLOCK_RECORD
5
E7
100
AcDbSymbolTableRecord
100
AcDbBlockTableRecord
2
DimnDraft3D3
340
0
70
0
0
BLOCK_RECORD
5
F2
100
AcDbSymbolTableRecord
100
AcDbBlockTableRecord
2
DimnDraft3D4
340
0
70
0
0
ENDTAB
0
ENDSEC
0
SECTION
2
BLOCKS
0
BLOCK
5
20
100
AcDbEntity
8
0
100
AcDbBlockBegin
2
*Model_Space
70
0
10
0
20
0
30
0
3
*Model_Space
0
ENDBLK
5
21
100
AcDbEntity
8
0
100
AcDbBlockEnd
0
BLOCK
5
1C
100
AcDbEntity
8
0
100
AcDbBlockBegin
2
*Paper_Space
70
0
10
0
20
0
30
0
3
*Paper_Space
0
ENDBLK
5
1D
100
AcDbEntity
8
0
100
AcDbBlockEnd
0
BLOCK
5
24
100
AcDbEntity
8
0
100
AcDbBlockBegin
2
*Paper_Space0
70
0
10
0
20
0
30
0
3
*Paper_Space0
0
ENDBLK
5
25
100
AcDbEntity
8
0
100
AcDbBlockEnd
0
BLOCK
5
DA
100
AcDbEntity
8
0
100
AcDbBlockBegin
2
DimnDraft3D1
70
0
10
0
20
0
30
0
3
DimnDraft3D1
0
MTEXT
5
D2
100
AcDbEntity
8
SK2
62
256
6
ByLayer
370
18
48
1
60
0
100
AcDbMText
10
-45
20
2.897368
30
0
210
0
220
0
230
1
1
\W0.6563;50
40
3
41
0
44
1.084337
50
90
71
7
72
5
7
iso_b_vert
0
MTEXT
5
D4
100
AcDbEntity
8
SK2
62
256
6
ByLayer
370
18
48
1
60
0
100
AcDbMText
10
-45
20
-3.379194
30
0
210
0
220
0
230
1
1
%%c
40
3
41
0
44
1.084337
50
90
71
7
72
5
7
iso_b_vert
0
LINE
5
D5
100
AcDbEntity
8
SK2
62
256
6
ByLayer
370
13
48
1
60
0
100
AcDbLine
10
-1.7
20
-25
30
0
11
-45.5
21
-25
31
0
39
0
210
0
220
0
230
1
0
LINE
5
D6
100
AcDbEntity
8
SK2
62
256
6
ByLayer
370
13
48
1
60
0
100
AcDbLine
10
-1.7
20
25
30
0
11
-45.5
21
25
31
0
39
0
210
0
220
0
230
1
0
LINE
5
D7
100
AcDbEntity
8
SK2
62
256
6
ByLayer
370
13
48
1
60
0
100
AcDbLine
10
-43.5
20
-25
30
0
11
-43.5
21
25
31
0
39
0
210
0
220
0
230
1
0
SOLID
5
D8
100
AcDbEntity
8
SK2
62
256
6
ByLayer
370
13
48
1
60
0
100
AcDbTrace
10
-43.5
20
-25
30
0
11
-43.833706
21
-21.825001
31
0
12
-43.166294
22
-21.824999
32
0
13
-43.5
23
-25
33
0
39
0
210
0
220
0
230
1
0
SOLID
5
D9
100
AcDbEntity
8
SK2
62
256
6
ByLayer
370
13
48
1
60
0
100
AcDbTrace
10
-43.5
20
25
30
0
11
-43.166294
21
21.825001
31
0
12
-43.833706
22
21.824999
32
0
13
-43.5
23
25
33
0
39
0
210
0
220
0
230
1
0
ENDBLK
5
DB
100
AcDbEntity
8
0
100
AcDbBlockEnd
0
BLOCK
5
E4
100
AcDbEntity
8
0
100
AcDbBlockBegin
2
DimnDraft3D2
70
0
10
0
20
0
30
0
3
DimnDraft3D2
0
MTEXT
5
DE
100
AcDbEntity
8
SK2
62
256
6
ByLayer
370
18
48
1
60
0
100
AcDbMText
10
60.75
20
9.872368
30
0
210
0
220
0
230
1
1
\W0.6139;21
40
3
41
0
44
1.084337
50
90
71
7
72
5
7
iso_b_vert
0
LINE
5
DF
100
AcDbEntity
8
SK2
62
256
6
ByLayer
370
13
48
1
60
0
100
AcDbLine
10
50.8
20
0
30
0
11
63.5
21
0
31
0
39
0
210
0
220
0
230
1
0
LINE
5
E0
100
AcDbEntity
8
SK2
62
256
6
ByLayer
370
13
48
1
60
0
100
AcDbLine
10
38
20
21
30
0
11
63.5
21
21
31
0
39
0
210
0
220
0
230
1
0
LINE
5
E1
100
AcDbEntity
8
SK2
62
256
6
ByLayer
370
13
48
1
60
0
100
AcDbLine
10
61.5
20
0
30
0
11
61.5
21
21
31
0
39
0
210
0
220
0
230
1
0
SOLID
5
E2
100
AcDbEntity
8
SK2
62
256
6
ByLayer
370
13
48
1
60
0
100
AcDbTrace
10
61.5
20
0
30
0
11
61.166294
21
3.174999
31
0
12
61.833706
22
3.175001
32
0
13
61.5
23
0
33
0
39
0
210
0
220
0
230
1
0
SOLID
5
E3
100
AcDbEntity
8
SK2
62
256
6
ByLayer
370
13
48
1
60
0
100
AcDbTrace
10
61.5
20
21
30
0
11
61.833706
21
17.825001
31
0
12
61.166294
22
17.824999
32
0
13
61.5
23
21
33
0
39
0
210
0
220
0
230
1
0
ENDBLK
5
E5
100
AcDbEntity
8
0
100
AcDbBlockEnd
0
BLOCK
5
EF
100
AcDbEntity
8
0
100
AcDbBlockBegin
2
DimnDraft3D3
70
0
10
0
20
0
30
0
3
DimnDraft3D3
0
MTEXT
5
E8
100
AcDbEntity
8
2
62
256
6
ByLayer
370
18
48
1
60
0
100
AcDbMText
10
16.957895
20
51.897606
30
0
210
0
220
0
230
1
1
\W0.6740;36
40
3
41
0
44
1.084337
50
0
71
7
72
5
7
iso_b_vert
0
LINE
5
EA
100
AcDbEntity
8
2
62
256
6
ByLayer
370
13
48
1
60
0
100
AcDbLine
10
0
20
26.7
30
0
11
0
21
53.147606
31
0
39
0
210
0
220
0
230
1
0
LINE
5
EB
100
AcDbEntity
8
2
62
256
6
ByLayer
370
13
48
1
60
0
100
AcDbLine
10
36
20
28
30
0
11
36
21
53.147606
31
0
39
0
210
0
220
0
230
1
0
LINE
5
EC
100
AcDbEntity
8
2
62
256
6
ByLayer
370
13
48
1
60
0
100
AcDbLine
10
0
20
51.147606
30
0
11
36
21
51.147606
31
0
39
0
210
0
220
0
230
1
0
SOLID
5
ED
100
AcDbEntity
8
2
62
256
6
ByLayer
370
13
48
1
60
0
100
AcDbTrace
10
0
20
51.147606
30
0
11
3.174999
21
51.481312
31
0
12
3.175001
22
50.8139
32
0
13
0
23
51.147606
33
0
39
0
210
0
220
0
230
1
0
SOLID
5
EE
100
AcDbEntity
8
2
62
256
6
ByLayer
370
13
48
1
60
0
100
AcDbTrace
10
36
20
51.147606
30
0
11
32.825001
21
50.8139
31
0
12
32.824999
22
51.481312
32
0
13
36
23
51.147606
33
0
39
0
210
0
220
0
230
1
0
ENDBLK
5
F0
100
AcDbEntity
8
0
100
AcDbBlockEnd
0
BLOCK
5
FA
100
AcDbEntity
8
0
100
AcDbBlockBegin
2
DimnDraft3D4
70
0
10
0
20
0
30
0
3
DimnDraft3D4
0
MTEXT
5
F3
100
AcDbEntity
8
SK2
62
256
6
ByLayer
370
18
48
1
60
0
100
AcDbMText
10
39.357895
20
39.771764
30
0
210
0
220
0
230
1
1
\W0.6740;25
40
3
41
0
44
1.084337
50
0
71
7
72
5
7
iso_b_vert
0
MTEXT
5
F4
100
AcDbEntity
8
SK2
62
256
6
ByLayer
370
18
48
1
60
0
100
AcDbMText
10
33.081332
20
39.771764
30
0
210
0
220
0
230
1
1
%%c
40
3
41
0
44
1.084337
50
0
71
7
72
5
7
iso_b_vert
0
LINE
5
F5
100
AcDbEntity
8
SK2
62
256
6
ByLayer
370
13
48
1
60
0
100
AcDbLine
10
24.5
20
22.548766
30
0
11
24.5
21
40.271764
31
0
39
0
210
0
220
0
230
1
0
LINE
5
F6
100
AcDbEntity
8
SK2
62
256
6
ByLayer
370
13
48
1
60
0
100
AcDbLine
10
48.5
20
22.548766
30
0
11
48.5
21
40.271764
31
0
39
0
210
0
220
0
230
1
0
LINE
5
F7
100
AcDbEntity
8
SK2
62
256
6
ByLayer
370
13
48
1
60
0
100
AcDbLine
10
24.5
20
38.271764
30
0
11
48.5
21
38.271764
31
0
39
0
210
0
220
0
230
1
0
SOLID
5
F8
100
AcDbEntity
8
SK2
62
256
6
ByLayer
370
13
48
1
60
0
100
AcDbTrace
10
24.5
20
38.271764
30
0
11
27.674999
21
38.60547
31
0
12
27.675001
22
37.938058
32
0
13
24.5
23
38.271764
33
0
39
0
210
0
220
0
230
1
0
SOLID
5
F9
100
AcDbEntity
8
SK2
62
256
6
ByLayer
370
13
48
1
60
0
100
AcDbTrace
10
48.5
20
38.271764
30
0
11
45.325001
21
37.938058
31
0
12
45.324999
22
38.60547
32
0
13
48.5
23
38.271764
33
0
39
0
210
0
220
0
230
1
0
ENDBLK
5
FB
100
AcDbEntity
8
0
100
AcDbBlockEnd
0
ENDSEC
0
SECTION
2
ENTITIES
0
ARC
5
AE
100
AcDbEntity
8
1
62
256
6
ByLayer
370
18
48
1
60
0
100
AcDbCircle
39
0
10
-34.156924
20
-19.778371
30
0
40
16.0000000002255
210
0
220
0
230
-1
100
AcDbArc
50
33.824791
51
43.151293
0
ARC
5
AF
100
AcDbEntity
8
1
62
256
6
ByLayer
370
18
48
1
60
0
100
AcDbCircle
39
0
10
-38.238053
20
8.232345
30
0
40
9.99999999989874
210
0
220
0
230
-1
100
AcDbArc
50
241.345037
51
255
0
CIRCLE
5
B0
100
AcDbEntity
8
1
62
256
6
ByLayer
370
18
48
1
60
0
100
AcDbCircle
10
-36
20
5
30
0
40
4.14143307609568
39
0
210
0
220
0
230
-1
0
CIRCLE
5
B1
100
AcDbEntity
8
1
62
256
6
ByLayer
370
18
48
1
60
0
100
AcDbCircle
10
-36
20
5
30
0
40
3.17170746233157
39
0
210
0
220
0
230
-1
0
ELLIPSE
5
B2
100
AcDbEntity
8
1
62
256
6
ByLayer
370
18
48
1
60
0
100
AcDbEllipse
10
21.056258
20
0
30
0
11
-11.7092723497275
21
24.6771864409377
31
0
210
0
220
0
230
-1
40
0.341999
41
-1.08183270048927
42
-0.167213071908978
0
ELLIPSE
5
B3
100
AcDbEntity
8
1
62
256
6
ByLayer
370
18
48
1
60
0
100
AcDbEllipse
10
-1.056258
20
0
30
0
11
-11.7092723497273
21
-24.6771864409374
31
0
210
0
220
0
230
-1
40
0.341999
41
-2.97437958168082
42
-2.05975995310051
0
ELLIPSE
5
B4
100
AcDbEntity
8
1
62
256
6
ByLayer
370
18
48
1
60
0
100
AcDbEllipse
10
21.056258
20
0
30
0
11
-11.7092723497275
21
-24.6771864409377
31
0
210
0
220
0
230
-1
40
0.341999
41
0.167213071908974
42
1.08183270048927
0
ELLIPSE
5
B5
100
AcDbEntity
8
1
62
256
6
ByLayer
370
18
48
1
60
0
100
AcDbEllipse
10
-1.056258
20
0
30
0
11
-11.7092723497275
21
24.6771864409376
31
0
210
0
220
0
230
-1
40
0.341999
41
2.05975995310052
42
2.97437958168082
0
ELLIPSE
5
B6
100
AcDbEntity
8
1
62
256
6
ByLayer
370
18
48
1
60
0
100
AcDbEllipse
10
33.3
20
-15.213596
30
0
11
-11.6651321279904
21
-13.3320892205215
31
0
210
0
220
0
230
-1
40
0.765566
41
2.88877300505242
42
2.96853750255281
0
ELLIPSE
5
B7
100
AcDbEntity
8
1
62
256
6
ByLayer
370
18
48
1
60
0
100
AcDbEllipse
10
34.326835
20
-20.130608
30
0
11
3.24722796411313E-15
21
-17.677669530172
31
0
210
0
220
0
230
-1
40
0.707107
41
2.78827336281831
42
2.95435373143807
0
ELLIPSE
5
B8
100
AcDbEntity
8
1
62
256
6
ByLayer
370
18
48
1
60
0
100
AcDbEllipse
10
29.058819
20
0
30
0
11
4.59227382683388E-15
21
-24.9999999999998
31
0
210
0
220
0
230
-1
40
0.36397
41
1.12089624789419
42
2.33410366535094
0
POINT
5
6C
100
AcDbEntity
8
80
62
256
6
ByLayer
370
18
48
1
60
0
100
AcDbPoint
10
0
20
0
30
0
39
0
210
0
220
0
230
1
50
360
0
POINT
5
6E
100
AcDbEntity
8
81
62
256
6
ByLayer
370
18
48
1
60
0
100
AcDbPoint
10
36
20
21
30
0
39
0
210
0
220
0
230
1
50
360
0
SPLINE
5
B9
100
AcDbEntity
8
1
62
256
6
ByLayer
370
18
48
1
60
0
100
AcDbSpline
70
4
71
3
72
13
73
9
40
0
40
0
40
0
40
0
40
0.0811068003230921
40
0.542059695793804
40
0.69821792930835
40
0.855466894270646
40
0.966212236972871
40
1
40
1
40
1
40
1
41
1
10
8.1056624327026
20
8.0558483678277
30
0
41
1
10
8.11055716182229
20
8.03725171409795
30
0
41
1
10
8.1465653712394
20
7.91434257650646
30
0
41
1
10
8.21224772505844
20
7.75704006565188
30
0
41
1
10
8.33437440198708
20
7.61365769814291
30
0
41
1
10
8.42067769292453
20
7.5524380320559
30
0
41
1
10
8.49433884112822
20
7.53148602816102
30
0
41
1
10
8.5301989941883
20
7.5296926218967
30
0
41
1
10
8.5386751345948
20
7.52966679426495
30
0
0
SPLINE
5
BA
100
AcDbEntity
8
1
62
256
6
ByLayer
370
18
48
1
60
0
100
AcDbSpline
70
4
71
3
72
12
73
8
40
0
40
0
40
0
40
0
40
0.0777065243410563
40
0.182768991260373
40
0.355509705274209
40
0.661119206188037
40
1
40
1
40
1
40
1
41
1
10
8.53867513459472
20
23.8391299750504
30
0
41
1
10
8.51889061425134
20
23.8390510092636
30
0
41
1
10
8.47384249247801
20
23.837417080354
30
0
41
1
10
8.39097933474599
20
23.8265956452496
30
0
41
1
10
8.28079022698234
20
23.7967264721262
30
0
41
1
10
8.17813160018114
20
23.7411879478122
30
0
41
1
10
8.12412228713197
20
23.6935586164054
30
0
41
1
10
8.1056624327026
20
23.6665017920809
30
0
0
SPLINE
5
BB
100
AcDbEntity
8
1
62
256
6
ByLayer
370
18
48
1
60
0
100
AcDbSpline
70
4
71
3
72
13
73
9
40
0
40
0
40
0
40
0
40
0.0811068003230409
40
0.54205969579374
40
0.698217929308338
40
0.855466894270605
40
0.966212236972869
40
1
40
1
40
1
40
1
41
1
10
8.1056624327026
20
-23.6665017920809
30
0
41
1
10
8.11055716182229
20
-23.6728293617709
30
0
41
1
10
8.14656537123942
20
-23.7145200781298
30
0
41
1
10
8.21224772505843
20
-23.7663890526221
30
0
41
1
10
8.33437440198706
20
-23.8124861135429
30
0
41
1
10
8.42067769292453
20
-23.8319383085952
30
0
41
1
10
8.4943388411282
20
-23.8385548003315
30
0
41
1
10
8.53019899418831
20
-23.8391220894067
30
0
41
1
10
8.5386751345948
20
-23.8391299750504
30
0
0
SPLINE
5
BC
100
AcDbEntity
8
1
62
256
6
ByLayer
370
18
48
1
60
0
100
AcDbSpline
70
4
71
3
72
12
73
8
40
0
40
0
40
0
40
0
40
0.0777065243410571
40
0.182768991260338
40
0.355509705274147
40
0.661119206188049
40
1
40
1
40
1
40
1
41
1
10
8.53867513459472
20
-7.52966679426499
30
0
41
1
10
8.51889061425134
20
-7.52992453895396
30
0
41
1
10
8.47384249247803
20
-7.53508753718823
30
0
41
1
10
8.39097933474597
20
-7.56930040674375
30
0
41
1
10
8.28079022698232
20
-7.66302821977529
30
0
41
1
10
8.17813160018113
20
-7.83415197314219
30
0
41
1
10
8.12412228713196
20
-7.97612018956252
30
0
41
1
10
8.1056624327026
20
-8.0558483678277
30
0
0
SPLINE
5
BD
100
AcDbEntity
8
SK1
62
256
6
ByLayer
370
18
48
1
60
0
100
AcDbSpline
70
4
71
3
72
51
73
47
40
0
40
0
40
0
40
0
40
0.0036315390846953
40
0.0329680707935682
40
0.0476268778337137
40
0.0769822681863697
40
0.0916834150918136
40
0.106381936352327
40
0.121081153135496
40
0.135779600369772
40
0.150472080753082
40
0.16516703964907
40
0.194502179950167
40
0.223816017811569
40
0.253117963859835
40
0.282413072167371
40
0.311703983366178
40
0.340992164944299
40
0.370278517830426
40
0.399563609501556
40
0.424645158846139
40
0.449727097962857
40
0.475037940687289
40
0.500348906673884
40
0.508502770437475
40
0.541132244989681
40
0.573762096624217
40
0.606392713727905
40
0.639024559099689
40
0.671658308505482
40
0.704294973220082
40
0.736936150929159
40
0.769584768883152
40
0.802246523686954
40
0.8186012335353
40
0.834952834961262
40
0.850647244919667
40
0.866338455245805
40
0.881982887139944
40
0.897626612790829
40
0.913312174018698
40
0.929001055402156
40
0.94466581190359
40
0.96033255233635
40
0.991630405487347
40
1
40
1
40
1
40
1
41
1
10
-2.19993724359906
20
-17.5200917093891
30
0
41
1
10
-2.19993604433898
20
-17.5201514735331
30
0
41
1
10
-2.199924914432
20
-17.5179609957904
30
0
41
1
10
-2.19990555340838
20
-17.4784600409091
30
0
41
1
10
-2.1998676848346
20
-17.3314756597327
30
0
41
1
10
-2.1998304637977
20
-17.1387722954106
30
0
41
1
10
-2.19978934694386
20
-16.8558326805191
30
0
41
1
10
-2.19975997019632
20
-16.5942893666525
30
0
41
1
10
-2.19973698962961
20
-16.279271733294
30
0
41
1
10
-2.19972478696585
20
-15.9114745163921
30
0
41
1
10
-2.19972577539222
20
-15.4924769628818
30
0
41
1
10
-2.19973936703657
20
-14.8759077155024
30
0
41
1
10
-2.19976939101314
20
-14.011241561438
30
0
41
1
10
-2.19980597714911
20
-12.8700339888312
30
0
41
1
10
-2.19983801428773
20
-11.6524615096257
30
0
41
1
10
-2.19986440455429
20
-10.3772131802349
30
0
41
1
10
-2.19988553200477
20
-9.05726035813504
30
0
41
1
10
-2.19990207011721
20
-7.70237936863798
30
0
41
1
10
-2.19991473757352
20
-6.32026766633039
30
0
41
1
10
-2.19992368154807
20
-4.98435366846976
30
0
41
1
10
-2.19992984586262
20
-3.70265924245478
30
0
41
1
10
-2.19993384443014
20
-2.47673377998618
30
0
41
1
10
-2.1999362673117
20
-1.24161702027654
30
0
41
1
10
-2.19993702930823
20
-0.280504392377926
30
0
41
1
10
-2.19993659149723
20
0.800103573143037
30
0
41
1
10
-2.199935135902
20
2.00000607458031
30
0
41
1
10
-2.19993048560071
20
3.59243710137062
30
0
41
1
10
-2.19992277390628
20
5.1713988795658
30
0
41
1
10
-2.19991151442832
20
6.73003916184019
30
0
41
1
10
-2.19989599420886
20
8.26060631290796
30
0
41
1
10
-2.19987530265094
20
9.75374221945113
30
0
41
1
10
-2.19984846350703
20
11.1976989465212
30
0
41
1
10
-2.19981467979809
20
12.5764614885994
30
0
41
1
10
-2.19978115920966
20
13.6527164239419
30
0
41
1
10
-2.19975401226336
20
14.4510196196826
30
0
41
1
10
-2.19973653398573
20
15.0046244004244
30
0
41
1
10
-2.19972538965576
20
15.5062276880709
30
0
41
1
10
-2.19972511297338
20
15.9500614596671
30
0
41
1
10
-2.19973956857106
20
16.3351343800809
30
0
41
1
10
-2.19976628059682
20
16.6591952972896
30
0
41
1
10
-2.19979826831051
20
16.9240433274655
30
0
41
1
10
-2.19983101427928
20
17.134240013337
30
0
41
1
10
-2.1998606691344
20
17.2946228950584
30
0
41
1
10
-2.1998957727752
20
17.4481787618077
30
0
41
1
10
-2.19991987888634
20
17.51171821305
30
0
41
1
10
-2.19993375640108
20
17.5199671645523
30
0
41
1
10
-2.19993654272997
20
17.5201004076592
30
0
0
SPLINE
5
BE
100
AcDbEntity
8
SK1
62
256
6
ByLayer
370
18
48
1
60
0
100
AcDbSpline
70
4
71
2
72
6
73
3
40
0
40
0
40
0
40
1
40
1
40
1
41
1
10
-30
20
-15.9423013487186
30
0
41
1
10
-29.2501952787077
20
-16.4010253845872
30
0
41
1
10
-28.5003904504266
20
-16.8597456617469
30
0
0
SPLINE
5
BF
100
AcDbEntity
8
SK1
62
256
6
ByLayer
370
18
48
1
60
0
100
AcDbSpline
70
4
71
2
72
6
73
3
40
0
40
0
40
0
40
1
40
1
40
1
41
1
10
-28.5004032853135
20
16.8579102610954
30
0
41
1
10
-29.250201613525
20
16.3993636736336
30
0
41
1
10
-30
20
15.9408160639395
30
0
0
SPLINE
5
C0
100
AcDbEntity
8
1
62
256
6
ByLayer
370
18
48
1
60
0
100
AcDbSpline
70
4
71
3
72
13
73
9
40
0
40
0
40
0
40
0
40
0.0811068003230015
40
0.542059695793623
40
0.698217929308269
40
0.855466894270565
40
0.966212236972885
40
1
40
1
40
1
40
1
41
1
10
11.8943375672974
20
23.6665017920809
30
0
41
1
10
11.8894428381777
20
23.6728293617709
30
0
41
1
10
11.8534346287606
20
23.7145200781298
30
0
41
1
10
11.7877522749416
20
23.7663890526223
30
0
41
1
10
11.6656255980129
20
23.8124861135428
30
0
41
1
10
11.5793223070755
20
23.8319383085952
30
0
41
1
10
11.5056611588718
20
23.8385548003314
30
0
41
1
10
11.4698010058117
20
23.8391220894066
30
0
41
1
10
11.4613248654052
20
23.8391299750503
30
0
0
SPLINE
5
C1
100
AcDbEntity
8
1
62
256
6
ByLayer
370
18
48
1
60
0
100
AcDbSpline
70
4
71
3
72
12
73
8
40
0
40
0
40
0
40
0
40
0.0777065243411647
40
0.182768991260498
40
0.355509705274349
40
0.661119206188292
40
1
40
1
40
1
40
1
41
1
10
11.4613248654052
20
7.52966679426495
30
0
41
1
10
11.4811093857486
20
7.52992453895391
30
0
41
1
10
11.526157507522
20
7.53508753718817
30
0
41
1
10
11.6090206652541
20
7.56930040674377
30
0
41
1
10
11.7192097730177
20
7.66302821977536
30
0
41
1
10
11.8218683998189
20
7.83415197314223
30
0
41
1
10
11.875877712868
20
7.97612018956253
30
0
41
1
10
11.8943375672974
20
8.05584836782765
30
0
0
SPLINE
5
C2
100
AcDbEntity
8
1
62
256
6
ByLayer
370
18
48
1
60
0
100
AcDbSpline
70
4
71
3
72
12
73
8
40
0
40
0
40
0
40
0
40
0.0777065243411662
40
0.182768991260526
40
0.35550970527434
40
0.661119206188183
40
1
40
1
40
1
40
1
41
1
10
11.4613248654052
20
-7.52966679426499
30
0
41
1
10
11.4811093857486
20
-7.52992453895395
30
0
41
1
10
11.526157507522
20
-7.53508753718821
30
0
41
1
10
11.609020665254
20
-7.56930040674389
30
0
41
1
10
11.7192097730178
20
-7.66302821977535
30
0
41
1
10
11.8218683998188
20
-7.8341519731423
30
0
41
1
10
11.875877712868
20
-7.97612018956256
30
0
41
1
10
11.8943375672974
20
-8.0558483678277
30
0
0
SPLINE
5
C3
100
AcDbEntity
8
1
62
256
6
ByLayer
370
18
48
1
60
0
100
AcDbSpline
70
4
71
3
72
13
73
9
40
0
40
0
40
0
40
0
40
0.0811068003230045
40
0.542059695793685
40
0.698217929308303
40
0.855466894270565
40
0.966212236972822
40
1
40
1
40
1
40
1
41
1
10
11.8943375672974
20
-23.6665017920809
30
0
41
1
10
11.8894428381777
20
-23.6728293617709
30
0
41
1
10
11.8534346287606
20
-23.7145200781299
30
0
41
1
10
11.7877522749416
20
-23.7663890526222
30
0
41
1
10
11.6656255980129
20
-23.8124861135429
30
0
41
1
10
11.5793223070755
20
-23.8319383085952
30
0
41
1
10
11.5056611588718
20
-23.8385548003314
30
0
41
1
10
11.4698010058117
20
-23.8391220894067
30
0
41
1
10
11.4613248654052
20
-23.8391299750504
30
0
0
SPLINE
5
C4
100
AcDbEntity
8
SK1
62
256
6
ByLayer
370
18
48
1
60
0
100
AcDbSpline
70
4
71
2
72
6
73
3
40
0
40
0
40
0
40
1
40
1
40
1
41
1
10
-28.5004731679065
20
-16.8593393543735
30
0
41
1
10
-15.3502049979055
20
-17.1897198630478
30
0
41
1
10
-2.19993682790444
20
-17.520100371722
30
0
0
SPLINE
5
C5
100
AcDbEntity
8
SK1
62
256
6
ByLayer
370
18
48
1
60
0
100
AcDbSpline
70
4
71
2
72
6
73
3
40
0
40
0
40
0
40
1
40
1
40
1
41
1
10
-2.19993654212713
20
17.5201003788694
30
0
41
1
10
-15.3502048550168
20
17.189719866606
30
0
41
1
10
-28.5004731679065
20
16.8593393543424
30
0
0
SPLINE
5
C6
100
AcDbEntity
8
1
62
256
6
ByLayer
370
18
48
1
60
0
100
AcDbSpline
70
4
71
3
72
13
73
9
40
0
40
0
40
0
40
0
40
0.175442555902094
40
0.353063180668461
40
0.484046308875299
40
0.615042116804747
40
0.882110005679036
40
1
40
1
40
1
40
1
41
1
10
24.8723746327927
20
20.25
30
0
41
1
10
24.661602082816
20
20.1222209675192
30
0
41
1
10
24.2631400820461
20
19.8477028966302
30
0
41
1
10
23.7875301581569
20
19.4216447498078
30
0
41
1
10
23.4122380885771
20
18.9994389907661
30
0
41
1
10
23.0163811376164
20
18.4577380112193
30
0
41
1
10
22.7106631465091
20
17.881911992074
30
0
41
1
10
22.533372819384
20
17.4254606088151
30
0
41
1
10
22.4841193393904
20
17.2828737737273
30
0
0
SPLINE
5
C7
100
AcDbEntity
8
1
62
256
6
ByLayer
370
18
48
1
60
0
100
AcDbSpline
70
2053
71
3
72
45
73
41
40
0
40
0
40
0
40
0
40
0.0202588375001577
40
0.0405004957843218
40
0.0583288485616229
40
0.0761608392004125
40
0.0929967214638595
40
0.109842931208678
40
0.132960062701065
40
0.156110135898606
40
0.178397092970062
40
0.200770743682042
40
0.223103359757825
40
0.250979997406099
40
0.278949580837591
40
0.306960191699924
40
0.334892947065676
40
0.376094170181009
40
0.417423097160574
40
0.458771082971254
40
0.499998373720734
40
0.541701145176243
40
0.583529184535496
40
0.625336845166906
40
0.667011741447798
40
0.698716531671623
40
0.730459721415797
40
0.762125965989369
40
0.785740456099522
40
0.809394968291041
40
0.832963093946373
40
0.856474439028902
40
0.879954518226258
40
0.899057946476597
40
0.918143666334804
40
0.93736220400781
40
0.956573627151091
40
0.973577899138082
40
0.990589413928844
40
1
40
1
40
1
40
1
41
1
10
22.8503134932714
20
20.25
30
0
41
1
10
22.5915842769468
20
20.1710878662923
30
0
41
1
10
22.0603352062473
20
20.04488851927
30
0
41
1
10
21.2414179710903
20
19.9459999029232
30
0
41
1
10
20.4445216936556
20
19.9474961335164
30
0
41
1
10
19.7074483232643
20
20.0264200648341
30
0
41
1
10
19.0178519876108
20
20.17596945084
30
0
41
1
10
18.3074624120263
20
20.4021382172799
30
0
41
1
10
17.5989816987273
20
20.7192928587159
30
0
41
1
10
16.9364198169641
20
21.1129265388888
30
0
41
1
10
16.3827741760277
20
21.5252106705031
30
0
41
1
10
15.9240546954899
20
21.9380333037594
30
0
41
1
10
15.5116707692282
20
22.3780677025872
30
0
41
1
10
15.1537290242296
20
22.8281571025544
30
0
41
1
10
14.8558129415186
20
23.274065164355
30
0
41
1
10
14.628788225201
20
23.6773025165583
30
0
41
1
10
14.4308599347121
20
24.087482484215
30
0
41
1
10
14.2713160448657
20
24.4656474689766
30
0
41
1
10
14.1624289821199
20
24.7716536764199
30
0
41
1
10
14.1088230482195
20
24.9576924836079
30
0
41
1
10
14.0956982526903
20
25.0213736527595
30
0
41
1
10
14.108958688222
20
24.9566800948046
30
0
41
1
10
14.1637729543737
20
24.7662643218666
30
0
41
1
10
14.2757183198781
20
24.4532693916674
30
0
41
1
10
14.44503729334
20
24.0544043272465
30
0
41
1
10
14.6674096017404
20
23.6020926506556
30
0
41
1
10
14.9448390575679
20
23.1315118632153
30
0
41
1
10
15.2871585550251
20
22.6518269248266
30
0
41
1
10
15.6840547639832
20
22.1844387072228
30
0
41
1
10
16.1202089445293
20
21.7509520983817
30
0
41
1
10
16.6480484356899
20
21.3160312064223
30
0
41
1
10
17.2792151656826
20
20.8962288369598
30
0
41
1
10
17.9743857570373
20
20.539198115251
30
0
41
1
10
18.7117489980184
20
20.2625549366067
30
0
41
1
10
19.4615804748641
20
20.067929122864
30
0
41
1
10
20.2614870332035
20
19.9578435903735
30
0
41
1
10
21.0523758652006
20
19.9390201585284
30
0
41
1
10
21.8024392105916
20
20.0072562555465
30
0
41
1
10
22.3917557068339
20
20.120978728357
30
0
41
1
10
22.7313552558113
20
20.2137678953261
30
0
41
1
10
22.8503134932714
20
20.25
30
0
0
SPLINE
5
C8
100
AcDbEntity
8
1
62
256
6
ByLayer
370
18
48
1
60
0
100
AcDbSpline
70
4
71
3
72
14
73
10
40
0
40
0
40
0
40
0
40
0.0515122493136154
40
0.203928861458324
40
0.356352199284087
40
0.512855865822283
40
0.669371834391801
40
0.834194329281619
40
1
40
1
40
1
40
1
41
1
10
20.8650249958296
20
-10.8718889568915
30
0
41
1
10
20.7949455299777
20
-10.9765528112597
30
0
41
1
10
20.5234051413641
20
-11.3921379402487
30
0
41
1
10
20.0897915754122
20
-12.1297739572571
30
0
41
1
10
19.6070147366579
20
-13.0938789481603
30
0
41
1
10
19.1994832396709
20
-14.0658286902885
30
0
41
1
10
18.8591149238031
20
-15.0521251044338
30
0
41
1
10
18.5901140787708
20
-16.0364713122649
30
0
41
1
10
18.4551416302072
20
-16.681578687047
30
0
41
1
10
18.4
20
-17
30
0
0
SPLINE
5
C9
100
AcDbEntity
8
1
62
256
6
ByLayer
370
18
48
1
60
0
100
AcDbSpline
70
4
71
3
72
12
73
8
40
0
40
0
40
0
40
0
40
0.24761703553387
40
0.433376891806842
40
0.619169544331441
40
0.809579855508376
40
1
40
1
40
1
40
1
41
1
10
22.4841193393904
20
-8.8355361902556
30
0
41
1
10
22.5911364358993
20
-8.71999486442755
30
0
41
1
10
22.8019761924507
20
-8.50273881545583
30
0
41
1
10
23.1642219961208
20
-8.14917893908211
30
0
41
1
10
23.5348858089871
20
-7.80912974692345
30
0
41
1
10
23.9497537138303
20
-7.45252726637777
30
0
41
1
10
24.2547637643806
20
-7.20962025301885
30
0
41
1
10
24.4139675751124
20
-7.0868461445264
30
0
0
SPLINE
5
CA
100
AcDbEntity
8
1
62
256
6
ByLayer
370
18
48
1
60
0
100
AcDbSpline
70
4
71
3
72
14
73
10
40
0
40
0
40
0
40
0
40
0.177016472995188
40
0.300650223239862
40
0.424290634600848
40
0.550638891073881
40
0.676990165174033
40
0.837821018553021
40
1
40
1
40
1
40
1
41
1
10
24.4139675751124
20
-7.0868461445264
30
0
41
1
10
24.6664443533926
20
-6.89146831503056
30
0
41
1
10
25.1216125668314
20
-6.56436291535512
30
0
41
1
10
25.8294021943129
20
-6.10943284320182
30
0
41
1
10
26.4944214840366
20
-5.72521849647358
30
0
41
1
10
27.2040054867563
20
-5.36048952670428
30
0
41
1
10
28.0229116640555
20
-4.99076767843507
30
0
41
1
10
28.9573479644279
20
-4.6335242668217
30
0
41
1
10
29.6568849021195
20
-4.42027991704825
30
0
41
1
10
30.015819326555
20
-4.3235576220458
30
0
0
SPLINE
5
CB
100
AcDbEntity
8
1
62
256
6
ByLayer
370
18
48
1
60
0
100
AcDbSpline
70
4
71
3
72
16
73
12
40
0
40
0
40
0
40
0
40
0.110989386233286
40
0.22198027270659
40
0.33571422600762
40
0.449450553226992
40
0.569452951475498
40
0.68945864617181
40
0.812655680399028
40
0.935855805157883
40
1
40
1
40
1
40
1
41
1
10
30.0016603056777
20
-3.54489978186729
30
0
41
1
10
29.7671309473376
20
-3.66679191937464
30
0
41
1
10
29.3011309731339
20
-3.9124994613785
30
0
41
1
10
28.6029306706044
20
-4.2894803335201
30
0
41
1
10
27.9139852453392
20
-4.6763558572289
30
0
41
1
10
27.2270103711972
20
-5.08062772754996
30
0
41
1
10
26.554758728783
20
-5.49998571975981
30
0
41
1
10
25.8980265376561
20
-5.93806283806642
30
0
41
1
10
25.2750627378965
20
-6.38716015662218
30
0
41
1
10
24.7840798506666
20
-6.7726701206094
30
0
41
1
10
24.5067836657585
20
-7.0065656623806
30
0
41
1
10
24.4139675751132
20
-7.0868461445258
30
0
0
SPLINE
5
CC
100
AcDbEntity
8
1
62
256
6
ByLayer
370
18
48
1
60
0
100
AcDbSpline
70
4
71
3
72
18
73
14
40
0
40
0
40
0
40
0
40
0.0894105180937885
40
0.178835534624751
40
0.293800660091043
40
0.409179491845367
40
0.524619983050452
40
0.63966948374016
40
0.729332349052312
40
0.81894941519129
40
0.879435472404808
40
0.939987603960062
40
1
40
1
40
1
40
1
41
1
10
43.0333917187355
20
-0.542888655208247
30
0
41
1
10
43.3022706431435
20
-0.395089092686977
30
0
41
1
10
43.8187994602361
20
-0.0820611014445361
30
0
41
1
10
44.5972189604808
20
0.493580261993957
30
0
41
1
10
45.3581381464114
20
1.18081977036721
30
0
41
1
10
46.0786467755833
20
1.99118036475251
30
0
41
1
10
46.7002287876489
20
2.86632765588778
30
0
41
1
10
47.186219173153
20
3.73453887516729
30
0
41
1
10
47.5609009628112
20
4.58008643305174
30
0
41
1
10
47.8141989759439
20
5.31935079365828
30
0
41
1
10
47.9956137216514
20
6.01262461656477
30
0
41
1
10
48.1213133947798
20
6.65432397265441
30
0
41
1
10
48.1779400248834
20
7.12008779679886
30
0
41
1
10
48.2
20
7.36078763247115
30
0
0
LINE
5
70
100
AcDbEntity
8
SK1
62
256
6
ByLayer
370
18
48
1
60
0
100
AcDbLine
10
-28.500473
20
-16.859339
30
0
11
-28.500473
21
16.859339
31
0
39
0
210
0
220
0
230
1
0
LINE
5
72
100
AcDbEntity
8
SK1
62
256
6
ByLayer
370
18
48
1
60
0
100
AcDbLine
10
-30
20
15.941311
30
0
11
-30
21
-15.942398
31
0
39
0
210
0
220
0
230
1
0
LINE
5
73
100
AcDbEntity
8
1
62
256
6
ByLayer
370
18
48
1
60
0
100
AcDbLine
10
8.538675
20
-23.83913
30
0
11
8.538675
21
-7.529667
31
0
39
0
210
0
220
0
230
1
0
LINE
5
75
100
AcDbEntity
8
1
62
256
6
ByLayer
370
18
48
1
60
0
100
AcDbLine
10
8.538675
20
23.83913
30
0
11
8.538675
21
7.529667
31
0
39
0
210
0
220
0
230
1
0
LINE
5
76
100
AcDbEntity
8
1
62
256
6
ByLayer
370
18
48
1
60
0
100
AcDbLine
10
0
20
24.7
30
0
11
0
21
-24.7
31
0
39
0
210
0
220
0
230
1
0
LINE
5
77
100
AcDbEntity
8
1
62
256
6
ByLayer
370
18
48
1
60
0
100
AcDbLine
10
0
20
24.7
30
0
11
0.3
21
25
31
0
39
0
210
0
220
0
230
1
0
LINE
5
78
100
AcDbEntity
8
1
62
256
6
ByLayer
370
18
48
1
60
0
100
AcDbLine
10
0.3
20
-25
30
0
11
0
21
-24.7
31
0
39
0
210
0
220
0
230
1
0
LINE
5
79
100
AcDbEntity
8
1
62
256
6
ByLayer
370
18
48
1
60
0
100
AcDbLine
10
11.461325
20
23.83913
30
0
11
11.461325
21
7.529667
31
0
39
0
210
0
220
0
230
1
0
LINE
5
7A
100
AcDbEntity
8
1
62
256
6
ByLayer
370
18
48
1
60
0
100
AcDbLine
10
11.461325
20
-23.83913
30
0
11
11.461325
21
-7.529667
31
0
39
0
210
0
220
0
230
1
0
LINE
5
7B
100
AcDbEntity
8
1
62
256
6
ByLayer
370
18
48
1
60
0
100
AcDbLine
10
11.461325
20
7.529667
30
0
11
8.538675
21
7.529667
31
0
39
0
210
0
220
0
230
1
0
LINE
5
7C
100
AcDbEntity
8
1
62
256
6
ByLayer
370
18
48
1
60
0
100
AcDbLine
10
8.538675
20
23.83913
30
0
11
11.461325
21
23.83913
31
0
39
0
210
0
220
0
230
1
0
LINE
5
7D
100
AcDbEntity
8
1
62
256
6
ByLayer
370
18
48
1
60
0
100
AcDbLine
10
11.461325
20
-7.529667
30
0
11
8.538675
21
-7.529667
31
0
39
0
210
0
220
0
230
1
0
LINE
5
7E
100
AcDbEntity
8
1
62
256
6
ByLayer
370
18
48
1
60
0
100
AcDbLine
10
8.538675
20
-23.83913
30
0
11
11.461325
21
-23.83913
31
0
39
0
210
0
220
0
230
1
0
LINE
5
7F
100
AcDbEntity
8
SK1
62
256
6
ByLayer
370
18
48
1
60
0
100
AcDbLine
10
0
20
-17.3
30
0
11
-2.19993
21
-17.3
31
0
39
0
210
0
220
0
230
1
0
LINE
5
80
100
AcDbEntity
8
SK1
62
256
6
ByLayer
370
18
48
1
60
0
100
AcDbLine
10
0
20
17.3
30
0
11
-2.19993
21
17.3
31
0
39
0
210
0
220
0
230
1
0
LINE
5
81
100
AcDbEntity
8
1
62
256
6
ByLayer
370
18
48
1
60
0
100
AcDbLine
10
26.843146
20
29.65
30
0
11
27.193146
21
30
31
0
39
0
210
0
220
0
230
1
0
LINE
5
82
100
AcDbEntity
8
1
62
256
6
ByLayer
370
18
48
1
60
0
100
AcDbLine
10
26.843146
20
26
30
0
11
26.843146
21
29.65
31
0
39
0
210
0
220
0
230
1
0
LINE
5
83
100
AcDbEntity
8
1
62
256
6
ByLayer
370
18
48
1
60
0
100
AcDbLine
10
24.5
20
20.548766
30
0
11
24.5
21
20.25
31
0
39
0
210
0
220
0
230
1
0
LINE
5
84
100
AcDbEntity
8
1
62
256
6
ByLayer
370
18
48
1
60
0
100
AcDbLine
10
28.343146
20
21.298766
30
0
11
28.343146
21
26
31
0
39
0
210
0
220
0
230
1
0
LINE
5
85
100
AcDbEntity
8
1
62
256
6
ByLayer
370
18
48
1
60
0
100
AcDbLine
10
18.4
20
-17
30
0
11
16.989384
21
-25
31
0
39
0
210
0
220
0
230
1
0
LINE
5
86
100
AcDbEntity
8
1
62
256
6
ByLayer
370
18
48
1
60
0
100
AcDbLine
10
33.493146
20
30
30
0
11
33.843146
21
29.65
31
0
39
0
210
0
220
0
230
1
0
LINE
5
87
100
AcDbEntity
8
1
62
256
6
ByLayer
370
18
48
1
60
0
100
AcDbLine
10
33.843146
20
29.65
30
0
11
33.843146
21
26
31
0
39
0
210
0
220
0
230
1
0
LINE
5
88
100
AcDbEntity
8
1
62
256
6
ByLayer
370
18
48
1
60
0
100
AcDbLine
10
38.156854
20
29.65
30
0
11
38.506854
21
30
31
0
39
0
210
0
220
0
230
1
0
LINE
5
89
100
AcDbEntity
8
1
62
256
6
ByLayer
370
18
48
1
60
0
100
AcDbLine
10
38.156854
20
26
30
0
11
38.156854
21
29.65
31
0
39
0
210
0
220
0
230
1
0
LINE
5
8A
100
AcDbEntity
8
1
62
256
6
ByLayer
370
18
48
1
60
0
100
AcDbLine
10
48.5
20
20.548766
30
0
11
48.5
21
20.25
31
0
39
0
210
0
220
0
230
1
0
LINE
5
8B
100
AcDbEntity
8
1
62
256
6
ByLayer
370
18
48
1
60
0
100
AcDbLine
10
45.156854
20
29.65
30
0
11
45.156854
21
26
31
0
39
0
210
0
220
0
230
1
0
LINE
5
8C
100
AcDbEntity
8
1
62
256
6
ByLayer
370
18
48
1
60
0
100
AcDbLine
10
44.806854
20
30
30
0
11
45.156854
21
29.65
31
0
39
0
210
0
220
0
230
1
0
LINE
5
8D
100
AcDbEntity
8
1
62
256
6
ByLayer
370
18
48
1
60
0
100
AcDbLine
10
48.496818
20
10.753432
30
0
11
48.2
21
7.360788
31
0
39
0
210
0
220
0
230
1
0
LINE
5
8E
100
AcDbEntity
8
1
62
256
6
ByLayer
370
18
48
1
60
0
100
AcDbLine
10
44.806854
20
30
30
0
11
38.506854
21
30
31
0
39
0
210
0
220
0
230
1
0
LINE
5
8F
100
AcDbEntity
8
1
62
256
6
ByLayer
370
18
48
1
60
0
100
AcDbLine
10
45.156854
20
26
30
0
11
38.156854
21
26
31
0
39
0
210
0
220
0
230
1
0
LINE
5
90
100
AcDbEntity
8
1
62
256
6
ByLayer
370
18
48
1
60
0
100
AcDbLine
10
48.8
20
20.25
30
0
11
48.8
21
14.218819
31
0
39
0
210
0
220
0
230
1
0
LINE
5
91
100
AcDbEntity
8
1
62
256
6
ByLayer
370
18
48
1
60
0
100
AcDbLine
10
32.343146
20
26
30
0
11
32.343146
21
21.298766
31
0
39
0
210
0
220
0
230
1
0
LINE
5
92
100
AcDbEntity
8
1
62
256
6
ByLayer
370
18
48
1
60
0
100
AcDbLine
10
43.656854
20
26
30
0
11
43.656854
21
21.298766
31
0
39
0
210
0
220
0
230
1
0
LINE
5
93
100
AcDbEntity
8
1
62
256
6
ByLayer
370
18
48
1
60
0
100
AcDbLine
10
39.656854
20
21.298766
30
0
11
39.656854
21
26
31
0
39
0
210
0
220
0
230
1
0
LINE
5
94
100
AcDbEntity
8
1
62
256
6
ByLayer
370
18
48
1
60
0
100
AcDbLine
10
32
20
-3.791898
30
0
11
40.826243
21
-1.426913
31
0
39
0
210
0
220
0
230
1
0
LINE
5
95
100
AcDbEntity
8
1
62
256
6
ByLayer
370
18
48
1
60
0
100
AcDbLine
10
42.041281
20
-0.071507
30
0
11
32
21
-2.76191
31
0
39
0
210
0
220
0
230
1
0
LINE
5
96
100
AcDbEntity
8
1
62
256
6
ByLayer
370
18
48
1
60
0
100
AcDbLine
10
32
20
-3.791898
30
0
11
30.015819
21
-4.323558
31
0
39
0
210
0
220
0
230
1
0
LINE
5
97
100
AcDbEntity
8
1
62
256
6
ByLayer
370
18
48
1
60
0
100
AcDbLine
10
30.00166
20
20.25
30
0
11
30.00166
21
-3.5449
31
0
39
0
210
0
220
0
230
1
0
LINE
5
98
100
AcDbEntity
8
1
62
256
6
ByLayer
370
18
48
1
60
0
100
AcDbLine
10
42.041281
20
-0.071507
30
0
11
42.041281
21
20.25
31
0
39
0
210
0
220
0
230
1
0
LINE
5
99
100
AcDbEntity
8
1
62
256
6
ByLayer
370
18
48
1
60
0
100
AcDbLine
10
33.843146
20
26
30
0
11
26.843146
21
26
31
0
39
0
210
0
220
0
230
1
0
LINE
5
9A
100
AcDbEntity
8
1
62
256
6
ByLayer
370
18
48
1
60
0
100
AcDbLine
10
33.493146
20
30
30
0
11
27.193146
21
30
31
0
39
0
210
0
220
0
230
1
0
LINE
5
9B
100
AcDbEntity
8
1
62
256
6
ByLayer
370
18
48
1
60
0
100
AcDbLine
10
48.2
20
7.360788
30
0
11
48.8
21
14.218819
31
0
39
0
210
0
220
0
230
1
0
LINE
5
9C
100
AcDbEntity
8
1
62
256
6
ByLayer
370
18
48
1
60
0
100
AcDbLine
10
22.850313
20
20.25
30
0
11
48.8
21
20.25
31
0
39
0
210
0
220
0
230
1
0
LINE
5
9D
100
AcDbEntity
8
1
62
256
6
ByLayer
370
18
48
1
60
0
100
AcDbLine
10
24.5
20
20.548766
30
0
11
25.25
21
21.298766
31
0
39
0
210
0
220
0
230
1
0
LINE
5
9E
100
AcDbEntity
8
1
62
256
6
ByLayer
370
18
48
1
60
0
100
AcDbLine
10
48.5
20
20.548766
30
0
11
47.75
21
21.298766
31
0
39
0
210
0
220
0
230
1
0
LINE
5
9F
100
AcDbEntity
8
1
62
256
6
ByLayer
370
18
48
1
60
0
100
AcDbLine
10
47.75
20
21.298766
30
0
11
25.25
21
21.298766
31
0
39
0
210
0
220
0
230
1
0
LINE
5
A0
100
AcDbEntity
8
1
62
256
6
ByLayer
370
18
48
1
60
0
100
AcDbLine
10
37.154701
20
7
30
0
11
38.309401
21
5
31
0
39
0
210
0
220
0
230
1
0
LINE
5
A1
100
AcDbEntity
8
1
62
256
6
ByLayer
370
18
48
1
60
0
100
AcDbLine
10
38.309401
20
5
30
0
11
37.154701
21
3
31
0
39
0
210
0
220
0
230
1
0
LINE
5
A2
100
AcDbEntity
8
1
62
256
6
ByLayer
370
18
48
1
60
0
100
AcDbLine
10
34.845299
20
7
30
0
11
33.690599
21
5
31
0
39
0
210
0
220
0
230
1
0
LINE
5
A3
100
AcDbEntity
8
1
62
256
6
ByLayer
370
18
48
1
60
0
100
AcDbLine
10
37.154701
20
3
30
0
11
34.845299
21
3
31
0
39
0
210
0
220
0
230
1
0
LINE
5
A4
100
AcDbEntity
8
1
62
256
6
ByLayer
370
18
48
1
60
0
100
AcDbLine
10
34.845299
20
3
30
0
11
33.690599
21
5
31
0
39
0
210
0
220
0
230
1
0
LINE
5
A5
100
AcDbEntity
8
1
62
256
6
ByLayer
370
18
48
1
60
0
100
AcDbLine
10
34.845299
20
7
30
0
11
37.154701
21
7
31
0
39
0
210
0
220
0
230
1
0
LINE
5
A6
100
AcDbEntity
8
1
62
256
6
ByLayer
370
18
48
1
60
0
100
AcDbLine
10
0.3
20
25
30
0
11
14.100091
21
25
31
0
39
0
210
0
220
0
230
1
0
LINE
5
A7
100
AcDbEntity
8
1
62
256
6
ByLayer
370
18
48
1
60
0
100
AcDbLine
10
16.989384
20
-25
30
0
11
0.3
21
-25
31
0
39
0
210
0
220
0
230
1
0
LINE
5
A8
100
AcDbEntity
8
80
62
256
6
ByLayer
370
13
48
1
60
0
100
AcDbLine
10
0
20
0
30
0
11
-8
21
0
31
0
39
0
210
0
220
0
230
1
0
LINE
5
A9
100
AcDbEntity
8
81
62
256
6
ByLayer
370
13
48
1
60
0
100
AcDbLine
10
36
20
21
30
0
11
36
21
26
31
0
39
0
210
0
220
0
230
1
0
LINE
5
AA
100
AcDbEntity
8
SK4
62
256
6
ByLayer
370
13
48
0.05
60
0
100
AcDbLine
10
50.069206
20
0
30
0
11
-33
21
0
31
0
39
0
210
0
220
0
230
1
0
LINE
5
AC
100
AcDbEntity
8
4
62
256
6
ByLayer
370
13
48
0.05
60
0
100
AcDbLine
10
0
20
0
30
0
11
48.8
21
0
31
0
39
0
210
0
220
0
230
1
0
MTEXT
5
CD
100
AcDbEntity
8
SK6
62
256
6
ByLayer
370
18
48
1
60
0
100
AcDbMText
10
-3.555035
20
-34.548775
30
0
210
0
220
0
230
1
1
\W0.7035;C5-570-25-RF
40
3.5
41
0
44
1.084337
50
0
71
7
72
5
7
iso_b_vert
0
DIMENSION
5
DC
100
AcDbEntity
8
SK2
62
256
6
ByLayer
370
13
48
1
60
0
100
AcDbDimension
2
DimnDraft3D1
10
-45.5
20
25
30
0
11
-45.75
21
2.147368
31
0
70
33
71
5
72
1
41
1
210
0
220
0
230
1
3
Standard
100
AcDbAlignedDimension
13
-1.7
23
-25
33
0
14
-1.7
24
25
34
0
1001
ACAD
1000
DSTYLE
1002
{
1070
   279
1070
     0
1070
    74
1070
     0
1070
   173
1070
     1
1070
   340
1005
CE
1070
   271
1070
     3
1070
   272
1070
     3
1070
    77
1070
     1
1070
    73
1070
     0
1070
   171
1070
     3
1070
   274
1070
     3
1070
   177
1070
   254
1070
   176
1070
   254
1070
   178
1070
   254
1070
    78
1070
     8
1070
    41
1041
3.175
1070
   147
1041
1.5
1070
    42
1041
2.0
1070
    44
1041
2.0
1070
   140
1041
3.0
1070
   343
1005
0
1070
   344
1005
0
1002
}
0
DIMENSION
5
E6
100
AcDbEntity
8
SK2
62
256
6
ByLayer
370
13
48
1
60
0
100
AcDbDimension
2
DimnDraft3D2
10
21
20
-61.5
30
0
11
11.877632
21
-61.5
31
0
70
32
71
5
72
1
41
1
210
0
220
0
230
1
3
Standard
100
AcDbAlignedDimension
13
0
23
-50.8
33
0
14
21
24
-38
34
0
50
0
100
AcDbRotatedDimension
1001
ACAD
1000
DSTYLE
1002
{
1070
   279
1070
     0
1070
   172
1070
     1
1070
   173
1070
     1
1070
   340
1005
CE
1070
   271
1070
     3
1070
   272
1070
     3
1070
    77
1070
     1
1070
    73
1070
     0
1070
   171
1070
     3
1070
   274
1070
     3
1070
   177
1070
   254
1070
   176
1070
   254
1070
   178
1070
   254
1070
    78
1070
     8
1070
    41
1041
3.175
1070
   147
1041
1.5
1070
    42
1041
2.0
1070
    44
1041
2.0
1070
   140
1041
3.0
1070
   343
1005
0
1070
   344
1005
0
1002
}
0
DIMENSION
5
F1
100
AcDbEntity
8
2
62
256
6
ByLayer
370
13
48
1
60
0
100
AcDbDimension
2
DimnDraft3D3
10
36
20
51.147606
30
0
11
16.207895
21
51.147606
31
0
70
32
71
5
72
1
41
1
210
0
220
0
230
1
3
Standard
100
AcDbAlignedDimension
13
0
23
26.7
33
0
14
36
24
28
34
0
50
0
100
AcDbRotatedDimension
1001
ACAD
1000
DSTYLE
1002
{
1070
   279
1070
     0
1070
   172
1070
     1
1070
   173
1070
     1
1070
   340
1005
CE
1070
   271
1070
     3
1070
   272
1070
     3
1070
    77
1070
     1
1070
    73
1070
     0
1070
   171
1070
     3
1070
   274
1070
     3
1070
   177
1070
   254
1070
   176
1070
   254
1070
   178
1070
   254
1070
    78
1070
     8
1070
    41
1041
3.175
1070
   147
1041
1.5
1070
    42
1041
2.0
1070
    44
1041
2.0
1070
   140
1041
3.0
1070
   343
1005
0
1070
   344
1005
0
1002
}
0
DIMENSION
5
FC
100
AcDbEntity
8
SK2
62
256
6
ByLayer
370
13
48
1
60
0
100
AcDbDimension
2
DimnDraft3D4
10
48.5
20
40.271764
30
0
11
38.607895
21
40.521764
31
0
70
33
71
5
72
1
41
1
210
0
220
0
230
1
3
Standard
100
AcDbAlignedDimension
13
24.5
23
22.548766
33
0
14
48.5
24
22.548766
34
0
1001
ACAD
1000
DSTYLE
1002
{
1070
   279
1070
     0
1070
    74
1070
     0
1070
   173
1070
     1
1070
   340
1005
CE
1070
   271
1070
     3
1070
   272
1070
     3
1070
    77
1070
     1
1070
    73
1070
     0
1070
   171
1070
     3
1070
   274
1070
     3
1070
   177
1070
   254
1070
   176
1070
   254
1070
   178
1070
   254
1070
    78
1070
     8
1070
    41
1041
3.175
1070
   147
1041
1.5
1070
    42
1041
2.0
1070
    44
1041
2.0
1070
   140
1041
3.0
1070
   343
1005
0
1070
   344
1005
0
1002
}
0
ENDSEC
0
SECTION
2
OBJECTS
0
DICTIONARY
5
167
330
0
100
AcDbDictionary
280
0
281
1
3
ACAD_GROUP
350
168
3
ACAD_MLINESTYLE
350
169
0
DICTIONARY
5
168
330
0
100
AcDbDictionary
280
0
281
1
0
DICTIONARY
5
169
330
0
100
AcDbDictionary
280
0
281
1
3
Standard
350
18
0
MLINESTYLE
5
18
330
169
100
AcDbMlineStyle
2
Standard
70
0
3

62
256
51
90
52
90
71
2
49
-0.5
62
256
6
ByLayer
49
0.5
62
256
6
ByLayer
0
RASTERVARIABLES
5
155
330

100
AcDbRasterVariables
90
0
70
1
71
1
72
1
0
ENDSEC
0
EOF
