0
SECTION
2
HEADER
9
$ACADVER
1
AC1015
9
$DWGCODEPAGE
3
ANSI_1252
9
$HANDSEED
5
18c
9
$ANGBASE
50
0
9
$ANGDIR
70
0
9
$ATTMODE
70
1
9
$AUNITS
70
0
9
$AUPREC
70
0
9
$CECOLOR
62
256
9
$CELTSCALE
40
1
9
$CELTYPE
6
ByLayer
9
$CELWEIGHT
370
18
9
$CLAYER
8
0
9
$CMLJUST
70
0
9
$CMLSCALE
40
1
9
$CMLSTYLE
2
Standard
9
$DIMSTYLE
2
Standard
9
$TEXTSIZE
40
0.2
9
$TEXTSTYLE
7
Standard
9
$LUNITS
70
2
9
$LUPREC
70
4
9
$EXTNAMES
290
1
9
$INSUNITS
70
4
9
$LTSCALE
40
1
9
$LWDISPLAY
290
1
9
$PDMODE
70
0
9
$PDSIZE
40
0
9
$PLINEGEN
70
0
0
ENDSEC
0
SECTION
2
CLASSES
0
CLASS
1
RASTERVARIABLES
2
AcDbRasterVariables
3
ISM
90
0
280
0
281
0
0
ENDSEC
0
SECTION
2
TABLES
0
TABLE
2
VPORT
5
182
100
AcDbSymbolTable
0
VPORT
5
1
100
AcDbSymbolTableRecord
100
AcDbViewportTableRecord
2
*Active
70
0
10
0
20
0
11
1
21
1
12
-1
22
1
13
0
23
0
14
0.5
24
0.5
15
10
25
10
16
0
26
0
36
1
17
0
27
0
37
0
0
ENDTAB
0
TABLE
2
LTYPE
5
183
100
AcDbSymbolTable
0
LTYPE
5
14
100
AcDbSymbolTableRecord
100
AcDbLinetypeTableRecord
70
0
2
ByBlock
3

72
65
73
0
40
0
0
LTYPE
5
15
100
AcDbSymbolTableRecord
100
AcDbLinetypeTableRecord
70
0
2
ByLayer
3

72
65
73
0
40
0
0
LTYPE
5
16
100
AcDbSymbolTableRecord
100
AcDbLinetypeTableRecord
70
0
2
CONTINUOUS
3
Solid line
72
65
73
0
40
0
0
LTYPE
5
6A
100
AcDbSymbolTableRecord
100
AcDbLinetypeTableRecord
70
0
2
CENTER
3
____ _ ____ _ ____ _ ____
72
65
73
4
40
47.5
49
22
74
0
49
-8.5
74
0
49
8.5
74
0
49
-8.5
74
0
0
LTYPE
5
6B
100
AcDbSymbolTableRecord
100
AcDbLinetypeTableRecord
70
0
2
DASHED
3
__ __ __ __ __ __ __ __ __
72
65
73
2
40
25.72
49
12.86
74
0
49
-12.86
74
0
0
ENDTAB
0
TABLE
2
LAYER
5
184
100
AcDbSymbolTable
0
LAYER
5
10
100
AcDbSymbolTableRecord
100
AcDbLayerTableRecord
2
0
70
0
62
7
6
CONTINUOUS
290
1
370
-3
390
0
0
LAYER
5
6D
100
AcDbSymbolTableRecord
100
AcDbLayerTableRecord
2
81
70
0
62
-3
6
CONTINUOUS
290
1
370
-3
390
0
0
LAYER
5
6F
100
AcDbSymbolTableRecord
100
AcDbLayerTableRecord
2
80
70
0
62
-6
6
CONTINUOUS
290
1
370
-3
390
0
0
LAYER
5
71
100
AcDbSymbolTableRecord
100
AcDbLayerTableRecord
2
1
70
0
62
4
6
CONTINUOUS
290
1
370
-3
390
0
0
LAYER
5
76
100
AcDbSymbolTableRecord
100
AcDbLayerTableRecord
2
4
70
0
62
-2
6
CENTER
290
1
370
-3
390
0
0
LAYER
5
EC
100
AcDbSymbolTableRecord
100
AcDbLayerTableRecord
2
2
70
0
62
7
6
CONTINUOUS
290
1
370
-3
390
0
0
LAYER
5
16e
100
AcDbSymbolTableRecord
100
AcDbLayerTableRecord
2
SK1
70
0
62
4
6
CONTINUOUS
290
1
370
-3
390
0
0
LAYER
5
16f
100
AcDbSymbolTableRecord
100
AcDbLayerTableRecord
2
SK4
70
0
62
2
6
CENTER
290
1
370
-3
390
0
0
LAYER
5
170
100
AcDbSymbolTableRecord
100
AcDbLayerTableRecord
2
SK6
70
0
62
5
6
CONTINUOUS
290
1
370
-3
390
0
0
LAYER
5
171
100
AcDbSymbolTableRecord
100
AcDbLayerTableRecord
2
SK2
70
0
62
7
6
CONTINUOUS
290
1
370
-3
390
0
0
ENDTAB
0
TABLE
2
STYLE
5
185
100
AcDbSymbolTable
0
STYLE
5
11
100
AcDbSymbolTableRecord
100
AcDbTextStyleTableRecord
2
Standard
3
txt
70
0
71
0
40
0
41
1
42
0
50
0
0
STYLE
5
D2
100
AcDbSymbolTableRecord
100
AcDbTextStyleTableRecord
2
iso_b_vert
3
simplex.shx
70
0
71
0
40
0
41
1
42
0
50
0
0
STYLE
5
D3
100
AcDbSymbolTableRecord
100
AcDbTextStyleTableRecord
2
DWGDirectTextStyle
3
simplex
70
0
71
0
40
0
41
1
42
0
50
0
0
ENDTAB
0
TABLE
2
DIMSTYLE
5
186
100
AcDbSymbolTable
100
AcDbDimStyleTable
0
DIMSTYLE
105
27
100
AcDbSymbolTableRecord
100
AcDbDimStyleTableRecord
2
Standard
70
0
3
<>
41
0.18
42
0.0625
44
0.18
140
0.18
147
0.09
73
0
74
0
77
1
271
2
275
0
278
52
280
0
340
11
0
ENDTAB
0
TABLE
2
VIEW
5
187
100
AcDbSymbolTable
0
ENDTAB
0
TABLE
2
UCS
5
188
100
AcDbSymbolTable
0
ENDTAB
0
TABLE
2
APPID
5
189
100
AcDbSymbolTable
0
APPID
5
12
100
AcDbSymbolTableRecord
100
AcDbRegAppTableRecord
2
ACAD
70
0
0
ENDTAB
0
TABLE
2
BLOCK_RECORD
5
18a
100
AcDbSymbolTable
0
BLOCK_RECORD
5
1F
100
AcDbSymbolTableRecord
100
AcDbBlockTableRecord
2
*Model_Space
340
0
70
0
0
BLOCK_RECORD
5
1B
100
AcDbSymbolTableRecord
100
AcDbBlockTableRecord
2
*Paper_Space
340
0
70
0
0
BLOCK_RECORD
5
23
100
AcDbSymbolTableRecord
100
AcDbBlockTableRecord
2
*Paper_Space0
340
0
70
0
0
BLOCK_RECORD
5
D5
100
AcDbSymbolTableRecord
100
AcDbBlockTableRecord
2
DimnDraft3D1
340
0
70
0
0
BLOCK_RECORD
5
E0
100
AcDbSymbolTableRecord
100
AcDbBlockTableRecord
2
DimnDraft3D2
340
0
70
0
0
BLOCK_RECORD
5
EA
100
AcDbSymbolTableRecord
100
AcDbBlockTableRecord
2
DimnDraft3D3
340
0
70
0
0
BLOCK_RECORD
5
F5
100
AcDbSymbolTableRecord
100
AcDbBlockTableRecord
2
DimnDraft3D4
340
0
70
0
0
BLOCK_RECORD
5
FF
100
AcDbSymbolTableRecord
100
AcDbBlockTableRecord
2
DimnDraft3D5
340
0
70
0
0
BLOCK_RECORD
5
10A
100
AcDbSymbolTableRecord
100
AcDbBlockTableRecord
2
DimnDraft3D6
340
0
70
0
0
ENDTAB
0
ENDSEC
0
SECTION
2
BLOCKS
0
BLOCK
5
20
100
AcDbEntity
8
0
100
AcDbBlockBegin
2
*Model_Space
70
0
10
0
20
0
30
0
3
*Model_Space
0
ENDBLK
5
21
100
AcDbEntity
8
0
100
AcDbBlockEnd
0
BLOCK
5
1C
100
AcDbEntity
8
0
100
AcDbBlockBegin
2
*Paper_Space
70
0
10
0
20
0
30
0
3
*Paper_Space
0
ENDBLK
5
1D
100
AcDbEntity
8
0
100
AcDbBlockEnd
0
BLOCK
5
24
100
AcDbEntity
8
0
100
AcDbBlockBegin
2
*Paper_Space0
70
0
10
0
20
0
30
0
3
*Paper_Space0
0
ENDBLK
5
25
100
AcDbEntity
8
0
100
AcDbBlockEnd
0
BLOCK
5
DD
100
AcDbEntity
8
0
100
AcDbBlockBegin
2
DimnDraft3D1
70
0
10
0
20
0
30
0
3
DimnDraft3D1
0
MTEXT
5
D6
100
AcDbEntity
8
SK2
62
256
6
ByLayer
370
18
48
1
60
0
100
AcDbMText
10
8.830263
20
32.475
30
0
210
0
220
0
230
1
1
\W0.6740;20
40
3.5
41
0
44
1.084337
50
0
71
7
72
5
7
iso_b_vert
0
LINE
5
D8
100
AcDbEntity
8
SK2
62
256
6
ByLayer
370
13
48
1
60
0
100
AcDbLine
10
0
20
26.5875
30
0
11
0
21
33.6
31
0
39
0
210
0
220
0
230
1
0
LINE
5
D9
100
AcDbEntity
8
SK2
62
256
6
ByLayer
370
13
48
1
60
0
100
AcDbLine
10
20
20
26.5875
30
0
11
20
21
33.6
31
0
39
0
210
0
220
0
230
1
0
LINE
5
DA
100
AcDbEntity
8
SK2
62
256
6
ByLayer
370
13
48
1
60
0
100
AcDbLine
10
0
20
31.6
30
0
11
20
21
31.6
31
0
39
0
210
0
220
0
230
1
0
SOLID
5
DB
100
AcDbEntity
8
SK2
62
256
6
ByLayer
370
13
48
1
60
0
100
AcDbTrace
10
0
20
31.6
30
0
11
3.499998
21
32.060784
31
0
12
3.500002
22
31.139216
32
0
13
0
23
31.6
33
0
39
0
210
0
220
0
230
1
0
SOLID
5
DC
100
AcDbEntity
8
SK2
62
256
6
ByLayer
370
13
48
1
60
0
100
AcDbTrace
10
20
20
31.6
30
0
11
16.500002
21
31.139216
31
0
12
16.499998
22
32.060784
32
0
13
20
23
31.6
33
0
39
0
210
0
220
0
230
1
0
ENDBLK
5
DE
100
AcDbEntity
8
0
100
AcDbBlockEnd
0
BLOCK
5
E7
100
AcDbEntity
8
0
100
AcDbBlockBegin
2
DimnDraft3D2
70
0
10
0
20
0
30
0
3
DimnDraft3D2
0
MTEXT
5
E1
100
AcDbEntity
8
SK2
62
256
6
ByLayer
370
18
48
1
60
0
100
AcDbMText
10
147.615132
20
42.475
30
0
210
0
220
0
230
1
1
\W0.5404;5
40
3.5
41
0
44
1.084337
50
0
71
7
72
5
7
iso_b_vert
0
LINE
5
E2
100
AcDbEntity
8
SK2
62
256
6
ByLayer
370
13
48
1
60
0
100
AcDbLine
10
150
20
17.5875
30
0
11
150
21
43.6
31
0
39
0
210
0
220
0
230
1
0
LINE
5
E3
100
AcDbEntity
8
SK2
62
256
6
ByLayer
370
13
48
1
60
0
100
AcDbLine
10
145
20
17.5875
30
0
11
145
21
43.6
31
0
39
0
210
0
220
0
230
1
0
LINE
5
E4
100
AcDbEntity
8
SK2
62
256
6
ByLayer
370
13
48
1
60
0
100
AcDbLine
10
158.75
20
41.6
30
0
11
136.25
21
41.6
31
0
39
0
210
0
220
0
230
1
0
SOLID
5
E5
100
AcDbEntity
8
SK2
62
256
6
ByLayer
370
13
48
1
60
0
100
AcDbTrace
10
150
20
41.6
30
0
11
153.499998
21
42.060784
31
0
12
153.500002
22
41.139216
32
0
13
150
23
41.6
33
0
39
0
210
0
220
0
230
1
0
SOLID
5
E6
100
AcDbEntity
8
SK2
62
256
6
ByLayer
370
13
48
1
60
0
100
AcDbTrace
10
145
20
41.6
30
0
11
141.500002
21
41.139216
31
0
12
141.499998
22
42.060784
32
0
13
145
23
41.6
33
0
39
0
210
0
220
0
230
1
0
ENDBLK
5
E8
100
AcDbEntity
8
0
100
AcDbBlockEnd
0
BLOCK
5
F2
100
AcDbEntity
8
0
100
AcDbBlockBegin
2
DimnDraft3D3
70
0
10
0
20
0
30
0
3
DimnDraft3D3
0
MTEXT
5
EB
100
AcDbEntity
8
2
62
256
6
ByLayer
370
18
48
1
60
0
100
AcDbMText
10
72.982895
20
52.475
30
0
210
0
220
0
230
1
1
\W0.6217;150
40
3.5
41
0
44
1.084337
50
0
71
7
72
5
7
iso_b_vert
0
LINE
5
ED
100
AcDbEntity
8
2
62
256
6
ByLayer
370
13
48
1
60
0
100
AcDbLine
10
150
20
17.5875
30
0
11
150
21
53.6
31
0
39
0
210
0
220
0
230
1
0
LINE
5
EE
100
AcDbEntity
8
2
62
256
6
ByLayer
370
13
48
1
60
0
100
AcDbLine
10
0
20
26.5875
30
0
11
0
21
53.6
31
0
39
0
210
0
220
0
230
1
0
LINE
5
EF
100
AcDbEntity
8
2
62
256
6
ByLayer
370
13
48
1
60
0
100
AcDbLine
10
150
20
51.6
30
0
11
0
21
51.6
31
0
39
0
210
0
220
0
230
1
0
SOLID
5
F0
100
AcDbEntity
8
2
62
256
6
ByLayer
370
13
48
1
60
0
100
AcDbTrace
10
150
20
51.6
30
0
11
146.500002
21
51.139216
31
0
12
146.499998
22
52.060784
32
0
13
150
23
51.6
33
0
39
0
210
0
220
0
230
1
0
SOLID
5
F1
100
AcDbEntity
8
2
62
256
6
ByLayer
370
13
48
1
60
0
100
AcDbTrace
10
0
20
51.6
30
0
11
3.499998
21
52.060784
31
0
12
3.500002
22
51.139216
32
0
13
0
23
51.6
33
0
39
0
210
0
220
0
230
1
0
ENDBLK
5
F3
100
AcDbEntity
8
0
100
AcDbBlockEnd
0
BLOCK
5
FC
100
AcDbEntity
8
0
100
AcDbBlockBegin
2
DimnDraft3D4
70
0
10
0
20
0
30
0
3
DimnDraft3D4
0
MTEXT
5
F6
100
AcDbEntity
8
SK2
62
256
6
ByLayer
370
18
48
1
60
0
100
AcDbMText
10
-16.215789
20
52.475
30
0
210
0
220
0
230
1
1
\W0.6740;30
40
3.5
41
0
44
1.084337
50
0
71
7
72
5
7
iso_b_vert
0
LINE
5
F7
100
AcDbEntity
8
SK2
62
256
6
ByLayer
370
13
48
1
60
0
100
AcDbLine
10
-30
20
19.0875
30
0
11
-30
21
53.6
31
0
39
0
210
0
220
0
230
1
0
LINE
5
F8
100
AcDbEntity
8
SK2
62
256
6
ByLayer
370
13
48
1
60
0
100
AcDbLine
10
0
20
26.5875
30
0
11
0
21
53.6
31
0
39
0
210
0
220
0
230
1
0
LINE
5
F9
100
AcDbEntity
8
SK2
62
256
6
ByLayer
370
13
48
1
60
0
100
AcDbLine
10
-30
20
51.6
30
0
11
0
21
51.6
31
0
39
0
210
0
220
0
230
1
0
SOLID
5
FA
100
AcDbEntity
8
SK2
62
256
6
ByLayer
370
13
48
1
60
0
100
AcDbTrace
10
-30
20
51.6
30
0
11
-26.500002
21
52.060784
31
0
12
-26.499998
22
51.139216
32
0
13
-30
23
51.6
33
0
39
0
210
0
220
0
230
1
0
SOLID
5
FB
100
AcDbEntity
8
SK2
62
256
6
ByLayer
370
13
48
1
60
0
100
AcDbTrace
10
0
20
51.6
30
0
11
-3.499998
21
51.139216
31
0
12
-3.500002
22
52.060784
32
0
13
0
23
51.6
33
0
39
0
210
0
220
0
230
1
0
ENDBLK
5
FD
100
AcDbEntity
8
0
100
AcDbBlockEnd
0
BLOCK
5
107
100
AcDbEntity
8
0
100
AcDbBlockBegin
2
DimnDraft3D5
70
0
10
0
20
0
30
0
3
DimnDraft3D5
0
MTEXT
5
100
100
AcDbEntity
8
SK2
62
256
6
ByLayer
370
18
48
1
60
0
100
AcDbMText
10
-53.35
20
2.330263
30
0
210
0
220
0
230
1
1
\W0.6740;50
40
3.5
41
0
44
1.084337
50
90
71
7
72
5
7
iso_b_vert
0
MTEXT
5
101
100
AcDbEntity
8
SK2
62
256
6
ByLayer
370
18
48
1
60
0
100
AcDbMText
10
-53.35
20
-2.892393
30
0
210
0
220
0
230
1
1
%%c
40
3.5
41
0
44
1.084337
50
90
71
7
72
5
7
iso_b_vert
0
LINE
5
102
100
AcDbEntity
8
SK2
62
256
6
ByLayer
370
13
48
1
60
0
100
AcDbLine
10
-1.5875
20
25
30
0
11
-53.6
21
25
31
0
39
0
210
0
220
0
230
1
0
LINE
5
103
100
AcDbEntity
8
SK2
62
256
6
ByLayer
370
13
48
1
60
0
100
AcDbLine
10
-1.5875
20
-25
30
0
11
-53.6
21
-25
31
0
39
0
210
0
220
0
230
1
0
LINE
5
104
100
AcDbEntity
8
SK2
62
256
6
ByLayer
370
13
48
1
60
0
100
AcDbLine
10
-51.6
20
25
30
0
11
-51.6
21
-25
31
0
39
0
210
0
220
0
230
1
0
SOLID
5
105
100
AcDbEntity
8
SK2
62
256
6
ByLayer
370
13
48
1
60
0
100
AcDbTrace
10
-51.6
20
25
30
0
11
-51.139216
21
21.500002
31
0
12
-52.060784
22
21.499998
32
0
13
-51.6
23
25
33
0
39
0
210
0
220
0
230
1
0
SOLID
5
106
100
AcDbEntity
8
SK2
62
256
6
ByLayer
370
13
48
1
60
0
100
AcDbTrace
10
-51.6
20
-25
30
0
11
-52.060784
21
-21.500002
31
0
12
-51.139216
22
-21.499998
32
0
13
-51.6
23
-25
33
0
39
0
210
0
220
0
230
1
0
ENDBLK
5
108
100
AcDbEntity
8
0
100
AcDbBlockEnd
0
BLOCK
5
112
100
AcDbEntity
8
0
100
AcDbBlockBegin
2
DimnDraft3D6
70
0
10
0
20
0
30
0
3
DimnDraft3D6
0
MTEXT
5
10B
100
AcDbEntity
8
SK2
62
256
6
ByLayer
370
18
48
1
60
0
100
AcDbMText
10
173.35
20
2.330263
30
0
210
0
220
0
230
1
1
\W0.6740;32
40
3.5
41
0
44
1.084337
50
90
71
7
72
5
7
iso_b_vert
0
MTEXT
5
10C
100
AcDbEntity
8
SK2
62
256
6
ByLayer
370
18
48
1
60
0
100
AcDbMText
10
173.35
20
-2.892393
30
0
210
0
220
0
230
1
1
%%c
40
3.5
41
0
44
1.084337
50
90
71
7
72
5
7
iso_b_vert
0
LINE
5
10D
100
AcDbEntity
8
SK2
62
256
6
ByLayer
370
13
48
1
60
0
100
AcDbLine
10
151.5875
20
16
30
0
11
177.1
21
16
31
0
39
0
210
0
220
0
230
1
0
LINE
5
10E
100
AcDbEntity
8
SK2
62
256
6
ByLayer
370
13
48
1
60
0
100
AcDbLine
10
151.5875
20
-16
30
0
11
177.1
21
-16
31
0
39
0
210
0
220
0
230
1
0
LINE
5
10F
100
AcDbEntity
8
SK2
62
256
6
ByLayer
370
13
48
1
60
0
100
AcDbLine
10
175.1
20
16
30
0
11
175.1
21
-16
31
0
39
0
210
0
220
0
230
1
0
SOLID
5
110
100
AcDbEntity
8
SK2
62
256
6
ByLayer
370
13
48
1
60
0
100
AcDbTrace
10
175.1
20
16
30
0
11
175.560784
21
12.500002
31
0
12
174.639216
22
12.499998
32
0
13
175.1
23
16
33
0
39
0
210
0
220
0
230
1
0
SOLID
5
111
100
AcDbEntity
8
SK2
62
256
6
ByLayer
370
13
48
1
60
0
100
AcDbTrace
10
175.1
20
-16
30
0
11
174.639216
21
-12.500002
31
0
12
175.560784
22
-12.499998
32
0
13
175.1
23
-16
33
0
39
0
210
0
220
0
230
1
0
ENDBLK
5
113
100
AcDbEntity
8
0
100
AcDbBlockEnd
0
ENDSEC
0
SECTION
2
ENTITIES
0
ARC
5
AA
100
AcDbEntity
8
1
62
256
6
ByLayer
370
18
48
1
60
0
100
AcDbCircle
39
0
10
20.770699
20
-24.2
30
0
40
0.8
210
0
220
0
230
1
100
AcDbArc
50
270
51
274.19518
0
ARC
5
AB
100
AcDbEntity
8
SK1
62
256
6
ByLayer
370
18
48
1
60
0
100
AcDbCircle
39
0
10
0.6
20
18.75
30
0
40
1.00000000000001
210
6.12303176911189E-17
220
0
230
-1
100
AcDbArc
50
233.130102
51
246.421822
0
ARC
5
AC
100
AcDbEntity
8
SK1
62
256
6
ByLayer
370
18
48
1
60
0
100
AcDbCircle
39
0
10
0.6
20
-18.75
30
0
40
1.00000000000001
210
6.12303176911189E-17
220
0
230
-1
100
AcDbArc
50
113.578178
51
126.869898
0
ARC
5
AD
100
AcDbEntity
8
1
62
256
6
ByLayer
370
18
48
1
60
0
100
AcDbCircle
39
0
10
20.770699
20
24.2
30
0
40
0.8
210
0
220
0
230
1
100
AcDbArc
50
85.80482
51
90
0
ARC
5
AE
100
AcDbEntity
8
1
62
256
6
ByLayer
370
18
48
1
60
0
100
AcDbCircle
39
0
10
-145
20
-57.009208
30
0
40
41.0092079162955
210
6.12303176911189E-17
220
0
230
-1
100
AcDbArc
50
85.80482
51
90
0
ARC
5
AF
100
AcDbEntity
8
1
62
256
6
ByLayer
370
18
48
1
60
0
100
AcDbCircle
39
0
10
-145
20
57.009208
30
0
40
41.0092079162955
210
6.12303176911189E-17
220
0
230
-1
100
AcDbArc
50
270
51
274.19518
0
ELLIPSE
5
B0
100
AcDbEntity
8
1
62
256
6
ByLayer
370
18
48
1
60
0
100
AcDbEllipse
10
21.056258
20
0
30
0
11
11.7092723497276
21
-24.6771864409378
31
0
210
0
220
0
230
-1
40
0.341999
41
2.05975995310053
42
2.97437958168082
0
ELLIPSE
5
B1
100
AcDbEntity
8
1
62
256
6
ByLayer
370
18
48
1
60
0
100
AcDbEllipse
10
21.056258
20
0
30
0
11
11.7092723497279
21
24.6771864409383
31
0
210
0
220
0
230
-1
40
0.341999
41
-2.97437958168082
42
-2.05975995310054
0
ELLIPSE
5
B2
100
AcDbEntity
8
1
62
256
6
ByLayer
370
18
48
1
60
0
100
AcDbEllipse
10
-1.056258
20
0
30
0
11
11.7092723497255
21
24.6771864409352
31
0
210
0
220
0
230
-1
40
0.341999
41
0.16721307190899
42
1.08183270048935
0
ELLIPSE
5
B3
100
AcDbEntity
8
1
62
256
6
ByLayer
370
18
48
1
60
0
100
AcDbEllipse
10
-1.056258
20
0
30
0
11
11.709272349726
21
-24.6771864409359
31
0
210
0
220
0
230
-1
40
0.341999
41
-1.08183270048933
42
-0.167213071908985
0
POINT
5
6C
100
AcDbEntity
8
81
62
256
6
ByLayer
370
18
48
1
60
0
100
AcDbPoint
10
150
20
0
30
0
39
0
210
0
220
0
230
1
50
360
0
POINT
5
6E
100
AcDbEntity
8
80
62
256
6
ByLayer
370
18
48
1
60
0
100
AcDbPoint
10
0
20
0
30
0
39
0
210
0
220
0
230
1
50
360
0
POINT
5
70
100
AcDbEntity
8
1
62
256
6
ByLayer
370
18
48
1
60
0
100
AcDbPoint
10
0
20
0
30
0
39
0
210
0
220
0
230
1
50
360
0
SPLINE
5
B4
100
AcDbEntity
8
SK1
62
256
6
ByLayer
370
18
48
1
60
0
100
AcDbSpline
70
4
71
2
72
6
73
3
40
0
40
0
40
0
40
1
40
1
40
1
41
1
10
-28.5
20
-16.8542724489282
30
0
41
1
10
-15.3499999999286
20
-17.1845422635703
30
-1E-16
41
1
10
-2.19999999999999
20
-17.5148116792767
30
-1E-16
0
SPLINE
5
B5
100
AcDbEntity
8
SK1
62
256
6
ByLayer
370
18
48
1
60
0
100
AcDbSpline
70
4
71
3
72
13
73
9
40
0
40
0
40
0
40
0
40
0.239457532283078
40
0.368361584805038
40
0.500001016081891
40
0.63164027816555
40
0.760543864313972
40
1
40
1
40
1
40
1
41
1
10
-1.99503997793928
20
17.3251861589552
30
-1E-16
41
1
10
-2.02111030872967
20
17.324784519015
30
-1E-16
41
1
10
-2.0588406423399
20
17.3309567740351
30
-1E-16
41
1
10
-2.10627712749675
20
17.3540005764862
30
-1E-16
41
1
10
-2.13886378679061
20
17.3791679466685
30
-1E-16
41
1
10
-2.16563592203173
20
17.4104495005039
30
-1E-16
41
1
10
-2.19103284106794
20
17.4566686743028
30
-1E-16
41
1
10
-2.19909198642128
20
17.4940412586115
30
-1E-16
41
1
10
-2.19999999999999
20
17.5200987347078
30
-1E-16
0
SPLINE
5
B6
100
AcDbEntity
8
SK1
62
256
6
ByLayer
370
18
48
1
60
0
100
AcDbSpline
70
4
71
2
72
6
73
3
40
0
40
0
40
0
40
1
40
1
40
1
41
1
10
-0.258442643302431
20
17.4312381196178
30
0
41
1
10
-0.305123774552584
20
17.3672404580573
30
0
41
1
10
-0.394976888875277
20
17.3596982935394
30
0
0
SPLINE
5
B7
100
AcDbEntity
8
SK1
62
256
6
ByLayer
370
18
48
1
60
0
100
AcDbSpline
70
4
71
2
72
6
73
3
40
0
40
0
40
0
40
1
40
1
40
1
41
1
10
-2.19999999999999
20
17.5148117187522
30
-1E-16
41
1
10
-15.3499999999294
20
17.1845422725478
30
-1E-16
41
1
10
-28.5
20
16.854272429841
30
0
0
SPLINE
5
B8
100
AcDbEntity
8
SK1
62
256
6
ByLayer
370
18
48
1
60
0
100
AcDbSpline
70
4
71
2
72
6
73
3
40
0
40
0
40
0
40
1
40
1
40
1
41
1
10
-0.394976888875277
20
17.3601458189993
30
0
41
1
10
-1.19500843340703
20
17.3400525762132
30
-1E-16
41
1
10
-1.99503997793928
20
17.3199593319919
30
-1E-16
0
SPLINE
5
B9
100
AcDbEntity
8
SK1
62
256
6
ByLayer
370
18
48
1
60
0
100
AcDbSpline
70
4
71
2
72
6
73
3
40
0
40
0
40
0
40
1
40
1
40
1
41
1
10
-0.394976888875277
20
-17.359696795897
30
0
41
1
10
-0.305277226309727
20
-17.3671842624703
30
0
41
1
10
-0.258658740615658
20
-17.4310145299902
30
0
0
SPLINE
5
BA
100
AcDbEntity
8
SK1
62
256
6
ByLayer
370
18
48
1
60
0
100
AcDbSpline
70
4
71
2
72
6
73
3
40
0
40
0
40
0
40
1
40
1
40
1
41
1
10
-1.99503997793928
20
-17.3199593099743
30
-1E-16
41
1
10
-1.19500843340703
20
-17.340052552406
30
-1E-16
41
1
10
-0.394976888875277
20
-17.3601457933935
30
0
0
SPLINE
5
BB
100
AcDbEntity
8
SK1
62
256
6
ByLayer
370
18
48
1
60
0
100
AcDbSpline
70
4
71
3
72
13
73
9
40
0
40
0
40
0
40
0
40
0.239456135732747
40
0.368359721896281
40
0.499998983985079
40
0.631638415255954
40
0.76054246776234
40
1
40
1
40
1
40
1
41
1
10
-2.19999999999999
20
-17.520098551796
30
-1E-16
41
1
10
-2.19909198642199
20
-17.4940410756899
30
-1E-16
41
1
10
-2.19103284106868
20
-17.4566684913668
30
-1E-16
41
1
10
-2.16563592203269
20
-17.4104493175481
30
-1E-16
41
1
10
-2.13886378679189
20
-17.3791677636995
30
-1E-16
41
1
10
-2.10627712749812
20
-17.3540003935064
30
-1E-16
41
1
10
-2.05884064234175
20
-17.3309565910454
30
-1E-16
41
1
10
-2.02111030873064
20
-17.3247843360228
30
-1E-16
41
1
10
-1.99503997793928
20
-17.3251859759625
30
-1E-16
0
SPLINE
5
BC
100
AcDbEntity
8
SK1
62
256
6
ByLayer
370
18
48
1
60
0
100
AcDbSpline
70
4
71
2
72
6
73
3
40
0
40
0
40
0
40
1
40
1
40
1
41
1
10
-28.5
20
16.8584505716142
30
0
41
1
10
-29.2499999991495
20
16.4254651505507
30
0
41
1
10
-30
20
15.99247954079
30
-1E-16
0
SPLINE
5
BD
100
AcDbEntity
8
SK1
62
256
6
ByLayer
370
18
48
1
60
0
100
AcDbSpline
70
4
71
2
72
6
73
3
40
0
40
0
40
0
40
1
40
1
40
1
41
1
10
-30
20
-15.9924794145163
30
-1E-16
41
1
10
-29.2499999991495
20
-16.4254650261933
30
0
41
1
10
-28.5
20
-16.8584504491481
30
0
0
SPLINE
5
BE
100
AcDbEntity
8
1
62
256
6
ByLayer
370
18
48
1
60
0
100
AcDbSpline
70
4
71
3
72
16
73
12
40
0
40
0
40
0
40
0
40
0.125000000000002
40
0.125000000000002
40
0.250000000000004
40
0.250000000000004
40
0.500000000000003
40
0.500000000000003
40
0.750000000000001
40
0.750000000000001
40
1
40
1
40
1
40
1
41
1
10
8.53867513459483
20
23.8391299750503
30
-4E-16
41
1
10
8.5069222413654
20
23.8391299750503
30
-4E-16
41
1
10
8.47600932946898
20
23.8371392949586
30
-4E-16
41
1
10
8.41759599948892
20
23.8299833264009
30
-4E-16
41
1
10
8.39103491659969
20
23.824989671385
30
-4E-16
41
1
10
8.31704385770789
20
23.8070141183761
30
-4E-16
41
1
10
8.27807345100132
20
23.7919105160783
30
-4E-16
41
1
10
8.21173961735187
20
23.7591079584198
30
-4E-16
41
1
10
8.18512193927674
20
23.7416171457992
30
-4E-16
41
1
10
8.13975567725328
20
23.7051129235882
30
-4E-16
41
1
10
8.1211137629262
20
23.6860331168061
30
-4E-16
41
1
10
8.10566243270245
20
23.6665017920809
30
5E-16
0
SPLINE
5
BF
100
AcDbEntity
8
1
62
256
6
ByLayer
370
18
48
1
60
0
100
AcDbSpline
70
4
71
3
72
16
73
12
40
0
40
0
40
0
40
0
40
0.125
40
0.125
40
0.25
40
0.25
40
0.5
40
0.5
40
0.75
40
0.75
40
1
40
1
40
1
40
1
41
1
10
11.4613248654052
20
-23.8391299750503
30
-2E-16
41
1
10
11.4930777586346
20
-23.8391299750503
30
-2E-16
41
1
10
11.523990670531
20
-23.8371392949586
30
-2E-16
41
1
10
11.5824040005111
20
-23.8299833264009
30
-2E-16
41
1
10
11.6089650834003
20
-23.824989671385
30
-2E-16
41
1
10
11.6829561422921
20
-23.8070141183761
30
-2E-16
41
1
10
11.7219265489987
20
-23.7919105160783
30
-2E-16
41
1
10
11.7882603826481
20
-23.7591079584198
30
-2E-16
41
1
10
11.8148780607233
20
-23.7416171457992
30
-2E-16
41
1
10
11.8602443227468
20
-23.7051129235883
30
-2E-16
41
1
10
11.8788862370738
20
-23.6860331168061
30
-2E-16
41
1
10
11.8943375672975
20
-23.6665017920809
30
7E-16
0
SPLINE
5
C0
100
AcDbEntity
8
1
62
256
6
ByLayer
370
18
48
1
60
0
100
AcDbSpline
70
4
71
3
72
16
73
12
40
0
40
0
40
0
40
0
40
0.125000000000001
40
0.125000000000001
40
0.250000000000002
40
0.250000000000002
40
0.500000000000001
40
0.500000000000001
40
0.750000000000001
40
0.750000000000001
40
1
40
1
40
1
40
1
41
1
10
11.4613248654052
20
7.52966679426504
30
7E-16
41
1
10
11.4930777586346
20
7.52966679426504
30
7E-16
41
1
10
11.523990670531
20
7.53597576299643
30
7E-16
41
1
10
11.5824040005111
20
7.55857361750103
30
7E-16
41
1
10
11.6089650834003
20
7.57431556968106
30
7E-16
41
1
10
11.6829561422921
20
7.63070347545337
30
7E-16
41
1
10
11.7219265489987
20
7.6777476510423
30
7E-16
41
1
10
11.7882603826481
20
7.77866338250453
30
7E-16
41
1
10
11.8148780607233
20
7.83191947486043
30
7E-16
41
1
10
11.8602443227468
20
7.94172327888185
30
7E-16
41
1
10
11.8788862370738
20
7.99846916820704
30
7E-16
41
1
10
11.8943375672975
20
8.05584836782771
30
7E-16
0
SPLINE
5
C1
100
AcDbEntity
8
1
62
256
6
ByLayer
370
18
48
1
60
0
100
AcDbSpline
70
4
71
3
72
16
73
12
40
0
40
0
40
0
40
0
40
0.124999999999999
40
0.124999999999999
40
0.249999999999998
40
0.249999999999998
40
0.499999999999999
40
0.499999999999999
40
0.749999999999999
40
0.749999999999999
40
1
40
1
40
1
40
1
41
1
10
8.5386751345948
20
-7.52966679426501
30
5E-16
41
1
10
8.5069222413654
20
-7.52966679426501
30
5E-16
41
1
10
8.47600932946898
20
-7.53597576299643
30
5E-16
41
1
10
8.41759599948892
20
-7.55857361750103
30
5E-16
41
1
10
8.39103491659966
20
-7.57431556968109
30
5E-16
41
1
10
8.31704385770789
20
-7.63070347545337
30
5E-16
41
1
10
8.27807345100129
20
-7.6777476510423
30
5E-16
41
1
10
8.21173961735187
20
-7.77866338250453
30
5E-16
41
1
10
8.18512193927674
20
-7.83191947486046
30
5E-16
41
1
10
8.13975567725328
20
-7.94172327888188
30
5E-16
41
1
10
8.1211137629262
20
-7.99846916820704
30
5E-16
41
1
10
8.10566243270245
20
-8.05584836782771
30
5E-16
0
SPLINE
5
C2
100
AcDbEntity
8
1
62
256
6
ByLayer
370
18
48
1
60
0
100
AcDbSpline
70
4
71
3
72
16
73
12
40
0
40
0
40
0
40
0
40
0.25
40
0.25
40
0.5
40
0.5
40
0.75
40
0.75
40
0.875
40
0.875
40
1
40
1
40
1
40
1
41
1
10
8.10566243270259
20
8.05584836782774
30
5E-16
41
1
10
8.12110769698501
20
7.99849169434913
30
5E-16
41
1
10
8.13959628273543
20
7.94218253951254
30
5E-16
41
1
10
8.18485781079312
20
7.83248598676804
30
5E-16
41
1
10
8.21171210490061
20
7.77870179643025
30
5E-16
41
1
10
8.27812666032528
20
7.67767014498889
30
5E-16
41
1
10
8.31777781748545
20
7.63015704912692
30
5E-16
41
1
10
8.39058907041826
20
7.57464889660892
30
5E-16
41
1
10
8.41770072232734
20
7.55854989603583
30
5E-16
41
1
10
8.47563983861082
20
7.53610198950838
30
5E-16
41
1
10
8.50697323176118
20
7.52966679426473
30
5E-16
41
1
10
8.53867513459474
20
7.52966679426473
30
5E-16
0
SPLINE
5
C3
100
AcDbEntity
8
1
62
256
6
ByLayer
370
18
48
1
60
0
100
AcDbSpline
70
4
71
3
72
16
73
12
40
0
40
0
40
0
40
0
40
0.250000000000001
40
0.250000000000001
40
0.500000000000001
40
0.500000000000001
40
0.750000000000002
40
0.750000000000002
40
0.875000000000001
40
0.875000000000001
40
1
40
1
40
1
40
1
41
1
10
8.10566243270262
20
-23.6665017920809
30
5E-16
41
1
10
8.12110769698501
20
-23.6860254491252
30
-4E-16
41
1
10
8.1395962827354
20
-23.7049589195931
30
-4E-16
41
1
10
8.18485781079315
20
-23.7414301198899
30
-4E-16
41
1
10
8.21171210490064
20
-23.7590955179201
30
-4E-16
41
1
10
8.27812666032528
20
-23.7919356634172
30
-4E-16
41
1
10
8.31777781748545
20
-23.8071882416308
30
-4E-16
41
1
10
8.39058907041829
20
-23.8248834464053
30
-4E-16
41
1
10
8.41770072232734
20
-23.8299908115613
30
-4E-16
41
1
10
8.47563983861082
20
-23.8370993498304
30
-4E-16
41
1
10
8.50697323176118
20
-23.8391299750505
30
-4E-16
41
1
10
8.53867513459474
20
-23.8391299750505
30
-4E-16
0
SPLINE
5
C4
100
AcDbEntity
8
1
62
256
6
ByLayer
370
18
48
1
60
0
100
AcDbSpline
70
4
71
3
72
16
73
12
40
0
40
0
40
0
40
0
40
0.249999999999999
40
0.249999999999999
40
0.499999999999998
40
0.499999999999998
40
0.749999999999996
40
0.749999999999996
40
0.874999999999998
40
0.874999999999998
40
1
40
1
40
1
40
1
41
1
10
11.8943375672974
20
23.6665017920809
30
7E-16
41
1
10
11.878892303015
20
23.6860254491252
30
-2E-16
41
1
10
11.8604037172646
20
23.7049589195931
30
-2E-16
41
1
10
11.8151421892069
20
23.7414301198899
30
-2E-16
41
1
10
11.7882878950994
20
23.7590955179201
30
-2E-16
41
1
10
11.7218733396747
20
23.7919356634172
30
-2E-16
41
1
10
11.6822221825146
20
23.8071882416308
30
-2E-16
41
1
10
11.6094109295817
20
23.8248834464053
30
-2E-16
41
1
10
11.5822992776727
20
23.8299908115613
30
-2E-16
41
1
10
11.5243601613892
20
23.8370993498304
30
-2E-16
41
1
10
11.4930267682388
20
23.8391299750505
30
-2E-16
41
1
10
11.4613248654053
20
23.8391299750505
30
-2E-16
0
SPLINE
5
C5
100
AcDbEntity
8
1
62
256
6
ByLayer
370
18
48
1
60
0
100
AcDbSpline
70
4
71
3
72
16
73
12
40
0
40
0
40
0
40
0
40
0.250000000000001
40
0.250000000000001
40
0.500000000000002
40
0.500000000000002
40
0.75
40
0.75
40
0.875
40
0.875
40
1
40
1
40
1
40
1
41
1
10
11.8943375672974
20
-8.05584836782774
30
7E-16
41
1
10
11.878892303015
20
-7.9984916943491
30
7E-16
41
1
10
11.8604037172646
20
-7.94218253951254
30
7E-16
41
1
10
11.8151421892069
20
-7.83248598676804
30
7E-16
41
1
10
11.7882878950994
20
-7.77870179643025
30
7E-16
41
1
10
11.7218733396747
20
-7.67767014498889
30
7E-16
41
1
10
11.6822221825146
20
-7.63015704912692
30
7E-16
41
1
10
11.6094109295817
20
-7.57464889660889
30
7E-16
41
1
10
11.5822992776727
20
-7.5585498960358
30
7E-16
41
1
10
11.5243601613892
20
-7.53610198950838
30
7E-16
41
1
10
11.4930267682388
20
-7.52966679426473
30
7E-16
41
1
10
11.4613248654053
20
-7.5296667942647
30
7E-16
0
SPLINE
5
C6
100
AcDbEntity
8
SK1
62
256
6
ByLayer
370
18
48
1
60
0
100
AcDbSpline
70
4
71
3
72
26
73
22
40
0
40
0
40
0
40
0
40
0.25
40
0.25
40
0.5
40
0.5
40
0.625
40
0.625
40
0.6875
40
0.6875
40
0.75
40
0.75
40
0.812499999999999
40
0.812499999999999
40
0.874999999999999
40
0.874999999999999
40
0.906249999999999
40
0.906249999999999
40
0.9375
40
0.9375
40
1
40
1
40
1
40
1
41
1
10
-1.30710678118655
20
3.91806548153781
30
-1E-16
41
1
10
-1.27769319780745
20
4.08052093037065
30
-1E-16
41
1
10
-1.24421801411859
20
4.24088838641723
30
-1E-16
41
1
10
-1.16485205097936
20
4.55692134673149
30
-1E-16
41
1
10
-1.11915053894168
20
4.71298625674962
30
-1E-16
41
1
10
-1.03398506252569
20
4.93920991648992
30
-1E-16
41
1
10
-1.00279216065923
20
5.01338233454953
30
-1E-16
41
1
10
-0.948686084795497
20
5.12180889714571
30
-1E-16
41
1
10
-0.92941394814639
20
5.15747348575945
30
-1E-16
41
1
10
-0.887192676607185
20
5.2274622561776
30
-1E-16
41
1
10
-0.864103743652976
20
5.2620159396939
30
-1E-16
41
1
10
-0.813044425251093
20
5.32730624386841
30
0
41
1
10
-0.785168859850643
20
5.35822757002165
30
0
41
1
10
-0.720036760130682
20
5.41334643052002
30
0
41
1
10
-0.681932962873304
20
5.43781069903423
30
0
41
1
10
-0.618164109731538
20
5.45755608765845
30
0
41
1
10
-0.59561546133466
20
5.46126474518047
30
0
41
1
10
-0.550411294006381
20
5.46132444639048
30
0
41
1
10
-0.528101012291188
20
5.45772738244958
30
0
41
1
10
-0.464215280713574
20
5.43805975377174
30
0
41
1
10
-0.427403975867776
20
5.4143295595745
30
0
41
1
10
-0.394976888875391
20
5.38678223323953
30
0
0
SPLINE
5
C7
100
AcDbEntity
8
SK1
62
256
6
ByLayer
370
18
48
1
60
0
100
AcDbSpline
70
4
71
3
72
30
73
26
40
0
40
0
40
0
40
0
40
0.0312499999999997
40
0.0312499999999997
40
0.0624999999999994
40
0.0624999999999994
40
0.0937499999999992
40
0.0937499999999992
40
0.124999999999999
40
0.124999999999999
40
0.156249999999999
40
0.156249999999999
40
0.187499999999998
40
0.187499999999998
40
0.249999999999999
40
0.249999999999999
40
0.312499999999999
40
0.312499999999999
40
0.374999999999999
40
0.374999999999999
40
0.5
40
0.5
40
0.75
40
0.75
40
1
40
1
40
1
40
1
41
1
10
-0.394976888875306
20
-5.38678189578292
30
0
41
1
10
-0.411121004362627
20
-5.40049655899082
30
0
41
1
10
-0.428233279222695
20
-5.41311535582494
30
0
41
1
10
-0.465309612185848
20
-5.43514865455293
30
0
41
1
10
-0.485247093192101
20
-5.44447298609396
30
0
41
1
10
-0.527143852804016
20
-5.45749158572377
30
0
41
1
10
-0.549766809572617
20
-5.46123817959722
30
0
41
1
10
-0.594625996823424
20
-5.46134910310994
30
0
41
1
10
-0.617367334499079
20
-5.45772890381815
30
0
41
1
10
-0.660019264070229
20
-5.44466656582568
30
0
41
1
10
-0.680396026591723
20
-5.43519415358125
30
0
41
1
10
-0.717834279017922
20
-5.41311904009154
30
0
41
1
10
-0.735191453829231
20
-5.40043958603152
30
0
41
1
10
-0.784451320222104
20
-5.35899057781569
30
0
41
1
10
-0.812480141629834
20
-5.3279541713818
30
0
41
1
10
-0.863579984272121
20
-5.26275715404719
30
-1E-16
41
1
10
-0.886669998197959
20
-5.22827369564408
30
-1E-16
41
1
10
-0.929038370947666
20
-5.15814871783954
30
-1E-16
41
1
10
-0.948360494973542
20
-5.1224280187362
30
-1E-16
41
1
10
-1.00258384146318
20
-5.01386242026871
30
-1E-16
41
1
10
-1.03381196991217
20
-4.93963585912672
30
-1E-16
41
1
10
-1.11904493500305
20
-4.71333034940326
30
-1E-16
41
1
10
-1.16474908109114
20
-4.55729858564038
30
-1E-16
41
1
10
-1.24418351237222
20
-4.24105736808264
30
-1E-16
41
1
10
-1.27767890904266
20
-4.0805998576204
30
-1E-16
41
1
10
-1.30710678118655
20
-3.91806548057696
30
-1E-16
0
SPLINE
5
C8
100
AcDbEntity
8
SK1
62
256
6
ByLayer
370
18
48
1
60
0
100
AcDbSpline
70
4
71
3
72
288
73
284
40
0
40
0
40
0
40
0
40
0.0022851276015432
40
0.0057901681934063
40
0.0092952087852693
40
0.0128002493771324
40
0.0163052899689955
40
0.0198103305608585
40
0.0233153711527216
40
0.0268204117445847
40
0.0303254523364478
40
0.0338304929283109
40
0.037335533520174
40
0.040840574112037
40
0.0443456147039001
40
0.0513556958876262
40
0.0548607364794893
40
0.0583657770713524
40
0.0618708176632155
40
0.0653758582550786
40
0.0723859394388047
40
0.0758909800306678
40
0.0793960206225309
40
0.086406101806257
40
0.0899111423981201
40
0.0934161829899831
40
0.100426264173709
40
0.103931304765572
40
0.107436345357436
40
0.110941385949299
40
0.114446426541162
40
0.117951467133025
40
0.121456507724888
40
0.124961548316751
40
0.128466588908614
40
0.13547667009234
40
0.138981710684203
40
0.142486751276066
40
0.145991791867929
40
0.149496832459792
40
0.156506913643519
40
0.160011954235382
40
0.163516994827245
40
0.167022035419108
40
0.170527076010971
40
0.177537157194697
40
0.18104219778656
40
0.184547238378423
40
0.188052278970286
40
0.191557319562149
40
0.198567400745876
40
0.202072441337739
40
0.205577481929602
40
0.209082522521465
40
0.212587563113328
40
0.219597644297054
40
0.223102684888917
40
0.22660772548078
40
0.230112766072643
40
0.233617806664506
40
0.240627887848232
40
0.244132928440095
40
0.247637969031959
40
0.251143009623822
40
0.254648050215685
40
0.261658131399411
40
0.265163171991274
40
0.268668212583137
40
0.275678293766863
40
0.282688374950589
40
0.286193415542452
40
0.289698456134315
40
0.296708537318042
40
0.300213577909905
40
0.303718618501768
40
0.307223659093631
40
0.310728699685494
40
0.314233740277357
40
0.31773878086922
40
0.324748862052946
40
0.331758943236672
40
0.335263983828536
40
0.338769024420399
40
0.342274065012262
40
0.345779105604125
40
0.349284146195988
40
0.352789186787851
40
0.359799267971577
40
0.366809349155303
40
0.373819430339029
40
0.377324470930892
40
0.380829511522756
40
0.384334552114618
40
0.387839592706482
40
0.391344633298345
40
0.394849673890208
40
0.398354714482071
40
0.401859755073934
40
0.405364795665797
40
0.40886983625766
40
0.412374876849523
40
0.415879917441386
40
0.419384958033249
40
0.422889998625112
40
0.426395039216976
40
0.429900079808838
40
0.433405120400702
40
0.435157640696633
40
0.436910160992565
40
0.438662681288496
40
0.440415201584428
40
0.443920242176291
40
0.447425282768154
40
0.449177803064086
40
0.450930323360017
40
0.452682843655949
40
0.45443536395188
40
0.456187884247812
40
0.457940404543743
40
0.461445445135606
40
0.463197965431538
40
0.464950485727469
40
0.466703006023401
40
0.468455526319332
40
0.470208046615264
40
0.471960566911195
40
0.473713087207127
40
0.475465607503059
40
0.47721812779899
40
0.478970648094922
40
0.480723168390853
40
0.482475688686785
40
0.484228208982716
40
0.485980729278648
40
0.487733249574579
40
0.489485769870511
40
0.491238290166442
40
0.492990810462374
40
0.494743330758305
40
0.496495851054237
40
0.498248371350169
40
0.5000008916461
40
0.501753411942032
40
0.503505932237963
40
0.505258452533895
40
0.507010972829826
40
0.508763493125758
40
0.510516013421689
40
0.512268533717621
40
0.514021054013552
40
0.515773574309484
40
0.517526094605415
40
0.519278614901347
40
0.521031135197279
40
0.52278365549321
40
0.524536175789142
40
0.526288696085073
40
0.528041216381005
40
0.529793736676936
40
0.531546256972868
40
0.533298777268799
40
0.535051297564731
40
0.536803817860662
40
0.538556338156594
40
0.540308858452525
40
0.542061378748457
40
0.543813899044389
40
0.54556641934032
40
0.549071459932183
40
0.550823980228115
40
0.552576500524046
40
0.556081541115909
40
0.559586581707772
40
0.561339102003704
40
0.563091622299635
40
0.564844142595567
40
0.566596662891498
40
0.570101703483362
40
0.573606744075225
40
0.577111784667088
40
0.580616825258951
40
0.584121865850814
40
0.587626906442677
40
0.59113194703454
40
0.594636987626403
40
0.598142028218266
40
0.601647068810129
40
0.605152109401992
40
0.608657149993855
40
0.612162190585719
40
0.615667231177582
40
0.619172271769445
40
0.622677312361308
40
0.626182352953171
40
0.633192434136897
40
0.640202515320623
40
0.647212596504349
40
0.650717637096212
40
0.654222677688075
40
0.657727718279939
40
0.661232758871802
40
0.664737799463665
40
0.668242840055528
40
0.675252921239254
40
0.68226300242298
40
0.685768043014843
40
0.689273083606706
40
0.692778124198569
40
0.696283164790433
40
0.699788205382295
40
0.703293245974158
40
0.710303327157885
40
0.713808367749748
40
0.717313408341611
40
0.724323489525337
40
0.731333570709063
40
0.734838611300926
40
0.738343651892789
40
0.745353733076515
40
0.748858773668379
40
0.752363814260242
40
0.755868854852105
40
0.759373895443968
40
0.766383976627694
40
0.769889017219557
40
0.77339405781142
40
0.776899098403283
40
0.780404138995146
40
0.787414220178872
40
0.790919260770735
40
0.794424301362599
40
0.797929341954462
40
0.801434382546325
40
0.808444463730051
40
0.811949504321914
40
0.815454544913777
40
0.81895958550564
40
0.822464626097503
40
0.829474707281229
40
0.832979747873092
40
0.836484788464955
40
0.838237308760887
40
0.839989829056818
40
0.843494869648682
40
0.850504950832408
40
0.854009991424271
40
0.857515032016134
40
0.861020072607997
40
0.86452511319986
40
0.871535194383586
40
0.875040234975449
40
0.878545275567312
40
0.882050316159175
40
0.885555356751039
40
0.889060397342902
40
0.892565437934765
40
0.896070478526628
40
0.899575519118491
40
0.906585600302217
40
0.91009064089408
40
0.913595681485943
40
0.920605762669669
40
0.924110803261532
40
0.927615843853395
40
0.934625925037122
40
0.938130965628985
40
0.941636006220848
40
0.945141046812711
40
0.948646087404574
40
0.9556561685883
40
0.959161209180163
40
0.962666249772026
40
0.966171290363889
40
0.969676330955752
40
0.973181371547615
40
0.976686412139478
40
0.980191452731342
40
0.983696493323205
40
0.987201533915068
40
0.990706574506931
40
0.994211615098794
40
0.997716655690657
40
1
40
1
40
1
40
1
41
1
10
-30
20
15.9926656728437
30
-1E-16
41
1
10
-30
20
15.9930575030759
30
-1E-16
41
1
10
-30
20
15.9936130018665
30
-1E-16
41
1
10
-30
20
15.992743696334
30
-1E-16
41
1
10
-30
20
15.9893850921089
30
-1E-16
41
1
10
-30
20
15.9836860314146
30
-1E-16
41
1
10
-30
20
15.9756808210229
30
-1E-16
41
1
10
-30
20
15.9654018084481
30
-1E-16
41
1
10
-30
20
15.9528811264941
30
-1E-16
41
1
10
-30
20
15.9381491278438
30
-1E-16
41
1
10
-30
20
15.9212355486336
30
-1E-16
41
1
10
-30
20
15.9021692443494
30
-1E-16
41
1
10
-30
20
15.8809772874923
30
-1E-16
41
1
10
-30
20
15.85768719628
30
-1E-16
41
1
10
-30
20
15.8237020449635
30
1E-16
41
1
10
-30
20
15.786151572388
30
1E-16
41
1
10
-30
20
15.7440467976174
30
0
41
1
10
-30
20
15.7106366986067
30
0
41
1
10
-30
20
15.6752710038507
30
0
41
1
10
-30
20
15.6253102414823
30
0
41
1
10
-30
20
15.5722298833996
30
0
41
1
10
-30
20
15.5146768571488
30
1E-16
41
1
10
-30
20
15.454635155867
30
-1E-16
41
1
10
-30
20
15.3917322415494
30
-1E-16
41
1
10
-30
20
15.3243986601424
30
-1E-16
41
1
10
-30
20
15.2546726017927
30
-1E-16
41
1
10
-30
20
15.1823145630236
30
-1E-16
41
1
10
-30
20
15.1055630554725
30
-1E-16
41
1
10
-30
20
15.0465122402176
30
-1E-16
41
1
10
-30
20
14.985753516587
30
-1E-16
41
1
10
-30
20
14.9233034368069
30
-1E-16
41
1
10
-30
20
14.8591738020485
30
-1E-16
41
1
10
-30
20
14.7933781380804
30
-1E-16
41
1
10
-30
20
14.7259318150055
30
-1E-16
41
1
10
-30
20
14.6334478809413
30
-1E-16
41
1
10
-30
20
14.5388306139923
30
-1E-16
41
1
10
-30
20
14.4398724968665
30
-1E-16
41
1
10
-30
20
14.3643499358607
30
-1E-16
41
1
10
-30
20
14.2872489988171
30
-1E-16
41
1
10
-30
20
14.1819460940194
30
-1E-16
41
1
10
-30
20
14.0747689624993
30
-1E-16
41
1
10
-30
20
13.9632604256822
30
-1E-16
41
1
10
-30
20
13.8784200007502
30
-1E-16
41
1
10
-30
20
13.7920640526129
30
-1E-16
41
1
10
-30
20
13.674463030797
30
-1E-16
41
1
10
-30
20
13.5552283874056
30
-1E-16
41
1
10
-30
20
13.4316550911985
30
-1E-16
41
1
10
-30
20
13.337853067095
30
-1E-16
41
1
10
-30
20
13.2425907988595
30
-1E-16
41
1
10
-30
20
13.1131460860381
30
-1E-16
41
1
10
-30
20
12.9822967545723
30
-1E-16
41
1
10
-30
20
12.847084683004
30
-1E-16
41
1
10
-30
20
12.7446351532221
30
-1E-16
41
1
10
-30
20
12.6407746180399
30
-1E-16
41
1
10
-30
20
12.499887311655
30
-1E-16
41
1
10
-30
20
12.3578191289812
30
-1E-16
41
1
10
-30
20
12.2113468162578
30
-1E-16
41
1
10
-30
20
12.100530667573
30
-1E-16
41
1
10
-30
20
11.9883478761207
30
-1E-16
41
1
10
-30
20
11.836377249174
30
-1E-16
41
1
10
-30
20
11.6834503922585
30
-1E-16
41
1
10
-30
20
11.5260594948948
30
-1E-16
41
1
10
-30
20
11.4071324366749
30
-1E-16
41
1
10
-30
20
11.2868794886981
30
-1E-16
41
1
10
-30
20
11.1241532157817
30
-1E-16
41
1
10
-30
20
10.9607029988619
30
-1E-16
41
1
10
-30
20
10.7927086404326
30
-1E-16
41
1
10
-30
20
10.6229844866849
30
-1E-16
41
1
10
-30
20
10.4091173939315
30
-1E-16
41
1
10
-30
20
10.1909959678347
30
-1E-16
41
1
10
-30
20
10.0126979588287
30
-1E-16
41
1
10
-30
20
9.83272430289384
30
-1E-16
41
1
10
-30
20
9.65245023276196
30
-1E-16
41
1
10
-30
20
9.46744871362009
30
-1E-16
41
1
10
-30
20
9.32804093460692
30
-1E-16
41
1
10
-30
20
9.18740563851225
30
-1E-16
41
1
10
-30
20
9.0455543785921
30
-1E-16
41
1
10
-30
20
8.90249044231982
30
-1E-16
41
1
10
-30
20
8.70931958714519
30
-1E-16
41
1
10
-30
20
8.46674616603482
30
-1E-16
41
1
10
-30
20
8.22021686294167
30
-1E-16
41
1
10
-30
20
8.01906836645577
30
-1E-16
41
1
10
-30
20
7.86773085832667
30
-1E-16
41
1
10
-30
20
7.71524241280142
30
-1E-16
41
1
10
-30
20
7.56161298420645
30
-1E-16
41
1
10
-30
20
7.40685260452798
30
-1E-16
41
1
10
-30
20
7.19804202206524
30
-1E-16
41
1
10
-30
20
6.93651252502835
30
-1E-16
41
1
10
-30
20
6.61705894701072
30
-1E-16
41
1
10
-30
20
6.34834996432815
30
-1E-16
41
1
10
-30
20
6.12929373929515
30
-1E-16
41
1
10
-30
20
5.96484945115367
30
-1E-16
41
1
10
-30
20
5.7993974381898
30
-1E-16
41
1
10
-30
20
5.63295542814623
30
-1E-16
41
1
10
-30
20
5.46554083189747
30
-1E-16
41
1
10
-30
20
5.29717335727497
30
-1E-16
41
1
10
-30
20
5.12787591307327
30
-1E-16
41
1
10
-30
20
4.9576706384986
30
-1E-16
41
1
10
-30
20
4.78658071628459
30
-1E-16
41
1
10
-30
20
4.6146335506248
30
-1E-16
41
1
10
-30
20
4.44186113006069
30
-1E-16
41
1
10
-30
20
4.26829321973949
30
-1E-16
41
1
10
-30
20
4.09396155182321
30
1.7E-15
41
1
10
-30
20
3.91890592173868
30
1.7E-15
41
1
10
-30
20
3.74316620306936
30
1.7E-15
41
1
10
-30
20
3.56678705857649
30
1.7E-15
41
1
10
-30
20
3.42015123791836
30
1.7E-15
41
1
10
-30
20
3.3009810984795
30
1.7E-15
41
1
10
-30
20
3.21216327477833
30
1.7E-15
41
1
10
-30
20
3.12322377081893
30
1.7E-15
41
1
10
-30
20
3.00356413190352
30
1.7E-15
41
1
10
-30
20
2.85589664233001
30
1.7E-15
41
1
10
-30
20
2.70788037697056
30
1.7E-15
41
1
10
-30
20
2.58749550859633
30
1.7E-15
41
1
10
-30
20
2.49793822974365
30
1.7E-15
41
1
10
-30
20
2.40833000131903
30
1.7E-15
41
1
10
-30
20
2.31867596083524
30
1.7E-15
41
1
10
-30
20
2.22899146909501
30
1.7E-15
41
1
10
-30
20
2.10827328924756
30
1.7E-15
41
1
10
-30
20
1.99097459417121
30
1.7E-15
41
1
10
-30
20
1.87012467714987
30
1.7E-15
41
1
10
-30
20
1.78043031683035
30
1.7E-15
41
1
10
-30
20
1.69076251244053
30
1.7E-15
41
1
10
-30
20
1.60113247848605
30
1.7E-15
41
1
10
-30
20
1.51155313609783
30
1.7E-15
41
1
10
-30
20
1.422025757727
30
1.7E-15
41
1
10
-30
20
1.33256776537959
30
1.7E-15
41
1
10
-30
20
1.24317741509074
30
1.7E-15
41
1
10
-30
20
1.15386860885192
30
1.7E-15
41
1
10
-30
20
1.06464013673647
30
1.7E-15
41
1
10
-30
20
0.975500136218244
30
1.7E-15
41
1
10
-30
20
0.886447988926847
30
1.7E-15
41
1
10
-30
20
0.797485776681128
30
1.7E-15
41
1
10
-30
20
0.708610852102623
30
1.7E-15
41
1
10
-30
20
0.61982073744278
30
1.7E-15
41
1
10
-30
20
0.531109764951225
30
1.7E-15
41
1
10
-30
20
0.442471434007643
30
1.7E-15
41
1
10
-30
20
0.35389600796347
30
1.7E-15
41
1
10
-30
20
0.265373879214224
30
1.7E-15
41
1
10
-30
20
0.176892371692162
30
1.7E-15
41
1
10
-30
20
0.0884392148653887
30
1.7E-15
41
1
10
-30
20
2.04973958E-08
30
1.7E-15
41
1
10
-30
20
-0.0884392031952927
30
1.7E-15
41
1
10
-30
20
-0.17689241471993
30
1.7E-15
41
1
10
-30
20
-0.265373915570137
30
1.7E-15
41
1
10
-30
20
-0.353895962579486
30
1.7E-15
41
1
10
-30
20
-0.442471374506823
30
1.7E-15
41
1
10
-30
20
-0.531109813902646
30
1.7E-15
41
1
10
-30
20
-0.61982082298212
30
1.7E-15
41
1
10
-30
20
-0.70861080655007
30
1.7E-15
41
1
10
-30
20
-0.797485667180155
30
1.7E-15
41
1
10
-30
20
-0.886448026006832
30
1.7E-15
41
1
10
-30
20
-0.97550027278379
30
1.7E-15
41
1
10
-30
20
-1.06464012636249
30
1.7E-15
41
1
10
-30
20
-1.1538684580087
30
1.7E-15
41
1
10
-30
20
-1.24317738635406
30
1.7E-15
41
1
10
-30
20
-1.33256791795026
30
1.7E-15
41
1
10
-30
20
-1.42202585063245
30
1.7E-15
41
1
10
-30
20
-1.5115530207047
30
1.7E-15
41
1
10
-30
20
-1.60113232466117
30
1.7E-15
41
1
10
-30
20
-1.69076256252157
30
1.7E-15
41
1
10
-30
20
-1.78043050963589
30
1.7E-15
41
1
10
-30
20
-1.87012473193457
30
1.7E-15
41
1
10
-30
20
-1.95984062320625
30
1.7E-15
41
1
10
-30
20
-2.04956121840735
30
1.7E-15
41
1
10
-30
20
-2.13928298465069
30
1.7E-15
41
1
10
-30
20
-2.22899154181988
30
1.7E-15
41
1
10
-30
20
-2.34971237639812
30
1.7E-15
41
1
10
-30
20
-2.4670581044816
30
1.7E-15
41
1
10
-30
20
-2.58749567267543
30
1.7E-15
41
1
10
-30
20
-2.70788056755165
30
1.7E-15
41
1
10
-30
20
-2.85589666602098
30
1.7E-15
41
1
10
-30
20
-3.00356394920902
30
1.7E-15
41
1
10
-30
20
-3.12322374659235
30
1.7E-15
41
1
10
-30
20
-3.21216341650842
30
1.7E-15
41
1
10
-30
20
-3.3009812939207
30
1.7E-15
41
1
10
-30
20
-3.4201512431562
30
1.7E-15
41
1
10
-30
20
-3.56678672363677
30
1.7E-15
41
1
10
-30
20
-3.74316585626101
30
1.7E-15
41
1
10
-30
20
-3.91890584757377
30
1.7E-15
41
1
10
-30
20
-4.09396100129445
30
1.7E-15
41
1
10
-30
20
-4.26829259541552
30
-1E-16
41
1
10
-30
20
-4.44186183082067
30
-1E-16
41
1
10
-30
20
-4.61463414914383
30
-1E-16
41
1
10
-30
20
-4.78658021025493
30
-1E-16
41
1
10
-30
20
-4.95767123056282
30
-1E-16
41
1
10
-30
20
-5.1278778625566
30
-1E-16
41
1
10
-30
20
-5.29717415068043
30
-1E-16
41
1
10
-30
20
-5.46553992297876
30
-1E-16
41
1
10
-30
20
-5.63295448869491
30
-1E-16
41
1
10
-30
20
-5.79939725011727
30
-1E-16
41
1
10
-30
20
-5.96484950556561
30
-1E-16
41
1
10
-30
20
-6.1292936535483
30
-1E-16
41
1
10
-30
20
-6.34834993475852
30
-1E-16
41
1
10
-30
20
-6.6170590196507
30
-1E-16
41
1
10
-30
20
-6.93651248001379
30
-1E-16
41
1
10
-30
20
-7.19804203228608
30
-1E-16
41
1
10
-30
20
-7.40685270744595
30
-1E-16
41
1
10
-30
20
-7.56161297986856
30
-1E-16
41
1
10
-30
20
-7.71524232371232
30
-1E-16
41
1
10
-30
20
-7.86773082006812
30
-1E-16
41
1
10
-30
20
-8.01906843480592
30
-1E-16
41
1
10
-30
20
-8.22021692135615
30
-1E-16
41
1
10
-30
20
-8.46674612315107
30
-1E-16
41
1
10
-30
20
-8.7093195790371
30
-1E-16
41
1
10
-30
20
-8.90249052457438
30
-1E-16
41
1
10
-30
20
-9.04555441784282
30
-1E-16
41
1
10
-30
20
-9.18740560593943
30
-1E-16
41
1
10
-30
20
-9.32804088163152
30
-1E-16
41
1
10
-30
20
-9.46744870809565
30
-1E-16
41
1
10
-30
20
-9.65245029192155
30
-1E-16
41
1
10
-30
20
-9.83272433616031
30
-1E-16
41
1
10
-30
20
-10.0126979221092
30
-1E-16
41
1
10
-30
20
-10.1909959517429
30
-1E-16
41
1
10
-30
20
-10.4091174330404
30
-1E-16
41
1
10
-30
20
-10.6229845090751
30
-1E-16
41
1
10
-30
20
-10.7927086151923
30
-1E-16
41
1
10
-30
20
-10.9607029915804
30
-1E-16
41
1
10
-30
20
-11.1241532476502
30
-1E-16
41
1
10
-30
20
-11.286879520772
30
-1E-16
41
1
10
-30
20
-11.4071324437642
30
-1E-16
41
1
10
-30
20
-11.526059483736
30
-1E-16
41
1
10
-30
20
-11.6834503898541
30
-1E-16
41
1
10
-30
20
-11.8363772717575
30
-1E-16
41
1
10
-30
20
-11.9883479026383
30
-1E-16
41
1
10
-30
20
-12.100530681097
30
-1E-16
41
1
10
-30
20
-12.211346817793
30
-1E-16
41
1
10
-30
20
-12.3578191303265
30
-1E-16
41
1
10
-30
20
-12.4998873251013
30
-1E-16
41
1
10
-30
20
-12.640774639564
30
-1E-16
41
1
10
-30
20
-12.7446351726738
30
-1E-16
41
1
10
-30
20
-12.8470846962099
30
-1E-16
41
1
10
-30
20
-12.9822967603461
30
-1E-16
41
1
10
-30
20
-13.1131460918651
30
-1E-16
41
1
10
-30
20
-13.2425908150843
30
-1E-16
41
1
10
-30
20
-13.3378530905647
30
-1E-16
41
1
10
-30
20
-13.431655102243
30
-1E-16
41
1
10
-30
20
-13.5552284439381
30
-1E-16
41
1
10
-30
20
-13.6744629632361
30
-1E-16
41
1
10
-30
20
-13.7920640428987
30
-1E-16
41
1
10
-30
20
-13.8638084100541
30
-1E-16
41
1
10
-30
20
-13.9208384799595
30
-1E-16
41
1
10
-30
20
-13.9773600368974
30
-1E-16
41
1
10
-30
20
-14.0747689786766
30
-1E-16
41
1
10
-30
20
-14.1819460903518
30
-1E-16
41
1
10
-30
20
-14.2872490063531
30
-1E-16
41
1
10
-30
20
-14.3643499644422
30
-1E-16
41
1
10
-30
20
-14.4398725346097
30
-1E-16
41
1
10
-30
20
-14.5388306330265
30
-1E-16
41
1
10
-30
20
-14.6334478734244
30
-1E-16
41
1
10
-30
20
-14.7259318226356
30
-1E-16
41
1
10
-30
20
-14.793378171537
30
-1E-16
41
1
10
-30
20
-14.8591738437125
30
-1E-16
41
1
10
-30
20
-14.9233034607296
30
-1E-16
41
1
10
-30
20
-14.9857535133679
30
-1E-16
41
1
10
-30
20
-15.0465122321639
30
-1E-16
41
1
10
-30
20
-15.1055630695376
30
-1E-16
41
1
10
-30
20
-15.1823146060513
30
-1E-16
41
1
10
-30
20
-15.2546726312332
30
-1E-16
41
1
10
-30
20
-15.3243986497297
30
-1E-16
41
1
10
-30
20
-15.3917322452796
30
-1E-16
41
1
10
-30
20
-15.4546352005829
30
-1E-16
41
1
10
-30
20
-15.5146768877911
30
1E-16
41
1
10
-30
20
-15.5722298782127
30
0
41
1
10
-30
20
-15.6253102421943
30
0
41
1
10
-30
20
-15.6752710489662
30
0
41
1
10
-30
20
-15.7106367362118
30
0
41
1
10
-30
20
-15.7440468008705
30
0
41
1
10
-30
20
-15.7861515665346
30
1E-16
41
1
10
-30
20
-15.8237020814765
30
1E-16
41
1
10
-30
20
-15.8576872273509
30
-1E-16
41
1
10
-30
20
-15.8809772969169
30
-1E-16
41
1
10
-30
20
-15.9021692417172
30
-1E-16
41
1
10
-30
20
-15.921235563756
30
-1E-16
41
1
10
-30
20
-15.9381491696965
30
-1E-16
41
1
10
-30
20
-15.9528811556007
30
-1E-16
41
1
10
-30
20
-15.9654018081648
30
-1E-16
41
1
10
-30
20
-15.9756808201301
30
-1E-16
41
1
10
-30
20
-15.9836860510364
30
-1E-16
41
1
10
-30
20
-15.989385071505
30
-1E-16
41
1
10
-30
20
-15.992743547039
30
-1E-16
41
1
10
-30
20
-15.9936126286315
30
-1E-16
41
1
10
-30
20
-15.9930576922426
30
-1E-16
41
1
10
-30
20
-15.9926664677389
30
-1E-16
0
SPLINE
5
C9
100
AcDbEntity
8
SK1
62
256
6
ByLayer
370
18
48
1
60
0
100
AcDbSpline
70
4
71
3
72
287
73
283
40
0
40
0
40
0
40
0
40
0.0019136701876605
40
0.0054374102493134
40
0.0089611503109663
40
0.0124848903726193
40
0.0160086304342722
40
0.0195323704959252
40
0.0230561105575781
40
0.0265798506192311
40
0.0301035906808841
40
0.033627330742537
40
0.03715107080419
40
0.0441985509274958
40
0.0477222909891488
40
0.0512460310508017
40
0.0547697711124547
40
0.0582935111741076
40
0.0653409912974135
40
0.0688647313590665
40
0.0723884714207195
40
0.0794359515440253
40
0.0829596916056783
40
0.0864834316673312
40
0.0935309117906372
40
0.0970546518522901
40
0.100578391913943
40
0.104102131975596
40
0.107625872037249
40
0.111149612098902
40
0.114673352160555
40
0.118197092222208
40
0.121720832283861
40
0.128768312407167
40
0.13229205246882
40
0.135815792530473
40
0.139339532592126
40
0.142863272653778
40
0.149910752777084
40
0.153434492838737
40
0.155196362869564
40
0.15695823290039
40
0.160481972962043
40
0.164005713023696
40
0.171053193147002
40
0.174576933208655
40
0.178100673270308
40
0.181624413331961
40
0.185148153393614
40
0.19219563351692
40
0.195719373578573
40
0.199243113640226
40
0.202766853701878
40
0.206290593763532
40
0.213338073886838
40
0.21686181394849
40
0.220385554010143
40
0.223909294071796
40
0.227433034133449
40
0.234480514256755
40
0.238004254318408
40
0.241527994380061
40
0.245051734441714
40
0.248575474503367
40
0.255622954626673
40
0.259146694688326
40
0.262670434749979
40
0.269717914873285
40
0.27676539499659
40
0.280289135058244
40
0.283812875119897
40
0.290860355243202
40
0.294384095304855
40
0.297907835366508
40
0.301431575428161
40
0.304955315489814
40
0.308479055551467
40
0.31200279561312
40
0.319050275736426
40
0.326097755859732
40
0.329621495921385
40
0.333145235983038
40
0.336668976044691
40
0.340192716106344
40
0.343716456167997
40
0.34724019622965
40
0.354287676352955
40
0.361335156476261
40
0.368382636599567
40
0.37190637666122
40
0.375430116722873
40
0.378953856784526
40
0.382477596846179
40
0.386001336907832
40
0.389525076969485
40
0.393048817031138
40
0.396572557092791
40
0.400096297154444
40
0.403620037216097
40
0.40714377727775
40
0.410667517339403
40
0.414191257401056
40
0.417714997462709
40
0.421238737524361
40
0.424762477586014
40
0.428286217647667
40
0.430048087678494
40
0.43180995770932
40
0.433571827740147
40
0.435333697770973
40
0.438857437832626
40
0.442381177894279
40
0.444143047925106
40
0.445904917955932
40
0.449428658017585
40
0.451190528048412
40
0.452952398079238
40
0.454714268110064
40
0.456476138140891
40
0.458238008171718
40
0.459999878202544
40
0.46176174823337
40
0.463523618264197
40
0.465285488295023
40
0.46704735832585
40
0.468809228356676
40
0.470571098387503
40
0.472332968418329
40
0.474094838449156
40
0.475856708479982
40
0.477618578510809
40
0.479380448541635
40
0.481142318572462
40
0.482904188603288
40
0.484666058634115
40
0.486427928664941
40
0.488189798695768
40
0.489951668726594
40
0.491713538757421
40
0.493475408788247
40
0.495237278819074
40
0.4969991488499
40
0.498761018880726
40
0.500522888911553
40
0.502284758942379
40
0.504046628973206
40
0.505808499004032
40
0.507570369034859
40
0.509332239065685
40
0.511094109096512
40
0.512855979127338
40
0.514617849158165
40
0.516379719188991
40
0.518141589219818
40
0.519903459250644
40
0.521665329281471
40
0.523427199312297
40
0.525189069343124
40
0.52695093937395
40
0.528712809404777
40
0.530474679435603
40
0.53223654946643
40
0.533998419497256
40
0.537522159558909
40
0.539284029589735
40
0.541045899620562
40
0.542807769651388
40
0.544569639682215
40
0.546331509713041
40
0.548093379743868
40
0.551617119805521
40
0.555140859867174
40
0.556902729898
40
0.558664599928827
40
0.560426469959653
40
0.56218833999048
40
0.565712080052133
40
0.569235820113785
40
0.572759560175439
40
0.576283300237091
40
0.579807040298744
40
0.583330780360397
40
0.58685452042205
40
0.590378260483703
40
0.593902000545356
40
0.597425740607009
40
0.600949480668662
40
0.604473220730315
40
0.607996960791968
40
0.611520700853621
40
0.615044440915274
40
0.618568180976927
40
0.62209192103858
40
0.629139401161886
40
0.636186881285192
40
0.643234361408497
40
0.64675810147015
40
0.650281841531803
40
0.653805581593456
40
0.657329321655109
40
0.660853061716762
40
0.664376801778415
40
0.671424281901721
40
0.678471762025027
40
0.68199550208668
40
0.685519242148333
40
0.689042982209986
40
0.692566722271639
40
0.696090462333292
40
0.699614202394945
40
0.706661682518251
40
0.710185422579903
40
0.713709162641556
40
0.720756642764863
40
0.727804122888168
40
0.731327862949821
40
0.734851603011474
40
0.74189908313478
40
0.745422823196433
40
0.748946563258086
40
0.752470303319739
40
0.755994043381392
40
0.763041523504698
40
0.766565263566351
40
0.770089003628004
40
0.773612743689656
40
0.77713648375131
40
0.784183963874615
40
0.787707703936269
40
0.791231443997921
40
0.794755184059574
40
0.798278924121227
40
0.805326404244533
40
0.808850144306186
40
0.812373884367839
40
0.815897624429492
40
0.819421364491145
40
0.826468844614451
40
0.829992584676104
40
0.833516324737757
40
0.83704006479941
40
0.840563804861063
40
0.847611284984369
40
0.851135025046022
40
0.854658765107674
40
0.858182505169327
40
0.86170624523098
40
0.868753725354286
40
0.872277465415939
40
0.875801205477592
40
0.879324945539245
40
0.882848685600898
40
0.886372425662551
40
0.889896165724204
40
0.893419905785857
40
0.89694364584751
40
0.903991125970816
40
0.907514866032469
40
0.911038606094122
40
0.918086086217428
40
0.92160982627908
40
0.925133566340733
40
0.932181046464039
40
0.935704786525693
40
0.939228526587345
40
0.942752266648998
40
0.946276006710651
40
0.953323486833957
40
0.95684722689561
40
0.960370966957263
40
0.963894707018916
40
0.967418447080569
40
0.970942187142222
40
0.974465927203875
40
0.977989667265528
40
0.981513407327181
40
0.985037147388834
40
0.988560887450487
40
0.99208462751214
40
0.995608367573792
40
0.999132107635445
40
1
40
1
40
1
40
1
41
1
10
-28.5
20
-16.857010804152
30
0
41
1
10
-28.5
20
-16.8563910912214
30
0
41
1
10
-28.5
20
-16.8542838362427
30
0
41
1
10
-28.5
20
-16.8492033090471
30
0
41
1
10
-28.5
20
-16.8407921763224
30
0
41
1
10
-28.5
20
-16.8300011251081
30
0
41
1
10
-28.5
20
-16.816867307208
30
0
41
1
10
-28.5
20
-16.8014255596809
30
0
41
1
10
-28.5
20
-16.7837098927271
30
0
41
1
10
-28.5
20
-16.7637529737167
30
0
41
1
10
-28.5
20
-16.741585550229
30
0
41
1
10
-28.5
20
-16.7172383773105
30
0
41
1
10
-28.5
20
-16.6818354096897
30
0
41
1
10
-28.5
20
-16.642411504334
30
0
41
1
10
-28.5
20
-16.5986105943247
30
0
41
1
10
-28.5
20
-16.5637763395248
30
0
41
1
10
-28.5
20
-16.5269199399481
30
0
41
1
10
-28.5
20
-16.4750169286961
30
0
41
1
10
-28.5
20
-16.4194622696319
30
0
41
1
10
-28.5
20
-16.3597332242326
30
0
41
1
10
-28.5
20
-16.2974462376793
30
0
41
1
10
-28.5
20
-16.2317181619347
30
0
41
1
10
-28.5
20
-16.1619255341458
30
0
41
1
10
-28.5
20
-16.0896767899468
30
0
41
1
10
-28.5
20
-16.0141701800502
30
0
41
1
10
-28.5
20
-15.9346970807191
30
0
41
1
10
-28.5
20
-15.8734193510279
30
0
41
1
10
-28.5
20
-15.810384423087
30
0
41
1
10
-28.5
20
-15.7456081924762
30
0
41
1
10
-28.5
20
-15.679103534252
30
0
41
1
10
-28.5
20
-15.6108850733398
30
0
41
1
10
-28.5
20
-15.5409672073329
30
0
41
1
10
-28.5
20
-15.4453363938053
30
0
41
1
10
-28.5
20
-15.3468344527491
30
0
41
1
10
-28.5
20
-15.2445501295776
30
0
41
1
10
-28.5
20
-15.1663215599361
30
0
41
1
10
-28.5
20
-15.0864673213159
30
0
41
1
10
-28.5
20
-14.9776668655465
30
0
41
1
10
-28.5
20
-14.8661866667289
30
0
41
1
10
-28.5
20
-14.7654709460418
30
0
41
1
10
-28.5
20
-14.7070919001429
30
0
41
1
10
-28.5
20
-14.6481896525931
30
0
41
1
10
-28.5
20
-14.5737935062701
30
0
41
1
10
-28.5
20
-14.4523474054459
30
0
41
1
10
-28.5
20
-14.328392039309
30
0
41
1
10
-28.5
20
-14.2007962250068
30
0
41
1
10
-28.5
20
-14.1037299370701
30
0
41
1
10
-28.5
20
-14.0051547249398
30
0
41
1
10
-28.5
20
-13.8715103854275
30
0
41
1
10
-28.5
20
-13.7355116125921
30
0
41
1
10
-28.5
20
-13.5959164434403
30
0
41
1
10
-28.5
20
-13.4899116562855
30
0
41
1
10
-28.5
20
-13.3824445445542
30
0
41
1
10
-28.5
20
-13.2369867372074
30
0
41
1
10
-28.5
20
-13.0893180117675
30
0
41
1
10
-28.5
20
-12.9380809438717
30
0
41
1
10
-28.5
20
-12.8234002933141
30
0
41
1
10
-28.5
20
-12.7072977423403
30
0
41
1
10
-28.5
20
-12.5503594172971
30
0
41
1
10
-28.5
20
-12.3913462461042
30
0
41
1
10
-28.5
20
-12.2287775174238
30
0
41
1
10
-28.5
20
-12.1056498404809
30
0
41
1
10
-28.5
20
-11.9811355648908
30
0
41
1
10
-28.5
20
-11.8130068303033
30
0
41
1
10
-28.5
20
-11.6429357656381
30
0
41
1
10
-28.5
20
-11.4693068596264
30
0
41
1
10
-28.5
20
-11.2938625632929
30
0
41
1
10
-28.5
20
-11.0718089525805
30
0
41
1
10
-28.5
20
-10.8452681286137
30
0
41
1
10
-28.5
20
-10.6608197986608
30
0
41
1
10
-28.5
20
-10.4745957936973
30
0
41
1
10
-28.5
20
-10.2866518813937
30
0
41
1
10
-28.5
20
-10.095113531911
30
0
41
1
10
-28.5
20
-9.95038952754788
30
0
41
1
10
-28.5
20
-9.80435457188474
30
0
41
1
10
-28.5
20
-9.65701506287493
30
0
41
1
10
-28.5
20
-9.50837344479851
30
0
41
1
10
-28.5
20
-9.30810991622684
30
0
41
1
10
-28.5
20
-9.05534969583792
30
0
41
1
10
-28.5
20
-8.79830467826932
30
0
41
1
10
-28.5
20
-8.5894423488798
30
0
41
1
10
-28.5
20
-8.43181570788789
30
0
41
1
10
-28.5
20
-8.27292308432649
30
0
41
1
10
-28.5
20
-8.11277014937085
30
0
41
1
10
-28.5
20
-7.95136176299604
30
0
41
1
10
-28.5
20
-7.73407184285279
30
0
41
1
10
-28.5
20
-7.46030865505762
30
0
41
1
10
-28.5
20
-7.12632144512301
30
0
41
1
10
-28.5
20
-6.84437400802861
30
0
41
1
10
-28.5
20
-6.61554357091572
30
0
41
1
10
-28.5
20
-6.4430903265563
30
0
41
1
10
-28.5
20
-6.26944357118299
30
0
41
1
10
-28.5
20
-6.09461208825527
30
0
41
1
10
-28.5
20
-5.91860495448572
30
-1.7E-15
41
1
10
-28.5
20
-5.74143237747984
30
-1.7E-15
41
1
10
-28.5
20
-5.56310445504442
30
-1.7E-15
41
1
10
-28.5
20
-5.38363156234237
30
-1.7E-15
41
1
10
-28.5
20
-5.2030267003301
30
-1.7E-15
41
1
10
-28.5
20
-5.0213044851898
30
-1.7E-15
41
1
10
-28.5
20
-4.83847943804494
30
-1.7E-15
41
1
10
-28.5
20
-4.65456683421039
30
-1.7E-15
41
1
10
-28.5
20
-4.4695846174555
30
-1.7E-15
41
1
10
-28.5
20
-4.28355297730505
30
-1.7E-15
41
1
10
-28.5
20
-4.09649259176146
30
-1.7E-15
41
1
10
-28.5
20
-3.90842799420625
30
-1.7E-15
41
1
10
-28.5
20
-3.75124942106058
30
-1.7E-15
41
1
10
-28.5
20
-3.62435506854831
30
-1.7E-15
41
1
10
-28.5
20
-3.52924322184191
30
-1.7E-15
41
1
10
-28.5
20
-3.43390157548936
30
-1.7E-15
41
1
10
-28.5
20
-3.30608709676798
30
-1.7E-15
41
1
10
-28.5
20
-3.14669074057869
30
-1.7E-15
41
1
10
-28.5
20
-2.98656948332388
30
-1.7E-15
41
1
10
-28.5
20
-2.8572942882393
30
-1.7E-15
41
1
10
-28.5
20
-2.72777279716706
30
-1.7E-15
41
1
10
-28.5
20
-2.59923374131699
30
-1.7E-15
41
1
10
-28.5
20
-2.46893613943033
30
-1.7E-15
41
1
10
-28.5
20
-2.37140757120355
30
-1.7E-15
41
1
10
-28.5
20
-2.27371679621319
30
-1.7E-15
41
1
10
-28.5
20
-2.17587292609082
30
-1.7E-15
41
1
10
-28.5
20
-2.0778804265363
30
-1.7E-15
41
1
10
-28.5
20
-1.9797500364362
30
-1.7E-15
41
1
10
-28.5
20
-1.88148718140701
30
-1.7E-15
41
1
10
-28.5
20
-1.78310084050699
30
-1.7E-15
41
1
10
-28.5
20
-1.6846006870125
30
-1.7E-15
41
1
10
-28.5
20
-1.58599188781932
30
-1.7E-15
41
1
10
-28.5
20
-1.48728656512978
30
-1.7E-15
41
1
10
-28.5
20
-1.38848913588993
30
-1.7E-15
41
1
10
-28.5
20
-1.28961134189754
30
-1.7E-15
41
1
10
-28.5
20
-1.19065859620264
30
-1.7E-15
41
1
10
-28.5
20
-1.0916407792042
30
-1.7E-15
41
1
10
-28.5
20
-0.992564112169902
30
-1.7E-15
41
1
10
-28.5
20
-0.89343688343348
30
-1.7E-15
41
1
10
-28.5
20
-0.794265459276176
30
-1.7E-15
41
1
10
-28.5
20
-0.695056784277028
30
-1.7E-15
41
1
10
-28.5
20
-0.595816495504096
30
-1.7E-15
41
1
10
-28.5
20
-0.496550594205559
30
-1.7E-15
41
1
10
-28.5
20
-0.397263840424017
30
-1.7E-15
41
1
10
-28.5
20
-0.297961388791691
30
-1.7E-15
41
1
10
-28.5
20
-0.198647127601248
30
-1.7E-15
41
1
10
-28.5
20
-0.0993254684405827
30
-1.7E-15
41
1
10
-28.5
20
5.4725149E-09
30
-1.7E-15
41
1
10
-28.5
20
0.0993254669347436
30
-1.7E-15
41
1
10
-28.5
20
0.198647102840738
30
-1.7E-15
41
1
10
-28.5
20
0.297961366795107
30
-1.7E-15
41
1
10
-28.5
20
0.397263853181812
30
-1.7E-15
41
1
10
-28.5
20
0.49655061320999
30
-1.7E-15
41
1
10
-28.5
20
0.595816468507252
30
-1.7E-15
41
1
10
-28.5
20
0.695056741362833
30
-1.7E-15
41
1
10
-28.5
20
0.794265471937166
30
-1.7E-15
41
1
10
-28.5
20
0.893436923932512
30
-1.7E-15
41
1
10
-28.5
20
0.992564090788449
30
-1.7E-15
41
1
10
-28.5
20
1.09164071478048
30
-1.7E-15
41
1
10
-28.5
20
1.19065859360987
30
-1.7E-15
41
1
10
-28.5
20
1.28961139997082
30
-1.7E-15
41
1
10
-28.5
20
1.38848914320587
30
-1.7E-15
41
1
10
-28.5
20
1.48728649469356
30
-1.7E-15
41
1
10
-28.5
20
1.58599184128096
30
-1.7E-15
41
1
10
-28.5
20
1.68460072925305
30
-1.7E-15
41
1
10
-28.5
20
1.78310090101277
30
-1.7E-15
41
1
10
-28.5
20
1.88148715614122
30
-1.7E-15
41
1
10
-28.5
20
1.97974994874616
30
-1.7E-15
41
1
10
-28.5
20
2.07788039572898
30
-1.7E-15
41
1
10
-28.5
20
2.20905952740142
30
-1.7E-15
41
1
10
-28.5
20
2.33842740009587
30
-1.7E-15
41
1
10
-28.5
20
2.46893611478751
30
-1.7E-15
41
1
10
-28.5
20
2.56629526768592
30
-1.7E-15
41
1
10
-28.5
20
2.66347976206254
30
-1.7E-15
41
1
10
-28.5
20
2.76048089001324
30
-1.7E-15
41
1
10
-28.5
20
2.85729421649611
30
-1.7E-15
41
1
10
-28.5
20
2.9865693987912
30
-1.7E-15
41
1
10
-28.5
20
3.14669072023423
30
-1.7E-15
41
1
10
-28.5
20
3.30608717079298
30
-1.7E-15
41
1
10
-28.5
20
3.43390158445521
30
-1.7E-15
41
1
10
-28.5
20
3.52924315934183
30
-1.7E-15
41
1
10
-28.5
20
3.6243549796439
30
-1.7E-15
41
1
10
-28.5
20
3.75124940963562
30
-1.7E-15
41
1
10
-28.5
20
3.90842813226232
30
-1.7E-15
41
1
10
-28.5
20
4.09649275318182
30
-1.7E-15
41
1
10
-28.5
20
4.28355302808069
30
-1.7E-15
41
1
10
-28.5
20
4.46958486845949
30
-1.7E-15
41
1
10
-28.5
20
4.65456716028004
30
-1.7E-15
41
1
10
-28.5
20
4.83847919931264
30
-1.7E-15
41
1
10
-28.5
20
5.0213042232472
30
-1.7E-15
41
1
10
-28.5
20
5.20302692387261
30
-1.7E-15
41
1
10
-28.5
20
5.38363134733163
30
-1.7E-15
41
1
10
-28.5
20
5.56310357372001
30
-1.7E-15
41
1
10
-28.5
20
5.74143189937953
30
-1.7E-15
41
1
10
-28.5
20
5.91860523667609
30
-1.7E-15
41
1
10
-28.5
20
6.09461246091772
30
0
41
1
10
-28.5
20
6.26944364545889
30
0
41
1
10
-28.5
20
6.44309029411608
30
0
41
1
10
-28.5
20
6.61554359890371
30
0
41
1
10
-28.5
20
6.84437402550569
30
0
41
1
10
-28.5
20
7.12632140637373
30
0
41
1
10
-28.5
20
7.46030866767529
30
0
41
1
10
-28.5
20
7.73407184255308
30
0
41
1
10
-28.5
20
7.9513617118449
30
0
41
1
10
-28.5
20
8.11277014047184
30
0
41
1
10
-28.5
20
8.27292311790592
30
0
41
1
10
-28.5
20
8.43181572672981
30
0
41
1
10
-28.5
20
8.58944232029054
30
0
41
1
10
-28.5
20
8.79830464348922
30
0
41
1
10
-28.5
20
9.05534970701544
30
0
41
1
10
-28.5
20
9.30810992365679
30
0
41
1
10
-28.5
20
9.50837340526911
30
0
41
1
10
-28.5
20
9.65701503611822
30
0
41
1
10
-28.5
20
9.8043545776041
30
0
41
1
10
-28.5
20
9.9503895477591
30
0
41
1
10
-28.5
20
10.0951135357909
30
0
41
1
10
-28.5
20
10.2866518533399
30
0
41
1
10
-28.5
20
10.4745957683654
30
0
41
1
10
-28.5
20
10.6608198079832
30
0
41
1
10
-28.5
20
10.8452681360072
30
0
41
1
10
-28.5
20
11.0718089327865
30
0
41
1
10
-28.5
20
11.2938625434425
30
0
41
1
10
-28.5
20
11.4693068645233
30
0
41
1
10
-28.5
20
11.642935768078
30
0
41
1
10
-28.5
20
11.8130068133241
30
0
41
1
10
-28.5
20
11.9811355431936
30
0
41
1
10
-28.5
20
12.1056498288981
30
0
41
1
10
-28.5
20
12.2287775158425
30
0
41
1
10
-28.5
20
12.3913462445321
30
0
41
1
10
-28.5
20
12.550359403554
30
0
41
1
10
-28.5
20
12.7072977235968
30
0
41
1
10
-28.5
20
12.8234002792818
30
0
41
1
10
-28.5
20
12.9380809359595
30
0
41
1
10
-28.5
20
13.0893180063072
30
0
41
1
10
-28.5
20
13.2369867267196
30
0
41
1
10
-28.5
20
13.3824445287113
30
0
41
1
10
-28.5
20
13.4899116400767
30
0
41
1
10
-28.5
20
13.5959164295663
30
0
41
1
10
-28.5
20
13.7355116027341
30
0
41
1
10
-28.5
20
13.8715103774192
30
0
41
1
10
-28.5
20
14.0051547121626
30
0
41
1
10
-28.5
20
14.1037299196573
30
0
41
1
10
-28.5
20
14.2007962111626
30
0
41
1
10
-28.5
20
14.3283920102608
30
0
41
1
10
-28.5
20
14.4523474056541
30
0
41
1
10
-28.5
20
14.5737935545692
30
0
41
1
10
-28.5
20
14.6631805593238
30
0
41
1
10
-28.5
20
14.7510047173632
30
0
41
1
10
-28.5
20
14.8661866472663
30
0
41
1
10
-28.5
20
14.9776668598204
30
0
41
1
10
-28.5
20
15.0864673138636
30
0
41
1
10
-28.5
20
15.1663215412447
30
0
41
1
10
-28.5
20
15.2445501023872
30
0
41
1
10
-28.5
20
15.3468344295442
30
0
41
1
10
-28.5
20
15.4453363897878
30
0
41
1
10
-28.5
20
15.5409672008416
30
0
41
1
10
-28.5
20
15.6108850520675
30
0
41
1
10
-28.5
20
15.6791035033831
30
0
41
1
10
-28.5
20
15.745608166167
30
0
41
1
10
-28.5
20
15.8103844132608
30
0
41
1
10
-28.5
20
15.8734193498834
30
0
41
1
10
-28.5
20
15.9346970720351
30
0
41
1
10
-28.5
20
16.0141701499498
30
0
41
1
10
-28.5
20
16.0896767577218
30
0
41
1
10
-28.5
20
16.1619255301562
30
0
41
1
10
-28.5
20
16.2317181614777
30
0
41
1
10
-28.5
20
16.2974462059125
30
0
41
1
10
-28.5
20
16.3597331913305
30
0
41
1
10
-28.5
20
16.4194622625482
30
0
41
1
10
-28.5
20
16.4750169305147
30
0
41
1
10
-28.5
20
16.5269199075572
30
0
41
1
10
-28.5
20
16.5637763020887
30
0
41
1
10
-28.5
20
16.5986105790194
30
0
41
1
10
-28.5
20
16.642411510514
30
0
41
1
10
-28.5
20
16.6818353810987
30
0
41
1
10
-28.5
20
16.7172383450784
30
0
41
1
10
-28.5
20
16.7415855338906
30
0
41
1
10
-28.5
20
16.7637529731542
30
0
41
1
10
-28.5
20
16.783709883521
30
0
41
1
10
-28.5
20
16.8014255225769
30
0
41
1
10
-28.5
20
16.8168672741156
30
0
41
1
10
-28.5
20
16.8300011209595
30
0
41
1
10
-28.5
20
16.8407921788659
30
0
41
1
10
-28.5
20
16.8492032887544
30
0
41
1
10
-28.5
20
16.8551966776124
30
0
41
1
10
-28.5
20
16.8587320876464
30
0
41
1
10
-28.5
20
16.8597682913315
30
0
41
1
10
-28.5
20
16.858640006197
30
0
41
1
10
-28.5
20
16.8573439187639
30
0
41
1
10
-28.5
20
16.8570614925847
30
0
0
SPLINE
5
CA
100
AcDbEntity
8
SK1
62
256
6
ByLayer
370
18
48
1
60
0
100
AcDbSpline
70
4
71
3
72
282
73
278
40
0
40
0
40
0
40
0
40
0.0031453555613337
40
0.0067198472232353
40
0.0102943388851369
40
0.0138688305470384
40
0.01744332220894
40
0.0210178138708416
40
0.0245923055327432
40
0.0281667971946447
40
0.0317412888565463
40
0.0353157805184479
40
0.0424647638422511
40
0.0460392555041527
40
0.0496137471660542
40
0.0531882388279558
40
0.0567627304898574
40
0.0639117138136606
40
0.0674862054755621
40
0.0710606971374637
40
0.0782096804612669
40
0.0817841721231684
40
0.08535866378507
40
0.0925076471088732
40
0.0960821387707748
40
0.0996566304326763
40
0.103231122094578
40
0.106805613756479
40
0.110380105418381
40
0.113954597080283
40
0.117529088742184
40
0.121103580404086
40
0.128252563727889
40
0.131827055389791
40
0.135401547051692
40
0.138976038713594
40
0.142550530375495
40
0.149699513699298
40
0.1532740053612
40
0.155061251192151
40
0.156848497023102
40
0.160422988685003
40
0.163997480346905
40
0.171146463670708
40
0.17472095533261
40
0.178295446994511
40
0.181869938656413
40
0.185444430318314
40
0.192593413642117
40
0.196167905304019
40
0.199742396965921
40
0.203316888627822
40
0.206891380289724
40
0.214040363613527
40
0.217614855275429
40
0.22118934693733
40
0.224763838599232
40
0.228338330261133
40
0.235487313584936
40
0.239061805246838
40
0.24263629690874
40
0.246210788570641
40
0.249785280232543
40
0.256934263556346
40
0.260508755218247
40
0.264083246880149
40
0.271232230203952
40
0.278381213527755
40
0.281955705189657
40
0.285530196851559
40
0.292679180175362
40
0.296253671837263
40
0.299828163499165
40
0.303402655161066
40
0.306977146822968
40
0.31055163848487
40
0.314126130146771
40
0.321275113470574
40
0.328424096794378
40
0.331998588456279
40
0.335573080118181
40
0.339147571780082
40
0.342722063441984
40
0.346296555103885
40
0.349871046765787
40
0.35702003008959
40
0.364169013413393
40
0.371317996737197
40
0.374892488399098
40
0.378466980060999
40
0.382041471722901
40
0.385615963384803
40
0.389190455046704
40
0.392764946708606
40
0.396339438370508
40
0.399913930032409
40
0.403488421694311
40
0.407062913356212
40
0.410637405018114
40
0.414211896680015
40
0.417786388341917
40
0.421360880003818
40
0.42493537166572
40
0.428509863327622
40
0.432084354989523
40
0.433871600820474
40
0.435658846651425
40
0.437446092482376
40
0.439233338313326
40
0.442807829975228
40
0.44638232163713
40
0.44816956746808
40
0.449956813299031
40
0.453531304960933
40
0.455318550791884
40
0.457105796622834
40
0.458893042453785
40
0.460680288284736
40
0.462467534115687
40
0.464254779946637
40
0.466042025777588
40
0.467829271608539
40
0.46961651743949
40
0.471403763270441
40
0.473191009101391
40
0.474978254932342
40
0.476765500763293
40
0.478552746594244
40
0.480339992425195
40
0.482127238256145
40
0.483914484087096
40
0.485701729918047
40
0.487488975748998
40
0.489276221579949
40
0.491063467410899
40
0.49285071324185
40
0.494637959072801
40
0.496425204903752
40
0.498212450734702
40
0.499999696565653
40
0.501786942396604
40
0.503574188227555
40
0.505361434058506
40
0.507148679889456
40
0.508935925720407
40
0.510723171551358
40
0.512510417382309
40
0.51429766321326
40
0.51608490904421
40
0.517872154875161
40
0.519659400706112
40
0.521446646537063
40
0.523233892368014
40
0.525021138198964
40
0.526808384029915
40
0.528595629860866
40
0.530382875691817
40
0.532170121522768
40
0.533957367353718
40
0.535744613184669
40
0.53753185901562
40
0.539319104846571
40
0.542893596508472
40
0.544680842339423
40
0.546468088170374
40
0.548255334001325
40
0.550042579832275
40
0.551829825663226
40
0.553617071494177
40
0.557191563156079
40
0.56076605481798
40
0.562553300648931
40
0.564340546479882
40
0.566127792310833
40
0.567915038141783
40
0.571489529803685
40
0.575064021465586
40
0.578638513127488
40
0.58221300478939
40
0.585787496451291
40
0.589361988113193
40
0.592936479775094
40
0.596510971436996
40
0.600085463098898
40
0.603659954760799
40
0.607234446422701
40
0.610808938084602
40
0.614383429746504
40
0.617957921408405
40
0.621532413070307
40
0.625106904732209
40
0.62868139639411
40
0.635830379717913
40
0.642979363041716
40
0.65012834636552
40
0.653702838027421
40
0.657277329689323
40
0.660851821351224
40
0.664426313013126
40
0.668000804675028
40
0.671575296336929
40
0.678724279660732
40
0.685873262984535
40
0.689447754646437
40
0.693022246308339
40
0.69659673797024
40
0.700171229632142
40
0.703745721294043
40
0.707320212955945
40
0.714469196279748
40
0.71804368794165
40
0.721618179603551
40
0.728767162927354
40
0.735916146251158
40
0.739490637913059
40
0.743065129574961
40
0.750214112898764
40
0.753788604560665
40
0.757363096222567
40
0.760937587884469
40
0.76451207954637
40
0.771661062870173
40
0.775235554532075
40
0.778810046193977
40
0.782384537855878
40
0.78595902951778
40
0.793108012841583
40
0.796682504503484
40
0.800256996165386
40
0.803831487827288
40
0.807405979489189
40
0.814554962812992
40
0.818129454474894
40
0.821703946136796
40
0.825278437798697
40
0.828852929460599
40
0.836001912784402
40
0.839576404446303
40
0.843150896108205
40
0.846725387770107
40
0.850299879432008
40
0.857448862755811
40
0.861023354417713
40
0.864597846079614
40
0.868172337741516
40
0.871746829403418
40
0.878895812727221
40
0.882470304389122
40
0.886044796051024
40
0.889619287712926
40
0.893193779374827
40
0.896768271036729
40
0.90034276269863
40
0.903917254360532
40
0.907491746022433
40
0.914640729346237
40
0.918215221008138
40
0.92178971267004
40
0.928938695993843
40
0.932513187655744
40
0.936087679317646
40
0.943236662641449
40
0.946811154303351
40
0.950385645965252
40
0.953960137627154
40
0.957534629289056
40
0.964683612612859
40
0.96825810427476
40
0.971832595936662
40
0.975407087598563
40
0.978981579260465
40
0.982556070922367
40
0.986130562584268
40
0.98970505424617
40
0.993279545908071
40
0.996854037569973
40
1
40
1
40
1
40
1
41
1
10
-2.19999999999999
20
-17.5147445472631
30
-1E-16
41
1
10
-2.19999999999996
20
-17.5132047624545
30
-1E-16
41
1
10
-2.19999999999999
20
-17.5092141607848
30
-1E-16
41
1
10
-2.19999999999999
20
-17.5008423321234
30
-1E-16
41
1
10
-2.19999999999999
20
-17.4896606126055
30
-1E-16
41
1
10
-2.19999999999999
20
-17.4760589706817
30
-1E-16
41
1
10
-2.19999999999999
20
-17.4600756994924
30
1E-16
41
1
10
-2.19999999999999
20
-17.4417480876219
30
1E-16
41
1
10
-2.19999999999999
20
-17.4211116738093
30
1E-16
41
1
10
-2.19999999999999
20
-17.398199993695
30
1E-16
41
1
10
-2.19999999999999
20
-17.3730462873428
30
1E-16
41
1
10
-2.19999999999999
20
-17.3365615705832
30
0
41
1
10
-2.19999999999999
20
-17.2957083328928
30
0
41
1
10
-2.19999999999999
20
-17.250613323192
30
0
41
1
10
-2.19999999999999
20
-17.2146924603873
30
0
41
1
10
-2.19999999999999
20
-17.1766986986672
30
0
41
1
10
-2.19999999999999
20
-17.123313852319
30
0
41
1
10
-2.19999999999999
20
-17.0658713913631
30
0
41
1
10
-2.19999999999999
20
-17.0044820909957
30
1E-16
41
1
10
-2.19999999999999
20
-16.9404820184079
30
1E-16
41
1
10
-2.19999999999999
20
-16.8725984731112
30
1E-16
41
1
10
-2.19999999999999
20
-16.8009296884544
30
1E-16
41
1
10
-2.19999999999999
20
-16.7267561914694
30
-1E-16
41
1
10
-2.19999999999999
20
-16.6488473199257
30
-1E-16
41
1
10
-2.19999999999999
20
-16.5672977619412
30
-1E-16
41
1
10
-2.19999999999999
20
-16.5043209901434
30
-1E-16
41
1
10
-2.19999999999999
20
-16.439549393056
30
-1E-16
41
1
10
-2.19999999999999
20
-16.3729983688048
30
-1E-16
41
1
10
-2.19999999999999
20
-16.3046816359758
30
-1E-16
41
1
10
-2.19999999999999
20
-16.2346146707391
30
-1E-16
41
1
10
-2.19999999999999
20
-16.1628111223414
30
-1E-16
41
1
10
-2.19999999999999
20
-16.0647793597711
30
-1E-16
41
1
10
-2.19999999999999
20
-15.9633135259672
30
-1E-16
41
1
10
-2.19999999999999
20
-15.8584914079188
30
-1E-16
41
1
10
-2.19999999999999
20
-15.7781982539187
30
-1E-16
41
1
10
-2.19999999999999
20
-15.6962433571227
30
-1E-16
41
1
10
-2.19999999999999
20
-15.5847743990242
30
-1E-16
41
1
10
-2.19999999999999
20
-15.4700110929875
30
-1E-16
41
1
10
-2.19999999999999
20
-15.3667724139347
30
-1E-16
41
1
10
-2.19999999999999
20
-15.3069761679616
30
-1E-16
41
1
10
-2.19999999999999
20
-15.2466455133785
30
-1E-16
41
1
10
-2.19999999999999
20
-15.1702261509224
30
-1E-16
41
1
10
-2.19999999999999
20
-15.0458464314392
30
-1E-16
41
1
10
-2.19999999999999
20
-14.9182892218295
30
-1E-16
41
1
10
-2.19999999999999
20
-14.7876243995297
30
-1E-16
41
1
10
-2.19999999999999
20
-14.6880675812844
30
-1E-16
41
1
10
-2.19999999999999
20
-14.5869647126432
30
-1E-16
41
1
10
-2.19999999999999
20
-14.4501162106047
30
-1E-16
41
1
10
-2.19999999999999
20
-14.3101885914782
30
-1E-16
41
1
10
-2.19999999999999
20
-14.1672492642274
30
-1E-16
41
1
10
-2.19999999999999
20
-14.0585319334344
30
-1E-16
41
1
10
-2.19999999999999
20
-13.9483131264862
30
-1E-16
41
1
10
-2.19999999999999
20
-13.7993681905533
30
-1E-16
41
1
10
-2.19999999999999
20
-13.6474264531923
30
-1E-16
41
1
10
-2.19999999999999
20
-13.4925540411334
30
-1E-16
41
1
10
-2.19999999999999
20
-13.3749248996582
30
-1E-16
41
1
10
-2.19999999999999
20
-13.2558316973182
30
-1E-16
41
1
10
-2.19999999999999
20
-13.0951031927999
30
-1E-16
41
1
10
-2.19999999999999
20
-12.9314463925932
30
-1E-16
41
1
10
-2.19999999999999
20
-12.7649271637091
30
-1E-16
41
1
10
-2.19999999999999
20
-12.6385945454976
30
-1E-16
41
1
10
-2.19999999999999
20
-12.510829004708
30
-1E-16
41
1
10
-2.19999999999999
20
-12.3385783781737
30
-1E-16
41
1
10
-2.19999999999999
20
-12.1634558646821
30
-1E-16
41
1
10
-2.19999999999999
20
-11.9855280067157
30
-1E-16
41
1
10
-2.19999999999999
20
-11.8057194023465
30
-1E-16
41
1
10
-2.19999999999999
20
-11.5774197477568
30
-1E-16
41
1
10
-2.19999999999999
20
-11.3444552554371
30
-1E-16
41
1
10
-2.19999999999999
20
-11.1553144582602
30
-1E-16
41
1
10
-2.19999999999999
20
-10.9643215989582
30
-1E-16
41
1
10
-2.19999999999999
20
-10.7705258416001
30
-1E-16
41
1
10
-2.19999999999999
20
-10.5740001651574
30
-1E-16
41
1
10
-2.19999999999999
20
-10.4252201002359
30
-1E-16
41
1
10
-2.19999999999999
20
-10.2750653748105
30
-1E-16
41
1
10
-2.19999999999999
20
-10.123538466054
30
-1E-16
41
1
10
-2.19999999999999
20
-9.97064123613964
30
-1E-16
41
1
10
-2.19999999999999
20
-9.76496631110049
30
-1E-16
41
1
10
-2.19999999999999
20
-9.50443394039922
30
-1E-16
41
1
10
-2.19999999999999
20
-9.23936571773672
30
-1E-16
41
1
10
-2.19999999999999
20
-9.02461799205523
30
-1E-16
41
1
10
-2.19999999999999
20
-8.86219304073114
30
-1E-16
41
1
10
-2.19999999999999
20
-8.69841428877766
30
-1E-16
41
1
10
-2.19999999999999
20
-8.53328407858575
30
-1E-16
41
1
10
-2.19999999999999
20
-8.36680341033821
30
-1E-16
41
1
10
-2.19999999999999
20
-8.14304411844034
30
-1E-16
41
1
10
-2.19999999999999
20
-7.85994708827315
30
-1E-16
41
1
10
-2.19999999999999
20
-7.51487112820209
30
-1E-16
41
1
10
-2.19999999999999
20
-7.22282328452872
30
-1E-16
41
1
10
-2.19999999999999
20
-6.98653550324826
30
-1E-16
41
1
10
-2.19999999999999
20
-6.80797159432129
30
-1E-16
41
1
10
-2.19999999999999
20
-6.62807271786153
30
-1E-16
41
1
10
-2.19999999999999
20
-6.44684092947378
30
-1E-16
41
1
10
-2.19999999999999
20
-6.26427796235188
30
-1E-16
41
1
10
-2.19999999999999
20
-6.0803860968085
30
-1E-16
41
1
10
-2.19999999999999
20
-5.89516734859464
30
-1E-16
41
1
10
-2.19999999999999
20
-5.70862461825791
30
-1E-16
41
1
10
-2.19999999999999
20
-5.52076102284181
30
-1E-16
41
1
10
-2.19999999999999
20
-5.33157993903225
30
-1E-16
41
1
10
-2.19999999999999
20
-5.14108500618136
30
-1E-16
41
1
10
-2.19999999999999
20
-4.94928076863457
30
-1E-16
41
1
10
-2.19999999999999
20
-4.75617249379653
30
-1E-16
41
1
10
-2.19999999999999
20
-4.56176617271484
30
-1E-16
41
1
10
-2.19999999999999
20
-4.36606871643775
30
-1E-16
41
1
10
-2.19999999999999
20
-4.169088511784
30
-1E-16
41
1
10
-2.19999999999999
20
-4.00386592221614
30
-1E-16
41
1
10
-2.19999999999999
20
-3.87107811616198
30
-1E-16
41
1
10
-2.19999999999999
20
-3.77116418775421
30
-1E-16
41
1
10
-2.19999999999999
20
-3.67093805397229
30
-1E-16
41
1
10
-2.19999999999999
20
-3.53690183437428
30
-1E-16
41
1
10
-2.19999999999999
20
-3.36855659963138
30
-1E-16
41
1
10
-2.19999999999999
20
-3.19919952332836
30
-1E-16
41
1
10
-2.19999999999999
20
-3.06314133551615
30
-1E-16
41
1
10
-2.19999999999999
20
-2.92668912429065
30
-1E-16
41
1
10
-2.19999999999999
20
-2.78960994504098
30
-1E-16
41
1
10
-2.19999999999999
20
-2.65200559968281
30
-1E-16
41
1
10
-2.19999999999999
20
-2.54851063247165
30
-1E-16
41
1
10
-2.19999999999999
20
-2.44473977839391
30
-1E-16
41
1
10
-2.19999999999999
20
-2.34069812940876
30
-1E-16
41
1
10
-2.19999999999999
20
-2.23639086291988
30
-1E-16
41
1
10
-2.19999999999999
20
-2.13182396747069
30
-1E-16
41
1
10
-2.19999999999999
20
-2.02700349385552
30
-1E-16
41
1
10
-2.19999999999999
20
-1.92193654804359
30
-1E-16
41
1
10
-2.19999999999999
20
-1.81663009373557
30
-1E-16
41
1
10
-2.19999999999999
20
-1.71109232444707
30
-1E-16
41
1
10
-2.19999999999999
20
-1.60533156181745
30
-1E-16
41
1
10
-2.19999999999999
20
-1.49935699380708
30
-1E-16
41
1
10
-2.19999999999999
20
-1.39317848503856
30
-1E-16
41
1
10
-2.19999999999999
20
-1.2868063464968
30
-1E-16
41
1
10
-2.19999999999999
20
-1.18025198377217
30
-1E-16
41
1
10
-2.19999999999999
20
-1.07352702949097
30
-1E-16
41
1
10
-2.19999999999999
20
-0.966644355262389
30
-1E-16
41
1
10
-2.19999999999999
20
-0.859617007920519
30
-1E-16
41
1
10
-2.19999999999999
20
-0.752459230354134
30
-1E-16
41
1
10
-2.19999999999999
20
-0.645185463980482
30
-1E-16
41
1
10
-2.19999999999999
20
-0.537811175438549
30
-1E-16
41
1
10
-2.19999999999999
20
-0.430352036900842
30
-1E-16
41
1
10
-2.19999999999999
20
-0.322824507999513
30
-1E-16
41
1
10
-2.19999999999999
20
-0.21524522393176
30
-1E-16
41
1
10
-2.19999999999999
20
-0.107631313716837
30
-1E-16
41
1
10
-2.19999999999999
20
-5.9909553E-09
30
-1E-16
41
1
10
-2.19999999999999
20
0.107631302158183
30
-1E-16
41
1
10
-2.19999999999999
20
0.215245213108545
30
-1E-16
41
1
10
-2.19999999999999
20
0.322824496958617
30
-1E-16
41
1
10
-2.19999999999999
20
0.430352024765995
30
-1E-16
41
1
10
-2.19999999999999
20
0.537811163545626
30
-1E-16
41
1
10
-2.19999999999999
20
0.645185453734172
30
-1E-16
41
1
10
-2.19999999999999
20
0.752459219961509
30
-1E-16
41
1
10
-2.19999999999999
20
0.859616995486334
30
-1E-16
41
1
10
-2.19999999999999
20
0.96664434311532
30
-1E-16
41
1
10
-2.19999999999999
20
1.073527020087
30
-1E-16
41
1
10
-2.19999999999999
20
1.18025197439016
30
-1E-16
41
1
10
-2.19999999999999
20
1.28680633401083
30
-1E-16
41
1
10
-2.19999999999999
20
1.39317847233161
30
-1E-16
41
1
10
-2.19999999999999
20
1.49935698477981
30
-1E-16
41
1
10
-2.19999999999999
20
1.60533155404698
30
-1E-16
41
1
10
-2.19999999999999
20
1.71109231328518
30
-1E-16
41
1
10
-2.19999999999999
20
1.81663008016324
30
-1E-16
41
1
10
-2.19999999999999
20
1.92193653735015
30
-1E-16
41
1
10
-2.19999999999999
20
2.02700348752293
30
-1E-16
41
1
10
-2.19999999999999
20
2.13182395998015
30
-1E-16
41
1
10
-2.19999999999999
20
2.23639085040648
30
-1E-16
41
1
10
-2.19999999999999
20
2.375450816946
30
-1E-16
41
1
10
-2.19999999999999
20
2.51402705629772
30
-1E-16
41
1
10
-2.19999999999999
20
2.65200561172494
30
-1E-16
41
1
10
-2.19999999999999
20
2.75522026664268
30
-1E-16
41
1
10
-2.19999999999999
20
2.85815023786418
30
-1E-16
41
1
10
-2.19999999999999
20
2.96079189341756
30
-1E-16
41
1
10
-2.19999999999999
20
3.06314133422208
30
-1E-16
41
1
10
-2.19999999999999
20
3.19919951970698
30
-1E-16
41
1
10
-2.19999999999999
20
3.36855658184018
30
-1E-16
41
1
10
-2.19999999999999
20
3.5369018254882
30
-1E-16
41
1
10
-2.19999999999999
20
3.67093805129474
30
-1E-16
41
1
10
-2.19999999999999
20
3.77116418570387
30
-1E-16
41
1
10
-2.19999999999999
20
3.87107810854147
30
-1E-16
41
1
10
-2.19999999999999
20
4.00386590607064
30
-1E-16
41
1
10
-2.19999999999999
20
4.16908849962459
30
-1E-16
41
1
10
-2.19999999999999
20
4.36606873641344
30
-1E-16
41
1
10
-2.19999999999999
20
4.56176620564526
30
-1E-16
41
1
10
-2.19999999999999
20
4.75617251627347
30
-1E-16
41
1
10
-2.19999999999999
20
4.94928086714648
30
-1E-16
41
1
10
-2.19999999999999
20
5.14108511996025
30
-1E-16
41
1
10
-2.19999999999999
20
5.33157993388585
30
-1E-16
41
1
10
-2.19999999999999
20
5.52076103085633
30
-1E-16
41
1
10
-2.19999999999999
20
5.70862469092603
30
-1E-16
41
1
10
-2.19999999999999
20
5.89516728223867
30
-1E-16
41
1
10
-2.19999999999999
20
6.0803858592752
30
-1E-16
41
1
10
-2.19999999999999
20
6.26427776637016
30
-1E-16
41
1
10
-2.19999999999999
20
6.44684086969582
30
-1E-16
41
1
10
-2.19999999999999
20
6.62807270531451
30
-1E-16
41
1
10
-2.19999999999999
20
6.80797157864473
30
-1E-16
41
1
10
-2.19999999999999
20
6.98653548716825
30
-1E-16
41
1
10
-2.19999999999999
20
7.22282329277962
30
-1E-16
41
1
10
-2.19999999999999
20
7.51487111531026
30
-1E-16
41
1
10
-2.19999999999999
20
7.85994707617317
30
-1E-16
41
1
10
-2.19999999999999
20
8.14304412571011
30
-1E-16
41
1
10
-2.19999999999999
20
8.36680339868337
30
-1E-16
41
1
10
-2.19999999999999
20
8.53328405958746
30
-1E-16
41
1
10
-2.19999999999999
20
8.69841428000512
30
-1E-16
41
1
10
-2.19999999999999
20
8.86219304475887
30
-1E-16
41
1
10
-2.19999999999999
20
9.02461799380217
30
-1E-16
41
1
10
-2.19999999999999
20
9.23936570098886
30
-1E-16
41
1
10
-2.19999999999999
20
9.50443392738597
30
-1E-16
41
1
10
-2.19999999999999
20
9.76496631801302
30
-1E-16
41
1
10
-2.19999999999999
20
9.97064122920807
30
-1E-16
41
1
10
-2.19999999999999
20
10.1235384488298
30
-1E-16
41
1
10
-2.19999999999999
20
10.2750653600417
30
-1E-16
41
1
10
-2.19999999999999
20
10.4252200954492
30
-1E-16
41
1
10
-2.19999999999999
20
10.5740001677826
30
-1E-16
41
1
10
-2.19999999999999
20
10.7705258372791
30
-1E-16
41
1
10
-2.19999999999999
20
10.96432157968
30
-1E-16
41
1
10
-2.19999999999999
20
11.1553144466797
30
-1E-16
41
1
10
-2.19999999999999
20
11.3444552561941
30
-1E-16
41
1
10
-2.19999999999999
20
11.5774197426994
30
-1E-16
41
1
10
-2.19999999999999
20
11.8057193844339
30
-1E-16
41
1
10
-2.19999999999999
20
11.9855279960913
30
-1E-16
41
1
10
-2.19999999999999
20
12.1634558634281
30
-1E-16
41
1
10
-2.19999999999999
20
12.3385783725546
30
-1E-16
41
1
10
-2.19999999999999
20
12.510828990928
30
-1E-16
41
1
10
-2.19999999999999
20
12.6385945304865
30
-1E-16
41
1
10
-2.19999999999999
20
12.7649271524075
30
-1E-16
41
1
10
-2.19999999999999
20
12.9314463879873
30
-1E-16
41
1
10
-2.19999999999999
20
13.0951031858018
30
-1E-16
41
1
10
-2.19999999999999
20
13.2558316845062
30
-1E-16
41
1
10
-2.19999999999999
20
13.3749248852381
30
-1E-16
41
1
10
-2.19999999999999
20
13.4925540283558
30
-1E-16
41
1
10
-2.19999999999999
20
13.6474264445925
30
-1E-16
41
1
10
-2.19999999999999
20
13.7993681823229
30
-1E-16
41
1
10
-2.19999999999999
20
13.9483131149779
30
-1E-16
41
1
10
-2.19999999999999
20
14.0585319196999
30
-1E-16
41
1
10
-2.19999999999999
20
14.1672492498436
30
-1E-16
41
1
10
-2.19999999999999
20
14.310188578504
30
-1E-16
41
1
10
-2.19999999999999
20
14.4501162009323
30
-1E-16
41
1
10
-2.19999999999999
20
14.5869647024964
30
-1E-16
41
1
10
-2.19999999999999
20
14.6880675684927
30
-1E-16
41
1
10
-2.19999999999999
20
14.7876243835494
30
-1E-16
41
1
10
-2.19999999999999
20
14.9182892137509
30
-1E-16
41
1
10
-2.19999999999999
20
15.0458463802595
30
-1E-16
41
1
10
-2.19999999999999
20
15.1702262286607
30
-1E-16
41
1
10
-2.19999999999999
20
15.2619258251736
30
-1E-16
41
1
10
-2.19999999999999
20
15.3520264687641
30
-1E-16
41
1
10
-2.19999999999999
20
15.4700110710185
30
-1E-16
41
1
10
-2.19999999999999
20
15.5847743861311
30
-1E-16
41
1
10
-2.19999999999999
20
15.6962433497342
30
-1E-16
41
1
10
-2.19999999999999
20
15.7781982427732
30
-1E-16
41
1
10
-2.19999999999999
20
15.8584913887799
30
-1E-16
41
1
10
-2.19999999999999
20
15.9633134995801
30
-1E-16
41
1
10
-2.19999999999999
20
16.0647793469533
30
-1E-16
41
1
10
-2.19999999999999
20
16.1628111167189
30
-1E-16
41
1
10
-2.19999999999999
20
16.2346146587631
30
-1E-16
41
1
10
-2.19999999999999
20
16.3046816133433
30
-1E-16
41
1
10
-2.19999999999999
20
16.3729983406747
30
-1E-16
41
1
10
-2.19999999999999
20
16.4395493732765
30
-1E-16
41
1
10
-2.19999999999999
20
16.5043209819811
30
-1E-16
41
1
10
-2.19999999999999
20
16.5672977573629
30
-1E-16
41
1
10
-2.19999999999999
20
16.6488472996884
30
-1E-16
41
1
10
-2.19999999999999
20
16.72675615712
30
-1E-16
41
1
10
-2.19999999999999
20
16.8009296734765
30
1E-16
41
1
10
-2.19999999999999
20
16.8725984751516
30
1E-16
41
1
10
-2.19999999999999
20
16.9404819965209
30
1E-16
41
1
10
-2.19999999999999
20
17.0044820563696
30
1E-16
41
1
10
-2.19999999999999
20
17.0658713749173
30
0
41
1
10
-2.19999999999999
20
17.1233138560685
30
0
41
1
10
-2.19999999999999
20
17.1766986759847
30
0
41
1
10
-2.19999999999999
20
17.2146924230801
30
0
41
1
10
-2.19999999999999
20
17.2506132986913
30
0
41
1
10
-2.19999999999999
20
17.2957083393221
30
0
41
1
10
-2.19999999999999
20
17.3365615480365
30
0
41
1
10
-2.19999999999999
20
17.373046254225
30
1E-16
41
1
10
-2.19999999999999
20
17.3981999720817
30
1E-16
41
1
10
-2.19999999999999
20
17.4211116708093
30
1E-16
41
1
10
-2.19999999999999
20
17.4417480829298
30
1E-16
41
1
10
-2.19999999999999
20
17.4600756660116
30
1E-16
41
1
10
-2.19999999999999
20
17.4760589345483
30
-1E-16
41
1
10
-2.19999999999999
20
17.4896606050755
30
-1E-16
41
1
10
-2.19999999999999
20
17.5008423359265
30
-1E-16
41
1
10
-2.19999999999996
20
17.5092146344971
30
-1E-16
41
1
10
-2.19999999999999
20
17.5132054776371
30
-1E-16
41
1
10
-2.19999999999996
20
17.5147454530225
30
-1E-16
0
SPLINE
5
CB
100
AcDbEntity
8
SK1
62
256
6
ByLayer
370
13
48
1
60
0
100
AcDbSpline
70
4
71
3
72
284
73
280
40
0
40
0
40
0
40
0
40
0.0001426006930334
40
0.0037130081987719
40
0.0072834157045104
40
0.0108538232102489
40
0.0144242307159874
40
0.0179946382217259
40
0.0215650457274644
40
0.0251354532332029
40
0.0287058607389414
40
0.0322762682446799
40
0.0358466757504184
40
0.0429874907618954
40
0.0465578982676339
40
0.0501283057733724
40
0.0536987132791109
40
0.0572691207848494
40
0.0644099357963264
40
0.0679803433020649
40
0.0715507508078034
40
0.0786915658192804
40
0.0822619733250189
40
0.0858323808307574
40
0.0929731958422344
40
0.0965436033479729
40
0.100114010853711
40
0.10368441835945
40
0.107254825865188
40
0.110825233370927
40
0.114395640876665
40
0.117966048382404
40
0.121536455888142
40
0.128677270899619
40
0.132247678405358
40
0.135818085911096
40
0.139388493416835
40
0.142958900922573
40
0.15009971593405
40
0.153670123439789
40
0.155455327192658
40
0.157240530945527
40
0.160810938451266
40
0.164381345957004
40
0.171522160968481
40
0.17509256847422
40
0.178662975979958
40
0.182233383485697
40
0.185803790991435
40
0.192944606002912
40
0.196515013508651
40
0.200085421014389
40
0.203655828520128
40
0.207226236025866
40
0.214367051037343
40
0.217937458543082
40
0.22150786604882
40
0.225078273554559
40
0.228648681060297
40
0.235789496071774
40
0.239359903577513
40
0.242930311083251
40
0.24650071858899
40
0.250071126094728
40
0.257211941106205
40
0.260782348611944
40
0.264352756117682
40
0.271493571129159
40
0.278634386140636
40
0.282204793646375
40
0.285775201152114
40
0.29291601616359
40
0.296486423669329
40
0.300056831175067
40
0.303627238680806
40
0.307197646186544
40
0.310768053692283
40
0.314338461198021
40
0.321479276209499
40
0.328620091220975
40
0.332190498726714
40
0.335760906232452
40
0.339331313738191
40
0.342901721243929
40
0.346472128749668
40
0.350042536255406
40
0.357183351266883
40
0.36432416627836
40
0.371464981289838
40
0.375035388795576
40
0.378605796301315
40
0.382176203807053
40
0.385746611312791
40
0.38931701881853
40
0.392887426324268
40
0.396457833830007
40
0.400028241335745
40
0.403598648841484
40
0.407169056347222
40
0.410739463852961
40
0.414309871358699
40
0.417880278864438
40
0.421450686370177
40
0.425021093875915
40
0.428591501381653
40
0.432161908887392
40
0.433947112640261
40
0.43573231639313
40
0.437517520146
40
0.439302723898869
40
0.442873131404607
40
0.446443538910346
40
0.448228742663215
40
0.450013946416084
40
0.453584353921823
40
0.455369557674692
40
0.457154761427562
40
0.458939965180431
40
0.4607251689333
40
0.462510372686169
40
0.464295576439039
40
0.466080780191908
40
0.467865983944777
40
0.469651187697646
40
0.471436391450516
40
0.473221595203385
40
0.475006798956254
40
0.476792002709123
40
0.478577206461992
40
0.480362410214862
40
0.482147613967731
40
0.4839328177206
40
0.485718021473469
40
0.487503225226339
40
0.489288428979208
40
0.491073632732077
40
0.492858836484946
40
0.494644040237816
40
0.496429243990685
40
0.498214447743554
40
0.499999651496423
40
0.501784855249293
40
0.503570059002162
40
0.505355262755031
40
0.5071404665079
40
0.50892567026077
40
0.510710874013639
40
0.512496077766508
40
0.514281281519377
40
0.516066485272247
40
0.517851689025116
40
0.519636892777985
40
0.521422096530854
40
0.523207300283724
40
0.524992504036593
40
0.526777707789462
40
0.528562911542331
40
0.530348115295201
40
0.53213331904807
40
0.533918522800939
40
0.535703726553808
40
0.537488930306678
40
0.539274134059547
40
0.542844541565286
40
0.544629745318155
40
0.546414949071024
40
0.548200152823893
40
0.549985356576762
40
0.551770560329632
40
0.553555764082501
40
0.55712617158824
40
0.560696579093978
40
0.562481782846847
40
0.564266986599717
40
0.566052190352586
40
0.567837394105455
40
0.571407801611193
40
0.574978209116932
40
0.578548616622671
40
0.582119024128409
40
0.585689431634147
40
0.589259839139886
40
0.592830246645624
40
0.596400654151363
40
0.599971061657102
40
0.60354146916284
40
0.607111876668578
40
0.610682284174317
40
0.614252691680055
40
0.617823099185794
40
0.621393506691532
40
0.624963914197271
40
0.628534321703009
40
0.635675136714487
40
0.642815951725964
40
0.649956766737441
40
0.653527174243179
40
0.657097581748918
40
0.660667989254656
40
0.664238396760394
40
0.667808804266133
40
0.671379211771872
40
0.678520026783349
40
0.685660841794825
40
0.689231249300564
40
0.692801656806303
40
0.696372064312041
40
0.699942471817779
40
0.703512879323518
40
0.707083286829257
40
0.714224101840733
40
0.717794509346472
40
0.72136491685221
40
0.728505731863688
40
0.735646546875165
40
0.739216954380903
40
0.742787361886642
40
0.749928176898119
40
0.753498584403857
40
0.757068991909596
40
0.760639399415334
40
0.764209806921073
40
0.77135062193255
40
0.774921029438288
40
0.778491436944026
40
0.782061844449765
40
0.785632251955504
40
0.79277306696698
40
0.796343474472719
40
0.799913881978457
40
0.803484289484196
40
0.807054696989935
40
0.814195512001411
40
0.81776591950715
40
0.821336327012889
40
0.824906734518627
40
0.828477142024366
40
0.835617957035842
40
0.839188364541581
40
0.84275877204732
40
0.846329179553058
40
0.849899587058797
40
0.857040402070273
40
0.860610809576012
40
0.864181217081751
40
0.867751624587489
40
0.871322032093228
40
0.878462847104704
40
0.882033254610443
40
0.885603662116182
40
0.88917406962192
40
0.892744477127659
40
0.896314884633397
40
0.899885292139135
40
0.903455699644874
40
0.907026107150612
40
0.91416692216209
40
0.917737329667828
40
0.921307737173567
40
0.928448552185044
40
0.932018959690782
40
0.935589367196521
40
0.942730182207998
40
0.946300589713736
40
0.949870997219475
40
0.953441404725213
40
0.957011812230952
40
0.964152627242429
40
0.967723034748167
40
0.971293442253906
40
0.974863849759644
40
0.978434257265383
40
0.982004664771121
40
0.985575072276859
40
0.989145479782598
40
0.992715887288337
40
0.996286294794075
40
0.999856702299814
40
1
40
1
40
1
40
1
41
1
10
-1.99503997793928
20
-17.3206885182378
30
-1E-16
41
1
10
-1.99503997793928
20
-17.3206247440846
30
-1E-16
41
1
10
-1.99503997793928
20
-17.3189467395548
30
-1E-16
41
1
10
-1.99503997793928
20
-17.3147637210185
30
-1E-16
41
1
10
-1.99503997793928
20
-17.3061342543252
30
-1E-16
41
1
10
-1.99503997793928
20
-17.2950677779805
30
-1E-16
41
1
10
-1.99503997793928
20
-17.2816041393821
30
-1E-16
41
1
10
-1.99503997793928
20
-17.2657806121613
30
1E-16
41
1
10
-1.99503997793928
20
-17.2476335178127
30
1E-16
41
1
10
-1.99503997793928
20
-17.2271975480507
30
1E-16
41
1
10
-1.99503997793928
20
-17.204505416066
30
1E-16
41
1
10
-1.99503997793928
20
-17.1795896288677
30
1E-16
41
1
10
-1.99503997793928
20
-17.1434240170936
30
0
41
1
10
-1.99503997793928
20
-17.1029924178939
30
0
41
1
10
-1.99503997793928
20
-17.0582791544304
30
0
41
1
10
-1.99503997793928
20
-17.0226788299273
30
0
41
1
10
-1.99503997793928
20
-16.9850205784631
30
0
41
1
10
-1.99503997793928
20
-16.9320728583858
30
0
41
1
10
-1.99503997793928
20
-16.8751872797734
30
0
41
1
10
-1.99503997793928
20
-16.8142877377232
30
1E-16
41
1
10
-1.99503997793928
20
-16.7507930080793
30
1E-16
41
1
10
-1.99503997793928
20
-16.6835453043615
30
1E-16
41
1
10
-1.99503997793928
20
-16.6124299668847
30
1E-16
41
1
10
-1.99503997793928
20
-16.538824252381
30
-1E-16
41
1
10
-1.99503997793928
20
-16.4616240235723
30
-1E-16
41
1
10
-1.99503997793928
20
-16.3806869997558
30
-1E-16
41
1
10
-1.99503997793928
20
-16.3182114280861
30
-1E-16
41
1
10
-1.99503997793928
20
-16.2539521307207
30
-1E-16
41
1
10
-1.99503997793928
20
-16.1879246525291
30
-1E-16
41
1
10
-1.99503997793928
20
-16.1201424632647
30
-1E-16
41
1
10
-1.99503997793928
20
-16.0506207879892
30
-1E-16
41
1
10
-1.99503997793928
20
-15.9793734967038
30
-1E-16
41
1
10
-1.99503997793928
20
-15.8820499896637
30
-1E-16
41
1
10
-1.99503997793928
20
-15.781458474053
30
-1E-16
41
1
10
-1.99503997793928
20
-15.677384979663
30
-1E-16
41
1
10
-1.99503997793928
20
-15.5977008570348
30
-1E-16
41
1
10
-1.99503997793928
20
-15.5163656330196
30
-1E-16
41
1
10
-1.99503997793928
20
-15.4056838559475
30
-1E-16
41
1
10
-1.99503997793928
20
-15.2918890331241
30
-1E-16
41
1
10
-1.99503997793928
20
-15.1893946011099
30
-1E-16
41
1
10
-1.99503997793928
20
-15.130016414734
30
-1E-16
41
1
10
-1.99503997793928
20
-15.070107125687
30
-1E-16
41
1
10
-1.99503997793928
20
-14.9942845913974
30
-1E-16
41
1
10
-1.99503997793928
20
-14.8707702595594
30
-1E-16
41
1
10
-1.99503997793928
20
-14.7442755571137
30
-1E-16
41
1
10
-1.99503997793928
20
-14.614516060936
30
-1E-16
41
1
10
-1.99503997793928
20
-14.5156939237825
30
-1E-16
41
1
10
-1.99503997793928
20
-14.4153366880849
30
-1E-16
41
1
10
-1.99503997793928
20
-14.2794333813788
30
-1E-16
41
1
10
-1.99503997793928
20
-14.1406647319193
30
-1E-16
41
1
10
-1.99503997793928
20
-13.99871189727
30
-1E-16
41
1
10
-1.99503997793928
20
-13.8907947392413
30
-1E-16
41
1
10
-1.99503997793928
20
-13.7813876543746
30
-1E-16
41
1
10
-1.99503997793928
20
-13.6334713858817
30
-1E-16
41
1
10
-1.99503997793928
20
-13.4827901435456
30
-1E-16
41
1
10
-1.99503997793928
20
-13.3289901210133
30
-1E-16
41
1
10
-1.99503997793928
20
-13.2122307543484
30
-1E-16
41
1
10
-1.99503997793928
20
-13.0940197637218
30
-1E-16
41
1
10
-1.99503997793928
20
-12.9344093235711
30
-1E-16
41
1
10
-1.99503997793928
20
-12.7721223466594
30
-1E-16
41
1
10
-1.99503997793928
20
-12.6067684751262
30
-1E-16
41
1
10
-1.99503997793928
20
-12.4813812819682
30
-1E-16
41
1
10
-1.99503997793928
20
-12.3545748313203
30
-1E-16
41
1
10
-1.99503997793928
20
-12.1835401209566
30
-1E-16
41
1
10
-1.99503997793928
20
-12.0099077334538
30
-1E-16
41
1
10
-1.99503997793928
20
-11.8332480225582
30
-1E-16
41
1
10
-1.99503997793928
20
-11.6547268446385
30
-1E-16
41
1
10
-1.99503997793928
20
-11.4282697094187
30
-1E-16
41
1
10
-1.99503997793928
20
-11.1972001338813
30
-1E-16
41
1
10
-1.99503997793928
20
-11.0094435667743
30
-1E-16
41
1
10
-1.99503997793928
20
-10.8198574709635
30
-1E-16
41
1
10
-1.99503997793928
20
-10.6277879483349
30
-1E-16
41
1
10
-1.99503997793928
20
-10.432733482583
30
-1E-16
41
1
10
-1.99503997793928
20
-10.2851499142426
30
-1E-16
41
1
10
-1.99503997793928
20
-10.1362104789651
30
-1E-16
41
1
10
-1.99503997793928
20
-9.98591881051331
30
-1E-16
41
1
10
-1.99503997793928
20
-9.83427694277646
30
-1E-16
41
1
10
-1.99503997793928
20
-9.6301983246166
30
-1E-16
41
1
10
-1.99503997793928
20
-9.37195865915049
30
-1E-16
41
1
10
-1.99503997793928
20
-9.10925720032841
30
-1E-16
41
1
10
-1.99503997793928
20
-8.89624560664996
30
-1E-16
41
1
10
-1.99503997793928
20
-8.73523610803539
30
-1E-16
41
1
10
-1.99503997793928
20
-8.57289871422529
30
-1E-16
41
1
10
-1.99503997793928
20
-8.40923674956807
30
-1E-16
41
1
10
-1.99503997793928
20
-8.24425235284596
30
-1E-16
41
1
10
-1.99503997793928
20
-8.02240145976876
30
-1E-16
41
1
10
-1.99503997793928
20
-7.74205781809903
30
-1E-16
41
1
10
-1.99503997793928
20
-7.40025292645402
30
-1E-16
41
1
10
-1.99503997793928
20
-7.11118459991687
30
-1E-16
41
1
10
-1.99503997793928
20
-6.87709665926303
30
-1E-16
41
1
10
-1.99503997793928
20
-6.70033533418757
30
-1E-16
41
1
10
-1.99503997793928
20
-6.52228076981257
30
-1E-16
41
1
10
-1.99503997793928
20
-6.34293700639154
30
-1E-16
41
1
10
-1.99503997793928
20
-6.16230794338162
30
-1E-16
41
1
10
-1.99503997793928
20
-5.98039819956611
30
-1E-16
41
1
10
-1.99503997793928
20
-5.79721217482029
30
-1E-16
41
1
10
-1.99503997793928
20
-5.61275497462711
30
-1E-16
41
1
10
-1.99503997793928
20
-5.42703263168386
30
-1E-16
41
1
10
-1.99503997793928
20
-5.24005183821342
30
-1E-16
41
1
10
-1.99503997793928
20
-5.05181944357969
30
-1E-16
41
1
10
-1.99503997793928
20
-4.86234315765492
30
-1E-16
41
1
10
-1.99503997793928
20
-4.67163198724225
30
-1E-16
41
1
10
-1.99503997793928
20
-4.47969611179559
30
-1E-16
41
1
10
-1.99503997793928
20
-4.28654650347451
30
-1E-16
41
1
10
-1.99503997793928
20
-4.09219631216948
30
-1E-16
41
1
10
-1.99503997793928
20
-3.92934662557204
30
-1E-16
41
1
10
-1.99503997793928
20
-3.79829732832764
30
-1E-16
41
1
10
-1.99503997793928
20
-3.69979996514493
30
-1E-16
41
1
10
-1.99503997793928
20
-3.60101470543907
30
-1E-16
41
1
10
-1.99503997793928
20
-3.46881383607317
30
-1E-16
41
1
10
-1.99503997793928
20
-3.30310842941955
30
-1E-16
41
1
10
-1.99503997793928
20
-3.13647582573117
30
-1E-16
41
1
10
-1.99503997793928
20
-3.00241855173454
30
-1E-16
41
1
10
-1.99503997793928
20
-2.86801083241156
30
-1E-16
41
1
10
-1.99503997793928
20
-2.73345090264118
30
-1E-16
41
1
10
-1.99503997793928
20
-2.59800197223717
30
-1E-16
41
1
10
-1.99503997793928
20
-2.49626703199883
30
-1E-16
41
1
10
-1.99503997793928
20
-2.39428973936722
30
-1E-16
41
1
10
-1.99503997793928
20
-2.29207637206397
30
-1E-16
41
1
10
-1.99503997793928
20
-2.18963189754737
30
-1E-16
41
1
10
-1.99503997793928
20
-2.08696370566375
30
-1E-16
41
1
10
-1.99503997793928
20
-1.98407766278629
30
-1E-16
41
1
10
-1.99503997793928
20
-1.88098142742643
30
-1E-16
41
1
10
-1.99503997793928
20
-1.77768276258209
30
-1E-16
41
1
10
-1.99503997793928
20
-1.67418896894682
30
-1E-16
41
1
10
-1.99503997793928
20
-1.57050948928742
30
-1E-16
41
1
10
-1.99503997793928
20
-1.46665210416356
30
-1E-16
41
1
10
-1.99503997793928
20
-1.36262723194542
30
-1E-16
41
1
10
-1.99503997793928
20
-1.25844373877697
30
-1E-16
41
1
10
-1.99503997793928
20
-1.15411258033262
30
-1E-16
41
1
10
-1.99503997793928
20
-1.04964379294299
30
-1E-16
41
1
10
-1.99503997793928
20
-0.945048896197648
30
-1E-16
41
1
10
-1.99503997793928
20
-0.840338966235578
30
-1E-16
41
1
10
-1.99503997793928
20
-0.735526093018507
30
-1E-16
41
1
10
-1.99503997793928
20
-0.630622120770227
30
-1E-16
41
1
10
-1.99503997793928
20
-0.525639723935797
30
-1E-16
41
1
10
-1.99503997793928
20
-0.420591355720489
30
-1E-16
41
1
10
-1.99503997793928
20
-0.315490140896543
30
-1E-16
41
1
10
-1.99503997793928
20
-0.21034895445402
30
-1E-16
41
1
10
-1.99503997793928
20
-0.10518117389941
30
-1E-16
41
1
10
-1.99503997793928
20
-2.6093687E-09
30
-1E-16
41
1
10
-1.99503997793928
20
0.105181165306249
30
-1E-16
41
1
10
-1.99503997793928
20
0.210348939519435
30
-1E-16
41
1
10
-1.99503997793928
20
0.315490126623814
30
-1E-16
41
1
10
-1.99503997793928
20
0.420591350928703
30
-1E-16
41
1
10
-1.99503997793928
20
0.525639721157262
30
-1E-16
41
1
10
-1.99503997793928
20
0.630622105582688
30
-1E-16
41
1
10
-1.99503997793928
20
0.735526073032332
30
-1E-16
41
1
10
-1.99503997793928
20
0.840338961204225
30
-1E-16
41
1
10
-1.99503997793928
20
0.945048899580655
30
-1E-16
41
1
10
-1.99503997793928
20
1.04964378000579
30
-1E-16
41
1
10
-1.99503997793928
20
1.15411255471386
30
-1E-16
41
1
10
-1.99503997793928
20
1.25844372920938
30
-1E-16
41
1
10
-1.99503997793928
20
1.36262724011792
30
-1E-16
41
1
10
-1.99503997793928
20
1.46665209995737
30
-1E-16
41
1
10
-1.99503997793928
20
1.57050946303122
30
-1E-16
41
1
10
-1.99503997793928
20
1.67418894734925
30
-1E-16
41
1
10
-1.99503997793928
20
1.77768276547397
30
-1E-16
41
1
10
-1.99503997793928
20
1.88098143773604
30
-1E-16
41
1
10
-1.99503997793928
20
1.98407765086858
30
-1E-16
41
1
10
-1.99503997793928
20
2.08696367451518
30
-1E-16
41
1
10
-1.99503997793928
20
2.18963187963746
30
-1E-16
41
1
10
-1.99503997793928
20
2.3263670801044
30
-1E-16
41
1
10
-1.99503997793928
20
2.46222694501739
30
-1E-16
41
1
10
-1.99503997793928
20
2.5980019734576
30
-1E-16
41
1
10
-1.99503997793928
20
2.69948931487846
30
-1E-16
41
1
10
-1.99503997793928
20
2.80072442890969
30
-1E-16
41
1
10
-1.99503997793928
20
2.90170218623106
30
-1E-16
41
1
10
-1.99503997793928
20
3.00241852965871
30
-1E-16
41
1
10
-1.99503997793928
20
3.13647579824178
30
-1E-16
41
1
10
-1.99503997793928
20
3.30310841087518
30
-1E-16
41
1
10
-1.99503997793928
20
3.46881385164499
30
-1E-16
41
1
10
-1.99503997793928
20
3.6010147061962
30
-1E-16
41
1
10
-1.99503997793928
20
3.69979994526253
30
-1E-16
41
1
10
-1.99503997793928
20
3.7982972967292
30
-1E-16
41
1
10
-1.99503997793928
20
3.92934661081907
30
-1E-16
41
1
10
-1.99503997793928
20
4.09219634432211
30
-1E-16
41
1
10
-1.99503997793928
20
4.28654656517494
30
-1E-16
41
1
10
-1.99503997793928
20
4.47969614999016
30
-1E-16
41
1
10
-1.99503997793928
20
4.67163207713236
30
-1E-16
41
1
10
-1.99503997793928
20
4.86234332329403
30
-1E-16
41
1
10
-1.99503997793928
20
5.05181945337139
30
-1E-16
41
1
10
-1.99503997793928
20
5.24005175731475
30
-1E-16
41
1
10
-1.99503997793928
20
5.42703270327695
30
-1E-16
41
1
10
-1.99503997793928
20
5.61275496243289
30
-1E-16
41
1
10
-1.99503997793928
20
5.79721186805691
30
-1E-16
41
1
10
-1.99503997793928
20
5.98039789106801
30
-1E-16
41
1
10
-1.99503997793928
20
6.16230788845579
30
-1E-16
41
1
10
-1.99503997793928
20
6.3429370741791
30
-1E-16
41
1
10
-1.99503997793928
20
6.52228078287743
30
-1E-16
41
1
10
-1.99503997793928
20
6.70033531356589
30
-1E-16
41
1
10
-1.99503997793928
20
6.87709665618266
30
-1E-16
41
1
10
-1.99503997793928
20
7.11118461088941
30
-1E-16
41
1
10
-1.99503997793928
20
7.40025290593451
30
-1E-16
41
1
10
-1.99503997793928
20
7.7420578132905
30
-1E-16
41
1
10
-1.99503997793928
20
8.0224014648056
30
-1E-16
41
1
10
-1.99503997793928
20
8.24425232954013
30
-1E-16
41
1
10
-1.99503997793928
20
8.40923673354897
30
-1E-16
41
1
10
-1.99503997793928
20
8.57289871794615
30
-1E-16
41
1
10
-1.99503997793928
20
8.73523611643316
30
-1E-16
41
1
10
-1.99503997793928
20
8.89624559944801
30
-1E-16
41
1
10
-1.99503997793928
20
9.1092571782612
30
-1E-16
41
1
10
-1.99503997793928
20
9.37195865327328
30
-1E-16
41
1
10
-1.99503997793928
20
9.63019833168175
30
-1E-16
41
1
10
-1.99503997793928
20
9.83427692622885
30
-1E-16
41
1
10
-1.99503997793928
20
9.98591879047714
30
-1E-16
41
1
10
-1.99503997793928
20
10.13621047024
30
-1E-16
41
1
10
-1.99503997793928
20
10.2851499168301
30
-1E-16
41
1
10
-1.99503997793928
20
10.4327334855784
30
-1E-16
41
1
10
-1.99503997793928
20
10.627787937013
30
-1E-16
41
1
10
-1.99503997793928
20
10.8198574498995
30
-1E-16
41
1
10
-1.99503997793928
20
11.00944356136
30
-1E-16
41
1
10
-1.99503997793928
20
11.1972001365959
30
-1E-16
41
1
10
-1.99503997793928
20
11.4282697000141
30
-1E-16
41
1
10
-1.99503997793928
20
11.6547268261542
30
-1E-16
41
1
10
-1.99503997793928
20
11.8332480165124
30
-1E-16
41
1
10
-1.99503997793928
20
12.0099077332894
30
-1E-16
41
1
10
-1.99503997793928
20
12.1835401119863
30
-1E-16
41
1
10
-1.99503997793928
20
12.3545748152048
30
-1E-16
41
1
10
-1.99503997793928
20
12.4813812679684
30
-1E-16
41
1
10
-1.99503997793928
20
12.606768466692
30
-1E-16
41
1
10
-1.99503997793928
20
12.7721223429484
30
-1E-16
41
1
10
-1.99503997793928
20
12.9344093145834
30
-1E-16
41
1
10
-1.99503997793928
20
13.09401974916
30
-1E-16
41
1
10
-1.99503997793928
20
13.2122307400427
30
-1E-16
41
1
10
-1.99503997793928
20
13.328990109671
30
-1E-16
41
1
10
-1.99503997793928
20
13.482790135872
30
-1E-16
41
1
10
-1.99503997793928
20
13.6334713769854
30
-1E-16
41
1
10
-1.99503997793928
20
13.7813876415877
30
-1E-16
41
1
10
-1.99503997793928
20
13.8907947247769
30
-1E-16
41
1
10
-1.99503997793928
20
13.9987118830366
30
-1E-16
41
1
10
-1.99503997793928
20
14.1406647198644
30
-1E-16
41
1
10
-1.99503997793928
20
14.2794333721973
30
-1E-16
41
1
10
-1.99503997793928
20
14.4153366771621
30
-1E-16
41
1
10
-1.99503997793928
20
14.5156939096276
30
-1E-16
41
1
10
-1.99503997793928
20
14.6145160455858
30
-1E-16
41
1
10
-1.99503997793928
20
14.7442755428493
30
-1E-16
41
1
10
-1.99503997793928
20
14.8707702235387
30
-1E-16
41
1
10
-1.99503997793928
20
14.9942846604514
30
-1E-16
41
1
10
-1.99503997793928
20
15.0853020659337
30
-1E-16
41
1
10
-1.99503997793928
20
15.1747311694574
30
-1E-16
41
1
10
-1.99503997793928
20
15.2918890118945
30
-1E-16
41
1
10
-1.99503997793928
20
15.4056838451686
30
-1E-16
41
1
10
-1.99503997793928
20
15.5163656256123
30
-1E-16
41
1
10
-1.99503997793928
20
15.5977008436634
30
-1E-16
41
1
10
-1.99503997793928
20
15.677384958149
30
-1E-16
41
1
10
-1.99503997793928
20
15.7814584486047
30
-1E-16
41
1
10
-1.99503997793928
20
15.8820499794418
30
-1E-16
41
1
10
-1.99503997793928
20
15.979373490825
30
-1E-16
41
1
10
-1.99503997793928
20
16.0506207732709
30
-1E-16
41
1
10
-1.99503997793928
20
16.1201424382026
30
-1E-16
41
1
10
-1.99503997793928
20
16.1879246249361
30
-1E-16
41
1
10
-1.99503997793928
20
16.2539521138773
30
-1E-16
41
1
10
-1.99503997793928
20
16.3182114219941
30
-1E-16
41
1
10
-1.99503997793928
20
16.3806869939664
30
-1E-16
41
1
10
-1.99503997793928
20
16.4616240004255
30
-1E-16
41
1
10
-1.99503997793928
20
16.5388242186582
30
-1E-16
41
1
10
-1.99503997793928
20
16.6124299551482
30
1E-16
41
1
10
-1.99503997793928
20
16.6835453056651
30
1E-16
41
1
10
-1.99503997793928
20
16.7507929832779
30
1E-16
41
1
10
-1.99503997793928
20
16.8142877036056
30
1E-16
41
1
10
-1.99503997793928
20
16.8751872660894
30
0
41
1
10
-1.99503997793928
20
16.9320728615657
30
0
41
1
10
-1.99503997793928
20
16.9850205529168
30
0
41
1
10
-1.99503997793928
20
17.0226787925821
30
0
41
1
10
-1.99503997793928
20
17.0582791326422
30
0
41
1
10
-1.99503997793928
20
17.1029924242496
30
0
41
1
10
-1.99503997793928
20
17.143423992764
30
0
41
1
10
-1.99503997793928
20
17.1795895960111
30
1E-16
41
1
10
-1.99503997793928
20
17.2045053960087
30
1E-16
41
1
10
-1.99503997793928
20
17.2271975457697
30
1E-16
41
1
10
-1.99503997793928
20
17.2476335117891
30
1E-16
41
1
10
-1.99503997793928
20
17.2657805776118
30
1E-16
41
1
10
-1.99503997793928
20
17.2816041041457
30
-1E-16
41
1
10
-1.99503997793928
20
17.295067771448
30
-1E-16
41
1
10
-1.99503997793928
20
17.3061342577567
30
-1E-16
41
1
10
-1.99503997793928
20
17.3147637003649
30
-1E-16
41
1
10
-1.99503997793931
20
17.3189471379633
30
-1E-16
41
1
10
-1.99503997793931
20
17.3206254013104
30
-1E-16
41
1
10
-1.99503997793931
20
17.320689481743
30
-1E-16
0
SPLINE
5
CC
100
AcDbEntity
8
SK1
62
256
6
ByLayer
370
13
48
1
60
0
100
AcDbSpline
70
4
71
3
72
102
73
98
40
0
40
0
40
0
40
0
40
0.0028041583594416
40
0.0116366782664641
40
0.0204691981734866
40
0.0293017180805091
40
0.0381342379875316
40
0.0469667578945542
40
0.0557992778015767
40
0.0646317977085992
40
0.0734643176156217
40
0.0822968375226442
40
0.0999618773366892
40
0.117626917150734
40
0.135291956964779
40
0.144124476871802
40
0.152956996778824
40
0.161789516685847
40
0.170622036592869
40
0.179454556499892
40
0.188287076406914
40
0.205952116220959
40
0.223617156035004
40
0.232449675942027
40
0.241282195849049
40
0.250114715756072
40
0.258947235663094
40
0.267779755570117
40
0.276612275477139
40
0.294277315291184
40
0.303109835198207
40
0.311942355105229
40
0.329607394919274
40
0.347272434733319
40
0.356104954640342
40
0.364937474547365
40
0.38260251436141
40
0.391435034268432
40
0.400267554175455
40
0.409100074082477
40
0.4179325939895
40
0.435597633803545
40
0.444430153710567
40
0.45326267361759
40
0.462095193524612
40
0.470927713431635
40
0.48859275324568
40
0.497425273152702
40
0.506257793059725
40
0.515090312966747
40
0.52392283287377
40
0.541587872687815
40
0.550420392594837
40
0.55925291250186
40
0.568085432408882
40
0.576917952315905
40
0.59458299212995
40
0.603415512036972
40
0.612248031943995
40
0.621080551851017
40
0.62991307175804
40
0.647578111572085
40
0.656410631479107
40
0.66524315138613
40
0.674075671293152
40
0.682908191200175
40
0.70057323101422
40
0.709405750921242
40
0.718238270828265
40
0.727070790735287
40
0.73590331064231
40
0.744735830549332
40
0.753568350456355
40
0.762400870363377
40
0.7712333902704
40
0.788898430084445
40
0.797730949991467
40
0.80656346989849
40
0.824228509712535
40
0.833061029619558
40
0.84189354952658
40
0.859558589340625
40
0.868391109247648
40
0.87722362915467
40
0.886056149061693
40
0.894888668968715
40
0.91255370878276
40
0.921386228689783
40
0.930218748596805
40
0.939051268503828
40
0.94788378841085
40
0.956716308317873
40
0.965548828224895
40
0.974381348131918
40
0.98321386803894
40
0.992046387945963
40
1
40
1
40
1
40
1
41
1
10
-0.394976888875277
20
5.38678223324203
30
0
41
1
10
-0.394976888875277
20
5.40659331253005
30
0
41
1
10
-0.394976888875277
20
5.48871675629277
30
0
41
1
10
-0.394976888875277
20
5.63252720020009
30
0
41
1
10
-0.394976888875277
20
5.81741425905383
30
0
41
1
10
-0.394976888875277
20
6.0010194773844
30
0
41
1
10
-0.394976888875277
20
6.18333822517317
30
0
41
1
10
-0.394976888875277
20
6.36436626337326
30
0
41
1
10
-0.394976888875277
20
6.54409938064705
30
0
41
1
10
-0.394976888875277
20
6.7225342898117
30
0
41
1
10
-0.394976888875277
20
6.89966739484251
30
0
41
1
10
-0.394976888875277
20
7.13420904829047
30
0
41
1
10
-0.394976888875277
20
7.42389184310318
30
0
41
1
10
-0.394976888875277
20
7.76637137475095
30
0
41
1
10
-0.394976888875277
20
8.04728288893983
30
0
41
1
10
-0.394976888875277
20
8.26952734508268
30
0
41
1
10
-0.394976888875277
20
8.43482033812748
30
0
41
1
10
-0.394976888875277
20
8.59878513251641
30
0
41
1
10
-0.394976888875277
20
8.76141979935898
30
0
41
1
10
-0.394976888875277
20
8.92272120904667
30
0
41
1
10
-0.394976888875277
20
9.13609084815204
30
0
41
1
10
-0.394976888875277
20
9.3992804435735
30
0
41
1
10
-0.394976888875277
20
9.65799297250354
30
0
41
1
10
-0.394976888875277
20
9.86240079247779
30
0
41
1
10
-0.394976888875277
20
10.0143015620689
30
0
41
1
10
-0.394976888875277
20
10.1648479968029
30
0
41
1
10
-0.394976888875277
20
10.3140380853821
30
0
41
1
10
-0.394976888875277
20
10.4618684218406
30
0
41
1
10
-0.394976888875277
20
10.6572262982852
30
0
41
1
10
-0.394976888875277
20
10.8496518299165
30
0
41
1
10
-0.394976888875277
20
11.0395280715927
30
0
41
1
10
-0.394976888875277
20
11.2275701322441
30
0
41
1
10
-0.394976888875277
20
11.4590305058839
30
0
41
1
10
-0.394976888875277
20
11.6858676336886
30
0
41
1
10
-0.394976888875277
20
11.8646543426879
30
0
41
1
10
-0.394976888875277
20
12.0415756036957
30
0
41
1
10
-0.394976888875277
20
12.2155153079022
30
0
41
1
10
-0.394976888875277
20
12.3868007822861
30
0
41
1
10
-0.394976888875277
20
12.5138050377602
30
0
41
1
10
-0.394976888875277
20
12.6393872212047
30
0
41
1
10
-0.394976888875277
20
12.8049814419576
30
0
41
1
10
-0.394976888875277
20
12.9675509274721
30
0
41
1
10
-0.394976888875277
20
13.127391952352
30
0
41
1
10
-0.394976888875277
20
13.2457848907918
30
0
41
1
10
-0.394976888875277
20
13.3627236430939
30
0
41
1
10
-0.394976888875277
20
13.5167448397425
30
0
41
1
10
-0.394976888875277
20
13.6676860465324
30
0
41
1
10
-0.394976888875277
20
13.8158144643309
30
0
41
1
10
-0.394976888875277
20
13.9253889575191
30
0
41
1
10
-0.394976888875277
20
14.0334711437704
30
0
41
1
10
-0.394976888875277
20
14.1756274353422
30
0
41
1
10
-0.394976888875277
20
14.3146351144528
30
0
41
1
10
-0.394976888875277
20
14.4507333574048
30
0
41
1
10
-0.394976888875277
20
14.5512443698349
30
0
41
1
10
-0.394976888875277
20
14.6502180265082
30
0
41
1
10
-0.394976888875277
20
14.7801642402503
30
0
41
1
10
-0.394976888875277
20
14.906878048735
30
0
41
1
10
-0.394976888875277
20
15.0305709686995
30
0
41
1
10
-0.394976888875277
20
15.1217290697223
30
0
41
1
10
-0.394976888875277
20
15.2112966721243
30
0
41
1
10
-0.394976888875277
20
15.3286250260664
30
0
41
1
10
-0.394976888875277
20
15.4426195996911
30
0
41
1
10
-0.394976888875277
20
15.553463729323
30
0
41
1
10
-0.394976888875277
20
15.6349267495635
30
0
41
1
10
-0.394976888875277
20
15.7147364711228
30
0
41
1
10
-0.394976888875277
20
15.8189643575456
30
0
41
1
10
-0.394976888875277
20
15.9197362080175
30
0
41
1
10
-0.394976888875277
20
16.0172057910894
30
0
41
1
10
-0.394976888875277
20
16.0885677968918
30
0
41
1
10
-0.394976888875277
20
16.1582019227301
30
0
41
1
10
-0.394976888875277
20
16.2260943534788
30
0
41
1
10
-0.394976888875277
20
16.2922298184193
30
0
41
1
10
-0.394976888875277
20
16.3565947837564
30
0
41
1
10
-0.394976888875277
20
16.4191737242595
30
0
41
1
10
-0.394976888875277
20
16.5002370605308
30
0
41
1
10
-0.394976888875277
20
16.577583428992
30
0
41
1
10
-0.394976888875277
20
16.6513062647865
30
0
41
1
10
-0.394976888875277
20
16.7225357594453
30
0
41
1
10
-0.394976888875277
20
16.7899145739052
30
0
41
1
10
-0.394976888875277
20
16.8535135157982
30
0
41
1
10
-0.394976888875277
20
16.9145140859045
30
0
41
1
10
-0.394976888875277
20
16.9715145338597
30
0
41
1
10
-0.394976888875277
20
17.0245523789023
30
0
41
1
10
-0.394976888875277
20
17.0622798138473
30
0
41
1
10
-0.394976888875277
20
17.0979462613767
30
0
41
1
10
-0.394976888875277
20
17.1427382851614
30
0
41
1
10
-0.394976888875277
20
17.1832568130363
30
0
41
1
10
-0.394976888875277
20
17.2194882282903
30
0
41
1
10
-0.394976888875277
20
17.2444530966284
30
0
41
1
10
-0.394976888875277
20
17.267190526317
30
0
41
1
10
-0.394976888875277
20
17.2876678324761
30
0
41
1
10
-0.394976888875277
20
17.3058521283006
30
0
41
1
10
-0.394976888875277
20
17.3217086001335
30
0
41
1
10
-0.394976888875277
20
17.3352007293143
30
0
41
1
10
-0.394976888875277
20
17.3462909837355
30
0
41
1
10
-0.394976888875249
20
17.3546524091004
30
0
41
1
10
-0.394976888875249
20
17.3586364131463
30
0
41
1
10
-0.394976888875249
20
17.3601832332343
30
0
0
SPLINE
5
CD
100
AcDbEntity
8
SK1
62
256
6
ByLayer
370
13
48
1
60
0
100
AcDbSpline
70
4
71
3
72
103
73
99
40
0
40
0
40
0
40
0
40
0.0079547677498641
40
0.0167872772301999
40
0.0256197867105358
40
0.0344522961908716
40
0.0432848056712075
40
0.0521173151515434
40
0.0609498246318792
40
0.0697823341122151
40
0.0786148435925509
40
0.0874473530728868
40
0.105112372033558
40
0.113944881513894
40
0.12277739099423
40
0.131609900474566
40
0.140442409954902
40
0.158107428915574
40
0.16693993839591
40
0.175772447876245
40
0.193437466836917
40
0.202269976317253
40
0.211102485797589
40
0.22876750475826
40
0.237600014238596
40
0.246432523718932
40
0.255265033199268
40
0.264097542679604
40
0.27293005215994
40
0.281762561640276
40
0.290595071120611
40
0.299427580600947
40
0.317092599561619
40
0.325925109041955
40
0.334757618522291
40
0.343590128002627
40
0.352422637482962
40
0.370087656443634
40
0.37892016592397
40
0.383336420664138
40
0.387752675404306
40
0.396585184884642
40
0.405417694364978
40
0.423082713325649
40
0.431915222805985
40
0.440747732286321
40
0.449580241766657
40
0.458412751246993
40
0.476077770207665
40
0.484910279688
40
0.493742789168336
40
0.502575298648672
40
0.511407808129008
40
0.52907282708968
40
0.537905336570015
40
0.546737846050351
40
0.555570355530687
40
0.564402865011023
40
0.582067883971695
40
0.590900393452031
40
0.599732902932366
40
0.608565412412702
40
0.617397921893038
40
0.63506294085371
40
0.643895450334046
40
0.652727959814382
40
0.670392978775053
40
0.688057997735725
40
0.696890507216061
40
0.705723016696397
40
0.723388035657068
40
0.732220545137404
40
0.74105305461774
40
0.749885564098076
40
0.758718073578412
40
0.767550583058748
40
0.776383092539084
40
0.794048111499755
40
0.811713130460427
40
0.820545639940763
40
0.829378149421099
40
0.838210658901435
40
0.847043168381771
40
0.855875677862106
40
0.864708187342442
40
0.882373206303114
40
0.900038225263786
40
0.917703244224457
40
0.926535753704793
40
0.935368263185129
40
0.944200772665465
40
0.953033282145801
40
0.961865791626137
40
0.970698301106472
40
0.979530810586808
40
0.988363320067144
40
0.99719582954748
40
1
40
1
40
1
40
1
41
1
10
-0.394976888875277
20
-17.3601838958525
30
0
41
1
10
-0.394976888875277
20
-17.3586369704494
30
0
41
1
10
-0.394976888875277
20
-17.354652809245
30
0
41
1
10
-0.394976888875277
20
-17.3462909802274
30
0
41
1
10
-0.394976888875277
20
-17.3352007360526
30
0
41
1
10
-0.394976888875277
20
-17.3217086355548
30
0
41
1
10
-0.394976888875277
20
-17.3058521626298
30
0
41
1
10
-0.394976888875277
20
-17.2876678382251
30
0
41
1
10
-0.394976888875277
20
-17.2671905287463
30
0
41
1
10
-0.394976888875277
20
-17.2444531170066
30
0
41
1
10
-0.394976888875277
20
-17.2194882612007
30
0
41
1
10
-0.394976888875277
20
-17.1832568369982
30
0
41
1
10
-0.394976888875277
20
-17.1427382787905
30
0
41
1
10
-0.394976888875277
20
-17.0979462837243
30
0
41
1
10
-0.394976888875277
20
-17.0622798511847
30
0
41
1
10
-0.394976888875277
20
-17.024552403858
30
0
41
1
10
-0.394976888875277
20
-16.9715145305624
30
0
41
1
10
-0.394976888875277
20
-16.9145141001581
30
0
41
1
10
-0.394976888875277
20
-16.8535135500206
30
0
41
1
10
-0.394976888875277
20
-16.7899145981056
30
0
41
1
10
-0.394976888875277
20
-16.7225357579897
30
0
41
1
10
-0.394976888875277
20
-16.6513062771915
30
0
41
1
10
-0.394976888875277
20
-16.5775834628441
30
0
41
1
10
-0.394976888875277
20
-16.5002370830775
30
0
41
1
10
-0.394976888875277
20
-16.4191737297992
30
0
41
1
10
-0.394976888875277
20
-16.3565947902754
30
0
41
1
10
-0.394976888875277
20
-16.2922298358683
30
0
41
1
10
-0.394976888875277
20
-16.2260943811825
30
0
41
1
10
-0.394976888875277
20
-16.1582019472912
30
0
41
1
10
-0.394976888875277
20
-16.0885678110446
30
0
41
1
10
-0.394976888875277
20
-16.0172057969154
30
0
41
1
10
-0.394976888875277
20
-15.9197362187748
30
0
41
1
10
-0.394976888875277
20
-15.8189643831875
30
0
41
1
10
-0.394976888875277
20
-15.7147364921469
30
0
41
1
10
-0.394976888875277
20
-15.6349267624759
30
0
41
1
10
-0.394976888875277
20
-15.5534637367265
30
0
41
1
10
-0.394976888875277
20
-15.4426196109061
30
0
41
1
10
-0.394976888875277
20
-15.3286250474485
30
0
41
1
10
-0.394976888875277
20
-15.2259771214207
30
0
41
1
10
-0.394976888875277
20
-15.1665127141503
30
0
41
1
10
-0.394976888875277
20
-15.1065165223896
30
0
41
1
10
-0.394976888875277
20
-15.0305708978545
30
0
41
1
10
-0.394976888875277
20
-14.9068780878822
30
0
41
1
10
-0.394976888875277
20
-14.780164253239
30
0
41
1
10
-0.394976888875277
20
-14.6502180419884
30
0
41
1
10
-0.394976888875277
20
-14.5512443837086
30
0
41
1
10
-0.394976888875277
20
-14.4507333681675
30
0
41
1
10
-0.394976888875277
20
-14.3146351237356
30
0
41
1
10
-0.394976888875277
20
-14.1756274475866
30
0
41
1
10
-0.394976888875277
20
-14.0334711580348
30
0
41
1
10
-0.394976888875277
20
-13.9253889718329
30
0
41
1
10
-0.394976888875277
20
-13.8158144768541
30
0
41
1
10
-0.394976888875277
20
-13.6676860552913
30
0
41
1
10
-0.394976888875277
20
-13.5167448476072
30
0
41
1
10
-0.394976888875277
20
-13.3627236547323
30
0
41
1
10
-0.394976888875277
20
-13.2457849051211
30
0
41
1
10
-0.394976888875277
20
-13.1273919665529
30
0
41
1
10
-0.394976888875277
20
-12.9675509360494
30
0
41
1
10
-0.394976888875277
20
-12.8049814458532
30
0
41
1
10
-0.394976888875277
20
-12.6393872302303
30
0
41
1
10
-0.394976888875277
20
-12.5138050519686
30
0
41
1
10
-0.394976888875277
20
-12.3868007979199
30
0
41
1
10
-0.394976888875277
20
-12.2155153161813
30
0
41
1
10
-0.394976888875277
20
-12.0415756040849
30
0
41
1
10
-0.394976888875277
20
-11.864654349678
30
0
41
1
10
-0.394976888875277
20
-11.685867652055
30
0
41
1
10
-0.394976888875277
20
-11.4590305143918
30
0
41
1
10
-0.394976888875277
20
-11.2275701299333
30
0
41
1
10
-0.394976888875277
20
-11.0395280782787
30
0
41
1
10
-0.394976888875277
20
-10.8496518506122
30
0
41
1
10
-0.394976888875277
20
-10.6572263081632
30
0
41
1
10
-0.394976888875277
20
-10.4618684189216
30
0
41
1
10
-0.394976888875277
20
-10.3140380843155
30
0
41
1
10
-0.394976888875277
20
-10.1648480067744
30
0
41
1
10
-0.394976888875277
20
-10.0143015815252
30
0
41
1
10
-0.394976888875277
20
-9.86240080704218
30
0
41
1
10
-0.394976888875277
20
-9.65799296546987
30
0
41
1
10
-0.394976888875277
20
-9.39928045092248
30
0
41
1
10
-0.394976888875277
20
-9.1360908691222
30
0
41
1
10
-0.394976888875277
20
-8.922721214403
30
0
41
1
10
-0.394976888875277
20
-8.76141979186249
30
0
41
1
10
-0.394976888875277
20
-8.59878513137221
30
0
41
1
10
-0.394976888875277
20
-8.434820354761
30
0
41
1
10
-0.394976888875277
20
-8.26952736598562
30
0
41
1
10
-0.394976888875277
20
-8.04728288344245
30
0
41
1
10
-0.394976888875277
20
-7.76637138106329
30
0
41
1
10
-0.394976888875277
20
-7.42389186204957
30
0
41
1
10
-0.394976888875277
20
-7.13420903787926
30
0
41
1
10
-0.394976888875277
20
-6.89966740060396
30
0
41
1
10
-0.394976888875277
20
-6.72253430941348
30
0
41
1
10
-0.394976888875277
20
-6.54409937286439
30
0
41
1
10
-0.394976888875277
20
-6.3643662218949
30
0
41
1
10
-0.394976888875277
20
-6.18333830919048
30
0
41
1
10
-0.394976888875277
20
-6.00101977124669
30
0
41
1
10
-0.394976888875277
20
-5.8174145162354
30
0
41
1
10
-0.394976888875277
20
-5.63252719489225
30
0
41
1
10
-0.394976888875277
20
-5.48871660168982
30
0
41
1
10
-0.394976888875277
20
-5.4065930765673
30
0
41
1
10
-0.394976888875277
20
-5.38678189578289
30
0
0
SPLINE
5
CE
100
AcDbEntity
8
SK1
62
256
6
ByLayer
370
18
48
1
60
0
100
AcDbSpline
70
4
71
3
72
20
73
16
40
0
40
0
40
0
40
0
40
0.25
40
0.25
40
0.375
40
0.375
40
0.4375
40
0.4375
40
0.5
40
0.5
40
0.75
40
0.75
40
0.875
40
0.875
40
1
40
1
40
1
40
1
41
1
10
-1.30710678118655
20
3.91806548153784
30
-1E-16
41
1
10
-1.41969318564745
20
3.29623458683111
30
-1E-16
41
1
10
-1.52084354897514
20
2.66117243128369
30
-1E-16
41
1
10
-1.63284681317131
20
1.68012366058511
30
-1E-16
41
1
10
-1.6633946240787
20
1.34828924094137
30
-1E-16
41
1
10
-1.69495092810294
20
0.841576693078707
30
-1E-16
41
1
10
-1.70306621291687
20
0.670912483956499
30
-1E-16
41
1
10
-1.71379105874195
20
0.332128346739978
30
-1E-16
41
1
10
-1.71645137733404
20
0.163332447807818
30
-1E-16
41
1
10
-1.71619101064627
20
-0.677685636180769
30
-1E-16
41
1
10
-1.67125810013107
20
-1.34087191657736
30
-1E-16
41
1
10
-1.55943898894105
20
-2.32447859217885
30
-1E-16
41
1
10
-1.51483394489833
20
-2.6512039966245
30
-1E-16
41
1
10
-1.41687703207163
20
-3.29188260724433
30
-1E-16
41
1
10
-1.36340682815234
20
-3.60711221095696
30
-1E-16
41
1
10
-1.30710678118655
20
-3.91806548057698
30
-1E-16
0
SPLINE
5
CF
100
AcDbEntity
8
SK1
62
256
6
ByLayer
370
18
48
1
60
0
100
AcDbSpline
70
4
71
3
72
24
73
20
40
0
40
0
40
0
40
0
40
0.03125
40
0.03125
40
0.0625000000000001
40
0.0625000000000001
40
0.0937500000000001
40
0.0937500000000001
40
0.125
40
0.125
40
0.1875
40
0.1875
40
0.25
40
0.25
40
0.5
40
0.5
40
0.75
40
0.75
40
1
40
1
40
1
40
1
41
1
10
-0.394976888872947
20
5.38678223324206
30
0
41
1
10
-0.388503745329047
20
5.38128319480973
30
0
41
1
10
-0.381388986847981
20
5.37647349151379
30
0
41
1
10
-0.365645130729518
20
5.37003095057869
30
0
41
1
10
-0.356875018489433
20
5.3685255918283
30
0
41
1
10
-0.339464630966944
20
5.37101783691438
30
0
41
1
10
-0.33098524294985
20
5.37503833637226
30
0
41
1
10
-0.316510652821108
20
5.38583151921279
30
0
41
1
10
-0.310292654930208
20
5.39251318392274
30
0
41
1
10
-0.293803612204783
20
5.41390802600506
30
0
41
1
10
-0.285544077573888
20
5.42989034626171
30
0
41
1
10
-0.271326596659975
20
5.46242047093597
30
0
41
1
10
-0.265514310429921
20
5.47895729783241
30
0
41
1
10
-0.239827472074296
20
5.56231823892315
30
0
41
1
10
-0.229021554777006
20
5.63115874840238
30
0
41
1
10
-0.212565919448906
20
5.76699630063501
30
0
41
1
10
-0.207636724466027
20
5.8346241685793
30
0
41
1
10
-0.20131057749208
20
5.96939105744727
30
0
41
1
10
-0.200000000000358
20
6.03652860978244
30
0
41
1
10
-0.200000000000358
20
6.10344667966001
30
0
0
SPLINE
5
D0
100
AcDbEntity
8
SK1
62
256
6
ByLayer
370
18
48
1
60
0
100
AcDbSpline
70
4
71
3
72
26
73
22
40
0
40
0
40
0
40
0
40
0.250000000000002
40
0.250000000000002
40
0.500000000000004
40
0.500000000000004
40
0.625000000000003
40
0.625000000000003
40
0.750000000000002
40
0.750000000000002
40
0.812500000000002
40
0.812500000000002
40
0.875000000000001
40
0.875000000000001
40
0.906250000000001
40
0.906250000000001
40
0.937500000000001
40
0.937500000000001
40
0.96875
40
0.96875
40
1
40
1
40
1
40
1
41
1
10
-0.199999999999989
20
-6.10344849123027
30
0
41
1
10
-0.199999999999989
20
-6.03658343849222
30
0
41
1
10
-0.201307915401514
20
-5.96945919325967
30
0
41
1
10
-0.207636972094093
20
-5.8346088643938
30
0
41
1
10
-0.212579850553368
20
-5.76680281418172
30
0
41
1
10
-0.224951590332722
20
-5.66479408005202
30
0
41
1
10
-0.229904281870233
20
-5.6308003160577
30
0
41
1
10
-0.242521523471169
20
-5.56290531314943
30
0
41
1
10
-0.250117086737561
20
-5.52896458934296
30
0
41
1
10
-0.265414899342318
20
-5.47925984090531
30
0
41
1
10
-0.271171206812255
20
-5.4628674131271
30
0
41
1
10
-0.285126828250412
20
-5.43075649789989
30
0
41
1
10
-0.293370777796042
20
-5.41464883184736
30
0
41
1
10
-0.309754325583356
20
-5.39312762647262
30
0
41
1
10
-0.315906755851444
20
-5.38639867120833
30
0
41
1
10
-0.33043328177348
20
-5.37534138513305
30
0
41
1
10
-0.338822824507901
20
-5.37123289411582
30
0
41
1
10
-0.356328976513879
20
-5.36848804676441
30
0
41
1
10
-0.365355266428651
20
-5.36994612574296
30
0
41
1
10
-0.381274177460824
20
-5.37639293798046
30
0
41
1
10
-0.3884397087092
20
-5.38122846522199
30
0
41
1
10
-0.394976888875334
20
-5.38678189578178
30
0
0
LINE
5
72
100
AcDbEntity
8
81
62
256
6
ByLayer
370
18
48
1
60
0
100
AcDbLine
10
150
20
0
30
0
11
152.367097
21
0
31
0
39
0
210
0
220
0
230
1
0
LINE
5
73
100
AcDbEntity
8
1
62
256
6
ByLayer
370
18
48
1
60
0
100
AcDbLine
10
0.3
20
25
30
0
11
0
21
24.7
31
0
39
0
210
0
220
0
230
1
0
LINE
5
74
100
AcDbEntity
8
80
62
256
6
ByLayer
370
18
48
1
60
0
100
AcDbLine
10
0
20
0
30
0
11
-6.08897
21
0
31
0
39
0
210
0
220
0
230
1
0
LINE
5
75
100
AcDbEntity
8
4
62
256
6
ByLayer
370
18
48
0.05
60
0
100
AcDbLine
10
0
20
0
30
0
11
150
21
0
31
0
39
0
210
0
220
0
230
1
0
LINE
5
77
100
AcDbEntity
8
1
62
256
6
ByLayer
370
18
48
1
60
0
100
AcDbLine
10
0
20
-24.7
30
0
11
0.3
21
-25
31
0
39
0
210
0
220
0
230
1
0
LINE
5
78
100
AcDbEntity
8
1
62
256
6
ByLayer
370
18
48
1
60
0
100
AcDbLine
10
0.3
20
-25
30
0
11
20.770699
21
-25
31
0
39
0
210
0
220
0
230
1
0
LINE
5
79
100
AcDbEntity
8
1
62
256
6
ByLayer
370
18
48
1
60
0
100
AcDbLine
10
20.770699
20
25
30
0
11
0.3
21
25
31
0
39
0
210
0
220
0
230
1
0
LINE
5
7A
100
AcDbEntity
8
1
62
256
6
ByLayer
370
18
48
1
60
0
100
AcDbLine
10
20.829222
20
-24.997857
30
0
11
142
21
-16.109879
31
0
39
0
210
0
220
0
230
1
0
LINE
5
7B
100
AcDbEntity
8
1
62
256
6
ByLayer
370
18
48
1
60
0
100
AcDbLine
10
142
20
16.109879
30
0
11
20.829222
21
24.997857
31
0
39
0
210
0
220
0
230
1
0
LINE
5
7C
100
AcDbEntity
8
1
62
256
6
ByLayer
370
18
48
1
60
0
100
AcDbLine
10
149.7
20
-16
30
0
11
150
21
-15.7
31
0
39
0
210
0
220
0
230
1
0
LINE
5
7D
100
AcDbEntity
8
1
62
256
6
ByLayer
370
18
48
1
60
0
100
AcDbLine
10
150
20
15.7
30
0
11
149.7
21
16
31
0
39
0
210
0
220
0
230
1
0
LINE
5
7E
100
AcDbEntity
8
SK1
62
256
6
ByLayer
370
18
48
1
60
0
100
AcDbLine
10
152.85
20
6
30
0
11
150
21
6
31
0
39
0
210
0
220
0
230
1
0
LINE
5
80
100
AcDbEntity
8
SK1
62
256
6
ByLayer
370
18
48
1
60
0
100
AcDbLine
10
150
20
-6
30
0
11
152.85
21
-6
31
0
39
0
210
0
220
0
230
1
0
LINE
5
81
100
AcDbEntity
8
SK1
62
256
6
ByLayer
370
18
48
1
60
0
100
AcDbLine
10
152.85
20
-6
30
0
11
154.05
21
-4.8
31
0
39
0
210
0
220
0
230
1
0
LINE
5
82
100
AcDbEntity
8
SK1
62
256
6
ByLayer
370
18
48
1
60
0
100
AcDbLine
10
154.05
20
4.8
30
0
11
152.85
21
6
31
0
39
0
210
0
220
0
230
1
0
LINE
5
83
100
AcDbEntity
8
1
62
256
6
ByLayer
370
18
48
1
60
0
100
AcDbLine
10
145
20
-16
30
0
11
149.7
21
-16
31
0
39
0
210
0
220
0
230
1
0
LINE
5
84
100
AcDbEntity
8
1
62
256
6
ByLayer
370
18
48
1
60
0
100
AcDbLine
10
149.7
20
16
30
0
11
145
21
16
31
0
39
0
210
0
220
0
230
1
0
LINE
5
85
100
AcDbEntity
8
SK4
62
256
6
ByLayer
370
18
48
0.05
60
0
100
AcDbLine
10
-35
20
0
30
0
11
155
21
0
31
0
39
0
210
0
220
0
230
1
0
LINE
5
87
100
AcDbEntity
8
SK1
62
256
6
ByLayer
370
18
48
1
60
0
100
AcDbLine
10
152.85
20
6
30
0
11
152.85
21
-6
31
0
39
0
210
0
220
0
230
1
0
LINE
5
88
100
AcDbEntity
8
SK1
62
256
6
ByLayer
370
18
48
1
60
0
100
AcDbLine
10
154.05
20
4.8
30
0
11
154.05
21
-4.8
31
0
39
0
210
0
220
0
230
1
0
LINE
5
89
100
AcDbEntity
8
1
62
256
6
ByLayer
370
18
48
1
60
0
100
AcDbLine
10
8.538675
20
7.529667
30
0
11
11.461325
21
7.529667
31
0
39
0
210
0
220
0
230
1
0
LINE
5
8A
100
AcDbEntity
8
1
62
256
6
ByLayer
370
13
48
1
60
0
100
AcDbLine
10
8.105662
20
-8.055848
30
0
11
8.105662
21
-23.666502
31
0
39
0
210
0
220
0
230
1
0
LINE
5
8B
100
AcDbEntity
8
1
62
256
6
ByLayer
370
13
48
1
60
0
100
AcDbLine
10
8.538675
20
23.83913
30
0
11
8.538675
21
7.529667
31
0
39
0
210
0
220
0
230
1
0
LINE
5
8C
100
AcDbEntity
8
1
62
256
6
ByLayer
370
13
48
1
60
0
100
AcDbLine
10
8.538675
20
-7.529667
30
0
11
8.538675
21
-23.83913
31
0
39
0
210
0
220
0
230
1
0
LINE
5
8D
100
AcDbEntity
8
1
62
256
6
ByLayer
370
18
48
1
60
0
100
AcDbLine
10
149.7
20
0
30
0
11
149.7
21
16
31
0
39
0
210
0
220
0
230
1
0
LINE
5
8E
100
AcDbEntity
8
1
62
256
6
ByLayer
370
18
48
1
60
0
100
AcDbLine
10
149.7
20
-16
30
0
11
149.7
21
0
31
0
39
0
210
0
220
0
230
1
0
LINE
5
8F
100
AcDbEntity
8
1
62
256
6
ByLayer
370
18
48
1
60
0
100
AcDbLine
10
8.538675
20
-23.83913
30
0
11
11.461325
21
-23.83913
31
0
39
0
210
0
220
0
230
1
0
LINE
5
90
100
AcDbEntity
8
1
62
256
6
ByLayer
370
18
48
1
60
0
100
AcDbLine
10
11.461325
20
23.83913
30
0
11
8.538675
21
23.83913
31
0
39
0
210
0
220
0
230
1
0
LINE
5
91
100
AcDbEntity
8
1
62
256
6
ByLayer
370
18
48
1
60
0
100
AcDbLine
10
11.461325
20
-7.529667
30
0
11
8.538675
21
-7.529667
31
0
39
0
210
0
220
0
230
1
0
LINE
5
92
100
AcDbEntity
8
1
62
256
6
ByLayer
370
13
48
1
60
0
100
AcDbLine
10
11.894338
20
-8.055848
30
0
11
11.894338
21
-23.666502
31
0
39
0
210
0
220
0
230
1
0
LINE
5
93
100
AcDbEntity
8
1
62
256
6
ByLayer
370
13
48
1
60
0
100
AcDbLine
10
11.461325
20
-7.529667
30
0
11
11.461325
21
-23.83913
31
0
39
0
210
0
220
0
230
1
0
LINE
5
94
100
AcDbEntity
8
1
62
256
6
ByLayer
370
13
48
1
60
0
100
AcDbLine
10
8.105662
20
23.666502
30
0
11
8.105662
21
8.055848
31
0
39
0
210
0
220
0
230
1
0
LINE
5
95
100
AcDbEntity
8
1
62
256
6
ByLayer
370
13
48
1
60
0
100
AcDbLine
10
20.829222
20
24.997857
30
0
11
20.829222
21
-24.997857
31
0
39
0
210
0
220
0
230
1
0
LINE
5
96
100
AcDbEntity
8
1
62
256
6
ByLayer
370
18
48
1
60
0
100
AcDbLine
10
150
20
0
30
0
11
150
21
15.7
31
0
39
0
210
0
220
0
230
1
0
LINE
5
97
100
AcDbEntity
8
1
62
256
6
ByLayer
370
18
48
1
60
0
100
AcDbLine
10
150
20
-15.7
30
0
11
150
21
0
31
0
39
0
210
0
220
0
230
1
0
LINE
5
98
100
AcDbEntity
8
1
62
256
6
ByLayer
370
13
48
1
60
0
100
AcDbLine
10
20.770699
20
0
30
0
11
20.770699
21
25
31
0
39
0
210
0
220
0
230
1
0
LINE
5
99
100
AcDbEntity
8
1
62
256
6
ByLayer
370
13
48
1
60
0
100
AcDbLine
10
20.770699
20
-25
30
0
11
20.770699
21
0
31
0
39
0
210
0
220
0
230
1
0
LINE
5
9A
100
AcDbEntity
8
1
62
256
6
ByLayer
370
18
48
1
60
0
100
AcDbLine
10
0
20
0
30
0
11
0
21
24.7
31
0
39
0
210
0
220
0
230
1
0
LINE
5
9B
100
AcDbEntity
8
1
62
256
6
ByLayer
370
18
48
1
60
0
100
AcDbLine
10
0
20
-24.7
30
0
11
0
21
0
31
0
39
0
210
0
220
0
230
1
0
LINE
5
9C
100
AcDbEntity
8
1
62
256
6
ByLayer
370
13
48
1
60
0
100
AcDbLine
10
145
20
-16
30
0
11
145
21
16
31
0
39
0
210
0
220
0
230
1
0
LINE
5
9D
100
AcDbEntity
8
1
62
256
6
ByLayer
370
13
48
1
60
0
100
AcDbLine
10
11.894338
20
23.666502
30
0
11
11.894338
21
8.055848
31
0
39
0
210
0
220
0
230
1
0
LINE
5
9E
100
AcDbEntity
8
1
62
256
6
ByLayer
370
13
48
1
60
0
100
AcDbLine
10
142
20
0
30
0
11
142
21
16.109879
31
0
39
0
210
0
220
0
230
1
0
LINE
5
9F
100
AcDbEntity
8
1
62
256
6
ByLayer
370
13
48
1
60
0
100
AcDbLine
10
142
20
-16.109879
30
0
11
142
21
0
31
0
39
0
210
0
220
0
230
1
0
LINE
5
A0
100
AcDbEntity
8
1
62
256
6
ByLayer
370
13
48
1
60
0
100
AcDbLine
10
11.461325
20
23.83913
30
0
11
11.461325
21
7.529667
31
0
39
0
210
0
220
0
230
1
0
LINE
5
A1
100
AcDbEntity
8
1
62
256
6
ByLayer
370
18
48
1
60
0
100
AcDbLine
10
0.3
20
0
30
0
11
0.3
21
25
31
0
39
0
210
0
220
0
230
1
0
LINE
5
A2
100
AcDbEntity
8
1
62
256
6
ByLayer
370
18
48
1
60
0
100
AcDbLine
10
0.3
20
-25
30
0
11
0.3
21
0
31
0
39
0
210
0
220
0
230
1
0
LINE
5
A3
100
AcDbEntity
8
SK1
62
256
6
ByLayer
370
18
48
1
60
0
100
AcDbLine
10
-1.99504
20
-17.325157
30
0
11
-1.99504
21
-17.320689
31
0
39
0
210
0
220
0
230
1
0
LINE
5
A4
100
AcDbEntity
8
SK1
62
256
6
ByLayer
370
18
48
1
60
0
100
AcDbLine
10
-1.99504
20
17.320689
30
0
11
-1.99504
21
17.32516
31
0
39
0
210
0
220
0
230
1
0
LINE
5
A5
100
AcDbEntity
8
SK1
62
256
6
ByLayer
370
18
48
1
60
0
100
AcDbLine
10
-0.394977
20
17.360184
30
0
11
-0.394977
21
17.362572
31
0
39
0
210
0
220
0
230
1
0
LINE
5
A6
100
AcDbEntity
8
SK1
62
256
6
ByLayer
370
18
48
1
60
0
100
AcDbLine
10
-0.394977
20
-17.36241
30
0
11
-0.394977
21
-17.360184
31
0
39
0
210
0
220
0
230
1
0
LINE
5
A7
100
AcDbEntity
8
SK1
62
256
6
ByLayer
370
18
48
1
60
0
100
AcDbLine
10
-0.2
20
6.103447
30
0
11
-0.2
21
17.833485
31
0
39
0
210
0
220
0
230
1
0
LINE
5
A8
100
AcDbEntity
8
SK1
62
256
6
ByLayer
370
13
48
1
60
0
100
AcDbLine
10
-1.307107
20
-3.918065
30
0
11
-1.307107
21
3.918065
31
0
39
0
210
0
220
0
230
1
0
LINE
5
A9
100
AcDbEntity
8
SK1
62
256
6
ByLayer
370
18
48
1
60
0
100
AcDbLine
10
-0.2
20
-17.833485
30
0
11
-0.2
21
-6.103448
31
0
39
0
210
0
220
0
230
1
0
MTEXT
5
D1
100
AcDbEntity
8
SK6
62
256
6
ByLayer
370
18
48
1
60
0
100
AcDbMText
10
0.875
20
-40.875
30
0
210
0
220
0
230
1
1
\W0.7044;C5-391.02-32150
40
3.5
41
0
44
1.084337
50
0
71
7
72
5
7
iso_b_vert
0
DIMENSION
5
DF
100
AcDbEntity
8
SK2
62
256
6
ByLayer
370
13
48
1
60
0
100
AcDbDimension
2
DimnDraft3D1
10
20
20
31.6
30
0
11
7.955263
21
31.6
31
0
70
32
71
5
72
1
41
1
210
0
220
0
230
1
3
Standard
100
AcDbAlignedDimension
13
0
23
26.5875
33
0
14
20
24
26.5875
34
0
50
0
100
AcDbRotatedDimension
1001
ACAD
1000
DSTYLE
1002
{
1070
   279
1070
     0
1070
   172
1070
     1
1070
   173
1070
     1
1070
   340
1005
D2
1070
   271
1070
     1
1070
   272
1070
     2
1070
    77
1070
     1
1070
    73
1070
     0
1070
   171
1070
     3
1070
   274
1070
     4
1070
   177
1070
     2
1070
   176
1070
     2
1070
   178
1070
     2
1070
    78
1070
     8
1070
    48
1040
-0.005
1070
    41
1041
3.5
1070
   147
1041
1.75
1070
    42
1041
1.5875
1070
    44
1041
2.0
1070
   140
1041
3.5
1070
   343
1005
0
1070
   344
1005
0
1002
}
0
DIMENSION
5
E9
100
AcDbEntity
8
SK2
62
256
6
ByLayer
370
13
48
1
60
0
100
AcDbDimension
2
DimnDraft3D2
10
145
20
41.6
30
0
11
146.740132
21
41.6
31
0
70
32
71
5
72
1
41
1
210
0
220
0
230
1
3
Standard
100
AcDbAlignedDimension
13
150
23
17.5875
33
0
14
145
24
17.5875
34
0
50
0
100
AcDbRotatedDimension
1001
ACAD
1000
DSTYLE
1002
{
1070
   279
1070
     0
1070
   172
1070
     1
1070
   173
1070
     1
1070
   340
1005
D2
1070
   271
1070
     1
1070
   272
1070
     2
1070
    77
1070
     1
1070
    73
1070
     0
1070
   171
1070
     3
1070
   274
1070
     4
1070
   177
1070
     2
1070
   176
1070
     2
1070
   178
1070
     2
1070
    78
1070
     8
1070
    48
1040
-0.005
1070
    41
1041
3.5
1070
   147
1041
1.75
1070
    42
1041
1.5875
1070
    44
1041
2.0
1070
   140
1041
3.5
1070
   343
1005
0
1070
   344
1005
0
1002
}
0
DIMENSION
5
F4
100
AcDbEntity
8
2
62
256
6
ByLayer
370
13
48
1
60
0
100
AcDbDimension
2
DimnDraft3D3
10
0
20
51.6
30
0
11
72.107895
21
51.6
31
0
70
32
71
5
72
1
41
1
210
0
220
0
230
1
3
Standard
100
AcDbAlignedDimension
13
150
23
17.5875
33
0
14
0
24
26.5875
34
0
50
0
100
AcDbRotatedDimension
1001
ACAD
1000
DSTYLE
1002
{
1070
   279
1070
     0
1070
   172
1070
     1
1070
   173
1070
     1
1070
   340
1005
D2
1070
   271
1070
     1
1070
   272
1070
     2
1070
    77
1070
     1
1070
    73
1070
     0
1070
   171
1070
     3
1070
   274
1070
     4
1070
   177
1070
     2
1070
   176
1070
     2
1070
   178
1070
     2
1070
    78
1070
     8
1070
    48
1040
-0.005
1070
    41
1041
3.5
1070
   147
1041
1.75
1070
    42
1041
1.5875
1070
    44
1041
2.0
1070
   140
1041
3.5
1070
   343
1005
0
1070
   344
1005
0
1002
}
0
DIMENSION
5
FE
100
AcDbEntity
8
SK2
62
256
6
ByLayer
370
13
48
1
60
0
100
AcDbDimension
2
DimnDraft3D4
10
0
20
51.6
30
0
11
-17.090789
21
51.6
31
0
70
32
71
5
72
1
41
1
210
0
220
0
230
1
3
Standard
100
AcDbAlignedDimension
13
-30
23
19.0875
33
0
14
0
24
26.5875
34
0
50
0
100
AcDbRotatedDimension
1001
ACAD
1000
DSTYLE
1002
{
1070
   279
1070
     0
1070
   172
1070
     1
1070
   173
1070
     1
1070
   340
1005
D2
1070
   271
1070
     1
1070
   272
1070
     2
1070
    77
1070
     1
1070
    73
1070
     0
1070
   171
1070
     3
1070
   274
1070
     4
1070
   177
1070
     2
1070
   176
1070
     2
1070
   178
1070
     2
1070
    78
1070
     8
1070
    48
1040
-0.005
1070
    41
1041
3.5
1070
   147
1041
1.75
1070
    42
1041
1.5875
1070
    44
1041
2.0
1070
   140
1041
3.5
1070
   343
1005
0
1070
   344
1005
0
1002
}
0
DIMENSION
5
109
100
AcDbEntity
8
SK2
62
256
6
ByLayer
370
13
48
1
60
0
100
AcDbDimension
2
DimnDraft3D5
10
-53.6
20
-25
30
0
11
-54.225
21
1.455263
31
0
70
33
71
5
72
1
41
1
210
0
220
0
230
1
3
Standard
100
AcDbAlignedDimension
13
-1.5875
23
25
33
0
14
-1.5875
24
-25
34
0
1001
ACAD
1000
DSTYLE
1002
{
1070
   279
1070
     0
1070
    74
1070
     0
1070
   173
1070
     1
1070
   340
1005
D2
1070
   271
1070
     1
1070
   272
1070
     2
1070
    77
1070
     1
1070
    73
1070
     0
1070
   171
1070
     3
1070
   274
1070
     4
1070
   177
1070
     2
1070
   176
1070
     2
1070
   178
1070
     2
1070
    78
1070
     8
1070
    48
1040
-0.005
1070
    41
1041
3.5
1070
   147
1041
1.75
1070
    42
1041
1.5875
1070
    44
1041
2.0
1070
   140
1041
3.5
1070
   343
1005
0
1070
   344
1005
0
1002
}
0
DIMENSION
5
114
100
AcDbEntity
8
SK2
62
256
6
ByLayer
370
13
48
1
60
0
100
AcDbDimension
2
DimnDraft3D6
10
177.1
20
-16
30
0
11
172.475
21
1.455263
31
0
70
33
71
5
72
1
41
1
210
0
220
0
230
1
3
Standard
100
AcDbAlignedDimension
13
151.5875
23
16
33
0
14
151.5875
24
-16
34
0
1001
ACAD
1000
DSTYLE
1002
{
1070
   279
1070
     0
1070
    74
1070
     0
1070
   173
1070
     1
1070
   340
1005
D2
1070
   271
1070
     1
1070
   272
1070
     2
1070
    77
1070
     1
1070
    73
1070
     0
1070
   171
1070
     3
1070
   274
1070
     4
1070
   177
1070
     2
1070
   176
1070
     2
1070
   178
1070
     2
1070
    78
1070
     8
1070
    48
1040
-0.005
1070
    41
1041
3.5
1070
   147
1041
1.75
1070
    42
1041
1.5875
1070
    44
1041
2.0
1070
   140
1041
3.5
1070
   343
1005
0
1070
   344
1005
0
1002
}
0
ENDSEC
0
SECTION
2
OBJECTS
0
DICTIONARY
5
17f
330
0
100
AcDbDictionary
280
0
281
1
3
ACAD_GROUP
350
180
3
ACAD_MLINESTYLE
350
181
0
DICTIONARY
5
180
330
0
100
AcDbDictionary
280
0
281
1
0
DICTIONARY
5
181
330
0
100
AcDbDictionary
280
0
281
1
3
Standard
350
18
0
MLINESTYLE
5
18
330
181
100
AcDbMlineStyle
2
Standard
70
0
3

62
256
51
90
52
90
71
2
49
-0.5
62
256
6
ByLayer
49
0.5
62
256
6
ByLayer
0
RASTERVARIABLES
5
16d
330

100
AcDbRasterVariables
90
0
70
1
71
1
72
1
0
ENDSEC
0
EOF
