0
SECTION
2
HEADER
9
$ACADVER
1
AC1015
9
$DWGCODEPAGE
3
ANSI_1252
9
$HANDSEED
5
1e9
9
$ANGBASE
50
0
9
$ANGDIR
70
0
9
$ATTMODE
70
1
9
$AUNITS
70
0
9
$AUPREC
70
0
9
$CECOLOR
62
256
9
$CELTSCALE
40
1
9
$CELTYPE
6
ByLayer
9
$CELWEIGHT
370
18
9
$CLAYER
8
0
9
$CMLJUST
70
0
9
$CMLSCALE
40
1
9
$CMLSTYLE
2
Standard
9
$DIMSTYLE
2
Standard
9
$TEXTSIZE
40
0.2
9
$TEXTSTYLE
7
Standard
9
$LUNITS
70
2
9
$LUPREC
70
4
9
$EXTNAMES
290
1
9
$INSUNITS
70
4
9
$LTSCALE
40
1
9
$LWDISPLAY
290
1
9
$PDMODE
70
0
9
$PDSIZE
40
0
9
$PLINEGEN
70
0
0
ENDSEC
0
SECTION
2
CLASSES
0
CLASS
1
RASTERVARIABLES
2
AcDbRasterVariables
3
ISM
90
0
280
0
281
0
0
ENDSEC
0
SECTION
2
TABLES
0
TABLE
2
VPORT
5
1df
100
AcDbSymbolTable
0
VPORT
5
1
100
AcDbSymbolTableRecord
100
AcDbViewportTableRecord
2
*Active
70
0
10
0
20
0
11
1
21
1
12
-1
22
1
13
0
23
0
14
0.5
24
0.5
15
10
25
10
16
0
26
0
36
1
17
0
27
0
37
0
0
ENDTAB
0
TABLE
2
LTYPE
5
1e0
100
AcDbSymbolTable
0
LTYPE
5
14
100
AcDbSymbolTableRecord
100
AcDbLinetypeTableRecord
70
0
2
ByBlock
3

72
65
73
0
40
0
0
LTYPE
5
15
100
AcDbSymbolTableRecord
100
AcDbLinetypeTableRecord
70
0
2
ByLayer
3

72
65
73
0
40
0
0
LTYPE
5
16
100
AcDbSymbolTableRecord
100
AcDbLinetypeTableRecord
70
0
2
Continuous
3
Solid line
72
65
73
0
40
0
0
LTYPE
5
6E
100
AcDbSymbolTableRecord
100
AcDbLinetypeTableRecord
70
0
2
CENTER
3
____ _ ____ _ ____ _ ____
72
65
73
4
40
47.5
49
22
74
0
49
-8.5
74
0
49
8.5
74
0
49
-8.5
74
0
0
LTYPE
5
6F
100
AcDbSymbolTableRecord
100
AcDbLinetypeTableRecord
70
0
2
DASHED
3
__ __ __ __ __ __ __ __ __
72
65
73
2
40
25.72
49
12.86
74
0
49
-12.86
74
0
0
ENDTAB
0
TABLE
2
LAYER
5
1e1
100
AcDbSymbolTable
0
LAYER
5
10
100
AcDbSymbolTableRecord
100
AcDbLayerTableRecord
2
0
70
0
62
7
6
Continuous
290
1
370
-3
390
0
0
LAYER
5
71
100
AcDbSymbolTableRecord
100
AcDbLayerTableRecord
2
1
70
0
62
4
6
Continuous
290
1
370
-3
390
0
0
LAYER
5
73
100
AcDbSymbolTableRecord
100
AcDbLayerTableRecord
2
80
70
0
62
-6
6
Continuous
290
1
370
-3
390
0
0
LAYER
5
75
100
AcDbSymbolTableRecord
100
AcDbLayerTableRecord
2
81
70
0
62
-3
6
Continuous
290
1
370
-3
390
0
0
LAYER
5
B3
100
AcDbSymbolTableRecord
100
AcDbLayerTableRecord
2
4
70
0
62
-2
6
CENTER
290
1
370
-3
390
0
0
LAYER
5
10D
100
AcDbSymbolTableRecord
100
AcDbLayerTableRecord
2
Defpoints
70
0
62
7
6
Continuous
290
0
370
-3
390
0
0
LAYER
5
14A
100
AcDbSymbolTableRecord
100
AcDbLayerTableRecord
2
2
70
0
62
7
6
Continuous
290
1
370
-3
390
0
0
LAYER
5
1cb
100
AcDbSymbolTableRecord
100
AcDbLayerTableRecord
2
SK1
70
0
62
4
6
Continuous
290
1
370
-3
390
0
0
LAYER
5
1cc
100
AcDbSymbolTableRecord
100
AcDbLayerTableRecord
2
SK4
70
0
62
2
6
CENTER
290
1
370
-3
390
0
0
LAYER
5
1cd
100
AcDbSymbolTableRecord
100
AcDbLayerTableRecord
2
SK2
70
0
62
7
6
Continuous
290
1
370
-3
390
0
0
LAYER
5
1ce
100
AcDbSymbolTableRecord
100
AcDbLayerTableRecord
2
SK6
70
0
62
5
6
Continuous
290
1
370
-3
390
0
0
ENDTAB
0
TABLE
2
STYLE
5
1e2
100
AcDbSymbolTable
0
STYLE
5
11
100
AcDbSymbolTableRecord
100
AcDbTextStyleTableRecord
2
Standard
3
txt
70
0
71
0
40
0
41
1
42
0
50
0
0
STYLE
5
F2
100
AcDbSymbolTableRecord
100
AcDbTextStyleTableRecord
2
iso_b_vert
3
simplex.shx
70
0
71
0
40
0
41
1
42
0
50
0
0
STYLE
5
F3
100
AcDbSymbolTableRecord
100
AcDbTextStyleTableRecord
2
DWGDirectTextStyle
3
simplex
70
0
71
0
40
0
41
1
42
0
50
0
0
ENDTAB
0
TABLE
2
DIMSTYLE
5
1e3
100
AcDbSymbolTable
100
AcDbDimStyleTable
0
DIMSTYLE
105
27
100
AcDbSymbolTableRecord
100
AcDbDimStyleTableRecord
2
Standard
70
0
3
<>
41
0.18
42
0.0625
44
0.18
140
0.18
147
0.09
73
0
74
0
77
1
271
2
275
0
278
52
280
0
340
11
0
ENDTAB
0
TABLE
2
VIEW
5
1e4
100
AcDbSymbolTable
0
ENDTAB
0
TABLE
2
UCS
5
1e5
100
AcDbSymbolTable
0
ENDTAB
0
TABLE
2
APPID
5
1e6
100
AcDbSymbolTable
0
APPID
5
12
100
AcDbSymbolTableRecord
100
AcDbRegAppTableRecord
2
ACAD
70
0
0
APPID
5
109
100
AcDbSymbolTableRecord
100
AcDbRegAppTableRecord
2
ACAD_DSTYLE_DIMBREAK
70
0
0
APPID
5
18A
100
AcDbSymbolTableRecord
100
AcDbRegAppTableRecord
2
ACAD_DSTYLE_DIM_LINETYPE
70
0
0
APPID
5
18B
100
AcDbSymbolTableRecord
100
AcDbRegAppTableRecord
2
ACAD_DSTYLE_DIM_EXT1_LINETYPE
70
0
0
APPID
5
18C
100
AcDbSymbolTableRecord
100
AcDbRegAppTableRecord
2
ACAD_DSTYLE_DIM_EXT2_LINETYPE
70
0
0
APPID
5
1C7
100
AcDbSymbolTableRecord
100
AcDbRegAppTableRecord
2
ACAD_MLEADERVER
70
0
0
ENDTAB
0
TABLE
2
BLOCK_RECORD
5
1e7
100
AcDbSymbolTable
0
BLOCK_RECORD
5
1F
100
AcDbSymbolTableRecord
100
AcDbBlockTableRecord
2
*Model_Space
340
0
70
0
0
BLOCK_RECORD
5
1B
100
AcDbSymbolTableRecord
100
AcDbBlockTableRecord
2
*Paper_Space
340
0
70
0
0
BLOCK_RECORD
5
23
100
AcDbSymbolTableRecord
100
AcDbBlockTableRecord
2
*Paper_Space0
340
0
70
0
0
BLOCK_RECORD
5
10E
100
AcDbSymbolTableRecord
100
AcDbBlockTableRecord
2
*D1
340
0
70
0
0
BLOCK_RECORD
5
11A
100
AcDbSymbolTableRecord
100
AcDbBlockTableRecord
2
_U0
340
0
70
0
0
BLOCK_RECORD
5
126
100
AcDbSymbolTableRecord
100
AcDbBlockTableRecord
2
*D3
340
0
70
0
0
BLOCK_RECORD
5
132
100
AcDbSymbolTableRecord
100
AcDbBlockTableRecord
2
_U1
340
0
70
0
0
BLOCK_RECORD
5
13E
100
AcDbSymbolTableRecord
100
AcDbBlockTableRecord
2
*D5
340
0
70
0
0
BLOCK_RECORD
5
14B
100
AcDbSymbolTableRecord
100
AcDbBlockTableRecord
2
_U2
340
0
70
0
0
BLOCK_RECORD
5
157
100
AcDbSymbolTableRecord
100
AcDbBlockTableRecord
2
*D7
340
0
70
0
0
BLOCK_RECORD
5
163
100
AcDbSymbolTableRecord
100
AcDbBlockTableRecord
2
_U3
340
0
70
0
0
ENDTAB
0
ENDSEC
0
SECTION
2
BLOCKS
0
BLOCK
5
20
100
AcDbEntity
8
0
100
AcDbBlockBegin
2
*Model_Space
70
0
10
0
20
0
30
0
3
*Model_Space
0
ENDBLK
5
21
100
AcDbEntity
8
0
100
AcDbBlockEnd
0
BLOCK
5
1C
100
AcDbEntity
8
0
100
AcDbBlockBegin
2
*Paper_Space
70
0
10
0
20
0
30
0
3
*Paper_Space
0
ENDBLK
5
1D
100
AcDbEntity
8
0
100
AcDbBlockEnd
0
BLOCK
5
24
100
AcDbEntity
8
0
100
AcDbBlockBegin
2
*Paper_Space0
70
0
10
0
20
0
30
0
3
*Paper_Space0
0
ENDBLK
5
25
100
AcDbEntity
8
0
100
AcDbBlockEnd
0
BLOCK
5
10F
100
AcDbEntity
8
0
100
AcDbBlockBegin
2
*D1
70
1
10
0
20
0
30
0
3
*D1
0
LINE
5
111
100
AcDbEntity
8
0
62
256
6
ByLayer
370
-2
48
1
60
0
100
AcDbLine
10
0
20
26.5875
30
0
11
0
21
43.6
31
0
39
0
210
0
220
0
230
1
0
LINE
5
112
100
AcDbEntity
8
0
62
256
6
ByLayer
370
-2
48
1
60
0
100
AcDbLine
10
20
20
26.5875
30
0
11
20
21
43.6
31
0
39
0
210
0
220
0
230
1
0
LINE
5
113
100
AcDbEntity
8
0
62
256
6
ByLayer
370
-2
48
1
60
0
100
AcDbLine
10
3.5
20
41.6
30
0
11
16.5
21
41.6
31
0
39
0
210
0
220
0
230
1
0
SOLID
5
114
100
AcDbEntity
8
0
62
256
6
ByLayer
370
-1
48
1
60
0
100
AcDbTrace
10
3.5
20
42.183333
30
0
11
3.5
21
41.016667
31
0
12
0
22
41.6
32
0
13
0
23
41.6
33
0
39
0
210
0
220
0
230
1
0
SOLID
5
115
100
AcDbEntity
8
0
62
256
6
ByLayer
370
-1
48
1
60
0
100
AcDbTrace
10
16.5
20
41.016667
30
0
11
16.5
21
42.183333
31
0
12
20
22
41.6
32
0
13
20
23
41.6
33
0
39
0
210
0
220
0
230
1
0
MTEXT
5
116
100
AcDbEntity
8
0
62
256
6
ByLayer
370
18
48
1
60
0
100
AcDbMText
10
10
20
48.6
30
0
210
0
220
0
230
1
1
\A1;20
40
3.5
41
0
44
1
50
0
71
5
72
5
7
iso_b_vert
0
POINT
5
117
100
AcDbEntity
8
Defpoints
62
0
6
ByLayer
370
-1
48
1
60
0
100
AcDbPoint
10
0
20
25
30
0
39
0
210
0
220
0
230
1
50
360
0
POINT
5
118
100
AcDbEntity
8
Defpoints
62
0
6
ByLayer
370
-1
48
1
60
0
100
AcDbPoint
10
20
20
25
30
0
39
0
210
0
220
0
230
1
50
360
0
POINT
5
119
100
AcDbEntity
8
Defpoints
62
0
6
ByLayer
370
-1
48
1
60
0
100
AcDbPoint
10
20
20
41.6
30
0
39
0
210
0
220
0
230
1
50
360
0
ENDBLK
5
110
100
AcDbEntity
8
0
100
AcDbBlockEnd
0
BLOCK
5
121
100
AcDbEntity
8
0
100
AcDbBlockBegin
2
_U0
70
0
10
0
20
0
30
0
3
_U0
0
MTEXT
5
11B
100
AcDbEntity
8
SK2
62
256
6
ByLayer
370
18
48
1
60
0
100
AcDbMText
10
8.095034
20
42.632634
30
0
210
0
220
0
230
1
1
\W0.6740;20
40
3.5
41
0
44
1.084337
50
0
71
7
72
5
7
iso_b_vert
0
LINE
5
11C
100
AcDbEntity
8
SK2
62
256
6
ByLayer
370
13
48
1
60
0
100
AcDbLine
10
0
20
26.5875
30
0
11
0
21
43.6
31
0
39
0
210
0
220
0
230
1
0
LINE
5
11D
100
AcDbEntity
8
SK2
62
256
6
ByLayer
370
13
48
1
60
0
100
AcDbLine
10
20
20
26.5875
30
0
11
20
21
43.6
31
0
39
0
210
0
220
0
230
1
0
LINE
5
11E
100
AcDbEntity
8
SK2
62
256
6
ByLayer
370
13
48
1
60
0
100
AcDbLine
10
0
20
41.6
30
0
11
20
21
41.6
31
0
39
0
210
0
220
0
230
1
0
SOLID
5
11F
100
AcDbEntity
8
SK2
62
256
6
ByLayer
370
18
48
1
60
0
100
AcDbTrace
10
0
20
41.6
30
0
11
3.499998
21
42.060784
31
0
12
3.500002
22
41.139216
32
0
13
3.500002
23
41.139216
33
0
39
0
210
0
220
0
230
1
0
SOLID
5
120
100
AcDbEntity
8
SK2
62
256
6
ByLayer
370
18
48
1
60
0
100
AcDbTrace
10
20
20
41.6
30
0
11
16.500002
21
41.139216
31
0
12
16.499998
22
42.060784
32
0
13
16.499998
23
42.060784
33
0
39
0
210
0
220
0
230
1
0
ENDBLK
5
122
100
AcDbEntity
8
0
100
AcDbBlockEnd
0
BLOCK
5
127
100
AcDbEntity
8
0
100
AcDbBlockBegin
2
*D3
70
1
10
0
20
0
30
0
3
*D3
0
LINE
5
129
100
AcDbEntity
8
0
62
256
6
ByLayer
370
-2
48
1
60
0
100
AcDbLine
10
60
20
17.5875
30
0
11
60
21
43.6
31
0
39
0
210
0
220
0
230
1
0
LINE
5
12A
100
AcDbEntity
8
0
62
256
6
ByLayer
370
-2
48
1
60
0
100
AcDbLine
10
25.6
20
17.5875
30
0
11
25.6
21
43.6
31
0
39
0
210
0
220
0
230
1
0
LINE
5
12B
100
AcDbEntity
8
0
62
256
6
ByLayer
370
-2
48
1
60
0
100
AcDbLine
10
56.5
20
41.6
30
0
11
29.1
21
41.6
31
0
39
0
210
0
220
0
230
1
0
SOLID
5
12C
100
AcDbEntity
8
0
62
256
6
ByLayer
370
-1
48
1
60
0
100
AcDbTrace
10
56.5
20
41.016667
30
0
11
56.5
21
42.183333
31
0
12
60
22
41.6
32
0
13
60
23
41.6
33
0
39
0
210
0
220
0
230
1
0
SOLID
5
12D
100
AcDbEntity
8
0
62
256
6
ByLayer
370
-1
48
1
60
0
100
AcDbTrace
10
29.1
20
42.183333
30
0
11
29.1
21
41.016667
31
0
12
25.6
22
41.6
32
0
13
25.6
23
41.6
33
0
39
0
210
0
220
0
230
1
0
MTEXT
5
12E
100
AcDbEntity
8
0
62
256
6
ByLayer
370
18
48
1
60
0
100
AcDbMText
10
42.8
20
48.6
30
0
210
0
220
0
230
1
1
\A1;34.4
40
3.5
41
0
44
1
50
0
71
5
72
5
7
iso_b_vert
0
POINT
5
12F
100
AcDbEntity
8
Defpoints
62
0
6
ByLayer
370
-1
48
1
60
0
100
AcDbPoint
10
60
20
16
30
0
39
0
210
0
220
0
230
1
50
360
0
POINT
5
130
100
AcDbEntity
8
Defpoints
62
0
6
ByLayer
370
-1
48
1
60
0
100
AcDbPoint
10
25.6
20
16
30
0
39
0
210
0
220
0
230
1
50
360
0
POINT
5
131
100
AcDbEntity
8
Defpoints
62
0
6
ByLayer
370
-1
48
1
60
0
100
AcDbPoint
10
25.6
20
41.6
30
0
39
0
210
0
220
0
230
1
50
360
0
ENDBLK
5
128
100
AcDbEntity
8
0
100
AcDbBlockEnd
0
BLOCK
5
139
100
AcDbEntity
8
0
100
AcDbBlockBegin
2
_U1
70
0
10
0
20
0
30
0
3
_U1
0
MTEXT
5
133
100
AcDbEntity
8
SK2
62
256
6
ByLayer
370
18
48
1
60
0
100
AcDbMText
10
38.601901
20
42.632634
30
0
210
0
220
0
230
1
1
\W0.7721;34,4
40
3.5
41
0
44
1.084337
50
0
71
7
72
5
7
iso_b_vert
0
LINE
5
134
100
AcDbEntity
8
SK2
62
256
6
ByLayer
370
13
48
1
60
0
100
AcDbLine
10
60
20
17.5875
30
0
11
60
21
43.6
31
0
39
0
210
0
220
0
230
1
0
LINE
5
135
100
AcDbEntity
8
SK2
62
256
6
ByLayer
370
13
48
1
60
0
100
AcDbLine
10
25.6
20
17.5875
30
0
11
25.6
21
43.6
31
0
39
0
210
0
220
0
230
1
0
LINE
5
136
100
AcDbEntity
8
SK2
62
256
6
ByLayer
370
13
48
1
60
0
100
AcDbLine
10
60
20
41.6
30
0
11
25.6
21
41.6
31
0
39
0
210
0
220
0
230
1
0
SOLID
5
137
100
AcDbEntity
8
SK2
62
256
6
ByLayer
370
18
48
1
60
0
100
AcDbTrace
10
60
20
41.6
30
0
11
56.500002
21
41.139216
31
0
12
56.499998
22
42.060784
32
0
13
56.499998
23
42.060784
33
0
39
0
210
0
220
0
230
1
0
SOLID
5
138
100
AcDbEntity
8
SK2
62
256
6
ByLayer
370
18
48
1
60
0
100
AcDbTrace
10
25.6
20
41.6
30
0
11
29.099998
21
42.060784
31
0
12
29.100002
22
41.139216
32
0
13
29.100002
23
41.139216
33
0
39
0
210
0
220
0
230
1
0
ENDBLK
5
13A
100
AcDbEntity
8
0
100
AcDbBlockEnd
0
BLOCK
5
13F
100
AcDbEntity
8
0
100
AcDbBlockBegin
2
*D5
70
1
10
0
20
0
30
0
3
*D5
0
LINE
5
141
100
AcDbEntity
8
0
62
256
6
ByLayer
370
-2
48
1
60
0
100
AcDbLine
10
60
20
17.5875
30
0
11
60
21
53.6
31
0
39
0
210
0
220
0
230
1
0
LINE
5
142
100
AcDbEntity
8
0
62
256
6
ByLayer
370
-2
48
1
60
0
100
AcDbLine
10
0
20
26.5875
30
0
11
0
21
53.6
31
0
39
0
210
0
220
0
230
1
0
LINE
5
143
100
AcDbEntity
8
0
62
256
6
ByLayer
370
-2
48
1
60
0
100
AcDbLine
10
56.5
20
51.6
30
0
11
3.5
21
51.6
31
0
39
0
210
0
220
0
230
1
0
SOLID
5
144
100
AcDbEntity
8
0
62
256
6
ByLayer
370
-1
48
1
60
0
100
AcDbTrace
10
56.5
20
51.016667
30
0
11
56.5
21
52.183333
31
0
12
60
22
51.6
32
0
13
60
23
51.6
33
0
39
0
210
0
220
0
230
1
0
SOLID
5
145
100
AcDbEntity
8
0
62
256
6
ByLayer
370
-1
48
1
60
0
100
AcDbTrace
10
3.5
20
52.183333
30
0
11
3.5
21
51.016667
31
0
12
0
22
51.6
32
0
13
0
23
51.6
33
0
39
0
210
0
220
0
230
1
0
MTEXT
5
146
100
AcDbEntity
8
0
62
256
6
ByLayer
370
18
48
1
60
0
100
AcDbMText
10
30
20
58.6
30
0
210
0
220
0
230
1
1
\A1;60
40
3.5
41
0
44
1
50
0
71
5
72
5
7
iso_b_vert
0
POINT
5
147
100
AcDbEntity
8
Defpoints
62
0
6
ByLayer
370
-1
48
1
60
0
100
AcDbPoint
10
60
20
16
30
0
39
0
210
0
220
0
230
1
50
360
0
POINT
5
148
100
AcDbEntity
8
Defpoints
62
0
6
ByLayer
370
-1
48
1
60
0
100
AcDbPoint
10
0
20
25
30
0
39
0
210
0
220
0
230
1
50
360
0
POINT
5
149
100
AcDbEntity
8
Defpoints
62
0
6
ByLayer
370
-1
48
1
60
0
100
AcDbPoint
10
0
20
51.6
30
0
39
0
210
0
220
0
230
1
50
360
0
ENDBLK
5
140
100
AcDbEntity
8
0
100
AcDbBlockEnd
0
BLOCK
5
152
100
AcDbEntity
8
0
100
AcDbBlockBegin
2
_U2
70
0
10
0
20
0
30
0
3
_U2
0
MTEXT
5
14C
100
AcDbEntity
8
2
62
256
6
ByLayer
370
18
48
1
60
0
100
AcDbMText
10
28.095034
20
52.632634
30
0
210
0
220
0
230
1
1
\W0.6740;60
40
3.5
41
0
44
1.084337
50
0
71
7
72
5
7
iso_b_vert
0
LINE
5
14D
100
AcDbEntity
8
2
62
256
6
ByLayer
370
13
48
1
60
0
100
AcDbLine
10
60
20
17.5875
30
0
11
60
21
53.6
31
0
39
0
210
0
220
0
230
1
0
LINE
5
14E
100
AcDbEntity
8
2
62
256
6
ByLayer
370
13
48
1
60
0
100
AcDbLine
10
0
20
26.5875
30
0
11
0
21
53.6
31
0
39
0
210
0
220
0
230
1
0
LINE
5
14F
100
AcDbEntity
8
2
62
256
6
ByLayer
370
13
48
1
60
0
100
AcDbLine
10
60
20
51.6
30
0
11
0
21
51.6
31
0
39
0
210
0
220
0
230
1
0
SOLID
5
150
100
AcDbEntity
8
2
62
256
6
ByLayer
370
18
48
1
60
0
100
AcDbTrace
10
60
20
51.6
30
0
11
56.500002
21
51.139216
31
0
12
56.499998
22
52.060784
32
0
13
56.499998
23
52.060784
33
0
39
0
210
0
220
0
230
1
0
SOLID
5
151
100
AcDbEntity
8
2
62
256
6
ByLayer
370
18
48
1
60
0
100
AcDbTrace
10
0
20
51.6
30
0
11
3.499998
21
52.060784
31
0
12
3.500002
22
51.139216
32
0
13
3.500002
23
51.139216
33
0
39
0
210
0
220
0
230
1
0
ENDBLK
5
153
100
AcDbEntity
8
0
100
AcDbBlockEnd
0
BLOCK
5
158
100
AcDbEntity
8
0
100
AcDbBlockBegin
2
*D7
70
1
10
0
20
0
30
0
3
*D7
0
LINE
5
15A
100
AcDbEntity
8
0
62
256
6
ByLayer
370
-2
48
1
60
0
100
AcDbLine
10
-30
20
19.0875
30
0
11
-30
21
53.6
31
0
39
0
210
0
220
0
230
1
0
LINE
5
15B
100
AcDbEntity
8
0
62
256
6
ByLayer
370
-2
48
1
60
0
100
AcDbLine
10
0
20
26.5875
30
0
11
0
21
53.6
31
0
39
0
210
0
220
0
230
1
0
LINE
5
15C
100
AcDbEntity
8
0
62
256
6
ByLayer
370
-2
48
1
60
0
100
AcDbLine
10
-26.5
20
51.6
30
0
11
-3.5
21
51.6
31
0
39
0
210
0
220
0
230
1
0
SOLID
5
15D
100
AcDbEntity
8
0
62
256
6
ByLayer
370
-1
48
1
60
0
100
AcDbTrace
10
-26.5
20
52.183333
30
0
11
-26.5
21
51.016667
31
0
12
-30
22
51.6
32
0
13
-30
23
51.6
33
0
39
0
210
0
220
0
230
1
0
SOLID
5
15E
100
AcDbEntity
8
0
62
256
6
ByLayer
370
-1
48
1
60
0
100
AcDbTrace
10
-3.5
20
51.016667
30
0
11
-3.5
21
52.183333
31
0
12
0
22
51.6
32
0
13
0
23
51.6
33
0
39
0
210
0
220
0
230
1
0
MTEXT
5
15F
100
AcDbEntity
8
0
62
256
6
ByLayer
370
18
48
1
60
0
100
AcDbMText
10
-15
20
58.6
30
0
210
0
220
0
230
1
1
\A1;30
40
3.5
41
0
44
1
50
0
71
5
72
5
7
iso_b_vert
0
POINT
5
160
100
AcDbEntity
8
Defpoints
62
0
6
ByLayer
370
-1
48
1
60
0
100
AcDbPoint
10
-30
20
17.5
30
0
39
0
210
0
220
0
230
1
50
360
0
POINT
5
161
100
AcDbEntity
8
Defpoints
62
0
6
ByLayer
370
-1
48
1
60
0
100
AcDbPoint
10
0
20
25
30
0
39
0
210
0
220
0
230
1
50
360
0
POINT
5
162
100
AcDbEntity
8
Defpoints
62
0
6
ByLayer
370
-1
48
1
60
0
100
AcDbPoint
10
0
20
51.6
30
0
39
0
210
0
220
0
230
1
50
360
0
ENDBLK
5
159
100
AcDbEntity
8
0
100
AcDbBlockEnd
0
BLOCK
5
16A
100
AcDbEntity
8
0
100
AcDbBlockBegin
2
_U3
70
0
10
0
20
0
30
0
3
_U3
0
MTEXT
5
164
100
AcDbEntity
8
SK2
62
256
6
ByLayer
370
18
48
1
60
0
100
AcDbMText
10
-16.904966
20
52.632634
30
0
210
0
220
0
230
1
1
\W0.6740;30
40
3.5
41
0
44
1.084337
50
0
71
7
72
5
7
iso_b_vert
0
LINE
5
165
100
AcDbEntity
8
SK2
62
256
6
ByLayer
370
13
48
1
60
0
100
AcDbLine
10
-30
20
19.0875
30
0
11
-30
21
53.6
31
0
39
0
210
0
220
0
230
1
0
LINE
5
166
100
AcDbEntity
8
SK2
62
256
6
ByLayer
370
13
48
1
60
0
100
AcDbLine
10
0
20
26.5875
30
0
11
0
21
53.6
31
0
39
0
210
0
220
0
230
1
0
LINE
5
167
100
AcDbEntity
8
SK2
62
256
6
ByLayer
370
13
48
1
60
0
100
AcDbLine
10
-30
20
51.6
30
0
11
0
21
51.6
31
0
39
0
210
0
220
0
230
1
0
SOLID
5
168
100
AcDbEntity
8
SK2
62
256
6
ByLayer
370
18
48
1
60
0
100
AcDbTrace
10
-30
20
51.6
30
0
11
-26.500002
21
52.060784
31
0
12
-26.499998
22
51.139216
32
0
13
-26.499998
23
51.139216
33
0
39
0
210
0
220
0
230
1
0
SOLID
5
169
100
AcDbEntity
8
SK2
62
256
6
ByLayer
370
18
48
1
60
0
100
AcDbTrace
10
0
20
51.6
30
0
11
-3.499998
21
51.139216
31
0
12
-3.500002
22
52.060784
32
0
13
-3.500002
23
52.060784
33
0
39
0
210
0
220
0
230
1
0
ENDBLK
5
16B
100
AcDbEntity
8
0
100
AcDbBlockEnd
0
ENDSEC
0
SECTION
2
ENTITIES
0
ARC
5
CA
100
AcDbEntity
8
1
62
256
6
ByLayer
370
18
48
1
60
0
100
AcDbCircle
39
0
10
20.186567
20
24.2
30
0
40
0.8
210
0
220
0
230
1
100
AcDbArc
50
15.03862
51
90
0
ARC
5
CB
100
AcDbEntity
8
1
62
256
6
ByLayer
370
18
48
1
60
0
100
AcDbCircle
39
0
10
25.6
20
-19.10639
30
0
40
3.10639028564334
210
0
220
0
230
1
100
AcDbArc
50
90
51
164.96138
0
ARC
5
CC
100
AcDbEntity
8
SK1
62
256
6
ByLayer
370
18
48
1
60
0
100
AcDbCircle
39
0
10
-0.6
20
18.75
30
0
40
1.00000000000001
210
0
220
0
230
1
100
AcDbArc
50
293.578178
51
306.869898
0
ARC
5
CD
100
AcDbEntity
8
SK1
62
256
6
ByLayer
370
18
48
1
60
0
100
AcDbCircle
39
0
10
-0.6
20
-18.75
30
0
40
1.00000000000001
210
0
220
0
230
1
100
AcDbArc
50
53.130102
51
66.421822
0
ARC
5
CE
100
AcDbEntity
8
1
62
256
6
ByLayer
370
18
48
1
60
0
100
AcDbCircle
39
0
10
25.6
20
19.10639
30
0
40
3.10639028564334
210
0
220
0
230
1
100
AcDbArc
50
195.03862
51
270
0
ARC
5
CF
100
AcDbEntity
8
1
62
256
6
ByLayer
370
18
48
1
60
0
100
AcDbCircle
39
0
10
20.186567
20
-24.2
30
0
40
0.8
210
0
220
0
230
1
100
AcDbArc
50
270
51
344.96138
0
ELLIPSE
5
D0
100
AcDbEntity
8
1
62
256
6
ByLayer
370
18
48
1
60
0
100
AcDbEllipse
10
-1.056258
20
0
30
0
11
11.7092723497254
21
24.6771864409351
31
0
210
0
220
0
230
1
40
0.341999
41
-1.08183270048935
42
-0.16721307190899
0
ELLIPSE
5
D1
100
AcDbEntity
8
1
62
256
6
ByLayer
370
18
48
1
60
0
100
AcDbEllipse
10
21.056258
20
0
30
0
11
11.7092723497276
21
-24.6771864409378
31
0
210
0
220
0
230
1
40
0.341999
41
-2.97437958168082
42
-2.05975995310053
0
ELLIPSE
5
D2
100
AcDbEntity
8
1
62
256
6
ByLayer
370
18
48
1
60
0
100
AcDbEllipse
10
21.056258
20
0
30
0
11
11.7092723497279
21
24.6771864409382
31
0
210
0
220
0
230
1
40
0.341999
41
2.05975995310054
42
2.97437958168082
0
ELLIPSE
5
D3
100
AcDbEntity
8
1
62
256
6
ByLayer
370
18
48
1
60
0
100
AcDbEllipse
10
-1.056258
20
0
30
0
11
11.709272349726
21
-24.6771864409359
31
0
210
0
220
0
230
1
40
0.341999
41
0.167213071908985
42
1.08183270048932
0
POINT
5
70
100
AcDbEntity
8
1
62
256
6
ByLayer
370
18
48
1
60
0
100
AcDbPoint
10
0
20
0
30
0
39
0
210
0
220
0
230
1
50
360
0
POINT
5
72
100
AcDbEntity
8
80
62
256
6
ByLayer
370
18
48
1
60
0
100
AcDbPoint
10
0
20
0
30
0
39
0
210
0
220
0
230
1
50
360
0
POINT
5
74
100
AcDbEntity
8
81
62
256
6
ByLayer
370
18
48
1
60
0
100
AcDbPoint
10
60
20
0
30
0
39
0
210
0
220
0
230
1
50
360
0
POINT
5
76
100
AcDbEntity
8
1
62
256
6
ByLayer
370
18
48
1
60
1
100
AcDbPoint
10
0
20
25
30
0
39
0
210
0
220
0
230
1
50
360
0
POINT
5
77
100
AcDbEntity
8
1
62
256
6
ByLayer
370
18
48
1
60
1
100
AcDbPoint
10
20
20
25
30
0
39
0
210
0
220
0
230
1
50
360
0
POINT
5
78
100
AcDbEntity
8
1
62
256
6
ByLayer
370
18
48
1
60
1
100
AcDbPoint
10
60
20
16
30
0
39
0
210
0
220
0
230
1
50
360
0
POINT
5
79
100
AcDbEntity
8
1
62
256
6
ByLayer
370
18
48
1
60
1
100
AcDbPoint
10
25.6
20
16
30
0
39
0
210
0
220
0
230
1
50
360
0
POINT
5
7A
100
AcDbEntity
8
1
62
256
6
ByLayer
370
18
48
1
60
1
100
AcDbPoint
10
60
20
16
30
0
39
0
210
0
220
0
230
1
50
360
0
POINT
5
7B
100
AcDbEntity
8
1
62
256
6
ByLayer
370
18
48
1
60
1
100
AcDbPoint
10
0
20
25
30
0
39
0
210
0
220
0
230
1
50
360
0
POINT
5
7C
100
AcDbEntity
8
1
62
256
6
ByLayer
370
18
48
1
60
1
100
AcDbPoint
10
-30
20
17.5
30
0
39
0
210
0
220
0
230
1
50
360
0
POINT
5
7D
100
AcDbEntity
8
1
62
256
6
ByLayer
370
18
48
1
60
1
100
AcDbPoint
10
0
20
25
30
0
39
0
210
0
220
0
230
1
50
360
0
SPLINE
5
D4
100
AcDbEntity
8
SK1
62
256
6
ByLayer
370
18
48
1
60
0
100
AcDbSpline
70
4
71
3
72
287
73
283
40
0
40
0
40
0
40
0
40
0.0019136699335867
40
0.0054374099738465
40
0.0089611500141064
40
0.0124848900543662
40
0.016008630094626
40
0.0195323701348859
40
0.0230561101751457
40
0.0265798502154055
40
0.0301035902556654
40
0.0336273302959252
40
0.037151070336185
40
0.0441985504167047
40
0.0477222904569646
40
0.0512460304972244
40
0.0547697705374842
40
0.0582935105777441
40
0.0653409906582637
40
0.0688647306985235
40
0.0723884707387834
40
0.0794359508193031
40
0.0829596908595629
40
0.0864834308998227
40
0.0935309109803424
40
0.0970546510206023
40
0.100578391060862
40
0.104102131101122
40
0.107625871141382
40
0.111149611181642
40
0.114673351221902
40
0.118197091262161
40
0.121720831302421
40
0.128768311382941
40
0.132292051423201
40
0.135815791463461
40
0.13933953150372
40
0.14286327154398
40
0.1499107516245
40
0.15343449166476
40
0.15519636168489
40
0.156958231705019
40
0.160481971745279
40
0.164005711785539
40
0.171053191866059
40
0.174576931906319
40
0.178100671946579
40
0.181624411986838
40
0.185148152027098
40
0.192195632107618
40
0.195719372147878
40
0.199243112188138
40
0.202766852228397
40
0.206290592268657
40
0.213338072349177
40
0.216861812389437
40
0.220385552429697
40
0.223909292469956
40
0.227433032510216
40
0.234480512590736
40
0.238004252630996
40
0.241527992671256
40
0.245051732711515
40
0.248575472751775
40
0.255622952832295
40
0.259146692872555
40
0.262670432912815
40
0.269717912993334
40
0.276765393073854
40
0.280289133114114
40
0.283812873154374
40
0.290860353234893
40
0.294384093275153
40
0.297907833315413
40
0.301431573355673
40
0.304955313395933
40
0.308479053436192
40
0.312002793476452
40
0.319050273556972
40
0.326097753637492
40
0.329621493677752
40
0.333145233718011
40
0.336668973758271
40
0.340192713798531
40
0.343716453838791
40
0.347240193879051
40
0.35428767395957
40
0.36133515404009
40
0.36838263412061
40
0.37190637416087
40
0.375430114201129
40
0.378953854241389
40
0.382477594281649
40
0.386001334321909
40
0.389525074362169
40
0.393048814402429
40
0.396572554442688
40
0.400096294482948
40
0.403620034523208
40
0.407143774563468
40
0.410667514603728
40
0.414191254643987
40
0.417714994684247
40
0.421238734724507
40
0.424762474764767
40
0.428286214805027
40
0.430048084825157
40
0.431809954845287
40
0.433571824865417
40
0.435333694885547
40
0.438857434925806
40
0.442381174966066
40
0.444143044986196
40
0.445904915006326
40
0.449428655046586
40
0.451190525066716
40
0.452952395086846
40
0.454714265106976
40
0.456476135127106
40
0.458238005147236
40
0.459999875167366
40
0.461761745187495
40
0.463523615207625
40
0.465285485227755
40
0.467047355247885
40
0.468809225268015
40
0.470571095288145
40
0.472332965308275
40
0.474094835328405
40
0.475856705348535
40
0.477618575368665
40
0.479380445388794
40
0.481142315408924
40
0.482904185429054
40
0.484666055449184
40
0.486427925469314
40
0.488189795489444
40
0.489951665509574
40
0.491713535529704
40
0.493475405549834
40
0.495237275569964
40
0.496999145590094
40
0.498761015610224
40
0.500522885630354
40
0.502284755650483
40
0.504046625670613
40
0.505808495690743
40
0.507570365710873
40
0.509332235731003
40
0.511094105751133
40
0.512855975771263
40
0.514617845791393
40
0.516379715811523
40
0.518141585831653
40
0.519903455851783
40
0.521665325871913
40
0.523427195892042
40
0.525189065912172
40
0.526950935932302
40
0.528712805952432
40
0.530474675972562
40
0.532236545992692
40
0.533998416012822
40
0.537522156053082
40
0.539284026073212
40
0.541045896093342
40
0.542807766113472
40
0.544569636133602
40
0.546331506153732
40
0.548093376173861
40
0.551617116214121
40
0.555140856254381
40
0.556902726274511
40
0.558664596294641
40
0.560426466314771
40
0.562188336334901
40
0.565712076375161
40
0.56923581641542
40
0.57275955645568
40
0.57628329649594
40
0.5798070365362
40
0.58333077657646
40
0.58685451661672
40
0.590378256656979
40
0.593901996697239
40
0.597425736737499
40
0.600949476777759
40
0.604473216818019
40
0.607996956858278
40
0.611520696898538
40
0.615044436938798
40
0.618568176979058
40
0.622091917019318
40
0.629139397099838
40
0.636186877180357
40
0.643234357260877
40
0.646758097301137
40
0.650281837341397
40
0.653805577381656
40
0.657329317421916
40
0.660853057462176
40
0.664376797502436
40
0.671424277582956
40
0.678471757663475
40
0.681995497703735
40
0.685519237743995
40
0.689042977784255
40
0.692566717824515
40
0.696090457864774
40
0.699614197905034
40
0.706661677985554
40
0.710185418025814
40
0.713709158066074
40
0.720756638146593
40
0.727804118227113
40
0.731327858267373
40
0.734851598307633
40
0.741899078388152
40
0.745422818428412
40
0.748946558468672
40
0.752470298508932
40
0.755994038549192
40
0.763041518629711
40
0.766565258669971
40
0.770088998710231
40
0.773612738750491
40
0.777136478790751
40
0.784183958871271
40
0.78770769891153
40
0.79123143895179
40
0.79475517899205
40
0.79827891903231
40
0.805326399112829
40
0.808850139153089
40
0.812373879193349
40
0.815897619233609
40
0.819421359273869
40
0.826468839354388
40
0.829992579394648
40
0.833516319434908
40
0.837040059475168
40
0.840563799515428
40
0.847611279595947
40
0.851135019636207
40
0.854658759676467
40
0.858182499716727
40
0.861706239756987
40
0.868753719837506
40
0.872277459877766
40
0.875801199918026
40
0.879324939958286
40
0.882848679998546
40
0.886372420038806
40
0.889896160079066
40
0.893419900119325
40
0.896943640159585
40
0.903991120240105
40
0.907514860280365
40
0.911038600320624
40
0.918086080401144
40
0.921609820441404
40
0.925133560481664
40
0.932181040562184
40
0.935704780602443
40
0.939228520642703
40
0.942752260682963
40
0.946276000723223
40
0.953323480803743
40
0.956847220844002
40
0.960370960884262
40
0.963894700924522
40
0.967418440964782
40
0.970942181005042
40
0.974465921045302
40
0.977989661085561
40
0.981513401125821
40
0.985037141166081
40
0.988560881206341
40
0.992084621246601
40
0.995608361286861
40
0.99913210132712
40
1
40
1
40
1
40
1
41
1
10
-28.5
20
-16.8570108039164
30
0
41
1
10
-28.5
20
-16.8563910910335
30
0
41
1
10
-28.5
20
-16.8542838361053
30
0
41
1
10
-28.5
20
-16.8492033090471
30
0
41
1
10
-28.5
20
-16.8407921763224
30
0
41
1
10
-28.5
20
-16.8300011251081
30
0
41
1
10
-28.5
20
-16.816867307208
30
0
41
1
10
-28.5
20
-16.8014255596809
30
0
41
1
10
-28.5
20
-16.7837098927271
30
0
41
1
10
-28.5
20
-16.7637529737167
30
0
41
1
10
-28.5
20
-16.741585550229
30
0
41
1
10
-28.5
20
-16.7172383773105
30
0
41
1
10
-28.5
20
-16.6818354096897
30
0
41
1
10
-28.5
20
-16.642411504334
30
0
41
1
10
-28.5
20
-16.5986105943247
30
0
41
1
10
-28.5
20
-16.5637763395248
30
0
41
1
10
-28.5
20
-16.5269199399481
30
0
41
1
10
-28.5
20
-16.4750169286961
30
0
41
1
10
-28.5
20
-16.4194622696319
30
0
41
1
10
-28.5
20
-16.3597332242326
30
0
41
1
10
-28.5
20
-16.2974462376793
30
0
41
1
10
-28.5
20
-16.2317181619347
30
0
41
1
10
-28.5
20
-16.1619255341458
30
0
41
1
10
-28.5
20
-16.0896767899468
30
0
41
1
10
-28.5
20
-16.0141701800502
30
0
41
1
10
-28.5
20
-15.9346970807191
30
0
41
1
10
-28.5
20
-15.8734193510279
30
0
41
1
10
-28.5
20
-15.810384423087
30
0
41
1
10
-28.5
20
-15.7456081924762
30
0
41
1
10
-28.5
20
-15.679103534252
30
0
41
1
10
-28.5
20
-15.6108850733398
30
0
41
1
10
-28.5
20
-15.5409672073329
30
0
41
1
10
-28.5
20
-15.4453363938053
30
0
41
1
10
-28.5
20
-15.3468344527491
30
0
41
1
10
-28.5
20
-15.2445501295776
30
0
41
1
10
-28.5
20
-15.1663215599361
30
0
41
1
10
-28.5
20
-15.0864673213159
30
0
41
1
10
-28.5
20
-14.9776668655465
30
0
41
1
10
-28.5
20
-14.8661866667289
30
0
41
1
10
-28.5
20
-14.7654709460418
30
0
41
1
10
-28.5
20
-14.7070919001429
30
0
41
1
10
-28.5
20
-14.6481896525931
30
0
41
1
10
-28.5
20
-14.5737935062701
30
0
41
1
10
-28.5
20
-14.4523474054459
30
0
41
1
10
-28.5
20
-14.328392039309
30
0
41
1
10
-28.5
20
-14.2007962250068
30
0
41
1
10
-28.5
20
-14.1037299370701
30
0
41
1
10
-28.5
20
-14.0051547249398
30
0
41
1
10
-28.5
20
-13.8715103854275
30
0
41
1
10
-28.5
20
-13.7355116125921
30
0
41
1
10
-28.5
20
-13.5959164434403
30
0
41
1
10
-28.5
20
-13.4899116562855
30
0
41
1
10
-28.5
20
-13.3824445445542
30
0
41
1
10
-28.5
20
-13.2369867372074
30
0
41
1
10
-28.5
20
-13.0893180117675
30
0
41
1
10
-28.5
20
-12.9380809438717
30
0
41
1
10
-28.5
20
-12.8234002933141
30
0
41
1
10
-28.5
20
-12.7072977423403
30
0
41
1
10
-28.5
20
-12.5503594172971
30
0
41
1
10
-28.5
20
-12.3913462461042
30
0
41
1
10
-28.5
20
-12.2287775174238
30
0
41
1
10
-28.5
20
-12.1056498404809
30
0
41
1
10
-28.5
20
-11.9811355648908
30
0
41
1
10
-28.5
20
-11.8130068303033
30
0
41
1
10
-28.5
20
-11.6429357656381
30
0
41
1
10
-28.5
20
-11.4693068596264
30
0
41
1
10
-28.5
20
-11.2938625632929
30
0
41
1
10
-28.5
20
-11.0718089525805
30
0
41
1
10
-28.5
20
-10.8452681286137
30
0
41
1
10
-28.5
20
-10.6608197986608
30
0
41
1
10
-28.5
20
-10.4745957936973
30
0
41
1
10
-28.5
20
-10.2866518813937
30
0
41
1
10
-28.5
20
-10.095113531911
30
0
41
1
10
-28.5
20
-9.95038952754788
30
0
41
1
10
-28.5
20
-9.80435457188474
30
0
41
1
10
-28.5
20
-9.65701506287493
30
0
41
1
10
-28.5
20
-9.50837344479851
30
0
41
1
10
-28.5
20
-9.30810991622684
30
0
41
1
10
-28.5
20
-9.05534969583792
30
0
41
1
10
-28.5
20
-8.79830467826932
30
0
41
1
10
-28.5
20
-8.5894423488798
30
0
41
1
10
-28.5
20
-8.43181570788789
30
0
41
1
10
-28.5
20
-8.27292308432649
30
0
41
1
10
-28.5
20
-8.11277014937085
30
0
41
1
10
-28.5
20
-7.95136176299604
30
0
41
1
10
-28.5
20
-7.73407184285279
30
0
41
1
10
-28.5
20
-7.46030865505762
30
0
41
1
10
-28.5
20
-7.12632144512301
30
0
41
1
10
-28.5
20
-6.84437400802861
30
0
41
1
10
-28.5
20
-6.61554357091572
30
0
41
1
10
-28.5
20
-6.4430903265563
30
0
41
1
10
-28.5
20
-6.26944357118299
30
0
41
1
10
-28.5
20
-6.09461208825527
30
0
41
1
10
-28.5
20
-5.91860495448572
30
-1.7E-15
41
1
10
-28.5
20
-5.74143237747984
30
-1.7E-15
41
1
10
-28.5
20
-5.56310445504442
30
-1.7E-15
41
1
10
-28.5
20
-5.38363156234237
30
-1.7E-15
41
1
10
-28.5
20
-5.2030267003301
30
-1.7E-15
41
1
10
-28.5
20
-5.0213044851898
30
-1.7E-15
41
1
10
-28.5
20
-4.83847943804494
30
-1.7E-15
41
1
10
-28.5
20
-4.65456683421039
30
-1.7E-15
41
1
10
-28.5
20
-4.4695846174555
30
-1.7E-15
41
1
10
-28.5
20
-4.28355297730505
30
-1.7E-15
41
1
10
-28.5
20
-4.09649259176146
30
-1.7E-15
41
1
10
-28.5
20
-3.90842799420625
30
-1.7E-15
41
1
10
-28.5
20
-3.75124942106058
30
-1.7E-15
41
1
10
-28.5
20
-3.62435506854831
30
-1.7E-15
41
1
10
-28.5
20
-3.52924322184191
30
-1.7E-15
41
1
10
-28.5
20
-3.43390157548936
30
-1.7E-15
41
1
10
-28.5
20
-3.30608709676798
30
-1.7E-15
41
1
10
-28.5
20
-3.14669074057869
30
-1.7E-15
41
1
10
-28.5
20
-2.98656948332388
30
-1.7E-15
41
1
10
-28.5
20
-2.8572942882393
30
-1.7E-15
41
1
10
-28.5
20
-2.72777279716706
30
-1.7E-15
41
1
10
-28.5
20
-2.59923374131699
30
-1.7E-15
41
1
10
-28.5
20
-2.46893613943033
30
-1.7E-15
41
1
10
-28.5
20
-2.37140757120355
30
-1.7E-15
41
1
10
-28.5
20
-2.27371679621319
30
-1.7E-15
41
1
10
-28.5
20
-2.17587292609082
30
-1.7E-15
41
1
10
-28.5
20
-2.0778804265363
30
-1.7E-15
41
1
10
-28.5
20
-1.9797500364362
30
-1.7E-15
41
1
10
-28.5
20
-1.88148718140701
30
-1.7E-15
41
1
10
-28.5
20
-1.78310084050699
30
-1.7E-15
41
1
10
-28.5
20
-1.6846006870125
30
-1.7E-15
41
1
10
-28.5
20
-1.58599188781932
30
-1.7E-15
41
1
10
-28.5
20
-1.48728656512978
30
-1.7E-15
41
1
10
-28.5
20
-1.38848913588993
30
-1.7E-15
41
1
10
-28.5
20
-1.28961134189754
30
-1.7E-15
41
1
10
-28.5
20
-1.19065859620264
30
-1.7E-15
41
1
10
-28.5
20
-1.0916407792042
30
-1.7E-15
41
1
10
-28.5
20
-0.992564112169902
30
-1.7E-15
41
1
10
-28.5
20
-0.89343688343348
30
-1.7E-15
41
1
10
-28.5
20
-0.794265459276176
30
-1.7E-15
41
1
10
-28.5
20
-0.695056784277028
30
-1.7E-15
41
1
10
-28.5
20
-0.595816495504096
30
-1.7E-15
41
1
10
-28.5
20
-0.496550594205559
30
-1.7E-15
41
1
10
-28.5
20
-0.397263840424017
30
-1.7E-15
41
1
10
-28.5
20
-0.297961388791691
30
-1.7E-15
41
1
10
-28.5
20
-0.198647127601248
30
-1.7E-15
41
1
10
-28.5
20
-0.0993254684405827
30
-1.7E-15
41
1
10
-28.5
20
5.4725149E-09
30
-1.7E-15
41
1
10
-28.5
20
0.0993254669347436
30
-1.7E-15
41
1
10
-28.5
20
0.198647102840738
30
-1.7E-15
41
1
10
-28.5
20
0.297961366795107
30
-1.7E-15
41
1
10
-28.5
20
0.397263853181812
30
-1.7E-15
41
1
10
-28.5
20
0.49655061320999
30
-1.7E-15
41
1
10
-28.5
20
0.595816468507252
30
-1.7E-15
41
1
10
-28.5
20
0.695056741362833
30
-1.7E-15
41
1
10
-28.5
20
0.794265471937166
30
-1.7E-15
41
1
10
-28.5
20
0.893436923932512
30
-1.7E-15
41
1
10
-28.5
20
0.992564090788449
30
-1.7E-15
41
1
10
-28.5
20
1.09164071478048
30
-1.7E-15
41
1
10
-28.5
20
1.19065859360987
30
-1.7E-15
41
1
10
-28.5
20
1.28961139997082
30
-1.7E-15
41
1
10
-28.5
20
1.38848914320587
30
-1.7E-15
41
1
10
-28.5
20
1.48728649469356
30
-1.7E-15
41
1
10
-28.5
20
1.58599184128096
30
-1.7E-15
41
1
10
-28.5
20
1.68460072925305
30
-1.7E-15
41
1
10
-28.5
20
1.78310090101277
30
-1.7E-15
41
1
10
-28.5
20
1.88148715614122
30
-1.7E-15
41
1
10
-28.5
20
1.97974994874616
30
-1.7E-15
41
1
10
-28.5
20
2.07788039572898
30
-1.7E-15
41
1
10
-28.5
20
2.20905952740142
30
-1.7E-15
41
1
10
-28.5
20
2.33842740009587
30
-1.7E-15
41
1
10
-28.5
20
2.46893611478751
30
-1.7E-15
41
1
10
-28.5
20
2.56629526768592
30
-1.7E-15
41
1
10
-28.5
20
2.66347976206254
30
-1.7E-15
41
1
10
-28.5
20
2.76048089001324
30
-1.7E-15
41
1
10
-28.5
20
2.85729421649611
30
-1.7E-15
41
1
10
-28.5
20
2.9865693987912
30
-1.7E-15
41
1
10
-28.5
20
3.14669072023423
30
-1.7E-15
41
1
10
-28.5
20
3.30608717079298
30
-1.7E-15
41
1
10
-28.5
20
3.43390158445521
30
-1.7E-15
41
1
10
-28.5
20
3.52924315934183
30
-1.7E-15
41
1
10
-28.5
20
3.6243549796439
30
-1.7E-15
41
1
10
-28.5
20
3.75124940963562
30
-1.7E-15
41
1
10
-28.5
20
3.90842813226232
30
-1.7E-15
41
1
10
-28.5
20
4.09649275318182
30
-1.7E-15
41
1
10
-28.5
20
4.28355302808069
30
-1.7E-15
41
1
10
-28.5
20
4.46958486845949
30
-1.7E-15
41
1
10
-28.5
20
4.65456716028004
30
-1.7E-15
41
1
10
-28.5
20
4.83847919931264
30
-1.7E-15
41
1
10
-28.5
20
5.0213042232472
30
-1.7E-15
41
1
10
-28.5
20
5.20302692387261
30
-1.7E-15
41
1
10
-28.5
20
5.38363134733163
30
-1.7E-15
41
1
10
-28.5
20
5.56310357372001
30
-1.7E-15
41
1
10
-28.5
20
5.74143189937953
30
-1.7E-15
41
1
10
-28.5
20
5.91860523667609
30
-1.7E-15
41
1
10
-28.5
20
6.09461246091772
30
0
41
1
10
-28.5
20
6.26944364545889
30
0
41
1
10
-28.5
20
6.44309029411608
30
0
41
1
10
-28.5
20
6.61554359890371
30
0
41
1
10
-28.5
20
6.84437402550569
30
0
41
1
10
-28.5
20
7.12632140637373
30
0
41
1
10
-28.5
20
7.46030866767529
30
0
41
1
10
-28.5
20
7.73407184255308
30
0
41
1
10
-28.5
20
7.9513617118449
30
0
41
1
10
-28.5
20
8.11277014047184
30
0
41
1
10
-28.5
20
8.27292311790592
30
0
41
1
10
-28.5
20
8.43181572672981
30
0
41
1
10
-28.5
20
8.58944232029054
30
0
41
1
10
-28.5
20
8.79830464348922
30
0
41
1
10
-28.5
20
9.05534970701544
30
0
41
1
10
-28.5
20
9.30810992365679
30
0
41
1
10
-28.5
20
9.50837340526911
30
0
41
1
10
-28.5
20
9.65701503611822
30
0
41
1
10
-28.5
20
9.8043545776041
30
0
41
1
10
-28.5
20
9.9503895477591
30
0
41
1
10
-28.5
20
10.0951135357909
30
0
41
1
10
-28.5
20
10.2866518533399
30
0
41
1
10
-28.5
20
10.4745957683654
30
0
41
1
10
-28.5
20
10.6608198079832
30
0
41
1
10
-28.5
20
10.8452681360072
30
0
41
1
10
-28.5
20
11.0718089327865
30
0
41
1
10
-28.5
20
11.2938625434425
30
0
41
1
10
-28.5
20
11.4693068645233
30
0
41
1
10
-28.5
20
11.642935768078
30
0
41
1
10
-28.5
20
11.8130068133241
30
0
41
1
10
-28.5
20
11.9811355431936
30
0
41
1
10
-28.5
20
12.1056498288981
30
0
41
1
10
-28.5
20
12.2287775158425
30
0
41
1
10
-28.5
20
12.3913462445321
30
0
41
1
10
-28.5
20
12.550359403554
30
0
41
1
10
-28.5
20
12.7072977235968
30
0
41
1
10
-28.5
20
12.8234002792818
30
0
41
1
10
-28.5
20
12.9380809359595
30
0
41
1
10
-28.5
20
13.0893180063072
30
0
41
1
10
-28.5
20
13.2369867267196
30
0
41
1
10
-28.5
20
13.3824445287113
30
0
41
1
10
-28.5
20
13.4899116400767
30
0
41
1
10
-28.5
20
13.5959164295663
30
0
41
1
10
-28.5
20
13.7355116027341
30
0
41
1
10
-28.5
20
13.8715103774192
30
0
41
1
10
-28.5
20
14.0051547121626
30
0
41
1
10
-28.5
20
14.1037299196573
30
0
41
1
10
-28.5
20
14.2007962111626
30
0
41
1
10
-28.5
20
14.3283920102608
30
0
41
1
10
-28.5
20
14.4523474056541
30
0
41
1
10
-28.5
20
14.5737935545692
30
0
41
1
10
-28.5
20
14.6631805593238
30
0
41
1
10
-28.5
20
14.7510047173632
30
0
41
1
10
-28.5
20
14.8661866472663
30
0
41
1
10
-28.5
20
14.9776668598204
30
0
41
1
10
-28.5
20
15.0864673138636
30
0
41
1
10
-28.5
20
15.1663215412447
30
0
41
1
10
-28.5
20
15.2445501023872
30
0
41
1
10
-28.5
20
15.3468344295442
30
0
41
1
10
-28.5
20
15.4453363897878
30
0
41
1
10
-28.5
20
15.5409672008416
30
0
41
1
10
-28.5
20
15.6108850520675
30
0
41
1
10
-28.5
20
15.6791035033831
30
0
41
1
10
-28.5
20
15.745608166167
30
0
41
1
10
-28.5
20
15.8103844132608
30
0
41
1
10
-28.5
20
15.8734193498834
30
0
41
1
10
-28.5
20
15.9346970720351
30
0
41
1
10
-28.5
20
16.0141701499498
30
0
41
1
10
-28.5
20
16.0896767577218
30
0
41
1
10
-28.5
20
16.1619255301562
30
0
41
1
10
-28.5
20
16.2317181614777
30
0
41
1
10
-28.5
20
16.2974462059125
30
0
41
1
10
-28.5
20
16.3597331913305
30
0
41
1
10
-28.5
20
16.4194622625482
30
0
41
1
10
-28.5
20
16.4750169305147
30
0
41
1
10
-28.5
20
16.5269199075572
30
0
41
1
10
-28.5
20
16.5637763020887
30
0
41
1
10
-28.5
20
16.5986105790194
30
0
41
1
10
-28.5
20
16.642411510514
30
0
41
1
10
-28.5
20
16.6818353810987
30
0
41
1
10
-28.5
20
16.7172383450784
30
0
41
1
10
-28.5
20
16.7415855338906
30
0
41
1
10
-28.5
20
16.7637529731542
30
0
41
1
10
-28.5
20
16.783709883521
30
0
41
1
10
-28.5
20
16.8014255225769
30
0
41
1
10
-28.5
20
16.8168672741156
30
0
41
1
10
-28.5
20
16.8300011209595
30
0
41
1
10
-28.5
20
16.8407921788659
30
0
41
1
10
-28.5
20
16.8492032887544
30
0
41
1
10
-28.5
20
16.8551966776124
30
0
41
1
10
-28.5
20
16.8587320876464
30
0
41
1
10
-28.5
20
16.8597682913315
30
0
41
1
10
-28.5
20
16.8586400052971
30
0
41
1
10
-28.5
20
16.8573439150372
30
0
41
1
10
-28.5
20
16.857061486421
30
0
0
SPLINE
5
D5
100
AcDbEntity
8
SK1
62
256
6
ByLayer
370
18
48
1
60
0
100
AcDbSpline
70
4
71
3
72
26
73
22
40
0
40
0
40
0
40
0
40
0.25
40
0.25
40
0.5
40
0.5
40
0.625
40
0.625
40
0.6875
40
0.6875
40
0.75
40
0.75
40
0.812499999999999
40
0.812499999999999
40
0.874999999999999
40
0.874999999999999
40
0.906249999999999
40
0.906249999999999
40
0.9375
40
0.9375
40
1
40
1
40
1
40
1
41
1
10
-1.30710678118655
20
3.91806548153781
30
-1E-16
41
1
10
-1.27769319780745
20
4.08052093037065
30
-1E-16
41
1
10
-1.24421801411859
20
4.24088838641723
30
-1E-16
41
1
10
-1.16485205097936
20
4.55692134673149
30
-1E-16
41
1
10
-1.11915053894168
20
4.71298625674962
30
-1E-16
41
1
10
-1.03398506252569
20
4.93920991648992
30
-1E-16
41
1
10
-1.00279216065923
20
5.01338233454953
30
-1E-16
41
1
10
-0.948686084795497
20
5.12180889714571
30
-1E-16
41
1
10
-0.92941394814639
20
5.15747348575945
30
-1E-16
41
1
10
-0.887192676607185
20
5.2274622561776
30
-1E-16
41
1
10
-0.864103743652976
20
5.2620159396939
30
-1E-16
41
1
10
-0.813044425251093
20
5.32730624386841
30
0
41
1
10
-0.785168859850643
20
5.35822757002165
30
0
41
1
10
-0.720036760130682
20
5.41334643052002
30
0
41
1
10
-0.681932962873304
20
5.43781069903423
30
0
41
1
10
-0.618164109731538
20
5.45755608765845
30
0
41
1
10
-0.59561546133466
20
5.46126474518047
30
0
41
1
10
-0.550411294006381
20
5.46132444639048
30
0
41
1
10
-0.528101012291188
20
5.45772738244958
30
0
41
1
10
-0.464215280713574
20
5.43805975377174
30
0
41
1
10
-0.427403975867776
20
5.4143295595745
30
0
41
1
10
-0.394976888875391
20
5.38678223323953
30
0
0
SPLINE
5
D6
100
AcDbEntity
8
SK1
62
256
6
ByLayer
370
18
48
1
60
0
100
AcDbSpline
70
4
71
3
72
26
73
22
40
0
40
0
40
0
40
0
40
0.250000000000002
40
0.250000000000002
40
0.500000000000004
40
0.500000000000004
40
0.625000000000003
40
0.625000000000003
40
0.750000000000002
40
0.750000000000002
40
0.812500000000002
40
0.812500000000002
40
0.875000000000001
40
0.875000000000001
40
0.906250000000001
40
0.906250000000001
40
0.937500000000001
40
0.937500000000001
40
0.96875
40
0.96875
40
1
40
1
40
1
40
1
41
1
10
-0.199999999999989
20
-6.10344849123027
30
0
41
1
10
-0.199999999999989
20
-6.03658343849222
30
0
41
1
10
-0.201307915401514
20
-5.96945919325967
30
0
41
1
10
-0.207636972094093
20
-5.8346088643938
30
0
41
1
10
-0.212579850553368
20
-5.76680281418172
30
0
41
1
10
-0.224951590332722
20
-5.66479408005202
30
0
41
1
10
-0.229904281870233
20
-5.6308003160577
30
0
41
1
10
-0.242521523471169
20
-5.56290531314943
30
0
41
1
10
-0.250117086737561
20
-5.52896458934296
30
0
41
1
10
-0.265414899342318
20
-5.47925984090531
30
0
41
1
10
-0.271171206812255
20
-5.4628674131271
30
0
41
1
10
-0.285126828250412
20
-5.43075649789989
30
0
41
1
10
-0.293370777796042
20
-5.41464883184736
30
0
41
1
10
-0.309754325583356
20
-5.39312762647262
30
0
41
1
10
-0.315906755851444
20
-5.38639867120833
30
0
41
1
10
-0.33043328177348
20
-5.37534138513305
30
0
41
1
10
-0.338822824507901
20
-5.37123289411582
30
0
41
1
10
-0.356328976513879
20
-5.36848804676441
30
0
41
1
10
-0.365355266428651
20
-5.36994612574296
30
0
41
1
10
-0.381274177460824
20
-5.37639293798046
30
0
41
1
10
-0.3884397087092
20
-5.38122846522199
30
0
41
1
10
-0.394976888875334
20
-5.38678189578178
30
0
0
SPLINE
5
D7
100
AcDbEntity
8
SK1
62
256
6
ByLayer
370
13
48
1
60
0
100
AcDbSpline
70
4
71
3
72
102
73
98
40
0
40
0
40
0
40
0
40
0.0028041583599497
40
0.0116366782685727
40
0.0204691981771957
40
0.0293017180858187
40
0.0381342379944418
40
0.0469667579030648
40
0.0557992778116878
40
0.0646317977203108
40
0.0734643176289338
40
0.0822968375375568
40
0.0999618773548028
40
0.117626917172049
40
0.135291956989295
40
0.144124476897918
40
0.152956996806541
40
0.161789516715164
40
0.170622036623787
40
0.17945455653241
40
0.188287076441033
40
0.205952116258279
40
0.223617156075525
40
0.232449675984148
40
0.241282195892771
40
0.250114715801394
40
0.258947235710017
40
0.26777975561864
40
0.276612275527263
40
0.294277315344509
40
0.303109835253132
40
0.311942355161755
40
0.329607394979001
40
0.347272434796247
40
0.35610495470487
40
0.364937474613493
40
0.382602514430739
40
0.391435034339362
40
0.400267554247985
40
0.409100074156608
40
0.417932594065231
40
0.435597633882477
40
0.4444301537911
40
0.453262673699723
40
0.462095193608346
40
0.470927713516969
40
0.488592753334215
40
0.497425273242838
40
0.506257793151461
40
0.515090313060084
40
0.523922832968707
40
0.541587872785953
40
0.550420392694576
40
0.559252912603199
40
0.568085432511822
40
0.576917952420445
40
0.594582992237691
40
0.603415512146314
40
0.612248032054937
40
0.62108055196356
40
0.629913071872183
40
0.647578111689429
40
0.656410631598052
40
0.665243151506675
40
0.674075671415298
40
0.682908191323921
40
0.700573231141167
40
0.70940575104979
40
0.718238270958413
40
0.727070790867036
40
0.735903310775659
40
0.744735830684282
40
0.753568350592905
40
0.762400870501528
40
0.771233390410151
40
0.788898430227397
40
0.79773095013602
40
0.806563470044643
40
0.824228509861889
40
0.833061029770512
40
0.841893549679135
40
0.859558589496381
40
0.868391109405004
40
0.877223629313627
40
0.88605614922225
40
0.894888669130873
40
0.912553708948119
40
0.921386228856742
40
0.930218748765365
40
0.939051268673988
40
0.947883788582611
40
0.956716308491234
40
0.965548828399857
40
0.97438134830848
40
0.983213868217103
40
0.992046388125726
40
1
40
1
40
1
40
1
41
1
10
-0.394976888875277
20
5.38678223324203
30
0
41
1
10
-0.394976888875277
20
5.40659331253005
30
0
41
1
10
-0.394976888875277
20
5.48871675629277
30
0
41
1
10
-0.394976888875277
20
5.63252720020009
30
0
41
1
10
-0.394976888875277
20
5.81741425905383
30
0
41
1
10
-0.394976888875277
20
6.0010194773844
30
0
41
1
10
-0.394976888875277
20
6.18333822517317
30
0
41
1
10
-0.394976888875277
20
6.36436626337326
30
0
41
1
10
-0.394976888875277
20
6.54409938064705
30
0
41
1
10
-0.394976888875277
20
6.7225342898117
30
0
41
1
10
-0.394976888875277
20
6.89966739484251
30
0
41
1
10
-0.394976888875277
20
7.13420904829047
30
0
41
1
10
-0.394976888875277
20
7.42389184310318
30
0
41
1
10
-0.394976888875277
20
7.76637137475095
30
0
41
1
10
-0.394976888875277
20
8.04728288893983
30
0
41
1
10
-0.394976888875277
20
8.26952734508268
30
0
41
1
10
-0.394976888875277
20
8.43482033812748
30
0
41
1
10
-0.394976888875277
20
8.59878513251641
30
0
41
1
10
-0.394976888875277
20
8.76141979935898
30
0
41
1
10
-0.394976888875277
20
8.92272120904667
30
0
41
1
10
-0.394976888875277
20
9.13609084815204
30
0
41
1
10
-0.394976888875277
20
9.3992804435735
30
0
41
1
10
-0.394976888875277
20
9.65799297250354
30
0
41
1
10
-0.394976888875277
20
9.86240079247779
30
0
41
1
10
-0.394976888875277
20
10.0143015620689
30
0
41
1
10
-0.394976888875277
20
10.1648479968029
30
0
41
1
10
-0.394976888875277
20
10.3140380853821
30
0
41
1
10
-0.394976888875277
20
10.4618684218406
30
0
41
1
10
-0.394976888875277
20
10.6572262982852
30
0
41
1
10
-0.394976888875277
20
10.8496518299165
30
0
41
1
10
-0.394976888875277
20
11.0395280715927
30
0
41
1
10
-0.394976888875277
20
11.2275701322441
30
0
41
1
10
-0.394976888875277
20
11.4590305058839
30
0
41
1
10
-0.394976888875277
20
11.6858676336886
30
0
41
1
10
-0.394976888875277
20
11.8646543426879
30
0
41
1
10
-0.394976888875277
20
12.0415756036957
30
0
41
1
10
-0.394976888875277
20
12.2155153079022
30
0
41
1
10
-0.394976888875277
20
12.3868007822861
30
0
41
1
10
-0.394976888875277
20
12.5138050377602
30
0
41
1
10
-0.394976888875277
20
12.6393872212047
30
0
41
1
10
-0.394976888875277
20
12.8049814419576
30
0
41
1
10
-0.394976888875277
20
12.9675509274721
30
0
41
1
10
-0.394976888875277
20
13.127391952352
30
0
41
1
10
-0.394976888875277
20
13.2457848907918
30
0
41
1
10
-0.394976888875277
20
13.3627236430939
30
0
41
1
10
-0.394976888875277
20
13.5167448397425
30
0
41
1
10
-0.394976888875277
20
13.6676860465324
30
0
41
1
10
-0.394976888875277
20
13.8158144643309
30
0
41
1
10
-0.394976888875277
20
13.9253889575191
30
0
41
1
10
-0.394976888875277
20
14.0334711437704
30
0
41
1
10
-0.394976888875277
20
14.1756274353422
30
0
41
1
10
-0.394976888875277
20
14.3146351144528
30
0
41
1
10
-0.394976888875277
20
14.4507333574048
30
0
41
1
10
-0.394976888875277
20
14.5512443698349
30
0
41
1
10
-0.394976888875277
20
14.6502180265082
30
0
41
1
10
-0.394976888875277
20
14.7801642402503
30
0
41
1
10
-0.394976888875277
20
14.906878048735
30
0
41
1
10
-0.394976888875277
20
15.0305709686995
30
0
41
1
10
-0.394976888875277
20
15.1217290697223
30
0
41
1
10
-0.394976888875277
20
15.2112966721243
30
0
41
1
10
-0.394976888875277
20
15.3286250260664
30
0
41
1
10
-0.394976888875277
20
15.4426195996911
30
0
41
1
10
-0.394976888875277
20
15.553463729323
30
0
41
1
10
-0.394976888875277
20
15.6349267495635
30
0
41
1
10
-0.394976888875277
20
15.7147364711228
30
0
41
1
10
-0.394976888875277
20
15.8189643575456
30
0
41
1
10
-0.394976888875277
20
15.9197362080175
30
0
41
1
10
-0.394976888875277
20
16.0172057910894
30
0
41
1
10
-0.394976888875277
20
16.0885677968918
30
0
41
1
10
-0.394976888875277
20
16.1582019227301
30
0
41
1
10
-0.394976888875277
20
16.2260943534788
30
0
41
1
10
-0.394976888875277
20
16.2922298184193
30
0
41
1
10
-0.394976888875277
20
16.3565947837564
30
0
41
1
10
-0.394976888875277
20
16.4191737242595
30
0
41
1
10
-0.394976888875277
20
16.5002370605308
30
0
41
1
10
-0.394976888875277
20
16.577583428992
30
0
41
1
10
-0.394976888875277
20
16.6513062647865
30
0
41
1
10
-0.394976888875277
20
16.7225357594453
30
0
41
1
10
-0.394976888875277
20
16.7899145739052
30
0
41
1
10
-0.394976888875277
20
16.8535135157982
30
0
41
1
10
-0.394976888875277
20
16.9145140859045
30
0
41
1
10
-0.394976888875277
20
16.9715145338597
30
0
41
1
10
-0.394976888875277
20
17.0245523789023
30
0
41
1
10
-0.394976888875277
20
17.0622798138473
30
0
41
1
10
-0.394976888875277
20
17.0979462613767
30
0
41
1
10
-0.394976888875277
20
17.1427382851614
30
0
41
1
10
-0.394976888875277
20
17.1832568130363
30
0
41
1
10
-0.394976888875277
20
17.2194882282903
30
0
41
1
10
-0.394976888875277
20
17.2444530966284
30
0
41
1
10
-0.394976888875277
20
17.267190526317
30
0
41
1
10
-0.394976888875277
20
17.2876678324761
30
0
41
1
10
-0.394976888875277
20
17.3058521283006
30
0
41
1
10
-0.394976888875277
20
17.3217086001335
30
0
41
1
10
-0.394976888875277
20
17.3352007293143
30
0
41
1
10
-0.394976888875277
20
17.3462909837355
30
0
41
1
10
-0.394976888875277
20
17.3546524090413
30
0
41
1
10
-0.394976888875277
20
17.3586364130603
30
0
41
1
10
-0.394976888875277
20
17.3601832331286
30
0
0
SPLINE
5
D8
100
AcDbEntity
8
SK1
62
256
6
ByLayer
370
18
48
1
60
0
100
AcDbSpline
70
4
71
3
72
20
73
16
40
0
40
0
40
0
40
0
40
0.25
40
0.25
40
0.375
40
0.375
40
0.4375
40
0.4375
40
0.5
40
0.5
40
0.75
40
0.75
40
0.875
40
0.875
40
1
40
1
40
1
40
1
41
1
10
-1.30710678118655
20
3.91806548153784
30
-1E-16
41
1
10
-1.41969318564745
20
3.29623458683111
30
-1E-16
41
1
10
-1.52084354897514
20
2.66117243128369
30
-1E-16
41
1
10
-1.63284681317131
20
1.68012366058511
30
-1E-16
41
1
10
-1.6633946240787
20
1.34828924094137
30
-1E-16
41
1
10
-1.69495092810294
20
0.841576693078707
30
-1E-16
41
1
10
-1.70306621291687
20
0.670912483956499
30
-1E-16
41
1
10
-1.71379105874195
20
0.332128346739978
30
-1E-16
41
1
10
-1.71645137733404
20
0.163332447807818
30
-1E-16
41
1
10
-1.71619101064627
20
-0.677685636180769
30
-1E-16
41
1
10
-1.67125810013107
20
-1.34087191657736
30
-1E-16
41
1
10
-1.55943898894105
20
-2.32447859217885
30
-1E-16
41
1
10
-1.51483394489833
20
-2.6512039966245
30
-1E-16
41
1
10
-1.41687703207163
20
-3.29188260724433
30
-1E-16
41
1
10
-1.36340682815234
20
-3.60711221095696
30
-1E-16
41
1
10
-1.30710678118655
20
-3.91806548057698
30
-1E-16
0
SPLINE
5
D9
100
AcDbEntity
8
SK1
62
256
6
ByLayer
370
18
48
1
60
0
100
AcDbSpline
70
4
71
3
72
30
73
26
40
0
40
0
40
0
40
0
40
0.0312499999999997
40
0.0312499999999997
40
0.0624999999999994
40
0.0624999999999994
40
0.0937499999999992
40
0.0937499999999992
40
0.124999999999999
40
0.124999999999999
40
0.156249999999999
40
0.156249999999999
40
0.187499999999998
40
0.187499999999998
40
0.249999999999999
40
0.249999999999999
40
0.312499999999999
40
0.312499999999999
40
0.374999999999999
40
0.374999999999999
40
0.5
40
0.5
40
0.75
40
0.75
40
1
40
1
40
1
40
1
41
1
10
-0.394976888875306
20
-5.38678189578292
30
0
41
1
10
-0.411121004362627
20
-5.40049655899082
30
0
41
1
10
-0.428233279222695
20
-5.41311535582494
30
0
41
1
10
-0.465309612185848
20
-5.43514865455293
30
0
41
1
10
-0.485247093192101
20
-5.44447298609396
30
0
41
1
10
-0.527143852804016
20
-5.45749158572377
30
0
41
1
10
-0.549766809572617
20
-5.46123817959722
30
0
41
1
10
-0.594625996823424
20
-5.46134910310994
30
0
41
1
10
-0.617367334499079
20
-5.45772890381815
30
0
41
1
10
-0.660019264070229
20
-5.44466656582568
30
0
41
1
10
-0.680396026591723
20
-5.43519415358125
30
0
41
1
10
-0.717834279017922
20
-5.41311904009154
30
0
41
1
10
-0.735191453829231
20
-5.40043958603152
30
0
41
1
10
-0.784451320222104
20
-5.35899057781569
30
0
41
1
10
-0.812480141629834
20
-5.3279541713818
30
0
41
1
10
-0.863579984272121
20
-5.26275715404719
30
-1E-16
41
1
10
-0.886669998197959
20
-5.22827369564408
30
-1E-16
41
1
10
-0.929038370947666
20
-5.15814871783954
30
-1E-16
41
1
10
-0.948360494973542
20
-5.1224280187362
30
-1E-16
41
1
10
-1.00258384146318
20
-5.01386242026871
30
-1E-16
41
1
10
-1.03381196991217
20
-4.93963585912672
30
-1E-16
41
1
10
-1.11904493500305
20
-4.71333034940326
30
-1E-16
41
1
10
-1.16474908109114
20
-4.55729858564038
30
-1E-16
41
1
10
-1.24418351237222
20
-4.24105736808264
30
-1E-16
41
1
10
-1.27767890904266
20
-4.0805998576204
30
-1E-16
41
1
10
-1.30710678118655
20
-3.91806548057696
30
-1E-16
0
SPLINE
5
DA
100
AcDbEntity
8
SK1
62
256
6
ByLayer
370
18
48
1
60
0
100
AcDbSpline
70
4
71
3
72
282
73
278
40
0
40
0
40
0
40
0
40
0.0031453581926542
40
0.0067198498558441
40
0.0102943415190339
40
0.0138688331822238
40
0.0174433248454137
40
0.0210178165086036
40
0.0245923081717934
40
0.0281667998349833
40
0.0317412914981732
40
0.0353157831613631
40
0.0424647664877428
40
0.0460392581509327
40
0.0496137498141226
40
0.0531882414773124
40
0.0567627331405023
40
0.0639117164668821
40
0.067486208130072
40
0.0710606997932618
40
0.0782096831196416
40
0.0817841747828315
40
0.0853586664460213
40
0.0925076497724011
40
0.096082141435591
40
0.0996566330987809
40
0.103231124761971
40
0.106805616425161
40
0.11038010808835
40
0.11395459975154
40
0.11752909141473
40
0.12110358307792
40
0.1282525664043
40
0.13182705806749
40
0.13540154973068
40
0.138976041393869
40
0.142550533057059
40
0.149699516383439
40
0.153274008046629
40
0.155061253878224
40
0.156848499709819
40
0.160422991373009
40
0.163997483036199
40
0.171146466362578
40
0.174720958025768
40
0.178295449688958
40
0.181869941352148
40
0.185444433015338
40
0.192593416341718
40
0.196167908004907
40
0.199742399668097
40
0.203316891331287
40
0.206891382994477
40
0.214040366320857
40
0.217614857984047
40
0.221189349647237
40
0.224763841310427
40
0.228338332973616
40
0.235487316299996
40
0.239061807963186
40
0.242636299626376
40
0.246210791289566
40
0.249785282952756
40
0.256934266279135
40
0.260508757942325
40
0.264083249605515
40
0.271232232931895
40
0.278381216258275
40
0.281955707921465
40
0.285530199584654
40
0.292679182911034
40
0.296253674574224
40
0.299828166237414
40
0.303402657900604
40
0.306977149563794
40
0.310551641226983
40
0.314126132890173
40
0.321275116216553
40
0.328424099542933
40
0.331998591206123
40
0.335573082869313
40
0.339147574532502
40
0.342722066195693
40
0.346296557858882
40
0.349871049522072
40
0.357020032848452
40
0.364169016174832
40
0.371317999501212
40
0.374892491164401
40
0.378466982827591
40
0.382041474490781
40
0.385615966153971
40
0.389190457817161
40
0.392764949480351
40
0.396339441143541
40
0.39991393280673
40
0.40348842446992
40
0.40706291613311
40
0.4106374077963
40
0.41421189945949
40
0.41778639112268
40
0.42136088278587
40
0.42493537444906
40
0.428509866112249
40
0.432084357775439
40
0.433871603607034
40
0.435658849438629
40
0.437446095270224
40
0.439233341101819
40
0.442807832765009
40
0.446382324428199
40
0.448169570259794
40
0.449956816091389
40
0.453531307754579
40
0.455318553586174
40
0.457105799417769
40
0.458893045249363
40
0.460680291080958
40
0.462467536912553
40
0.464254782744148
40
0.466042028575743
40
0.467829274407338
40
0.469616520238933
40
0.471403766070528
40
0.473191011902123
40
0.474978257733718
40
0.476765503565313
40
0.478552749396908
40
0.480339995228503
40
0.482127241060098
40
0.483914486891693
40
0.485701732723287
40
0.487488978554882
40
0.489276224386477
40
0.491063470218072
40
0.492850716049667
40
0.494637961881262
40
0.496425207712857
40
0.498212453544452
40
0.499999699376047
40
0.501786945207642
40
0.503574191039237
40
0.505361436870832
40
0.507148682702427
40
0.508935928534022
40
0.510723174365617
40
0.512510420197212
40
0.514297666028807
40
0.516084911860401
40
0.517872157691996
40
0.519659403523591
40
0.521446649355186
40
0.523233895186781
40
0.525021141018376
40
0.526808386849971
40
0.528595632681566
40
0.530382878513161
40
0.532170124344756
40
0.533957370176351
40
0.535744616007946
40
0.537531861839541
40
0.539319107671136
40
0.542893599334326
40
0.54468084516592
40
0.546468090997515
40
0.54825533682911
40
0.550042582660705
40
0.5518298284923
40
0.553617074323895
40
0.557191565987085
40
0.560766057650275
40
0.56255330348187
40
0.564340549313465
40
0.56612779514506
40
0.567915040976655
40
0.571489532639844
40
0.575064024303034
40
0.578638515966224
40
0.582213007629414
40
0.585787499292604
40
0.589361990955794
40
0.592936482618984
40
0.596510974282174
40
0.600085465945363
40
0.603659957608553
40
0.607234449271743
40
0.610808940934933
40
0.614383432598123
40
0.617957924261313
40
0.621532415924503
40
0.625106907587693
40
0.628681399250883
40
0.635830382577262
40
0.642979365903642
40
0.650128349230022
40
0.653702840893212
40
0.657277332556402
40
0.660851824219591
40
0.664426315882781
40
0.668000807545971
40
0.671575299209161
40
0.678724282535541
40
0.685873265861921
40
0.68944775752511
40
0.6930222491883
40
0.69659674085149
40
0.70017123251468
40
0.70374572417787
40
0.70732021584106
40
0.71446919916744
40
0.718043690830629
40
0.721618182493819
40
0.728767165820199
40
0.735916149146579
40
0.739490640809769
40
0.743065132472959
40
0.750214115799338
40
0.753788607462528
40
0.757363099125718
40
0.760937590788908
40
0.764512082452098
40
0.771661065778478
40
0.775235557441668
40
0.778810049104857
40
0.782384540768047
40
0.785959032431237
40
0.793108015757617
40
0.796682507420807
40
0.800256999083997
40
0.803831490747187
40
0.807405982410376
40
0.814554965736756
40
0.818129457399946
40
0.821703949063136
40
0.825278440726326
40
0.828852932389516
40
0.836001915715895
40
0.839576407379085
40
0.843150899042275
40
0.846725390705465
40
0.850299882368655
40
0.857448865695035
40
0.861023357358225
40
0.864597849021414
40
0.868172340684604
40
0.871746832347794
40
0.878895815674174
40
0.882470307337364
40
0.886044799000554
40
0.889619290663744
40
0.893193782326933
40
0.896768273990123
40
0.900342765653313
40
0.903917257316503
40
0.907491748979693
40
0.914640732306073
40
0.918215223969263
40
0.921789715632452
40
0.928938698958832
40
0.932513190622022
40
0.936087682285212
40
0.943236665611592
40
0.946811157274781
40
0.950385648937972
40
0.953960140601161
40
0.957534632264351
40
0.964683615590731
40
0.968258107253921
40
0.971832598917111
40
0.975407090580301
40
0.978981582243491
40
0.98255607390668
40
0.98613056556987
40
0.98970505723306
40
0.99327954889625
40
0.99685404055944
40
1
40
1
40
1
40
1
41
1
10
-2.19999999999996
20
-17.5147445511259
30
-1E-16
41
1
10
-2.19999999999996
20
-17.5132047655784
30
-1E-16
41
1
10
-2.19999999999996
20
-17.5092141629238
30
-1E-16
41
1
10
-2.19999999999999
20
-17.5008423321234
30
-1E-16
41
1
10
-2.19999999999999
20
-17.4896606126055
30
-1E-16
41
1
10
-2.19999999999999
20
-17.4760589706817
30
-1E-16
41
1
10
-2.19999999999999
20
-17.4600756994924
30
1E-16
41
1
10
-2.19999999999999
20
-17.4417480876219
30
1E-16
41
1
10
-2.19999999999999
20
-17.4211116738093
30
1E-16
41
1
10
-2.19999999999999
20
-17.398199993695
30
1E-16
41
1
10
-2.19999999999999
20
-17.3730462873428
30
1E-16
41
1
10
-2.19999999999999
20
-17.3365615705832
30
0
41
1
10
-2.19999999999999
20
-17.2957083328928
30
0
41
1
10
-2.19999999999999
20
-17.250613323192
30
0
41
1
10
-2.19999999999999
20
-17.2146924603873
30
0
41
1
10
-2.19999999999999
20
-17.1766986986672
30
0
41
1
10
-2.19999999999999
20
-17.123313852319
30
0
41
1
10
-2.19999999999999
20
-17.0658713913631
30
0
41
1
10
-2.19999999999999
20
-17.0044820909957
30
1E-16
41
1
10
-2.19999999999999
20
-16.9404820184079
30
1E-16
41
1
10
-2.19999999999999
20
-16.8725984731112
30
1E-16
41
1
10
-2.19999999999999
20
-16.8009296884544
30
1E-16
41
1
10
-2.19999999999999
20
-16.7267561914694
30
-1E-16
41
1
10
-2.19999999999999
20
-16.6488473199257
30
-1E-16
41
1
10
-2.19999999999999
20
-16.5672977619412
30
-1E-16
41
1
10
-2.19999999999999
20
-16.5043209901434
30
-1E-16
41
1
10
-2.19999999999999
20
-16.439549393056
30
-1E-16
41
1
10
-2.19999999999999
20
-16.3729983688048
30
-1E-16
41
1
10
-2.19999999999999
20
-16.3046816359758
30
-1E-16
41
1
10
-2.19999999999999
20
-16.2346146707391
30
-1E-16
41
1
10
-2.19999999999999
20
-16.1628111223414
30
-1E-16
41
1
10
-2.19999999999999
20
-16.0647793597711
30
-1E-16
41
1
10
-2.19999999999999
20
-15.9633135259672
30
-1E-16
41
1
10
-2.19999999999999
20
-15.8584914079188
30
-1E-16
41
1
10
-2.19999999999999
20
-15.7781982539187
30
-1E-16
41
1
10
-2.19999999999999
20
-15.6962433571227
30
-1E-16
41
1
10
-2.19999999999999
20
-15.5847743990242
30
-1E-16
41
1
10
-2.19999999999999
20
-15.4700110929875
30
-1E-16
41
1
10
-2.19999999999999
20
-15.3667724139347
30
-1E-16
41
1
10
-2.19999999999999
20
-15.3069761679616
30
-1E-16
41
1
10
-2.19999999999999
20
-15.2466455133785
30
-1E-16
41
1
10
-2.19999999999999
20
-15.1702261509224
30
-1E-16
41
1
10
-2.19999999999999
20
-15.0458464314392
30
-1E-16
41
1
10
-2.19999999999999
20
-14.9182892218295
30
-1E-16
41
1
10
-2.19999999999999
20
-14.7876243995297
30
-1E-16
41
1
10
-2.19999999999999
20
-14.6880675812844
30
-1E-16
41
1
10
-2.19999999999999
20
-14.5869647126432
30
-1E-16
41
1
10
-2.19999999999999
20
-14.4501162106047
30
-1E-16
41
1
10
-2.19999999999999
20
-14.3101885914782
30
-1E-16
41
1
10
-2.19999999999999
20
-14.1672492642274
30
-1E-16
41
1
10
-2.19999999999999
20
-14.0585319334344
30
-1E-16
41
1
10
-2.19999999999999
20
-13.9483131264862
30
-1E-16
41
1
10
-2.19999999999999
20
-13.7993681905533
30
-1E-16
41
1
10
-2.19999999999999
20
-13.6474264531923
30
-1E-16
41
1
10
-2.19999999999999
20
-13.4925540411334
30
-1E-16
41
1
10
-2.19999999999999
20
-13.3749248996582
30
-1E-16
41
1
10
-2.19999999999999
20
-13.2558316973182
30
-1E-16
41
1
10
-2.19999999999999
20
-13.0951031927999
30
-1E-16
41
1
10
-2.19999999999999
20
-12.9314463925932
30
-1E-16
41
1
10
-2.19999999999999
20
-12.7649271637091
30
-1E-16
41
1
10
-2.19999999999999
20
-12.6385945454976
30
-1E-16
41
1
10
-2.19999999999999
20
-12.510829004708
30
-1E-16
41
1
10
-2.19999999999999
20
-12.3385783781737
30
-1E-16
41
1
10
-2.19999999999999
20
-12.1634558646821
30
-1E-16
41
1
10
-2.19999999999999
20
-11.9855280067157
30
-1E-16
41
1
10
-2.19999999999999
20
-11.8057194023465
30
-1E-16
41
1
10
-2.19999999999999
20
-11.5774197477568
30
-1E-16
41
1
10
-2.19999999999999
20
-11.3444552554371
30
-1E-16
41
1
10
-2.19999999999999
20
-11.1553144582602
30
-1E-16
41
1
10
-2.19999999999999
20
-10.9643215989582
30
-1E-16
41
1
10
-2.19999999999999
20
-10.7705258416001
30
-1E-16
41
1
10
-2.19999999999999
20
-10.5740001651574
30
-1E-16
41
1
10
-2.19999999999999
20
-10.4252201002359
30
-1E-16
41
1
10
-2.19999999999999
20
-10.2750653748105
30
-1E-16
41
1
10
-2.19999999999999
20
-10.123538466054
30
-1E-16
41
1
10
-2.19999999999999
20
-9.97064123613964
30
-1E-16
41
1
10
-2.19999999999999
20
-9.76496631110049
30
-1E-16
41
1
10
-2.19999999999999
20
-9.50443394039922
30
-1E-16
41
1
10
-2.19999999999999
20
-9.23936571773672
30
-1E-16
41
1
10
-2.19999999999999
20
-9.02461799205523
30
-1E-16
41
1
10
-2.19999999999999
20
-8.86219304073114
30
-1E-16
41
1
10
-2.19999999999999
20
-8.69841428877766
30
-1E-16
41
1
10
-2.19999999999999
20
-8.53328407858575
30
-1E-16
41
1
10
-2.19999999999999
20
-8.36680341033821
30
-1E-16
41
1
10
-2.19999999999999
20
-8.14304411844034
30
-1E-16
41
1
10
-2.19999999999999
20
-7.85994708827315
30
-1E-16
41
1
10
-2.19999999999999
20
-7.51487112820209
30
-1E-16
41
1
10
-2.19999999999999
20
-7.22282328452872
30
-1E-16
41
1
10
-2.19999999999999
20
-6.98653550324826
30
-1E-16
41
1
10
-2.19999999999999
20
-6.80797159432129
30
-1E-16
41
1
10
-2.19999999999999
20
-6.62807271786153
30
-1E-16
41
1
10
-2.19999999999999
20
-6.44684092947378
30
-1E-16
41
1
10
-2.19999999999999
20
-6.26427796235188
30
-1E-16
41
1
10
-2.19999999999999
20
-6.0803860968085
30
-1E-16
41
1
10
-2.19999999999999
20
-5.89516734859464
30
-1E-16
41
1
10
-2.19999999999999
20
-5.70862461825791
30
-1E-16
41
1
10
-2.19999999999999
20
-5.52076102284181
30
-1E-16
41
1
10
-2.19999999999999
20
-5.33157993903225
30
-1E-16
41
1
10
-2.19999999999999
20
-5.14108500618136
30
-1E-16
41
1
10
-2.19999999999999
20
-4.94928076863457
30
-1E-16
41
1
10
-2.19999999999999
20
-4.75617249379653
30
-1E-16
41
1
10
-2.19999999999999
20
-4.56176617271484
30
-1E-16
41
1
10
-2.19999999999999
20
-4.36606871643775
30
-1E-16
41
1
10
-2.19999999999999
20
-4.169088511784
30
-1E-16
41
1
10
-2.19999999999999
20
-4.00386592221614
30
-1E-16
41
1
10
-2.19999999999999
20
-3.87107811616198
30
-1E-16
41
1
10
-2.19999999999999
20
-3.77116418775421
30
-1E-16
41
1
10
-2.19999999999999
20
-3.67093805397229
30
-1E-16
41
1
10
-2.19999999999999
20
-3.53690183437428
30
-1E-16
41
1
10
-2.19999999999999
20
-3.36855659963138
30
-1E-16
41
1
10
-2.19999999999999
20
-3.19919952332836
30
-1E-16
41
1
10
-2.19999999999999
20
-3.06314133551615
30
-1E-16
41
1
10
-2.19999999999999
20
-2.92668912429065
30
-1E-16
41
1
10
-2.19999999999999
20
-2.78960994504098
30
-1E-16
41
1
10
-2.19999999999999
20
-2.65200559968281
30
-1E-16
41
1
10
-2.19999999999999
20
-2.54851063247165
30
-1E-16
41
1
10
-2.19999999999999
20
-2.44473977839391
30
-1E-16
41
1
10
-2.19999999999999
20
-2.34069812940876
30
-1E-16
41
1
10
-2.19999999999999
20
-2.23639086291988
30
-1E-16
41
1
10
-2.19999999999999
20
-2.13182396747069
30
-1E-16
41
1
10
-2.19999999999999
20
-2.02700349385552
30
-1E-16
41
1
10
-2.19999999999999
20
-1.92193654804359
30
-1E-16
41
1
10
-2.19999999999999
20
-1.81663009373557
30
-1E-16
41
1
10
-2.19999999999999
20
-1.71109232444707
30
-1E-16
41
1
10
-2.19999999999999
20
-1.60533156181745
30
-1E-16
41
1
10
-2.19999999999999
20
-1.49935699380708
30
-1E-16
41
1
10
-2.19999999999999
20
-1.39317848503856
30
-1E-16
41
1
10
-2.19999999999999
20
-1.2868063464968
30
-1E-16
41
1
10
-2.19999999999999
20
-1.18025198377217
30
-1E-16
41
1
10
-2.19999999999999
20
-1.07352702949097
30
-1E-16
41
1
10
-2.19999999999999
20
-0.966644355262389
30
-1E-16
41
1
10
-2.19999999999999
20
-0.859617007920519
30
-1E-16
41
1
10
-2.19999999999999
20
-0.752459230354134
30
-1E-16
41
1
10
-2.19999999999999
20
-0.645185463980482
30
-1E-16
41
1
10
-2.19999999999999
20
-0.537811175438549
30
-1E-16
41
1
10
-2.19999999999999
20
-0.430352036900842
30
-1E-16
41
1
10
-2.19999999999999
20
-0.322824507999513
30
-1E-16
41
1
10
-2.19999999999999
20
-0.21524522393176
30
-1E-16
41
1
10
-2.19999999999999
20
-0.107631313716837
30
-1E-16
41
1
10
-2.19999999999999
20
-5.9909553E-09
30
-1E-16
41
1
10
-2.19999999999999
20
0.107631302158183
30
-1E-16
41
1
10
-2.19999999999999
20
0.215245213108545
30
-1E-16
41
1
10
-2.19999999999999
20
0.322824496958617
30
-1E-16
41
1
10
-2.19999999999999
20
0.430352024765995
30
-1E-16
41
1
10
-2.19999999999999
20
0.537811163545626
30
-1E-16
41
1
10
-2.19999999999999
20
0.645185453734172
30
-1E-16
41
1
10
-2.19999999999999
20
0.752459219961509
30
-1E-16
41
1
10
-2.19999999999999
20
0.859616995486334
30
-1E-16
41
1
10
-2.19999999999999
20
0.96664434311532
30
-1E-16
41
1
10
-2.19999999999999
20
1.073527020087
30
-1E-16
41
1
10
-2.19999999999999
20
1.18025197439016
30
-1E-16
41
1
10
-2.19999999999999
20
1.28680633401083
30
-1E-16
41
1
10
-2.19999999999999
20
1.39317847233161
30
-1E-16
41
1
10
-2.19999999999999
20
1.49935698477981
30
-1E-16
41
1
10
-2.19999999999999
20
1.60533155404698
30
-1E-16
41
1
10
-2.19999999999999
20
1.71109231328518
30
-1E-16
41
1
10
-2.19999999999999
20
1.81663008016324
30
-1E-16
41
1
10
-2.19999999999999
20
1.92193653735015
30
-1E-16
41
1
10
-2.19999999999999
20
2.02700348752293
30
-1E-16
41
1
10
-2.19999999999999
20
2.13182395998015
30
-1E-16
41
1
10
-2.19999999999999
20
2.23639085040648
30
-1E-16
41
1
10
-2.19999999999999
20
2.375450816946
30
-1E-16
41
1
10
-2.19999999999999
20
2.51402705629772
30
-1E-16
41
1
10
-2.19999999999999
20
2.65200561172494
30
-1E-16
41
1
10
-2.19999999999999
20
2.75522026664268
30
-1E-16
41
1
10
-2.19999999999999
20
2.85815023786418
30
-1E-16
41
1
10
-2.19999999999999
20
2.96079189341756
30
-1E-16
41
1
10
-2.19999999999999
20
3.06314133422208
30
-1E-16
41
1
10
-2.19999999999999
20
3.19919951970698
30
-1E-16
41
1
10
-2.19999999999999
20
3.36855658184018
30
-1E-16
41
1
10
-2.19999999999999
20
3.5369018254882
30
-1E-16
41
1
10
-2.19999999999999
20
3.67093805129474
30
-1E-16
41
1
10
-2.19999999999999
20
3.77116418570387
30
-1E-16
41
1
10
-2.19999999999999
20
3.87107810854147
30
-1E-16
41
1
10
-2.19999999999999
20
4.00386590607064
30
-1E-16
41
1
10
-2.19999999999999
20
4.16908849962459
30
-1E-16
41
1
10
-2.19999999999999
20
4.36606873641344
30
-1E-16
41
1
10
-2.19999999999999
20
4.56176620564526
30
-1E-16
41
1
10
-2.19999999999999
20
4.75617251627347
30
-1E-16
41
1
10
-2.19999999999999
20
4.94928086714648
30
-1E-16
41
1
10
-2.19999999999999
20
5.14108511996025
30
-1E-16
41
1
10
-2.19999999999999
20
5.33157993388585
30
-1E-16
41
1
10
-2.19999999999999
20
5.52076103085633
30
-1E-16
41
1
10
-2.19999999999999
20
5.70862469092603
30
-1E-16
41
1
10
-2.19999999999999
20
5.89516728223867
30
-1E-16
41
1
10
-2.19999999999999
20
6.0803858592752
30
-1E-16
41
1
10
-2.19999999999999
20
6.26427776637016
30
-1E-16
41
1
10
-2.19999999999999
20
6.44684086969582
30
-1E-16
41
1
10
-2.19999999999999
20
6.62807270531451
30
-1E-16
41
1
10
-2.19999999999999
20
6.80797157864473
30
-1E-16
41
1
10
-2.19999999999999
20
6.98653548716825
30
-1E-16
41
1
10
-2.19999999999999
20
7.22282329277962
30
-1E-16
41
1
10
-2.19999999999999
20
7.51487111531026
30
-1E-16
41
1
10
-2.19999999999999
20
7.85994707617317
30
-1E-16
41
1
10
-2.19999999999999
20
8.14304412571011
30
-1E-16
41
1
10
-2.19999999999999
20
8.36680339868337
30
-1E-16
41
1
10
-2.19999999999999
20
8.53328405958746
30
-1E-16
41
1
10
-2.19999999999999
20
8.69841428000512
30
-1E-16
41
1
10
-2.19999999999999
20
8.86219304475887
30
-1E-16
41
1
10
-2.19999999999999
20
9.02461799380217
30
-1E-16
41
1
10
-2.19999999999999
20
9.23936570098886
30
-1E-16
41
1
10
-2.19999999999999
20
9.50443392738597
30
-1E-16
41
1
10
-2.19999999999999
20
9.76496631801302
30
-1E-16
41
1
10
-2.19999999999999
20
9.97064122920807
30
-1E-16
41
1
10
-2.19999999999999
20
10.1235384488298
30
-1E-16
41
1
10
-2.19999999999999
20
10.2750653600417
30
-1E-16
41
1
10
-2.19999999999999
20
10.4252200954492
30
-1E-16
41
1
10
-2.19999999999999
20
10.5740001677826
30
-1E-16
41
1
10
-2.19999999999999
20
10.7705258372791
30
-1E-16
41
1
10
-2.19999999999999
20
10.96432157968
30
-1E-16
41
1
10
-2.19999999999999
20
11.1553144466797
30
-1E-16
41
1
10
-2.19999999999999
20
11.3444552561941
30
-1E-16
41
1
10
-2.19999999999999
20
11.5774197426994
30
-1E-16
41
1
10
-2.19999999999999
20
11.8057193844339
30
-1E-16
41
1
10
-2.19999999999999
20
11.9855279960913
30
-1E-16
41
1
10
-2.19999999999999
20
12.1634558634281
30
-1E-16
41
1
10
-2.19999999999999
20
12.3385783725546
30
-1E-16
41
1
10
-2.19999999999999
20
12.510828990928
30
-1E-16
41
1
10
-2.19999999999999
20
12.6385945304865
30
-1E-16
41
1
10
-2.19999999999999
20
12.7649271524075
30
-1E-16
41
1
10
-2.19999999999999
20
12.9314463879873
30
-1E-16
41
1
10
-2.19999999999999
20
13.0951031858018
30
-1E-16
41
1
10
-2.19999999999999
20
13.2558316845062
30
-1E-16
41
1
10
-2.19999999999999
20
13.3749248852381
30
-1E-16
41
1
10
-2.19999999999999
20
13.4925540283558
30
-1E-16
41
1
10
-2.19999999999999
20
13.6474264445925
30
-1E-16
41
1
10
-2.19999999999999
20
13.7993681823229
30
-1E-16
41
1
10
-2.19999999999999
20
13.9483131149779
30
-1E-16
41
1
10
-2.19999999999999
20
14.0585319196999
30
-1E-16
41
1
10
-2.19999999999999
20
14.1672492498436
30
-1E-16
41
1
10
-2.19999999999999
20
14.310188578504
30
-1E-16
41
1
10
-2.19999999999999
20
14.4501162009323
30
-1E-16
41
1
10
-2.19999999999999
20
14.5869647024964
30
-1E-16
41
1
10
-2.19999999999999
20
14.6880675684927
30
-1E-16
41
1
10
-2.19999999999999
20
14.7876243835494
30
-1E-16
41
1
10
-2.19999999999999
20
14.9182892137509
30
-1E-16
41
1
10
-2.19999999999999
20
15.0458463802595
30
-1E-16
41
1
10
-2.19999999999999
20
15.1702262286607
30
-1E-16
41
1
10
-2.19999999999999
20
15.2619258251736
30
-1E-16
41
1
10
-2.19999999999999
20
15.3520264687641
30
-1E-16
41
1
10
-2.19999999999999
20
15.4700110710185
30
-1E-16
41
1
10
-2.19999999999999
20
15.5847743861311
30
-1E-16
41
1
10
-2.19999999999999
20
15.6962433497342
30
-1E-16
41
1
10
-2.19999999999999
20
15.7781982427732
30
-1E-16
41
1
10
-2.19999999999999
20
15.8584913887799
30
-1E-16
41
1
10
-2.19999999999999
20
15.9633134995801
30
-1E-16
41
1
10
-2.19999999999999
20
16.0647793469533
30
-1E-16
41
1
10
-2.19999999999999
20
16.1628111167189
30
-1E-16
41
1
10
-2.19999999999999
20
16.2346146587631
30
-1E-16
41
1
10
-2.19999999999999
20
16.3046816133433
30
-1E-16
41
1
10
-2.19999999999999
20
16.3729983406747
30
-1E-16
41
1
10
-2.19999999999999
20
16.4395493732765
30
-1E-16
41
1
10
-2.19999999999999
20
16.5043209819811
30
-1E-16
41
1
10
-2.19999999999999
20
16.5672977573629
30
-1E-16
41
1
10
-2.19999999999999
20
16.6488472996884
30
-1E-16
41
1
10
-2.19999999999999
20
16.72675615712
30
-1E-16
41
1
10
-2.19999999999999
20
16.8009296734765
30
1E-16
41
1
10
-2.19999999999999
20
16.8725984751516
30
1E-16
41
1
10
-2.19999999999999
20
16.9404819965209
30
1E-16
41
1
10
-2.19999999999999
20
17.0044820563696
30
1E-16
41
1
10
-2.19999999999999
20
17.0658713749173
30
0
41
1
10
-2.19999999999999
20
17.1233138560685
30
0
41
1
10
-2.19999999999999
20
17.1766986759847
30
0
41
1
10
-2.19999999999999
20
17.2146924230801
30
0
41
1
10
-2.19999999999999
20
17.2506132986913
30
0
41
1
10
-2.19999999999999
20
17.2957083393221
30
0
41
1
10
-2.19999999999999
20
17.3365615480365
30
0
41
1
10
-2.19999999999999
20
17.373046254225
30
1E-16
41
1
10
-2.19999999999999
20
17.3981999720817
30
1E-16
41
1
10
-2.19999999999999
20
17.4211116708093
30
1E-16
41
1
10
-2.19999999999999
20
17.4417480829298
30
1E-16
41
1
10
-2.19999999999999
20
17.4600756660116
30
1E-16
41
1
10
-2.19999999999999
20
17.4760589345483
30
-1E-16
41
1
10
-2.19999999999999
20
17.4896606050755
30
-1E-16
41
1
10
-2.19999999999999
20
17.5008423359265
30
-1E-16
41
1
10
-2.19999999999999
20
17.5092146320651
30
-1E-16
41
1
10
-2.19999999999996
20
17.5132054740853
30
-1E-16
41
1
10
-2.19999999999996
20
17.5147454486307
30
-1E-16
0
SPLINE
5
DB
100
AcDbEntity
8
SK1
62
256
6
ByLayer
370
18
48
1
60
0
100
AcDbSpline
70
4
71
3
72
24
73
20
40
0
40
0
40
0
40
0
40
0.03125
40
0.03125
40
0.0625000000000001
40
0.0625000000000001
40
0.0937500000000001
40
0.0937500000000001
40
0.125
40
0.125
40
0.1875
40
0.1875
40
0.25
40
0.25
40
0.5
40
0.5
40
0.75
40
0.75
40
1
40
1
40
1
40
1
41
1
10
-0.394976888872947
20
5.38678223324206
30
0
41
1
10
-0.388503745329047
20
5.38128319480973
30
0
41
1
10
-0.381388986847981
20
5.37647349151379
30
0
41
1
10
-0.365645130729518
20
5.37003095057869
30
0
41
1
10
-0.356875018489433
20
5.3685255918283
30
0
41
1
10
-0.339464630966944
20
5.37101783691438
30
0
41
1
10
-0.33098524294985
20
5.37503833637226
30
0
41
1
10
-0.316510652821108
20
5.38583151921279
30
0
41
1
10
-0.310292654930208
20
5.39251318392274
30
0
41
1
10
-0.293803612204783
20
5.41390802600506
30
0
41
1
10
-0.285544077573888
20
5.42989034626171
30
0
41
1
10
-0.271326596659975
20
5.46242047093597
30
0
41
1
10
-0.265514310429921
20
5.47895729783241
30
0
41
1
10
-0.239827472074296
20
5.56231823892315
30
0
41
1
10
-0.229021554777006
20
5.63115874840238
30
0
41
1
10
-0.212565919448906
20
5.76699630063501
30
0
41
1
10
-0.207636724466027
20
5.8346241685793
30
0
41
1
10
-0.20131057749208
20
5.96939105744727
30
0
41
1
10
-0.200000000000358
20
6.03652860978244
30
0
41
1
10
-0.200000000000358
20
6.10344667966001
30
0
0
SPLINE
5
DC
100
AcDbEntity
8
SK1
62
256
6
ByLayer
370
13
48
1
60
0
100
AcDbSpline
70
4
71
3
72
103
73
99
40
0
40
0
40
0
40
0
40
0.0079547669403015
40
0.0167872764278452
40
0.0256197859153888
40
0.0344522954029325
40
0.0432848048904761
40
0.0521173143780198
40
0.0609498238655635
40
0.0697823333531071
40
0.0786148428406508
40
0.0874473523281944
40
0.105112371303282
40
0.113944880790825
40
0.122777390278369
40
0.131609899765913
40
0.140442409253456
40
0.158107428228544
40
0.166939937716087
40
0.175772447203631
40
0.193437466178718
40
0.202269975666262
40
0.211102485153806
40
0.228767504128893
40
0.237600013616437
40
0.24643252310398
40
0.255265032591524
40
0.264097542079068
40
0.272930051566611
40
0.281762561054155
40
0.290595070541699
40
0.299427580029242
40
0.31709259900433
40
0.325925108491873
40
0.334757617979417
40
0.343590127466961
40
0.352422636954504
40
0.370087655929592
40
0.378920165417135
40
0.383336420160907
40
0.387752674904679
40
0.396585184392223
40
0.405417693879766
40
0.423082712854854
40
0.431915222342397
40
0.440747731829941
40
0.449580241317485
40
0.458412750805028
40
0.476077769780116
40
0.484910279267659
40
0.493742788755203
40
0.502575298242747
40
0.51140780773029
40
0.529072826705378
40
0.537905336192921
40
0.546737845680465
40
0.555570355168008
40
0.564402864655552
40
0.58206788363064
40
0.590900393118183
40
0.599732902605727
40
0.608565412093271
40
0.617397921580814
40
0.635062940555901
40
0.643895450043445
40
0.652727959530989
40
0.670392978506076
40
0.688057997481163
40
0.696890506968707
40
0.705723016456251
40
0.723388035431338
40
0.732220544918882
40
0.741053054406425
40
0.749885563893969
40
0.758718073381513
40
0.767550582869056
40
0.7763830923566
40
0.794048111331687
40
0.811713130306775
40
0.820545639794318
40
0.829378149281862
40
0.838210658769406
40
0.847043168256949
40
0.855875677744493
40
0.864708187232037
40
0.882373206207124
40
0.900038225182211
40
0.917703244157299
40
0.926535753644842
40
0.935368263132386
40
0.94420077261993
40
0.953033282107473
40
0.961865791595017
40
0.970698301082561
40
0.979530810570104
40
0.988363320057648
40
0.997195829545192
40
1
40
1
40
1
40
1
41
1
10
-0.394976888875249
20
-17.3601838953765
30
0
41
1
10
-0.394976888875277
20
-17.358636970062
30
0
41
1
10
-0.394976888875277
20
-17.3546528089787
30
0
41
1
10
-0.394976888875277
20
-17.3462909802274
30
0
41
1
10
-0.394976888875277
20
-17.3352007360526
30
0
41
1
10
-0.394976888875277
20
-17.3217086355548
30
0
41
1
10
-0.394976888875277
20
-17.3058521626298
30
0
41
1
10
-0.394976888875277
20
-17.2876678382251
30
0
41
1
10
-0.394976888875277
20
-17.2671905287463
30
0
41
1
10
-0.394976888875277
20
-17.2444531170066
30
0
41
1
10
-0.394976888875277
20
-17.2194882612007
30
0
41
1
10
-0.394976888875277
20
-17.1832568369982
30
0
41
1
10
-0.394976888875277
20
-17.1427382787905
30
0
41
1
10
-0.394976888875277
20
-17.0979462837243
30
0
41
1
10
-0.394976888875277
20
-17.0622798511847
30
0
41
1
10
-0.394976888875277
20
-17.024552403858
30
0
41
1
10
-0.394976888875277
20
-16.9715145305624
30
0
41
1
10
-0.394976888875277
20
-16.9145141001581
30
0
41
1
10
-0.394976888875277
20
-16.8535135500206
30
0
41
1
10
-0.394976888875277
20
-16.7899145981056
30
0
41
1
10
-0.394976888875277
20
-16.7225357579897
30
0
41
1
10
-0.394976888875277
20
-16.6513062771915
30
0
41
1
10
-0.394976888875277
20
-16.5775834628441
30
0
41
1
10
-0.394976888875277
20
-16.5002370830775
30
0
41
1
10
-0.394976888875277
20
-16.4191737297992
30
0
41
1
10
-0.394976888875277
20
-16.3565947902754
30
0
41
1
10
-0.394976888875277
20
-16.2922298358683
30
0
41
1
10
-0.394976888875277
20
-16.2260943811825
30
0
41
1
10
-0.394976888875277
20
-16.1582019472912
30
0
41
1
10
-0.394976888875277
20
-16.0885678110446
30
0
41
1
10
-0.394976888875277
20
-16.0172057969154
30
0
41
1
10
-0.394976888875277
20
-15.9197362187748
30
0
41
1
10
-0.394976888875277
20
-15.8189643831875
30
0
41
1
10
-0.394976888875277
20
-15.7147364921469
30
0
41
1
10
-0.394976888875277
20
-15.6349267624759
30
0
41
1
10
-0.394976888875277
20
-15.5534637367265
30
0
41
1
10
-0.394976888875277
20
-15.4426196109061
30
0
41
1
10
-0.394976888875277
20
-15.3286250474485
30
0
41
1
10
-0.394976888875277
20
-15.2259771214207
30
0
41
1
10
-0.394976888875277
20
-15.1665127141503
30
0
41
1
10
-0.394976888875277
20
-15.1065165223896
30
0
41
1
10
-0.394976888875277
20
-15.0305708978545
30
0
41
1
10
-0.394976888875277
20
-14.9068780878822
30
0
41
1
10
-0.394976888875277
20
-14.780164253239
30
0
41
1
10
-0.394976888875277
20
-14.6502180419884
30
0
41
1
10
-0.394976888875277
20
-14.5512443837086
30
0
41
1
10
-0.394976888875277
20
-14.4507333681675
30
0
41
1
10
-0.394976888875277
20
-14.3146351237356
30
0
41
1
10
-0.394976888875277
20
-14.1756274475866
30
0
41
1
10
-0.394976888875277
20
-14.0334711580348
30
0
41
1
10
-0.394976888875277
20
-13.9253889718329
30
0
41
1
10
-0.394976888875277
20
-13.8158144768541
30
0
41
1
10
-0.394976888875277
20
-13.6676860552913
30
0
41
1
10
-0.394976888875277
20
-13.5167448476072
30
0
41
1
10
-0.394976888875277
20
-13.3627236547323
30
0
41
1
10
-0.394976888875277
20
-13.2457849051211
30
0
41
1
10
-0.394976888875277
20
-13.1273919665529
30
0
41
1
10
-0.394976888875277
20
-12.9675509360494
30
0
41
1
10
-0.394976888875277
20
-12.8049814458532
30
0
41
1
10
-0.394976888875277
20
-12.6393872302303
30
0
41
1
10
-0.394976888875277
20
-12.5138050519686
30
0
41
1
10
-0.394976888875277
20
-12.3868007979199
30
0
41
1
10
-0.394976888875277
20
-12.2155153161813
30
0
41
1
10
-0.394976888875277
20
-12.0415756040849
30
0
41
1
10
-0.394976888875277
20
-11.864654349678
30
0
41
1
10
-0.394976888875277
20
-11.685867652055
30
0
41
1
10
-0.394976888875277
20
-11.4590305143918
30
0
41
1
10
-0.394976888875277
20
-11.2275701299333
30
0
41
1
10
-0.394976888875277
20
-11.0395280782787
30
0
41
1
10
-0.394976888875277
20
-10.8496518506122
30
0
41
1
10
-0.394976888875277
20
-10.6572263081632
30
0
41
1
10
-0.394976888875277
20
-10.4618684189216
30
0
41
1
10
-0.394976888875277
20
-10.3140380843155
30
0
41
1
10
-0.394976888875277
20
-10.1648480067744
30
0
41
1
10
-0.394976888875277
20
-10.0143015815252
30
0
41
1
10
-0.394976888875277
20
-9.86240080704218
30
0
41
1
10
-0.394976888875277
20
-9.65799296546987
30
0
41
1
10
-0.394976888875277
20
-9.39928045092248
30
0
41
1
10
-0.394976888875277
20
-9.1360908691222
30
0
41
1
10
-0.394976888875277
20
-8.922721214403
30
0
41
1
10
-0.394976888875277
20
-8.76141979186249
30
0
41
1
10
-0.394976888875277
20
-8.59878513137221
30
0
41
1
10
-0.394976888875277
20
-8.434820354761
30
0
41
1
10
-0.394976888875277
20
-8.26952736598562
30
0
41
1
10
-0.394976888875277
20
-8.04728288344245
30
0
41
1
10
-0.394976888875277
20
-7.76637138106329
30
0
41
1
10
-0.394976888875277
20
-7.42389186204957
30
0
41
1
10
-0.394976888875277
20
-7.13420903787926
30
0
41
1
10
-0.394976888875277
20
-6.89966740060396
30
0
41
1
10
-0.394976888875277
20
-6.72253430941348
30
0
41
1
10
-0.394976888875277
20
-6.54409937286439
30
0
41
1
10
-0.394976888875277
20
-6.3643662218949
30
0
41
1
10
-0.394976888875277
20
-6.18333830919048
30
0
41
1
10
-0.394976888875277
20
-6.00101977124669
30
0
41
1
10
-0.394976888875277
20
-5.8174145162354
30
0
41
1
10
-0.394976888875277
20
-5.63252719489225
30
0
41
1
10
-0.394976888875277
20
-5.48871660168982
30
0
41
1
10
-0.394976888875277
20
-5.4065930765673
30
0
41
1
10
-0.394976888875277
20
-5.38678189578289
30
0
0
SPLINE
5
DD
100
AcDbEntity
8
SK1
62
256
6
ByLayer
370
13
48
1
60
0
100
AcDbSpline
70
4
71
3
72
284
73
280
40
0
40
0
40
0
40
0
40
0.0001425988978421
40
0.0037130064024835
40
0.007283413907125
40
0.0108538214117664
40
0.0144242289164078
40
0.0179946364210493
40
0.0215650439256907
40
0.0251354514303322
40
0.0287058589349736
40
0.0322762664396151
40
0.0358466739442565
40
0.0429874889535394
40
0.0465578964581809
40
0.0501283039628223
40
0.0536987114674637
40
0.0572691189721052
40
0.0644099339813881
40
0.0679803414860295
40
0.071550748990671
40
0.0786915639999539
40
0.0822619715045953
40
0.0858323790092368
40
0.0929731940185196
40
0.0965436015231611
40
0.100114009027803
40
0.103684416532444
40
0.107254824037085
40
0.110825231541727
40
0.114395639046368
40
0.11796604655101
40
0.121536454055651
40
0.128677269064934
40
0.132247676569576
40
0.135818084074217
40
0.139388491578858
40
0.1429588990835
40
0.150099714092783
40
0.153670121597424
40
0.155455325349745
40
0.157240529102066
40
0.160810936606707
40
0.164381344111349
40
0.171522159120631
40
0.175092566625273
40
0.178662974129914
40
0.182233381634556
40
0.185803789139197
40
0.19294460414848
40
0.196515011653122
40
0.200085419157763
40
0.203655826662404
40
0.207226234167046
40
0.214367049176329
40
0.21793745668097
40
0.221507864185612
40
0.225078271690253
40
0.228648679194895
40
0.235789494204177
40
0.239359901708819
40
0.24293030921346
40
0.246500716718102
40
0.250071124222743
40
0.257211939232026
40
0.260782346736668
40
0.264352754241309
40
0.271493569250592
40
0.278634384259875
40
0.282204791764516
40
0.285775199269158
40
0.292916014278441
40
0.296486421783082
40
0.300056829287723
40
0.303627236792365
40
0.307197644297006
40
0.310768051801648
40
0.314338459306289
40
0.321479274315572
40
0.328620089324855
40
0.332190496829496
40
0.335760904334138
40
0.339331311838779
40
0.342901719343421
40
0.346472126848062
40
0.350042534352704
40
0.357183349361987
40
0.364324164371269
40
0.371464979380552
40
0.375035386885194
40
0.378605794389835
40
0.382176201894477
40
0.385746609399118
40
0.38931701690376
40
0.392887424408401
40
0.396457831913043
40
0.400028239417684
40
0.403598646922325
40
0.407169054426967
40
0.410739461931608
40
0.41430986943625
40
0.417880276940891
40
0.421450684445533
40
0.425021091950174
40
0.428591499454816
40
0.432161906959457
40
0.433947110711778
40
0.435732314464098
40
0.437517518216419
40
0.43930272196874
40
0.442873129473381
40
0.446443536978023
40
0.448228740730343
40
0.450013944482664
40
0.453584351987306
40
0.455369555739626
40
0.457154759491947
40
0.458939963244268
40
0.460725166996589
40
0.462510370748909
40
0.46429557450123
40
0.466080778253551
40
0.467865982005871
40
0.469651185758192
40
0.471436389510513
40
0.473221593262833
40
0.475006797015154
40
0.476792000767475
40
0.478577204519796
40
0.480362408272117
40
0.482147612024437
40
0.483932815776758
40
0.485718019529079
40
0.487503223281399
40
0.48928842703372
40
0.491073630786041
40
0.492858834538361
40
0.494644038290682
40
0.496429242043003
40
0.498214445795324
40
0.499999649547644
40
0.501784853299965
40
0.503570057052286
40
0.505355260804607
40
0.507140464556927
40
0.508925668309248
40
0.510710872061569
40
0.512496075813889
40
0.51428127956621
40
0.516066483318531
40
0.517851687070852
40
0.519636890823172
40
0.521422094575493
40
0.523207298327814
40
0.524992502080134
40
0.526777705832455
40
0.528562909584776
40
0.530348113337097
40
0.532133317089417
40
0.533918520841738
40
0.535703724594059
40
0.53748892834638
40
0.5392741320987
40
0.542844539603342
40
0.544629743355663
40
0.546414947107983
40
0.548200150860304
40
0.549985354612625
40
0.551770558364945
40
0.553555762117266
40
0.557126169621908
40
0.560696577126549
40
0.56248178087887
40
0.56426698463119
40
0.566052188383511
40
0.567837392135832
40
0.571407799640473
40
0.574978207145115
40
0.578548614649756
40
0.582119022154398
40
0.585689429659039
40
0.58925983716368
40
0.592830244668322
40
0.596400652172963
40
0.599971059677605
40
0.603541467182246
40
0.607111874686888
40
0.610682282191529
40
0.614252689696171
40
0.617823097200812
40
0.621393504705454
40
0.624963912210095
40
0.628534319714736
40
0.635675134724019
40
0.642815949733302
40
0.649956764742585
40
0.653527172247226
40
0.657097579751868
40
0.660667987256509
40
0.664238394761151
40
0.667808802265792
40
0.671379209770434
40
0.678520024779717
40
0.685660839789
40
0.689231247293641
40
0.692801654798282
40
0.696372062302924
40
0.699942469807565
40
0.703512877312207
40
0.707083284816848
40
0.714224099826131
40
0.717794507330773
40
0.721364914835414
40
0.728505729844697
40
0.73564654485398
40
0.739216952358621
40
0.742787359863263
40
0.749928174872546
40
0.753498582377187
40
0.757068989881828
40
0.76063939738647
40
0.764209804891111
40
0.771350619900394
40
0.774921027405036
40
0.778491434909677
40
0.782061842414319
40
0.78563224991896
40
0.792773064928243
40
0.796343472432884
40
0.799913879937526
40
0.803484287442167
40
0.807054694946809
40
0.814195509956092
40
0.817765917460733
40
0.821336324965374
40
0.824906732470016
40
0.828477139974657
40
0.83561795498394
40
0.839188362488582
40
0.842758769993223
40
0.846329177497865
40
0.849899585002506
40
0.857040400011789
40
0.86061080751643
40
0.864181215021072
40
0.867751622525713
40
0.871322030030355
40
0.878462845039638
40
0.882033252544279
40
0.885603660048921
40
0.889174067553562
40
0.892744475058203
40
0.896314882562845
40
0.899885290067486
40
0.903455697572128
40
0.907026105076769
40
0.914166920086052
40
0.917737327590693
40
0.921307735095335
40
0.928448550104618
40
0.932018957609259
40
0.935589365113901
40
0.942730180123184
40
0.946300587627825
40
0.949870995132466
40
0.953441402637108
40
0.957011810141749
40
0.964152625151032
40
0.967723032655674
40
0.971293440160315
40
0.974863847664957
40
0.978434255169598
40
0.982004662674239
40
0.985575070178881
40
0.989145477683522
40
0.992715885188164
40
0.996286292692805
40
0.999856700197447
40
1
40
1
40
1
40
1
41
1
10
-1.99503997793931
20
-17.3206885158294
30
-1E-16
41
1
10
-1.99503997793931
20
-17.3206247424621
30
-1E-16
41
1
10
-1.99503997793931
20
-17.3189467385239
30
-1E-16
41
1
10
-1.99503997793928
20
-17.3147637210185
30
-1E-16
41
1
10
-1.99503997793928
20
-17.3061342543252
30
-1E-16
41
1
10
-1.99503997793928
20
-17.2950677779805
30
-1E-16
41
1
10
-1.99503997793928
20
-17.2816041393821
30
-1E-16
41
1
10
-1.99503997793928
20
-17.2657806121613
30
1E-16
41
1
10
-1.99503997793928
20
-17.2476335178127
30
1E-16
41
1
10
-1.99503997793928
20
-17.2271975480507
30
1E-16
41
1
10
-1.99503997793928
20
-17.204505416066
30
1E-16
41
1
10
-1.99503997793928
20
-17.1795896288677
30
1E-16
41
1
10
-1.99503997793928
20
-17.1434240170936
30
0
41
1
10
-1.99503997793928
20
-17.1029924178939
30
0
41
1
10
-1.99503997793928
20
-17.0582791544304
30
0
41
1
10
-1.99503997793928
20
-17.0226788299273
30
0
41
1
10
-1.99503997793928
20
-16.9850205784631
30
0
41
1
10
-1.99503997793928
20
-16.9320728583858
30
0
41
1
10
-1.99503997793928
20
-16.8751872797734
30
0
41
1
10
-1.99503997793928
20
-16.8142877377232
30
1E-16
41
1
10
-1.99503997793928
20
-16.7507930080793
30
1E-16
41
1
10
-1.99503997793928
20
-16.6835453043615
30
1E-16
41
1
10
-1.99503997793928
20
-16.6124299668847
30
1E-16
41
1
10
-1.99503997793928
20
-16.538824252381
30
-1E-16
41
1
10
-1.99503997793928
20
-16.4616240235723
30
-1E-16
41
1
10
-1.99503997793928
20
-16.3806869997558
30
-1E-16
41
1
10
-1.99503997793928
20
-16.3182114280861
30
-1E-16
41
1
10
-1.99503997793928
20
-16.2539521307207
30
-1E-16
41
1
10
-1.99503997793928
20
-16.1879246525291
30
-1E-16
41
1
10
-1.99503997793928
20
-16.1201424632647
30
-1E-16
41
1
10
-1.99503997793928
20
-16.0506207879892
30
-1E-16
41
1
10
-1.99503997793928
20
-15.9793734967038
30
-1E-16
41
1
10
-1.99503997793928
20
-15.8820499896637
30
-1E-16
41
1
10
-1.99503997793928
20
-15.781458474053
30
-1E-16
41
1
10
-1.99503997793928
20
-15.677384979663
30
-1E-16
41
1
10
-1.99503997793928
20
-15.5977008570348
30
-1E-16
41
1
10
-1.99503997793928
20
-15.5163656330196
30
-1E-16
41
1
10
-1.99503997793928
20
-15.4056838559475
30
-1E-16
41
1
10
-1.99503997793928
20
-15.2918890331241
30
-1E-16
41
1
10
-1.99503997793928
20
-15.1893946011099
30
-1E-16
41
1
10
-1.99503997793928
20
-15.130016414734
30
-1E-16
41
1
10
-1.99503997793928
20
-15.070107125687
30
-1E-16
41
1
10
-1.99503997793928
20
-14.9942845913974
30
-1E-16
41
1
10
-1.99503997793928
20
-14.8707702595594
30
-1E-16
41
1
10
-1.99503997793928
20
-14.7442755571137
30
-1E-16
41
1
10
-1.99503997793928
20
-14.614516060936
30
-1E-16
41
1
10
-1.99503997793928
20
-14.5156939237825
30
-1E-16
41
1
10
-1.99503997793928
20
-14.4153366880849
30
-1E-16
41
1
10
-1.99503997793928
20
-14.2794333813788
30
-1E-16
41
1
10
-1.99503997793928
20
-14.1406647319193
30
-1E-16
41
1
10
-1.99503997793928
20
-13.99871189727
30
-1E-16
41
1
10
-1.99503997793928
20
-13.8907947392413
30
-1E-16
41
1
10
-1.99503997793928
20
-13.7813876543746
30
-1E-16
41
1
10
-1.99503997793928
20
-13.6334713858817
30
-1E-16
41
1
10
-1.99503997793928
20
-13.4827901435456
30
-1E-16
41
1
10
-1.99503997793928
20
-13.3289901210133
30
-1E-16
41
1
10
-1.99503997793928
20
-13.2122307543484
30
-1E-16
41
1
10
-1.99503997793928
20
-13.0940197637218
30
-1E-16
41
1
10
-1.99503997793928
20
-12.9344093235711
30
-1E-16
41
1
10
-1.99503997793928
20
-12.7721223466594
30
-1E-16
41
1
10
-1.99503997793928
20
-12.6067684751262
30
-1E-16
41
1
10
-1.99503997793928
20
-12.4813812819682
30
-1E-16
41
1
10
-1.99503997793928
20
-12.3545748313203
30
-1E-16
41
1
10
-1.99503997793928
20
-12.1835401209566
30
-1E-16
41
1
10
-1.99503997793928
20
-12.0099077334538
30
-1E-16
41
1
10
-1.99503997793928
20
-11.8332480225582
30
-1E-16
41
1
10
-1.99503997793928
20
-11.6547268446385
30
-1E-16
41
1
10
-1.99503997793928
20
-11.4282697094187
30
-1E-16
41
1
10
-1.99503997793928
20
-11.1972001338813
30
-1E-16
41
1
10
-1.99503997793928
20
-11.0094435667743
30
-1E-16
41
1
10
-1.99503997793928
20
-10.8198574709635
30
-1E-16
41
1
10
-1.99503997793928
20
-10.6277879483349
30
-1E-16
41
1
10
-1.99503997793928
20
-10.432733482583
30
-1E-16
41
1
10
-1.99503997793928
20
-10.2851499142426
30
-1E-16
41
1
10
-1.99503997793928
20
-10.1362104789651
30
-1E-16
41
1
10
-1.99503997793928
20
-9.98591881051331
30
-1E-16
41
1
10
-1.99503997793928
20
-9.83427694277646
30
-1E-16
41
1
10
-1.99503997793928
20
-9.6301983246166
30
-1E-16
41
1
10
-1.99503997793928
20
-9.37195865915049
30
-1E-16
41
1
10
-1.99503997793928
20
-9.10925720032841
30
-1E-16
41
1
10
-1.99503997793928
20
-8.89624560664996
30
-1E-16
41
1
10
-1.99503997793928
20
-8.73523610803539
30
-1E-16
41
1
10
-1.99503997793928
20
-8.57289871422529
30
-1E-16
41
1
10
-1.99503997793928
20
-8.40923674956807
30
-1E-16
41
1
10
-1.99503997793928
20
-8.24425235284596
30
-1E-16
41
1
10
-1.99503997793928
20
-8.02240145976876
30
-1E-16
41
1
10
-1.99503997793928
20
-7.74205781809903
30
-1E-16
41
1
10
-1.99503997793928
20
-7.40025292645402
30
-1E-16
41
1
10
-1.99503997793928
20
-7.11118459991687
30
-1E-16
41
1
10
-1.99503997793928
20
-6.87709665926303
30
-1E-16
41
1
10
-1.99503997793928
20
-6.70033533418757
30
-1E-16
41
1
10
-1.99503997793928
20
-6.52228076981257
30
-1E-16
41
1
10
-1.99503997793928
20
-6.34293700639154
30
-1E-16
41
1
10
-1.99503997793928
20
-6.16230794338162
30
-1E-16
41
1
10
-1.99503997793928
20
-5.98039819956611
30
-1E-16
41
1
10
-1.99503997793928
20
-5.79721217482029
30
-1E-16
41
1
10
-1.99503997793928
20
-5.61275497462711
30
-1E-16
41
1
10
-1.99503997793928
20
-5.42703263168386
30
-1E-16
41
1
10
-1.99503997793928
20
-5.24005183821342
30
-1E-16
41
1
10
-1.99503997793928
20
-5.05181944357969
30
-1E-16
41
1
10
-1.99503997793928
20
-4.86234315765492
30
-1E-16
41
1
10
-1.99503997793928
20
-4.67163198724225
30
-1E-16
41
1
10
-1.99503997793928
20
-4.47969611179559
30
-1E-16
41
1
10
-1.99503997793928
20
-4.28654650347451
30
-1E-16
41
1
10
-1.99503997793928
20
-4.09219631216948
30
-1E-16
41
1
10
-1.99503997793928
20
-3.92934662557204
30
-1E-16
41
1
10
-1.99503997793928
20
-3.79829732832764
30
-1E-16
41
1
10
-1.99503997793928
20
-3.69979996514493
30
-1E-16
41
1
10
-1.99503997793928
20
-3.60101470543907
30
-1E-16
41
1
10
-1.99503997793928
20
-3.46881383607317
30
-1E-16
41
1
10
-1.99503997793928
20
-3.30310842941955
30
-1E-16
41
1
10
-1.99503997793928
20
-3.13647582573117
30
-1E-16
41
1
10
-1.99503997793928
20
-3.00241855173454
30
-1E-16
41
1
10
-1.99503997793928
20
-2.86801083241156
30
-1E-16
41
1
10
-1.99503997793928
20
-2.73345090264118
30
-1E-16
41
1
10
-1.99503997793928
20
-2.59800197223717
30
-1E-16
41
1
10
-1.99503997793928
20
-2.49626703199883
30
-1E-16
41
1
10
-1.99503997793928
20
-2.39428973936722
30
-1E-16
41
1
10
-1.99503997793928
20
-2.29207637206397
30
-1E-16
41
1
10
-1.99503997793928
20
-2.18963189754737
30
-1E-16
41
1
10
-1.99503997793928
20
-2.08696370566375
30
-1E-16
41
1
10
-1.99503997793928
20
-1.98407766278629
30
-1E-16
41
1
10
-1.99503997793928
20
-1.88098142742643
30
-1E-16
41
1
10
-1.99503997793928
20
-1.77768276258209
30
-1E-16
41
1
10
-1.99503997793928
20
-1.67418896894682
30
-1E-16
41
1
10
-1.99503997793928
20
-1.57050948928742
30
-1E-16
41
1
10
-1.99503997793928
20
-1.46665210416356
30
-1E-16
41
1
10
-1.99503997793928
20
-1.36262723194542
30
-1E-16
41
1
10
-1.99503997793928
20
-1.25844373877697
30
-1E-16
41
1
10
-1.99503997793928
20
-1.15411258033262
30
-1E-16
41
1
10
-1.99503997793928
20
-1.04964379294299
30
-1E-16
41
1
10
-1.99503997793928
20
-0.945048896197648
30
-1E-16
41
1
10
-1.99503997793928
20
-0.840338966235578
30
-1E-16
41
1
10
-1.99503997793928
20
-0.735526093018507
30
-1E-16
41
1
10
-1.99503997793928
20
-0.630622120770227
30
-1E-16
41
1
10
-1.99503997793928
20
-0.525639723935797
30
-1E-16
41
1
10
-1.99503997793928
20
-0.420591355720489
30
-1E-16
41
1
10
-1.99503997793928
20
-0.315490140896543
30
-1E-16
41
1
10
-1.99503997793928
20
-0.21034895445402
30
-1E-16
41
1
10
-1.99503997793928
20
-0.10518117389941
30
-1E-16
41
1
10
-1.99503997793928
20
-2.6093687E-09
30
-1E-16
41
1
10
-1.99503997793928
20
0.105181165306249
30
-1E-16
41
1
10
-1.99503997793928
20
0.210348939519435
30
-1E-16
41
1
10
-1.99503997793928
20
0.315490126623814
30
-1E-16
41
1
10
-1.99503997793928
20
0.420591350928703
30
-1E-16
41
1
10
-1.99503997793928
20
0.525639721157262
30
-1E-16
41
1
10
-1.99503997793928
20
0.630622105582688
30
-1E-16
41
1
10
-1.99503997793928
20
0.735526073032332
30
-1E-16
41
1
10
-1.99503997793928
20
0.840338961204225
30
-1E-16
41
1
10
-1.99503997793928
20
0.945048899580655
30
-1E-16
41
1
10
-1.99503997793928
20
1.04964378000579
30
-1E-16
41
1
10
-1.99503997793928
20
1.15411255471386
30
-1E-16
41
1
10
-1.99503997793928
20
1.25844372920938
30
-1E-16
41
1
10
-1.99503997793928
20
1.36262724011792
30
-1E-16
41
1
10
-1.99503997793928
20
1.46665209995737
30
-1E-16
41
1
10
-1.99503997793928
20
1.57050946303122
30
-1E-16
41
1
10
-1.99503997793928
20
1.67418894734925
30
-1E-16
41
1
10
-1.99503997793928
20
1.77768276547397
30
-1E-16
41
1
10
-1.99503997793928
20
1.88098143773604
30
-1E-16
41
1
10
-1.99503997793928
20
1.98407765086858
30
-1E-16
41
1
10
-1.99503997793928
20
2.08696367451518
30
-1E-16
41
1
10
-1.99503997793928
20
2.18963187963746
30
-1E-16
41
1
10
-1.99503997793928
20
2.3263670801044
30
-1E-16
41
1
10
-1.99503997793928
20
2.46222694501739
30
-1E-16
41
1
10
-1.99503997793928
20
2.5980019734576
30
-1E-16
41
1
10
-1.99503997793928
20
2.69948931487846
30
-1E-16
41
1
10
-1.99503997793928
20
2.80072442890969
30
-1E-16
41
1
10
-1.99503997793928
20
2.90170218623106
30
-1E-16
41
1
10
-1.99503997793928
20
3.00241852965871
30
-1E-16
41
1
10
-1.99503997793928
20
3.13647579824178
30
-1E-16
41
1
10
-1.99503997793928
20
3.30310841087518
30
-1E-16
41
1
10
-1.99503997793928
20
3.46881385164499
30
-1E-16
41
1
10
-1.99503997793928
20
3.6010147061962
30
-1E-16
41
1
10
-1.99503997793928
20
3.69979994526253
30
-1E-16
41
1
10
-1.99503997793928
20
3.7982972967292
30
-1E-16
41
1
10
-1.99503997793928
20
3.92934661081907
30
-1E-16
41
1
10
-1.99503997793928
20
4.09219634432211
30
-1E-16
41
1
10
-1.99503997793928
20
4.28654656517494
30
-1E-16
41
1
10
-1.99503997793928
20
4.47969614999016
30
-1E-16
41
1
10
-1.99503997793928
20
4.67163207713236
30
-1E-16
41
1
10
-1.99503997793928
20
4.86234332329403
30
-1E-16
41
1
10
-1.99503997793928
20
5.05181945337139
30
-1E-16
41
1
10
-1.99503997793928
20
5.24005175731475
30
-1E-16
41
1
10
-1.99503997793928
20
5.42703270327695
30
-1E-16
41
1
10
-1.99503997793928
20
5.61275496243289
30
-1E-16
41
1
10
-1.99503997793928
20
5.79721186805691
30
-1E-16
41
1
10
-1.99503997793928
20
5.98039789106801
30
-1E-16
41
1
10
-1.99503997793928
20
6.16230788845579
30
-1E-16
41
1
10
-1.99503997793928
20
6.3429370741791
30
-1E-16
41
1
10
-1.99503997793928
20
6.52228078287743
30
-1E-16
41
1
10
-1.99503997793928
20
6.70033531356589
30
-1E-16
41
1
10
-1.99503997793928
20
6.87709665618266
30
-1E-16
41
1
10
-1.99503997793928
20
7.11118461088941
30
-1E-16
41
1
10
-1.99503997793928
20
7.40025290593451
30
-1E-16
41
1
10
-1.99503997793928
20
7.7420578132905
30
-1E-16
41
1
10
-1.99503997793928
20
8.0224014648056
30
-1E-16
41
1
10
-1.99503997793928
20
8.24425232954013
30
-1E-16
41
1
10
-1.99503997793928
20
8.40923673354897
30
-1E-16
41
1
10
-1.99503997793928
20
8.57289871794615
30
-1E-16
41
1
10
-1.99503997793928
20
8.73523611643316
30
-1E-16
41
1
10
-1.99503997793928
20
8.89624559944801
30
-1E-16
41
1
10
-1.99503997793928
20
9.1092571782612
30
-1E-16
41
1
10
-1.99503997793928
20
9.37195865327328
30
-1E-16
41
1
10
-1.99503997793928
20
9.63019833168175
30
-1E-16
41
1
10
-1.99503997793928
20
9.83427692622885
30
-1E-16
41
1
10
-1.99503997793928
20
9.98591879047714
30
-1E-16
41
1
10
-1.99503997793928
20
10.13621047024
30
-1E-16
41
1
10
-1.99503997793928
20
10.2851499168301
30
-1E-16
41
1
10
-1.99503997793928
20
10.4327334855784
30
-1E-16
41
1
10
-1.99503997793928
20
10.627787937013
30
-1E-16
41
1
10
-1.99503997793928
20
10.8198574498995
30
-1E-16
41
1
10
-1.99503997793928
20
11.00944356136
30
-1E-16
41
1
10
-1.99503997793928
20
11.1972001365959
30
-1E-16
41
1
10
-1.99503997793928
20
11.4282697000141
30
-1E-16
41
1
10
-1.99503997793928
20
11.6547268261542
30
-1E-16
41
1
10
-1.99503997793928
20
11.8332480165124
30
-1E-16
41
1
10
-1.99503997793928
20
12.0099077332894
30
-1E-16
41
1
10
-1.99503997793928
20
12.1835401119863
30
-1E-16
41
1
10
-1.99503997793928
20
12.3545748152048
30
-1E-16
41
1
10
-1.99503997793928
20
12.4813812679684
30
-1E-16
41
1
10
-1.99503997793928
20
12.606768466692
30
-1E-16
41
1
10
-1.99503997793928
20
12.7721223429484
30
-1E-16
41
1
10
-1.99503997793928
20
12.9344093145834
30
-1E-16
41
1
10
-1.99503997793928
20
13.09401974916
30
-1E-16
41
1
10
-1.99503997793928
20
13.2122307400427
30
-1E-16
41
1
10
-1.99503997793928
20
13.328990109671
30
-1E-16
41
1
10
-1.99503997793928
20
13.482790135872
30
-1E-16
41
1
10
-1.99503997793928
20
13.6334713769854
30
-1E-16
41
1
10
-1.99503997793928
20
13.7813876415877
30
-1E-16
41
1
10
-1.99503997793928
20
13.8907947247769
30
-1E-16
41
1
10
-1.99503997793928
20
13.9987118830366
30
-1E-16
41
1
10
-1.99503997793928
20
14.1406647198644
30
-1E-16
41
1
10
-1.99503997793928
20
14.2794333721973
30
-1E-16
41
1
10
-1.99503997793928
20
14.4153366771621
30
-1E-16
41
1
10
-1.99503997793928
20
14.5156939096276
30
-1E-16
41
1
10
-1.99503997793928
20
14.6145160455858
30
-1E-16
41
1
10
-1.99503997793928
20
14.7442755428493
30
-1E-16
41
1
10
-1.99503997793928
20
14.8707702235387
30
-1E-16
41
1
10
-1.99503997793928
20
14.9942846604514
30
-1E-16
41
1
10
-1.99503997793928
20
15.0853020659337
30
-1E-16
41
1
10
-1.99503997793928
20
15.1747311694574
30
-1E-16
41
1
10
-1.99503997793928
20
15.2918890118945
30
-1E-16
41
1
10
-1.99503997793928
20
15.4056838451686
30
-1E-16
41
1
10
-1.99503997793928
20
15.5163656256123
30
-1E-16
41
1
10
-1.99503997793928
20
15.5977008436634
30
-1E-16
41
1
10
-1.99503997793928
20
15.677384958149
30
-1E-16
41
1
10
-1.99503997793928
20
15.7814584486047
30
-1E-16
41
1
10
-1.99503997793928
20
15.8820499794418
30
-1E-16
41
1
10
-1.99503997793928
20
15.979373490825
30
-1E-16
41
1
10
-1.99503997793928
20
16.0506207732709
30
-1E-16
41
1
10
-1.99503997793928
20
16.1201424382026
30
-1E-16
41
1
10
-1.99503997793928
20
16.1879246249361
30
-1E-16
41
1
10
-1.99503997793928
20
16.2539521138773
30
-1E-16
41
1
10
-1.99503997793928
20
16.3182114219941
30
-1E-16
41
1
10
-1.99503997793928
20
16.3806869939664
30
-1E-16
41
1
10
-1.99503997793928
20
16.4616240004255
30
-1E-16
41
1
10
-1.99503997793928
20
16.5388242186582
30
-1E-16
41
1
10
-1.99503997793928
20
16.6124299551482
30
1E-16
41
1
10
-1.99503997793928
20
16.6835453056651
30
1E-16
41
1
10
-1.99503997793928
20
16.7507929832779
30
1E-16
41
1
10
-1.99503997793928
20
16.8142877036056
30
1E-16
41
1
10
-1.99503997793928
20
16.8751872660894
30
0
41
1
10
-1.99503997793928
20
16.9320728615657
30
0
41
1
10
-1.99503997793928
20
16.9850205529168
30
0
41
1
10
-1.99503997793928
20
17.0226787925821
30
0
41
1
10
-1.99503997793928
20
17.0582791326422
30
0
41
1
10
-1.99503997793928
20
17.1029924242496
30
0
41
1
10
-1.99503997793928
20
17.143423992764
30
0
41
1
10
-1.99503997793928
20
17.1795895960111
30
1E-16
41
1
10
-1.99503997793928
20
17.2045053960087
30
1E-16
41
1
10
-1.99503997793928
20
17.2271975457697
30
1E-16
41
1
10
-1.99503997793928
20
17.2476335117891
30
1E-16
41
1
10
-1.99503997793928
20
17.2657805776118
30
1E-16
41
1
10
-1.99503997793928
20
17.2816041041457
30
-1E-16
41
1
10
-1.99503997793928
20
17.295067771448
30
-1E-16
41
1
10
-1.99503997793928
20
17.3061342577567
30
-1E-16
41
1
10
-1.99503997793928
20
17.3147637003649
30
-1E-16
41
1
10
-1.99503997793928
20
17.3189471391707
30
-1E-16
41
1
10
-1.99503997793928
20
17.3206254032106
30
-1E-16
41
1
10
-1.99503997793928
20
17.3206894845635
30
-1E-16
0
SPLINE
5
DE
100
AcDbEntity
8
SK1
62
256
6
ByLayer
370
18
48
1
60
0
100
AcDbSpline
70
4
71
3
72
288
73
284
40
0
40
0
40
0
40
0
40
0.0022851259778984
40
0.0057901665335684
40
0.0092952070892383
40
0.0128002476449082
40
0.0163052882005781
40
0.019810328756248
40
0.0233153693119179
40
0.0268204098675878
40
0.0303254504232577
40
0.0338304909789277
40
0.0373355315345975
40
0.0408405720902674
40
0.0443456126459374
40
0.0513556937572772
40
0.054860734312947
40
0.058365774868617
40
0.0618708154242869
40
0.0653758559799568
40
0.0723859370912967
40
0.0758909776469665
40
0.0793960182026364
40
0.0864060993139762
40
0.0899111398696461
40
0.093416180425316
40
0.100426261536656
40
0.103931302092326
40
0.107436342647996
40
0.110941383203666
40
0.114446423759336
40
0.117951464315006
40
0.121456504870675
40
0.124961545426345
40
0.128466585982015
40
0.135476667093355
40
0.138981707649025
40
0.142486748204695
40
0.145991788760365
40
0.149496829316035
40
0.156506910427374
40
0.160011950983044
40
0.163516991538714
40
0.167022032094384
40
0.170527072650054
40
0.177537153761394
40
0.181042194317064
40
0.184547234872734
40
0.188052275428404
40
0.191557315984073
40
0.198567397095413
40
0.202072437651083
40
0.205577478206753
40
0.209082518762423
40
0.212587559318093
40
0.219597640429433
40
0.223102680985103
40
0.226607721540772
40
0.230112762096442
40
0.233617802652112
40
0.240627883763452
40
0.244132924319122
40
0.247637964874792
40
0.251143005430462
40
0.254648045986132
40
0.261658127097472
40
0.265163167653142
40
0.268668208208811
40
0.275678289320151
40
0.282688370431491
40
0.286193410987161
40
0.289698451542831
40
0.296708532654171
40
0.300213573209841
40
0.303718613765511
40
0.30722365432118
40
0.310728694876851
40
0.31423373543252
40
0.31773877598819
40
0.32474885709953
40
0.33175893821087
40
0.33526397876654
40
0.33876901932221
40
0.34227405987788
40
0.345779100433549
40
0.349284140989219
40
0.352789181544889
40
0.359799262656229
40
0.366809343767569
40
0.373819424878909
40
0.377324465434579
40
0.380829505990249
40
0.384334546545918
40
0.387839587101588
40
0.391344627657258
40
0.394849668212928
40
0.398354708768598
40
0.401859749324268
40
0.405364789879938
40
0.408869830435608
40
0.412374870991278
40
0.415879911546948
40
0.419384952102617
40
0.422889992658287
40
0.426395033213957
40
0.429900073769627
40
0.433405114325297
40
0.435157634603132
40
0.436910154880967
40
0.438662675158802
40
0.440415195436637
40
0.443920235992307
40
0.447425276547977
40
0.449177796825812
40
0.450930317103647
40
0.452682837381482
40
0.454435357659317
40
0.456187877937152
40
0.457940398214987
40
0.461445438770656
40
0.463197959048491
40
0.464950479326326
40
0.466702999604161
40
0.468455519881996
40
0.470208040159831
40
0.471960560437666
40
0.473713080715501
40
0.475465600993336
40
0.477218121271171
40
0.478970641549006
40
0.480723161826841
40
0.482475682104676
40
0.484228202382511
40
0.485980722660346
40
0.487733242938181
40
0.489485763216016
40
0.491238283493851
40
0.492990803771686
40
0.494743324049521
40
0.496495844327356
40
0.498248364605191
40
0.500000884883025
40
0.50175340516086
40
0.503505925438695
40
0.50525844571653
40
0.507010965994365
40
0.5087634862722
40
0.510516006550035
40
0.51226852682787
40
0.514021047105705
40
0.51577356738354
40
0.517526087661375
40
0.51927860793921
40
0.521031128217045
40
0.52278364849488
40
0.524536168772715
40
0.52628868905055
40
0.528041209328385
40
0.52979372960622
40
0.531546249884055
40
0.53329877016189
40
0.535051290439724
40
0.536803810717559
40
0.538556330995395
40
0.540308851273229
40
0.542061371551064
40
0.543813891828899
40
0.545566412106734
40
0.549071452662404
40
0.550823972940239
40
0.552576493218074
40
0.556081533773744
40
0.559586574329414
40
0.561339094607249
40
0.563091614885084
40
0.564844135162919
40
0.566596655440754
40
0.570101695996423
40
0.573606736552094
40
0.577111777107764
40
0.580616817663433
40
0.584121858219103
40
0.587626898774773
40
0.591131939330443
40
0.594636979886113
40
0.598142020441783
40
0.601647060997453
40
0.605152101553122
40
0.608657142108793
40
0.612162182664463
40
0.615667223220132
40
0.619172263775802
40
0.622677304331472
40
0.626182344887142
40
0.633192425998482
40
0.640202507109822
40
0.647212588221162
40
0.650717628776831
40
0.654222669332501
40
0.657727709888171
40
0.661232750443841
40
0.664737790999511
40
0.668242831555181
40
0.675252912666521
40
0.682262993777861
40
0.685768034333531
40
0.6892730748892
40
0.69277811544487
40
0.69628315600054
40
0.69978819655621
40
0.70329323711188
40
0.71030331822322
40
0.71380835877889
40
0.71731339933456
40
0.724323480445899
40
0.731333561557239
40
0.734838602112909
40
0.738343642668579
40
0.745353723779919
40
0.748858764335589
40
0.752363804891259
40
0.755868845446929
40
0.759373886002598
40
0.766383967113938
40
0.769889007669608
40
0.773394048225278
40
0.776899088780948
40
0.780404129336618
40
0.787414210447958
40
0.790919251003628
40
0.794424291559298
40
0.797929332114967
40
0.801434372670638
40
0.808444453781977
40
0.811949494337647
40
0.815454534893317
40
0.818959575448987
40
0.822464616004657
40
0.829474697115997
40
0.832979737671667
40
0.836484778227337
40
0.838237298505171
40
0.839989818783006
40
0.843494859338676
40
0.850504940450016
40
0.854009981005686
40
0.857515021561356
40
0.861020062117026
40
0.864525102672696
40
0.871535183784036
40
0.875040224339706
40
0.878545264895375
40
0.882050305451045
40
0.885555346006715
40
0.889060386562385
40
0.892565427118055
40
0.896070467673725
40
0.899575508229395
40
0.906585589340735
40
0.910090629896405
40
0.913595670452074
40
0.920605751563415
40
0.924110792119084
40
0.927615832674754
40
0.934625913786094
40
0.938130954341764
40
0.941635994897434
40
0.945141035453104
40
0.948646076008773
40
0.955656157120113
40
0.959161197675783
40
0.962666238231453
40
0.966171278787123
40
0.969676319342793
40
0.973181359898463
40
0.976686400454133
40
0.980191441009803
40
0.983696481565473
40
0.987201522121142
40
0.990706562676813
40
0.994211603232483
40
0.997716643788152
40
1
40
1
40
1
40
1
41
1
10
-30
20
15.9926656736668
30
-1E-16
41
1
10
-30
20
15.9930575033829
30
-1E-16
41
1
10
-30
20
15.9936130017169
30
-1E-16
41
1
10
-30
20
15.992743696334
30
-1E-16
41
1
10
-30
20
15.9893850921089
30
-1E-16
41
1
10
-30
20
15.9836860314146
30
-1E-16
41
1
10
-30
20
15.9756808210229
30
-1E-16
41
1
10
-30
20
15.9654018084481
30
-1E-16
41
1
10
-30
20
15.9528811264941
30
-1E-16
41
1
10
-30
20
15.9381491278438
30
-1E-16
41
1
10
-30
20
15.9212355486336
30
-1E-16
41
1
10
-30
20
15.9021692443494
30
-1E-16
41
1
10
-30
20
15.8809772874923
30
-1E-16
41
1
10
-30
20
15.85768719628
30
-1E-16
41
1
10
-30
20
15.8237020449635
30
1E-16
41
1
10
-30
20
15.786151572388
30
1E-16
41
1
10
-30
20
15.7440467976174
30
0
41
1
10
-30
20
15.7106366986067
30
0
41
1
10
-30
20
15.6752710038507
30
0
41
1
10
-30
20
15.6253102414823
30
0
41
1
10
-30
20
15.5722298833996
30
0
41
1
10
-30
20
15.5146768571488
30
1E-16
41
1
10
-30
20
15.454635155867
30
-1E-16
41
1
10
-30
20
15.3917322415494
30
-1E-16
41
1
10
-30
20
15.3243986601424
30
-1E-16
41
1
10
-30
20
15.2546726017927
30
-1E-16
41
1
10
-30
20
15.1823145630236
30
-1E-16
41
1
10
-30
20
15.1055630554725
30
-1E-16
41
1
10
-30
20
15.0465122402176
30
-1E-16
41
1
10
-30
20
14.985753516587
30
-1E-16
41
1
10
-30
20
14.9233034368069
30
-1E-16
41
1
10
-30
20
14.8591738020485
30
-1E-16
41
1
10
-30
20
14.7933781380804
30
-1E-16
41
1
10
-30
20
14.7259318150055
30
-1E-16
41
1
10
-30
20
14.6334478809413
30
-1E-16
41
1
10
-30
20
14.5388306139923
30
-1E-16
41
1
10
-30
20
14.4398724968665
30
-1E-16
41
1
10
-30
20
14.3643499358607
30
-1E-16
41
1
10
-30
20
14.2872489988171
30
-1E-16
41
1
10
-30
20
14.1819460940194
30
-1E-16
41
1
10
-30
20
14.0747689624993
30
-1E-16
41
1
10
-30
20
13.9632604256822
30
-1E-16
41
1
10
-30
20
13.8784200007502
30
-1E-16
41
1
10
-30
20
13.7920640526129
30
-1E-16
41
1
10
-30
20
13.674463030797
30
-1E-16
41
1
10
-30
20
13.5552283874056
30
-1E-16
41
1
10
-30
20
13.4316550911985
30
-1E-16
41
1
10
-30
20
13.337853067095
30
-1E-16
41
1
10
-30
20
13.2425907988595
30
-1E-16
41
1
10
-30
20
13.1131460860381
30
-1E-16
41
1
10
-30
20
12.9822967545723
30
-1E-16
41
1
10
-30
20
12.847084683004
30
-1E-16
41
1
10
-30
20
12.7446351532221
30
-1E-16
41
1
10
-30
20
12.6407746180399
30
-1E-16
41
1
10
-30
20
12.499887311655
30
-1E-16
41
1
10
-30
20
12.3578191289812
30
-1E-16
41
1
10
-30
20
12.2113468162578
30
-1E-16
41
1
10
-30
20
12.100530667573
30
-1E-16
41
1
10
-30
20
11.9883478761207
30
-1E-16
41
1
10
-30
20
11.836377249174
30
-1E-16
41
1
10
-30
20
11.6834503922585
30
-1E-16
41
1
10
-30
20
11.5260594948948
30
-1E-16
41
1
10
-30
20
11.4071324366749
30
-1E-16
41
1
10
-30
20
11.2868794886981
30
-1E-16
41
1
10
-30
20
11.1241532157817
30
-1E-16
41
1
10
-30
20
10.9607029988619
30
-1E-16
41
1
10
-30
20
10.7927086404326
30
-1E-16
41
1
10
-30
20
10.6229844866849
30
-1E-16
41
1
10
-30
20
10.4091173939315
30
-1E-16
41
1
10
-30
20
10.1909959678347
30
-1E-16
41
1
10
-30
20
10.0126979588287
30
-1E-16
41
1
10
-30
20
9.83272430289384
30
-1E-16
41
1
10
-30
20
9.65245023276196
30
-1E-16
41
1
10
-30
20
9.46744871362009
30
-1E-16
41
1
10
-30
20
9.32804093460692
30
-1E-16
41
1
10
-30
20
9.18740563851225
30
-1E-16
41
1
10
-30
20
9.0455543785921
30
-1E-16
41
1
10
-30
20
8.90249044231982
30
-1E-16
41
1
10
-30
20
8.70931958714519
30
-1E-16
41
1
10
-30
20
8.46674616603482
30
-1E-16
41
1
10
-30
20
8.22021686294167
30
-1E-16
41
1
10
-30
20
8.01906836645577
30
-1E-16
41
1
10
-30
20
7.86773085832667
30
-1E-16
41
1
10
-30
20
7.71524241280142
30
-1E-16
41
1
10
-30
20
7.56161298420645
30
-1E-16
41
1
10
-30
20
7.40685260452798
30
-1E-16
41
1
10
-30
20
7.19804202206524
30
-1E-16
41
1
10
-30
20
6.93651252502835
30
-1E-16
41
1
10
-30
20
6.61705894701072
30
-1E-16
41
1
10
-30
20
6.34834996432815
30
-1E-16
41
1
10
-30
20
6.12929373929515
30
-1E-16
41
1
10
-30
20
5.96484945115367
30
-1E-16
41
1
10
-30
20
5.7993974381898
30
-1E-16
41
1
10
-30
20
5.63295542814623
30
-1E-16
41
1
10
-30
20
5.46554083189747
30
-1E-16
41
1
10
-30
20
5.29717335727497
30
-1E-16
41
1
10
-30
20
5.12787591307327
30
-1E-16
41
1
10
-30
20
4.9576706384986
30
-1E-16
41
1
10
-30
20
4.78658071628459
30
-1E-16
41
1
10
-30
20
4.6146335506248
30
-1E-16
41
1
10
-30
20
4.44186113006069
30
-1E-16
41
1
10
-30
20
4.26829321973949
30
-1E-16
41
1
10
-30
20
4.09396155182321
30
1.7E-15
41
1
10
-30
20
3.91890592173868
30
1.7E-15
41
1
10
-30
20
3.74316620306936
30
1.7E-15
41
1
10
-30
20
3.56678705857649
30
1.7E-15
41
1
10
-30
20
3.42015123791836
30
1.7E-15
41
1
10
-30
20
3.3009810984795
30
1.7E-15
41
1
10
-30
20
3.21216327477833
30
1.7E-15
41
1
10
-30
20
3.12322377081893
30
1.7E-15
41
1
10
-30
20
3.00356413190352
30
1.7E-15
41
1
10
-30
20
2.85589664233001
30
1.7E-15
41
1
10
-30
20
2.70788037697056
30
1.7E-15
41
1
10
-30
20
2.58749550859633
30
1.7E-15
41
1
10
-30
20
2.49793822974365
30
1.7E-15
41
1
10
-30
20
2.40833000131903
30
1.7E-15
41
1
10
-30
20
2.31867596083524
30
1.7E-15
41
1
10
-30
20
2.22899146909501
30
1.7E-15
41
1
10
-30
20
2.10827328924756
30
1.7E-15
41
1
10
-30
20
1.99097459417121
30
1.7E-15
41
1
10
-30
20
1.87012467714987
30
1.7E-15
41
1
10
-30
20
1.78043031683035
30
1.7E-15
41
1
10
-30
20
1.69076251244053
30
1.7E-15
41
1
10
-30
20
1.60113247848605
30
1.7E-15
41
1
10
-30
20
1.51155313609783
30
1.7E-15
41
1
10
-30
20
1.422025757727
30
1.7E-15
41
1
10
-30
20
1.33256776537959
30
1.7E-15
41
1
10
-30
20
1.24317741509074
30
1.7E-15
41
1
10
-30
20
1.15386860885192
30
1.7E-15
41
1
10
-30
20
1.06464013673647
30
1.7E-15
41
1
10
-30
20
0.975500136218244
30
1.7E-15
41
1
10
-30
20
0.886447988926847
30
1.7E-15
41
1
10
-30
20
0.797485776681128
30
1.7E-15
41
1
10
-30
20
0.708610852102623
30
1.7E-15
41
1
10
-30
20
0.61982073744278
30
1.7E-15
41
1
10
-30
20
0.531109764951225
30
1.7E-15
41
1
10
-30
20
0.442471434007643
30
1.7E-15
41
1
10
-30
20
0.35389600796347
30
1.7E-15
41
1
10
-30
20
0.265373879214224
30
1.7E-15
41
1
10
-30
20
0.176892371692162
30
1.7E-15
41
1
10
-30
20
0.0884392148653887
30
1.7E-15
41
1
10
-30
20
2.04973958E-08
30
1.7E-15
41
1
10
-30
20
-0.0884392031952927
30
1.7E-15
41
1
10
-30
20
-0.17689241471993
30
1.7E-15
41
1
10
-30
20
-0.265373915570137
30
1.7E-15
41
1
10
-30
20
-0.353895962579486
30
1.7E-15
41
1
10
-30
20
-0.442471374506823
30
1.7E-15
41
1
10
-30
20
-0.531109813902646
30
1.7E-15
41
1
10
-30
20
-0.61982082298212
30
1.7E-15
41
1
10
-30
20
-0.70861080655007
30
1.7E-15
41
1
10
-30
20
-0.797485667180155
30
1.7E-15
41
1
10
-30
20
-0.886448026006832
30
1.7E-15
41
1
10
-30
20
-0.97550027278379
30
1.7E-15
41
1
10
-30
20
-1.06464012636249
30
1.7E-15
41
1
10
-30
20
-1.1538684580087
30
1.7E-15
41
1
10
-30
20
-1.24317738635406
30
1.7E-15
41
1
10
-30
20
-1.33256791795026
30
1.7E-15
41
1
10
-30
20
-1.42202585063245
30
1.7E-15
41
1
10
-30
20
-1.5115530207047
30
1.7E-15
41
1
10
-30
20
-1.60113232466117
30
1.7E-15
41
1
10
-30
20
-1.69076256252157
30
1.7E-15
41
1
10
-30
20
-1.78043050963589
30
1.7E-15
41
1
10
-30
20
-1.87012473193457
30
1.7E-15
41
1
10
-30
20
-1.95984062320625
30
1.7E-15
41
1
10
-30
20
-2.04956121840735
30
1.7E-15
41
1
10
-30
20
-2.13928298465069
30
1.7E-15
41
1
10
-30
20
-2.22899154181988
30
1.7E-15
41
1
10
-30
20
-2.34971237639812
30
1.7E-15
41
1
10
-30
20
-2.4670581044816
30
1.7E-15
41
1
10
-30
20
-2.58749567267543
30
1.7E-15
41
1
10
-30
20
-2.70788056755165
30
1.7E-15
41
1
10
-30
20
-2.85589666602098
30
1.7E-15
41
1
10
-30
20
-3.00356394920902
30
1.7E-15
41
1
10
-30
20
-3.12322374659235
30
1.7E-15
41
1
10
-30
20
-3.21216341650842
30
1.7E-15
41
1
10
-30
20
-3.3009812939207
30
1.7E-15
41
1
10
-30
20
-3.4201512431562
30
1.7E-15
41
1
10
-30
20
-3.56678672363677
30
1.7E-15
41
1
10
-30
20
-3.74316585626101
30
1.7E-15
41
1
10
-30
20
-3.91890584757377
30
1.7E-15
41
1
10
-30
20
-4.09396100129445
30
1.7E-15
41
1
10
-30
20
-4.26829259541552
30
-1E-16
41
1
10
-30
20
-4.44186183082067
30
-1E-16
41
1
10
-30
20
-4.61463414914383
30
-1E-16
41
1
10
-30
20
-4.78658021025493
30
-1E-16
41
1
10
-30
20
-4.95767123056282
30
-1E-16
41
1
10
-30
20
-5.1278778625566
30
-1E-16
41
1
10
-30
20
-5.29717415068043
30
-1E-16
41
1
10
-30
20
-5.46553992297876
30
-1E-16
41
1
10
-30
20
-5.63295448869491
30
-1E-16
41
1
10
-30
20
-5.79939725011727
30
-1E-16
41
1
10
-30
20
-5.96484950556561
30
-1E-16
41
1
10
-30
20
-6.1292936535483
30
-1E-16
41
1
10
-30
20
-6.34834993475852
30
-1E-16
41
1
10
-30
20
-6.6170590196507
30
-1E-16
41
1
10
-30
20
-6.93651248001379
30
-1E-16
41
1
10
-30
20
-7.19804203228608
30
-1E-16
41
1
10
-30
20
-7.40685270744595
30
-1E-16
41
1
10
-30
20
-7.56161297986856
30
-1E-16
41
1
10
-30
20
-7.71524232371232
30
-1E-16
41
1
10
-30
20
-7.86773082006812
30
-1E-16
41
1
10
-30
20
-8.01906843480592
30
-1E-16
41
1
10
-30
20
-8.22021692135615
30
-1E-16
41
1
10
-30
20
-8.46674612315107
30
-1E-16
41
1
10
-30
20
-8.7093195790371
30
-1E-16
41
1
10
-30
20
-8.90249052457438
30
-1E-16
41
1
10
-30
20
-9.04555441784282
30
-1E-16
41
1
10
-30
20
-9.18740560593943
30
-1E-16
41
1
10
-30
20
-9.32804088163152
30
-1E-16
41
1
10
-30
20
-9.46744870809565
30
-1E-16
41
1
10
-30
20
-9.65245029192155
30
-1E-16
41
1
10
-30
20
-9.83272433616031
30
-1E-16
41
1
10
-30
20
-10.0126979221092
30
-1E-16
41
1
10
-30
20
-10.1909959517429
30
-1E-16
41
1
10
-30
20
-10.4091174330404
30
-1E-16
41
1
10
-30
20
-10.6229845090751
30
-1E-16
41
1
10
-30
20
-10.7927086151923
30
-1E-16
41
1
10
-30
20
-10.9607029915804
30
-1E-16
41
1
10
-30
20
-11.1241532476502
30
-1E-16
41
1
10
-30
20
-11.286879520772
30
-1E-16
41
1
10
-30
20
-11.4071324437642
30
-1E-16
41
1
10
-30
20
-11.526059483736
30
-1E-16
41
1
10
-30
20
-11.6834503898541
30
-1E-16
41
1
10
-30
20
-11.8363772717575
30
-1E-16
41
1
10
-30
20
-11.9883479026383
30
-1E-16
41
1
10
-30
20
-12.100530681097
30
-1E-16
41
1
10
-30
20
-12.211346817793
30
-1E-16
41
1
10
-30
20
-12.3578191303265
30
-1E-16
41
1
10
-30
20
-12.4998873251013
30
-1E-16
41
1
10
-30
20
-12.640774639564
30
-1E-16
41
1
10
-30
20
-12.7446351726738
30
-1E-16
41
1
10
-30
20
-12.8470846962099
30
-1E-16
41
1
10
-30
20
-12.9822967603461
30
-1E-16
41
1
10
-30
20
-13.1131460918651
30
-1E-16
41
1
10
-30
20
-13.2425908150843
30
-1E-16
41
1
10
-30
20
-13.3378530905647
30
-1E-16
41
1
10
-30
20
-13.431655102243
30
-1E-16
41
1
10
-30
20
-13.5552284439381
30
-1E-16
41
1
10
-30
20
-13.6744629632361
30
-1E-16
41
1
10
-30
20
-13.7920640428987
30
-1E-16
41
1
10
-30
20
-13.8638084100541
30
-1E-16
41
1
10
-30
20
-13.9208384799595
30
-1E-16
41
1
10
-30
20
-13.9773600368974
30
-1E-16
41
1
10
-30
20
-14.0747689786766
30
-1E-16
41
1
10
-30
20
-14.1819460903518
30
-1E-16
41
1
10
-30
20
-14.2872490063531
30
-1E-16
41
1
10
-30
20
-14.3643499644422
30
-1E-16
41
1
10
-30
20
-14.4398725346097
30
-1E-16
41
1
10
-30
20
-14.5388306330265
30
-1E-16
41
1
10
-30
20
-14.6334478734244
30
-1E-16
41
1
10
-30
20
-14.7259318226356
30
-1E-16
41
1
10
-30
20
-14.793378171537
30
-1E-16
41
1
10
-30
20
-14.8591738437125
30
-1E-16
41
1
10
-30
20
-14.9233034607296
30
-1E-16
41
1
10
-30
20
-14.9857535133679
30
-1E-16
41
1
10
-30
20
-15.0465122321639
30
-1E-16
41
1
10
-30
20
-15.1055630695376
30
-1E-16
41
1
10
-30
20
-15.1823146060513
30
-1E-16
41
1
10
-30
20
-15.2546726312332
30
-1E-16
41
1
10
-30
20
-15.3243986497297
30
-1E-16
41
1
10
-30
20
-15.3917322452796
30
-1E-16
41
1
10
-30
20
-15.4546352005829
30
-1E-16
41
1
10
-30
20
-15.5146768877911
30
1E-16
41
1
10
-30
20
-15.5722298782127
30
0
41
1
10
-30
20
-15.6253102421943
30
0
41
1
10
-30
20
-15.6752710489662
30
0
41
1
10
-30
20
-15.7106367362118
30
0
41
1
10
-30
20
-15.7440468008705
30
0
41
1
10
-30
20
-15.7861515665346
30
1E-16
41
1
10
-30
20
-15.8237020814765
30
1E-16
41
1
10
-30
20
-15.8576872273509
30
-1E-16
41
1
10
-30
20
-15.8809772969169
30
-1E-16
41
1
10
-30
20
-15.9021692417172
30
-1E-16
41
1
10
-30
20
-15.921235563756
30
-1E-16
41
1
10
-30
20
-15.9381491696965
30
-1E-16
41
1
10
-30
20
-15.9528811556007
30
-1E-16
41
1
10
-30
20
-15.9654018081648
30
-1E-16
41
1
10
-30
20
-15.9756808201301
30
-1E-16
41
1
10
-30
20
-15.9836860510364
30
-1E-16
41
1
10
-30
20
-15.989385071505
30
-1E-16
41
1
10
-30
20
-15.992743547039
30
-1E-16
41
1
10
-30
20
-15.9936126297468
30
-1E-16
41
1
10
-30
20
-15.9930576899559
30
-1E-16
41
1
10
-30
20
-15.9926664616086
30
-1E-16
0
SPLINE
5
DF
100
AcDbEntity
8
1
62
256
6
ByLayer
370
18
48
1
60
0
100
AcDbSpline
70
4
71
3
72
16
73
12
40
0
40
0
40
0
40
0
40
0.124999999999999
40
0.124999999999999
40
0.249999999999998
40
0.249999999999998
40
0.499999999999999
40
0.499999999999999
40
0.749999999999999
40
0.749999999999999
40
1
40
1
40
1
40
1
41
1
10
8.5386751345948
20
-7.52966679426501
30
5E-16
41
1
10
8.5069222413654
20
-7.52966679426501
30
5E-16
41
1
10
8.47600932946898
20
-7.53597576299643
30
5E-16
41
1
10
8.41759599948892
20
-7.55857361750103
30
5E-16
41
1
10
8.39103491659966
20
-7.57431556968109
30
5E-16
41
1
10
8.31704385770789
20
-7.63070347545337
30
5E-16
41
1
10
8.27807345100129
20
-7.6777476510423
30
5E-16
41
1
10
8.21173961735187
20
-7.77866338250453
30
5E-16
41
1
10
8.18512193927674
20
-7.83191947486046
30
5E-16
41
1
10
8.13975567725328
20
-7.94172327888188
30
5E-16
41
1
10
8.1211137629262
20
-7.99846916820704
30
5E-16
41
1
10
8.10566243270245
20
-8.05584836782771
30
5E-16
0
SPLINE
5
E0
100
AcDbEntity
8
1
62
256
6
ByLayer
370
18
48
1
60
0
100
AcDbSpline
70
4
71
3
72
16
73
12
40
0
40
0
40
0
40
0
40
0.125
40
0.125
40
0.25
40
0.25
40
0.5
40
0.5
40
0.75
40
0.75
40
1
40
1
40
1
40
1
41
1
10
11.4613248654052
20
-23.8391299750503
30
-2E-16
41
1
10
11.4930777586346
20
-23.8391299750503
30
-2E-16
41
1
10
11.523990670531
20
-23.8371392949586
30
-2E-16
41
1
10
11.5824040005111
20
-23.8299833264009
30
-2E-16
41
1
10
11.6089650834003
20
-23.824989671385
30
-2E-16
41
1
10
11.6829561422921
20
-23.8070141183761
30
-2E-16
41
1
10
11.7219265489987
20
-23.7919105160783
30
-2E-16
41
1
10
11.7882603826481
20
-23.7591079584198
30
-2E-16
41
1
10
11.8148780607233
20
-23.7416171457992
30
-2E-16
41
1
10
11.8602443227468
20
-23.7051129235883
30
-2E-16
41
1
10
11.8788862370738
20
-23.6860331168061
30
-2E-16
41
1
10
11.8943375672975
20
-23.6665017920809
30
7E-16
0
SPLINE
5
E1
100
AcDbEntity
8
1
62
256
6
ByLayer
370
18
48
1
60
0
100
AcDbSpline
70
4
71
3
72
16
73
12
40
0
40
0
40
0
40
0
40
0.125000000000001
40
0.125000000000001
40
0.250000000000002
40
0.250000000000002
40
0.500000000000001
40
0.500000000000001
40
0.750000000000001
40
0.750000000000001
40
1
40
1
40
1
40
1
41
1
10
11.4613248654052
20
7.52966679426504
30
7E-16
41
1
10
11.4930777586346
20
7.52966679426504
30
7E-16
41
1
10
11.523990670531
20
7.53597576299643
30
7E-16
41
1
10
11.5824040005111
20
7.55857361750103
30
7E-16
41
1
10
11.6089650834003
20
7.57431556968106
30
7E-16
41
1
10
11.6829561422921
20
7.63070347545337
30
7E-16
41
1
10
11.7219265489987
20
7.6777476510423
30
7E-16
41
1
10
11.7882603826481
20
7.77866338250453
30
7E-16
41
1
10
11.8148780607233
20
7.83191947486043
30
7E-16
41
1
10
11.8602443227468
20
7.94172327888185
30
7E-16
41
1
10
11.8788862370738
20
7.99846916820704
30
7E-16
41
1
10
11.8943375672975
20
8.05584836782771
30
7E-16
0
SPLINE
5
E2
100
AcDbEntity
8
1
62
256
6
ByLayer
370
18
48
1
60
0
100
AcDbSpline
70
4
71
3
72
16
73
12
40
0
40
0
40
0
40
0
40
0.249999999999999
40
0.249999999999999
40
0.499999999999998
40
0.499999999999998
40
0.749999999999996
40
0.749999999999996
40
0.874999999999998
40
0.874999999999998
40
1
40
1
40
1
40
1
41
1
10
11.8943375672974
20
23.6665017920809
30
7E-16
41
1
10
11.878892303015
20
23.6860254491252
30
-2E-16
41
1
10
11.8604037172646
20
23.7049589195931
30
-2E-16
41
1
10
11.8151421892069
20
23.7414301198899
30
-2E-16
41
1
10
11.7882878950994
20
23.7590955179201
30
-2E-16
41
1
10
11.7218733396747
20
23.7919356634172
30
-2E-16
41
1
10
11.6822221825146
20
23.8071882416308
30
-2E-16
41
1
10
11.6094109295817
20
23.8248834464053
30
-2E-16
41
1
10
11.5822992776727
20
23.8299908115613
30
-2E-16
41
1
10
11.5243601613892
20
23.8370993498304
30
-2E-16
41
1
10
11.4930267682388
20
23.8391299750505
30
-2E-16
41
1
10
11.4613248654053
20
23.8391299750505
30
-2E-16
0
SPLINE
5
E3
100
AcDbEntity
8
1
62
256
6
ByLayer
370
18
48
1
60
0
100
AcDbSpline
70
4
71
3
72
16
73
12
40
0
40
0
40
0
40
0
40
0.125000000000002
40
0.125000000000002
40
0.250000000000004
40
0.250000000000004
40
0.500000000000003
40
0.500000000000003
40
0.750000000000001
40
0.750000000000001
40
1
40
1
40
1
40
1
41
1
10
8.53867513459483
20
23.8391299750503
30
-4E-16
41
1
10
8.5069222413654
20
23.8391299750503
30
-4E-16
41
1
10
8.47600932946898
20
23.8371392949586
30
-4E-16
41
1
10
8.41759599948892
20
23.8299833264009
30
-4E-16
41
1
10
8.39103491659969
20
23.824989671385
30
-4E-16
41
1
10
8.31704385770789
20
23.8070141183761
30
-4E-16
41
1
10
8.27807345100132
20
23.7919105160783
30
-4E-16
41
1
10
8.21173961735187
20
23.7591079584198
30
-4E-16
41
1
10
8.18512193927674
20
23.7416171457992
30
-4E-16
41
1
10
8.13975567725328
20
23.7051129235882
30
-4E-16
41
1
10
8.1211137629262
20
23.6860331168061
30
-4E-16
41
1
10
8.10566243270245
20
23.6665017920809
30
5E-16
0
SPLINE
5
E4
100
AcDbEntity
8
1
62
256
6
ByLayer
370
18
48
1
60
0
100
AcDbSpline
70
4
71
3
72
16
73
12
40
0
40
0
40
0
40
0
40
0.25
40
0.25
40
0.5
40
0.5
40
0.75
40
0.75
40
0.875
40
0.875
40
1
40
1
40
1
40
1
41
1
10
8.10566243270259
20
8.05584836782774
30
5E-16
41
1
10
8.12110769698501
20
7.99849169434913
30
5E-16
41
1
10
8.13959628273543
20
7.94218253951254
30
5E-16
41
1
10
8.18485781079312
20
7.83248598676804
30
5E-16
41
1
10
8.21171210490061
20
7.77870179643025
30
5E-16
41
1
10
8.27812666032528
20
7.67767014498889
30
5E-16
41
1
10
8.31777781748545
20
7.63015704912692
30
5E-16
41
1
10
8.39058907041826
20
7.57464889660892
30
5E-16
41
1
10
8.41770072232734
20
7.55854989603583
30
5E-16
41
1
10
8.47563983861082
20
7.53610198950838
30
5E-16
41
1
10
8.50697323176118
20
7.52966679426473
30
5E-16
41
1
10
8.53867513459474
20
7.52966679426473
30
5E-16
0
SPLINE
5
E5
100
AcDbEntity
8
1
62
256
6
ByLayer
370
18
48
1
60
0
100
AcDbSpline
70
4
71
3
72
16
73
12
40
0
40
0
40
0
40
0
40
0.250000000000001
40
0.250000000000001
40
0.500000000000002
40
0.500000000000002
40
0.75
40
0.75
40
0.875
40
0.875
40
1
40
1
40
1
40
1
41
1
10
11.8943375672974
20
-8.05584836782774
30
7E-16
41
1
10
11.878892303015
20
-7.9984916943491
30
7E-16
41
1
10
11.8604037172646
20
-7.94218253951254
30
7E-16
41
1
10
11.8151421892069
20
-7.83248598676804
30
7E-16
41
1
10
11.7882878950994
20
-7.77870179643025
30
7E-16
41
1
10
11.7218733396747
20
-7.67767014498889
30
7E-16
41
1
10
11.6822221825146
20
-7.63015704912692
30
7E-16
41
1
10
11.6094109295817
20
-7.57464889660889
30
7E-16
41
1
10
11.5822992776727
20
-7.5585498960358
30
7E-16
41
1
10
11.5243601613892
20
-7.53610198950838
30
7E-16
41
1
10
11.4930267682388
20
-7.52966679426473
30
7E-16
41
1
10
11.4613248654053
20
-7.5296667942647
30
7E-16
0
SPLINE
5
E6
100
AcDbEntity
8
1
62
256
6
ByLayer
370
18
48
1
60
0
100
AcDbSpline
70
4
71
3
72
16
73
12
40
0
40
0
40
0
40
0
40
0.250000000000001
40
0.250000000000001
40
0.500000000000001
40
0.500000000000001
40
0.750000000000002
40
0.750000000000002
40
0.875000000000001
40
0.875000000000001
40
1
40
1
40
1
40
1
41
1
10
8.10566243270262
20
-23.6665017920809
30
5E-16
41
1
10
8.12110769698501
20
-23.6860254491252
30
-4E-16
41
1
10
8.1395962827354
20
-23.7049589195931
30
-4E-16
41
1
10
8.18485781079315
20
-23.7414301198899
30
-4E-16
41
1
10
8.21171210490064
20
-23.7590955179201
30
-4E-16
41
1
10
8.27812666032528
20
-23.7919356634172
30
-4E-16
41
1
10
8.31777781748545
20
-23.8071882416308
30
-4E-16
41
1
10
8.39058907041829
20
-23.8248834464053
30
-4E-16
41
1
10
8.41770072232734
20
-23.8299908115613
30
-4E-16
41
1
10
8.47563983861082
20
-23.8370993498304
30
-4E-16
41
1
10
8.50697323176118
20
-23.8391299750505
30
-4E-16
41
1
10
8.53867513459474
20
-23.8391299750505
30
-4E-16
0
SPLINE
5
E7
100
AcDbEntity
8
SK1
62
256
6
ByLayer
370
18
48
1
60
0
100
AcDbSpline
70
4
71
2
72
6
73
3
40
0
40
0
40
0
40
1
40
1
40
1
41
1
10
-28.5
20
16.8584505716142
30
0
41
1
10
-29.2499999991495
20
16.4254651505507
30
0
41
1
10
-30
20
15.99247954079
30
-1E-16
0
SPLINE
5
E8
100
AcDbEntity
8
SK1
62
256
6
ByLayer
370
18
48
1
60
0
100
AcDbSpline
70
4
71
2
72
6
73
3
40
0
40
0
40
0
40
1
40
1
40
1
41
1
10
-2.19999999999999
20
17.5148117187522
30
-1E-16
41
1
10
-15.3499999999294
20
17.1845422725478
30
-1E-16
41
1
10
-28.5
20
16.854272429841
30
0
0
SPLINE
5
E9
100
AcDbEntity
8
SK1
62
256
6
ByLayer
370
18
48
1
60
0
100
AcDbSpline
70
4
71
2
72
6
73
3
40
0
40
0
40
0
40
1
40
1
40
1
41
1
10
-0.394976888875277
20
-17.359696795897
30
0
41
1
10
-0.305277226309727
20
-17.3671842624703
30
0
41
1
10
-0.258658740615658
20
-17.4310145299902
30
0
0
SPLINE
5
EA
100
AcDbEntity
8
SK1
62
256
6
ByLayer
370
18
48
1
60
0
100
AcDbSpline
70
4
71
2
72
6
73
3
40
0
40
0
40
0
40
1
40
1
40
1
41
1
10
-28.5
20
-16.8542724489282
30
0
41
1
10
-15.3499999999286
20
-17.1845422635703
30
-1E-16
41
1
10
-2.19999999999999
20
-17.5148116792767
30
-1E-16
0
SPLINE
5
EB
100
AcDbEntity
8
SK1
62
256
6
ByLayer
370
18
48
1
60
0
100
AcDbSpline
70
4
71
3
72
13
73
9
40
0
40
0
40
0
40
0
40
0.23945753228309
40
0.36836158480505
40
0.500001016081932
40
0.63164027816559
40
0.760543864313999
40
1
40
1
40
1
40
1
41
1
10
-1.99503997793928
20
17.3251861589552
30
-1E-16
41
1
10
-2.02111030872967
20
17.324784519015
30
-1E-16
41
1
10
-2.0588406423399
20
17.3309567740351
30
-1E-16
41
1
10
-2.10627712749678
20
17.3540005764862
30
-1E-16
41
1
10
-2.13886378679061
20
17.3791679466685
30
-1E-16
41
1
10
-2.16563592203173
20
17.4104495005039
30
-1E-16
41
1
10
-2.19103284106794
20
17.4566686743028
30
-1E-16
41
1
10
-2.19909198642128
20
17.4940412586115
30
-1E-16
41
1
10
-2.19999999999999
20
17.5200987347078
30
-1E-16
0
SPLINE
5
EC
100
AcDbEntity
8
SK1
62
256
6
ByLayer
370
18
48
1
60
0
100
AcDbSpline
70
4
71
2
72
6
73
3
40
0
40
0
40
0
40
1
40
1
40
1
41
1
10
-1.99503997793928
20
-17.3199593099743
30
-1E-16
41
1
10
-1.19500843340703
20
-17.340052552406
30
-1E-16
41
1
10
-0.394976888875277
20
-17.3601457933935
30
0
0
SPLINE
5
ED
100
AcDbEntity
8
SK1
62
256
6
ByLayer
370
18
48
1
60
0
100
AcDbSpline
70
4
71
2
72
6
73
3
40
0
40
0
40
0
40
1
40
1
40
1
41
1
10
-0.394976888875277
20
17.3601458189993
30
0
41
1
10
-1.19500843340703
20
17.3400525762132
30
-1E-16
41
1
10
-1.99503997793928
20
17.3199593319919
30
-1E-16
0
SPLINE
5
EE
100
AcDbEntity
8
SK1
62
256
6
ByLayer
370
18
48
1
60
0
100
AcDbSpline
70
4
71
2
72
6
73
3
40
0
40
0
40
0
40
1
40
1
40
1
41
1
10
-30
20
-15.9924794145163
30
-1E-16
41
1
10
-29.2499999991495
20
-16.4254650261933
30
0
41
1
10
-28.5
20
-16.8584504491481
30
0
0
SPLINE
5
EF
100
AcDbEntity
8
SK1
62
256
6
ByLayer
370
18
48
1
60
0
100
AcDbSpline
70
4
71
2
72
6
73
3
40
0
40
0
40
0
40
1
40
1
40
1
41
1
10
-0.258442643302431
20
17.4312381196178
30
0
41
1
10
-0.305123774552584
20
17.3672404580573
30
0
41
1
10
-0.394976888875277
20
17.3596982935394
30
0
0
SPLINE
5
F0
100
AcDbEntity
8
SK1
62
256
6
ByLayer
370
18
48
1
60
0
100
AcDbSpline
70
4
71
3
72
13
73
9
40
0
40
0
40
0
40
0
40
0.239456135732699
40
0.368359721896259
40
0.499998983985049
40
0.631638415255947
40
0.760542467762324
40
1
40
1
40
1
40
1
41
1
10
-2.19999999999999
20
-17.520098551796
30
-1E-16
41
1
10
-2.19909198642199
20
-17.4940410756899
30
-1E-16
41
1
10
-2.19103284106865
20
-17.4566684913668
30
-1E-16
41
1
10
-2.16563592203269
20
-17.4104493175481
30
-1E-16
41
1
10
-2.13886378679189
20
-17.3791677636995
30
-1E-16
41
1
10
-2.10627712749815
20
-17.3540003935064
30
-1E-16
41
1
10
-2.05884064234175
20
-17.3309565910454
30
-1E-16
41
1
10
-2.02111030873064
20
-17.3247843360228
30
-1E-16
41
1
10
-1.99503997793928
20
-17.3251859759625
30
-1E-16
0
LINE
5
7E
100
AcDbEntity
8
SK1
62
256
6
ByLayer
370
18
48
1
60
0
100
AcDbLine
10
-0.2
20
6.103447
30
0
11
-0.2
21
17.833485
31
0
39
0
210
0
220
0
230
1
0
LINE
5
80
100
AcDbEntity
8
SK1
62
256
6
ByLayer
370
18
48
1
60
0
100
AcDbLine
10
-0.2
20
-17.833485
30
0
11
-0.2
21
-6.103448
31
0
39
0
210
0
220
0
230
1
0
LINE
5
81
100
AcDbEntity
8
SK1
62
256
6
ByLayer
370
18
48
1
60
0
100
AcDbLine
10
-0.394977
20
17.360184
30
0
11
-0.394977
21
17.362572
31
0
39
0
210
0
220
0
230
1
0
LINE
5
82
100
AcDbEntity
8
SK1
62
256
6
ByLayer
370
13
48
1
60
0
100
AcDbLine
10
-1.307107
20
-3.918065
30
0
11
-1.307107
21
3.918065
31
0
39
0
210
0
220
0
230
1
0
LINE
5
83
100
AcDbEntity
8
SK1
62
256
6
ByLayer
370
18
48
1
60
0
100
AcDbLine
10
-0.394977
20
-17.36241
30
0
11
-0.394977
21
-17.360184
31
0
39
0
210
0
220
0
230
1
0
LINE
5
84
100
AcDbEntity
8
SK1
62
256
6
ByLayer
370
18
48
1
60
0
100
AcDbLine
10
-1.99504
20
-17.325157
30
0
11
-1.99504
21
-17.320689
31
0
39
0
210
0
220
0
230
1
0
LINE
5
85
100
AcDbEntity
8
SK1
62
256
6
ByLayer
370
18
48
1
60
0
100
AcDbLine
10
-1.99504
20
17.320689
30
0
11
-1.99504
21
17.32516
31
0
39
0
210
0
220
0
230
1
0
LINE
5
86
100
AcDbEntity
8
1
62
256
6
ByLayer
370
13
48
1
60
0
100
AcDbLine
10
8.105662
20
23.666502
30
0
11
8.105662
21
8.055848
31
0
39
0
210
0
220
0
230
1
0
LINE
5
87
100
AcDbEntity
8
1
62
256
6
ByLayer
370
18
48
1
60
0
100
AcDbLine
10
8.538675
20
-23.83913
30
0
11
11.461325
21
-23.83913
31
0
39
0
210
0
220
0
230
1
0
LINE
5
88
100
AcDbEntity
8
1
62
256
6
ByLayer
370
18
48
1
60
0
100
AcDbLine
10
11.461325
20
-7.529667
30
0
11
8.538675
21
-7.529667
31
0
39
0
210
0
220
0
230
1
0
LINE
5
89
100
AcDbEntity
8
1
62
256
6
ByLayer
370
13
48
1
60
0
100
AcDbLine
10
8.538675
20
23.83913
30
0
11
8.538675
21
7.529667
31
0
39
0
210
0
220
0
230
1
0
LINE
5
8A
100
AcDbEntity
8
1
62
256
6
ByLayer
370
13
48
1
60
0
100
AcDbLine
10
11.461325
20
23.83913
30
0
11
11.461325
21
7.529667
31
0
39
0
210
0
220
0
230
1
0
LINE
5
8B
100
AcDbEntity
8
1
62
256
6
ByLayer
370
13
48
1
60
0
100
AcDbLine
10
20.186567
20
0
30
0
11
20.186567
21
25
31
0
39
0
210
0
220
0
230
1
0
LINE
5
8C
100
AcDbEntity
8
1
62
256
6
ByLayer
370
13
48
1
60
0
100
AcDbLine
10
20.186567
20
-25
30
0
11
20.186567
21
0
31
0
39
0
210
0
220
0
230
1
0
LINE
5
8D
100
AcDbEntity
8
1
62
256
6
ByLayer
370
13
48
1
60
0
100
AcDbLine
10
11.894338
20
23.666502
30
0
11
11.894338
21
8.055848
31
0
39
0
210
0
220
0
230
1
0
LINE
5
8E
100
AcDbEntity
8
1
62
256
6
ByLayer
370
13
48
1
60
0
100
AcDbLine
10
20.959168
20
24.407576
30
0
11
20.959168
21
-24.407576
31
0
39
0
210
0
220
0
230
1
0
LINE
5
8F
100
AcDbEntity
8
1
62
256
6
ByLayer
370
13
48
1
60
0
100
AcDbLine
10
11.461325
20
-7.529667
30
0
11
11.461325
21
-23.83913
31
0
39
0
210
0
220
0
230
1
0
LINE
5
90
100
AcDbEntity
8
1
62
256
6
ByLayer
370
18
48
1
60
0
100
AcDbLine
10
59.7
20
0
30
0
11
59.7
21
16
31
0
39
0
210
0
220
0
230
1
0
LINE
5
91
100
AcDbEntity
8
1
62
256
6
ByLayer
370
18
48
1
60
0
100
AcDbLine
10
59.7
20
-16
30
0
11
59.7
21
0
31
0
39
0
210
0
220
0
230
1
0
LINE
5
92
100
AcDbEntity
8
1
62
256
6
ByLayer
370
13
48
1
60
0
100
AcDbLine
10
11.894338
20
-8.055848
30
0
11
11.894338
21
-23.666502
31
0
39
0
210
0
220
0
230
1
0
LINE
5
93
100
AcDbEntity
8
1
62
256
6
ByLayer
370
18
48
1
60
0
100
AcDbLine
10
0
20
0
30
0
11
0
21
24.7
31
0
39
0
210
0
220
0
230
1
0
LINE
5
94
100
AcDbEntity
8
1
62
256
6
ByLayer
370
18
48
1
60
0
100
AcDbLine
10
0
20
-24.7
30
0
11
0
21
0
31
0
39
0
210
0
220
0
230
1
0
LINE
5
95
100
AcDbEntity
8
1
62
256
6
ByLayer
370
13
48
1
60
0
100
AcDbLine
10
25.6
20
0
30
0
11
25.6
21
16
31
0
39
0
210
0
220
0
230
1
0
LINE
5
96
100
AcDbEntity
8
1
62
256
6
ByLayer
370
13
48
1
60
0
100
AcDbLine
10
25.6
20
-16
30
0
11
25.6
21
0
31
0
39
0
210
0
220
0
230
1
0
LINE
5
97
100
AcDbEntity
8
1
62
256
6
ByLayer
370
18
48
1
60
0
100
AcDbLine
10
11.461325
20
23.83913
30
0
11
8.538675
21
23.83913
31
0
39
0
210
0
220
0
230
1
0
LINE
5
98
100
AcDbEntity
8
1
62
256
6
ByLayer
370
13
48
1
60
0
100
AcDbLine
10
8.538675
20
-7.529667
30
0
11
8.538675
21
-23.83913
31
0
39
0
210
0
220
0
230
1
0
LINE
5
99
100
AcDbEntity
8
1
62
256
6
ByLayer
370
13
48
1
60
0
100
AcDbLine
10
22.6
20
0
30
0
11
22.6
21
18.300375
31
0
39
0
210
0
220
0
230
1
0
LINE
5
9A
100
AcDbEntity
8
1
62
256
6
ByLayer
370
13
48
1
60
0
100
AcDbLine
10
22.6
20
-18.300375
30
0
11
22.6
21
0
31
0
39
0
210
0
220
0
230
1
0
LINE
5
9B
100
AcDbEntity
8
1
62
256
6
ByLayer
370
13
48
1
60
0
100
AcDbLine
10
8.105662
20
-8.055848
30
0
11
8.105662
21
-23.666502
31
0
39
0
210
0
220
0
230
1
0
LINE
5
9C
100
AcDbEntity
8
1
62
256
6
ByLayer
370
18
48
1
60
0
100
AcDbLine
10
60
20
0
30
0
11
60
21
15.7
31
0
39
0
210
0
220
0
230
1
0
LINE
5
9D
100
AcDbEntity
8
1
62
256
6
ByLayer
370
18
48
1
60
0
100
AcDbLine
10
60
20
-15.7
30
0
11
60
21
0
31
0
39
0
210
0
220
0
230
1
0
LINE
5
9E
100
AcDbEntity
8
1
62
256
6
ByLayer
370
18
48
1
60
0
100
AcDbLine
10
8.538675
20
7.529667
30
0
11
11.461325
21
7.529667
31
0
39
0
210
0
220
0
230
1
0
LINE
5
9F
100
AcDbEntity
8
1
62
256
6
ByLayer
370
18
48
1
60
0
100
AcDbLine
10
0.3
20
0
30
0
11
0.3
21
25
31
0
39
0
210
0
220
0
230
1
0
LINE
5
A0
100
AcDbEntity
8
1
62
256
6
ByLayer
370
18
48
1
60
0
100
AcDbLine
10
0.3
20
-25
30
0
11
0.3
21
0
31
0
39
0
210
0
220
0
230
1
0
LINE
5
A1
100
AcDbEntity
8
SK1
62
256
6
ByLayer
370
18
48
1
60
0
100
AcDbLine
10
62.85
20
6
30
0
11
62.85
21
-6
31
0
39
0
210
0
220
0
230
1
0
LINE
5
A2
100
AcDbEntity
8
SK1
62
256
6
ByLayer
370
18
48
1
60
0
100
AcDbLine
10
64.05
20
4.8
30
0
11
64.05
21
-4.8
31
0
39
0
210
0
220
0
230
1
0
LINE
5
A3
100
AcDbEntity
8
SK4
62
256
6
ByLayer
370
18
48
0.05
60
0
100
AcDbLine
10
-35
20
0
30
0
11
65
21
0
31
0
39
0
210
0
220
0
230
1
0
LINE
5
A5
100
AcDbEntity
8
SK1
62
256
6
ByLayer
370
18
48
1
60
0
100
AcDbLine
10
60
20
-6
30
0
11
62.85
21
-6
31
0
39
0
210
0
220
0
230
1
0
LINE
5
A6
100
AcDbEntity
8
SK1
62
256
6
ByLayer
370
18
48
1
60
0
100
AcDbLine
10
62.85
20
6
30
0
11
60
21
6
31
0
39
0
210
0
220
0
230
1
0
LINE
5
A7
100
AcDbEntity
8
SK1
62
256
6
ByLayer
370
18
48
1
60
0
100
AcDbLine
10
64.05
20
4.8
30
0
11
62.85
21
6
31
0
39
0
210
0
220
0
230
1
0
LINE
5
A8
100
AcDbEntity
8
SK1
62
256
6
ByLayer
370
18
48
1
60
0
100
AcDbLine
10
62.85
20
-6
30
0
11
64.05
21
-4.8
31
0
39
0
210
0
220
0
230
1
0
LINE
5
A9
100
AcDbEntity
8
1
62
256
6
ByLayer
370
18
48
1
60
0
100
AcDbLine
10
60
20
15.7
30
0
11
59.7
21
16
31
0
39
0
210
0
220
0
230
1
0
LINE
5
AA
100
AcDbEntity
8
1
62
256
6
ByLayer
370
18
48
1
60
0
100
AcDbLine
10
59.7
20
-16
30
0
11
60
21
-15.7
31
0
39
0
210
0
220
0
230
1
0
LINE
5
AB
100
AcDbEntity
8
1
62
256
6
ByLayer
370
18
48
1
60
0
100
AcDbLine
10
59.7
20
16
30
0
11
25.6
21
16
31
0
39
0
210
0
220
0
230
1
0
LINE
5
AC
100
AcDbEntity
8
1
62
256
6
ByLayer
370
18
48
1
60
0
100
AcDbLine
10
25.6
20
-16
30
0
11
59.7
21
-16
31
0
39
0
210
0
220
0
230
1
0
LINE
5
AD
100
AcDbEntity
8
1
62
256
6
ByLayer
370
18
48
1
60
0
100
AcDbLine
10
22.6
20
18.300375
30
0
11
20.959168
21
24.407576
31
0
39
0
210
0
220
0
230
1
0
LINE
5
AE
100
AcDbEntity
8
1
62
256
6
ByLayer
370
18
48
1
60
0
100
AcDbLine
10
20.959168
20
-24.407576
30
0
11
22.6
21
-18.300375
31
0
39
0
210
0
220
0
230
1
0
LINE
5
AF
100
AcDbEntity
8
1
62
256
6
ByLayer
370
18
48
1
60
0
100
AcDbLine
10
0
20
-24.7
30
0
11
0.3
21
-25
31
0
39
0
210
0
220
0
230
1
0
LINE
5
B0
100
AcDbEntity
8
1
62
256
6
ByLayer
370
18
48
1
60
0
100
AcDbLine
10
0.3
20
25
30
0
11
0
21
24.7
31
0
39
0
210
0
220
0
230
1
0
LINE
5
B1
100
AcDbEntity
8
1
62
256
6
ByLayer
370
18
48
1
60
0
100
AcDbLine
10
20.186567
20
25
30
0
11
0.3
21
25
31
0
39
0
210
0
220
0
230
1
0
LINE
5
B2
100
AcDbEntity
8
4
62
256
6
ByLayer
370
18
48
0.05
60
0
100
AcDbLine
10
0
20
0
30
0
11
60
21
0
31
0
39
0
210
0
220
0
230
1
0
LINE
5
B4
100
AcDbEntity
8
80
62
256
6
ByLayer
370
18
48
1
60
0
100
AcDbLine
10
0
20
0
30
0
11
-6.08897
21
0
31
0
39
0
210
0
220
0
230
1
0
LINE
5
B5
100
AcDbEntity
8
1
62
256
6
ByLayer
370
18
48
1
60
0
100
AcDbLine
10
0.3
20
-25
30
0
11
20.186567
21
-25
31
0
39
0
210
0
220
0
230
1
0
LINE
5
B6
100
AcDbEntity
8
81
62
256
6
ByLayer
370
18
48
1
60
0
100
AcDbLine
10
60
20
0
30
0
11
62.367097
21
0
31
0
39
0
210
0
220
0
230
1
0
LINE
5
B7
100
AcDbEntity
8
SK2
62
256
6
ByLayer
370
13
48
1
60
0
100
AcDbLine
10
-51.6
20
25
30
0
11
-51.6
21
-25
31
0
39
0
210
0
220
0
230
1
0
LINE
5
B9
100
AcDbEntity
8
SK2
62
256
6
ByLayer
370
13
48
1
60
0
100
AcDbLine
10
-1.5875
20
-25
30
0
11
-53.6
21
-25
31
0
39
0
210
0
220
0
230
1
0
LINE
5
BA
100
AcDbEntity
8
SK2
62
256
6
ByLayer
370
13
48
1
60
0
100
AcDbLine
10
-1.5875
20
25
30
0
11
-53.6
21
25
31
0
39
0
210
0
220
0
230
1
0
LINE
5
BB
100
AcDbEntity
8
1
62
256
6
ByLayer
370
18
48
1
60
1
100
AcDbLine
10
-51.6
20
-25
30
0
11
-52.060784
21
-21.500002
31
0
39
0
210
0
220
0
230
1
0
LINE
5
BC
100
AcDbEntity
8
1
62
256
6
ByLayer
370
18
48
1
60
1
100
AcDbLine
10
-52.060784
20
-21.500002
30
0
11
-51.139216
21
-21.499998
31
0
39
0
210
0
220
0
230
1
0
LINE
5
BD
100
AcDbEntity
8
1
62
256
6
ByLayer
370
18
48
1
60
1
100
AcDbLine
10
-51.139216
20
-21.499998
30
0
11
-51.6
21
-25
31
0
39
0
210
0
220
0
230
1
0
LINE
5
BE
100
AcDbEntity
8
1
62
256
6
ByLayer
370
18
48
1
60
1
100
AcDbLine
10
-51.6
20
25
30
0
11
-51.139216
21
21.500002
31
0
39
0
210
0
220
0
230
1
0
LINE
5
BF
100
AcDbEntity
8
1
62
256
6
ByLayer
370
18
48
1
60
1
100
AcDbLine
10
-51.139216
20
21.500002
30
0
11
-52.060784
21
21.499998
31
0
39
0
210
0
220
0
230
1
0
LINE
5
C0
100
AcDbEntity
8
1
62
256
6
ByLayer
370
18
48
1
60
1
100
AcDbLine
10
-52.060784
20
21.499998
30
0
11
-51.6
21
25
31
0
39
0
210
0
220
0
230
1
0
LINE
5
C1
100
AcDbEntity
8
SK2
62
256
6
ByLayer
370
13
48
1
60
0
100
AcDbLine
10
85.1
20
16
30
0
11
85.1
21
-16
31
0
39
0
210
0
220
0
230
1
0
LINE
5
C2
100
AcDbEntity
8
SK2
62
256
6
ByLayer
370
13
48
1
60
0
100
AcDbLine
10
61.5875
20
-16
30
0
11
87.1
21
-16
31
0
39
0
210
0
220
0
230
1
0
LINE
5
C3
100
AcDbEntity
8
SK2
62
256
6
ByLayer
370
13
48
1
60
0
100
AcDbLine
10
61.5875
20
16
30
0
11
87.1
21
16
31
0
39
0
210
0
220
0
230
1
0
LINE
5
C4
100
AcDbEntity
8
1
62
256
6
ByLayer
370
18
48
1
60
1
100
AcDbLine
10
85.1
20
-16
30
0
11
84.639216
21
-12.500002
31
0
39
0
210
0
220
0
230
1
0
LINE
5
C5
100
AcDbEntity
8
1
62
256
6
ByLayer
370
18
48
1
60
1
100
AcDbLine
10
84.639216
20
-12.500002
30
0
11
85.560784
21
-12.499998
31
0
39
0
210
0
220
0
230
1
0
LINE
5
C6
100
AcDbEntity
8
1
62
256
6
ByLayer
370
18
48
1
60
1
100
AcDbLine
10
85.560784
20
-12.499998
30
0
11
85.1
21
-16
31
0
39
0
210
0
220
0
230
1
0
LINE
5
C7
100
AcDbEntity
8
1
62
256
6
ByLayer
370
18
48
1
60
1
100
AcDbLine
10
85.1
20
16
30
0
11
85.560784
21
12.500002
31
0
39
0
210
0
220
0
230
1
0
LINE
5
C8
100
AcDbEntity
8
1
62
256
6
ByLayer
370
18
48
1
60
1
100
AcDbLine
10
85.560784
20
12.500002
30
0
11
84.639216
21
12.499998
31
0
39
0
210
0
220
0
230
1
0
LINE
5
C9
100
AcDbEntity
8
1
62
256
6
ByLayer
370
18
48
1
60
1
100
AcDbLine
10
84.639216
20
12.499998
30
0
11
85.1
21
16
31
0
39
0
210
0
220
0
230
1
0
LINE
5
F5
100
AcDbEntity
8
1
62
256
6
ByLayer
370
18
48
1
60
1
100
AcDbLine
10
-51.6
20
-25
30
0
11
-52.060784
21
-21.500002
31
0
39
0
210
0
220
0
230
1
0
LINE
5
F6
100
AcDbEntity
8
1
62
256
6
ByLayer
370
18
48
1
60
1
100
AcDbLine
10
-52.060784
20
-21.500002
30
0
11
-51.139216
21
-21.499998
31
0
39
0
210
0
220
0
230
1
0
LINE
5
F7
100
AcDbEntity
8
1
62
256
6
ByLayer
370
18
48
1
60
1
100
AcDbLine
10
-51.139216
20
-21.499998
30
0
11
-51.6
21
-25
31
0
39
0
210
0
220
0
230
1
0
LINE
5
F9
100
AcDbEntity
8
1
62
256
6
ByLayer
370
18
48
1
60
1
100
AcDbLine
10
-51.6
20
25
30
0
11
-51.139216
21
21.500002
31
0
39
0
210
0
220
0
230
1
0
LINE
5
FA
100
AcDbEntity
8
1
62
256
6
ByLayer
370
18
48
1
60
1
100
AcDbLine
10
-51.139216
20
21.500002
30
0
11
-52.060784
21
21.499998
31
0
39
0
210
0
220
0
230
1
0
LINE
5
FB
100
AcDbEntity
8
1
62
256
6
ByLayer
370
18
48
1
60
1
100
AcDbLine
10
-52.060784
20
21.499998
30
0
11
-51.6
21
25
31
0
39
0
210
0
220
0
230
1
0
LINE
5
FF
100
AcDbEntity
8
1
62
256
6
ByLayer
370
18
48
1
60
1
100
AcDbLine
10
85.1
20
-16
30
0
11
84.639216
21
-12.500002
31
0
39
0
210
0
220
0
230
1
0
LINE
5
100
100
AcDbEntity
8
1
62
256
6
ByLayer
370
18
48
1
60
1
100
AcDbLine
10
84.639216
20
-12.500002
30
0
11
85.560784
21
-12.499998
31
0
39
0
210
0
220
0
230
1
0
LINE
5
101
100
AcDbEntity
8
1
62
256
6
ByLayer
370
18
48
1
60
1
100
AcDbLine
10
85.560784
20
-12.499998
30
0
11
85.1
21
-16
31
0
39
0
210
0
220
0
230
1
0
LINE
5
103
100
AcDbEntity
8
1
62
256
6
ByLayer
370
18
48
1
60
1
100
AcDbLine
10
85.1
20
16
30
0
11
85.560784
21
12.500002
31
0
39
0
210
0
220
0
230
1
0
LINE
5
104
100
AcDbEntity
8
1
62
256
6
ByLayer
370
18
48
1
60
1
100
AcDbLine
10
85.560784
20
12.500002
30
0
11
84.639216
21
12.499998
31
0
39
0
210
0
220
0
230
1
0
LINE
5
105
100
AcDbEntity
8
1
62
256
6
ByLayer
370
18
48
1
60
1
100
AcDbLine
10
84.639216
20
12.499998
30
0
11
85.1
21
16
31
0
39
0
210
0
220
0
230
1
0
MTEXT
5
F1
100
AcDbEntity
8
SK2
62
256
6
ByLayer
370
18
48
1
60
0
100
AcDbMText
10
-53.164634
20
-3.655088
30
0
210
0
220
0
230
1
1
%%c
40
3.5
41
0
44
1.084337
50
90
71
7
72
5
7
iso_b_vert
0
MTEXT
5
F4
100
AcDbEntity
8
SK2
62
256
6
ByLayer
370
18
48
1
60
0
100
AcDbMText
10
-53.164634
20
1.567568
30
0
210
0
220
0
230
1
1
\W0.6740;50
40
3.5
41
0
44
1.084337
50
90
71
7
72
5
7
iso_b_vert
0
MTEXT
5
FD
100
AcDbEntity
8
SK2
62
256
6
ByLayer
370
18
48
1
60
0
100
AcDbMText
10
83.535366
20
-3.655088
30
0
210
0
220
0
230
1
1
%%c
40
3.5
41
0
44
1.084337
50
90
71
7
72
5
7
iso_b_vert
0
MTEXT
5
FE
100
AcDbEntity
8
SK2
62
256
6
ByLayer
370
18
48
1
60
0
100
AcDbMText
10
83.535366
20
1.567568
30
0
210
0
220
0
230
1
1
\W0.6740;32
40
3.5
41
0
44
1.084337
50
90
71
7
72
5
7
iso_b_vert
0
MTEXT
5
107
100
AcDbEntity
8
SK6
62
256
6
ByLayer
370
18
48
1
60
0
100
AcDbMText
10
0.1855
20
-40.717366
30
0
210
0
220
0
230
1
1
\W0.7403;C5-391.02-32060A
40
3.5
41
0
44
1.084337
50
0
71
7
72
5
7
iso_b_vert
0
HATCH
5
F8
100
AcDbEntity
8
SK2
62
256
6
ByLayer
370
13
48
1
60
0
100
AcDbHatch
10
0
20
0
30
0
210
0
220
0
230
1
2
ANSI31
70
0
71
0
91
1
92
5
93
3
72
1
10
-51.6
20
-25
11
-52.0607837415528
21
-21.5000016925532
72
1
10
-52.0607837415528
20
-21.5000016925532
11
-51.1392162584472
21
-21.4999983074468
72
1
10
-51.1392162584472
20
-21.4999983074468
11
-51.6
21
-25
97
0
75
0
76
1
52
0
41
0.0062
77
0
78
1
53
45
43
0
44
0
45
-0.0139193969876572
46
0.0139193969876572
79
0
47
0
98
1
10
0
20
0
0
HATCH
5
FC
100
AcDbEntity
8
SK2
62
256
6
ByLayer
370
13
48
1
60
0
100
AcDbHatch
10
0
20
0
30
0
210
0
220
0
230
1
2
ANSI31
70
0
71
0
91
1
92
5
93
3
72
1
10
-51.6
20
25
11
-51.1392162584472
21
21.5000016925532
72
1
10
-51.1392162584472
20
21.5000016925532
11
-52.0607837415528
21
21.4999983074468
72
1
10
-52.0607837415528
20
21.4999983074468
11
-51.6
21
25
97
0
75
0
76
1
52
0
41
0.0062
77
0
78
1
53
45
43
0
44
0
45
-0.0139193969876572
46
0.0139193969876572
79
0
47
0
98
1
10
0
20
0
0
HATCH
5
102
100
AcDbEntity
8
SK2
62
256
6
ByLayer
370
13
48
1
60
0
100
AcDbHatch
10
0
20
0
30
0
210
0
220
0
230
1
2
ANSI31
70
0
71
0
91
1
92
5
93
3
72
1
10
85.1
20
-16
11
84.6392162584472
21
-12.5000016925532
72
1
10
84.6392162584472
20
-12.5000016925532
11
85.5607837415528
21
-12.4999983074468
72
1
10
85.5607837415528
20
-12.4999983074468
11
85.1
21
-16
97
0
75
0
76
1
52
0
41
0.0062
77
0
78
1
53
45
43
0
44
0
45
-0.0139193969876572
46
0.0139193969876572
79
0
47
0
98
1
10
0
20
0
0
HATCH
5
106
100
AcDbEntity
8
SK2
62
256
6
ByLayer
370
13
48
1
60
0
100
AcDbHatch
10
0
20
0
30
0
210
0
220
0
230
1
2
ANSI31
70
0
71
0
91
1
92
5
93
3
72
1
10
85.1
20
16
11
85.5607837415528
21
12.5000016925532
72
1
10
85.5607837415528
20
12.5000016925532
11
84.6392162584472
21
12.4999983074468
72
1
10
84.6392162584472
20
12.4999983074468
11
85.1
21
16
97
0
75
0
76
1
52
0
41
0.0062
77
0
78
1
53
45
43
0
44
0
45
-0.0139193969876572
46
0.0139193969876572
79
0
47
0
98
1
10
0
20
0
0
DIMENSION
5
10A
100
AcDbEntity
8
SK2
62
256
6
ByLayer
370
18
48
1
60
0
100
AcDbDimension
2
_U0
10
20
20
41.6
30
0
11
10
21
41.6
31
0
70
32
71
1
72
1
41
1
210
0
220
0
230
1
3
Standard
100
AcDbAlignedDimension
13
0
23
25
33
0
14
20
24
25
34
0
50
0
100
AcDbRotatedDimension
1001
ACAD
1000
DSTYLE
1002
{
1070
   371
1070
    13
1070
   372
1070
    13
1070
   170
1070
     0
1070
   144
1040
1.0
1070
   277
1070
     2
1070
   284
1070
     8
1070
   278
1070
    44
1070
   146
1040
1.0
1070
   345
1005
16
1070
   347
1005
16
1070
   346
1005
16
1070
   344
1005
0
1070
   343
1005
0
1070
   172
1070
     1
1070
    76
1070
     0
1070
    75
1070
     0
1070
   282
1070
     0
1070
   281
1070
     0
1070
    71
1070
     0
1070
    74
1070
     0
1070
   279
1070
     0
1070
   173
1070
     1
1070
   340
1005
F2
1070
   271
1070
     1
1070
   272
1070
     2
1070
    77
1070
     1
1070
    73
1070
     1
1070
   171
1070
     3
1070
   274
1070
     4
1070
   177
1070
     2
1070
   176
1070
     2
1070
   178
1070
     2
1070
    78
1070
     8
1070
    48
1040
-0.1
1070
    41
1040
3.5
1070
   147
1040
1.75
1070
    42
1040
1.5875
1070
    44
1040
2.0
1070
   140
1040
3.5
1002
}
1001
ACAD_DSTYLE_DIM_LINETYPE
1070
   380
1005
16
1001
ACAD_DSTYLE_DIM_EXT1_LINETYPE
1070
   381
1005
16
1001
ACAD_DSTYLE_DIM_EXT2_LINETYPE
1070
   382
1005
16
0
DIMENSION
5
123
100
AcDbEntity
8
SK2
62
256
6
ByLayer
370
18
48
1
60
0
100
AcDbDimension
2
_U1
10
25.6
20
41.6
30
0
11
42.8
21
41.6
31
0
70
32
71
1
72
1
41
1
210
0
220
0
230
1
3
Standard
100
AcDbAlignedDimension
13
60
23
16
33
0
14
25.6
24
16
34
0
50
0
100
AcDbRotatedDimension
1001
ACAD
1000
DSTYLE
1002
{
1070
   371
1070
    13
1070
   372
1070
    13
1070
   170
1070
     0
1070
   144
1040
1.0
1070
   277
1070
     2
1070
   284
1070
     8
1070
   278
1070
    44
1070
   146
1040
1.0
1070
   345
1005
16
1070
   347
1005
16
1070
   346
1005
16
1070
   344
1005
0
1070
   343
1005
0
1070
   172
1070
     1
1070
    76
1070
     0
1070
    75
1070
     0
1070
   282
1070
     0
1070
   281
1070
     0
1070
    71
1070
     0
1070
    74
1070
     0
1070
   279
1070
     0
1070
   173
1070
     1
1070
   340
1005
F2
1070
   271
1070
     1
1070
   272
1070
     2
1070
    77
1070
     1
1070
    73
1070
     1
1070
   171
1070
     3
1070
   274
1070
     4
1070
   177
1070
     2
1070
   176
1070
     2
1070
   178
1070
     2
1070
    78
1070
     8
1070
    48
1040
-0.1
1070
    41
1040
3.5
1070
   147
1040
1.75
1070
    42
1040
1.5875
1070
    44
1040
2.0
1070
   140
1040
3.5
1002
}
1001
ACAD_DSTYLE_DIM_LINETYPE
1070
   380
1005
16
1001
ACAD_DSTYLE_DIM_EXT1_LINETYPE
1070
   381
1005
16
1001
ACAD_DSTYLE_DIM_EXT2_LINETYPE
1070
   382
1005
16
0
DIMENSION
5
13B
100
AcDbEntity
8
2
62
256
6
ByLayer
370
18
48
1
60
0
100
AcDbDimension
2
_U2
10
0
20
51.6
30
0
11
30
21
51.6
31
0
70
32
71
1
72
1
41
1
210
0
220
0
230
1
3
Standard
100
AcDbAlignedDimension
13
60
23
16
33
0
14
0
24
25
34
0
50
0
100
AcDbRotatedDimension
1001
ACAD
1000
DSTYLE
1002
{
1070
   371
1070
    13
1070
   372
1070
    13
1070
   170
1070
     0
1070
   144
1040
1.0
1070
   277
1070
     2
1070
   284
1070
     8
1070
   278
1070
    44
1070
   146
1040
1.0
1070
   345
1005
16
1070
   347
1005
16
1070
   346
1005
16
1070
   344
1005
0
1070
   343
1005
0
1070
   172
1070
     1
1070
    76
1070
     0
1070
    75
1070
     0
1070
   282
1070
     0
1070
   281
1070
     0
1070
    71
1070
     0
1070
    74
1070
     0
1070
   279
1070
     0
1070
   173
1070
     1
1070
   340
1005
F2
1070
   271
1070
     1
1070
   272
1070
     2
1070
    77
1070
     1
1070
    73
1070
     1
1070
   171
1070
     3
1070
   274
1070
     4
1070
   177
1070
     2
1070
   176
1070
     2
1070
   178
1070
     2
1070
    78
1070
     8
1070
    48
1040
-0.1
1070
    41
1040
3.5
1070
   147
1040
1.75
1070
    42
1040
1.5875
1070
    44
1040
2.0
1070
   140
1040
3.5
1002
}
1001
ACAD_DSTYLE_DIM_LINETYPE
1070
   380
1005
16
1001
ACAD_DSTYLE_DIM_EXT1_LINETYPE
1070
   381
1005
16
1001
ACAD_DSTYLE_DIM_EXT2_LINETYPE
1070
   382
1005
16
0
DIMENSION
5
154
100
AcDbEntity
8
SK2
62
256
6
ByLayer
370
18
48
1
60
0
100
AcDbDimension
2
_U3
10
0
20
51.6
30
0
11
-15
21
51.6
31
0
70
32
71
1
72
1
41
1
210
0
220
0
230
1
3
Standard
100
AcDbAlignedDimension
13
-30
23
17.5
33
0
14
0
24
25
34
0
50
0
100
AcDbRotatedDimension
1001
ACAD
1000
DSTYLE
1002
{
1070
   371
1070
    13
1070
   372
1070
    13
1070
   170
1070
     0
1070
   144
1040
1.0
1070
   277
1070
     2
1070
   284
1070
     8
1070
   278
1070
    44
1070
   146
1040
1.0
1070
   345
1005
16
1070
   347
1005
16
1070
   346
1005
16
1070
   344
1005
0
1070
   343
1005
0
1070
   172
1070
     1
1070
    76
1070
     0
1070
    75
1070
     0
1070
   282
1070
     0
1070
   281
1070
     0
1070
    71
1070
     0
1070
    74
1070
     0
1070
   279
1070
     0
1070
   173
1070
     1
1070
   340
1005
F2
1070
   271
1070
     1
1070
   272
1070
     2
1070
    77
1070
     1
1070
    73
1070
     1
1070
   171
1070
     3
1070
   274
1070
     4
1070
   177
1070
     2
1070
   176
1070
     2
1070
   178
1070
     2
1070
    78
1070
     8
1070
    48
1040
-0.1
1070
    41
1040
3.5
1070
   147
1040
1.75
1070
    42
1040
1.5875
1070
    44
1040
2.0
1070
   140
1040
3.5
1002
}
1001
ACAD_DSTYLE_DIM_LINETYPE
1070
   380
1005
16
1001
ACAD_DSTYLE_DIM_EXT1_LINETYPE
1070
   381
1005
16
1001
ACAD_DSTYLE_DIM_EXT2_LINETYPE
1070
   382
1005
16
0
ENDSEC
0
SECTION
2
OBJECTS
0
DICTIONARY
5
1dc
330
0
100
AcDbDictionary
280
0
281
1
3
ACAD_GROUP
350
1dd
3
ACAD_MLINESTYLE
350
1de
0
DICTIONARY
5
1dd
330
0
100
AcDbDictionary
280
0
281
1
0
DICTIONARY
5
1de
330
0
100
AcDbDictionary
280
0
281
1
3
Standard
350
18
0
MLINESTYLE
5
18
330
1de
100
AcDbMlineStyle
2
Standard
70
0
3

62
256
51
90
52
90
71
2
49
-0.5
62
256
6
ByLayer
49
0.5
62
256
6
ByLayer
0
RASTERVARIABLES
5
1ca
330

100
AcDbRasterVariables
90
0
70
1
71
1
72
1
0
ENDSEC
0
EOF
