0
SECTION
2
HEADER
9
$ACADVER
1
AC1015
9
$DWGCODEPAGE
3
ANSI_1252
9
$HANDSEED
5
1d3
9
$ANGBASE
50
0
9
$ANGDIR
70
0
9
$ATTMODE
70
1
9
$AUNITS
70
0
9
$AUPREC
70
0
9
$CECOLOR
62
256
9
$CELTSCALE
40
1
9
$CELTYPE
6
ByLayer
9
$CELWEIGHT
370
18
9
$CLAYER
8
0
9
$CMLJUST
70
0
9
$CMLSCALE
40
1
9
$CMLSTYLE
2
Standard
9
$DIMSTYLE
2
Standard
9
$TEXTSIZE
40
0.2
9
$TEXTSTYLE
7
Standard
9
$LUNITS
70
2
9
$LUPREC
70
4
9
$EXTNAMES
290
1
9
$INSUNITS
70
4
9
$LTSCALE
40
1
9
$LWDISPLAY
290
1
9
$PDMODE
70
0
9
$PDSIZE
40
0
9
$PLINEGEN
70
0
0
ENDSEC
0
SECTION
2
CLASSES
0
CLASS
1
RASTERVARIABLES
2
AcDbRasterVariables
3
ISM
90
0
280
0
281
0
0
ENDSEC
0
SECTION
2
TABLES
0
TABLE
2
VPORT
5
1c9
100
AcDbSymbolTable
0
VPORT
5
1
100
AcDbSymbolTableRecord
100
AcDbViewportTableRecord
2
*Active
70
0
10
0
20
0
11
1
21
1
12
-1
22
1
13
0
23
0
14
0.5
24
0.5
15
10
25
10
16
0
26
0
36
1
17
0
27
0
37
0
0
ENDTAB
0
TABLE
2
LTYPE
5
1ca
100
AcDbSymbolTable
0
LTYPE
5
14
100
AcDbSymbolTableRecord
100
AcDbLinetypeTableRecord
70
0
2
ByBlock
3

72
65
73
0
40
0
0
LTYPE
5
15
100
AcDbSymbolTableRecord
100
AcDbLinetypeTableRecord
70
0
2
ByLayer
3

72
65
73
0
40
0
0
LTYPE
5
16
100
AcDbSymbolTableRecord
100
AcDbLinetypeTableRecord
70
0
2
Continuous
3
Solid line
72
65
73
0
40
0
0
LTYPE
5
6E
100
AcDbSymbolTableRecord
100
AcDbLinetypeTableRecord
70
0
2
CENTER
3
____ _ ____ _ ____ _ ____
72
65
73
4
40
47.5
49
22
74
0
49
-8.5
74
0
49
8.5
74
0
49
-8.5
74
0
0
LTYPE
5
6F
100
AcDbSymbolTableRecord
100
AcDbLinetypeTableRecord
70
0
2
DASHED
3
__ __ __ __ __ __ __ __ __
72
65
73
2
40
25.72
49
12.86
74
0
49
-12.86
74
0
0
ENDTAB
0
TABLE
2
LAYER
5
1cb
100
AcDbSymbolTable
0
LAYER
5
10
100
AcDbSymbolTableRecord
100
AcDbLayerTableRecord
2
0
70
0
62
7
6
Continuous
290
1
370
-3
390
0
0
LAYER
5
71
100
AcDbSymbolTableRecord
100
AcDbLayerTableRecord
2
1
70
0
62
4
6
Continuous
290
1
370
-3
390
0
0
LAYER
5
73
100
AcDbSymbolTableRecord
100
AcDbLayerTableRecord
2
80
70
0
62
-6
6
Continuous
290
1
370
-3
390
0
0
LAYER
5
75
100
AcDbSymbolTableRecord
100
AcDbLayerTableRecord
2
81
70
0
62
-3
6
Continuous
290
1
370
-3
390
0
0
LAYER
5
C1
100
AcDbSymbolTableRecord
100
AcDbLayerTableRecord
2
4
70
0
62
-2
6
CENTER
290
1
370
-3
390
0
0
LAYER
5
10F
100
AcDbSymbolTableRecord
100
AcDbLayerTableRecord
2
Defpoints
70
0
62
7
6
Continuous
290
0
370
-3
390
0
0
LAYER
5
134
100
AcDbSymbolTableRecord
100
AcDbLayerTableRecord
2
2
70
0
62
7
6
Continuous
290
1
370
-3
390
0
0
LAYER
5
1b5
100
AcDbSymbolTableRecord
100
AcDbLayerTableRecord
2
SK1
70
0
62
4
6
Continuous
290
1
370
-3
390
0
0
LAYER
5
1b6
100
AcDbSymbolTableRecord
100
AcDbLayerTableRecord
2
SK4
70
0
62
2
6
CENTER
290
1
370
-3
390
0
0
LAYER
5
1b7
100
AcDbSymbolTableRecord
100
AcDbLayerTableRecord
2
SK2
70
0
62
7
6
Continuous
290
1
370
-3
390
0
0
LAYER
5
1b8
100
AcDbSymbolTableRecord
100
AcDbLayerTableRecord
2
SK6
70
0
62
5
6
Continuous
290
1
370
-3
390
0
0
ENDTAB
0
TABLE
2
STYLE
5
1cc
100
AcDbSymbolTable
0
STYLE
5
11
100
AcDbSymbolTableRecord
100
AcDbTextStyleTableRecord
2
Standard
3
txt
70
0
71
0
40
0
41
1
42
0
50
0
0
STYLE
5
F4
100
AcDbSymbolTableRecord
100
AcDbTextStyleTableRecord
2
iso_b_vert
3
simplex.shx
70
0
71
0
40
0
41
1
42
0
50
0
0
STYLE
5
F5
100
AcDbSymbolTableRecord
100
AcDbTextStyleTableRecord
2
DWGDirectTextStyle
3
simplex
70
0
71
0
40
0
41
1
42
0
50
0
0
ENDTAB
0
TABLE
2
DIMSTYLE
5
1cd
100
AcDbSymbolTable
100
AcDbDimStyleTable
0
DIMSTYLE
105
27
100
AcDbSymbolTableRecord
100
AcDbDimStyleTableRecord
2
Standard
70
0
3
<>
41
0.18
42
0.0625
44
0.18
140
0.18
147
0.09
73
0
74
0
77
1
271
2
275
0
278
52
280
0
340
11
0
ENDTAB
0
TABLE
2
VIEW
5
1ce
100
AcDbSymbolTable
0
ENDTAB
0
TABLE
2
UCS
5
1cf
100
AcDbSymbolTable
0
ENDTAB
0
TABLE
2
APPID
5
1d0
100
AcDbSymbolTable
0
APPID
5
12
100
AcDbSymbolTableRecord
100
AcDbRegAppTableRecord
2
ACAD
70
0
0
APPID
5
10B
100
AcDbSymbolTableRecord
100
AcDbRegAppTableRecord
2
ACAD_DSTYLE_DIMBREAK
70
0
0
APPID
5
174
100
AcDbSymbolTableRecord
100
AcDbRegAppTableRecord
2
ACAD_DSTYLE_DIM_LINETYPE
70
0
0
APPID
5
175
100
AcDbSymbolTableRecord
100
AcDbRegAppTableRecord
2
ACAD_DSTYLE_DIM_EXT1_LINETYPE
70
0
0
APPID
5
176
100
AcDbSymbolTableRecord
100
AcDbRegAppTableRecord
2
ACAD_DSTYLE_DIM_EXT2_LINETYPE
70
0
0
APPID
5
1B1
100
AcDbSymbolTableRecord
100
AcDbRegAppTableRecord
2
ACAD_MLEADERVER
70
0
0
ENDTAB
0
TABLE
2
BLOCK_RECORD
5
1d1
100
AcDbSymbolTable
0
BLOCK_RECORD
5
1F
100
AcDbSymbolTableRecord
100
AcDbBlockTableRecord
2
*Model_Space
340
0
70
0
0
BLOCK_RECORD
5
1B
100
AcDbSymbolTableRecord
100
AcDbBlockTableRecord
2
*Paper_Space
340
0
70
0
0
BLOCK_RECORD
5
23
100
AcDbSymbolTableRecord
100
AcDbBlockTableRecord
2
*Paper_Space0
340
0
70
0
0
BLOCK_RECORD
5
110
100
AcDbSymbolTableRecord
100
AcDbBlockTableRecord
2
*D1
340
0
70
0
0
BLOCK_RECORD
5
11C
100
AcDbSymbolTableRecord
100
AcDbBlockTableRecord
2
_U0
340
0
70
0
0
BLOCK_RECORD
5
128
100
AcDbSymbolTableRecord
100
AcDbBlockTableRecord
2
*D3
340
0
70
0
0
BLOCK_RECORD
5
135
100
AcDbSymbolTableRecord
100
AcDbBlockTableRecord
2
_U1
340
0
70
0
0
BLOCK_RECORD
5
141
100
AcDbSymbolTableRecord
100
AcDbBlockTableRecord
2
*D5
340
0
70
0
0
BLOCK_RECORD
5
14D
100
AcDbSymbolTableRecord
100
AcDbBlockTableRecord
2
_U2
340
0
70
0
0
ENDTAB
0
ENDSEC
0
SECTION
2
BLOCKS
0
BLOCK
5
20
100
AcDbEntity
8
0
100
AcDbBlockBegin
2
*Model_Space
70
0
10
0
20
0
30
0
3
*Model_Space
0
ENDBLK
5
21
100
AcDbEntity
8
0
100
AcDbBlockEnd
0
BLOCK
5
1C
100
AcDbEntity
8
0
100
AcDbBlockBegin
2
*Paper_Space
70
0
10
0
20
0
30
0
3
*Paper_Space
0
ENDBLK
5
1D
100
AcDbEntity
8
0
100
AcDbBlockEnd
0
BLOCK
5
24
100
AcDbEntity
8
0
100
AcDbBlockBegin
2
*Paper_Space0
70
0
10
0
20
0
30
0
3
*Paper_Space0
0
ENDBLK
5
25
100
AcDbEntity
8
0
100
AcDbBlockEnd
0
BLOCK
5
111
100
AcDbEntity
8
0
100
AcDbBlockBegin
2
*D1
70
1
10
0
20
0
30
0
3
*D1
0
LINE
5
113
100
AcDbEntity
8
0
62
256
6
ByLayer
370
-2
48
1
60
0
100
AcDbLine
10
0
20
50.3125
30
0
11
0
21
65.644743
31
0
39
0
210
0
220
0
230
1
0
LINE
5
114
100
AcDbEntity
8
0
62
256
6
ByLayer
370
-2
48
1
60
0
100
AcDbLine
10
19.05
20
50.3125
30
0
11
19.05
21
65.644743
31
0
39
0
210
0
220
0
230
1
0
LINE
5
115
100
AcDbEntity
8
0
62
256
6
ByLayer
370
-2
48
1
60
0
100
AcDbLine
10
3.5
20
63.644743
30
0
11
15.55
21
63.644743
31
0
39
0
210
0
220
0
230
1
0
SOLID
5
116
100
AcDbEntity
8
0
62
256
6
ByLayer
370
-1
48
1
60
0
100
AcDbTrace
10
3.5
20
64.228076
30
0
11
3.5
21
63.061409
31
0
12
0
22
63.644743
32
0
13
0
23
63.644743
33
0
39
0
210
0
220
0
230
1
0
SOLID
5
117
100
AcDbEntity
8
0
62
256
6
ByLayer
370
-1
48
1
60
0
100
AcDbTrace
10
15.55
20
63.061409
30
0
11
15.55
21
64.228076
31
0
12
19.05
22
63.644743
32
0
13
19.05
23
63.644743
33
0
39
0
210
0
220
0
230
1
0
MTEXT
5
118
100
AcDbEntity
8
0
62
256
6
ByLayer
370
18
48
1
60
0
100
AcDbMText
10
9.525
20
70.644743
30
0
210
0
220
0
230
1
1
\A1;19.1
40
3.5
41
0
44
1
50
0
71
5
72
5
7
iso_b_vert
0
POINT
5
119
100
AcDbEntity
8
Defpoints
62
0
6
ByLayer
370
-1
48
1
60
0
100
AcDbPoint
10
0
20
48.725
30
0
39
0
210
0
220
0
230
1
50
360
0
POINT
5
11A
100
AcDbEntity
8
Defpoints
62
0
6
ByLayer
370
-1
48
1
60
0
100
AcDbPoint
10
19.05
20
48.725
30
0
39
0
210
0
220
0
230
1
50
360
0
POINT
5
11B
100
AcDbEntity
8
Defpoints
62
0
6
ByLayer
370
-1
48
1
60
0
100
AcDbPoint
10
19.05
20
63.644743
30
0
39
0
210
0
220
0
230
1
50
360
0
ENDBLK
5
112
100
AcDbEntity
8
0
100
AcDbBlockEnd
0
BLOCK
5
123
100
AcDbEntity
8
0
100
AcDbBlockBegin
2
_U0
70
0
10
0
20
0
30
0
3
_U0
0
MTEXT
5
11D
100
AcDbEntity
8
SK2
62
256
6
ByLayer
370
18
48
1
60
0
100
AcDbMText
10
8.057467
20
64.677376
30
0
210
0
220
0
230
1
1
\W0.5469;19
40
3.5
41
0
44
1.084337
50
0
71
7
72
5
7
iso_b_vert
0
LINE
5
11E
100
AcDbEntity
8
SK2
62
256
6
ByLayer
370
13
48
1
60
0
100
AcDbLine
10
0
20
50.3125
30
0
11
0
21
65.644743
31
0
39
0
210
0
220
0
230
1
0
LINE
5
11F
100
AcDbEntity
8
SK2
62
256
6
ByLayer
370
13
48
1
60
0
100
AcDbLine
10
19.05
20
50.3125
30
0
11
19.05
21
65.644743
31
0
39
0
210
0
220
0
230
1
0
LINE
5
120
100
AcDbEntity
8
SK2
62
256
6
ByLayer
370
13
48
1
60
0
100
AcDbLine
10
0
20
63.644743
30
0
11
19.05
21
63.644743
31
0
39
0
210
0
220
0
230
1
0
SOLID
5
121
100
AcDbEntity
8
SK2
62
256
6
ByLayer
370
18
48
1
60
0
100
AcDbTrace
10
0
20
63.644743
30
0
11
3.499998
21
64.105526
31
0
12
3.500002
22
63.183959
32
0
13
3.500002
23
63.183959
33
0
39
0
210
0
220
0
230
1
0
SOLID
5
122
100
AcDbEntity
8
SK2
62
256
6
ByLayer
370
18
48
1
60
0
100
AcDbTrace
10
19.05
20
63.644743
30
0
11
15.550002
21
63.183959
31
0
12
15.549998
22
64.105526
32
0
13
15.549998
23
64.105526
33
0
39
0
210
0
220
0
230
1
0
ENDBLK
5
124
100
AcDbEntity
8
0
100
AcDbBlockEnd
0
BLOCK
5
129
100
AcDbEntity
8
0
100
AcDbBlockBegin
2
*D3
70
1
10
0
20
0
30
0
3
*D3
0
LINE
5
12B
100
AcDbEntity
8
0
62
256
6
ByLayer
370
-2
48
1
60
0
100
AcDbLine
10
70
20
26.5875
30
0
11
70
21
75.644743
31
0
39
0
210
0
220
0
230
1
0
LINE
5
12C
100
AcDbEntity
8
0
62
256
6
ByLayer
370
-2
48
1
60
0
100
AcDbLine
10
0
20
50.3125
30
0
11
0
21
75.644743
31
0
39
0
210
0
220
0
230
1
0
LINE
5
12D
100
AcDbEntity
8
0
62
256
6
ByLayer
370
-2
48
1
60
0
100
AcDbLine
10
66.5
20
73.644743
30
0
11
3.5
21
73.644743
31
0
39
0
210
0
220
0
230
1
0
SOLID
5
12E
100
AcDbEntity
8
0
62
256
6
ByLayer
370
-1
48
1
60
0
100
AcDbTrace
10
66.5
20
73.061409
30
0
11
66.5
21
74.228076
31
0
12
70
22
73.644743
32
0
13
70
23
73.644743
33
0
39
0
210
0
220
0
230
1
0
SOLID
5
12F
100
AcDbEntity
8
0
62
256
6
ByLayer
370
-1
48
1
60
0
100
AcDbTrace
10
3.5
20
74.228076
30
0
11
3.5
21
73.061409
31
0
12
0
22
73.644743
32
0
13
0
23
73.644743
33
0
39
0
210
0
220
0
230
1
0
MTEXT
5
130
100
AcDbEntity
8
0
62
256
6
ByLayer
370
18
48
1
60
0
100
AcDbMText
10
35
20
80.644743
30
0
210
0
220
0
230
1
1
\A1;70
40
3.5
41
0
44
1
50
0
71
5
72
5
7
iso_b_vert
0
POINT
5
131
100
AcDbEntity
8
Defpoints
62
0
6
ByLayer
370
-1
48
1
60
0
100
AcDbPoint
10
70
20
25
30
0
39
0
210
0
220
0
230
1
50
360
0
POINT
5
132
100
AcDbEntity
8
Defpoints
62
0
6
ByLayer
370
-1
48
1
60
0
100
AcDbPoint
10
0
20
48.725
30
0
39
0
210
0
220
0
230
1
50
360
0
POINT
5
133
100
AcDbEntity
8
Defpoints
62
0
6
ByLayer
370
-1
48
1
60
0
100
AcDbPoint
10
0
20
73.644743
30
0
39
0
210
0
220
0
230
1
50
360
0
ENDBLK
5
12A
100
AcDbEntity
8
0
100
AcDbBlockEnd
0
BLOCK
5
13C
100
AcDbEntity
8
0
100
AcDbBlockBegin
2
_U1
70
0
10
0
20
0
30
0
3
_U1
0
MTEXT
5
136
100
AcDbEntity
8
2
62
256
6
ByLayer
370
18
48
1
60
0
100
AcDbMText
10
33.095034
20
74.677376
30
0
210
0
220
0
230
1
1
\W0.6740;70
40
3.5
41
0
44
1.084337
50
0
71
7
72
5
7
iso_b_vert
0
LINE
5
137
100
AcDbEntity
8
2
62
256
6
ByLayer
370
13
48
1
60
0
100
AcDbLine
10
70
20
26.5875
30
0
11
70
21
75.644743
31
0
39
0
210
0
220
0
230
1
0
LINE
5
138
100
AcDbEntity
8
2
62
256
6
ByLayer
370
13
48
1
60
0
100
AcDbLine
10
0
20
50.3125
30
0
11
0
21
75.644743
31
0
39
0
210
0
220
0
230
1
0
LINE
5
139
100
AcDbEntity
8
2
62
256
6
ByLayer
370
13
48
1
60
0
100
AcDbLine
10
70
20
73.644743
30
0
11
0
21
73.644743
31
0
39
0
210
0
220
0
230
1
0
SOLID
5
13A
100
AcDbEntity
8
2
62
256
6
ByLayer
370
18
48
1
60
0
100
AcDbTrace
10
70
20
73.644743
30
0
11
66.500002
21
73.183959
31
0
12
66.499998
22
74.105526
32
0
13
66.499998
23
74.105526
33
0
39
0
210
0
220
0
230
1
0
SOLID
5
13B
100
AcDbEntity
8
2
62
256
6
ByLayer
370
18
48
1
60
0
100
AcDbTrace
10
0
20
73.644743
30
0
11
3.499998
21
74.105526
31
0
12
3.500002
22
73.183959
32
0
13
3.500002
23
73.183959
33
0
39
0
210
0
220
0
230
1
0
ENDBLK
5
13D
100
AcDbEntity
8
0
100
AcDbBlockEnd
0
BLOCK
5
142
100
AcDbEntity
8
0
100
AcDbBlockBegin
2
*D5
70
1
10
0
20
0
30
0
3
*D5
0
LINE
5
144
100
AcDbEntity
8
0
62
256
6
ByLayer
370
-2
48
1
60
0
100
AcDbLine
10
-101.6
20
14.0875
30
0
11
-101.6
21
75.644743
31
0
39
0
210
0
220
0
230
1
0
LINE
5
145
100
AcDbEntity
8
0
62
256
6
ByLayer
370
-2
48
1
60
0
100
AcDbLine
10
0
20
50.3125
30
0
11
0
21
75.644743
31
0
39
0
210
0
220
0
230
1
0
LINE
5
146
100
AcDbEntity
8
0
62
256
6
ByLayer
370
-2
48
1
60
0
100
AcDbLine
10
-98.1
20
73.644743
30
0
11
-3.5
21
73.644743
31
0
39
0
210
0
220
0
230
1
0
SOLID
5
147
100
AcDbEntity
8
0
62
256
6
ByLayer
370
-1
48
1
60
0
100
AcDbTrace
10
-98.1
20
74.228076
30
0
11
-98.1
21
73.061409
31
0
12
-101.6
22
73.644743
32
0
13
-101.6
23
73.644743
33
0
39
0
210
0
220
0
230
1
0
SOLID
5
148
100
AcDbEntity
8
0
62
256
6
ByLayer
370
-1
48
1
60
0
100
AcDbTrace
10
-3.5
20
73.061409
30
0
11
-3.5
21
74.228076
31
0
12
0
22
73.644743
32
0
13
0
23
73.644743
33
0
39
0
210
0
220
0
230
1
0
MTEXT
5
149
100
AcDbEntity
8
0
62
256
6
ByLayer
370
18
48
1
60
0
100
AcDbMText
10
-50.8
20
80.644743
30
0
210
0
220
0
230
1
1
\A1;101.6
40
3.5
41
0
44
1
50
0
71
5
72
5
7
iso_b_vert
0
POINT
5
14A
100
AcDbEntity
8
Defpoints
62
0
6
ByLayer
370
-1
48
1
60
0
100
AcDbPoint
10
-101.6
20
12.5
30
0
39
0
210
0
220
0
230
1
50
360
0
POINT
5
14B
100
AcDbEntity
8
Defpoints
62
0
6
ByLayer
370
-1
48
1
60
0
100
AcDbPoint
10
0
20
48.725
30
0
39
0
210
0
220
0
230
1
50
360
0
POINT
5
14C
100
AcDbEntity
8
Defpoints
62
0
6
ByLayer
370
-1
48
1
60
0
100
AcDbPoint
10
0
20
73.644743
30
0
39
0
210
0
220
0
230
1
50
360
0
ENDBLK
5
143
100
AcDbEntity
8
0
100
AcDbBlockEnd
0
BLOCK
5
154
100
AcDbEntity
8
0
100
AcDbBlockBegin
2
_U2
70
0
10
0
20
0
30
0
3
_U2
0
MTEXT
5
14E
100
AcDbEntity
8
SK2
62
256
6
ByLayer
370
18
48
1
60
0
100
AcDbMText
10
-55.062432
20
74.677376
30
0
210
0
220
0
230
1
1
\W0.6110;101,6
40
3.5
41
0
44
1.084337
50
0
71
7
72
5
7
iso_b_vert
0
LINE
5
14F
100
AcDbEntity
8
SK2
62
256
6
ByLayer
370
13
48
1
60
0
100
AcDbLine
10
-101.6
20
14.0875
30
0
11
-101.6
21
75.644743
31
0
39
0
210
0
220
0
230
1
0
LINE
5
150
100
AcDbEntity
8
SK2
62
256
6
ByLayer
370
13
48
1
60
0
100
AcDbLine
10
0
20
50.3125
30
0
11
0
21
75.644743
31
0
39
0
210
0
220
0
230
1
0
LINE
5
151
100
AcDbEntity
8
SK2
62
256
6
ByLayer
370
13
48
1
60
0
100
AcDbLine
10
-101.6
20
73.644743
30
0
11
0
21
73.644743
31
0
39
0
210
0
220
0
230
1
0
SOLID
5
152
100
AcDbEntity
8
SK2
62
256
6
ByLayer
370
18
48
1
60
0
100
AcDbTrace
10
-101.6
20
73.644743
30
0
11
-98.100002
21
74.105526
31
0
12
-98.099998
22
73.183959
32
0
13
-98.099998
23
73.183959
33
0
39
0
210
0
220
0
230
1
0
SOLID
5
153
100
AcDbEntity
8
SK2
62
256
6
ByLayer
370
18
48
1
60
0
100
AcDbTrace
10
0
20
73.644743
30
0
11
-3.499998
21
73.183959
31
0
12
-3.500002
22
74.105526
32
0
13
-3.500002
23
74.105526
33
0
39
0
210
0
220
0
230
1
0
ENDBLK
5
155
100
AcDbEntity
8
0
100
AcDbBlockEnd
0
ENDSEC
0
SECTION
2
ENTITIES
0
ARC
5
D8
100
AcDbEntity
8
SK1
62
256
6
ByLayer
370
18
48
1
60
0
100
AcDbCircle
39
0
10
-99.1
20
-17.94535
30
0
40
2.5
210
0
220
0
230
1
100
AcDbArc
50
180
51
261.702222
0
ARC
5
D9
100
AcDbEntity
8
SK1
62
256
6
ByLayer
370
18
48
1
60
0
100
AcDbCircle
39
0
10
-99.1
20
17.94535
30
0
40
2.5
210
0
220
0
230
1
100
AcDbArc
50
98.297778
51
180
0
ARC
5
DA
100
AcDbEntity
8
1
62
256
6
ByLayer
370
18
48
1
60
0
100
AcDbCircle
39
0
10
20.05
20
26
30
0
40
1
210
0
220
0
230
1
100
AcDbArc
50
180
51
270
0
ARC
5
DB
100
AcDbEntity
8
1
62
256
6
ByLayer
370
18
48
1
60
0
100
AcDbCircle
39
0
10
20.05
20
-26
30
0
40
1
210
0
220
0
230
1
100
AcDbArc
50
90
51
180
0
ARC
5
DC
100
AcDbEntity
8
1
62
256
6
ByLayer
370
18
48
1
60
0
100
AcDbCircle
39
0
10
2.9
20
35.3
30
0
40
0.6
210
0
220
0
230
1
100
AcDbArc
50
270
51
300.00093
0
ARC
5
DD
100
AcDbEntity
8
1
62
256
6
ByLayer
370
18
48
1
60
0
100
AcDbCircle
39
0
10
2.9
20
-35.3
30
0
40
0.6
210
0
220
0
230
1
100
AcDbArc
50
59.99907
51
90
0
POINT
5
70
100
AcDbEntity
8
1
62
256
6
ByLayer
370
18
48
1
60
0
100
AcDbPoint
10
0
20
0
30
0
39
0
210
0
220
0
230
1
50
360
0
POINT
5
72
100
AcDbEntity
8
80
62
256
6
ByLayer
370
18
48
1
60
0
100
AcDbPoint
10
0
20
0
30
0
39
0
210
0
220
0
230
1
50
360
0
POINT
5
74
100
AcDbEntity
8
81
62
256
6
ByLayer
370
18
48
1
60
0
100
AcDbPoint
10
70
20
0
30
0
39
0
210
0
220
0
230
1
50
360
0
POINT
5
76
100
AcDbEntity
8
1
62
256
6
ByLayer
370
18
48
1
60
1
100
AcDbPoint
10
0
20
48.725
30
0
39
0
210
0
220
0
230
1
50
360
0
POINT
5
77
100
AcDbEntity
8
1
62
256
6
ByLayer
370
18
48
1
60
1
100
AcDbPoint
10
19.05
20
48.725
30
0
39
0
210
0
220
0
230
1
50
360
0
POINT
5
78
100
AcDbEntity
8
1
62
256
6
ByLayer
370
18
48
1
60
1
100
AcDbPoint
10
70
20
25
30
0
39
0
210
0
220
0
230
1
50
360
0
POINT
5
79
100
AcDbEntity
8
1
62
256
6
ByLayer
370
18
48
1
60
1
100
AcDbPoint
10
0
20
48.725
30
0
39
0
210
0
220
0
230
1
50
360
0
POINT
5
7A
100
AcDbEntity
8
1
62
256
6
ByLayer
370
18
48
1
60
1
100
AcDbPoint
10
-101.6
20
12.5
30
0
39
0
210
0
220
0
230
1
50
360
0
POINT
5
7B
100
AcDbEntity
8
1
62
256
6
ByLayer
370
18
48
1
60
1
100
AcDbPoint
10
0
20
48.725
30
0
39
0
210
0
220
0
230
1
50
360
0
SPLINE
5
DE
100
AcDbEntity
8
1
62
256
6
ByLayer
370
18
48
1
60
0
100
AcDbSpline
70
4
71
3
72
8
73
4
40
0
40
0
40
0
40
0
40
1
40
1
40
1
40
1
41
1
10
14.3331615074619
20
46.985648008195
30
9E-16
41
1
10
13.8964943143287
20
46.2013198284689
30
9E-16
41
1
10
13.4604099871182
20
45.4166648448987
30
8E-16
41
1
10
13.025
20
44.6316317693424
30
8E-16
0
SPLINE
5
DF
100
AcDbEntity
8
1
62
256
6
ByLayer
370
18
48
1
60
0
100
AcDbSpline
70
4
71
3
72
18
73
14
40
0
40
0
40
0
40
0
40
0.125
40
0.125
40
0.249999999999999
40
0.249999999999999
40
0.374999999999999
40
0.374999999999999
40
0.499999999999998
40
0.499999999999998
40
0.749999999999999
40
0.749999999999999
40
1
40
1
40
1
40
1
41
1
10
19.05
20
45.8044606861602
30
-6E-16
41
1
10
19.05
20
45.8597817041904
30
-6E-16
41
1
10
19.0458115305281
20
45.914274939299
30
-6E-16
41
1
10
19.0304331187673
20
46.0217509316124
30
-6E-16
41
1
10
19.0191154045975
20
46.0749874098062
30
-6E-16
41
1
10
18.991189561833
20
46.1768537142373
30
-6E-16
41
1
10
18.9745397313226
20
46.2259361552557
30
-6E-16
41
1
10
18.9366743998155
20
46.3209562575146
30
-6E-16
41
1
10
18.9153041047874
20
46.3671565902655
30
-6E-16
41
1
10
18.8461216102585
20
46.4993001181467
30
-6E-16
41
1
10
18.7936806081031
20
46.5786161002885
30
-6E-16
41
1
10
18.6788241271584
20
46.72339013708
30
-6E-16
41
1
10
18.6160618545514
20
46.7889436627628
30
-6E-16
41
1
10
18.5500000000001
20
46.8466993879102
30
-6E-16
0
SPLINE
5
E0
100
AcDbEntity
8
1
62
256
6
ByLayer
370
18
48
1
60
0
100
AcDbSpline
70
4
71
3
72
24
73
20
40
0
40
0
40
0
40
0
40
0.0625458669846293
40
0.0625458669846293
40
0.125091733969258
40
0.125091733969258
40
0.250183467938515
40
0.250183467938515
40
0.375275201907771
40
0.375275201907771
40
0.500366935877027
40
0.500366935877027
40
0.625458669846283
40
0.625458669846283
40
0.750550403815539
40
0.750550403815539
40
0.875642137784795
40
0.875642137784795
40
1
40
1
40
1
40
1
41
1
10
18.05
20
29.85
30
1.1E-15
41
1
10
18.0873498329033
20
29.85
30
1.1E-15
41
1
10
18.1252504470733
20
29.85
30
1.1E-15
41
1
10
18.1993258385087
20
29.85
30
1.1E-15
41
1
10
18.235739418569
20
29.85
30
1.1E-15
41
1
10
18.3431875039723
20
29.85
30
1.1E-15
41
1
10
18.4128883912491
20
29.85
30
1.1E-15
41
1
10
18.5409528000482
20
29.85
30
1.1E-15
41
1
10
18.6008098549009
20
29.85
30
1.1E-15
41
1
10
18.7085794865175
20
29.85
30
1.1E-15
41
1
10
18.7566207953578
20
29.85
30
1.1E-15
41
1
10
18.8424094198612
20
29.85
30
1.2E-15
41
1
10
18.8792410137628
20
29.85
30
1.2E-15
41
1
10
18.9417989914295
20
29.85
30
1.2E-15
41
1
10
18.967662609558
20
29.85
30
1.2E-15
41
1
10
19.0092063619519
20
29.85
30
1.2E-15
41
1
10
19.0245742686391
20
29.85
30
1.2E-15
41
1
10
19.0448655127177
20
29.85
30
1.2E-15
41
1
10
19.0499511526083
20
29.8500000000001
30
1.2E-15
41
1
10
19.0499950000035
20
29.8500000000001
30
1.2E-15
0
SPLINE
5
E1
100
AcDbEntity
8
1
62
256
6
ByLayer
370
18
48
1
60
0
100
AcDbSpline
70
4
71
3
72
8
73
4
40
0
40
0
40
0
40
0
40
1
40
1
40
1
40
1
41
1
10
13.025
20
35.6010471846569
30
8E-16
41
1
10
13.4553296848113
20
36.5737291571326
30
8E-16
41
1
10
13.8916999104335
20
37.5436475518694
30
9E-16
41
1
10
14.3331615074619
20
38.5110779516752
30
9E-16
0
SPLINE
5
E2
100
AcDbEntity
8
1
62
256
6
ByLayer
370
18
48
1
60
0
100
AcDbSpline
70
4
71
3
72
18
73
14
40
0
40
0
40
0
40
0
40
0.124999999999996
40
0.124999999999996
40
0.249999999999991
40
0.249999999999991
40
0.374999999999987
40
0.374999999999987
40
0.499999999999982
40
0.499999999999982
40
0.749999999999991
40
0.749999999999991
40
1
40
1
40
1
40
1
41
1
10
19.05
20
-45.8044606861601
30
-6E-16
41
1
10
19.05
20
-45.8597817041902
30
-6E-16
41
1
10
19.0458115305281
20
-45.9142749392989
30
-6E-16
41
1
10
19.0304331187673
20
-46.0217509316124
30
-6E-16
41
1
10
19.0191154045975
20
-46.0749874098062
30
-6E-16
41
1
10
18.991189561833
20
-46.1768537142373
30
-6E-16
41
1
10
18.9745397313226
20
-46.2259361552557
30
-6E-16
41
1
10
18.9366743998155
20
-46.3209562575146
30
-6E-16
41
1
10
18.9153041047874
20
-46.3671565902655
30
-6E-16
41
1
10
18.8461216102585
20
-46.4993001181468
30
-6E-16
41
1
10
18.793680608103
20
-46.5786161002885
30
-6E-16
41
1
10
18.6788241271584
20
-46.7233901370801
30
-6E-16
41
1
10
18.6160618545513
20
-46.7889436627629
30
-6E-16
41
1
10
18.55
20
-46.8466993879103
30
-6E-16
0
SPLINE
5
E3
100
AcDbEntity
8
1
62
256
6
ByLayer
370
18
48
1
60
0
100
AcDbSpline
70
4
71
3
72
24
73
20
40
0
40
0
40
0
40
0
40
0.062500000000001
40
0.062500000000001
40
0.125000000000002
40
0.125000000000002
40
0.250000000000002
40
0.250000000000002
40
0.375000000000001
40
0.375000000000001
40
0.500000000000001
40
0.500000000000001
40
0.625000000000001
40
0.625000000000001
40
0.750000000000001
40
0.750000000000001
40
0.875
40
0.875
40
1
40
1
40
1
40
1
41
1
10
18.05
20
38.5110779516752
30
1.1E-15
41
1
10
18.0873498329033
20
38.5110779516752
30
1.1E-15
41
1
10
18.1252504470733
20
38.5083718116755
30
1.1E-15
41
1
10
18.1993258385087
20
38.4977801710271
30
1.1E-15
41
1
10
18.235739418569
20
38.4899284415963
30
1.1E-15
41
1
10
18.3431875039723
20
38.4590318853741
30
1.1E-15
41
1
10
18.4128883912491
20
38.4282038849305
30
1.1E-15
41
1
10
18.5409528000482
20
38.3516179411486
30
1.1E-15
41
1
10
18.6008098549009
20
38.3051189894718
30
1.1E-15
41
1
10
18.7085794865175
20
38.201333708324
30
1.1E-15
41
1
10
18.7566207953578
20
38.1442229769622
30
1.1E-15
41
1
10
18.8424094198612
20
38.0208092618357
30
1.2E-15
41
1
10
18.8792410137628
20
37.9557390404173
30
1.2E-15
41
1
10
18.9417989914295
20
37.8212086347043
30
1.2E-15
41
1
10
18.967662609558
20
37.7515094599359
30
1.2E-15
41
1
10
19.0092063619519
20
37.6075340804892
30
1.2E-15
41
1
10
19.0245742686391
20
37.5341503648294
30
1.2E-15
41
1
10
19.0449252088291
20
37.3868609845721
30
1.2E-15
41
1
10
19.05
20
37.3126219620441
30
1.2E-15
41
1
10
19.05
20
37.2377916235644
30
1.2E-15
0
SPLINE
5
E4
100
AcDbEntity
8
1
62
256
6
ByLayer
370
18
48
1
60
0
100
AcDbSpline
70
4
71
3
72
22
73
18
40
0
40
0
40
0
40
0
40
0.125
40
0.125
40
0.25
40
0.25
40
0.375
40
0.375
40
0.5
40
0.5
40
0.625
40
0.625
40
0.75
40
0.75
40
0.875
40
0.875
40
1
40
1
40
1
40
1
41
1
10
3.19999999999999
20
37.2377916235644
30
2E-16
41
1
10
3.19999999999999
20
37.3127126123841
30
2E-16
41
1
10
3.20516117432302
20
37.3877551565346
30
2E-16
41
1
10
3.22555843232223
20
37.5348388984027
30
2E-16
41
1
10
3.24078216448422
20
37.6073584195788
30
2E-16
41
1
10
3.28192683323721
20
37.7502211316137
30
2E-16
41
1
10
3.30815671537823
20
37.8211849494905
30
2E-16
41
1
10
3.37127428047432
20
37.9567750731603
30
2E-16
41
1
10
3.4080337975779
20
38.0214705705603
30
2E-16
41
1
10
3.49318948992519
20
38.1439262812523
30
2E-16
41
1
10
3.54215667459036
20
38.2021335235593
30
2E-16
41
1
10
3.64980379465121
20
38.3056179340437
30
2E-16
41
1
10
3.70866971259378
20
38.3514461699293
30
2E-16
41
1
10
3.83846221079617
20
38.4289571985152
30
2E-16
41
1
10
3.90660827425367
20
38.4589327569662
30
2E-16
41
1
10
4.04945486982527
20
38.5000886848892
30
2E-16
41
1
10
4.12540141988833
20
38.5110779516752
30
3E-16
41
1
10
4.19999999999999
20
38.5110779516752
30
3E-16
0
SPLINE
5
E5
100
AcDbEntity
8
1
62
256
6
ByLayer
370
18
48
1
60
0
100
AcDbSpline
70
4
71
3
72
8
73
4
40
0
40
0
40
0
40
0
40
1
40
1
40
1
40
1
41
1
10
7.86683849253808
20
38.5110779516752
30
5E-16
41
1
10
8.3083000895665
20
37.5436475518694
30
5E-16
41
1
10
8.7446703151887
20
36.5737291571326
30
5E-16
41
1
10
9.17499999999998
20
35.6010471846569
30
6E-16
0
SPLINE
5
E6
100
AcDbEntity
8
1
62
256
6
ByLayer
370
18
48
1
60
0
100
AcDbSpline
70
4
71
3
72
12
73
8
40
0
40
0
40
0
40
0
40
0.5
40
0.5
40
0.75
40
0.75
40
1
40
1
40
1
40
1
41
1
10
4.19999999999999
20
46.985648008195
30
3E-16
41
1
10
4.11173203798956
20
46.985648008195
30
3E-16
41
1
10
4.02535588929427
20
46.9737369314367
30
2E-16
41
1
10
3.8985584958406
20
46.9384500352652
30
2E-16
41
1
10
3.85665798261385
20
46.923650723809
30
2E-16
41
1
10
3.77626587777459
20
46.8890240046127
30
2E-16
41
1
10
3.73745387568363
20
46.8691285579498
30
2E-16
41
1
10
3.70000000001286
20
46.8466993879179
30
2E-16
0
SPLINE
5
E7
100
AcDbEntity
8
1
62
256
6
ByLayer
370
18
48
1
60
0
100
AcDbSpline
70
4
71
3
72
8
73
4
40
0
40
0
40
0
40
0
40
1
40
1
40
1
40
1
41
1
10
9.17499999999998
20
-44.6316317693424
30
6E-16
41
1
10
8.73959516856226
20
-45.4166555493386
30
5E-16
41
1
10
8.30350805310374
20
-46.2013155761596
30
5E-16
41
1
10
7.86683849253808
20
-46.985648008195
30
5E-16
0
SPLINE
5
E8
100
AcDbEntity
8
1
62
256
6
ByLayer
370
18
48
1
60
0
100
AcDbSpline
70
4
71
3
72
8
73
4
40
0
40
0
40
0
40
0
40
1
40
1
40
1
40
1
41
1
10
9.17500000000001
20
44.6316317693424
30
6E-16
41
1
10
8.73959001288179
20
45.4166648448987
30
5E-16
41
1
10
8.30350568567133
20
46.2013198284689
30
5E-16
41
1
10
7.86683849253808
20
46.985648008195
30
5E-16
0
SPLINE
5
E9
100
AcDbEntity
8
1
62
256
6
ByLayer
370
18
48
1
60
0
100
AcDbSpline
70
4
71
3
72
8
73
4
40
0
40
0
40
0
40
0
40
1
40
1
40
1
40
1
41
1
10
13.025
20
29.85
30
8E-16
41
1
10
13.4553296848113
20
29.85
30
8E-16
41
1
10
13.8916999104335
20
29.85
30
9E-16
41
1
10
14.3331615074619
20
29.85
30
9E-16
0
SPLINE
5
EA
100
AcDbEntity
8
1
62
256
6
ByLayer
370
18
48
1
60
0
100
AcDbSpline
70
4
71
3
72
8
73
4
40
0
40
0
40
0
40
0
40
1
40
1
40
1
40
1
41
1
10
7.86683849253808
20
29.85
30
5E-16
41
1
10
8.3083000895665
20
29.85
30
5E-16
41
1
10
8.7446703151887
20
29.85
30
5E-16
41
1
10
9.17499999999998
20
29.85
30
6E-16
0
SPLINE
5
EB
100
AcDbEntity
8
1
62
256
6
ByLayer
370
18
48
1
60
0
100
AcDbSpline
70
4
71
3
72
10
73
6
40
0
40
0
40
0
40
0
40
0.5
40
0.5
40
1
40
1
40
1
40
1
41
1
10
18.55
20
-46.8466993879102
30
-6E-16
41
1
10
18.4754829405064
20
-46.8913237630324
30
-6E-16
41
1
10
18.393870841741
20
-46.9266203224058
30
-7E-16
41
1
10
18.2249303943636
20
-46.9736791043801
30
-7E-16
41
1
10
18.1369306148948
20
-46.985648008195
30
-7E-16
41
1
10
18.05
20
-46.985648008195
30
-7E-16
0
SPLINE
5
EC
100
AcDbEntity
8
1
62
256
6
ByLayer
370
18
48
1
60
0
100
AcDbSpline
70
4
71
3
72
18
73
14
40
0
40
0
40
0
40
0
40
0.25
40
0.25
40
0.5
40
0.5
40
0.625
40
0.625
40
0.75
40
0.75
40
0.875
40
0.875
40
1
40
1
40
1
40
1
41
1
10
3.69999999999897
20
-46.8466993879093
30
2E-16
41
1
10
3.63392372926384
20
-46.7889310591624
30
2E-16
41
1
10
3.57189604109993
20
-46.7242023308288
30
2E-16
41
1
10
3.45680850984527
20
-46.5793271856141
30
2E-16
41
1
10
3.40331982333268
20
-46.4983174164183
30
2E-16
41
1
10
3.33456226178038
20
-46.3668588604979
30
2E-16
41
1
10
3.31347157388458
20
-46.3212950641398
30
2E-16
41
1
10
3.27552551475466
20
-46.226127235516
30
2E-16
41
1
10
3.25857583792973
20
-46.1761275971999
30
2E-16
41
1
10
3.23065486086779
20
-46.0740175814857
30
2E-16
41
1
10
3.21957824797661
20
-46.021783644593
30
2E-16
41
1
10
3.20421947092231
20
-45.9145381985793
30
2E-16
41
1
10
3.19999999999999
20
-45.8591171255427
30
2E-16
41
1
10
3.19999999999999
20
-45.8044606861602
30
2E-16
0
SPLINE
5
ED
100
AcDbEntity
8
1
62
256
6
ByLayer
370
18
48
1
60
0
100
AcDbSpline
70
4
71
3
72
8
73
4
40
0
40
0
40
0
40
0
40
1
40
1
40
1
40
1
41
1
10
14.3331615074619
20
-46.985648008195
30
9E-16
41
1
10
13.8964919468962
20
-46.2013155761596
30
9E-16
41
1
10
13.4604048314377
20
-45.4166555493386
30
8E-16
41
1
10
13.025
20
-44.6316317693424
30
8E-16
0
SPLINE
5
EE
100
AcDbEntity
8
1
62
256
6
ByLayer
370
18
48
1
60
0
100
AcDbSpline
70
4
71
3
72
18
73
14
40
0
40
0
40
0
40
0
40
0.250000000000006
40
0.250000000000006
40
0.500000000000013
40
0.500000000000013
40
0.62500000000001
40
0.62500000000001
40
0.750000000000006
40
0.750000000000006
40
0.875000000000003
40
0.875000000000003
40
1
40
1
40
1
40
1
41
1
10
3.70000000000724
20
46.8466993879165
30
2E-16
41
1
10
3.63392372927109
20
46.7889310591696
30
2E-16
41
1
10
3.57189604110621
20
46.7242023308358
30
2E-16
41
1
10
3.45680850984979
20
46.5793271856206
30
2E-16
41
1
10
3.40331982333635
20
46.4983174164244
30
2E-16
41
1
10
3.33456226178288
20
46.3668588605031
30
2E-16
41
1
10
3.31347157388669
20
46.3212950641447
30
2E-16
41
1
10
3.27552551475611
20
46.2261272355201
30
2E-16
41
1
10
3.25857583793086
20
46.1761275972036
30
2E-16
41
1
10
3.23065486086838
20
46.0740175814885
30
2E-16
41
1
10
3.21957824797698
20
46.0217836445952
30
2E-16
41
1
10
3.2042194709224
20
45.9145381985804
30
2E-16
41
1
10
3.19999999999999
20
45.8591171255432
30
2E-16
41
1
10
3.19999999999999
20
45.8044606861602
30
2E-16
0
SPLINE
5
EF
100
AcDbEntity
8
1
62
256
6
ByLayer
370
18
48
1
60
0
100
AcDbSpline
70
2053
71
3
72
90
73
86
40
0
40
0
40
0
40
0
40
0.0312499999999999
40
0.0312499999999999
40
0.0468750000000001
40
0.0468750000000001
40
0.0625000000000003
40
0.0625000000000003
40
0.0937500000000006
40
0.0937500000000006
40
0.125000000000001
40
0.125000000000001
40
0.156250000000001
40
0.156250000000001
40
0.171875000000001
40
0.171875000000001
40
0.187500000000001
40
0.203125000000001
40
0.203125000000001
40
0.218750000000002
40
0.218750000000002
40
0.250000000000002
40
0.250000000000002
40
0.281250000000002
40
0.281250000000002
40
0.312500000000002
40
0.312500000000002
40
0.328125000000002
40
0.328125000000002
40
0.343750000000002
40
0.343750000000002
40
0.375000000000001
40
0.375000000000001
40
0.406250000000001
40
0.406250000000001
40
0.421875000000002
40
0.421875000000002
40
0.437500000000002
40
0.437500000000002
40
0.468750000000002
40
0.468750000000002
40
0.500000000000001
40
0.500000000000001
40
0.531250000000001
40
0.531250000000001
40
0.546875000000001
40
0.546875000000001
40
0.562500000000001
40
0.578125000000001
40
0.578125000000001
40
0.593750000000001
40
0.593750000000001
40
0.625000000000001
40
0.625000000000001
40
0.640625000000001
40
0.640625000000001
40
0.656250000000001
40
0.656250000000001
40
0.687500000000001
40
0.687500000000001
40
0.703125000000002
40
0.703125000000002
40
0.718750000000002
40
0.718750000000002
40
0.750000000000002
40
0.750000000000002
40
0.781250000000002
40
0.781250000000002
40
0.796875000000002
40
0.796875000000002
40
0.812500000000002
40
0.812500000000002
40
0.843750000000002
40
0.843750000000002
40
0.875000000000002
40
0.875000000000002
40
0.906250000000002
40
0.906250000000002
40
0.921875000000002
40
0.921875000000002
40
0.937500000000002
40
0.937500000000002
40
0.968750000000001
40
0.968750000000001
40
1
40
1
40
1
40
1
41
1
10
11.1
20
1.75
30
7E-16
41
1
10
10.9843750798771
20
1.75
30
7E-16
41
1
10
10.8706844637775
20
1.73865341803645
30
7E-16
41
1
10
10.7029308461554
20
1.70531123782899
30
7E-16
41
1
10
10.6474801367435
20
1.69145655551972
30
7E-16
41
1
10
10.5375342360687
20
1.65814105861276
30
6E-16
41
1
10
10.4828920829912
20
1.63858691295718
30
6E-16
41
1
10
10.3239490574876
20
1.57270529496896
30
6E-16
41
1
10
10.223437858835
20
1.51895251456617
30
6E-16
41
1
10
10.0332159928233
20
1.39195898318255
30
6E-16
41
1
10
9.94315992321521
20
1.31804841708461
30
6E-16
41
1
10
9.78173992054522
20
1.1565988742648
30
6E-16
41
1
10
9.70930274054413
20
1.06850396887054
30
6E-16
41
1
10
9.61335371803509
20
0.925036611198408
30
6E-16
41
1
10
9.58356641084097
20
0.875333811115695
30
6E-16
41
1
10
9.52957852065978
20
0.774310288970696
30
6E-16
41
1
10
9.48080349274497
20
0.671140004808336
30
6E-16
41
1
10
9.44229833960603
20
0.563739686115696
30
6E-16
41
1
10
9.40899903470731
20
0.454194852407966
30
6E-16
41
1
10
9.39489765912438
20
0.398047339570951
30
6E-16
41
1
10
9.36118036043615
20
0.228624081546229
30
6E-16
41
1
10
9.35006111574268
20
0.11507221293229
30
6E-16
41
1
10
9.34993938191701
20
-0.113205767785502
30
6E-16
41
1
10
9.36129701543899
20
-0.229139065268441
30
6E-16
41
1
10
9.40593725142401
20
-0.453590325779317
30
6E-16
41
1
10
9.43896710381759
20
-0.562682841188519
30
6E-16
41
1
10
9.50466795218821
20
-0.721596301762077
30
6E-16
41
1
10
9.52944223767634
20
-0.774048893055948
30
6E-16
41
1
10
9.58361591470276
20
-0.875432852646895
30
6E-16
41
1
10
9.61301848077542
20
-0.92446553683763
30
6E-16
41
1
10
9.70800782353331
20
-1.0667052310358
30
6E-16
41
1
10
9.78030989889137
20
-1.15510137325128
30
6E-16
41
1
10
9.94357507842253
20
-1.31853044947988
30
6E-16
41
1
10
10.0321130423297
20
-1.39108301626604
30
6E-16
41
1
10
10.1742276754251
20
-1.48616763226011
30
6E-16
41
1
10
10.2231962805482
20
-1.51558898618427
30
6E-16
41
1
10
10.3243962922325
20
-1.56978776463086
30
6E-16
41
1
10
10.3768541979864
20
-1.5946326721135
30
6E-16
41
1
10
10.5358909899234
20
-1.66055829904204
30
6E-16
41
1
10
10.6449734149756
20
-1.6936706257863
30
7E-16
41
1
10
10.8691834771
20
-1.73847436405794
30
7E-16
41
1
10
10.985168313322
20
-1.74995928111713
30
7E-16
41
1
10
11.2135872283375
20
-1.75004049764337
30
7E-16
41
1
10
11.32710132237
20
-1.73900796112218
30
7E-16
41
1
10
11.4963078528955
20
-1.70550462051574
30
7E-16
41
1
10
11.5525748807822
20
-1.69143733650679
30
7E-16
41
1
10
11.6622682998323
20
-1.65820337259171
30
7E-16
41
1
10
11.7697611965565
20
-1.61976768493068
30
7E-16
41
1
10
11.872926579989
20
-1.57110099198672
30
7E-16
41
1
10
11.9739023809984
20
-1.51725688449926
30
7E-16
41
1
10
12.0235231761772
20
-1.48759021314368
30
7E-16
41
1
10
12.1672959062648
20
-1.39163869060155
30
7E-16
41
1
10
12.2554831168091
20
-1.31923299514779
30
8E-16
41
1
10
12.3766129850964
20
-1.19833781483465
30
8E-16
41
1
10
12.4151176428348
20
-1.15597680585125
30
8E-16
41
1
10
12.4882749568164
20
-1.06700957560741
30
8E-16
41
1
10
12.522758003321
20
-1.02055617151817
30
8E-16
41
1
10
12.6182158790691
20
-0.877850491538311
30
8E-16
41
1
10
12.6720343817577
20
-0.777389974412216
30
8E-16
41
1
10
12.7379887687129
20
-0.618687813849988
30
8E-16
41
1
10
12.7575791992229
20
-0.564127418005683
30
8E-16
41
1
10
12.7910456381637
20
-0.454062985817643
30
8E-16
41
1
10
12.8049598524763
20
-0.398577928383901
30
8E-16
41
1
10
12.8384596361186
20
-0.230798500405768
30
8E-16
41
1
10
12.8498823369782
20
-0.117192708850382
30
8E-16
41
1
10
12.8501158719946
20
0.113651919775037
30
8E-16
41
1
10
12.8388477123341
20
0.22782454534061
30
8E-16
41
1
10
12.8056594323181
20
0.39556889220637
30
8E-16
41
1
10
12.7918624778111
20
0.450990581028293
30
8E-16
41
1
10
12.7586930070668
20
0.560828544484821
30
8E-16
41
1
10
12.7391950448125
20
0.615497417730523
30
8E-16
41
1
10
12.6733812144268
20
0.774700857603989
30
8E-16
41
1
10
12.6196895711407
20
0.87527166817776
30
8E-16
41
1
10
12.4929693208828
20
1.06545453062421
30
8E-16
41
1
10
12.4191285055428
20
1.15561566925359
30
8E-16
41
1
10
12.2577173090814
20
1.3172844117401
30
8E-16
41
1
10
12.1697058468024
20
1.38975968787111
30
7E-16
41
1
10
12.0265312719605
20
1.48571210174046
30
7E-16
41
1
10
11.9767939661519
20
1.51559219830085
30
7E-16
41
1
10
11.8757088301603
20
1.56973347465171
30
7E-16
41
1
10
11.8241142231724
20
1.59417893431686
30
7E-16
41
1
10
11.6662305507525
20
1.65978145991429
30
7E-16
41
1
10
11.5564606380758
20
1.69336148175773
30
7E-16
41
1
10
11.3300396873546
20
1.73865211133656
30
7E-16
41
1
10
11.2156249201229
20
1.75
30
7E-16
41
1
10
11.1
20
1.75
30
7E-16
0
SPLINE
5
F0
100
AcDbEntity
8
1
62
256
6
ByLayer
370
18
48
1
60
0
100
AcDbSpline
70
4
71
3
72
22
73
18
40
0
40
0
40
0
40
0
40
0.125
40
0.125
40
0.25
40
0.25
40
0.375
40
0.375
40
0.5
40
0.5
40
0.625
40
0.625
40
0.75
40
0.75
40
0.875
40
0.875
40
1
40
1
40
1
40
1
41
1
10
3.19999499949998
20
29.85
30
2E-16
41
1
10
3.2000050005
20
29.85
30
2E-16
41
1
10
3.20516117432302
20
29.85
30
2E-16
41
1
10
3.22555843232223
20
29.85
30
2E-16
41
1
10
3.24078216448422
20
29.85
30
2E-16
41
1
10
3.28192683323721
20
29.85
30
2E-16
41
1
10
3.30815671537823
20
29.85
30
2E-16
41
1
10
3.37127428047432
20
29.85
30
2E-16
41
1
10
3.4080337975779
20
29.85
30
2E-16
41
1
10
3.49318948992519
20
29.85
30
2E-16
41
1
10
3.54215667459036
20
29.85
30
2E-16
41
1
10
3.64980379465121
20
29.85
30
2E-16
41
1
10
3.70866971259378
20
29.85
30
2E-16
41
1
10
3.83846221079617
20
29.85
30
2E-16
41
1
10
3.90660827425367
20
29.85
30
2E-16
41
1
10
4.04945486982527
20
29.85
30
2E-16
41
1
10
4.12540141988833
20
29.85
30
3E-16
41
1
10
4.19999999999999
20
29.85
30
3E-16
0
SPLINE
5
F1
100
AcDbEntity
8
1
62
256
6
ByLayer
370
18
48
1
60
0
100
AcDbSpline
70
4
71
3
72
12
73
8
40
0
40
0
40
0
40
0
40
0.250000000000004
40
0.250000000000004
40
0.500000000000009
40
0.500000000000009
40
1
40
1
40
1
40
1
41
1
10
4.19999999999999
20
-46.985648008195
30
3E-16
41
1
10
4.15652081201344
20
-46.985648008195
30
3E-16
41
1
10
4.11310639208821
20
-46.9827200322283
30
3E-16
41
1
10
4.02640926662116
20
-46.9709096555179
30
2E-16
41
1
10
3.98301144875802
20
-46.9619583153972
30
2E-16
41
1
10
3.8561064933254
20
-46.9266247574474
30
2E-16
41
1
10
3.77456179924593
20
-46.8913505553336
30
2E-16
41
1
10
3.69999999999879
20
-46.8466993879095
30
2E-16
0
SPLINE
5
F2
100
AcDbEntity
8
1
62
256
6
ByLayer
370
18
48
1
60
0
100
AcDbSpline
70
4
71
3
72
12
73
8
40
0
40
0
40
0
40
0
40
0.500000000000005
40
0.500000000000005
40
0.750000000000003
40
0.750000000000003
40
1
40
1
40
1
40
1
41
1
10
18.5500000000028
20
46.8466993879132
30
-6E-16
41
1
10
18.4741282558849
20
46.8921350129058
30
-6E-16
41
1
10
18.394026065591
20
46.9265429276689
30
-7E-16
41
1
10
18.267614726928
20
46.9618062491742
30
-7E-16
41
1
10
18.2240798116042
20
46.9708262175067
30
-7E-16
41
1
10
18.1371283720688
20
46.9827047249242
30
-7E-16
41
1
10
18.093593327025
20
46.985648008195
30
-7E-16
41
1
10
18.05
20
46.985648008195
30
-7E-16
0
LINE
5
7C
100
AcDbEntity
8
SK1
62
256
6
ByLayer
370
13
48
1
60
0
100
AcDbLine
10
-99.460795
20
-20.419179
30
0
11
-99.460795
21
20.419179
31
0
39
0
210
0
220
0
230
1
0
LINE
5
7E
100
AcDbEntity
8
SK1
62
256
6
ByLayer
370
18
48
1
60
0
100
AcDbLine
10
0
20
34.925
30
0
11
0
21
0
31
0
39
0
210
0
220
0
230
1
0
LINE
5
7F
100
AcDbEntity
8
SK1
62
256
6
ByLayer
370
18
48
1
60
0
100
AcDbLine
10
0
20
0
30
0
11
0
21
-34.925
31
0
39
0
210
0
220
0
230
1
0
LINE
5
80
100
AcDbEntity
8
SK1
62
256
6
ByLayer
370
18
48
1
60
0
100
AcDbLine
10
-101.6
20
17.94535
30
0
11
-101.6
21
0
31
0
39
0
210
0
220
0
230
1
0
LINE
5
81
100
AcDbEntity
8
SK1
62
256
6
ByLayer
370
18
48
1
60
0
100
AcDbLine
10
-101.6
20
0
30
0
11
-101.6
21
-17.94535
31
0
39
0
210
0
220
0
230
1
0
LINE
5
82
100
AcDbEntity
8
1
62
256
6
ByLayer
370
18
48
1
60
0
100
AcDbLine
10
14.333162
20
46.985648
30
0
11
14.333162
21
38.511078
31
0
39
0
210
0
220
0
230
1
0
LINE
5
83
100
AcDbEntity
8
1
62
256
6
ByLayer
370
18
48
1
60
0
100
AcDbLine
10
3.2
20
37.237792
30
0
11
3.2
21
29.85
31
0
39
0
210
0
220
0
230
1
0
LINE
5
84
100
AcDbEntity
8
1
62
256
6
ByLayer
370
13
48
1
60
0
100
AcDbLine
10
4.2
20
46.985648
30
0
11
4.2
21
38.511078
31
0
39
0
210
0
220
0
230
1
0
LINE
5
85
100
AcDbEntity
8
1
62
256
6
ByLayer
370
18
48
1
60
0
100
AcDbLine
10
14.333162
20
-46.985648
30
0
11
18.05
21
-46.985648
31
0
39
0
210
0
220
0
230
1
0
LINE
5
86
100
AcDbEntity
8
1
62
256
6
ByLayer
370
18
48
1
60
0
100
AcDbLine
10
0.7
20
35.027091
30
0
11
0.7
21
-35.027091
31
0
39
0
210
0
220
0
230
1
0
LINE
5
87
100
AcDbEntity
8
1
62
256
6
ByLayer
370
18
48
1
60
0
100
AcDbLine
10
14.333162
20
46.985648
30
0
11
18.05
21
46.985648
31
0
39
0
210
0
220
0
230
1
0
LINE
5
88
100
AcDbEntity
8
1
62
256
6
ByLayer
370
13
48
1
60
0
100
AcDbLine
10
20.05
20
-25
30
0
11
20.05
21
25
31
0
39
0
210
0
220
0
230
1
0
LINE
5
89
100
AcDbEntity
8
1
62
256
6
ByLayer
370
18
48
1
60
0
100
AcDbLine
10
70
20
0
30
0
11
70
21
24.7
31
0
39
0
210
0
220
0
230
1
0
LINE
5
8A
100
AcDbEntity
8
1
62
256
6
ByLayer
370
18
48
1
60
0
100
AcDbLine
10
70
20
-24.7
30
0
11
70
21
0
31
0
39
0
210
0
220
0
230
1
0
LINE
5
8B
100
AcDbEntity
8
1
62
256
6
ByLayer
370
18
48
1
60
0
100
AcDbLine
10
18.05
20
29.85
30
0
11
14.333162
21
29.85
31
0
39
0
210
0
220
0
230
1
0
LINE
5
8C
100
AcDbEntity
8
1
62
256
6
ByLayer
370
18
48
1
60
0
100
AcDbLine
10
13.025
20
29.85
30
0
11
13.025
21
-44.631632
31
0
39
0
210
0
220
0
230
1
0
LINE
5
8D
100
AcDbEntity
8
1
62
256
6
ByLayer
370
18
48
1
60
0
100
AcDbLine
10
7.866838
20
38.511078
30
0
11
4.2
21
38.511078
31
0
39
0
210
0
220
0
230
1
0
LINE
5
8E
100
AcDbEntity
8
1
62
256
6
ByLayer
370
18
48
1
60
0
100
AcDbLine
10
3.2
20
37.237792
30
0
11
3.2
21
45.804461
31
0
39
0
210
0
220
0
230
1
0
LINE
5
8F
100
AcDbEntity
8
1
62
256
6
ByLayer
370
18
48
1
60
0
100
AcDbLine
10
19.05
20
45.804461
30
0
11
19.05
21
37.237792
31
0
39
0
210
0
220
0
230
1
0
LINE
5
90
100
AcDbEntity
8
1
62
256
6
ByLayer
370
18
48
1
60
0
100
AcDbLine
10
69.7
20
0
30
0
11
69.7
21
25
31
0
39
0
210
0
220
0
230
1
0
LINE
5
91
100
AcDbEntity
8
1
62
256
6
ByLayer
370
18
48
1
60
0
100
AcDbLine
10
69.7
20
-25
30
0
11
69.7
21
0
31
0
39
0
210
0
220
0
230
1
0
LINE
5
92
100
AcDbEntity
8
1
62
256
6
ByLayer
370
18
48
1
60
0
100
AcDbLine
10
7.866838
20
-46.985648
30
0
11
7.866838
21
29.85
31
0
39
0
210
0
220
0
230
1
0
LINE
5
93
100
AcDbEntity
8
1
62
256
6
ByLayer
370
18
48
1
60
0
100
AcDbLine
10
18.05
20
38.511078
30
0
11
14.333162
21
38.511078
31
0
39
0
210
0
220
0
230
1
0
LINE
5
94
100
AcDbEntity
8
1
62
256
6
ByLayer
370
18
48
1
60
0
100
AcDbLine
10
14.333162
20
29.85
30
0
11
14.333162
21
-46.985648
31
0
39
0
210
0
220
0
230
1
0
LINE
5
95
100
AcDbEntity
8
1
62
256
6
ByLayer
370
18
48
1
60
0
100
AcDbLine
10
4.2
20
46.985648
30
0
11
7.866838
21
46.985648
31
0
39
0
210
0
220
0
230
1
0
LINE
5
96
100
AcDbEntity
8
1
62
256
6
ByLayer
370
18
48
1
60
0
100
AcDbLine
10
13.025
20
44.631632
30
0
11
13.025
21
35.601047
31
0
39
0
210
0
220
0
230
1
0
LINE
5
97
100
AcDbEntity
8
1
62
256
6
ByLayer
370
13
48
1
60
0
100
AcDbLine
10
4.2
20
29.85
30
0
11
4.2
21
-46.985648
31
0
39
0
210
0
220
0
230
1
0
LINE
5
98
100
AcDbEntity
8
1
62
256
6
ByLayer
370
18
48
1
60
0
100
AcDbLine
10
9.175
20
29.85
30
0
11
13.025
21
29.85
31
0
39
0
210
0
220
0
230
1
0
LINE
5
99
100
AcDbEntity
8
1
62
256
6
ByLayer
370
18
48
1
60
0
100
AcDbLine
10
13.025
20
34.339882
30
0
11
13.025
21
35.601047
31
0
39
0
210
0
220
0
230
1
0
LINE
5
9A
100
AcDbEntity
8
1
62
256
6
ByLayer
370
13
48
1
60
0
100
AcDbLine
10
18.05
20
38.511078
30
0
11
18.05
21
46.985648
31
0
39
0
210
0
220
0
230
1
0
LINE
5
9B
100
AcDbEntity
8
1
62
256
6
ByLayer
370
18
48
1
60
0
100
AcDbLine
10
19.05
20
29.85
30
0
11
19.05
21
37.237792
31
0
39
0
210
0
220
0
230
1
0
LINE
5
9C
100
AcDbEntity
8
1
62
256
6
ByLayer
370
18
48
1
60
0
100
AcDbLine
10
7.866838
20
29.85
30
0
11
4.2
21
29.85
31
0
39
0
210
0
220
0
230
1
0
LINE
5
9D
100
AcDbEntity
8
1
62
256
6
ByLayer
370
18
48
1
60
0
100
AcDbLine
10
1.266539
20
34.7
30
0
11
1.266539
21
-34.7
31
0
39
0
210
0
220
0
230
1
0
LINE
5
9E
100
AcDbEntity
8
1
62
256
6
ByLayer
370
13
48
1
60
0
100
AcDbLine
10
18.05
20
-46.985648
30
0
11
18.05
21
29.85
31
0
39
0
210
0
220
0
230
1
0
LINE
5
9F
100
AcDbEntity
8
1
62
256
6
ByLayer
370
18
48
1
60
0
100
AcDbLine
10
3.2
20
-45.804461
30
0
11
3.2
21
29.85
31
0
39
0
210
0
220
0
230
1
0
LINE
5
A0
100
AcDbEntity
8
1
62
256
6
ByLayer
370
18
48
1
60
0
100
AcDbLine
10
0
20
34.925
30
0
11
0
21
0
31
0
39
0
210
0
220
0
230
1
0
LINE
5
A1
100
AcDbEntity
8
1
62
256
6
ByLayer
370
18
48
1
60
0
100
AcDbLine
10
0
20
0
30
0
11
0
21
-34.925
31
0
39
0
210
0
220
0
230
1
0
LINE
5
A2
100
AcDbEntity
8
1
62
256
6
ByLayer
370
18
48
1
60
0
100
AcDbLine
10
9.175
20
29.85
30
0
11
9.175
21
-44.631632
31
0
39
0
210
0
220
0
230
1
0
LINE
5
A3
100
AcDbEntity
8
1
62
256
6
ByLayer
370
18
48
1
60
0
100
AcDbLine
10
13.025
20
43.632276
30
0
11
9.175
21
43.632276
31
0
39
0
210
0
220
0
230
1
0
LINE
5
A4
100
AcDbEntity
8
1
62
256
6
ByLayer
370
18
48
1
60
0
100
AcDbLine
10
9.175
20
44.631632
30
0
11
9.175
21
35.601047
31
0
39
0
210
0
220
0
230
1
0
LINE
5
A5
100
AcDbEntity
8
1
62
256
6
ByLayer
370
18
48
1
60
0
100
AcDbLine
10
13.025
20
-43.632276
30
0
11
9.175
21
-43.632276
31
0
39
0
210
0
220
0
230
1
0
LINE
5
A6
100
AcDbEntity
8
1
62
256
6
ByLayer
370
18
48
1
60
0
100
AcDbLine
10
4.2
20
-46.985648
30
0
11
7.866838
21
-46.985648
31
0
39
0
210
0
220
0
230
1
0
LINE
5
A7
100
AcDbEntity
8
1
62
256
6
ByLayer
370
13
48
1
60
0
100
AcDbLine
10
2.9
20
0
30
0
11
2.9
21
34.7
31
0
39
0
210
0
220
0
230
1
0
LINE
5
A8
100
AcDbEntity
8
1
62
256
6
ByLayer
370
13
48
1
60
0
100
AcDbLine
10
2.9
20
-34.7
30
0
11
2.9
21
0
31
0
39
0
210
0
220
0
230
1
0
LINE
5
A9
100
AcDbEntity
8
1
62
256
6
ByLayer
370
18
48
1
60
0
100
AcDbLine
10
19.05
20
29.85
30
0
11
19.05
21
-45.804461
31
0
39
0
210
0
220
0
230
1
0
LINE
5
AA
100
AcDbEntity
8
1
62
256
6
ByLayer
370
18
48
1
60
0
100
AcDbLine
10
9.175
20
34.339882
30
0
11
13.025
21
34.339882
31
0
39
0
210
0
220
0
230
1
0
LINE
5
AB
100
AcDbEntity
8
1
62
256
6
ByLayer
370
18
48
1
60
0
100
AcDbLine
10
9.175
20
35.601047
30
0
11
9.175
21
34.339882
31
0
39
0
210
0
220
0
230
1
0
LINE
5
AC
100
AcDbEntity
8
1
62
256
6
ByLayer
370
18
48
1
60
0
100
AcDbLine
10
7.866838
20
38.511078
30
0
11
7.866838
21
46.985648
31
0
39
0
210
0
220
0
230
1
0
LINE
5
AD
100
AcDbEntity
8
SK1
62
256
6
ByLayer
370
18
48
1
60
0
100
AcDbLine
10
73.5
20
-8
30
0
11
73.5
21
8
31
0
39
0
210
0
220
0
230
1
0
LINE
5
AE
100
AcDbEntity
8
SK1
62
256
6
ByLayer
370
18
48
1
60
0
100
AcDbLine
10
74.7
20
-6.8
30
0
11
74.7
21
6.8
31
0
39
0
210
0
220
0
230
1
0
LINE
5
AF
100
AcDbEntity
8
SK4
62
256
6
ByLayer
370
18
48
0.05
60
0
100
AcDbLine
10
-106.6
20
0
30
0
11
75
21
0
31
0
39
0
210
0
220
0
230
1
0
LINE
5
B1
100
AcDbEntity
8
SK1
62
256
6
ByLayer
370
18
48
1
60
0
100
AcDbLine
10
74.7
20
6.8
30
0
11
73.5
21
8
31
0
39
0
210
0
220
0
230
1
0
LINE
5
B2
100
AcDbEntity
8
SK1
62
256
6
ByLayer
370
18
48
1
60
0
100
AcDbLine
10
73.5
20
-8
30
0
11
74.7
21
-6.8
31
0
39
0
210
0
220
0
230
1
0
LINE
5
B3
100
AcDbEntity
8
SK1
62
256
6
ByLayer
370
18
48
1
60
0
100
AcDbLine
10
70
20
-8
30
0
11
73.5
21
-8
31
0
39
0
210
0
220
0
230
1
0
LINE
5
B4
100
AcDbEntity
8
SK1
62
256
6
ByLayer
370
18
48
1
60
0
100
AcDbLine
10
73.5
20
8
30
0
11
70
21
8
31
0
39
0
210
0
220
0
230
1
0
LINE
5
B5
100
AcDbEntity
8
SK1
62
256
6
ByLayer
370
18
48
1
60
0
100
AcDbLine
10
-99.460795
20
-20.419179
30
0
11
0
21
-34.925
31
0
39
0
210
0
220
0
230
1
0
LINE
5
B6
100
AcDbEntity
8
SK1
62
256
6
ByLayer
370
18
48
1
60
0
100
AcDbLine
10
0
20
34.925
30
0
11
-99.460795
21
20.419179
31
0
39
0
210
0
220
0
230
1
0
LINE
5
B7
100
AcDbEntity
8
1
62
256
6
ByLayer
370
18
48
1
60
0
100
AcDbLine
10
0
20
-34.925
30
0
11
0.7
21
-35.027091
31
0
39
0
210
0
220
0
230
1
0
LINE
5
B8
100
AcDbEntity
8
1
62
256
6
ByLayer
370
18
48
1
60
0
100
AcDbLine
10
0.7
20
35.027091
30
0
11
0
21
34.925
31
0
39
0
210
0
220
0
230
1
0
LINE
5
B9
100
AcDbEntity
8
1
62
256
6
ByLayer
370
18
48
1
60
0
100
AcDbLine
10
70
20
24.7
30
0
11
69.7
21
25
31
0
39
0
210
0
220
0
230
1
0
LINE
5
BA
100
AcDbEntity
8
1
62
256
6
ByLayer
370
18
48
1
60
0
100
AcDbLine
10
69.7
20
-25
30
0
11
70
21
-24.7
31
0
39
0
210
0
220
0
230
1
0
LINE
5
BB
100
AcDbEntity
8
1
62
256
6
ByLayer
370
18
48
1
60
0
100
AcDbLine
10
69.7
20
25
30
0
11
20.05
21
25
31
0
39
0
210
0
220
0
230
1
0
LINE
5
BC
100
AcDbEntity
8
1
62
256
6
ByLayer
370
18
48
1
60
0
100
AcDbLine
10
20.05
20
-25
30
0
11
69.7
21
-25
31
0
39
0
210
0
220
0
230
1
0
LINE
5
BD
100
AcDbEntity
8
1
62
256
6
ByLayer
370
18
48
1
60
0
100
AcDbLine
10
1.266539
20
-34.7
30
0
11
2.9
21
-34.7
31
0
39
0
210
0
220
0
230
1
0
LINE
5
BE
100
AcDbEntity
8
1
62
256
6
ByLayer
370
18
48
1
60
0
100
AcDbLine
10
2.9
20
34.7
30
0
11
1.266539
21
34.7
31
0
39
0
210
0
220
0
230
1
0
LINE
5
BF
100
AcDbEntity
8
1
62
256
6
ByLayer
370
18
48
1
60
0
100
AcDbLine
10
1.266539
20
34.7
30
0
11
0.7
21
35.027091
31
0
39
0
210
0
220
0
230
1
0
LINE
5
C0
100
AcDbEntity
8
4
62
256
6
ByLayer
370
18
48
0.05
60
0
100
AcDbLine
10
0
20
0
30
0
11
70
21
0
31
0
39
0
210
0
220
0
230
1
0
LINE
5
C2
100
AcDbEntity
8
80
62
256
6
ByLayer
370
18
48
1
60
0
100
AcDbLine
10
0
20
0
30
0
11
-6.08897
21
0
31
0
39
0
210
0
220
0
230
1
0
LINE
5
C3
100
AcDbEntity
8
1
62
256
6
ByLayer
370
18
48
1
60
0
100
AcDbLine
10
0.7
20
-35.027091
30
0
11
1.266539
21
-34.7
31
0
39
0
210
0
220
0
230
1
0
LINE
5
C4
100
AcDbEntity
8
81
62
256
6
ByLayer
370
18
48
1
60
0
100
AcDbLine
10
70
20
0
30
0
11
72.367097
21
0
31
0
39
0
210
0
220
0
230
1
0
LINE
5
C5
100
AcDbEntity
8
SK2
62
256
6
ByLayer
370
13
48
1
60
0
100
AcDbLine
10
-123.2
20
48.725
30
0
11
-123.2
21
-48.725
31
0
39
0
210
0
220
0
230
1
0
LINE
5
C7
100
AcDbEntity
8
SK2
62
256
6
ByLayer
370
13
48
1
60
0
100
AcDbLine
10
-1.5875
20
-48.725
30
0
11
-125.2
21
-48.725
31
0
39
0
210
0
220
0
230
1
0
LINE
5
C8
100
AcDbEntity
8
SK2
62
256
6
ByLayer
370
13
48
1
60
0
100
AcDbLine
10
-1.5875
20
48.725
30
0
11
-125.2
21
48.725
31
0
39
0
210
0
220
0
230
1
0
LINE
5
C9
100
AcDbEntity
8
1
62
256
6
ByLayer
370
18
48
1
60
1
100
AcDbLine
10
-123.2
20
-48.725
30
0
11
-123.660784
21
-45.225002
31
0
39
0
210
0
220
0
230
1
0
LINE
5
CA
100
AcDbEntity
8
1
62
256
6
ByLayer
370
18
48
1
60
1
100
AcDbLine
10
-123.660784
20
-45.225002
30
0
11
-122.739216
21
-45.224998
31
0
39
0
210
0
220
0
230
1
0
LINE
5
CB
100
AcDbEntity
8
1
62
256
6
ByLayer
370
18
48
1
60
1
100
AcDbLine
10
-122.739216
20
-45.224998
30
0
11
-123.2
21
-48.725
31
0
39
0
210
0
220
0
230
1
0
LINE
5
CC
100
AcDbEntity
8
1
62
256
6
ByLayer
370
18
48
1
60
1
100
AcDbLine
10
-123.2
20
48.725
30
0
11
-122.739216
21
45.225002
31
0
39
0
210
0
220
0
230
1
0
LINE
5
CD
100
AcDbEntity
8
1
62
256
6
ByLayer
370
18
48
1
60
1
100
AcDbLine
10
-122.739216
20
45.225002
30
0
11
-123.660784
21
45.224998
31
0
39
0
210
0
220
0
230
1
0
LINE
5
CE
100
AcDbEntity
8
1
62
256
6
ByLayer
370
18
48
1
60
1
100
AcDbLine
10
-123.660784
20
45.224998
30
0
11
-123.2
21
48.725
31
0
39
0
210
0
220
0
230
1
0
LINE
5
CF
100
AcDbEntity
8
SK2
62
256
6
ByLayer
370
13
48
1
60
0
100
AcDbLine
10
95.1
20
25
30
0
11
95.1
21
-25
31
0
39
0
210
0
220
0
230
1
0
LINE
5
D0
100
AcDbEntity
8
SK2
62
256
6
ByLayer
370
13
48
1
60
0
100
AcDbLine
10
71.5875
20
-25
30
0
11
97.1
21
-25
31
0
39
0
210
0
220
0
230
1
0
LINE
5
D1
100
AcDbEntity
8
SK2
62
256
6
ByLayer
370
13
48
1
60
0
100
AcDbLine
10
71.5875
20
25
30
0
11
97.1
21
25
31
0
39
0
210
0
220
0
230
1
0
LINE
5
D2
100
AcDbEntity
8
1
62
256
6
ByLayer
370
18
48
1
60
1
100
AcDbLine
10
95.1
20
-25
30
0
11
94.639216
21
-21.500002
31
0
39
0
210
0
220
0
230
1
0
LINE
5
D3
100
AcDbEntity
8
1
62
256
6
ByLayer
370
18
48
1
60
1
100
AcDbLine
10
94.639216
20
-21.500002
30
0
11
95.560784
21
-21.499998
31
0
39
0
210
0
220
0
230
1
0
LINE
5
D4
100
AcDbEntity
8
1
62
256
6
ByLayer
370
18
48
1
60
1
100
AcDbLine
10
95.560784
20
-21.499998
30
0
11
95.1
21
-25
31
0
39
0
210
0
220
0
230
1
0
LINE
5
D5
100
AcDbEntity
8
1
62
256
6
ByLayer
370
18
48
1
60
1
100
AcDbLine
10
95.1
20
25
30
0
11
95.560784
21
21.500002
31
0
39
0
210
0
220
0
230
1
0
LINE
5
D6
100
AcDbEntity
8
1
62
256
6
ByLayer
370
18
48
1
60
1
100
AcDbLine
10
95.560784
20
21.500002
30
0
11
94.639216
21
21.499998
31
0
39
0
210
0
220
0
230
1
0
LINE
5
D7
100
AcDbEntity
8
1
62
256
6
ByLayer
370
18
48
1
60
1
100
AcDbLine
10
94.639216
20
21.499998
30
0
11
95.1
21
25
31
0
39
0
210
0
220
0
230
1
0
LINE
5
F7
100
AcDbEntity
8
1
62
256
6
ByLayer
370
18
48
1
60
1
100
AcDbLine
10
-123.2
20
-48.725
30
0
11
-123.660784
21
-45.225002
31
0
39
0
210
0
220
0
230
1
0
LINE
5
F8
100
AcDbEntity
8
1
62
256
6
ByLayer
370
18
48
1
60
1
100
AcDbLine
10
-123.660784
20
-45.225002
30
0
11
-122.739216
21
-45.224998
31
0
39
0
210
0
220
0
230
1
0
LINE
5
F9
100
AcDbEntity
8
1
62
256
6
ByLayer
370
18
48
1
60
1
100
AcDbLine
10
-122.739216
20
-45.224998
30
0
11
-123.2
21
-48.725
31
0
39
0
210
0
220
0
230
1
0
LINE
5
FB
100
AcDbEntity
8
1
62
256
6
ByLayer
370
18
48
1
60
1
100
AcDbLine
10
-123.2
20
48.725
30
0
11
-122.739216
21
45.225002
31
0
39
0
210
0
220
0
230
1
0
LINE
5
FC
100
AcDbEntity
8
1
62
256
6
ByLayer
370
18
48
1
60
1
100
AcDbLine
10
-122.739216
20
45.225002
30
0
11
-123.660784
21
45.224998
31
0
39
0
210
0
220
0
230
1
0
LINE
5
FD
100
AcDbEntity
8
1
62
256
6
ByLayer
370
18
48
1
60
1
100
AcDbLine
10
-123.660784
20
45.224998
30
0
11
-123.2
21
48.725
31
0
39
0
210
0
220
0
230
1
0
LINE
5
101
100
AcDbEntity
8
1
62
256
6
ByLayer
370
18
48
1
60
1
100
AcDbLine
10
95.1
20
-25
30
0
11
94.639216
21
-21.500002
31
0
39
0
210
0
220
0
230
1
0
LINE
5
102
100
AcDbEntity
8
1
62
256
6
ByLayer
370
18
48
1
60
1
100
AcDbLine
10
94.639216
20
-21.500002
30
0
11
95.560784
21
-21.499998
31
0
39
0
210
0
220
0
230
1
0
LINE
5
103
100
AcDbEntity
8
1
62
256
6
ByLayer
370
18
48
1
60
1
100
AcDbLine
10
95.560784
20
-21.499998
30
0
11
95.1
21
-25
31
0
39
0
210
0
220
0
230
1
0
LINE
5
105
100
AcDbEntity
8
1
62
256
6
ByLayer
370
18
48
1
60
1
100
AcDbLine
10
95.1
20
25
30
0
11
95.560784
21
21.500002
31
0
39
0
210
0
220
0
230
1
0
LINE
5
106
100
AcDbEntity
8
1
62
256
6
ByLayer
370
18
48
1
60
1
100
AcDbLine
10
95.560784
20
21.500002
30
0
11
94.639216
21
21.499998
31
0
39
0
210
0
220
0
230
1
0
LINE
5
107
100
AcDbEntity
8
1
62
256
6
ByLayer
370
18
48
1
60
1
100
AcDbLine
10
94.639216
20
21.499998
30
0
11
95.1
21
25
31
0
39
0
210
0
220
0
230
1
0
MTEXT
5
F3
100
AcDbEntity
8
SK2
62
256
6
ByLayer
370
18
48
1
60
0
100
AcDbMText
10
-124.764634
20
-5.76342
30
0
210
0
220
0
230
1
1
%%c
40
3.5
41
0
44
1.084337
50
90
71
7
72
5
7
iso_b_vert
0
MTEXT
5
F6
100
AcDbEntity
8
SK2
62
256
6
ByLayer
370
18
48
1
60
0
100
AcDbMText
10
-124.764634
20
-0.540764
30
0
210
0
220
0
230
1
1
\W0.7383;97,4
40
3.5
41
0
44
1.084337
50
90
71
7
72
5
7
iso_b_vert
0
MTEXT
5
FF
100
AcDbEntity
8
SK2
62
256
6
ByLayer
370
18
48
1
60
0
100
AcDbMText
10
93.535366
20
-3.655088
30
0
210
0
220
0
230
1
1
%%c
40
3.5
41
0
44
1.084337
50
90
71
7
72
5
7
iso_b_vert
0
MTEXT
5
100
100
AcDbEntity
8
SK2
62
256
6
ByLayer
370
18
48
1
60
0
100
AcDbMText
10
93.535366
20
1.567568
30
0
210
0
220
0
230
1
1
\W0.6740;50
40
3.5
41
0
44
1.084337
50
90
71
7
72
5
7
iso_b_vert
0
MTEXT
5
109
100
AcDbEntity
8
SK6
62
256
6
ByLayer
370
18
48
1
60
0
100
AcDbMText
10
0.1855
20
-64.442366
30
0
210
0
220
0
230
1
1
\W0.7400;C5-390B.140-50070
40
3.5
41
0
44
1.084337
50
0
71
7
72
5
7
iso_b_vert
0
HATCH
5
FA
100
AcDbEntity
8
SK2
62
256
6
ByLayer
370
13
48
1
60
0
100
AcDbHatch
10
0
20
0
30
0
210
0
220
0
230
1
2
ANSI31
70
0
71
0
91
1
92
5
93
3
72
1
10
-123.2
20
-48.725
11
-123.660783741553
21
-45.2250016925532
72
1
10
-123.660783741553
20
-45.2250016925532
11
-122.739216258447
21
-45.2249983074468
72
1
10
-122.739216258447
20
-45.2249983074468
11
-123.2
21
-48.725
97
0
75
0
76
1
52
0
41
0.0062
77
0
78
1
53
45
43
0
44
0
45
-0.0139193969876572
46
0.0139193969876572
79
0
47
0
98
1
10
0
20
0
0
HATCH
5
FE
100
AcDbEntity
8
SK2
62
256
6
ByLayer
370
13
48
1
60
0
100
AcDbHatch
10
0
20
0
30
0
210
0
220
0
230
1
2
ANSI31
70
0
71
0
91
1
92
5
93
3
72
1
10
-123.2
20
48.725
11
-122.739216258447
21
45.2250016925532
72
1
10
-122.739216258447
20
45.2250016925532
11
-123.660783741553
21
45.2249983074468
72
1
10
-123.660783741553
20
45.2249983074468
11
-123.2
21
48.725
97
0
75
0
76
1
52
0
41
0.0062
77
0
78
1
53
45
43
0
44
0
45
-0.0139193969876572
46
0.0139193969876572
79
0
47
0
98
1
10
0
20
0
0
HATCH
5
104
100
AcDbEntity
8
SK2
62
256
6
ByLayer
370
13
48
1
60
0
100
AcDbHatch
10
0
20
0
30
0
210
0
220
0
230
1
2
ANSI31
70
0
71
0
91
1
92
5
93
3
72
1
10
95.1
20
-25
11
94.6392162584472
21
-21.5000016925532
72
1
10
94.6392162584472
20
-21.5000016925532
11
95.5607837415528
21
-21.4999983074468
72
1
10
95.5607837415528
20
-21.4999983074468
11
95.1
21
-25
97
0
75
0
76
1
52
0
41
0.0062
77
0
78
1
53
45
43
0
44
0
45
-0.0139193969876572
46
0.0139193969876572
79
0
47
0
98
1
10
0
20
0
0
HATCH
5
108
100
AcDbEntity
8
SK2
62
256
6
ByLayer
370
13
48
1
60
0
100
AcDbHatch
10
0
20
0
30
0
210
0
220
0
230
1
2
ANSI31
70
0
71
0
91
1
92
5
93
3
72
1
10
95.1
20
25
11
95.5607837415528
21
21.5000016925532
72
1
10
95.5607837415528
20
21.5000016925532
11
94.6392162584472
21
21.4999983074468
72
1
10
94.6392162584472
20
21.4999983074468
11
95.1
21
25
97
0
75
0
76
1
52
0
41
0.0062
77
0
78
1
53
45
43
0
44
0
45
-0.0139193969876572
46
0.0139193969876572
79
0
47
0
98
1
10
0
20
0
0
DIMENSION
5
10C
100
AcDbEntity
8
SK2
62
256
6
ByLayer
370
18
48
1
60
0
100
AcDbDimension
2
_U0
10
19.05
20
63.644743
30
0
11
9.525
21
63.644743
31
0
70
32
71
1
72
1
41
1
210
0
220
0
230
1
3
Standard
100
AcDbAlignedDimension
13
0
23
48.725
33
0
14
19.05
24
48.725
34
0
50
0
100
AcDbRotatedDimension
1001
ACAD
1000
DSTYLE
1002
{
1070
   371
1070
    13
1070
   372
1070
    13
1070
   170
1070
     0
1070
   144
1040
1.0
1070
   277
1070
     2
1070
   284
1070
     8
1070
   278
1070
    44
1070
   146
1040
1.0
1070
   345
1005
16
1070
   347
1005
16
1070
   346
1005
16
1070
   344
1005
0
1070
   343
1005
0
1070
   172
1070
     1
1070
    76
1070
     0
1070
    75
1070
     0
1070
   282
1070
     0
1070
   281
1070
     0
1070
    71
1070
     0
1070
    74
1070
     0
1070
   279
1070
     0
1070
   173
1070
     1
1070
   340
1005
F4
1070
   271
1070
     1
1070
   272
1070
     2
1070
    77
1070
     1
1070
    73
1070
     1
1070
   171
1070
     3
1070
   274
1070
     4
1070
   177
1070
     2
1070
   176
1070
     2
1070
   178
1070
     2
1070
    78
1070
     8
1070
    48
1040
-0.1
1070
    41
1040
3.5
1070
   147
1040
1.75
1070
    42
1040
1.5875
1070
    44
1040
2.0
1070
   140
1040
3.5
1002
}
1001
ACAD_DSTYLE_DIM_LINETYPE
1070
   380
1005
16
1001
ACAD_DSTYLE_DIM_EXT1_LINETYPE
1070
   381
1005
16
1001
ACAD_DSTYLE_DIM_EXT2_LINETYPE
1070
   382
1005
16
0
DIMENSION
5
125
100
AcDbEntity
8
2
62
256
6
ByLayer
370
18
48
1
60
0
100
AcDbDimension
2
_U1
10
0
20
73.644743
30
0
11
35
21
73.644743
31
0
70
32
71
1
72
1
41
1
210
0
220
0
230
1
3
Standard
100
AcDbAlignedDimension
13
70
23
25
33
0
14
0
24
48.725
34
0
50
0
100
AcDbRotatedDimension
1001
ACAD
1000
DSTYLE
1002
{
1070
   371
1070
    13
1070
   372
1070
    13
1070
   170
1070
     0
1070
   144
1040
1.0
1070
   277
1070
     2
1070
   284
1070
     8
1070
   278
1070
    44
1070
   146
1040
1.0
1070
   345
1005
16
1070
   347
1005
16
1070
   346
1005
16
1070
   344
1005
0
1070
   343
1005
0
1070
   172
1070
     1
1070
    76
1070
     0
1070
    75
1070
     0
1070
   282
1070
     0
1070
   281
1070
     0
1070
    71
1070
     0
1070
    74
1070
     0
1070
   279
1070
     0
1070
   173
1070
     1
1070
   340
1005
F4
1070
   271
1070
     1
1070
   272
1070
     2
1070
    77
1070
     1
1070
    73
1070
     1
1070
   171
1070
     3
1070
   274
1070
     4
1070
   177
1070
     2
1070
   176
1070
     2
1070
   178
1070
     2
1070
    78
1070
     8
1070
    48
1040
-0.1
1070
    41
1040
3.5
1070
   147
1040
1.75
1070
    42
1040
1.5875
1070
    44
1040
2.0
1070
   140
1040
3.5
1002
}
1001
ACAD_DSTYLE_DIM_LINETYPE
1070
   380
1005
16
1001
ACAD_DSTYLE_DIM_EXT1_LINETYPE
1070
   381
1005
16
1001
ACAD_DSTYLE_DIM_EXT2_LINETYPE
1070
   382
1005
16
0
DIMENSION
5
13E
100
AcDbEntity
8
SK2
62
256
6
ByLayer
370
18
48
1
60
0
100
AcDbDimension
2
_U2
10
0
20
73.644743
30
0
11
-50.8
21
73.644743
31
0
70
32
71
1
72
1
41
1
210
0
220
0
230
1
3
Standard
100
AcDbAlignedDimension
13
-101.6
23
12.5
33
0
14
0
24
48.725
34
0
50
0
100
AcDbRotatedDimension
1001
ACAD
1000
DSTYLE
1002
{
1070
   371
1070
    13
1070
   372
1070
    13
1070
   170
1070
     0
1070
   144
1040
1.0
1070
   277
1070
     2
1070
   284
1070
     8
1070
   278
1070
    44
1070
   146
1040
1.0
1070
   345
1005
16
1070
   347
1005
16
1070
   346
1005
16
1070
   344
1005
0
1070
   343
1005
0
1070
   172
1070
     1
1070
    76
1070
     0
1070
    75
1070
     0
1070
   282
1070
     0
1070
   281
1070
     0
1070
    71
1070
     0
1070
    74
1070
     0
1070
   279
1070
     0
1070
   173
1070
     1
1070
   340
1005
F4
1070
   271
1070
     1
1070
   272
1070
     2
1070
    77
1070
     1
1070
    73
1070
     1
1070
   171
1070
     3
1070
   274
1070
     4
1070
   177
1070
     2
1070
   176
1070
     2
1070
   178
1070
     2
1070
    78
1070
     8
1070
    48
1040
-0.1
1070
    41
1040
3.5
1070
   147
1040
1.75
1070
    42
1040
1.5875
1070
    44
1040
2.0
1070
   140
1040
3.5
1002
}
1001
ACAD_DSTYLE_DIM_LINETYPE
1070
   380
1005
16
1001
ACAD_DSTYLE_DIM_EXT1_LINETYPE
1070
   381
1005
16
1001
ACAD_DSTYLE_DIM_EXT2_LINETYPE
1070
   382
1005
16
0
ENDSEC
0
SECTION
2
OBJECTS
0
DICTIONARY
5
1c6
330
0
100
AcDbDictionary
280
0
281
1
3
ACAD_GROUP
350
1c7
3
ACAD_MLINESTYLE
350
1c8
0
DICTIONARY
5
1c7
330
0
100
AcDbDictionary
280
0
281
1
0
DICTIONARY
5
1c8
330
0
100
AcDbDictionary
280
0
281
1
3
Standard
350
18
0
MLINESTYLE
5
18
330
1c8
100
AcDbMlineStyle
2
Standard
70
0
3

62
256
51
90
52
90
71
2
49
-0.5
62
256
6
ByLayer
49
0.5
62
256
6
ByLayer
0
RASTERVARIABLES
5
1b4
330

100
AcDbRasterVariables
90
0
70
1
71
1
72
1
0
ENDSEC
0
EOF
