0
SECTION
2
HEADER
9
$ACADVER
1
AC1015
9
$DWGCODEPAGE
3
ANSI_1252
9
$HANDSEED
5
1d9
9
$ANGBASE
50
0
9
$ANGDIR
70
0
9
$ATTMODE
70
1
9
$AUNITS
70
0
9
$AUPREC
70
0
9
$CECOLOR
62
256
9
$CELTSCALE
40
1
9
$CELTYPE
6
ByLayer
9
$CELWEIGHT
370
18
9
$CLAYER
8
0
9
$CMLJUST
70
0
9
$CMLSCALE
40
1
9
$CMLSTYLE
2
Standard
9
$DIMSTYLE
2
Standard
9
$TEXTSIZE
40
0.2
9
$TEXTSTYLE
7
Standard
9
$LUNITS
70
2
9
$LUPREC
70
4
9
$EXTNAMES
290
1
9
$INSUNITS
70
4
9
$LTSCALE
40
1
9
$LWDISPLAY
290
1
9
$PDMODE
70
0
9
$PDSIZE
40
0
9
$PLINEGEN
70
0
0
ENDSEC
0
SECTION
2
CLASSES
0
CLASS
1
RASTERVARIABLES
2
AcDbRasterVariables
3
ISM
90
0
280
0
281
0
0
ENDSEC
0
SECTION
2
TABLES
0
TABLE
2
VPORT
5
1cf
100
AcDbSymbolTable
0
VPORT
5
1
100
AcDbSymbolTableRecord
100
AcDbViewportTableRecord
2
*Active
70
0
10
0
20
0
11
1
21
1
12
-1
22
1
13
0
23
0
14
0.5
24
0.5
15
10
25
10
16
0
26
0
36
1
17
0
27
0
37
0
0
ENDTAB
0
TABLE
2
LTYPE
5
1d0
100
AcDbSymbolTable
0
LTYPE
5
14
100
AcDbSymbolTableRecord
100
AcDbLinetypeTableRecord
70
0
2
ByBlock
3

72
65
73
0
40
0
0
LTYPE
5
15
100
AcDbSymbolTableRecord
100
AcDbLinetypeTableRecord
70
0
2
ByLayer
3

72
65
73
0
40
0
0
LTYPE
5
16
100
AcDbSymbolTableRecord
100
AcDbLinetypeTableRecord
70
0
2
Continuous
3
Solid line
72
65
73
0
40
0
0
LTYPE
5
6E
100
AcDbSymbolTableRecord
100
AcDbLinetypeTableRecord
70
0
2
CENTER
3
____ _ ____ _ ____ _ ____
72
65
73
4
40
47.5
49
22
74
0
49
-8.5
74
0
49
8.5
74
0
49
-8.5
74
0
0
LTYPE
5
6F
100
AcDbSymbolTableRecord
100
AcDbLinetypeTableRecord
70
0
2
DASHED
3
__ __ __ __ __ __ __ __ __
72
65
73
2
40
25.72
49
12.86
74
0
49
-12.86
74
0
0
ENDTAB
0
TABLE
2
LAYER
5
1d1
100
AcDbSymbolTable
0
LAYER
5
10
100
AcDbSymbolTableRecord
100
AcDbLayerTableRecord
2
0
70
0
62
7
6
Continuous
290
1
370
-3
390
0
0
LAYER
5
71
100
AcDbSymbolTableRecord
100
AcDbLayerTableRecord
2
1
70
0
62
4
6
Continuous
290
1
370
-3
390
0
0
LAYER
5
73
100
AcDbSymbolTableRecord
100
AcDbLayerTableRecord
2
80
70
0
62
-6
6
Continuous
290
1
370
-3
390
0
0
LAYER
5
75
100
AcDbSymbolTableRecord
100
AcDbLayerTableRecord
2
81
70
0
62
-3
6
Continuous
290
1
370
-3
390
0
0
LAYER
5
C5
100
AcDbSymbolTableRecord
100
AcDbLayerTableRecord
2
4
70
0
62
-2
6
CENTER
290
1
370
-3
390
0
0
LAYER
5
115
100
AcDbSymbolTableRecord
100
AcDbLayerTableRecord
2
Defpoints
70
0
62
7
6
Continuous
290
0
370
-3
390
0
0
LAYER
5
13A
100
AcDbSymbolTableRecord
100
AcDbLayerTableRecord
2
2
70
0
62
7
6
Continuous
290
1
370
-3
390
0
0
LAYER
5
1bb
100
AcDbSymbolTableRecord
100
AcDbLayerTableRecord
2
SK1
70
0
62
4
6
Continuous
290
1
370
-3
390
0
0
LAYER
5
1bc
100
AcDbSymbolTableRecord
100
AcDbLayerTableRecord
2
SK4
70
0
62
2
6
CENTER
290
1
370
-3
390
0
0
LAYER
5
1bd
100
AcDbSymbolTableRecord
100
AcDbLayerTableRecord
2
SK2
70
0
62
7
6
Continuous
290
1
370
-3
390
0
0
LAYER
5
1be
100
AcDbSymbolTableRecord
100
AcDbLayerTableRecord
2
SK6
70
0
62
5
6
Continuous
290
1
370
-3
390
0
0
ENDTAB
0
TABLE
2
STYLE
5
1d2
100
AcDbSymbolTable
0
STYLE
5
11
100
AcDbSymbolTableRecord
100
AcDbTextStyleTableRecord
2
Standard
3
txt
70
0
71
0
40
0
41
1
42
0
50
0
0
STYLE
5
FA
100
AcDbSymbolTableRecord
100
AcDbTextStyleTableRecord
2
iso_b_vert
3
simplex.shx
70
0
71
0
40
0
41
1
42
0
50
0
0
STYLE
5
FB
100
AcDbSymbolTableRecord
100
AcDbTextStyleTableRecord
2
DWGDirectTextStyle
3
simplex
70
0
71
0
40
0
41
1
42
0
50
0
0
ENDTAB
0
TABLE
2
DIMSTYLE
5
1d3
100
AcDbSymbolTable
100
AcDbDimStyleTable
0
DIMSTYLE
105
27
100
AcDbSymbolTableRecord
100
AcDbDimStyleTableRecord
2
Standard
70
0
3
<>
41
0.18
42
0.0625
44
0.18
140
0.18
147
0.09
73
0
74
0
77
1
271
2
275
0
278
52
280
0
340
11
0
ENDTAB
0
TABLE
2
VIEW
5
1d4
100
AcDbSymbolTable
0
ENDTAB
0
TABLE
2
UCS
5
1d5
100
AcDbSymbolTable
0
ENDTAB
0
TABLE
2
APPID
5
1d6
100
AcDbSymbolTable
0
APPID
5
12
100
AcDbSymbolTableRecord
100
AcDbRegAppTableRecord
2
ACAD
70
0
0
APPID
5
111
100
AcDbSymbolTableRecord
100
AcDbRegAppTableRecord
2
ACAD_DSTYLE_DIMBREAK
70
0
0
APPID
5
17A
100
AcDbSymbolTableRecord
100
AcDbRegAppTableRecord
2
ACAD_DSTYLE_DIM_LINETYPE
70
0
0
APPID
5
17B
100
AcDbSymbolTableRecord
100
AcDbRegAppTableRecord
2
ACAD_DSTYLE_DIM_EXT1_LINETYPE
70
0
0
APPID
5
17C
100
AcDbSymbolTableRecord
100
AcDbRegAppTableRecord
2
ACAD_DSTYLE_DIM_EXT2_LINETYPE
70
0
0
APPID
5
1B7
100
AcDbSymbolTableRecord
100
AcDbRegAppTableRecord
2
ACAD_MLEADERVER
70
0
0
ENDTAB
0
TABLE
2
BLOCK_RECORD
5
1d7
100
AcDbSymbolTable
0
BLOCK_RECORD
5
1F
100
AcDbSymbolTableRecord
100
AcDbBlockTableRecord
2
*Model_Space
340
0
70
0
0
BLOCK_RECORD
5
1B
100
AcDbSymbolTableRecord
100
AcDbBlockTableRecord
2
*Paper_Space
340
0
70
0
0
BLOCK_RECORD
5
23
100
AcDbSymbolTableRecord
100
AcDbBlockTableRecord
2
*Paper_Space0
340
0
70
0
0
BLOCK_RECORD
5
116
100
AcDbSymbolTableRecord
100
AcDbBlockTableRecord
2
*D1
340
0
70
0
0
BLOCK_RECORD
5
122
100
AcDbSymbolTableRecord
100
AcDbBlockTableRecord
2
_U0
340
0
70
0
0
BLOCK_RECORD
5
12E
100
AcDbSymbolTableRecord
100
AcDbBlockTableRecord
2
*D3
340
0
70
0
0
BLOCK_RECORD
5
13B
100
AcDbSymbolTableRecord
100
AcDbBlockTableRecord
2
_U1
340
0
70
0
0
BLOCK_RECORD
5
147
100
AcDbSymbolTableRecord
100
AcDbBlockTableRecord
2
*D5
340
0
70
0
0
BLOCK_RECORD
5
153
100
AcDbSymbolTableRecord
100
AcDbBlockTableRecord
2
_U2
340
0
70
0
0
ENDTAB
0
ENDSEC
0
SECTION
2
BLOCKS
0
BLOCK
5
20
100
AcDbEntity
8
0
100
AcDbBlockBegin
2
*Model_Space
70
0
10
0
20
0
30
0
3
*Model_Space
0
ENDBLK
5
21
100
AcDbEntity
8
0
100
AcDbBlockEnd
0
BLOCK
5
1C
100
AcDbEntity
8
0
100
AcDbBlockBegin
2
*Paper_Space
70
0
10
0
20
0
30
0
3
*Paper_Space
0
ENDBLK
5
1D
100
AcDbEntity
8
0
100
AcDbBlockEnd
0
BLOCK
5
24
100
AcDbEntity
8
0
100
AcDbBlockBegin
2
*Paper_Space0
70
0
10
0
20
0
30
0
3
*Paper_Space0
0
ENDBLK
5
25
100
AcDbEntity
8
0
100
AcDbBlockEnd
0
BLOCK
5
117
100
AcDbEntity
8
0
100
AcDbBlockBegin
2
*D1
70
1
10
0
20
0
30
0
3
*D1
0
LINE
5
119
100
AcDbEntity
8
0
62
256
6
ByLayer
370
-2
48
1
60
0
100
AcDbLine
10
0
20
33.3375
30
0
11
0
21
49.362847
31
0
39
0
210
0
220
0
230
1
0
LINE
5
11A
100
AcDbEntity
8
0
62
256
6
ByLayer
370
-2
48
1
60
0
100
AcDbLine
10
19.05
20
33.3375
30
0
11
19.05
21
49.362847
31
0
39
0
210
0
220
0
230
1
0
LINE
5
11B
100
AcDbEntity
8
0
62
256
6
ByLayer
370
-2
48
1
60
0
100
AcDbLine
10
3.5
20
47.362847
30
0
11
15.55
21
47.362847
31
0
39
0
210
0
220
0
230
1
0
SOLID
5
11C
100
AcDbEntity
8
0
62
256
6
ByLayer
370
-1
48
1
60
0
100
AcDbTrace
10
3.5
20
47.94618
30
0
11
3.5
21
46.779513
31
0
12
0
22
47.362847
32
0
13
0
23
47.362847
33
0
39
0
210
0
220
0
230
1
0
SOLID
5
11D
100
AcDbEntity
8
0
62
256
6
ByLayer
370
-1
48
1
60
0
100
AcDbTrace
10
15.55
20
46.779513
30
0
11
15.55
21
47.94618
31
0
12
19.05
22
47.362847
32
0
13
19.05
23
47.362847
33
0
39
0
210
0
220
0
230
1
0
MTEXT
5
11E
100
AcDbEntity
8
0
62
256
6
ByLayer
370
18
48
1
60
0
100
AcDbMText
10
9.525
20
54.362847
30
0
210
0
220
0
230
1
1
\A1;19.1
40
3.5
41
0
44
1
50
0
71
5
72
5
7
iso_b_vert
0
POINT
5
11F
100
AcDbEntity
8
Defpoints
62
0
6
ByLayer
370
-1
48
1
60
0
100
AcDbPoint
10
0
20
31.75
30
0
39
0
210
0
220
0
230
1
50
360
0
POINT
5
120
100
AcDbEntity
8
Defpoints
62
0
6
ByLayer
370
-1
48
1
60
0
100
AcDbPoint
10
19.05
20
31.75
30
0
39
0
210
0
220
0
230
1
50
360
0
POINT
5
121
100
AcDbEntity
8
Defpoints
62
0
6
ByLayer
370
-1
48
1
60
0
100
AcDbPoint
10
19.05
20
47.362847
30
0
39
0
210
0
220
0
230
1
50
360
0
ENDBLK
5
118
100
AcDbEntity
8
0
100
AcDbBlockEnd
0
BLOCK
5
129
100
AcDbEntity
8
0
100
AcDbBlockBegin
2
_U0
70
0
10
0
20
0
30
0
3
_U0
0
MTEXT
5
123
100
AcDbEntity
8
SK2
62
256
6
ByLayer
370
18
48
1
60
0
100
AcDbMText
10
8.057467
20
48.39548
30
0
210
0
220
0
230
1
1
\W0.5469;19
40
3.5
41
0
44
1.084337
50
0
71
7
72
5
7
iso_b_vert
0
LINE
5
124
100
AcDbEntity
8
SK2
62
256
6
ByLayer
370
13
48
1
60
0
100
AcDbLine
10
0
20
33.3375
30
0
11
0
21
49.362847
31
0
39
0
210
0
220
0
230
1
0
LINE
5
125
100
AcDbEntity
8
SK2
62
256
6
ByLayer
370
13
48
1
60
0
100
AcDbLine
10
19.05
20
33.3375
30
0
11
19.05
21
49.362847
31
0
39
0
210
0
220
0
230
1
0
LINE
5
126
100
AcDbEntity
8
SK2
62
256
6
ByLayer
370
13
48
1
60
0
100
AcDbLine
10
0
20
47.362847
30
0
11
19.05
21
47.362847
31
0
39
0
210
0
220
0
230
1
0
SOLID
5
127
100
AcDbEntity
8
SK2
62
256
6
ByLayer
370
18
48
1
60
0
100
AcDbTrace
10
0
20
47.362847
30
0
11
3.499998
21
47.82363
31
0
12
3.500002
22
46.902063
32
0
13
3.500002
23
46.902063
33
0
39
0
210
0
220
0
230
1
0
SOLID
5
128
100
AcDbEntity
8
SK2
62
256
6
ByLayer
370
18
48
1
60
0
100
AcDbTrace
10
19.05
20
47.362847
30
0
11
15.550002
21
46.902063
31
0
12
15.549998
22
47.82363
32
0
13
15.549998
23
47.82363
33
0
39
0
210
0
220
0
230
1
0
ENDBLK
5
12A
100
AcDbEntity
8
0
100
AcDbBlockEnd
0
BLOCK
5
12F
100
AcDbEntity
8
0
100
AcDbBlockBegin
2
*D3
70
1
10
0
20
0
30
0
3
*D3
0
LINE
5
131
100
AcDbEntity
8
0
62
256
6
ByLayer
370
-2
48
1
60
0
100
AcDbLine
10
40
20
26.5875
30
0
11
40
21
59.362847
31
0
39
0
210
0
220
0
230
1
0
LINE
5
132
100
AcDbEntity
8
0
62
256
6
ByLayer
370
-2
48
1
60
0
100
AcDbLine
10
0
20
33.3375
30
0
11
0
21
59.362847
31
0
39
0
210
0
220
0
230
1
0
LINE
5
133
100
AcDbEntity
8
0
62
256
6
ByLayer
370
-2
48
1
60
0
100
AcDbLine
10
36.5
20
57.362847
30
0
11
3.5
21
57.362847
31
0
39
0
210
0
220
0
230
1
0
SOLID
5
134
100
AcDbEntity
8
0
62
256
6
ByLayer
370
-1
48
1
60
0
100
AcDbTrace
10
36.5
20
56.779513
30
0
11
36.5
21
57.94618
31
0
12
40
22
57.362847
32
0
13
40
23
57.362847
33
0
39
0
210
0
220
0
230
1
0
SOLID
5
135
100
AcDbEntity
8
0
62
256
6
ByLayer
370
-1
48
1
60
0
100
AcDbTrace
10
3.5
20
57.94618
30
0
11
3.5
21
56.779513
31
0
12
0
22
57.362847
32
0
13
0
23
57.362847
33
0
39
0
210
0
220
0
230
1
0
MTEXT
5
136
100
AcDbEntity
8
0
62
256
6
ByLayer
370
18
48
1
60
0
100
AcDbMText
10
20
20
64.362847
30
0
210
0
220
0
230
1
1
\A1;40
40
3.5
41
0
44
1
50
0
71
5
72
5
7
iso_b_vert
0
POINT
5
137
100
AcDbEntity
8
Defpoints
62
0
6
ByLayer
370
-1
48
1
60
0
100
AcDbPoint
10
40
20
25
30
0
39
0
210
0
220
0
230
1
50
360
0
POINT
5
138
100
AcDbEntity
8
Defpoints
62
0
6
ByLayer
370
-1
48
1
60
0
100
AcDbPoint
10
0
20
31.75
30
0
39
0
210
0
220
0
230
1
50
360
0
POINT
5
139
100
AcDbEntity
8
Defpoints
62
0
6
ByLayer
370
-1
48
1
60
0
100
AcDbPoint
10
0
20
57.362847
30
0
39
0
210
0
220
0
230
1
50
360
0
ENDBLK
5
130
100
AcDbEntity
8
0
100
AcDbBlockEnd
0
BLOCK
5
142
100
AcDbEntity
8
0
100
AcDbBlockBegin
2
_U1
70
0
10
0
20
0
30
0
3
_U1
0
MTEXT
5
13C
100
AcDbEntity
8
2
62
256
6
ByLayer
370
18
48
1
60
0
100
AcDbMText
10
17.910767
20
58.39548
30
0
210
0
220
0
230
1
1
\W0.7361;40
40
3.5
41
0
44
1.084337
50
0
71
7
72
5
7
iso_b_vert
0
LINE
5
13D
100
AcDbEntity
8
2
62
256
6
ByLayer
370
13
48
1
60
0
100
AcDbLine
10
40
20
26.5875
30
0
11
40
21
59.362847
31
0
39
0
210
0
220
0
230
1
0
LINE
5
13E
100
AcDbEntity
8
2
62
256
6
ByLayer
370
13
48
1
60
0
100
AcDbLine
10
0
20
33.3375
30
0
11
0
21
59.362847
31
0
39
0
210
0
220
0
230
1
0
LINE
5
13F
100
AcDbEntity
8
2
62
256
6
ByLayer
370
13
48
1
60
0
100
AcDbLine
10
40
20
57.362847
30
0
11
0
21
57.362847
31
0
39
0
210
0
220
0
230
1
0
SOLID
5
140
100
AcDbEntity
8
2
62
256
6
ByLayer
370
18
48
1
60
0
100
AcDbTrace
10
40
20
57.362847
30
0
11
36.500002
21
56.902063
31
0
12
36.499998
22
57.82363
32
0
13
36.499998
23
57.82363
33
0
39
0
210
0
220
0
230
1
0
SOLID
5
141
100
AcDbEntity
8
2
62
256
6
ByLayer
370
18
48
1
60
0
100
AcDbTrace
10
0
20
57.362847
30
0
11
3.499998
21
57.82363
31
0
12
3.500002
22
56.902063
32
0
13
3.500002
23
56.902063
33
0
39
0
210
0
220
0
230
1
0
ENDBLK
5
143
100
AcDbEntity
8
0
100
AcDbBlockEnd
0
BLOCK
5
148
100
AcDbEntity
8
0
100
AcDbBlockBegin
2
*D5
70
1
10
0
20
0
30
0
3
*D5
0
LINE
5
14A
100
AcDbEntity
8
0
62
256
6
ByLayer
370
-2
48
1
60
0
100
AcDbLine
10
-68.25
20
14.0875
30
0
11
-68.25
21
59.362847
31
0
39
0
210
0
220
0
230
1
0
LINE
5
14B
100
AcDbEntity
8
0
62
256
6
ByLayer
370
-2
48
1
60
0
100
AcDbLine
10
0
20
33.3375
30
0
11
0
21
59.362847
31
0
39
0
210
0
220
0
230
1
0
LINE
5
14C
100
AcDbEntity
8
0
62
256
6
ByLayer
370
-2
48
1
60
0
100
AcDbLine
10
-64.75
20
57.362847
30
0
11
-3.5
21
57.362847
31
0
39
0
210
0
220
0
230
1
0
SOLID
5
14D
100
AcDbEntity
8
0
62
256
6
ByLayer
370
-1
48
1
60
0
100
AcDbTrace
10
-64.75
20
57.94618
30
0
11
-64.75
21
56.779513
31
0
12
-68.25
22
57.362847
32
0
13
-68.25
23
57.362847
33
0
39
0
210
0
220
0
230
1
0
SOLID
5
14E
100
AcDbEntity
8
0
62
256
6
ByLayer
370
-1
48
1
60
0
100
AcDbTrace
10
-3.5
20
56.779513
30
0
11
-3.5
21
57.94618
31
0
12
0
22
57.362847
32
0
13
0
23
57.362847
33
0
39
0
210
0
220
0
230
1
0
MTEXT
5
14F
100
AcDbEntity
8
0
62
256
6
ByLayer
370
18
48
1
60
0
100
AcDbMText
10
-34.125
20
64.362847
30
0
210
0
220
0
230
1
1
\A1;68.3
40
3.5
41
0
44
1
50
0
71
5
72
5
7
iso_b_vert
0
POINT
5
150
100
AcDbEntity
8
Defpoints
62
0
6
ByLayer
370
-1
48
1
60
0
100
AcDbPoint
10
-68.25
20
12.5
30
0
39
0
210
0
220
0
230
1
50
360
0
POINT
5
151
100
AcDbEntity
8
Defpoints
62
0
6
ByLayer
370
-1
48
1
60
0
100
AcDbPoint
10
0
20
31.75
30
0
39
0
210
0
220
0
230
1
50
360
0
POINT
5
152
100
AcDbEntity
8
Defpoints
62
0
6
ByLayer
370
-1
48
1
60
0
100
AcDbPoint
10
0
20
57.362847
30
0
39
0
210
0
220
0
230
1
50
360
0
ENDBLK
5
149
100
AcDbEntity
8
0
100
AcDbBlockEnd
0
BLOCK
5
15A
100
AcDbEntity
8
0
100
AcDbBlockBegin
2
_U2
70
0
10
0
20
0
30
0
3
_U2
0
MTEXT
5
154
100
AcDbEntity
8
SK2
62
256
6
ByLayer
370
18
48
1
60
0
100
AcDbMText
10
-37.954566
20
58.39548
30
0
210
0
220
0
230
1
1
\W0.7150;68,2
40
3.5
41
0
44
1.084337
50
0
71
7
72
5
7
iso_b_vert
0
LINE
5
155
100
AcDbEntity
8
SK2
62
256
6
ByLayer
370
13
48
1
60
0
100
AcDbLine
10
-68.25
20
14.0875
30
0
11
-68.25
21
59.362847
31
0
39
0
210
0
220
0
230
1
0
LINE
5
156
100
AcDbEntity
8
SK2
62
256
6
ByLayer
370
13
48
1
60
0
100
AcDbLine
10
0
20
33.3375
30
0
11
0
21
59.362847
31
0
39
0
210
0
220
0
230
1
0
LINE
5
157
100
AcDbEntity
8
SK2
62
256
6
ByLayer
370
13
48
1
60
0
100
AcDbLine
10
-68.25
20
57.362847
30
0
11
0
21
57.362847
31
0
39
0
210
0
220
0
230
1
0
SOLID
5
158
100
AcDbEntity
8
SK2
62
256
6
ByLayer
370
18
48
1
60
0
100
AcDbTrace
10
-68.25
20
57.362847
30
0
11
-64.750002
21
57.82363
31
0
12
-64.749998
22
56.902063
32
0
13
-64.749998
23
56.902063
33
0
39
0
210
0
220
0
230
1
0
SOLID
5
159
100
AcDbEntity
8
SK2
62
256
6
ByLayer
370
18
48
1
60
0
100
AcDbTrace
10
0
20
57.362847
30
0
11
-3.499998
21
56.902063
31
0
12
-3.500002
22
57.82363
32
0
13
-3.500002
23
57.82363
33
0
39
0
210
0
220
0
230
1
0
ENDBLK
5
15B
100
AcDbEntity
8
0
100
AcDbBlockEnd
0
ENDSEC
0
SECTION
2
ENTITIES
0
ARC
5
DC
100
AcDbEntity
8
SK1
62
256
6
ByLayer
370
18
48
1
60
0
100
AcDbCircle
39
0
10
-67.25
20
-11.406204
30
0
40
1
210
0
220
0
230
1
100
AcDbArc
50
180
51
261.702083
0
ARC
5
DD
100
AcDbEntity
8
SK1
62
256
6
ByLayer
370
18
48
1
60
0
100
AcDbCircle
39
0
10
-67.25
20
11.406204
30
0
40
1
210
0
220
0
230
1
100
AcDbArc
50
98.297917
51
180
0
ARC
5
DE
100
AcDbEntity
8
1
62
256
6
ByLayer
370
18
48
1
60
0
100
AcDbCircle
39
0
10
2.85
20
22.6
30
0
40
0.600000000000001
210
0
220
0
230
1
100
AcDbArc
50
270
51
305.68639
0
ARC
5
DF
100
AcDbEntity
8
1
62
256
6
ByLayer
370
18
48
1
60
0
100
AcDbCircle
39
0
10
2.85
20
-22.6
30
0
40
0.600000000000001
210
0
220
0
230
1
100
AcDbArc
50
54.31361
51
90
0
POINT
5
70
100
AcDbEntity
8
1
62
256
6
ByLayer
370
18
48
1
60
0
100
AcDbPoint
10
0
20
0
30
0
39
0
210
0
220
0
230
1
50
360
0
POINT
5
72
100
AcDbEntity
8
80
62
256
6
ByLayer
370
18
48
1
60
0
100
AcDbPoint
10
0
20
0
30
0
39
0
210
0
220
0
230
1
50
360
0
POINT
5
74
100
AcDbEntity
8
81
62
256
6
ByLayer
370
18
48
1
60
0
100
AcDbPoint
10
40
20
0
30
0
39
0
210
0
220
0
230
1
50
360
0
POINT
5
76
100
AcDbEntity
8
1
62
256
6
ByLayer
370
18
48
1
60
1
100
AcDbPoint
10
0
20
31.75
30
0
39
0
210
0
220
0
230
1
50
360
0
POINT
5
77
100
AcDbEntity
8
1
62
256
6
ByLayer
370
18
48
1
60
1
100
AcDbPoint
10
19.05
20
31.75
30
0
39
0
210
0
220
0
230
1
50
360
0
POINT
5
78
100
AcDbEntity
8
1
62
256
6
ByLayer
370
18
48
1
60
1
100
AcDbPoint
10
40
20
25
30
0
39
0
210
0
220
0
230
1
50
360
0
POINT
5
79
100
AcDbEntity
8
1
62
256
6
ByLayer
370
18
48
1
60
1
100
AcDbPoint
10
0
20
31.75
30
0
39
0
210
0
220
0
230
1
50
360
0
POINT
5
7A
100
AcDbEntity
8
1
62
256
6
ByLayer
370
18
48
1
60
1
100
AcDbPoint
10
-68.25
20
12.5
30
0
39
0
210
0
220
0
230
1
50
360
0
POINT
5
7B
100
AcDbEntity
8
1
62
256
6
ByLayer
370
18
48
1
60
1
100
AcDbPoint
10
0
20
31.75
30
0
39
0
210
0
220
0
230
1
50
360
0
SPLINE
5
E0
100
AcDbEntity
8
1
62
256
6
ByLayer
370
18
48
1
60
0
100
AcDbSpline
70
2053
71
3
72
88
73
84
40
0
40
0
40
0
40
0
40
0.03125
40
0.03125
40
0.0468750000000003
40
0.0468750000000003
40
0.0625000000000005
40
0.0625000000000005
40
0.0937500000000011
40
0.0937500000000011
40
0.125000000000002
40
0.125000000000002
40
0.156250000000002
40
0.156250000000002
40
0.171875000000002
40
0.171875000000002
40
0.187500000000002
40
0.203125000000002
40
0.203125000000002
40
0.218750000000003
40
0.218750000000003
40
0.250000000000003
40
0.250000000000003
40
0.281250000000003
40
0.281250000000003
40
0.312500000000004
40
0.312500000000004
40
0.328125000000004
40
0.328125000000004
40
0.343750000000004
40
0.343750000000004
40
0.375000000000004
40
0.375000000000004
40
0.406250000000005
40
0.406250000000005
40
0.421875000000005
40
0.421875000000005
40
0.437500000000005
40
0.437500000000005
40
0.468750000000005
40
0.468750000000005
40
0.500000000000005
40
0.500000000000005
40
0.531250000000005
40
0.531250000000005
40
0.546875000000005
40
0.546875000000005
40
0.562500000000005
40
0.578125000000004
40
0.578125000000004
40
0.593750000000004
40
0.593750000000004
40
0.625000000000004
40
0.625000000000004
40
0.656250000000003
40
0.656250000000003
40
0.687500000000003
40
0.687500000000003
40
0.703125000000003
40
0.703125000000003
40
0.718750000000002
40
0.718750000000002
40
0.750000000000002
40
0.750000000000002
40
0.781250000000002
40
0.781250000000002
40
0.796875000000001
40
0.796875000000001
40
0.812500000000001
40
0.812500000000001
40
0.843750000000001
40
0.843750000000001
40
0.875
40
0.875
40
0.90625
40
0.90625
40
0.921875
40
0.921875
40
0.9375
40
0.9375
40
0.96875
40
0.96875
40
1
40
1
40
1
40
1
41
1
10
11.1
20
1.75
30
7E-16
41
1
10
10.9843563513442
20
1.75
30
7E-16
41
1
10
10.8706508315848
20
1.73864980850513
30
7E-16
41
1
10
10.7028795528404
20
1.70529950444629
30
7E-16
41
1
10
10.6474237399541
20
1.69144164435298
30
7E-16
41
1
10
10.5374690269247
20
1.65811911868227
30
6E-16
41
1
10
10.482826823126
20
1.6385622802066
30
6E-16
41
1
10
10.3238906212604
20
1.57267623422851
30
6E-16
41
1
10
10.22338651054
20
1.51892244396032
30
6E-16
41
1
10
10.0331781931604
20
1.39192953597561
30
6E-16
41
1
10
9.94314183116762
20
1.31803076677986
30
6E-16
41
1
10
9.7817511895941
20
1.15660970030342
30
6E-16
41
1
10
9.70932059690904
20
1.0685269150145
30
6E-16
41
1
10
9.61337125103836
20
0.925064703322789
30
6E-16
41
1
10
9.58358902658748
20
0.875372496722179
30
6E-16
41
1
10
9.52960521233865
20
0.774363880912858
30
6E-16
41
1
10
9.48083006686392
20
0.671203721739801
30
6E-16
41
1
10
9.44231929756401
20
0.563801830533322
30
6E-16
41
1
10
9.40901322880029
20
0.45424834063428
30
6E-16
41
1
10
9.39490757936113
20
0.398090157215734
30
6E-16
41
1
10
9.36118492921486
20
0.228661090653588
30
6E-16
41
1
10
9.35006155884818
20
0.115097825810466
30
6E-16
41
1
10
9.34993894585736
20
-0.11321821452529
30
6E-16
41
1
10
9.36130126172881
20
-0.229174681441123
30
6E-16
41
1
10
9.40594961213682
20
-0.453638204365632
30
6E-16
41
1
10
9.43898513533375
20
-0.562738807196212
30
6E-16
41
1
10
9.50470023569289
20
-0.721668205232447
30
6E-16
41
1
10
9.5294792498369
20
-0.774123176247741
30
6E-16
41
1
10
9.58364680847501
20
-0.875485646512118
30
6E-16
41
1
10
9.61304622654566
20
-0.924509744615591
30
6E-16
41
1
10
9.70802793203197
20
-1.06673001791174
30
6E-16
41
1
10
9.78032705895441
20
-1.1551217124867
30
6E-16
41
1
10
9.94360578139188
20
-1.31855802039797
30
6E-16
41
1
10
10.0320845753972
20
-1.39106038596103
30
6E-16
41
1
10
10.1741849068767
20
-1.48614080800533
30
6E-16
41
1
10
10.2231524474636
20
-1.51556382593284
30
6E-16
41
1
10
10.3243603232919
20
-1.56977018470263
30
6E-16
41
1
10
10.3768152294418
20
-1.59461466816208
30
6E-16
41
1
10
10.5358245181961
20
-1.66053444254285
30
6E-16
41
1
10
10.6449055163436
20
-1.69365376752356
30
7E-16
41
1
10
10.8691545534194
20
-1.7384718729661
30
7E-16
41
1
10
10.9851543128288
20
-1.74995888553386
30
7E-16
41
1
10
11.2135892597137
20
-1.75004088895042
30
7E-16
41
1
10
11.3271240374877
20
-1.73900728372465
30
7E-16
41
1
10
11.4963804064698
20
-1.70548834316739
30
7E-16
41
1
10
11.5526412235358
20
-1.69141941804702
30
7E-16
41
1
10
11.6623240644796
20
-1.65818430400176
30
7E-16
41
1
10
11.7698118756555
20
-1.6197468023631
30
7E-16
41
1
10
11.8729825490453
20
-1.57107371297451
30
7E-16
41
1
10
11.9739686727298
20
-1.51721896633777
30
7E-16
41
1
10
12.0236076395122
20
-1.48753690370233
30
7E-16
41
1
10
12.1673200853018
20
-1.39161642778396
30
7E-16
41
1
10
12.2554882963159
20
-1.31922807030145
30
8E-16
41
1
10
12.4169881880092
20
-1.15804059386474
30
8E-16
41
1
10
12.490937548286
20
-1.06812250670998
30
8E-16
41
1
10
12.6181795688991
20
-0.877908736230438
30
8E-16
41
1
10
12.6720017349822
20
-0.777459196331762
30
8E-16
41
1
10
12.7379736091797
20
-0.618728955050443
30
8E-16
41
1
10
12.7575706306411
20
-0.564151373809352
30
8E-16
41
1
10
12.791032453885
20
-0.454110568081006
30
8E-16
41
1
10
12.8049474026974
20
-0.398631296944075
30
8E-16
41
1
10
12.8384528398604
20
-0.230850495024981
30
8E-16
41
1
10
12.8498841468926
20
-0.117219009227455
30
8E-16
41
1
10
12.8501141179564
20
0.113733890285971
30
8E-16
41
1
10
12.8388467033696
20
0.227841029909342
30
8E-16
41
1
10
12.805650060783
20
0.395610563980711
30
8E-16
41
1
10
12.7918485700002
20
0.451045144726322
30
8E-16
41
1
10
12.7586635116729
20
0.560917695778528
30
8E-16
41
1
10
12.73915957896
20
0.615590389996527
30
8E-16
41
1
10
12.6733562291381
20
0.774746920253051
30
8E-16
41
1
10
12.6196694131992
20
0.87530825426694
30
8E-16
41
1
10
12.4929298292237
20
1.06550746419717
30
8E-16
41
1
10
12.4190988727563
20
1.15564582001267
30
8E-16
41
1
10
12.2577397396324
20
1.31726147468734
30
8E-16
41
1
10
12.1697378368457
20
1.3897373895054
30
7E-16
41
1
10
12.0265288204928
20
1.48571417427388
30
7E-16
41
1
10
11.9768080292673
20
1.51558326224773
30
7E-16
41
1
10
11.8757613619882
20
1.56970674147726
30
7E-16
41
1
10
11.8241788369248
20
1.59414947085699
30
7E-16
41
1
10
11.6663066823408
20
1.65975505261159
30
7E-16
41
1
10
11.5564462026096
20
1.69336421875596
30
7E-16
41
1
10
11.3300585105144
20
1.73864849667191
30
7E-16
41
1
10
11.2156436486558
20
1.75
30
7E-16
41
1
10
11.1
20
1.75
30
7E-16
0
SPLINE
5
E1
100
AcDbEntity
8
1
62
256
6
ByLayer
370
18
48
1
60
0
100
AcDbSpline
70
4
71
3
72
8
73
4
40
0
40
0
40
0
40
0
40
1
40
1
40
1
40
1
41
1
10
13.025
20
18.35
30
8E-16
41
1
10
13.5449308949397
20
18.35
30
8E-16
41
1
10
14.0786327985852
20
18.35
30
9E-16
41
1
10
14.6218366420567
20
18.35
30
9E-16
0
SPLINE
5
E2
100
AcDbEntity
8
1
62
256
6
ByLayer
370
18
48
1
60
0
100
AcDbSpline
70
4
71
3
72
22
73
18
40
0
40
0
40
0
40
0
40
0.125
40
0.125
40
0.25
40
0.25
40
0.375
40
0.375
40
0.5
40
0.5
40
0.625
40
0.625
40
0.75
40
0.75
40
0.875
40
0.875
40
1
40
1
40
1
40
1
41
1
10
19.05
20
29.6653581640269
30
-6E-16
41
1
10
19.05
20
29.7322817245581
30
-6E-16
41
1
10
19.0436986834311
20
29.7991602572894
30
-6E-16
41
1
10
19.0191053043989
20
29.9294293113193
30
-6E-16
41
1
10
19.0007869685565
20
29.9934454554049
30
-6E-16
41
1
10
18.9516257194308
20
30.1185221216883
30
-6E-16
41
1
10
18.9215273834479
20
30.1777363686946
30
-6E-16
41
1
10
18.8505642168262
20
30.2896787033399
30
-6E-16
41
1
10
18.809213890124
20
30.3428968627012
30
-6E-16
41
1
10
18.71717530517
20
30.4398060481941
30
-6E-16
41
1
10
18.6670211601125
20
30.4831534332136
30
-6E-16
41
1
10
18.5584373506011
20
30.5596266062832
30
-6E-16
41
1
10
18.4993187835205
20
30.5929529338061
30
-6E-16
41
1
10
18.3774025929874
20
30.6460986263796
30
-7E-16
41
1
10
18.3142597034885
20
30.6663271500215
30
-7E-16
41
1
10
18.1834928526507
20
30.6937718206114
30
-7E-16
41
1
10
18.1163378144821
20
30.7007080537241
30
-7E-16
41
1
10
18.05
20
30.7007080537241
30
-7E-16
0
SPLINE
5
E3
100
AcDbEntity
8
1
62
256
6
ByLayer
370
18
48
1
60
0
100
AcDbSpline
70
4
71
3
72
22
73
18
40
0
40
0
40
0
40
0
40
0.125
40
0.125
40
0.25
40
0.25
40
0.375
40
0.375
40
0.5
40
0.5
40
0.625
40
0.625
40
0.75
40
0.75
40
0.875
40
0.875
40
1
40
1
40
1
40
1
41
1
10
19.05
20
-24.70771084095
30
-6E-16
41
1
10
19.05
20
-24.6398385323988
30
-6E-16
41
1
10
19.0561816817754
20
-24.573011353867
30
-6E-16
41
1
10
19.0804359181657
20
-24.4413673733665
30
-6E-16
41
1
10
19.0987078456377
20
-24.376050394922
30
-6E-16
41
1
10
19.1470964787723
20
-24.2499037716284
30
-6E-16
41
1
10
19.1767870378615
20
-24.1898880111688
30
-6E-16
41
1
10
19.2471153951813
20
-24.0759464223985
30
-6E-16
41
1
10
19.2883179438545
20
-24.0214631599975
30
-6E-16
41
1
10
19.3796280086875
20
-23.9226087195138
30
-6E-16
41
1
10
19.429562140339
20
-23.8781399238047
30
-6E-16
41
1
10
19.5381902032334
20
-23.7993527876132
30
-6E-16
41
1
10
19.5974675043994
20
-23.7649152013532
30
-6E-16
41
1
10
19.7197827992065
20
-23.7099527096433
30
-6E-16
41
1
10
19.7833352704589
20
-23.6889191835082
30
-6E-16
41
1
10
19.9154457817786
20
-23.6603289073162
30
-6E-16
41
1
10
19.9830231688437
20
-23.6531387980538
30
-6E-16
41
1
10
20.05
20
-23.6531387980538
30
-5E-16
0
SPLINE
5
E4
100
AcDbEntity
8
1
62
256
6
ByLayer
370
18
48
1
60
0
100
AcDbSpline
70
4
71
3
72
10
73
6
40
0
40
0
40
0
40
0
40
0.5
40
0.5
40
1
40
1
40
1
40
1
41
1
10
4.19999999999999
20
30.7007080537241
30
3E-16
41
1
10
4.11212912566609
20
30.7007080537241
30
3E-16
41
1
10
4.02573019279868
20
30.6889353569765
30
2E-16
41
1
10
3.85588267673134
20
30.6417928485663
30
2E-16
41
1
10
3.77512131257697
20
30.6070009516134
30
2E-16
41
1
10
3.69999999999865
20
30.5621340441517
30
2E-16
0
SPLINE
5
E5
100
AcDbEntity
8
1
62
256
6
ByLayer
370
18
48
1
60
0
100
AcDbSpline
70
4
71
3
72
22
73
18
40
0
40
0
40
0
40
0
40
0.125
40
0.125
40
0.25
40
0.25
40
0.375
40
0.375
40
0.5
40
0.5
40
0.625
40
0.625
40
0.75
40
0.75
40
0.875
40
0.875
40
1
40
1
40
1
40
1
41
1
10
19.05
20
-29.6653581640277
30
-6E-16
41
1
10
19.05
20
-29.7317571868429
30
-6E-16
41
1
10
19.0437102235589
20
-29.799160434914
30
-6E-16
41
1
10
19.0190257827771
20
-29.9297890567901
30
-6E-16
41
1
10
19.0007458649612
20
-29.9934435552389
30
-6E-16
41
1
10
18.9521166095344
20
-30.1173786897989
30
-6E-16
41
1
10
18.9215378361696
20
-30.1777202259168
30
-6E-16
41
1
10
18.8505506554587
20
-30.289699749901
30
-6E-16
41
1
10
18.8099213778235
20
-30.3420514969522
30
-6E-16
41
1
10
18.7179062765494
20
-30.4391352757284
30
-6E-16
41
1
10
18.6671012870779
20
-30.4830726218439
30
-6E-16
41
1
10
18.5588475307271
20
-30.5593619950623
30
-6E-16
41
1
10
18.5007308452276
20
-30.5922670493733
30
-6E-16
41
1
10
18.3777071864786
20
-30.6460352121594
30
-7E-16
41
1
10
18.313925622421
20
-30.6664482264677
30
-7E-16
41
1
10
18.1824084594081
20
-30.6939478935581
30
-7E-16
41
1
10
18.1163494912671
20
-30.7007080537241
30
-7E-16
41
1
10
18.05
20
-30.7007080537241
30
-7E-16
0
SPLINE
5
E6
100
AcDbEntity
8
1
62
256
6
ByLayer
370
18
48
1
60
0
100
AcDbSpline
70
4
71
3
72
8
73
4
40
0
40
0
40
0
40
0
40
1
40
1
40
1
40
1
41
1
10
13.025
20
22.4357131015363
30
8E-16
41
1
10
13.5449308949397
20
23.5991093499129
30
8E-16
41
1
10
14.0786327985852
20
24.7573182519451
30
9E-16
41
1
10
14.6218366420567
20
25.9102296400476
30
9E-16
0
SPLINE
5
E7
100
AcDbEntity
8
1
62
256
6
ByLayer
370
18
48
1
60
0
100
AcDbSpline
70
4
71
3
72
28
73
24
40
0
40
0
40
0
40
0
40
0.125
40
0.125
40
0.1875
40
0.1875
40
0.249999999999999
40
0.249999999999999
40
0.374999999999999
40
0.374999999999999
40
0.437499999999999
40
0.437499999999999
40
0.499999999999999
40
0.499999999999999
40
0.625
40
0.625
40
0.6875
40
0.6875
40
0.750000000000001
40
0.750000000000001
40
0.875
40
0.875
40
1
40
1
40
1
40
1
41
1
10
24.2
20
-24.6623392037333
30
-3E-16
41
1
10
24.2
20
-24.6184323652258
30
-3E-16
41
1
10
24.1740430637397
20
-24.5710189254252
30
-3E-16
41
1
10
24.0983628019544
20
-24.4951776022136
30
-3E-16
41
1
10
24.0669643877149
20
-24.4691107393295
30
-3E-16
41
1
10
23.9916355889659
20
-24.4155055930004
30
-3E-16
41
1
10
23.9474511699032
20
-24.3878476635222
30
-3E-16
41
1
10
23.7985812039017
20
-24.304573332801
30
-3E-16
41
1
10
23.6773220387679
20
-24.2482204309823
30
-3E-16
41
1
10
23.4628024563555
20
-24.1638590325933
30
-3E-16
41
1
10
23.3858174835963
20
-24.1357695566493
30
-3E-16
41
1
10
23.2204427801287
20
-24.0799465381724
30
-4E-16
41
1
10
23.133388437946
20
-24.052666240617
30
-4E-16
41
1
10
22.8595276283002
20
-23.9731394446359
30
-4E-16
41
1
10
22.6601213017444
20
-23.9231654640116
30
-4E-16
41
1
10
22.3347313528105
20
-23.8547984629509
30
-4E-16
41
1
10
22.2212232552868
20
-23.8330206145461
30
-4E-16
41
1
10
21.9898210681182
20
-23.7929434526535
30
-4E-16
41
1
10
21.8715929011609
20
-23.7745518027931
30
-4E-16
41
1
10
21.5093899310752
20
-23.7246488065823
30
4E-16
41
1
10
21.2579752697119
20
-23.6983702583755
30
4E-16
41
1
10
20.733791407028
20
-23.6623488240314
30
-5E-16
41
1
10
20.4682330714586
20
-23.6531387980538
30
-5E-16
41
1
10
20.2
20
-23.6531387980538
30
-5E-16
0
SPLINE
5
E8
100
AcDbEntity
8
1
62
256
6
ByLayer
370
18
48
1
60
0
100
AcDbSpline
70
4
71
3
72
20
73
16
40
0
40
0
40
0
40
0
40
0.125075431571574
40
0.125075431571574
40
0.250150863143148
40
0.250150863143148
40
0.375226294714723
40
0.375226294714723
40
0.500301726286297
40
0.500301726286297
40
0.625377157857871
40
0.625377157857871
40
0.750452589429445
40
0.750452589429445
40
1
40
1
40
1
40
1
41
1
10
18.05
20
18.35
30
1.1E-15
41
1
10
18.1233029805178
20
18.35
30
1.1E-15
41
1
10
18.1958467426518
20
18.35
30
1.1E-15
41
1
10
18.3388037257524
20
18.35
30
1.1E-15
41
1
10
18.4063026144014
20
18.35
30
1.1E-15
41
1
10
18.5341878908257
20
18.35
30
1.1E-15
41
1
10
18.5939555892112
20
18.35
30
1.1E-15
41
1
10
18.7019482389055
20
18.35
30
1.1E-15
41
1
10
18.7512163330266
20
18.35
30
1.1E-15
41
1
10
18.8375912556248
20
18.35
30
1.2E-15
41
1
10
18.8750236752913
20
18.35
30
1.2E-15
41
1
10
18.939446292382
20
18.35
30
1.2E-15
41
1
10
18.966033877438
20
18.35
30
1.2E-15
41
1
10
19.0291035240768
20
18.35
30
1.2E-15
41
1
10
19.0499104947657
20
18.35
30
1.2E-15
41
1
10
19.0499950000017
20
18.35
30
1.2E-15
0
SPLINE
5
E9
100
AcDbEntity
8
1
62
256
6
ByLayer
370
18
48
1
60
0
100
AcDbSpline
70
4
71
3
72
8
73
4
40
0
40
0
40
0
40
0
40
1
40
1
40
1
40
1
41
1
10
19.0512101239964
20
18.35
30
1.2E-15
41
1
10
19.0504017637355
20
18.3732164374262
30
1.2E-15
41
1
10
19.05
20
18.3963785433453
30
1.2E-15
41
1
10
19.05
20
18.4194869635395
30
1.2E-15
0
SPLINE
5
EA
100
AcDbEntity
8
1
62
256
6
ByLayer
370
18
48
1
60
0
100
AcDbSpline
70
4
71
3
72
18
73
14
40
0
40
0
40
0
40
0
40
0.250000000000001
40
0.250000000000001
40
0.500000000000002
40
0.500000000000002
40
0.625000000000001
40
0.625000000000001
40
0.750000000000001
40
0.750000000000001
40
0.875
40
0.875
40
1
40
1
40
1
40
1
41
1
10
3.69999999999925
20
30.5621340441518
30
2E-16
41
1
10
3.63382134378972
20
30.5050794649247
30
2E-16
41
1
10
3.57173027252432
20
30.4409422291709
30
2E-16
41
1
10
3.45656609346344
20
30.2970421159454
30
2E-16
41
1
10
3.40305059314485
20
30.2163914066264
30
2E-16
41
1
10
3.33431781986411
20
30.0853872426913
30
2E-16
41
1
10
3.31324564583156
20
30.0399635985114
30
2E-16
41
1
10
3.27534753748745
20
29.9450621144112
30
2E-16
41
1
10
3.25842572555513
20
29.8951842566219
30
2E-16
41
1
10
3.23056134747253
20
29.793307490556
30
2E-16
41
1
10
3.21951518149868
20
29.7411923495076
30
2E-16
41
1
10
3.204203670357
20
29.6341972297607
30
2E-16
41
1
10
3.19999999999999
20
29.5789021591156
30
2E-16
41
1
10
3.19999999999999
20
29.5243708654393
30
2E-16
0
SPLINE
5
EB
100
AcDbEntity
8
1
62
256
6
ByLayer
370
18
48
1
60
0
100
AcDbSpline
70
4
71
3
72
24
73
20
40
0
40
0
40
0
40
0
40
0.250000000000009
40
0.250000000000009
40
0.37500000000001
40
0.37500000000001
40
0.500000000000012
40
0.500000000000012
40
0.625000000000014
40
0.625000000000014
40
0.687500000000012
40
0.687500000000012
40
0.750000000000011
40
0.750000000000011
40
0.875000000000005
40
0.875000000000005
40
0.937500000000003
40
0.937500000000003
40
1
40
1
40
1
40
1
41
1
10
3.19999999999999
20
24.6746833819605
30
2E-16
41
1
10
3.19999999999999
20
24.8224319091937
30
2E-16
41
1
10
3.22042019854391
20
24.9668119769603
30
2E-16
41
1
10
3.28379898616916
20
25.1779799783182
30
2E-16
41
1
10
3.31060847021161
20
25.2473248273178
30
2E-16
41
1
10
3.37457108623511
20
25.3789455184171
30
2E-16
41
1
10
3.41186880045444
20
25.4418611580014
30
2E-16
41
1
10
3.49858443806966
20
25.5610931593058
30
2E-16
41
1
10
3.54774390533333
20
25.6167978411617
30
2E-16
41
1
10
3.62865536975949
20
25.6910688536878
30
2E-16
41
1
10
3.65692590125514
20
25.7144088240541
30
2E-16
41
1
10
3.71628163879183
20
25.7580207986444
30
2E-16
41
1
10
3.74757709319911
20
25.7783910710132
30
2E-16
41
1
10
3.84356486786356
20
25.832973766503
30
2E-16
41
1
10
3.91080464214869
20
25.8612163467265
30
2E-16
41
1
10
4.01694324936526
20
25.890340476746
30
2E-16
41
1
10
4.05353541823672
20
25.8978547360975
30
2E-16
41
1
10
4.12678122474168
20
25.9077744644654
30
3E-16
41
1
10
4.16339505781175
20
25.9102296400476
30
3E-16
41
1
10
4.19999999999999
20
25.9102296400476
30
3E-16
0
SPLINE
5
EC
100
AcDbEntity
8
1
62
256
6
ByLayer
370
18
48
1
60
0
100
AcDbSpline
70
4
71
3
72
20
73
16
40
0
40
0
40
0
40
0
40
0.125
40
0.125
40
0.25
40
0.25
40
0.375
40
0.375
40
0.5
40
0.5
40
0.625
40
0.625
40
0.75
40
0.75
40
1
40
1
40
1
40
1
41
1
10
18.05
20
25.9102296400476
30
1.1E-15
41
1
10
18.1233029805178
20
25.9102296400476
30
1.1E-15
41
1
10
18.1958467426518
20
25.9004451846742
30
1.1E-15
41
1
10
18.3388037257524
20
25.8614277920455
30
1.1E-15
41
1
10
18.4063026144014
20
25.8330299568726
30
1.1E-15
41
1
10
18.5341878908257
20
25.7603472723029
30
1.1E-15
41
1
10
18.5939555892112
20
25.7161628430997
30
1.1E-15
41
1
10
18.7019482389055
20
25.6171273311932
30
1.1E-15
41
1
10
18.7512163330266
20
25.5613002951829
30
1.1E-15
41
1
10
18.8375912556248
20
25.4426697983162
30
1.2E-15
41
1
10
18.8750236752913
20
25.3797278363224
30
1.2E-15
41
1
10
18.939446292382
20
25.2472634301376
30
1.2E-15
41
1
10
18.966033877438
20
25.1783899810753
30
1.2E-15
41
1
10
19.0292051183637
20
24.9683516383951
30
1.2E-15
41
1
10
19.05
20
24.8205704949931
30
1.2E-15
41
1
10
19.05
20
24.6746833819605
30
1.2E-15
0
SPLINE
5
ED
100
AcDbEntity
8
1
62
256
6
ByLayer
370
18
48
1
60
0
100
AcDbSpline
70
4
71
3
72
8
73
4
40
0
40
0
40
0
40
0
40
1
40
1
40
1
40
1
41
1
10
9.17499999999998
20
27.8308227937021
30
6E-16
41
1
10
8.64421352244412
20
28.7882719402275
30
5E-16
41
1
10
8.11179696690326
20
29.7448373759257
30
5E-16
41
1
10
7.57816335794328
20
30.7007080537241
30
5E-16
0
SPLINE
5
EE
100
AcDbEntity
8
1
62
256
6
ByLayer
370
18
48
1
60
0
100
AcDbSpline
70
2053
71
3
72
88
73
84
40
0
40
0
40
0
40
0
40
0.0312499999999993
40
0.0312499999999993
40
0.0468749999999993
40
0.0468749999999993
40
0.0624999999999993
40
0.0624999999999993
40
0.0937499999999996
40
0.0937499999999996
40
0.125
40
0.125
40
0.15625
40
0.15625
40
0.171875
40
0.171875
40
0.1875
40
0.203125000000001
40
0.203125000000001
40
0.218750000000001
40
0.218750000000001
40
0.250000000000002
40
0.250000000000002
40
0.281250000000002
40
0.281250000000002
40
0.312500000000003
40
0.312500000000003
40
0.328125000000003
40
0.328125000000003
40
0.343750000000003
40
0.343750000000003
40
0.375000000000003
40
0.375000000000003
40
0.406250000000003
40
0.406250000000003
40
0.421875000000003
40
0.421875000000003
40
0.437500000000003
40
0.437500000000003
40
0.468750000000002
40
0.468750000000002
40
0.500000000000001
40
0.500000000000001
40
0.531250000000001
40
0.531250000000001
40
0.546875000000001
40
0.546875000000001
40
0.5625
40
0.578125
40
0.578125
40
0.59375
40
0.59375
40
0.625
40
0.625
40
0.65625
40
0.65625
40
0.687499999999999
40
0.687499999999999
40
0.703125
40
0.703125
40
0.71875
40
0.71875
40
0.749999999999999
40
0.749999999999999
40
0.781249999999999
40
0.781249999999999
40
0.796874999999999
40
0.796874999999999
40
0.812499999999999
40
0.812499999999999
40
0.843749999999999
40
0.843749999999999
40
0.874999999999999
40
0.874999999999999
40
0.906249999999999
40
0.906249999999999
40
0.921874999999999
40
0.921874999999999
40
0.937499999999999
40
0.937499999999999
40
0.96875
40
0.96875
40
1
40
1
40
1
40
1
41
1
10
11.1
20
21.8876572659631
30
7E-16
41
1
10
11.2156436486558
20
21.8876572659631
30
7E-16
41
1
10
11.3293491684152
20
21.8947550791636
30
7E-16
41
1
10
11.4971204471595
20
21.9155618518375
30
7E-16
41
1
10
11.5525762600459
20
21.9242024781672
30
7E-16
41
1
10
11.6625309730753
20
21.9449511066298
30
7E-16
41
1
10
11.7171731768741
20
21.957116183403
30
7E-16
41
1
10
11.8761093787396
20
21.9980281102058
30
7E-16
41
1
10
11.97661348946
20
22.0313255029888
30
7E-16
41
1
10
12.1668218068396
20
22.1095802076903
30
7E-16
41
1
10
12.2568581688324
20
22.1549359961512
30
8E-16
41
1
10
12.4182488104059
20
22.2533722036793
30
8E-16
41
1
10
12.4906794030909
20
22.3068021677345
30
8E-16
41
1
10
12.5866287489616
20
22.3931744264964
30
8E-16
41
1
10
12.6164109734125
20
22.42298994232
30
8E-16
41
1
10
12.6703947876613
20
22.4833647373516
30
8E-16
41
1
10
12.7191699331361
20
22.5448013056456
30
8E-16
41
1
10
12.757680702436
20
22.6082674892107
30
8E-16
41
1
10
12.7909867711997
20
22.6727365021402
30
8E-16
41
1
10
12.8050924206389
20
22.7056505186183
30
8E-16
41
1
10
12.8388150707852
20
22.804524448909
30
8E-16
41
1
10
12.8499384411518
20
22.8702366877036
30
8E-16
41
1
10
12.8500610541426
20
23.0011996658979
30
8E-16
41
1
10
12.8386987382712
20
23.067122444642
30
8E-16
41
1
10
12.7940503878632
20
23.1936273255887
30
8E-16
41
1
10
12.7610148646663
20
23.2545625980905
30
8E-16
41
1
10
12.6952997643071
20
23.3426107545636
30
8E-16
41
1
10
12.6705207501631
20
23.371546094203
30
8E-16
41
1
10
12.616353191525
20
23.4272382795994
30
8E-16
41
1
10
12.5869537734544
20
23.4540611919718
30
8E-16
41
1
10
12.491972067968
20
23.531589083291
30
8E-16
41
1
10
12.4196729410456
20
23.5793796294086
30
8E-16
41
1
10
12.2563942186081
20
23.6672032408571
30
8E-16
41
1
10
12.1679154246028
20
23.7058728709752
30
7E-16
41
1
10
12.0258150931233
20
23.756357573573
30
7E-16
41
1
10
11.9768475525364
20
23.7719361950563
30
7E-16
41
1
10
11.8756396767081
20
23.800577555507
30
7E-16
41
1
10
11.8231847705582
20
23.8136722335936
30
7E-16
41
1
10
11.6641754818039
20
23.8483594456095
30
7E-16
41
1
10
11.5550944836564
20
23.865707008691
30
7E-16
41
1
10
11.3308454465806
20
23.8891593249522
30
7E-16
41
1
10
11.2148456871712
20
23.8951533199634
30
7E-16
41
1
10
10.9864107402863
20
23.895196148638
30
7E-16
41
1
10
10.8728759625123
20
23.8894390947251
30
7E-16
41
1
10
10.7036195935303
20
23.8718999699834
30
7E-16
41
1
10
10.6473587764642
20
23.8645329514547
30
7E-16
41
1
10
10.5376759355204
20
23.8471014621301
30
6E-16
41
1
10
10.4301881243445
20
23.826917402615
30
6E-16
41
1
10
10.3270174509547
20
23.8012651062088
30
6E-16
41
1
10
10.2260313272703
20
23.7728118707287
30
6E-16
41
1
10
10.1763923604878
20
23.7570977898012
30
6E-16
41
1
10
10.0326799146982
20
23.7061701897754
30
6E-16
41
1
10
9.9445117036841
20
23.667559006057
30
6E-16
41
1
10
9.78301181199083
20
23.5809523063558
30
6E-16
41
1
10
9.70906245171395
20
23.5323450829561
30
6E-16
41
1
10
9.58182043110088
20
23.4286608420499
30
6E-16
41
1
10
9.52799826501786
20
23.3735101501415
30
6E-16
41
1
10
9.46202639082031
20
23.285586026294
30
6E-16
41
1
10
9.44242936935888
20
23.255229491671
30
6E-16
41
1
10
9.40896754611504
20
23.1937519903004
30
6E-16
41
1
10
9.39505259730257
20
23.1626239603344
30
6E-16
41
1
10
9.36154716013957
20
23.0680711360982
30
6E-16
41
1
10
9.35011585310747
20
23.0034853703481
30
6E-16
41
1
10
9.34988588204354
20
22.8710280031037
30
6E-16
41
1
10
9.36115329663036
20
22.8049966536267
30
6E-16
41
1
10
9.39434993921694
20
22.7071006360431
30
6E-16
41
1
10
9.40815142999986
20
22.6746164591846
30
6E-16
41
1
10
9.44133648832704
20
22.6099694764181
30
6E-16
41
1
10
9.46084042104002
20
22.5776664365724
30
6E-16
41
1
10
9.52664377086185
20
22.48326378437
30
6E-16
41
1
10
9.58033058680078
20
22.4231235904772
30
6E-16
41
1
10
9.70707017077629
20
22.3086268612498
30
6E-16
41
1
10
9.78090112724371
20
22.2539579219836
30
6E-16
41
1
10
9.94226026036756
20
22.1554071619532
30
6E-16
41
1
10
10.0302621631543
20
22.1109277917961
30
6E-16
41
1
10
10.1734711795072
20
22.0517904354803
30
6E-16
41
1
10
10.2231919707327
20
22.0333407541327
30
6E-16
41
1
10
10.3242386380117
20
21.9998504533115
30
6E-16
41
1
10
10.3758211630752
20
21.9846939289314
30
6E-16
41
1
10
10.5336933176592
20
21.9439572794962
30
6E-16
41
1
10
10.6435537973904
20
21.9230078285341
30
7E-16
41
1
10
10.8699414894856
20
21.8947561681928
30
7E-16
41
1
10
10.9843563513442
20
21.8876572659631
30
7E-16
41
1
10
11.1
20
21.8876572659631
30
7E-16
0
SPLINE
5
EF
100
AcDbEntity
8
1
62
256
6
ByLayer
370
18
48
1
60
0
100
AcDbSpline
70
4
71
3
72
8
73
4
40
0
40
0
40
0
40
0
40
1
40
1
40
1
40
1
41
1
10
7.57816335794328
20
18.35
30
5E-16
41
1
10
8.12136720141484
20
18.35
30
5E-16
41
1
10
8.65506910506031
20
18.35
30
5E-16
41
1
10
9.17499999999998
20
18.35
30
6E-16
0
SPLINE
5
F0
100
AcDbEntity
8
1
62
256
6
ByLayer
370
18
48
1
60
0
100
AcDbSpline
70
2053
71
3
72
88
73
84
40
0
40
0
40
0
40
0
40
0.0312500000000009
40
0.0312500000000009
40
0.0468750000000011
40
0.0468750000000011
40
0.0625000000000013
40
0.0625000000000013
40
0.0937500000000013
40
0.0937500000000013
40
0.125000000000001
40
0.125000000000001
40
0.156250000000001
40
0.156250000000001
40
0.171875000000001
40
0.171875000000001
40
0.187500000000001
40
0.203125000000002
40
0.203125000000002
40
0.218750000000002
40
0.218750000000002
40
0.250000000000002
40
0.250000000000002
40
0.281250000000003
40
0.281250000000003
40
0.312500000000004
40
0.312500000000004
40
0.328125000000003
40
0.328125000000003
40
0.343750000000003
40
0.343750000000003
40
0.375000000000003
40
0.375000000000003
40
0.406250000000002
40
0.406250000000002
40
0.421875000000001
40
0.421875000000001
40
0.437500000000001
40
0.437500000000001
40
0.468750000000001
40
0.468750000000001
40
0.5
40
0.5
40
0.53125
40
0.53125
40
0.546875
40
0.546875
40
0.5625
40
0.578125
40
0.578125
40
0.59375
40
0.59375
40
0.624999999999999
40
0.624999999999999
40
0.656249999999999
40
0.656249999999999
40
0.687499999999998
40
0.687499999999998
40
0.703124999999998
40
0.703124999999998
40
0.718749999999998
40
0.718749999999998
40
0.749999999999998
40
0.749999999999998
40
0.781249999999998
40
0.781249999999998
40
0.796874999999998
40
0.796874999999998
40
0.812499999999998
40
0.812499999999998
40
0.843749999999999
40
0.843749999999999
40
0.874999999999999
40
0.874999999999999
40
0.90625
40
0.90625
40
0.921875
40
0.921875
40
0.9375
40
0.9375
40
0.96875
40
0.96875
40
1
40
1
40
1
40
1
41
1
10
11.1
20
24.8174752872808
30
7E-16
41
1
10
11.2156436486558
20
24.8174752872808
30
7E-16
41
1
10
11.3293491684152
20
24.8227471490825
30
7E-16
41
1
10
11.4971204471595
20
24.8381831047632
30
7E-16
41
1
10
11.5525762600459
20
24.8445914395881
30
7E-16
41
1
10
11.6625309730753
20
24.8599690214735
30
7E-16
41
1
10
11.7171731768741
20
24.868980449788
30
7E-16
41
1
10
11.8761093787396
20
24.8992596327853
30
7E-16
41
1
10
11.97661348946
20
24.9238728597803
30
7E-16
41
1
10
12.1668218068396
20
24.9815640309813
30
7E-16
41
1
10
12.2568581688324
20
25.0149327136416
30
8E-16
41
1
10
12.4182488104059
20
25.0871114491281
30
8E-16
41
1
10
12.4906794030909
20
25.1261807689409
30
8E-16
41
1
10
12.5866287489616
20
25.1890886314435
30
8E-16
41
1
10
12.6164109734125
20
25.2107648381408
30
8E-16
41
1
10
12.6703947876613
20
25.2545683877996
30
8E-16
41
1
10
12.7191699331361
20
25.29905489286
30
8E-16
41
1
10
12.757680702436
20
25.3448168451233
30
8E-16
41
1
10
12.7909867711997
20
25.391196003715
30
8E-16
41
1
10
12.8050924206389
20
25.4148216100003
30
8E-16
41
1
10
12.8388150707852
20
25.4856231667105
30
8E-16
41
1
10
12.8499384411518
20
25.5324547958975
30
8E-16
41
1
10
12.8500610541426
20
25.6253262964868
30
8E-16
41
1
10
12.8386987382712
20
25.6718352668091
30
8E-16
41
1
10
12.7940503878632
20
25.7606323351404
30
8E-16
41
1
10
12.7610148646663
20
25.8031760426562
30
8E-16
41
1
10
12.6952997643071
20
25.8643500761877
30
8E-16
41
1
10
12.6705207501631
20
25.8844011373863
30
8E-16
41
1
10
12.616353191525
20
25.9229000608705
30
8E-16
41
1
10
12.5869537734544
20
25.9413944429035
30
8E-16
41
1
10
12.491972067968
20
25.9947280648972
30
8E-16
41
1
10
12.4196729410456
20
26.0274361635577
30
8E-16
41
1
10
12.2563942186081
20
26.0873099610216
30
8E-16
41
1
10
12.1679154246028
20
26.1135472896805
30
7E-16
41
1
10
12.0258150931233
20
26.1477019635575
30
7E-16
41
1
10
11.9768475525364
20
26.1582221135843
30
7E-16
41
1
10
11.8756396767081
20
26.177537360358
30
7E-16
41
1
10
11.8231847705582
20
26.1863538344254
30
7E-16
41
1
10
11.6641754818039
20
26.2096831530587
30
7E-16
41
1
10
11.5550944836564
20
26.2213150868293
30
7E-16
41
1
10
11.3308454465806
20
26.2370301905237
30
7E-16
41
1
10
11.2148456871712
20
26.2410391673803
30
7E-16
41
1
10
10.9864107402863
20
26.2410678298878
30
7E-16
41
1
10
10.8728759625123
20
26.2372174832458
30
7E-16
41
1
10
10.7036195935303
20
26.2254649979384
30
7E-16
41
1
10
10.6473587764642
20
26.220526197049
30
7E-16
41
1
10
10.5376759355204
20
26.2088276372552
30
6E-16
41
1
10
10.4301881243445
20
26.1952711371015
30
6E-16
41
1
10
10.3270174509547
20
26.1780005025831
30
6E-16
41
1
10
10.2260313272703
20
26.1588131563076
30
6E-16
41
1
10
10.1763923604878
20
26.1482022779478
30
6E-16
41
1
10
10.0326799146982
20
26.1137493479662
30
6E-16
41
1
10
9.9445117036841
20
26.0875506442193
30
6E-16
41
1
10
9.78301181199083
20
26.0285101559431
30
6E-16
41
1
10
9.70906245171395
20
25.9952468216705
30
6E-16
41
1
10
9.58182043110088
20
25.9239221277211
30
6E-16
41
1
10
9.52799826501786
20
25.8858144424601
30
6E-16
41
1
10
9.46202639082031
20
25.8247323436822
30
6E-16
41
1
10
9.44242936935885
20
25.8035907485551
30
6E-16
41
1
10
9.40896754611504
20
25.7606613354162
30
6E-16
41
1
10
9.39505259730259
20
25.7388693780923
30
6E-16
41
1
10
9.36154716013957
20
25.6725029236476
30
6E-16
41
1
10
9.35011585310747
20
25.6269434654964
30
6E-16
41
1
10
9.34988588204354
20
25.533019588997
30
6E-16
41
1
10
9.36115329663036
20
25.4859587643691
30
6E-16
41
1
10
9.39434993921694
20
25.4158612454358
30
6E-16
41
1
10
9.40815142999986
20
25.3925464582894
30
6E-16
41
1
10
9.44133648832707
20
25.3460431422854
30
6E-16
41
1
10
9.46084042104002
20
25.3227528952625
30
6E-16
41
1
10
9.52664377086185
20
25.2545450248767
30
6E-16
41
1
10
9.58033058680078
20
25.210898922685
30
6E-16
41
1
10
9.70707017077629
20
25.1275123924205
30
6E-16
41
1
10
9.78090112724371
20
25.0875401403201
30
6E-16
41
1
10
9.94226026036756
20
25.0152789784516
30
6E-16
41
1
10
10.0302621631543
20
24.9825562742146
30
6E-16
41
1
10
10.1734711795072
20
24.9389606687257
30
6E-16
41
1
10
10.2231919707327
20
24.9253425229874
30
6E-16
41
1
10
10.3242386380117
20
24.900600271981
30
6E-16
41
1
10
10.3758211630752
20
24.8893907762252
30
6E-16
41
1
10
10.5336933176592
20
24.8592417384762
30
6E-16
41
1
10
10.6435537973904
20
24.8437069612296
30
7E-16
41
1
10
10.8699414894856
20
24.8227480580323
30
7E-16
41
1
10
10.9843563513442
20
24.8174752872808
30
7E-16
41
1
10
11.1
20
24.8174752872808
30
7E-16
0
SPLINE
5
F1
100
AcDbEntity
8
1
62
256
6
ByLayer
370
18
48
1
60
0
100
AcDbSpline
70
4
71
3
72
24
73
20
40
0
40
0
40
0
40
0
40
0.249999999999999
40
0.249999999999999
40
0.375000000000001
40
0.375000000000001
40
0.500000000000004
40
0.500000000000004
40
0.625000000000006
40
0.625000000000006
40
0.687500000000006
40
0.687500000000006
40
0.750000000000005
40
0.750000000000005
40
0.875000000000002
40
0.875000000000002
40
0.937500000000001
40
0.937500000000001
40
1
40
1
40
1
40
1
41
1
10
3.19999499949998
20
18.35
30
2E-16
41
1
10
3.2000050005
20
18.35
30
2E-16
41
1
10
3.22042019854391
20
18.35
30
2E-16
41
1
10
3.28379898616916
20
18.35
30
2E-16
41
1
10
3.31060847021161
20
18.35
30
2E-16
41
1
10
3.37457108623511
20
18.35
30
2E-16
41
1
10
3.41186880045444
20
18.35
30
2E-16
41
1
10
3.49858443806966
20
18.35
30
2E-16
41
1
10
3.54774390533333
20
18.35
30
2E-16
41
1
10
3.62865536975949
20
18.35
30
2E-16
41
1
10
3.65692590125514
20
18.35
30
2E-16
41
1
10
3.71628163879183
20
18.35
30
2E-16
41
1
10
3.74757709319911
20
18.35
30
2E-16
41
1
10
3.84356486786356
20
18.35
30
2E-16
41
1
10
3.91080464214869
20
18.35
30
2E-16
41
1
10
4.01694324936526
20
18.35
30
2E-16
41
1
10
4.05353541823669
20
18.35
30
2E-16
41
1
10
4.12678122474168
20
18.35
30
3E-16
41
1
10
4.16339505781175
20
18.35
30
3E-16
41
1
10
4.19999999999999
20
18.35
30
3E-16
0
SPLINE
5
F2
100
AcDbEntity
8
1
62
256
6
ByLayer
370
18
48
1
60
0
100
AcDbSpline
70
4
71
3
72
8
73
4
40
0
40
0
40
0
40
0
40
1
40
1
40
1
40
1
41
1
10
7.57816335794328
20
25.9102296400476
30
5E-16
41
1
10
8.12136720141484
20
24.7573182519451
30
5E-16
41
1
10
8.65506910506031
20
23.5991093499129
30
5E-16
41
1
10
9.17499999999998
20
22.4357131015363
30
6E-16
0
SPLINE
5
F3
100
AcDbEntity
8
1
62
256
6
ByLayer
370
18
48
1
60
0
100
AcDbSpline
70
4
71
3
72
8
73
4
40
0
40
0
40
0
40
0
40
1
40
1
40
1
40
1
41
1
10
14.6218366420567
20
-30.7007080537241
30
-9E-16
41
1
10
14.0881983092952
20
-29.7448289144208
30
9E-16
41
1
10
13.5557797833464
20
-28.7882598650044
30
8E-16
41
1
10
13.025
20
-27.8308227937021
30
8E-16
0
SPLINE
5
F4
100
AcDbEntity
8
1
62
256
6
ByLayer
370
18
48
1
60
0
100
AcDbSpline
70
4
71
3
72
8
73
4
40
0
40
0
40
0
40
0
40
1
40
1
40
1
40
1
41
1
10
9.17500000000001
20
-27.8308227937021
30
6E-16
41
1
10
8.64422021665359
20
-28.7882598650043
30
5E-16
41
1
10
8.11180169070482
20
-29.7448289144208
30
5E-16
41
1
10
7.57816335794328
20
-30.7007080537241
30
5E-16
0
SPLINE
5
F5
100
AcDbEntity
8
1
62
256
6
ByLayer
370
18
48
1
60
0
100
AcDbSpline
70
4
71
3
72
28
73
24
40
0
40
0
40
0
40
0
40
0.0156342005659394
40
0.0156342005659394
40
0.0312684011318789
40
0.0312684011318789
40
0.0625368022637598
40
0.0625368022637598
40
0.0938052033956406
40
0.0938052033956406
40
0.125073604527521
40
0.125073604527521
40
0.187610406791284
40
0.187610406791284
40
0.250147209055046
40
0.250147209055046
40
0.375220813582571
40
0.375220813582571
40
0.500294418110095
40
0.500294418110095
40
0.750441627165146
40
0.750441627165146
40
1
40
1
40
1
40
1
41
1
10
20.05
20
24.8
30
-1E-16
41
1
10
20.0243935065824
20
24.8
30
-1E-16
41
1
10
19.9989841303652
20
24.8
30
-1E-16
41
1
10
19.9550043120844
20
24.8
30
-1E-16
41
1
10
19.9355727285549
20
24.8
30
-1E-16
41
1
10
19.8823181915072
20
24.8
30
-1E-16
41
1
10
19.8536727884133
20
24.8
30
-1E-16
41
1
10
19.8021755008204
20
24.8
30
-1E-16
41
1
10
19.7793983281391
20
24.8
30
-1E-16
41
1
10
19.7371097145857
20
24.8
30
-1E-16
41
1
10
19.7176813640854
20
24.8
30
-1E-16
41
1
10
19.6626148818807
20
24.8
30
-1E-16
41
1
10
19.6302739788797
20
24.8
30
-1E-16
41
1
10
19.5703454432751
20
24.8
30
3E-16
41
1
10
19.5428125581213
20
24.8
30
3E-16
41
1
10
19.4650501971037
20
24.8
30
3E-16
41
1
10
19.4195728900394
20
24.8
30
3E-16
41
1
10
19.3367899553971
20
24.8
30
3E-16
41
1
10
19.2996183197422
20
24.8
30
3E-16
41
1
10
19.1989252518004
20
24.8
30
3E-16
41
1
10
19.1460492060565
20
24.8
30
3E-16
41
1
10
19.0717673304199
20
24.8
30
3E-16
41
1
10
19.0500912032532
20
24.8
30
3E-16
41
1
10
19.0500049999942
20
24.8
30
3E-16
0
SPLINE
5
F6
100
AcDbEntity
8
1
62
256
6
ByLayer
370
18
48
1
60
0
100
AcDbSpline
70
4
71
3
72
18
73
14
40
0
40
0
40
0
40
0
40
0.25
40
0.25
40
0.5
40
0.5
40
0.625
40
0.625
40
0.75
40
0.75
40
0.875
40
0.875
40
1
40
1
40
1
40
1
41
1
10
3.69999999999999
20
-30.5621340441525
30
2E-16
41
1
10
3.63382134379037
20
-30.5050794649254
30
2E-16
41
1
10
3.57173027252489
20
-30.4409422291715
30
2E-16
41
1
10
3.45656609346386
20
-30.2970421159459
30
2E-16
41
1
10
3.4030505931452
20
-30.2163914066269
30
2E-16
41
1
10
3.33431781986434
20
-30.0853872426918
30
2E-16
41
1
10
3.31324564583176
20
-30.0399635985119
30
2E-16
41
1
10
3.27534753748756
20
-29.9450621144116
30
2E-16
41
1
10
3.25842572555521
20
-29.8951842566222
30
2E-16
41
1
10
3.23056134747259
20
-29.7933074905563
30
2E-16
41
1
10
3.21951518149874
20
-29.7411923495078
30
2E-16
41
1
10
3.204203670357
20
-29.6341972297608
30
2E-16
41
1
10
3.19999999999999
20
-29.5789021591156
30
2E-16
41
1
10
3.19999999999999
20
-29.5243708654393
30
2E-16
0
SPLINE
5
F7
100
AcDbEntity
8
1
62
256
6
ByLayer
370
18
48
1
60
0
100
AcDbSpline
70
4
71
3
72
10
73
6
40
0
40
0
40
0
40
0
40
0.499999999999999
40
0.499999999999999
40
1
40
1
40
1
40
1
41
1
10
4.19999999999999
20
-30.7007080537241
30
3E-16
41
1
10
4.11198462162758
20
-30.7007080537241
30
3E-16
41
1
10
4.02380634291555
20
-30.6885177563288
30
2E-16
41
1
10
3.85538296873926
20
-30.641536085239
30
2E-16
41
1
10
3.77551825630931
20
-30.6072380299748
30
2E-16
41
1
10
3.69999999999999
20
-30.5621340441525
30
2E-16
0
SPLINE
5
F8
100
AcDbEntity
8
1
62
256
6
ByLayer
370
18
48
1
60
0
100
AcDbSpline
70
4
71
3
72
8
73
4
40
0
40
0
40
0
40
0
40
1
40
1
40
1
40
1
41
1
10
14.6218366420567
20
30.7007080537241
30
-9E-16
41
1
10
14.0882030330967
20
29.7448373759257
30
9E-16
41
1
10
13.5557864775559
20
28.7882719402275
30
8E-16
41
1
10
13.025
20
27.8308227937021
30
8E-16
0
LINE
5
7C
100
AcDbEntity
8
SK1
62
256
6
ByLayer
370
18
48
1
60
0
100
AcDbLine
10
-68.25
20
11.406204
30
0
11
-68.25
21
0
31
0
39
0
210
0
220
0
230
1
0
LINE
5
7E
100
AcDbEntity
8
SK1
62
256
6
ByLayer
370
18
48
1
60
0
100
AcDbLine
10
-68.25
20
0
30
0
11
-68.25
21
-11.406204
31
0
39
0
210
0
220
0
230
1
0
LINE
5
7F
100
AcDbEntity
8
SK1
62
256
6
ByLayer
370
13
48
1
60
0
100
AcDbLine
10
-67.39432
20
-12.395735
30
0
11
-67.39432
21
12.395735
31
0
39
0
210
0
220
0
230
1
0
LINE
5
80
100
AcDbEntity
8
SK1
62
256
6
ByLayer
370
18
48
1
60
0
100
AcDbLine
10
0
20
22.225
30
0
11
0
21
0
31
0
39
0
210
0
220
0
230
1
0
LINE
5
81
100
AcDbEntity
8
SK1
62
256
6
ByLayer
370
18
48
1
60
0
100
AcDbLine
10
0
20
0
30
0
11
0
21
-22.225
31
0
39
0
210
0
220
0
230
1
0
LINE
5
82
100
AcDbEntity
8
1
62
256
6
ByLayer
370
18
48
1
60
0
100
AcDbLine
10
9.175
20
22.435713
30
0
11
9.175
21
21.148936
31
0
39
0
210
0
220
0
230
1
0
LINE
5
83
100
AcDbEntity
8
1
62
256
6
ByLayer
370
18
48
1
60
0
100
AcDbLine
10
19.05
20
29.665358
30
0
11
19.05
21
24.674683
31
0
39
0
210
0
220
0
230
1
0
LINE
5
84
100
AcDbEntity
8
1
62
256
6
ByLayer
370
18
48
1
60
0
100
AcDbLine
10
7.578163
20
18.35
30
0
11
4.2
21
18.35
31
0
39
0
210
0
220
0
230
1
0
LINE
5
85
100
AcDbEntity
8
1
62
256
6
ByLayer
370
18
48
1
60
0
100
AcDbLine
10
13.025
20
27.830823
30
0
11
13.025
21
22.435713
31
0
39
0
210
0
220
0
230
1
0
LINE
5
86
100
AcDbEntity
8
1
62
256
6
ByLayer
370
18
48
1
60
0
100
AcDbLine
10
3.2
20
-29.524371
30
0
11
3.2
21
18.35
31
0
39
0
210
0
220
0
230
1
0
LINE
5
87
100
AcDbEntity
8
1
62
256
6
ByLayer
370
13
48
1
60
0
100
AcDbLine
10
20.05
20
24.8
30
0
11
20.05
21
-23.653139
31
0
39
0
210
0
220
0
230
1
0
LINE
5
88
100
AcDbEntity
8
1
62
256
6
ByLayer
370
18
48
1
60
0
100
AcDbLine
10
19.05
20
18.35
30
0
11
19.05
21
-29.665358
31
0
39
0
210
0
220
0
230
1
0
LINE
5
89
100
AcDbEntity
8
1
62
256
6
ByLayer
370
18
48
1
60
0
100
AcDbLine
10
7.578163
20
-30.700708
30
0
11
7.578163
21
18.35
31
0
39
0
210
0
220
0
230
1
0
LINE
5
8A
100
AcDbEntity
8
1
62
256
6
ByLayer
370
18
48
1
60
0
100
AcDbLine
10
9.175
20
18.35
30
0
11
9.175
21
-27.830823
31
0
39
0
210
0
220
0
230
1
0
LINE
5
8B
100
AcDbEntity
8
1
62
256
6
ByLayer
370
18
48
1
60
0
100
AcDbLine
10
1.266542
20
22
30
0
11
1.266542
21
-22
31
0
39
0
210
0
220
0
230
1
0
LINE
5
8C
100
AcDbEntity
8
1
62
256
6
ByLayer
370
18
48
1
60
0
100
AcDbLine
10
19.05
20
18.419487
30
0
11
19.05
21
24.674683
31
0
39
0
210
0
220
0
230
1
0
LINE
5
8D
100
AcDbEntity
8
1
62
256
6
ByLayer
370
13
48
1
60
0
100
AcDbLine
10
4.2
20
18.35
30
0
11
4.2
21
-30.700708
31
0
39
0
210
0
220
0
230
1
0
LINE
5
8E
100
AcDbEntity
8
1
62
256
6
ByLayer
370
18
48
1
60
0
100
AcDbLine
10
13.025
20
18.35
30
0
11
13.025
21
-27.830823
31
0
39
0
210
0
220
0
230
1
0
LINE
5
8F
100
AcDbEntity
8
1
62
256
6
ByLayer
370
18
48
1
60
0
100
AcDbLine
10
9.175
20
18.35
30
0
11
13.025
21
18.35
31
0
39
0
210
0
220
0
230
1
0
LINE
5
90
100
AcDbEntity
8
1
62
256
6
ByLayer
370
18
48
1
60
0
100
AcDbLine
10
24.2
20
24.8
30
0
11
24.2
21
25
31
0
39
0
210
0
220
0
230
1
0
LINE
5
91
100
AcDbEntity
8
1
62
256
6
ByLayer
370
18
48
1
60
0
100
AcDbLine
10
7.578163
20
25.91023
30
0
11
7.578163
21
30.700708
31
0
39
0
210
0
220
0
230
1
0
LINE
5
92
100
AcDbEntity
8
1
62
256
6
ByLayer
370
18
48
1
60
0
100
AcDbLine
10
0
20
22.225
30
0
11
0
21
0
31
0
39
0
210
0
220
0
230
1
0
LINE
5
93
100
AcDbEntity
8
1
62
256
6
ByLayer
370
18
48
1
60
0
100
AcDbLine
10
0
20
0
30
0
11
0
21
-22.225
31
0
39
0
210
0
220
0
230
1
0
LINE
5
94
100
AcDbEntity
8
1
62
256
6
ByLayer
370
18
48
1
60
0
100
AcDbLine
10
4.2
20
30.700708
30
0
11
7.578163
21
30.700708
31
0
39
0
210
0
220
0
230
1
0
LINE
5
95
100
AcDbEntity
8
1
62
256
6
ByLayer
370
18
48
1
60
0
100
AcDbLine
10
3.2
20
24.674683
30
0
11
3.2
21
29.524371
31
0
39
0
210
0
220
0
230
1
0
LINE
5
96
100
AcDbEntity
8
1
62
256
6
ByLayer
370
18
48
1
60
0
100
AcDbLine
10
7.578163
20
25.91023
30
0
11
4.2
21
25.91023
31
0
39
0
210
0
220
0
230
1
0
LINE
5
97
100
AcDbEntity
8
1
62
256
6
ByLayer
370
18
48
1
60
0
100
AcDbLine
10
13.025
20
21.148936
30
0
11
13.025
21
22.435713
31
0
39
0
210
0
220
0
230
1
0
LINE
5
98
100
AcDbEntity
8
1
62
256
6
ByLayer
370
18
48
1
60
0
100
AcDbLine
10
14.621837
20
18.35
30
0
11
14.621837
21
-30.700708
31
0
39
0
210
0
220
0
230
1
0
LINE
5
99
100
AcDbEntity
8
1
62
256
6
ByLayer
370
18
48
1
60
0
100
AcDbLine
10
24.2
20
-24.662339
30
0
11
24.2
21
-25
31
0
39
0
210
0
220
0
230
1
0
LINE
5
9A
100
AcDbEntity
8
1
62
256
6
ByLayer
370
13
48
1
60
0
100
AcDbLine
10
18.05
20
-30.700708
30
0
11
18.05
21
18.35
31
0
39
0
210
0
220
0
230
1
0
LINE
5
9B
100
AcDbEntity
8
1
62
256
6
ByLayer
370
18
48
1
60
0
100
AcDbLine
10
9.175
20
27.830823
30
0
11
9.175
21
22.435713
31
0
39
0
210
0
220
0
230
1
0
LINE
5
9C
100
AcDbEntity
8
1
62
256
6
ByLayer
370
18
48
1
60
0
100
AcDbLine
10
20.05
20
-23.653139
30
0
11
20.2
21
-23.653139
31
0
39
0
210
0
220
0
230
1
0
LINE
5
9D
100
AcDbEntity
8
1
62
256
6
ByLayer
370
13
48
1
60
0
100
AcDbLine
10
18.05
20
25.91023
30
0
11
18.05
21
30.700708
31
0
39
0
210
0
220
0
230
1
0
LINE
5
9E
100
AcDbEntity
8
1
62
256
6
ByLayer
370
18
48
1
60
0
100
AcDbLine
10
14.621837
20
30.700708
30
0
11
14.621837
21
25.91023
31
0
39
0
210
0
220
0
230
1
0
LINE
5
9F
100
AcDbEntity
8
1
62
256
6
ByLayer
370
18
48
1
60
0
100
AcDbLine
10
3.2
20
24.674683
30
0
11
3.2
21
18.35
31
0
39
0
210
0
220
0
230
1
0
LINE
5
A0
100
AcDbEntity
8
1
62
256
6
ByLayer
370
18
48
1
60
0
100
AcDbLine
10
0.7
20
22.327093
30
0
11
0.7
21
-22.327093
31
0
39
0
210
0
220
0
230
1
0
LINE
5
A1
100
AcDbEntity
8
1
62
256
6
ByLayer
370
18
48
1
60
0
100
AcDbLine
10
40
20
0
30
0
11
40
21
24.7
31
0
39
0
210
0
220
0
230
1
0
LINE
5
A2
100
AcDbEntity
8
1
62
256
6
ByLayer
370
18
48
1
60
0
100
AcDbLine
10
40
20
-24.7
30
0
11
40
21
0
31
0
39
0
210
0
220
0
230
1
0
LINE
5
A3
100
AcDbEntity
8
1
62
256
6
ByLayer
370
18
48
1
60
0
100
AcDbLine
10
9.175
20
21.148936
30
0
11
13.025
21
21.148936
31
0
39
0
210
0
220
0
230
1
0
LINE
5
A4
100
AcDbEntity
8
1
62
256
6
ByLayer
370
18
48
1
60
0
100
AcDbLine
10
24.2
20
24.8
30
0
11
20.05
21
24.8
31
0
39
0
210
0
220
0
230
1
0
LINE
5
A5
100
AcDbEntity
8
1
62
256
6
ByLayer
370
18
48
1
60
0
100
AcDbLine
10
18.05
20
18.35
30
0
11
14.621837
21
18.35
31
0
39
0
210
0
220
0
230
1
0
LINE
5
A6
100
AcDbEntity
8
1
62
256
6
ByLayer
370
18
48
1
60
0
100
AcDbLine
10
18.05
20
25.91023
30
0
11
14.621837
21
25.91023
31
0
39
0
210
0
220
0
230
1
0
LINE
5
A7
100
AcDbEntity
8
1
62
256
6
ByLayer
370
18
48
1
60
0
100
AcDbLine
10
14.621837
20
30.700708
30
0
11
18.05
21
30.700708
31
0
39
0
210
0
220
0
230
1
0
LINE
5
A8
100
AcDbEntity
8
1
62
256
6
ByLayer
370
18
48
1
60
0
100
AcDbLine
10
4.2
20
-30.700708
30
0
11
7.578163
21
-30.700708
31
0
39
0
210
0
220
0
230
1
0
LINE
5
A9
100
AcDbEntity
8
1
62
256
6
ByLayer
370
18
48
1
60
0
100
AcDbLine
10
39.7
20
0
30
0
11
39.7
21
25
31
0
39
0
210
0
220
0
230
1
0
LINE
5
AA
100
AcDbEntity
8
1
62
256
6
ByLayer
370
18
48
1
60
0
100
AcDbLine
10
39.7
20
-25
30
0
11
39.7
21
0
31
0
39
0
210
0
220
0
230
1
0
LINE
5
AB
100
AcDbEntity
8
1
62
256
6
ByLayer
370
13
48
1
60
0
100
AcDbLine
10
2.85
20
0
30
0
11
2.85
21
22
31
0
39
0
210
0
220
0
230
1
0
LINE
5
AC
100
AcDbEntity
8
1
62
256
6
ByLayer
370
13
48
1
60
0
100
AcDbLine
10
2.85
20
-22
30
0
11
2.85
21
0
31
0
39
0
210
0
220
0
230
1
0
LINE
5
AD
100
AcDbEntity
8
1
62
256
6
ByLayer
370
18
48
1
60
0
100
AcDbLine
10
13.025
20
-26.804309
30
0
11
9.175
21
-26.804309
31
0
39
0
210
0
220
0
230
1
0
LINE
5
AE
100
AcDbEntity
8
1
62
256
6
ByLayer
370
13
48
1
60
0
100
AcDbLine
10
4.2
20
30.700708
30
0
11
4.2
21
25.91023
31
0
39
0
210
0
220
0
230
1
0
LINE
5
AF
100
AcDbEntity
8
1
62
256
6
ByLayer
370
18
48
1
60
0
100
AcDbLine
10
13.025
20
26.804309
30
0
11
9.175
21
26.804309
31
0
39
0
210
0
220
0
230
1
0
LINE
5
B0
100
AcDbEntity
8
1
62
256
6
ByLayer
370
18
48
1
60
0
100
AcDbLine
10
14.621837
20
-30.700708
30
0
11
18.05
21
-30.700708
31
0
39
0
210
0
220
0
230
1
0
LINE
5
B1
100
AcDbEntity
8
SK1
62
256
6
ByLayer
370
18
48
1
60
0
100
AcDbLine
10
43.5
20
-8
30
0
11
43.5
21
8
31
0
39
0
210
0
220
0
230
1
0
LINE
5
B2
100
AcDbEntity
8
SK1
62
256
6
ByLayer
370
18
48
1
60
0
100
AcDbLine
10
44.7
20
-6.8
30
0
11
44.7
21
6.8
31
0
39
0
210
0
220
0
230
1
0
LINE
5
B3
100
AcDbEntity
8
SK4
62
256
6
ByLayer
370
18
48
0.05
60
0
100
AcDbLine
10
-73.25
20
0
30
0
11
45
21
0
31
0
39
0
210
0
220
0
230
1
0
LINE
5
B5
100
AcDbEntity
8
SK1
62
256
6
ByLayer
370
18
48
1
60
0
100
AcDbLine
10
40
20
-8
30
0
11
43.5
21
-8
31
0
39
0
210
0
220
0
230
1
0
LINE
5
B6
100
AcDbEntity
8
SK1
62
256
6
ByLayer
370
18
48
1
60
0
100
AcDbLine
10
43.5
20
8
30
0
11
40
21
8
31
0
39
0
210
0
220
0
230
1
0
LINE
5
B7
100
AcDbEntity
8
SK1
62
256
6
ByLayer
370
18
48
1
60
0
100
AcDbLine
10
44.7
20
6.8
30
0
11
43.5
21
8
31
0
39
0
210
0
220
0
230
1
0
LINE
5
B8
100
AcDbEntity
8
SK1
62
256
6
ByLayer
370
18
48
1
60
0
100
AcDbLine
10
43.5
20
-8
30
0
11
44.7
21
-6.8
31
0
39
0
210
0
220
0
230
1
0
LINE
5
B9
100
AcDbEntity
8
SK1
62
256
6
ByLayer
370
18
48
1
60
0
100
AcDbLine
10
-67.39432
20
-12.395735
30
0
11
0
21
-22.225
31
0
39
0
210
0
220
0
230
1
0
LINE
5
BA
100
AcDbEntity
8
SK1
62
256
6
ByLayer
370
18
48
1
60
0
100
AcDbLine
10
0
20
22.225
30
0
11
-67.39432
21
12.395735
31
0
39
0
210
0
220
0
230
1
0
LINE
5
BB
100
AcDbEntity
8
1
62
256
6
ByLayer
370
18
48
1
60
0
100
AcDbLine
10
0
20
-22.225
30
0
11
0.7
21
-22.327093
31
0
39
0
210
0
220
0
230
1
0
LINE
5
BC
100
AcDbEntity
8
1
62
256
6
ByLayer
370
18
48
1
60
0
100
AcDbLine
10
0.7
20
22.327093
30
0
11
0
21
22.225
31
0
39
0
210
0
220
0
230
1
0
LINE
5
BD
100
AcDbEntity
8
1
62
256
6
ByLayer
370
18
48
1
60
0
100
AcDbLine
10
1.266542
20
-22
30
0
11
2.85
21
-22
31
0
39
0
210
0
220
0
230
1
0
LINE
5
BE
100
AcDbEntity
8
1
62
256
6
ByLayer
370
18
48
1
60
0
100
AcDbLine
10
2.85
20
22
30
0
11
1.266542
21
22
31
0
39
0
210
0
220
0
230
1
0
LINE
5
BF
100
AcDbEntity
8
1
62
256
6
ByLayer
370
18
48
1
60
0
100
AcDbLine
10
1.266542
20
22
30
0
11
0.7
21
22.327093
31
0
39
0
210
0
220
0
230
1
0
LINE
5
C0
100
AcDbEntity
8
1
62
256
6
ByLayer
370
18
48
1
60
0
100
AcDbLine
10
0.7
20
-22.327093
30
0
11
1.266542
21
-22
31
0
39
0
210
0
220
0
230
1
0
LINE
5
C1
100
AcDbEntity
8
1
62
256
6
ByLayer
370
18
48
1
60
0
100
AcDbLine
10
40
20
24.7
30
0
11
39.7
21
25
31
0
39
0
210
0
220
0
230
1
0
LINE
5
C2
100
AcDbEntity
8
1
62
256
6
ByLayer
370
18
48
1
60
0
100
AcDbLine
10
39.7
20
-25
30
0
11
40
21
-24.7
31
0
39
0
210
0
220
0
230
1
0
LINE
5
C3
100
AcDbEntity
8
1
62
256
6
ByLayer
370
18
48
1
60
0
100
AcDbLine
10
39.7
20
25
30
0
11
24.2
21
25
31
0
39
0
210
0
220
0
230
1
0
LINE
5
C4
100
AcDbEntity
8
4
62
256
6
ByLayer
370
18
48
0.05
60
0
100
AcDbLine
10
0
20
0
30
0
11
40
21
0
31
0
39
0
210
0
220
0
230
1
0
LINE
5
C6
100
AcDbEntity
8
80
62
256
6
ByLayer
370
18
48
1
60
0
100
AcDbLine
10
0
20
0
30
0
11
-6.08897
21
0
31
0
39
0
210
0
220
0
230
1
0
LINE
5
C7
100
AcDbEntity
8
1
62
256
6
ByLayer
370
18
48
1
60
0
100
AcDbLine
10
24.2
20
-25
30
0
11
39.7
21
-25
31
0
39
0
210
0
220
0
230
1
0
LINE
5
C8
100
AcDbEntity
8
81
62
256
6
ByLayer
370
18
48
1
60
0
100
AcDbLine
10
40
20
0
30
0
11
42.367097
21
0
31
0
39
0
210
0
220
0
230
1
0
LINE
5
C9
100
AcDbEntity
8
SK2
62
256
6
ByLayer
370
13
48
1
60
0
100
AcDbLine
10
-89.85
20
31.75
30
0
11
-89.85
21
-31.75
31
0
39
0
210
0
220
0
230
1
0
LINE
5
CB
100
AcDbEntity
8
SK2
62
256
6
ByLayer
370
13
48
1
60
0
100
AcDbLine
10
-1.5875
20
-31.75
30
0
11
-91.85
21
-31.75
31
0
39
0
210
0
220
0
230
1
0
LINE
5
CC
100
AcDbEntity
8
SK2
62
256
6
ByLayer
370
13
48
1
60
0
100
AcDbLine
10
-1.5875
20
31.75
30
0
11
-91.85
21
31.75
31
0
39
0
210
0
220
0
230
1
0
LINE
5
CD
100
AcDbEntity
8
1
62
256
6
ByLayer
370
18
48
1
60
1
100
AcDbLine
10
-89.85
20
-31.75
30
0
11
-90.310784
21
-28.250002
31
0
39
0
210
0
220
0
230
1
0
LINE
5
CE
100
AcDbEntity
8
1
62
256
6
ByLayer
370
18
48
1
60
1
100
AcDbLine
10
-90.310784
20
-28.250002
30
0
11
-89.389216
21
-28.249998
31
0
39
0
210
0
220
0
230
1
0
LINE
5
CF
100
AcDbEntity
8
1
62
256
6
ByLayer
370
18
48
1
60
1
100
AcDbLine
10
-89.389216
20
-28.249998
30
0
11
-89.85
21
-31.75
31
0
39
0
210
0
220
0
230
1
0
LINE
5
D0
100
AcDbEntity
8
1
62
256
6
ByLayer
370
18
48
1
60
1
100
AcDbLine
10
-89.85
20
31.75
30
0
11
-89.389216
21
28.250002
31
0
39
0
210
0
220
0
230
1
0
LINE
5
D1
100
AcDbEntity
8
1
62
256
6
ByLayer
370
18
48
1
60
1
100
AcDbLine
10
-89.389216
20
28.250002
30
0
11
-90.310784
21
28.249998
31
0
39
0
210
0
220
0
230
1
0
LINE
5
D2
100
AcDbEntity
8
1
62
256
6
ByLayer
370
18
48
1
60
1
100
AcDbLine
10
-90.310784
20
28.249998
30
0
11
-89.85
21
31.75
31
0
39
0
210
0
220
0
230
1
0
LINE
5
D3
100
AcDbEntity
8
SK2
62
256
6
ByLayer
370
13
48
1
60
0
100
AcDbLine
10
65.1
20
25
30
0
11
65.1
21
-25
31
0
39
0
210
0
220
0
230
1
0
LINE
5
D4
100
AcDbEntity
8
SK2
62
256
6
ByLayer
370
13
48
1
60
0
100
AcDbLine
10
41.5875
20
-25
30
0
11
67.1
21
-25
31
0
39
0
210
0
220
0
230
1
0
LINE
5
D5
100
AcDbEntity
8
SK2
62
256
6
ByLayer
370
13
48
1
60
0
100
AcDbLine
10
41.5875
20
25
30
0
11
67.1
21
25
31
0
39
0
210
0
220
0
230
1
0
LINE
5
D6
100
AcDbEntity
8
1
62
256
6
ByLayer
370
18
48
1
60
1
100
AcDbLine
10
65.1
20
-25
30
0
11
64.639216
21
-21.500002
31
0
39
0
210
0
220
0
230
1
0
LINE
5
D7
100
AcDbEntity
8
1
62
256
6
ByLayer
370
18
48
1
60
1
100
AcDbLine
10
64.639216
20
-21.500002
30
0
11
65.560784
21
-21.499998
31
0
39
0
210
0
220
0
230
1
0
LINE
5
D8
100
AcDbEntity
8
1
62
256
6
ByLayer
370
18
48
1
60
1
100
AcDbLine
10
65.560784
20
-21.499998
30
0
11
65.1
21
-25
31
0
39
0
210
0
220
0
230
1
0
LINE
5
D9
100
AcDbEntity
8
1
62
256
6
ByLayer
370
18
48
1
60
1
100
AcDbLine
10
65.1
20
25
30
0
11
65.560784
21
21.500002
31
0
39
0
210
0
220
0
230
1
0
LINE
5
DA
100
AcDbEntity
8
1
62
256
6
ByLayer
370
18
48
1
60
1
100
AcDbLine
10
65.560784
20
21.500002
30
0
11
64.639216
21
21.499998
31
0
39
0
210
0
220
0
230
1
0
LINE
5
DB
100
AcDbEntity
8
1
62
256
6
ByLayer
370
18
48
1
60
1
100
AcDbLine
10
64.639216
20
21.499998
30
0
11
65.1
21
25
31
0
39
0
210
0
220
0
230
1
0
LINE
5
FD
100
AcDbEntity
8
1
62
256
6
ByLayer
370
18
48
1
60
1
100
AcDbLine
10
-89.85
20
-31.75
30
0
11
-90.310784
21
-28.250002
31
0
39
0
210
0
220
0
230
1
0
LINE
5
FE
100
AcDbEntity
8
1
62
256
6
ByLayer
370
18
48
1
60
1
100
AcDbLine
10
-90.310784
20
-28.250002
30
0
11
-89.389216
21
-28.249998
31
0
39
0
210
0
220
0
230
1
0
LINE
5
FF
100
AcDbEntity
8
1
62
256
6
ByLayer
370
18
48
1
60
1
100
AcDbLine
10
-89.389216
20
-28.249998
30
0
11
-89.85
21
-31.75
31
0
39
0
210
0
220
0
230
1
0
LINE
5
101
100
AcDbEntity
8
1
62
256
6
ByLayer
370
18
48
1
60
1
100
AcDbLine
10
-89.85
20
31.75
30
0
11
-89.389216
21
28.250002
31
0
39
0
210
0
220
0
230
1
0
LINE
5
102
100
AcDbEntity
8
1
62
256
6
ByLayer
370
18
48
1
60
1
100
AcDbLine
10
-89.389216
20
28.250002
30
0
11
-90.310784
21
28.249998
31
0
39
0
210
0
220
0
230
1
0
LINE
5
103
100
AcDbEntity
8
1
62
256
6
ByLayer
370
18
48
1
60
1
100
AcDbLine
10
-90.310784
20
28.249998
30
0
11
-89.85
21
31.75
31
0
39
0
210
0
220
0
230
1
0
LINE
5
107
100
AcDbEntity
8
1
62
256
6
ByLayer
370
18
48
1
60
1
100
AcDbLine
10
65.1
20
-25
30
0
11
64.639216
21
-21.500002
31
0
39
0
210
0
220
0
230
1
0
LINE
5
108
100
AcDbEntity
8
1
62
256
6
ByLayer
370
18
48
1
60
1
100
AcDbLine
10
64.639216
20
-21.500002
30
0
11
65.560784
21
-21.499998
31
0
39
0
210
0
220
0
230
1
0
LINE
5
109
100
AcDbEntity
8
1
62
256
6
ByLayer
370
18
48
1
60
1
100
AcDbLine
10
65.560784
20
-21.499998
30
0
11
65.1
21
-25
31
0
39
0
210
0
220
0
230
1
0
LINE
5
10B
100
AcDbEntity
8
1
62
256
6
ByLayer
370
18
48
1
60
1
100
AcDbLine
10
65.1
20
25
30
0
11
65.560784
21
21.500002
31
0
39
0
210
0
220
0
230
1
0
LINE
5
10C
100
AcDbEntity
8
1
62
256
6
ByLayer
370
18
48
1
60
1
100
AcDbLine
10
65.560784
20
21.500002
30
0
11
64.639216
21
21.499998
31
0
39
0
210
0
220
0
230
1
0
LINE
5
10D
100
AcDbEntity
8
1
62
256
6
ByLayer
370
18
48
1
60
1
100
AcDbLine
10
64.639216
20
21.499998
30
0
11
65.1
21
25
31
0
39
0
210
0
220
0
230
1
0
MTEXT
5
F9
100
AcDbEntity
8
SK2
62
256
6
ByLayer
370
18
48
1
60
0
100
AcDbMText
10
-91.414634
20
-5.579154
30
0
210
0
220
0
230
1
1
%%c
40
3.5
41
0
44
1.084337
50
90
71
7
72
5
7
iso_b_vert
0
MTEXT
5
FC
100
AcDbEntity
8
SK2
62
256
6
ByLayer
370
18
48
1
60
0
100
AcDbMText
10
-91.414634
20
-0.356497
30
0
210
0
220
0
230
1
1
\W0.7150;63,5
40
3.5
41
0
44
1.084337
50
90
71
7
72
5
7
iso_b_vert
0
MTEXT
5
105
100
AcDbEntity
8
SK2
62
256
6
ByLayer
370
18
48
1
60
0
100
AcDbMText
10
63.535366
20
-3.655088
30
0
210
0
220
0
230
1
1
%%c
40
3.5
41
0
44
1.084337
50
90
71
7
72
5
7
iso_b_vert
0
MTEXT
5
106
100
AcDbEntity
8
SK2
62
256
6
ByLayer
370
18
48
1
60
0
100
AcDbMText
10
63.535366
20
1.567568
30
0
210
0
220
0
230
1
1
\W0.6740;50
40
3.5
41
0
44
1.084337
50
90
71
7
72
5
7
iso_b_vert
0
MTEXT
5
10F
100
AcDbEntity
8
SK6
62
256
6
ByLayer
370
18
48
1
60
0
100
AcDbMText
10
0.1855
20
-47.467366
30
0
210
0
220
0
230
1
1
\W0.7525;C5-390B.140-40040
40
3.5
41
0
44
1.084337
50
0
71
7
72
5
7
iso_b_vert
0
HATCH
5
100
100
AcDbEntity
8
SK2
62
256
6
ByLayer
370
13
48
1
60
0
100
AcDbHatch
10
0
20
0
30
0
210
0
220
0
230
1
2
ANSI31
70
0
71
0
91
1
92
5
93
3
72
1
10
-89.85
20
-31.75
11
-90.3107837415528
21
-28.2500016925532
72
1
10
-90.3107837415528
20
-28.2500016925532
11
-89.3892162584472
21
-28.2499983074468
72
1
10
-89.3892162584472
20
-28.2499983074468
11
-89.85
21
-31.75
97
0
75
0
76
1
52
0
41
0.0062
77
0
78
1
53
45
43
0
44
0
45
-0.0139193969876572
46
0.0139193969876572
79
0
47
0
98
1
10
0
20
0
0
HATCH
5
104
100
AcDbEntity
8
SK2
62
256
6
ByLayer
370
13
48
1
60
0
100
AcDbHatch
10
0
20
0
30
0
210
0
220
0
230
1
2
ANSI31
70
0
71
0
91
1
92
5
93
3
72
1
10
-89.85
20
31.75
11
-89.3892162584472
21
28.2500016925532
72
1
10
-89.3892162584472
20
28.2500016925532
11
-90.3107837415528
21
28.2499983074468
72
1
10
-90.3107837415528
20
28.2499983074468
11
-89.85
21
31.75
97
0
75
0
76
1
52
0
41
0.0062
77
0
78
1
53
45
43
0
44
0
45
-0.0139193969876572
46
0.0139193969876572
79
0
47
0
98
1
10
0
20
0
0
HATCH
5
10A
100
AcDbEntity
8
SK2
62
256
6
ByLayer
370
13
48
1
60
0
100
AcDbHatch
10
0
20
0
30
0
210
0
220
0
230
1
2
ANSI31
70
0
71
0
91
1
92
5
93
3
72
1
10
65.1
20
-25
11
64.6392162584472
21
-21.5000016925532
72
1
10
64.6392162584472
20
-21.5000016925532
11
65.5607837415528
21
-21.4999983074468
72
1
10
65.5607837415528
20
-21.4999983074468
11
65.1
21
-25
97
0
75
0
76
1
52
0
41
0.0062
77
0
78
1
53
45
43
0
44
0
45
-0.0139193969876572
46
0.0139193969876572
79
0
47
0
98
1
10
0
20
0
0
HATCH
5
10E
100
AcDbEntity
8
SK2
62
256
6
ByLayer
370
13
48
1
60
0
100
AcDbHatch
10
0
20
0
30
0
210
0
220
0
230
1
2
ANSI31
70
0
71
0
91
1
92
5
93
3
72
1
10
65.1
20
25
11
65.5607837415528
21
21.5000016925532
72
1
10
65.5607837415528
20
21.5000016925532
11
64.6392162584472
21
21.4999983074468
72
1
10
64.6392162584472
20
21.4999983074468
11
65.1
21
25
97
0
75
0
76
1
52
0
41
0.0062
77
0
78
1
53
45
43
0
44
0
45
-0.0139193969876572
46
0.0139193969876572
79
0
47
0
98
1
10
0
20
0
0
DIMENSION
5
112
100
AcDbEntity
8
SK2
62
256
6
ByLayer
370
18
48
1
60
0
100
AcDbDimension
2
_U0
10
19.05
20
47.362847
30
0
11
9.525
21
47.362847
31
0
70
32
71
1
72
1
41
1
210
0
220
0
230
1
3
Standard
100
AcDbAlignedDimension
13
0
23
31.75
33
0
14
19.05
24
31.75
34
0
50
0
100
AcDbRotatedDimension
1001
ACAD
1000
DSTYLE
1002
{
1070
   371
1070
    13
1070
   372
1070
    13
1070
   170
1070
     0
1070
   144
1040
1.0
1070
   277
1070
     2
1070
   284
1070
     8
1070
   278
1070
    44
1070
   146
1040
1.0
1070
   345
1005
16
1070
   347
1005
16
1070
   346
1005
16
1070
   344
1005
0
1070
   343
1005
0
1070
   172
1070
     1
1070
    76
1070
     0
1070
    75
1070
     0
1070
   282
1070
     0
1070
   281
1070
     0
1070
    71
1070
     0
1070
    74
1070
     0
1070
   279
1070
     0
1070
   173
1070
     1
1070
   340
1005
FA
1070
   271
1070
     1
1070
   272
1070
     2
1070
    77
1070
     1
1070
    73
1070
     1
1070
   171
1070
     3
1070
   274
1070
     4
1070
   177
1070
     2
1070
   176
1070
     2
1070
   178
1070
     2
1070
    78
1070
     8
1070
    48
1040
-0.1
1070
    41
1040
3.5
1070
   147
1040
1.75
1070
    42
1040
1.5875
1070
    44
1040
2.0
1070
   140
1040
3.5
1002
}
1001
ACAD_DSTYLE_DIM_LINETYPE
1070
   380
1005
16
1001
ACAD_DSTYLE_DIM_EXT1_LINETYPE
1070
   381
1005
16
1001
ACAD_DSTYLE_DIM_EXT2_LINETYPE
1070
   382
1005
16
0
DIMENSION
5
12B
100
AcDbEntity
8
2
62
256
6
ByLayer
370
18
48
1
60
0
100
AcDbDimension
2
_U1
10
0
20
57.362847
30
0
11
20
21
57.362847
31
0
70
32
71
1
72
1
41
1
210
0
220
0
230
1
3
Standard
100
AcDbAlignedDimension
13
40
23
25
33
0
14
0
24
31.75
34
0
50
0
100
AcDbRotatedDimension
1001
ACAD
1000
DSTYLE
1002
{
1070
   371
1070
    13
1070
   372
1070
    13
1070
   170
1070
     0
1070
   144
1040
1.0
1070
   277
1070
     2
1070
   284
1070
     8
1070
   278
1070
    44
1070
   146
1040
1.0
1070
   345
1005
16
1070
   347
1005
16
1070
   346
1005
16
1070
   344
1005
0
1070
   343
1005
0
1070
   172
1070
     1
1070
    76
1070
     0
1070
    75
1070
     0
1070
   282
1070
     0
1070
   281
1070
     0
1070
    71
1070
     0
1070
    74
1070
     0
1070
   279
1070
     0
1070
   173
1070
     1
1070
   340
1005
FA
1070
   271
1070
     1
1070
   272
1070
     2
1070
    77
1070
     1
1070
    73
1070
     1
1070
   171
1070
     3
1070
   274
1070
     4
1070
   177
1070
     2
1070
   176
1070
     2
1070
   178
1070
     2
1070
    78
1070
     8
1070
    48
1040
-0.1
1070
    41
1040
3.5
1070
   147
1040
1.75
1070
    42
1040
1.5875
1070
    44
1040
2.0
1070
   140
1040
3.5
1002
}
1001
ACAD_DSTYLE_DIM_LINETYPE
1070
   380
1005
16
1001
ACAD_DSTYLE_DIM_EXT1_LINETYPE
1070
   381
1005
16
1001
ACAD_DSTYLE_DIM_EXT2_LINETYPE
1070
   382
1005
16
0
DIMENSION
5
144
100
AcDbEntity
8
SK2
62
256
6
ByLayer
370
18
48
1
60
0
100
AcDbDimension
2
_U2
10
0
20
57.362847
30
0
11
-34.125
21
57.362847
31
0
70
32
71
1
72
1
41
1
210
0
220
0
230
1
3
Standard
100
AcDbAlignedDimension
13
-68.25
23
12.5
33
0
14
0
24
31.75
34
0
50
0
100
AcDbRotatedDimension
1001
ACAD
1000
DSTYLE
1002
{
1070
   371
1070
    13
1070
   372
1070
    13
1070
   170
1070
     0
1070
   144
1040
1.0
1070
   277
1070
     2
1070
   284
1070
     8
1070
   278
1070
    44
1070
   146
1040
1.0
1070
   345
1005
16
1070
   347
1005
16
1070
   346
1005
16
1070
   344
1005
0
1070
   343
1005
0
1070
   172
1070
     1
1070
    76
1070
     0
1070
    75
1070
     0
1070
   282
1070
     0
1070
   281
1070
     0
1070
    71
1070
     0
1070
    74
1070
     0
1070
   279
1070
     0
1070
   173
1070
     1
1070
   340
1005
FA
1070
   271
1070
     1
1070
   272
1070
     2
1070
    77
1070
     1
1070
    73
1070
     1
1070
   171
1070
     3
1070
   274
1070
     4
1070
   177
1070
     2
1070
   176
1070
     2
1070
   178
1070
     2
1070
    78
1070
     8
1070
    48
1040
-0.1
1070
    41
1040
3.5
1070
   147
1040
1.75
1070
    42
1040
1.5875
1070
    44
1040
2.0
1070
   140
1040
3.5
1002
}
1001
ACAD_DSTYLE_DIM_LINETYPE
1070
   380
1005
16
1001
ACAD_DSTYLE_DIM_EXT1_LINETYPE
1070
   381
1005
16
1001
ACAD_DSTYLE_DIM_EXT2_LINETYPE
1070
   382
1005
16
0
ENDSEC
0
SECTION
2
OBJECTS
0
DICTIONARY
5
1cc
330
0
100
AcDbDictionary
280
0
281
1
3
ACAD_GROUP
350
1cd
3
ACAD_MLINESTYLE
350
1ce
0
DICTIONARY
5
1cd
330
0
100
AcDbDictionary
280
0
281
1
0
DICTIONARY
5
1ce
330
0
100
AcDbDictionary
280
0
281
1
3
Standard
350
18
0
MLINESTYLE
5
18
330
1ce
100
AcDbMlineStyle
2
Standard
70
0
3

62
256
51
90
52
90
71
2
49
-0.5
62
256
6
ByLayer
49
0.5
62
256
6
ByLayer
0
RASTERVARIABLES
5
1ba
330

100
AcDbRasterVariables
90
0
70
1
71
1
72
1
0
ENDSEC
0
EOF
