0
SECTION
2
HEADER
9
$ACADVER
1
AC1015
9
$DWGCODEPAGE
3
ANSI_1252
9
$HANDSEED
5
398
9
$ANGBASE
50
0
9
$ANGDIR
70
0
9
$ATTMODE
70
1
9
$AUNITS
70
0
9
$AUPREC
70
0
9
$CECOLOR
62
256
9
$CELTSCALE
40
1
9
$CELTYPE
6
ByLayer
9
$CELWEIGHT
370
-1
9
$CLAYER
8
0
9
$CMLJUST
70
0
9
$CMLSCALE
40
1
9
$CMLSTYLE
2
Standard
9
$DIMSTYLE
2
Standard
9
$TEXTSIZE
40
0.2
9
$TEXTSTYLE
7
Standard
9
$LUNITS
70
2
9
$LUPREC
70
4
9
$EXTNAMES
290
1
9
$INSUNITS
70
4
9
$LTSCALE
40
1
9
$LWDISPLAY
290
0
9
$PDMODE
70
0
9
$PDSIZE
40
0
9
$PLINEGEN
70
0
0
ENDSEC
0
SECTION
2
CLASSES
0
CLASS
1
RASTERVARIABLES
2
AcDbRasterVariables
3
ISM
90
0
280
0
281
0
0
ENDSEC
0
SECTION
2
TABLES
0
TABLE
2
VPORT
5
38e
100
AcDbSymbolTable
0
VPORT
5
1
100
AcDbSymbolTableRecord
100
AcDbViewportTableRecord
2
*Active
70
0
10
0
20
0
11
1
21
1
12
-1
22
1
13
0
23
0
14
0.5
24
0.5
15
10
25
10
16
0
26
0
36
1
17
0
27
0
37
0
0
ENDTAB
0
TABLE
2
LTYPE
5
38f
100
AcDbSymbolTable
0
LTYPE
5
14
100
AcDbSymbolTableRecord
100
AcDbLinetypeTableRecord
70
0
2
ByBlock
3

72
65
73
0
40
0
0
LTYPE
5
15
100
AcDbSymbolTableRecord
100
AcDbLinetypeTableRecord
70
0
2
ByLayer
3

72
65
73
0
40
0
0
LTYPE
5
16
100
AcDbSymbolTableRecord
100
AcDbLinetypeTableRecord
70
0
2
CONTINUOUS
3
Solid line
72
65
73
0
40
0
0
LTYPE
5
3B
100
AcDbSymbolTableRecord
100
AcDbLinetypeTableRecord
70
0
2
DASHED
3
__ __ __ __ __ __ __ __ __
72
65
73
2
40
25.72
49
12.86
74
0
49
-12.86
74
0
0
LTYPE
5
3C
100
AcDbSymbolTableRecord
100
AcDbLinetypeTableRecord
70
0
2
HIDDEN
3
_ _ _ _ _ _ _ _ _ _ _ _ _ _ _
72
65
73
2
40
0.5
49
0.25
74
0
49
-0.25
74
0
0
LTYPE
5
3D
100
AcDbSymbolTableRecord
100
AcDbLinetypeTableRecord
70
0
2
PHANTOM
3
____ _ _ ____ _ _ _____ _ _ ____
72
65
73
6
40
50.5
49
18
74
0
49
-6.5
74
0
49
6.5
74
0
49
-6.5
74
0
49
6.5
74
0
49
-6.5
74
0
0
LTYPE
5
3E
100
AcDbSymbolTableRecord
100
AcDbLinetypeTableRecord
70
0
2
CENTER
3
____ _ ____ _ ____ _ ____
72
65
73
4
40
47.5
49
22
74
0
49
-8.5
74
0
49
8.5
74
0
49
-8.5
74
0
0
LTYPE
5
3F
100
AcDbSymbolTableRecord
100
AcDbLinetypeTableRecord
70
0
2
DOT
3
.........................
72
65
73
2
40
10
49
0
74
0
49
-10
74
0
0
LTYPE
5
40
100
AcDbSymbolTableRecord
100
AcDbLinetypeTableRecord
70
0
2
DASHDOT
3
_._._._._._._._._._._._._._._._.
72
65
73
4
40
70
49
31
74
0
49
-13
74
0
49
13
74
0
49
-13
74
0
0
ENDTAB
0
TABLE
2
LAYER
5
390
100
AcDbSymbolTable
0
LAYER
5
10
100
AcDbSymbolTableRecord
100
AcDbLayerTableRecord
2
0
70
0
62
7
6
CONTINUOUS
290
1
370
-3
390
0
0
LAYER
5
42
100
AcDbSymbolTableRecord
100
AcDbLayerTableRecord
2
80
70
0
62
-6
6
CONTINUOUS
290
1
370
-3
390
0
0
LAYER
5
44
100
AcDbSymbolTableRecord
100
AcDbLayerTableRecord
2
81
70
0
62
-3
6
CONTINUOUS
290
1
370
-3
390
0
0
LAYER
5
46
100
AcDbSymbolTableRecord
100
AcDbLayerTableRecord
2
2
70
0
62
7
6
CONTINUOUS
290
1
370
-3
390
0
0
LAYER
5
48
100
AcDbSymbolTableRecord
100
AcDbLayerTableRecord
2
1
70
0
62
4
6
CONTINUOUS
290
1
370
-3
390
0
0
LAYER
5
60
100
AcDbSymbolTableRecord
100
AcDbLayerTableRecord
2
4
70
0
62
-2
6
CENTER
290
1
370
-3
390
0
0
LAYER
5
37a
100
AcDbSymbolTableRecord
100
AcDbLayerTableRecord
2
SK4
70
0
62
2
6
CENTER
290
1
370
-3
390
0
0
LAYER
5
37b
100
AcDbSymbolTableRecord
100
AcDbLayerTableRecord
2
SK1
70
0
62
4
6
CONTINUOUS
290
1
370
-3
390
0
0
LAYER
5
37c
100
AcDbSymbolTableRecord
100
AcDbLayerTableRecord
2
SK6
70
0
62
5
6
CONTINUOUS
290
1
370
-3
390
0
0
LAYER
5
37d
100
AcDbSymbolTableRecord
100
AcDbLayerTableRecord
2
SK2
70
0
62
7
6
CONTINUOUS
290
1
370
-3
390
0
0
ENDTAB
0
TABLE
2
STYLE
5
391
100
AcDbSymbolTable
0
STYLE
5
11
100
AcDbSymbolTableRecord
100
AcDbTextStyleTableRecord
2
Standard
3
txt
70
0
71
0
40
0
41
1
42
0
50
0
0
STYLE
5
2F6
100
AcDbSymbolTableRecord
100
AcDbTextStyleTableRecord
2
DEFAULT
3
simplex.shx
70
0
71
0
40
0
41
1
42
0
50
0
0
STYLE
5
319
100
AcDbSymbolTableRecord
100
AcDbTextStyleTableRecord
2
DWGDirectTextStyle
3
SIMPLEX
70
0
71
0
40
0
41
1
42
0
50
0
0
ENDTAB
0
TABLE
2
DIMSTYLE
5
392
100
AcDbSymbolTable
100
AcDbDimStyleTable
0
DIMSTYLE
105
27
100
AcDbSymbolTableRecord
100
AcDbDimStyleTableRecord
2
Standard
70
0
3
<>
41
0.18
42
0.0625
44
0.18
140
0.18
147
0.09
73
0
74
0
77
1
271
2
275
0
278
52
280
0
340
11
0
ENDTAB
0
TABLE
2
VIEW
5
393
100
AcDbSymbolTable
0
ENDTAB
0
TABLE
2
UCS
5
394
100
AcDbSymbolTable
0
ENDTAB
0
TABLE
2
APPID
5
395
100
AcDbSymbolTable
0
APPID
5
12
100
AcDbSymbolTableRecord
100
AcDbRegAppTableRecord
2
ACAD
70
0
0
ENDTAB
0
TABLE
2
BLOCK_RECORD
5
396
100
AcDbSymbolTable
0
BLOCK_RECORD
5
1F
100
AcDbSymbolTableRecord
100
AcDbBlockTableRecord
2
*Model_Space
340
0
70
0
0
BLOCK_RECORD
5
1B
100
AcDbSymbolTableRecord
100
AcDbBlockTableRecord
2
*Paper_Space
340
0
70
0
0
BLOCK_RECORD
5
23
100
AcDbSymbolTableRecord
100
AcDbBlockTableRecord
2
*Paper_Space0
340
0
70
0
0
BLOCK_RECORD
5
31B
100
AcDbSymbolTableRecord
100
AcDbBlockTableRecord
2
DimnDraft3D1
340
0
70
0
0
BLOCK_RECORD
5
329
100
AcDbSymbolTableRecord
100
AcDbBlockTableRecord
2
_CLOSED
340
0
70
0
0
BLOCK_RECORD
5
330
100
AcDbSymbolTableRecord
100
AcDbBlockTableRecord
2
DimnDraft3D2
340
0
70
0
0
BLOCK_RECORD
5
33F
100
AcDbSymbolTableRecord
100
AcDbBlockTableRecord
2
DimnDraft3D3
340
0
70
0
0
BLOCK_RECORD
5
34D
100
AcDbSymbolTableRecord
100
AcDbBlockTableRecord
2
DimnDraft3D4
340
0
70
0
0
ENDTAB
0
ENDSEC
0
SECTION
2
BLOCKS
0
BLOCK
5
20
100
AcDbEntity
8
0
100
AcDbBlockBegin
2
*Model_Space
70
0
10
0
20
0
30
0
3
*Model_Space
0
ENDBLK
5
21
100
AcDbEntity
8
0
100
AcDbBlockEnd
0
BLOCK
5
1C
100
AcDbEntity
8
0
100
AcDbBlockBegin
2
*Paper_Space
70
0
10
0
20
0
30
0
3
*Paper_Space
0
ENDBLK
5
1D
100
AcDbEntity
8
0
100
AcDbBlockEnd
0
BLOCK
5
24
100
AcDbEntity
8
0
100
AcDbBlockBegin
2
*Paper_Space0
70
0
10
0
20
0
30
0
3
*Paper_Space0
0
ENDBLK
5
25
100
AcDbEntity
8
0
100
AcDbBlockEnd
0
BLOCK
5
326
100
AcDbEntity
8
0
100
AcDbBlockBegin
2
DimnDraft3D1
70
0
10
0
20
0
30
0
3
DimnDraft3D1
0
MTEXT
5
31C
100
AcDbEntity
8
2
62
256
6
ByLayer
370
-1
48
1
60
0
100
AcDbMText
10
78.125
20
6.496053
30
0
210
0
220
0
230
1
1
\W01.000;\fsimplex.shx,bigfont.shx;15 
40
4.5
41
0
44
1.084337
50
90
71
7
72
5
7
DEFAULT
0
LINE
5
31D
100
AcDbEntity
8
2
62
256
6
ByLayer
370
-1
48
1
60
0
100
AcDbLine
10
71.5
20
0
30
0
11
82.25
21
0
31
0
39
0
210
0
220
0
230
1
0
LINE
5
31E
100
AcDbEntity
8
2
62
256
6
ByLayer
370
-1
48
1
60
0
100
AcDbLine
10
66.5
20
14.875
30
0
11
82.25
21
14.875
31
0
39
0
210
0
220
0
230
1
0
LINE
5
31F
100
AcDbEntity
8
2
62
256
6
ByLayer
370
-1
48
1
60
0
100
AcDbLine
10
79.25
20
0
30
0
11
79.25
21
14.875
31
0
39
0
210
0
220
0
230
1
0
LINE
5
320
100
AcDbEntity
8
2
62
256
6
ByLayer
370
-1
48
1
60
0
100
AcDbLine
10
79.25
20
0
30
0
11
78.855043
21
2.999999
31
0
39
0
210
0
220
0
230
1
0
LINE
5
321
100
AcDbEntity
8
2
62
256
6
ByLayer
370
-1
48
1
60
0
100
AcDbLine
10
79.25
20
0
30
0
11
79.644957
21
3.000001
31
0
39
0
210
0
220
0
230
1
0
LINE
5
322
100
AcDbEntity
8
2
62
256
6
ByLayer
370
-1
48
1
60
0
100
AcDbLine
10
78.855043
20
2.999999
30
0
11
79.644957
21
3.000001
31
0
39
0
210
0
220
0
230
1
0
LINE
5
323
100
AcDbEntity
8
2
62
256
6
ByLayer
370
-1
48
1
60
0
100
AcDbLine
10
79.25
20
14.875
30
0
11
79.644957
21
11.875001
31
0
39
0
210
0
220
0
230
1
0
LINE
5
324
100
AcDbEntity
8
2
62
256
6
ByLayer
370
-1
48
1
60
0
100
AcDbLine
10
79.25
20
14.875
30
0
11
78.855043
21
11.874999
31
0
39
0
210
0
220
0
230
1
0
LINE
5
325
100
AcDbEntity
8
2
62
256
6
ByLayer
370
-1
48
1
60
0
100
AcDbLine
10
79.644957
20
11.875001
30
0
11
78.855043
21
11.874999
31
0
39
0
210
0
220
0
230
1
0
ENDBLK
5
327
100
AcDbEntity
8
0
100
AcDbBlockEnd
0
BLOCK
5
32A
100
AcDbEntity
8
0
100
AcDbBlockBegin
2
_CLOSED
70
0
10
0
20
0
30
0
3
_CLOSED
0
LINE
5
32C
100
AcDbEntity
8
0
62
256
6
ByLayer
370
-2
48
1
60
0
100
AcDbLine
10
-1
20
0.166667
30
0
11
0
21
0
31
0
39
0
210
0
220
0
230
1
0
LINE
5
32D
100
AcDbEntity
8
0
62
256
6
ByLayer
370
-2
48
1
60
0
100
AcDbLine
10
0
20
0
30
0
11
-1
21
-0.166667
31
0
39
0
210
0
220
0
230
1
0
LINE
5
32E
100
AcDbEntity
8
0
62
256
6
ByLayer
370
-2
48
1
60
0
100
AcDbLine
10
-1
20
0.166667
30
0
11
-1
21
-0.166667
31
0
39
0
210
0
220
0
230
1
0
LINE
5
32F
100
AcDbEntity
8
0
62
256
6
ByLayer
370
-2
48
1
60
0
100
AcDbLine
10
0
20
0
30
0
11
-1
21
0
31
0
39
0
210
0
220
0
230
1
0
ENDBLK
5
32B
100
AcDbEntity
8
0
100
AcDbBlockEnd
0
BLOCK
5
33C
100
AcDbEntity
8
0
100
AcDbBlockBegin
2
DimnDraft3D2
70
0
10
0
20
0
30
0
3
DimnDraft3D2
0
MTEXT
5
331
100
AcDbEntity
8
SK2
62
256
6
ByLayer
370
-1
48
1
60
0
100
AcDbMText
10
-40.875
20
-3.659211
30
0
210
0
220
0
230
1
1
\W01.000;\fsimplex.shx,bigfont.shx;%%c50 
40
4.5
41
0
44
1.084337
50
90
71
7
72
5
7
DEFAULT
0
LINE
5
333
100
AcDbEntity
8
SK2
62
256
6
ByLayer
370
-1
48
1
60
0
100
AcDbLine
10
-1.5
20
25
30
0
11
-42.75
21
25
31
0
39
0
210
0
220
0
230
1
0
LINE
5
334
100
AcDbEntity
8
SK2
62
256
6
ByLayer
370
-1
48
1
60
0
100
AcDbLine
10
-1.5
20
-25
30
0
11
-42.75
21
-25
31
0
39
0
210
0
220
0
230
1
0
LINE
5
335
100
AcDbEntity
8
SK2
62
256
6
ByLayer
370
-1
48
1
60
0
100
AcDbLine
10
-39.75
20
25
30
0
11
-39.75
21
-25
31
0
39
0
210
0
220
0
230
1
0
LINE
5
336
100
AcDbEntity
8
SK2
62
256
6
ByLayer
370
-1
48
1
60
0
100
AcDbLine
10
-39.75
20
25
30
0
11
-39.355043
21
22.000001
31
0
39
0
210
0
220
0
230
1
0
LINE
5
337
100
AcDbEntity
8
SK2
62
256
6
ByLayer
370
-1
48
1
60
0
100
AcDbLine
10
-39.75
20
25
30
0
11
-40.144957
21
21.999999
31
0
39
0
210
0
220
0
230
1
0
LINE
5
338
100
AcDbEntity
8
SK2
62
256
6
ByLayer
370
-1
48
1
60
0
100
AcDbLine
10
-39.355043
20
22.000001
30
0
11
-40.144957
21
21.999999
31
0
39
0
210
0
220
0
230
1
0
LINE
5
339
100
AcDbEntity
8
SK2
62
256
6
ByLayer
370
-1
48
1
60
0
100
AcDbLine
10
-39.75
20
-25
30
0
11
-40.144957
21
-22.000001
31
0
39
0
210
0
220
0
230
1
0
LINE
5
33A
100
AcDbEntity
8
SK2
62
256
6
ByLayer
370
-1
48
1
60
0
100
AcDbLine
10
-39.75
20
-25
30
0
11
-39.355043
21
-21.999999
31
0
39
0
210
0
220
0
230
1
0
LINE
5
33B
100
AcDbEntity
8
SK2
62
256
6
ByLayer
370
-1
48
1
60
0
100
AcDbLine
10
-40.144957
20
-22.000001
30
0
11
-39.355043
21
-21.999999
31
0
39
0
210
0
220
0
230
1
0
ENDBLK
5
33D
100
AcDbEntity
8
0
100
AcDbBlockEnd
0
BLOCK
5
34A
100
AcDbEntity
8
0
100
AcDbBlockBegin
2
DimnDraft3D3
70
0
10
0
20
0
30
0
3
DimnDraft3D3
0
MTEXT
5
340
100
AcDbEntity
8
2
62
256
6
ByLayer
370
-1
48
1
60
0
100
AcDbMText
10
30.996053
20
35.75
30
0
210
0
220
0
230
1
1
\W01.000;\fsimplex.shx,bigfont.shx;65 
40
4.5
41
0
44
1.084337
50
0
71
7
72
5
7
DEFAULT
0
LINE
5
341
100
AcDbEntity
8
2
62
256
6
ByLayer
370
-1
48
1
60
0
100
AcDbLine
10
65
20
16.375
30
0
11
65
21
37.625
31
0
39
0
210
0
220
0
230
1
0
LINE
5
342
100
AcDbEntity
8
2
62
256
6
ByLayer
370
-1
48
1
60
0
100
AcDbLine
10
0
20
1.5
30
0
11
0
21
37.625
31
0
39
0
210
0
220
0
230
1
0
LINE
5
343
100
AcDbEntity
8
2
62
256
6
ByLayer
370
-1
48
1
60
0
100
AcDbLine
10
65
20
34.625
30
0
11
0
21
34.625
31
0
39
0
210
0
220
0
230
1
0
LINE
5
344
100
AcDbEntity
8
2
62
256
6
ByLayer
370
-1
48
1
60
0
100
AcDbLine
10
65
20
34.625
30
0
11
62.000001
21
34.230043
31
0
39
0
210
0
220
0
230
1
0
LINE
5
345
100
AcDbEntity
8
2
62
256
6
ByLayer
370
-1
48
1
60
0
100
AcDbLine
10
65
20
34.625
30
0
11
61.999999
21
35.019957
31
0
39
0
210
0
220
0
230
1
0
LINE
5
346
100
AcDbEntity
8
2
62
256
6
ByLayer
370
-1
48
1
60
0
100
AcDbLine
10
62.000001
20
34.230043
30
0
11
61.999999
21
35.019957
31
0
39
0
210
0
220
0
230
1
0
LINE
5
347
100
AcDbEntity
8
2
62
256
6
ByLayer
370
-1
48
1
60
0
100
AcDbLine
10
0
20
34.625
30
0
11
2.999999
21
35.019957
31
0
39
0
210
0
220
0
230
1
0
LINE
5
348
100
AcDbEntity
8
2
62
256
6
ByLayer
370
-1
48
1
60
0
100
AcDbLine
10
0
20
34.625
30
0
11
3.000001
21
34.230043
31
0
39
0
210
0
220
0
230
1
0
LINE
5
349
100
AcDbEntity
8
2
62
256
6
ByLayer
370
-1
48
1
60
0
100
AcDbLine
10
2.999999
20
35.019957
30
0
11
3.000001
21
34.230043
31
0
39
0
210
0
220
0
230
1
0
ENDBLK
5
34B
100
AcDbEntity
8
0
100
AcDbBlockEnd
0
BLOCK
5
358
100
AcDbEntity
8
0
100
AcDbBlockBegin
2
DimnDraft3D4
70
0
10
0
20
0
30
0
3
DimnDraft3D4
0
MTEXT
5
34E
100
AcDbEntity
8
2
62
256
6
ByLayer
370
-1
48
1
60
0
100
AcDbMText
10
43.081329
20
25.75
30
0
210
0
220
0
230
1
1
\W01.000;\fsimplex.shx,bigfont.shx;41 
40
4.5
41
0
44
1.084337
50
0
71
7
72
5
7
DEFAULT
0
LINE
5
34F
100
AcDbEntity
8
2
62
256
6
ByLayer
370
-1
48
1
60
0
100
AcDbLine
10
23.519238
20
16.375
30
0
11
23.519238
21
27.625
31
0
39
0
210
0
220
0
230
1
0
LINE
5
350
100
AcDbEntity
8
2
62
256
6
ByLayer
370
-1
48
1
60
0
100
AcDbLine
10
65
20
16.375
30
0
11
65
21
27.625
31
0
39
0
210
0
220
0
230
1
0
LINE
5
351
100
AcDbEntity
8
2
62
256
6
ByLayer
370
-1
48
1
60
0
100
AcDbLine
10
23.519238
20
24.625
30
0
11
65
21
24.625
31
0
39
0
210
0
220
0
230
1
0
LINE
5
352
100
AcDbEntity
8
2
62
256
6
ByLayer
370
-1
48
1
60
0
100
AcDbLine
10
23.519238
20
24.625
30
0
11
26.519236
21
25.019957
31
0
39
0
210
0
220
0
230
1
0
LINE
5
353
100
AcDbEntity
8
2
62
256
6
ByLayer
370
-1
48
1
60
0
100
AcDbLine
10
23.519238
20
24.625
30
0
11
26.519239
21
24.230043
31
0
39
0
210
0
220
0
230
1
0
LINE
5
354
100
AcDbEntity
8
2
62
256
6
ByLayer
370
-1
48
1
60
0
100
AcDbLine
10
26.519236
20
25.019957
30
0
11
26.519239
21
24.230043
31
0
39
0
210
0
220
0
230
1
0
LINE
5
355
100
AcDbEntity
8
2
62
256
6
ByLayer
370
-1
48
1
60
0
100
AcDbLine
10
65
20
24.625
30
0
11
62.000001
21
24.230043
31
0
39
0
210
0
220
0
230
1
0
LINE
5
356
100
AcDbEntity
8
2
62
256
6
ByLayer
370
-1
48
1
60
0
100
AcDbLine
10
65
20
24.625
30
0
11
61.999999
21
25.019957
31
0
39
0
210
0
220
0
230
1
0
LINE
5
357
100
AcDbEntity
8
2
62
256
6
ByLayer
370
-1
48
1
60
0
100
AcDbLine
10
62.000001
20
24.230043
30
0
11
61.999999
21
25.019957
31
0
39
0
210
0
220
0
230
1
0
ENDBLK
5
359
100
AcDbEntity
8
0
100
AcDbBlockEnd
0
ENDSEC
0
SECTION
2
ENTITIES
0
ARC
5
162
100
AcDbEntity
8
1
62
256
6
ByLayer
370
-1
48
1
60
0
100
AcDbCircle
39
0
10
-24.44003
20
-11.2
30
0
40
1.2
210
0
220
0
230
-1
100
AcDbArc
50
15
51
90
0
ARC
5
163
100
AcDbEntity
8
1
62
256
6
ByLayer
370
-1
48
1
60
0
100
AcDbCircle
39
0
10
-24.44003
20
11.2
30
0
40
1.2
210
0
220
0
230
-1
100
AcDbArc
50
270
51
345
0
ARC
5
164
100
AcDbEntity
8
1
62
256
6
ByLayer
370
-1
48
1
60
0
100
AcDbCircle
39
0
10
-41.841496
20
-10.8
30
0
40
0.8
210
0
220
0
230
-1
100
AcDbArc
50
90
51
99.068722
0
ARC
5
165
100
AcDbEntity
8
1
62
256
6
ByLayer
370
-1
48
1
60
0
100
AcDbCircle
39
0
10
-41.841496
20
10.8
30
0
40
0.8
210
0
220
0
230
-1
100
AcDbArc
50
221.444092
51
270
0
ARC
5
166
100
AcDbEntity
8
SK1
62
256
6
ByLayer
370
-1
48
1
60
0
100
AcDbCircle
39
0
10
0.6
20
18.75
30
0
40
1
210
0
220
0
230
-1
100
AcDbArc
50
233.130102
51
246.421822
0
ARC
5
167
100
AcDbEntity
8
SK1
62
256
6
ByLayer
370
-1
48
1
60
0
100
AcDbCircle
39
0
10
0.6
20
-18.75
30
0
40
1
210
0
220
0
230
-1
100
AcDbArc
50
113.578178
51
126.869898
0
ELLIPSE
5
168
100
AcDbEntity
8
1
62
256
6
ByLayer
370
-1
48
1
60
0
100
AcDbEllipse
10
71.017339
20
0
30
0
11
-9.95608476095999
21
-9.94482279666184
31
0
210
0
220
0
230
1
40
0.114547
41
0.616316571171671
42
0.699454146736249
0
ELLIPSE
5
169
100
AcDbEntity
8
1
62
256
6
ByLayer
370
-1
48
1
60
0
100
AcDbEllipse
10
49.66492
20
0
30
0
11
-11.5604247201219
21
8.68515369756684
31
0
210
0
220
0
230
1
40
0.4305
41
1.19750690740415
42
1.60791351693791
0
ELLIPSE
5
16A
100
AcDbEntity
8
1
62
256
6
ByLayer
370
-1
48
1
60
0
100
AcDbEllipse
10
48.8697
20
2.487163
30
0
11
-1.98332577295731
21
0.258238087792518
31
0
210
0
220
0
230
1
40
0.965345
41
0.683504038331156
42
2.20411282086504
0
ELLIPSE
5
16B
100
AcDbEntity
8
1
62
256
6
ByLayer
370
-1
48
1
60
0
100
AcDbEllipse
10
53.773809
20
0.000105
30
0
11
-1.3592030261689
21
10.6467920580598
31
0
210
0
220
0
230
1
40
0.395484
41
0.0622505743377064
42
0.0715267615399345
0
ELLIPSE
5
16C
100
AcDbEntity
8
1
62
256
6
ByLayer
370
-1
48
1
60
0
100
AcDbEllipse
10
49.314444
20
-5.61379
30
0
11
-1.38544360459141
21
0.00318113077559387
31
0
210
0
220
0
230
1
40
0.224206
41
-0.028688685584511
42
1.5421076412105
0
ELLIPSE
5
16D
100
AcDbEntity
8
1
62
256
6
ByLayer
370
-1
48
1
60
0
100
AcDbEllipse
10
42.756262
20
2.460088
30
0
11
-1.31654774658167
21
1.5137779668808
31
0
210
0
220
0
230
1
40
0.623569
41
-0.542670379589212
42
3.11754029335916
0
ELLIPSE
5
16E
100
AcDbEntity
8
1
62
256
6
ByLayer
370
-1
48
1
60
0
100
AcDbEllipse
10
47.147819
20
-8.244825
30
0
11
-2.95228478005794
21
2.01568147152934
31
0
210
0
220
0
230
1
40
0.730716
41
-1.09065919601553
42
-0.866145266076004
0
ELLIPSE
5
16F
100
AcDbEntity
8
1
62
256
6
ByLayer
370
-1
48
1
60
0
100
AcDbEllipse
10
47.497694
20
2.822522
30
0
11
2.08990208005798
21
-0.20569223555912
31
0
210
0
220
0
230
1
40
0.965613
41
1.43198366063444
42
1.4343635105277
0
ELLIPSE
5
170
100
AcDbEntity
8
1
62
256
6
ByLayer
370
-1
48
1
60
0
100
AcDbEllipse
10
170.45063
20
0
30
0
11
-316.044521592515
21
2.76206135802438
31
0
210
0
220
0
230
1
40
0.032579
41
-1.18674016983145
42
-1.15462654936276
0
ELLIPSE
5
171
100
AcDbEntity
8
1
62
256
6
ByLayer
370
-1
48
1
60
0
100
AcDbEllipse
10
47.425819
20
2.092241
30
0
11
-0.551953670626277
21
2.47547373648762
31
0
210
0
220
0
230
1
40
0.807227
41
-0.453379462138522
42
-0.374921535879422
0
ELLIPSE
5
172
100
AcDbEntity
8
1
62
256
6
ByLayer
370
-1
48
1
60
0
100
AcDbEllipse
10
49.724345
20
25.44604
30
0
11
-4.18620359307383
21
-29.3807024205973
31
0
210
0
220
0
230
1
40
0.055934
41
0.799251313285993
42
0.833414659011572
0
ELLIPSE
5
173
100
AcDbEntity
8
1
62
256
6
ByLayer
370
-1
48
1
60
0
100
AcDbEllipse
10
47.490261
20
2.746996
30
0
11
-0.507819095315452
21
3.07825775306448
31
0
210
0
220
0
230
1
40
0.643324
41
-0.567352517965393
42
-0.417365837359555
0
ELLIPSE
5
174
100
AcDbEntity
8
1
62
256
6
ByLayer
370
-1
48
1
60
0
100
AcDbEllipse
10
47.467228
20
2.512968
30
0
11
2.08990208005798
21
-0.20569223555912
31
0
210
0
220
0
230
1
40
0.965613
41
0.857829307473132
42
1.50400749043957
0
ELLIPSE
5
175
100
AcDbEntity
8
1
62
256
6
ByLayer
370
-1
48
1
60
0
100
AcDbEllipse
10
47.467228
20
2.512968
30
0
11
2.08990208005798
21
-0.20569223555912
31
0
210
0
220
0
230
1
40
0.965613
41
-1.07181576794168
42
-0.408848334235724
0
ELLIPSE
5
176
100
AcDbEntity
8
1
62
256
6
ByLayer
370
-1
48
1
60
0
100
AcDbEllipse
10
54.26273
20
-7.504172
30
0
11
-2.5
21
3.06151588455594E-16
31
0
210
0
220
0
230
1
40
0.258819
41
0
42
6.28318530717959
0
ELLIPSE
5
177
100
AcDbEntity
8
1
62
256
6
ByLayer
370
-1
48
1
60
0
100
AcDbEllipse
10
21.056258
20
0
30
0
11
-11.7092723497262
21
-24.6771864409362
31
0
210
0
220
0
230
1
40
0.341999
41
-1.08183270048932
42
-0.167213071908988
0
ELLIPSE
5
178
100
AcDbEntity
8
1
62
256
6
ByLayer
370
-1
48
1
60
0
100
AcDbEllipse
10
52.775695
20
9.198122
30
0
11
-0.549999999999999
21
6.73533494602306E-17
31
0
210
0
220
0
230
1
40
0.258819
41
1.74149566960511
42
2.30178474440365
0
ELLIPSE
5
179
100
AcDbEntity
8
1
62
256
6
ByLayer
370
-1
48
1
60
0
100
AcDbEllipse
10
-1.056258
20
0
30
0
11
-11.709272349728
21
24.6771864409383
31
0
210
0
220
0
230
1
40
0.341999
41
-2.97437958168082
42
-2.05975995310055
0
ELLIPSE
5
17A
100
AcDbEntity
8
1
62
256
6
ByLayer
370
-1
48
1
60
0
100
AcDbEllipse
10
170.447547
20
0.000234
30
0
11
-296.460097504334
21
2.59081341321586
31
0
210
0
220
0
230
1
40
0.032579
41
-1.12179940949485
42
-1.11460154379801
0
ELLIPSE
5
17B
100
AcDbEntity
8
1
62
256
6
ByLayer
370
-1
48
1
60
0
100
AcDbEllipse
10
49.66492
20
0
30
0
11
-11.5488758442842
21
8.67647722034964
31
0
210
0
220
0
230
1
40
0.4305
41
-0.183539379185509
42
1.18317684517676
0
ELLIPSE
5
17C
100
AcDbEntity
8
1
62
256
6
ByLayer
370
-1
48
1
60
0
100
AcDbEllipse
10
47.536648
20
3.218304
30
0
11
-2.09980895131231
21
-0.468192065936824
31
0
210
0
220
0
230
1
40
0.718199
41
-1.93899019782177
42
-1.82554671307531
0
ELLIPSE
5
17D
100
AcDbEntity
8
1
62
256
6
ByLayer
370
-1
48
1
60
0
100
AcDbEllipse
10
52.707753
20
0
30
0
11
-9.95642725966357
21
-9.94481787528878
31
0
210
0
220
0
230
1
40
0.114547
41
-0.754199049291459
42
0.458964546009282
0
ELLIPSE
5
17E
100
AcDbEntity
8
1
62
256
6
ByLayer
370
-1
48
1
60
0
100
AcDbEllipse
10
47.617452
20
4.039302
30
0
11
-2.08249206160485
21
0.271149992183044
31
0
210
0
220
0
230
1
40
0.965345
41
-0.996726629920721
42
1.24019685558841
0
ELLIPSE
5
17F
100
AcDbEntity
8
1
62
256
6
ByLayer
370
-1
48
1
60
0
100
AcDbEllipse
10
48.667165
20
2.336021
30
0
11
-0.538812676554713
21
2.41653481930498
31
0
210
0
220
0
230
1
40
0.807227
41
0.231760814632507
42
0.26057609822479
0
ELLIPSE
5
180
100
AcDbEntity
8
1
62
256
6
ByLayer
370
-1
48
1
60
0
100
AcDbEllipse
10
21.056258
20
0
30
0
11
-11.7092723497262
21
24.6771864409363
31
0
210
0
220
0
230
1
40
0.341999
41
0.167213071908986
42
1.08183270048931
0
ELLIPSE
5
181
100
AcDbEntity
8
1
62
256
6
ByLayer
370
-1
48
1
60
0
100
AcDbEllipse
10
47.459588
20
2.435347
30
0
11
-2.08990208005798
21
0.205692235559121
31
0
210
0
220
0
230
1
40
0.965613
41
-1.47604345436114
42
-0.409767443862779
0
ELLIPSE
5
182
100
AcDbEntity
8
1
62
256
6
ByLayer
370
-1
48
1
60
0
100
AcDbEllipse
10
47.459588
20
2.435347
30
0
11
-2.08990208005798
21
0.205692235559121
31
0
210
0
220
0
230
1
40
0.965613
41
-2.26684103261066
42
-1.47604345436114
0
ELLIPSE
5
183
100
AcDbEntity
8
1
62
256
6
ByLayer
370
-1
48
1
60
0
100
AcDbEllipse
10
48.856602
20
4.36431
30
0
11
-2.62613676632915
21
0.341865709537498
31
0
210
0
220
0
230
1
40
0.965338
41
-0.925521879411089
42
-0.497524411543625
0
ELLIPSE
5
184
100
AcDbEntity
8
1
62
256
6
ByLayer
370
-1
48
1
60
0
100
AcDbEllipse
10
-1.056258
20
0
30
0
11
-11.7092723497276
21
-24.6771864409378
31
0
210
0
220
0
230
1
40
0.341999
41
2.05975995310053
42
2.97437958168082
0
ELLIPSE
5
185
100
AcDbEntity
8
1
62
256
6
ByLayer
370
-1
48
1
60
0
100
AcDbEllipse
10
64.471454
20
-4.749736
30
0
11
-0.178490561267673
21
0.0232619762348545
31
0
210
0
220
0
230
1
40
0.965377
41
2.74315005139854
42
-3.14158038343554
0
ELLIPSE
5
186
100
AcDbEntity
8
1
62
256
6
ByLayer
370
-1
48
1
60
0
100
AcDbEllipse
10
58.641201
20
4.211442
30
0
11
4.27065768295397
21
-0.556578100390949
31
0
210
0
220
0
230
1
40
0.965377
41
-1.4411950933359
42
0.174692721341287
0
ELLIPSE
5
187
100
AcDbEntity
8
1
62
256
6
ByLayer
370
-1
48
1
60
0
100
AcDbEllipse
10
48.613079
20
1.829886
30
0
11
-0.178490561267673
21
0.0232619762348545
31
0
210
0
220
0
230
1
40
0.965377
41
7.37471364896522E-06
42
0.648754949005211
0
ELLIPSE
5
188
100
AcDbEntity
8
1
62
256
6
ByLayer
370
-1
48
1
60
0
100
AcDbEllipse
10
58.62728
20
4.104622
30
0
11
-3.85816542788974
21
0.502819599290279
31
0
210
0
220
0
230
1
40
0.965377
41
-1.44564013272686
42
-2.36464077540307E-16
0
ELLIPSE
5
189
100
AcDbEntity
8
1
62
256
6
ByLayer
370
-1
48
1
60
0
100
AcDbEllipse
10
58.62728
20
4.104622
30
0
11
-3.85816542788974
21
0.502819599290279
31
0
210
0
220
0
230
1
40
0.965377
41
0
42
1.39236334941412
0
ELLIPSE
5
18A
100
AcDbEntity
8
1
62
256
6
ByLayer
370
-1
48
1
60
0
100
AcDbEllipse
10
58.62728
20
4.104622
30
0
11
-3.85816542788974
21
0.502819599290279
31
0
210
0
220
0
230
1
40
0.965377
41
1.70357739924415
42
-1.44564013272686
0
ELLIPSE
5
18B
100
AcDbEntity
8
1
62
256
6
ByLayer
370
-1
48
1
60
0
100
AcDbEllipse
10
64.125564
20
-1.997165
30
0
11
0.277651984194159
21
-0.03618529636533
31
0
210
0
220
0
230
1
40
0.965377
41
1.79960173278823
42
2.50988856400623
0
ELLIPSE
5
18C
100
AcDbEntity
8
1
62
256
6
ByLayer
370
-1
48
1
60
0
100
AcDbEllipse
10
64.562705
20
-0.868877
30
0
11
0.247903557316213
21
-0.0323083003261875
31
0
210
0
220
0
230
1
40
0.965377
41
-0.39844260219127
42
-2.001763065831E-06
0
ELLIPSE
5
18D
100
AcDbEntity
8
1
62
256
6
ByLayer
370
-1
48
1
60
0
100
AcDbEllipse
10
58.573882
20
3.656949
30
0
11
-1.52423525038896
21
0.150018203801119
31
0
210
0
220
0
230
1
40
0.965613
41
-0.913530767300464
42
-0.132370236851018
0
ELLIPSE
5
18E
100
AcDbEntity
8
1
62
256
6
ByLayer
370
-1
48
1
60
0
100
AcDbEllipse
10
58.587888
20
3.799253
30
0
11
-3.55780949343205
21
0.350166543868504
31
0
210
0
220
0
230
1
40
0.965613
41
0
42
3.14149460617249
0
ELLIPSE
5
18F
100
AcDbEntity
8
1
62
256
6
ByLayer
370
-1
48
1
60
0
100
AcDbEllipse
10
60.121906
20
2.859104
30
0
11
-0.219676247208652
21
-0.394669692487792
31
0
210
0
220
0
230
1
40
0.480963
41
3.03195836917511
42
-3.06681484034113
0
ELLIPSE
5
190
100
AcDbEntity
8
1
62
256
6
ByLayer
370
-1
48
1
60
0
100
AcDbEllipse
10
56.825774
20
3.602712
30
0
11
-0.0193769920924694
21
0.449176849809304
31
0
210
0
220
0
230
1
40
0.485452
41
-2.81432735190462
42
-1.85569596540836
0
ELLIPSE
5
191
100
AcDbEntity
8
1
62
256
6
ByLayer
370
-1
48
1
60
0
100
AcDbEllipse
10
60.32199
20
3.711186
30
0
11
-0.0193769920922501
21
0.449176849808981
31
0
210
0
220
0
230
1
40
0.485452
41
1.28589439360509
42
1.56492407532402
0
ELLIPSE
5
192
100
AcDbEntity
8
1
62
256
6
ByLayer
370
-1
48
1
60
0
100
AcDbEllipse
10
57.025857
20
4.454793
30
0
11
-0.21967624720865
21
-0.394669692487792
31
0
210
0
220
0
230
1
40
0.480963
41
3.09761841081589
42
-1.49411084503845
0
ELLIPSE
5
193
100
AcDbEntity
8
1
62
256
6
ByLayer
370
-1
48
1
60
0
100
AcDbEllipse
10
60.053842
20
4.54874
30
0
11
-0.251829884175524
21
0.379450586879447
31
0
210
0
220
0
230
1
40
0.473127
41
-1.77396853028663
42
0.0387317301595497
0
ELLIPSE
5
194
100
AcDbEntity
8
1
62
256
6
ByLayer
370
-1
48
1
60
0
100
AcDbEllipse
10
57.640886
20
5.093014
30
0
11
-0.395736453277784
21
-0.233454704156774
31
0
210
0
220
0
230
1
40
0.464818
41
1.59087614742893
42
2.81413609703865
0
ELLIPSE
5
195
100
AcDbEntity
8
1
62
256
6
ByLayer
370
-1
48
1
60
0
100
AcDbEllipse
10
58.505818
20
5.346585
30
0
11
-0.46483535453211
21
-0.01330664076903
31
0
210
0
220
0
230
1
40
0.453769
41
3.08749990311297
42
-0.337125762991299
0
ELLIPSE
5
196
100
AcDbEntity
8
1
62
256
6
ByLayer
370
-1
48
1
60
0
100
AcDbEllipse
10
58.573882
20
3.656949
30
0
11
-1.52423525038896
21
0.150018203801119
31
0
210
0
220
0
230
1
40
0.965613
41
2.7359692888969
42
-3.00792586969365
0
ELLIPSE
5
197
100
AcDbEntity
8
1
62
256
6
ByLayer
370
-1
48
1
60
0
100
AcDbEllipse
10
58.573882
20
3.656949
30
0
11
-1.52423525038896
21
0.150018203801119
31
0
210
0
220
0
230
1
40
0.965613
41
0.171120318379799
42
0.731959804518883
0
ELLIPSE
5
198
100
AcDbEntity
8
1
62
256
6
ByLayer
370
-1
48
1
60
0
100
AcDbEllipse
10
58.573882
20
3.656949
30
0
11
1.52423525038895
21
-0.150018203801119
31
0
210
0
220
0
230
1
40
0.965613
41
1.18086433509275
42
2.22806188628932
0
ELLIPSE
5
199
100
AcDbEntity
8
1
62
256
6
ByLayer
370
-1
48
1
60
0
100
AcDbEllipse
10
58.573882
20
3.656949
30
0
11
-1.52423525038896
21
0.150018203801119
31
0
210
0
220
0
230
1
40
0.965613
41
-3.00792586969364
42
-1.96072831849705
0
ELLIPSE
5
19A
100
AcDbEntity
8
1
62
256
6
ByLayer
370
-1
48
1
60
0
100
AcDbEllipse
10
58.619719
20
4.122672
30
0
11
1.95903440218768
21
-0.192811983665776
31
0
210
0
220
0
230
1
40
0.965613
41
2.75166066188765
42
-2.48432709409535
0
ELLIPSE
5
19B
100
AcDbEntity
8
1
62
256
6
ByLayer
370
-1
48
1
60
0
100
AcDbEllipse
10
58.619719
20
4.122672
30
0
11
1.95903440218768
21
-0.192811983665776
31
0
210
0
220
0
230
1
40
0.965613
41
1.70446311069106
42
2.75166066188765
0
ELLIPSE
5
19C
100
AcDbEntity
8
1
62
256
6
ByLayer
370
-1
48
1
60
0
100
AcDbEllipse
10
58.619719
20
4.122672
30
0
11
1.95903440218768
21
-0.192811983665776
31
0
210
0
220
0
230
1
40
0.965613
41
-0.389931991702143
42
0.657265559494453
0
ELLIPSE
5
19D
100
AcDbEntity
8
1
62
256
6
ByLayer
370
-1
48
1
60
0
100
AcDbEllipse
10
58.619719
20
4.122672
30
0
11
1.95903440218768
21
-0.192811983665776
31
0
210
0
220
0
230
1
40
0.965613
41
-1.43712954289874
42
-0.389931991702143
0
ELLIPSE
5
19E
100
AcDbEntity
8
1
62
256
6
ByLayer
370
-1
48
1
60
0
100
AcDbEllipse
10
58.619719
20
4.122672
30
0
11
1.95903440218768
21
-0.192811983665776
31
0
210
0
220
0
230
1
40
0.965613
41
0.657265559494453
42
1.70446311069106
0
ELLIPSE
5
19F
100
AcDbEntity
8
1
62
256
6
ByLayer
370
-1
48
1
60
0
100
AcDbEllipse
10
58.619719
20
4.122672
30
0
11
1.95903440218768
21
-0.192811983665776
31
0
210
0
220
0
230
1
40
0.965613
41
-2.48432709409535
42
-1.43712954289874
0
ELLIPSE
5
1A0
100
AcDbEntity
8
1
62
256
6
ByLayer
370
-1
48
1
60
0
100
AcDbEllipse
10
59.388994
20
5.147251
30
0
11
-0.412981680001754
21
0.209451870735061
31
0
210
0
220
0
230
1
40
0.457631
41
0.136551400941223
42
1.55654798625107
0
ELLIPSE
5
1A1
100
AcDbEntity
8
1
62
256
6
ByLayer
370
-1
48
1
60
0
100
AcDbEllipse
10
59.388994
20
5.147251
30
0
11
-0.412981680001583
21
0.209451870735364
31
0
210
0
220
0
230
1
40
0.457631
41
1.556547986253
42
2.9765445715627
0
ELLIPSE
5
1A2
100
AcDbEntity
8
1
62
256
6
ByLayer
370
-1
48
1
60
0
100
AcDbEllipse
10
60.32199
20
3.711186
30
0
11
-0.0193769920922006
21
0.449176849808972
31
0
210
0
220
0
230
1
40
0.485452
41
1.56492407532443
42
2.98492066063472
0
ELLIPSE
5
1A3
100
AcDbEntity
8
1
62
256
6
ByLayer
370
-1
48
1
60
0
100
AcDbEllipse
10
58.61751
20
4.100224
30
0
11
-3.55780949343205
21
0.350166543868504
31
0
210
0
220
0
230
1
40
0.965613
41
0
42
6.28318530717959
0
ELLIPSE
5
1A4
100
AcDbEntity
8
1
62
256
6
ByLayer
370
-1
48
1
60
0
100
AcDbEllipse
10
58.619719
20
4.122672
30
0
11
-2.38845952006627
21
0.235076840638995
31
0
210
0
220
0
230
1
40
0.965613
41
0
42
6.28318530717959
0
ELLIPSE
5
1A5
100
AcDbEntity
8
1
62
256
6
ByLayer
370
-1
48
1
60
0
100
AcDbEllipse
10
57.640886
20
5.093014
30
0
11
-0.395736453277988
21
-0.233454704157233
31
0
210
0
220
0
230
1
40
0.464818
41
0.170879562118043
42
1.59087614742749
0
ELLIPSE
5
1A6
100
AcDbEntity
8
1
62
256
6
ByLayer
370
-1
48
1
60
0
100
AcDbEllipse
10
58.126105
20
0.022956
30
0
11
-0.0634745046573589
21
-0.0772721635422674
31
0
210
0
220
0
230
1
40
0.697645
41
-2.40523658058144
42
-1.48463082016358
0
ELLIPSE
5
1A7
100
AcDbEntity
8
1
62
256
6
ByLayer
370
-1
48
1
60
0
100
AcDbEllipse
10
56.791631
20
0.404432
30
0
11
-0.0102718297157433
21
0.0994710486236612
31
0
210
0
220
0
230
1
40
0.642818
41
-1.61538653546064
42
-0.694780775042893
0
ELLIPSE
5
1A8
100
AcDbEntity
8
1
62
256
6
ByLayer
370
-1
48
1
60
0
100
AcDbEllipse
10
62.079881
20
-2.158945
30
0
11
0.423451052811352
21
0.215149264170153
31
0
210
0
220
0
230
1
40
0.906288
41
2.51433144901975
42
2.69948547603665
0
ELLIPSE
5
1A9
100
AcDbEntity
8
1
62
256
6
ByLayer
370
-1
48
1
60
0
100
AcDbEllipse
10
62.502197
20
10.060863
30
0
11
-0.492621600450354
21
0.870243620355663
31
0
210
0
220
0
230
1
40
0.028271
41
1.55463072267836
42
2.04956484901924
0
ELLIPSE
5
1AA
100
AcDbEntity
8
1
62
256
6
ByLayer
370
-1
48
1
60
0
100
AcDbEllipse
10
61.911402
20
-1.827349
30
0
11
-0.517544676722474
21
0.855656185390038
31
0
210
0
220
0
230
1
40
0.034405
41
1.51097050109067
42
2.00590462743152
0
ELLIPSE
5
1AB
100
AcDbEntity
8
1
62
256
6
ByLayer
370
-1
48
1
60
0
100
AcDbEllipse
10
63.370424
20
6.976706
30
0
11
0.0226218689952141
21
-0.0974076539249528
31
0
210
0
220
0
230
1
40
0.09421
41
1.11950367503865
42
1.8176353758364
0
ELLIPSE
5
1AC
100
AcDbEntity
8
1
62
256
6
ByLayer
370
-1
48
1
60
0
100
AcDbEllipse
10
58.953808
20
-0.042042
30
0
11
-0.0958493115396503
21
0.0285115674310455
31
0
210
0
220
0
230
1
40
0.257768
41
-1.52934546830629
42
-0.831213767508758
0
ELLIPSE
5
1AD
100
AcDbEntity
8
1
62
256
6
ByLayer
370
-1
48
1
60
0
100
AcDbEllipse
10
63.191699
20
3.876244
30
0
11
-0.0994694858039677
21
0.0102869526048422
31
0
210
0
220
0
230
1
40
0.260774
41
-1.57771977815737
42
-0.268722839161575
0
ELLIPSE
5
1AE
100
AcDbEntity
8
1
62
256
6
ByLayer
370
-1
48
1
60
0
100
AcDbEllipse
10
58.663049
20
4.379076
30
0
11
-4.51893735051296
21
0.588935417692965
31
0
210
0
220
0
230
1
40
0.965377
41
-2.42821332506078
42
-1.02157234235324
0
ELLIPSE
5
1AF
100
AcDbEntity
8
1
62
256
6
ByLayer
370
-1
48
1
60
0
100
AcDbEllipse
10
50.957876
20
1.212828
30
0
11
0.277651984194159
21
-0.03618529636533
31
0
210
0
220
0
230
1
40
0.965377
41
0.64875494900527
42
1.68081215656665
0
ELLIPSE
5
1B0
100
AcDbEntity
8
1
62
256
6
ByLayer
370
-1
48
1
60
0
100
AcDbEllipse
10
49.367488
20
3.955659
30
0
11
-0.511073803619282
21
-0.835121937678381
31
0
210
0
220
0
230
1
40
0.33695
41
-0.175909083175222
42
0.167800419451358
0
ELLIPSE
5
1B1
100
AcDbEntity
8
1
62
256
6
ByLayer
370
-1
48
1
60
0
100
AcDbEllipse
10
62.502197
20
10.060863
30
0
11
-0.507738149214014
21
-0.861511446141447
31
0
210
0
220
0
230
1
40
0.028129
41
-1.55438453259977
42
-1.05945040625881
0
ELLIPSE
5
1B2
100
AcDbEntity
8
1
62
256
6
ByLayer
370
-1
48
1
60
0
100
AcDbEllipse
10
64.838608
20
9.592365
30
0
11
-0.290884146399354
21
0.500857956884411
31
0
210
0
220
0
230
1
40
0.139552
41
1.48844065976162
42
1.75024004641633
0
ELLIPSE
5
1B3
100
AcDbEntity
8
1
62
256
6
ByLayer
370
-1
48
1
60
0
100
AcDbEllipse
10
54.576479
20
6.339012
30
0
11
0.0710457241211566
21
0.0703740370030064
31
0
210
0
220
0
230
1
40
0.163559
41
0.665190757199351
42
1.36332245799694
0
ELLIPSE
5
1B4
100
AcDbEntity
8
1
62
256
6
ByLayer
370
-1
48
1
60
0
100
AcDbEllipse
10
63.87175
20
4.034179
30
0
11
0.0226218689952141
21
-0.0974076539249528
31
0
210
0
220
0
230
1
40
0.09421
41
1.8176353758364
42
2.51576707663435
0
ELLIPSE
5
1B5
100
AcDbEntity
8
1
62
256
6
ByLayer
370
-1
48
1
60
0
100
AcDbEllipse
10
64.731532
20
0.426543
30
0
11
-0.247903557316213
21
0.0323083003261869
31
0
210
0
220
0
230
1
40
0.965377
41
2.74315005139845
42
-3.01643648018281
0
ELLIPSE
5
1B6
100
AcDbEntity
8
1
62
256
6
ByLayer
370
-1
48
1
60
0
100
AcDbEllipse
10
62.570846
20
13.069203
30
0
11
-0.0016141156226481
21
-0.186342719949511
31
0
210
0
220
0
230
1
40
0.965414
41
2.10946969477361
42
3.14152690234065
0
ELLIPSE
5
1B7
100
AcDbEntity
8
1
62
256
6
ByLayer
370
-1
48
1
60
0
100
AcDbEllipse
10
61.937924
20
-4.867516
30
0
11
-0.207868587535473
21
-1.44631439625136
31
0
210
0
220
0
230
1
40
0.443212
41
-3.04851197653836
42
-2.4948393785958
0
ELLIPSE
5
1B8
100
AcDbEntity
8
1
62
256
6
ByLayer
370
-1
48
1
60
0
100
AcDbEllipse
10
64.984493
20
3.838335
30
0
11
-0.00223766216930002
21
-0.97454601969021
31
0
210
0
220
0
230
1
40
0.017143
41
-1.32785229917567
42
-1.17585090125832
0
ELLIPSE
5
1B9
100
AcDbEntity
8
1
62
256
6
ByLayer
370
-1
48
1
60
0
100
AcDbEllipse
10
62.473541
20
10.060988
30
0
11
-0.00207269667715512
21
-0.474969161028887
31
0
210
0
220
0
230
1
40
0.99947
41
-0.527962603169403
42
-0.342808576152501
0
ELLIPSE
5
1BA
100
AcDbEntity
8
1
62
256
6
ByLayer
370
-1
48
1
60
0
100
AcDbEllipse
10
52.28555
20
0.958577
30
0
11
-0.247903557316213
21
0.0323083003261869
31
0
210
0
220
0
230
1
40
0.965377
41
0.648754949005294
42
1.17235372460358
0
ELLIPSE
5
1BB
100
AcDbEntity
8
1
62
256
6
ByLayer
370
-1
48
1
60
0
100
AcDbEllipse
10
53.916627
20
7.005163
30
0
11
0.0999993945307662
21
0.000347984884979244
31
0
210
0
220
0
230
1
40
0.258708
41
1.53617777689864
42
2.19853900791488
0
ELLIPSE
5
1BC
100
AcDbEntity
8
1
62
256
6
ByLayer
370
-1
48
1
60
0
100
AcDbEllipse
10
61.438566
20
10.674959
30
0
11
-0.284376105461714
21
0.16742231225983
31
0
210
0
220
0
230
1
40
0.016405
41
1.19359364131892
42
1.54265949171743
0
ELLIPSE
5
1BD
100
AcDbEntity
8
1
62
256
6
ByLayer
370
-1
48
1
60
0
100
AcDbEllipse
10
58.663049
20
4.379076
30
0
11
-4.51893735051296
21
0.588935417692965
31
0
210
0
220
0
230
1
40
0.965377
41
1.76057687972561
42
-3.11596744474643
0
ELLIPSE
5
1BE
100
AcDbEntity
8
1
62
256
6
ByLayer
370
-1
48
1
60
0
100
AcDbEllipse
10
64.46895
20
-3.225159
30
0
11
-0.127183466692523
21
-0.304506758217403
31
0
210
0
220
0
230
1
40
0.504267
41
0.987942314128518
42
1.58936171043931
0
ELLIPSE
5
1BF
100
AcDbEntity
8
1
62
256
6
ByLayer
370
-1
48
1
60
0
100
AcDbEllipse
10
49.375934
20
3.505362
30
0
11
-0.28123916394654
21
0.17263989302201
31
0
210
0
220
0
230
1
40
0.452158
41
1.19814525964095
42
1.54721111003978
0
ELLIPSE
5
1C0
100
AcDbEntity
8
1
62
256
6
ByLayer
370
-1
48
1
60
0
100
AcDbEllipse
10
64.083612
20
-3.064214
30
0
11
-0.279599485899563
21
-0.175282992571156
31
0
210
0
220
0
230
1
40
0.421259
41
1.53285168577217
42
1.88191753617112
0
ELLIPSE
5
1C1
100
AcDbEntity
8
1
62
256
6
ByLayer
370
-1
48
1
60
0
100
AcDbEllipse
10
56.145299
20
-1.482164
30
0
11
-0.116805027473758
21
0.079602368546541
31
0
210
0
220
0
230
1
40
0.178717
41
-2.07567485298493
42
-0.57856266469336
0
ELLIPSE
5
1C2
100
AcDbEntity
8
1
62
256
6
ByLayer
370
-1
48
1
60
0
100
AcDbEllipse
10
48.792378
20
6.271896
30
0
11
-1.36403056556558
21
1.25866584269852
31
0
210
0
220
0
230
1
40
0.316509
41
-3.07925809555312
42
-2.52558549762843
0
ELLIPSE
5
1C3
100
AcDbEntity
8
1
62
256
6
ByLayer
370
-1
48
1
60
0
100
AcDbEllipse
10
58.887916
20
11.106436
30
0
11
-0.247903557316213
21
0.0323083003261869
31
0
210
0
220
0
230
1
40
0.965377
41
-1.44564015338793
42
-0.922041377789628
0
ELLIPSE
5
1C4
100
AcDbEntity
8
1
62
256
6
ByLayer
370
-1
48
1
60
0
100
AcDbEllipse
10
57.976189
20
3.635794
30
0
11
-4.04803370364449
21
1.83525056549081
31
0
210
0
220
0
230
1
40
0.77149
41
-0.491967356450946
42
-0.337467242468219
0
ELLIPSE
5
1C5
100
AcDbEntity
8
1
62
256
6
ByLayer
370
-1
48
1
60
0
100
AcDbEllipse
10
63.370424
20
6.976706
30
0
11
-0.0204799194834137
21
-0.0978804009899474
31
0
210
0
220
0
230
1
40
0.279186
41
1.20260470714919
42
2.4489588056736
0
ELLIPSE
5
1C6
100
AcDbEntity
8
1
62
256
6
ByLayer
370
-1
48
1
60
0
100
AcDbEllipse
10
62.623598
20
5.978381
30
0
11
0.0987909012751309
21
0.0155034778436112
31
0
210
0
220
0
230
1
40
0.431762
41
-2.70106761340422
42
-1.4543732642468
0
ELLIPSE
5
1C7
100
AcDbEntity
8
1
62
256
6
ByLayer
370
-1
48
1
60
0
100
AcDbEllipse
10
64.586215
20
-3.442313
30
0
11
-0.174929491452404
21
-0.0522648303080423
31
0
210
0
220
0
230
1
40
0.912025
41
1.32438791966137
42
2.356445127216
0
ELLIPSE
5
1C8
100
AcDbEntity
8
1
62
256
6
ByLayer
370
-1
48
1
60
0
100
AcDbEllipse
10
58.66055
20
4.359904
30
0
11
4.4231547711367
21
-0.57645244901755
31
0
210
0
220
0
230
1
40
0.965377
41
-1.38101577386418
42
0.0256252088433609
0
ELLIPSE
5
1C9
100
AcDbEntity
8
1
62
256
6
ByLayer
370
-1
48
1
60
0
100
AcDbEllipse
10
53.916627
20
7.005163
30
0
11
0.0710457241211566
21
0.0703740370030064
31
0
210
0
220
0
230
1
40
0.163559
41
0.665190757199438
42
1.36332245799672
0
ELLIPSE
5
1CA
100
AcDbEntity
8
1
62
256
6
ByLayer
370
-1
48
1
60
0
100
AcDbEllipse
10
60.429327
20
-3.747172
30
0
11
-0.582352470527978
21
-0.00755013533191922
31
0
210
0
220
0
230
1
40
0.221792
41
1.53897248970996
42
1.80077187752558
0
ELLIPSE
5
1CB
100
AcDbEntity
8
1
62
256
6
ByLayer
370
-1
48
1
60
0
100
AcDbEllipse
10
51.323766
20
4.376133
30
0
11
0.391295714358999
21
-0.269235331864674
31
0
210
0
220
0
230
1
40
0.89169
41
1.43212927734626
42
1.61728330436317
0
ELLIPSE
5
1CC
100
AcDbEntity
8
1
62
256
6
ByLayer
370
-1
48
1
60
0
100
AcDbEllipse
10
64.675987
20
-0.307946
30
0
11
-1.42864914102566
21
-1.22802631770174
31
0
210
0
220
0
230
1
40
0.319296
41
-0.601909895763161
42
-0.0482372978280672
0
ELLIPSE
5
1CD
100
AcDbEntity
8
1
62
256
6
ByLayer
370
-1
48
1
60
0
100
AcDbEllipse
10
62.079881
20
-2.158945
30
0
11
0.423451052811352
21
0.215149264170153
31
0
210
0
220
0
230
1
40
0.906288
41
1.65228792484004
42
1.83744195185692
0
ELLIPSE
5
1CE
100
AcDbEntity
8
1
62
256
6
ByLayer
370
-1
48
1
60
0
100
AcDbEllipse
10
59.648261
20
9.561283
30
0
11
-0.0301121114533164
21
-0.202776381129122
31
0
210
0
220
0
230
1
40
0.004817
41
0.383127039644286
42
1.30692689921173
0
ELLIPSE
5
1CF
100
AcDbEntity
8
1
62
256
6
ByLayer
370
-1
48
1
60
0
100
AcDbEllipse
10
51.400765
20
3.336195
30
0
11
-0.0274746039317437
21
-0.32885429317373
31
0
210
0
220
0
230
1
40
0.244295
41
-1.16693775660931
42
-0.817871906210408
0
ELLIPSE
5
1D0
100
AcDbEntity
8
1
62
256
6
ByLayer
370
-1
48
1
60
0
100
AcDbEllipse
10
58.641201
20
4.211442
30
0
11
4.27065768295397
21
-0.556578100390949
31
0
210
0
220
0
230
1
40
0.965377
41
2.65870691842429
42
-1.91970238105191
0
ELLIPSE
5
1D1
100
AcDbEntity
8
1
62
256
6
ByLayer
370
-1
48
1
60
0
100
AcDbEllipse
10
59.317835
20
4.876259
30
0
11
-2.58146022344017
21
-4.47739767625129
31
0
210
0
220
0
230
1
40
0.815376
41
-1.91217352035955
42
-1.75767340654571
0
ELLIPSE
5
1D2
100
AcDbEntity
8
1
62
256
6
ByLayer
370
-1
48
1
60
0
100
AcDbEllipse
10
63.532749
20
10.656676
30
0
11
-0.287254667490144
21
-0.162433851167566
31
0
210
0
220
0
230
1
40
0.016158
41
-1.89158327958547
42
-1.54251742918672
0
ELLIPSE
5
1D3
100
AcDbEntity
8
1
62
256
6
ByLayer
370
-1
48
1
60
0
100
AcDbEllipse
10
58.636079
20
4.172139
30
0
11
4.07430339523262
21
-0.530988014606323
31
0
210
0
220
0
230
1
40
0.965377
41
0.47616137052798
42
2.35723826923759
0
ELLIPSE
5
1D4
100
AcDbEntity
8
1
62
256
6
ByLayer
370
-1
48
1
60
0
100
AcDbEllipse
10
58.691982
20
-0.922242
30
0
11
-0.0484339713662924
21
0.0874880015641526
31
0
210
0
220
0
230
1
40
0.158308
41
-2.02160408854442
42
-1.35924285752774
0
ELLIPSE
5
1D5
100
AcDbEntity
8
1
62
256
6
ByLayer
370
-1
48
1
60
0
100
AcDbEllipse
10
56.29874
20
8.873048
30
0
11
-0.0182096467134124
21
-0.0983280670336436
31
0
210
0
220
0
230
1
40
0.406619
41
-2.75825057300935
42
-1.26113965378339
0
ELLIPSE
5
1D6
100
AcDbEntity
8
1
62
256
6
ByLayer
370
-1
48
1
60
0
100
AcDbEllipse
10
56.785606
20
8.381536
30
0
11
0.0693129226190667
21
-0.0720813343245204
31
0
210
0
220
0
230
1
40
0.477816
41
-1.70849123175278
42
-0.557510339064017
0
ELLIPSE
5
1D7
100
AcDbEntity
8
1
62
256
6
ByLayer
370
-1
48
1
60
0
100
AcDbEllipse
10
61.879726
20
-4.646368
30
0
11
-0.49610040863245
21
-1.28208199966957
31
0
210
0
220
0
230
1
40
0.680625
41
-2.83598610185847
42
-2.34105197551863
0
ELLIPSE
5
1D8
100
AcDbEntity
8
1
62
256
6
ByLayer
370
-1
48
1
60
0
100
AcDbEllipse
10
48.869941
20
3.136069
30
0
11
-0.163001787030892
21
0.0802780296980439
31
0
210
0
220
0
230
1
40
0.905973
41
0.947834104654308
42
1.97989131222066
0
ELLIPSE
5
1D9
100
AcDbEntity
8
1
62
256
6
ByLayer
370
-1
48
1
60
0
100
AcDbEllipse
10
58.691982
20
-0.922242
30
0
11
-0.0809189409723028
21
0.0587547869702629
31
0
210
0
220
0
230
1
40
0.062178
41
0.796865864699308
42
2.04321996322477
0
ELLIPSE
5
1DA
100
AcDbEntity
8
1
62
256
6
ByLayer
370
-1
48
1
60
0
100
AcDbEllipse
10
49.837677
20
3.164464
30
0
11
-1.06040026085326
21
0.0984511763249527
31
0
210
0
220
0
230
1
40
0.284805
41
-0.139473998911202
42
0.204235503714372
0
ELLIPSE
5
1DB
100
AcDbEntity
8
1
62
256
6
ByLayer
370
-1
48
1
60
0
100
AcDbEllipse
10
56.298722
20
8.872929
30
0
11
-0.000873198050908553
21
-0.0999961875531457
31
0
210
0
220
0
230
1
40
0.032562
41
1.83273795928282
42
2.79272032939512
0
ELLIPSE
5
1DC
100
AcDbEntity
8
1
62
256
6
ByLayer
370
-1
48
1
60
0
100
AcDbEllipse
10
64.717779
20
9.161382
30
0
11
-0.247903557316213
21
0.0323083003261869
31
0
210
0
220
0
230
1
40
0.965377
41
-3.01643648018281
42
-2.47769736094938
0
ELLIPSE
5
1DD
100
AcDbEntity
8
1
62
256
6
ByLayer
370
-1
48
1
60
0
100
AcDbEllipse
10
63.035793
20
4.376983
30
0
11
-0.0921697752640125
21
-0.0387908820186063
31
0
210
0
220
0
230
1
40
0.804336
41
-1.76362985842244
42
-0.516935509264956
0
ELLIPSE
5
1DE
100
AcDbEntity
8
1
62
256
6
ByLayer
370
-1
48
1
60
0
100
AcDbEllipse
10
62.027114
20
-3.197751
30
0
11
-0.0213831913664049
21
0.329306482060387
31
0
210
0
220
0
230
1
40
0.180834
41
-2.31878657480748
42
-1.96972072440859
0
ELLIPSE
5
1DF
100
AcDbEntity
8
1
62
256
6
ByLayer
370
-1
48
1
60
0
100
AcDbEllipse
10
53.226627
20
2.282907
30
0
11
0.189559674859681
21
0.0780520958532947
31
0
210
0
220
0
230
1
40
0.228281
41
-1.70082223414427
42
-0.777022374570413
0
ELLIPSE
5
1E0
100
AcDbEntity
8
1
62
256
6
ByLayer
370
-1
48
1
60
0
100
AcDbEllipse
10
59.875132
20
11.609143
30
0
11
-1.54881367682265
21
0.940616774180147
31
0
210
0
220
0
230
1
40
0.551746
41
2.65420935387981
42
-3.13404182696642
0
ELLIPSE
5
1E1
100
AcDbEntity
8
1
62
256
6
ByLayer
370
-1
48
1
60
0
100
AcDbEllipse
10
63.074206
20
-1.454078
30
0
11
0.279599485899563
21
0.175282992571156
31
0
210
0
220
0
230
1
40
0.421259
41
-1.60874096781758
42
-1.25967511741869
0
ELLIPSE
5
1E2
100
AcDbEntity
8
1
62
256
6
ByLayer
370
-1
48
1
60
0
100
AcDbEllipse
10
62.50149
20
12.480396
30
0
11
0.329964582601559
21
-0.00483469012230095
31
0
210
0
220
0
230
1
40
0.17881
41
1.30318906781629
42
1.90460846412717
0
ELLIPSE
5
1E3
100
AcDbEntity
8
1
62
256
6
ByLayer
370
-1
48
1
60
0
100
AcDbEllipse
10
64.46895
20
-3.225159
30
0
11
-0.0641383178714605
21
0.323707083920973
31
0
210
0
220
0
230
1
40
0.444923
41
-2.18334915454237
42
-1.83963965190479
0
ELLIPSE
5
1E4
100
AcDbEntity
8
1
62
256
6
ByLayer
370
-1
48
1
60
0
100
AcDbEllipse
10
55.201536
20
-0.947258
30
0
11
-0.863605806039528
21
0.496375851028465
31
0
210
0
220
0
230
1
40
0.121157
41
1.35905033127774
42
1.5110516900997
0
ELLIPSE
5
1E5
100
AcDbEntity
8
1
62
256
6
ByLayer
370
-1
48
1
60
0
100
AcDbEllipse
10
55.808542
20
0.152401
30
0
11
0.0979430055712066
21
0.0201783958648498
31
0
210
0
220
0
230
1
40
0.140557
41
-2.3805587106089
42
-0.883447791382939
0
ELLIPSE
5
1E6
100
AcDbEntity
8
1
62
256
6
ByLayer
370
-1
48
1
60
0
100
AcDbEllipse
10
64.657265
20
-3.323996
30
0
11
-0.174929491447071
21
-0.0522648303136207
31
0
210
0
220
0
230
1
40
0.912025
41
2.35644512717853
42
-2.89468297243264
0
ELLIPSE
5
1E7
100
AcDbEntity
8
1
62
256
6
ByLayer
370
-1
48
1
60
0
100
AcDbEllipse
10
58.691982
20
-0.922242
30
0
11
-0.0958493115396503
21
0.0285115674310455
31
0
210
0
220
0
230
1
40
0.257768
41
-1.52934546830622
42
-0.831213767508581
0
ELLIPSE
5
1E8
100
AcDbEntity
8
1
62
256
6
ByLayer
370
-1
48
1
60
0
100
AcDbEllipse
10
55.808542
20
0.152401
30
0
11
-0.0958493115396503
21
0.0285115674310455
31
0
210
0
220
0
230
1
40
0.257768
41
-2.22747716910401
42
-1.52934546830622
0
ELLIPSE
5
1E9
100
AcDbEntity
8
1
62
256
6
ByLayer
370
-1
48
1
60
0
100
AcDbEllipse
10
63.932834
20
-1.295296
30
0
11
-0.272112542256263
21
-0.081300847150805
31
0
210
0
220
0
230
1
40
0.912025
41
-0.785147526389214
42
0.246909681171759
0
ELLIPSE
5
1EA
100
AcDbEntity
8
1
62
256
6
ByLayer
370
-1
48
1
60
0
100
AcDbEllipse
10
63.87175
20
4.034179
30
0
11
-0.0610333306184196
21
0.0792144718698717
31
0
210
0
220
0
230
1
40
0.552749
41
-2.27220254073178
42
-0.775091621505607
0
ELLIPSE
5
1EB
100
AcDbEntity
8
1
62
256
6
ByLayer
370
-1
48
1
60
0
100
AcDbEllipse
10
65.243963
20
11.618664
30
0
11
-1.62385906159028
21
-0.905066264501078
31
0
210
0
220
0
230
1
40
0.360346
41
0.00222335335912446
42
0.555895951300376
0
ELLIPSE
5
1EC
100
AcDbEntity
8
1
62
256
6
ByLayer
370
-1
48
1
60
0
100
AcDbEllipse
10
49.004537
20
3.351024
30
0
11
-0.0721091613496182
21
-0.322025261197712
31
0
210
0
220
0
230
1
40
0.50106
41
-1.28669031534258
42
-0.942980812705105
0
ELLIPSE
5
1ED
100
AcDbEntity
8
1
62
256
6
ByLayer
370
-1
48
1
60
0
100
AcDbEllipse
10
49.004537
20
3.351024
30
0
11
-0.126635808899253
21
0.304734920717058
31
0
210
0
220
0
230
1
40
0.555252
41
1.52269464233224
42
2.12411403864304
0
ELLIPSE
5
1EE
100
AcDbEntity
8
1
62
256
6
ByLayer
370
-1
48
1
60
0
100
AcDbEllipse
10
56.453158
20
-1.589917
30
0
11
-0.265224991349713
21
0.158713247771242
31
0
210
0
220
0
230
1
40
0.233432
41
0.973680263101983
42
1.67181196390811
0
ELLIPSE
5
1EF
100
AcDbEntity
8
1
62
256
6
ByLayer
370
-1
48
1
60
0
100
AcDbEllipse
10
51.530441
20
1.664519
30
0
11
-0.283484718441917
21
1.44767212113419
31
0
210
0
220
0
230
1
40
0.426769
41
-0.6742926257451
42
-0.120620027803555
0
ELLIPSE
5
1F0
100
AcDbEntity
8
1
62
256
6
ByLayer
370
-1
48
1
60
0
100
AcDbEllipse
10
50.952611
20
6.64988
30
0
11
-0.247903557316213
21
0.0323083003261869
31
0
210
0
220
0
230
1
40
0.965377
41
-0.922041377789628
42
-0.3833022585561
0
ELLIPSE
5
1F1
100
AcDbEntity
8
1
62
256
6
ByLayer
370
-1
48
1
60
0
100
AcDbEllipse
10
61.911402
20
-1.827349
30
0
11
0.999936876948704
21
-0.0112357517804743
31
0
210
0
220
0
230
1
40
0.382024
41
-1.86878457986124
42
-1.37385045352034
0
ELLIPSE
5
1F2
100
AcDbEntity
8
1
62
256
6
ByLayer
370
-1
48
1
60
0
100
AcDbEllipse
10
50.353674
20
5.09815
30
0
11
0.28123916394654
21
-0.17263989302201
31
0
210
0
220
0
230
1
40
0.452158
41
-1.94344739394891
42
-1.59438154355001
0
ELLIPSE
5
1F3
100
AcDbEntity
8
1
62
256
6
ByLayer
370
-1
48
1
60
0
100
AcDbEllipse
10
56.168926
20
7.626696
30
0
11
0.0977027712434972
21
-0.0213112292311084
31
0
210
0
220
0
230
1
40
0.342138
41
-1.95783243662732
42
-1.03722667620943
0
ELLIPSE
5
1F4
100
AcDbEntity
8
1
62
256
6
ByLayer
370
-1
48
1
60
0
100
AcDbEllipse
10
62.961883
20
12.137248
30
0
11
-0.540203768522355
21
0.955419643764443
31
0
210
0
220
0
230
1
40
0.300546
41
-0.171703742212146
42
0.172005760379135
0
ELLIPSE
5
1F5
100
AcDbEntity
8
1
62
256
6
ByLayer
370
-1
48
1
60
0
100
AcDbEllipse
10
58.953808
20
-0.042042
30
0
11
0.00516904853667343
21
-0.0998663153281702
31
0
210
0
220
0
230
1
40
0.625045
41
-3.13850395305829
42
-1.98752306036931
0
ELLIPSE
5
1F6
100
AcDbEntity
8
1
62
256
6
ByLayer
370
-1
48
1
60
0
100
AcDbEllipse
10
64.259307
20
-1.567297
30
0
11
-0.148742134389729
21
0.0193849801957123
31
0
210
0
220
0
230
1
40
0.965377
41
1.7996017327883
42
2.74315005139845
0
ELLIPSE
5
1F7
100
AcDbEntity
8
1
62
256
6
ByLayer
370
-1
48
1
60
0
100
AcDbEllipse
10
56.785606
20
8.381536
30
0
11
0.0393160811069761
21
-0.0919469725787079
31
0
210
0
220
0
230
1
40
0.136175
41
0.48831846433516
42
1.79731540333021
0
ELLIPSE
5
1F8
100
AcDbEntity
8
1
62
256
6
ByLayer
370
-1
48
1
60
0
100
AcDbEllipse
10
51.809045
20
1.567214
30
0
11
0.148742134389729
21
-0.0193849801957126
31
0
210
0
220
0
230
1
40
0.965377
41
2.84679928398486
42
-2.49283770458455
0
ELLIPSE
5
1F9
100
AcDbEntity
8
1
62
256
6
ByLayer
370
-1
48
1
60
0
100
AcDbEllipse
10
51.323766
20
4.376133
30
0
11
0.391295714358999
21
-0.269235331864674
31
0
210
0
220
0
230
1
40
0.89169
41
0.570085753166601
42
0.755239780183468
0
ELLIPSE
5
1FA
100
AcDbEntity
8
1
62
256
6
ByLayer
370
-1
48
1
60
0
100
AcDbEllipse
10
56.001728
20
0.801848
30
0
11
-0.0958493115396503
21
0.0285115674310455
31
0
210
0
220
0
230
1
40
0.257768
41
-2.227477169104
42
-1.52934546830622
0
ELLIPSE
5
1FB
100
AcDbEntity
8
1
62
256
6
ByLayer
370
-1
48
1
60
0
100
AcDbEllipse
10
62.428744
20
13.070444
30
0
11
-0.00161411562329577
21
-0.186342719952893
31
0
210
0
220
0
230
1
40
0.965414
41
3.14152690234376
42
-2.10960119727974
0
ELLIPSE
5
1FC
100
AcDbEntity
8
1
62
256
6
ByLayer
370
-1
48
1
60
0
100
AcDbEllipse
10
64.46895
20
-3.225159
30
0
11
0.276859395390383
21
0.179579718186859
31
0
210
0
220
0
230
1
40
0.674227
41
-1.78925443632677
42
-1.4455449336893
0
ELLIPSE
5
1FD
100
AcDbEntity
8
1
62
256
6
ByLayer
370
-1
48
1
60
0
100
AcDbEllipse
10
58.872617
20
3.379538
30
0
11
-4.35821835901944
21
-0.13511880507093
31
0
210
0
220
0
230
1
40
0.767733
41
-3.00881237350672
42
-2.85431225962881
0
ELLIPSE
5
1FE
100
AcDbEntity
8
1
62
256
6
ByLayer
370
-1
48
1
60
0
100
AcDbEllipse
10
56.785606
20
8.381536
30
0
11
0.0710457241211566
21
0.0703740370030064
31
0
210
0
220
0
230
1
40
0.163559
41
1.3633224579968
42
2.06145415879437
0
ELLIPSE
5
1FF
100
AcDbEntity
8
1
62
256
6
ByLayer
370
-1
48
1
60
0
100
AcDbEllipse
10
56.29874
20
8.873048
30
0
11
0.0710457241211566
21
0.0703740370030064
31
0
210
0
220
0
230
1
40
0.163559
41
1.3633224579968
42
2.06145415879478
0
ELLIPSE
5
200
100
AcDbEntity
8
1
62
256
6
ByLayer
370
-1
48
1
60
0
100
AcDbEllipse
10
51.549556
20
4.704287
30
0
11
-0.532211092176587
21
-0.846611689834368
31
0
210
0
220
0
230
1
40
0.021035
41
-1.59643525511261
42
-1.10150112877168
0
ELLIPSE
5
201
100
AcDbEntity
8
1
62
256
6
ByLayer
370
-1
48
1
60
0
100
AcDbEllipse
10
62.448745
20
6.762656
30
0
11
-0.0824623377524208
21
-0.0565682141525227
31
0
210
0
220
0
230
1
40
0.19725
41
-1.74581400809874
42
-0.436817069103168
0
ELLIPSE
5
202
100
AcDbEntity
8
1
62
256
6
ByLayer
370
-1
48
1
60
0
100
AcDbEllipse
10
63.191699
20
3.876244
30
0
11
0.0226218689952141
21
-0.0974076539249528
31
0
210
0
220
0
230
1
40
0.09421
41
1.81763537583641
42
2.51576707663372
0
ELLIPSE
5
203
100
AcDbEntity
8
1
62
256
6
ByLayer
370
-1
48
1
60
0
100
AcDbEllipse
10
63.370424
20
6.976706
30
0
11
-0.0490194509069017
21
-0.0871613069703861
31
0
210
0
220
0
230
1
40
0.1004
41
-2.4775708822941
42
-1.8152096512779
0
ELLIPSE
5
204
100
AcDbEntity
8
1
62
256
6
ByLayer
370
-1
48
1
60
0
100
AcDbEllipse
10
57.750583
20
4.512282
30
0
11
-2.99116484606641
21
3.88693241830974
31
0
210
0
220
0
230
1
40
0.796258
41
1.97113705044495
42
2.1256371643776
0
ELLIPSE
5
205
100
AcDbEntity
8
1
62
256
6
ByLayer
370
-1
48
1
60
0
100
AcDbEllipse
10
63.009584
20
0.489862
30
0
11
-0.158449504281929
21
0.13007211304815
31
0
210
0
220
0
230
1
40
0.223464
41
0.785509211485617
42
1.70930907105938
0
ELLIPSE
5
206
100
AcDbEntity
8
1
62
256
6
ByLayer
370
-1
48
1
60
0
100
AcDbEllipse
10
50.646371
20
6.717784
30
0
11
-0.280651561541623
21
-0.505258241642599
31
0
210
0
220
0
230
1
40
0.085059
41
1.09764262936222
42
1.3594420174544
0
ELLIPSE
5
207
100
AcDbEntity
8
1
62
256
6
ByLayer
370
-1
48
1
60
0
100
AcDbEllipse
10
58.269148
20
-0.030182
30
0
11
-0.00884938480955067
21
-0.0996076723374886
31
0
210
0
220
0
230
1
40
0.657299
41
3.13906598488092
42
-1.89742497314115
0
ELLIPSE
5
208
100
AcDbEntity
8
1
62
256
6
ByLayer
370
-1
48
1
60
0
100
AcDbEllipse
10
55.808542
20
0.152401
30
0
11
0.0859656572363126
21
0.0510872369181268
31
0
210
0
220
0
230
1
40
0.207863
41
1.40896200744627
42
2.36889253148472
0
ELLIPSE
5
209
100
AcDbEntity
8
1
62
256
6
ByLayer
370
-1
48
1
60
0
100
AcDbEllipse
10
51.607849
20
1.884483
30
0
11
-0.608463876801444
21
1.27434235263795
31
0
210
0
220
0
230
1
40
0.632025
41
-0.84870719799253
42
-0.353773071654178
0
ELLIPSE
5
20A
100
AcDbEntity
8
1
62
256
6
ByLayer
370
-1
48
1
60
0
100
AcDbEllipse
10
56.001728
20
0.801848
30
0
11
0.0575262807909878
21
0.0817968643552822
31
0
210
0
220
0
230
1
40
0.124599
41
0.0287160094830221
42
1.33771294847883
0
ELLIPSE
5
20B
100
AcDbEntity
8
1
62
256
6
ByLayer
370
-1
48
1
60
0
100
AcDbEllipse
10
65.155878
20
11.563042
30
0
11
-1.63686909779811
21
-0.900952860472212
31
0
210
0
220
0
230
1
40
0.535112
41
0.00614484231381834
42
0.501078968655948
0
ELLIPSE
5
20C
100
AcDbEntity
8
1
62
256
6
ByLayer
370
-1
48
1
60
0
100
AcDbEllipse
10
62.947032
20
4.480308
30
0
11
-0.0536013420567971
21
-0.0844209460365746
31
0
210
0
220
0
230
1
40
0.678931
41
-2.22377349089553
42
-1.30316773047771
0
ELLIPSE
5
20D
100
AcDbEntity
8
1
62
256
6
ByLayer
370
-1
48
1
60
0
100
AcDbEllipse
10
54.576479
20
6.339012
30
0
11
-0.0658097285457241
21
0.0752932907285776
31
0
210
0
220
0
230
1
40
0.787867
41
-2.57142491310816
42
-1.42044402041917
0
ELLIPSE
5
20E
100
AcDbEntity
8
1
62
256
6
ByLayer
370
-1
48
1
60
0
100
AcDbEllipse
10
64.295811
20
-0.690847
30
0
11
-0.272112542250441
21
-0.08130084715829
31
0
210
0
220
0
230
1
40
0.912025
41
-1.7286958450365
42
-0.785147526415904
0
ELLIPSE
5
20F
100
AcDbEntity
8
1
62
256
6
ByLayer
370
-1
48
1
60
0
100
AcDbEllipse
10
58.663049
20
4.379076
30
0
11
-4.51893735051296
21
0.588935417692965
31
0
210
0
220
0
230
1
40
0.965377
41
-0.333818222667579
42
1.07282276003996
0
ELLIPSE
5
210
100
AcDbEntity
8
1
62
256
6
ByLayer
370
-1
48
1
60
0
100
AcDbEllipse
10
64.428134
20
-0.271877
30
0
11
0.148742134389729
21
-0.0193849801957126
31
0
210
0
220
0
230
1
40
0.965377
41
-1.3419909208014
42
-0.39844260219133
0
ELLIPSE
5
211
100
AcDbEntity
8
1
62
256
6
ByLayer
370
-1
48
1
60
0
100
AcDbEllipse
10
56.001728
20
0.801848
30
0
11
0.0556263102572337
21
0.0831006233861454
31
0
210
0
220
0
230
1
40
0.563956
41
-1.18548539085854
42
-0.0345044981696416
0
ELLIPSE
5
212
100
AcDbEntity
8
1
62
256
6
ByLayer
370
-1
48
1
60
0
100
AcDbEllipse
10
60.122346
20
11.306738
30
0
11
-0.00251084653392032
21
-0.289866453255966
31
0
210
0
220
0
230
1
40
0.965414
41
-0.943614069829662
42
-6.57512167844912E-05
0
ELLIPSE
5
213
100
AcDbEntity
8
1
62
256
6
ByLayer
370
-1
48
1
60
0
100
AcDbEllipse
10
59.543441
20
3.999771
30
0
11
-4.16762613108277
21
-2.30485214033343
31
0
210
0
220
0
230
1
40
0.787687
41
0.862252872361097
42
1.0167529861975
0
ELLIPSE
5
214
100
AcDbEntity
8
1
62
256
6
ByLayer
370
-1
48
1
60
0
100
AcDbEllipse
10
62.611183
20
5.785097
30
0
11
0.0951478959622835
21
-0.0307713810861731
31
0
210
0
220
0
230
1
40
0.345826
41
-2.18957080759234
42
-1.26896504717457
0
ELLIPSE
5
215
100
AcDbEntity
8
1
62
256
6
ByLayer
370
-1
48
1
60
0
100
AcDbEllipse
10
62.448745
20
6.762656
30
0
11
0.0226218689952141
21
-0.0974076539249528
31
0
210
0
220
0
230
1
40
0.09421
41
1.11950367503849
42
1.81763537583619
0
ELLIPSE
5
216
100
AcDbEntity
8
1
62
256
6
ByLayer
370
-1
48
1
60
0
100
AcDbEllipse
10
53.712478
20
8.62233
30
0
11
-0.265908567721636
21
-0.157297654509146
31
0
210
0
220
0
230
1
40
0.201994
41
0.715965162915957
42
1.41409686371928
0
ELLIPSE
5
217
100
AcDbEntity
8
1
62
256
6
ByLayer
370
-1
48
1
60
0
100
AcDbEllipse
10
56.253877
20
7.799246
30
0
11
0.0780099956695133
21
-0.062565490293312
31
0
210
0
220
0
230
1
40
0.460732
41
-1.76910077789147
42
-0.522406428734033
0
ELLIPSE
5
218
100
AcDbEntity
8
1
62
256
6
ByLayer
370
-1
48
1
60
0
100
AcDbEllipse
10
57.233517
20
-2.032166
30
0
11
-0.265224991365187
21
0.158713247782756
31
0
210
0
220
0
230
1
40
0.233432
41
1.67181196393074
42
2.36994366469881
0
ELLIPSE
5
219
100
AcDbEntity
8
1
62
256
6
ByLayer
370
-1
48
1
60
0
100
AcDbEllipse
10
49.375934
20
3.505362
30
0
11
0.0274746039317433
21
0.32885429317373
31
0
210
0
220
0
230
1
40
0.244295
41
1.97465489698053
42
2.32372074737942
0
ELLIPSE
5
21A
100
AcDbEntity
8
1
62
256
6
ByLayer
370
-1
48
1
60
0
100
AcDbEllipse
10
62.508461
20
12.956135
30
0
11
-0.288698377001562
21
-0.159853830472292
31
0
210
0
220
0
230
1
40
0.315878
41
-1.71284961397152
42
-1.3691401113341
0
ELLIPSE
5
21B
100
AcDbEntity
8
1
62
256
6
ByLayer
370
-1
48
1
60
0
100
AcDbEllipse
10
48.967476
20
6.327477
30
0
11
-1.21743257242779
21
1.45058321512194
31
0
210
0
220
0
230
1
40
0.451825
41
-2.99197551897747
42
-2.49704139262736
0
ELLIPSE
5
21C
100
AcDbEntity
8
1
62
256
6
ByLayer
370
-1
48
1
60
0
100
AcDbEllipse
10
56.631316
20
0.438013
30
0
11
0.0440775781340838
21
0.0897617240578285
31
0
210
0
220
0
230
1
40
0.595974
41
-1.26297017151952
42
-0.0162758223620058
0
ELLIPSE
5
21D
100
AcDbEntity
8
1
62
256
6
ByLayer
370
-1
48
1
60
0
100
AcDbEllipse
10
62.508461
20
12.956135
30
0
11
0.329964582601559
21
-0.00483469012230095
31
0
210
0
220
0
230
1
40
0.17881
41
1.30318906781632
42
1.90460846412714
0
ELLIPSE
5
21E
100
AcDbEntity
8
1
62
256
6
ByLayer
370
-1
48
1
60
0
100
AcDbEllipse
10
48.79889
20
3.255626
30
0
11
-0.16300178703012
21
0.0802780296987871
31
0
210
0
220
0
230
1
40
0.905973
41
-0.0842231028998877
42
0.947834104664719
0
ELLIPSE
5
21F
100
AcDbEntity
8
1
62
256
6
ByLayer
370
-1
48
1
60
0
100
AcDbEllipse
10
58.66055
20
4.359904
30
0
11
4.4231547711367
21
-0.57645244901755
31
0
210
0
220
0
230
1
40
0.965377
41
0.713379328529016
42
2.12002031123655
0
ELLIPSE
5
220
100
AcDbEntity
8
1
62
256
6
ByLayer
370
-1
48
1
60
0
100
AcDbEllipse
10
60.848301
20
11.300401
30
0
11
-0.00251084654557972
21
-0.289866453257157
31
0
210
0
220
0
230
1
40
0.965414
41
-6.5751178153343E-05
42
1.03199145638361
0
ELLIPSE
5
221
100
AcDbEntity
8
1
62
256
6
ByLayer
370
-1
48
1
60
0
100
AcDbEllipse
10
55.170301
20
6.703383
30
0
11
0.000997647478522308
21
0.099995023373709
31
0
210
0
220
0
230
1
40
0.620415
41
-1.80951440782687
42
-0.888908647408944
0
ELLIPSE
5
222
100
AcDbEntity
8
1
62
256
6
ByLayer
370
-1
48
1
60
0
100
AcDbEllipse
10
60.193348
20
-3.636292
30
0
11
-0.247903557316213
21
0.0323083003261869
31
0
210
0
220
0
230
1
40
0.965377
41
1.17235372460358
42
1.71109284383707
0
ELLIPSE
5
223
100
AcDbEntity
8
1
62
256
6
ByLayer
370
-1
48
1
60
0
100
AcDbEllipse
10
64.072465
20
-2.613894
30
0
11
-0.530469300091535
21
0.842474609446567
31
0
210
0
220
0
230
1
40
0.331224
41
2.96378801158467
42
-2.97568779301659
0
ELLIPSE
5
224
100
AcDbEntity
8
1
62
256
6
ByLayer
370
-1
48
1
60
0
100
AcDbEllipse
10
58.66055
20
4.359904
30
0
11
4.4231547711367
21
-0.57645244901755
31
0
210
0
220
0
230
1
40
0.965377
41
2.80777443092221
42
-2.06876989354984
0
ELLIPSE
5
225
100
AcDbEntity
8
1
62
256
6
ByLayer
370
-1
48
1
60
0
100
AcDbEllipse
10
53.916627
20
7.005163
30
0
11
0.0897829722859676
21
0.0440342808218459
31
0
210
0
220
0
230
1
40
0.49476
41
0.776327423632577
42
2.02268152215714
0
ELLIPSE
5
226
100
AcDbEntity
8
1
62
256
6
ByLayer
370
-1
48
1
60
0
100
AcDbEllipse
10
51.549556
20
4.704287
30
0
11
0.999786389681427
21
0.0206682124959739
31
0
210
0
220
0
230
1
40
0.381063
41
-1.83820373685133
42
-1.34326961051042
0
ELLIPSE
5
227
100
AcDbEntity
8
1
62
256
6
ByLayer
370
-1
48
1
60
0
100
AcDbEllipse
10
51.491101
20
1.908359
30
0
11
-0.253558335379926
21
0.124876935087803
31
0
210
0
220
0
230
1
40
0.905973
41
-3.13730686753587
42
-2.19375854892255
0
ELLIPSE
5
228
100
AcDbEntity
8
1
62
256
6
ByLayer
370
-1
48
1
60
0
100
AcDbEllipse
10
55.728277
20
9.6719
30
0
11
-0.86417714852943
21
-0.484107231844483
31
0
210
0
220
0
230
1
40
0.105927
41
1.60185228018949
42
1.75385363736741
0
ELLIPSE
5
229
100
AcDbEntity
8
1
62
256
6
ByLayer
370
-1
48
1
60
0
100
AcDbEllipse
10
48.684129
20
1.710329
30
0
11
-0.178490561267673
21
0.0232619762348545
31
0
210
0
220
0
230
1
40
0.965377
41
0.648754949005254
42
1.68081215656661
0
ELLIPSE
5
22A
100
AcDbEntity
8
1
62
256
6
ByLayer
370
-1
48
1
60
0
100
AcDbEllipse
10
63.191699
20
3.876244
30
0
11
-0.0979416939428772
21
-0.0201847612718055
31
0
210
0
220
0
230
1
40
0.8121
41
-1.60575182680189
42
-0.454770934112852
0
ELLIPSE
5
22B
100
AcDbEntity
8
1
62
256
6
ByLayer
370
-1
48
1
60
0
100
AcDbEllipse
10
58.641201
20
4.211442
30
0
11
4.27065768295397
21
-0.556578100390949
31
0
210
0
220
0
230
1
40
0.965377
41
0.564311816031094
42
2.26908782373448
0
ELLIPSE
5
22C
100
AcDbEntity
8
1
62
256
6
ByLayer
370
-1
48
1
60
0
100
AcDbEllipse
10
63.87175
20
4.034179
30
0
11
-0.0857299184551943
21
0.0514818519642188
31
0
210
0
220
0
230
1
40
0.240425
41
-2.42626890175513
42
-1.46633837771715
0
ELLIPSE
5
22D
100
AcDbEntity
8
1
62
256
6
ByLayer
370
-1
48
1
60
0
100
AcDbEllipse
10
63.602275
20
-3.396879
30
0
11
-1.07712839105386
21
-0.0770464007434971
31
0
210
0
220
0
230
1
40
0.281524
41
2.94642280839949
42
-2.99305299607833
0
ELLIPSE
5
22E
100
AcDbEntity
8
1
62
256
6
ByLayer
370
-1
48
1
60
0
100
AcDbEllipse
10
62.50149
20
12.480396
30
0
11
0.287254667490144
21
0.162433851167566
31
0
210
0
220
0
230
1
40
0.016158
41
1.25000937400418
42
1.59907522440312
0
ELLIPSE
5
22F
100
AcDbEntity
8
1
62
256
6
ByLayer
370
-1
48
1
60
0
100
AcDbEllipse
10
62.508461
20
12.956135
30
0
11
-0.282887868121118
21
0.169924848300326
31
0
210
0
220
0
230
1
40
0.284821
41
-1.71330208459105
42
-1.36959258195354
0
ELLIPSE
5
230
100
AcDbEntity
8
1
62
256
6
ByLayer
370
-1
48
1
60
0
100
AcDbEllipse
10
64.083612
20
-3.064214
30
0
11
-0.127183466692523
21
-0.304506758217403
31
0
210
0
220
0
230
1
40
0.504267
41
0.987942314128463
42
1.58936171043936
0
ELLIPSE
5
231
100
AcDbEntity
8
1
62
256
6
ByLayer
370
-1
48
1
60
0
100
AcDbEllipse
10
64.083612
20
-3.064214
30
0
11
0.0213831913664047
21
-0.329306482060387
31
0
210
0
220
0
230
1
40
0.180834
41
0.822806078782227
42
1.17187192918107
0
ELLIPSE
5
232
100
AcDbEntity
8
1
62
256
6
ByLayer
370
-1
48
1
60
0
100
AcDbEllipse
10
51.128124
20
2.519145
30
0
11
-0.253558335383365
21
0.124876935085269
31
0
210
0
220
0
230
1
40
0.905973
41
-2.19375854893722
42
-1.16170134137691
0
ELLIPSE
5
233
100
AcDbEntity
8
1
62
256
6
ByLayer
370
-1
48
1
60
0
100
AcDbEllipse
10
64.400404
20
-4.868053
30
0
11
-0.178490561267673
21
0.0232619762348545
31
0
210
0
220
0
230
1
40
0.965377
41
1.71109284383713
42
2.74315005139845
0
ELLIPSE
5
234
100
AcDbEntity
8
1
62
256
6
ByLayer
370
-1
48
1
60
0
100
AcDbEllipse
10
59.767837
20
11.666472
30
0
11
-1.56248848217983
21
0.935776669080335
31
0
210
0
220
0
230
1
40
0.367815
41
2.59068451332878
42
-3.13882819591395
0
ELLIPSE
5
235
100
AcDbEntity
8
1
62
256
6
ByLayer
370
-1
48
1
60
0
100
AcDbEllipse
10
62.021504
20
12.145458
30
0
11
-0.55679291588244
21
-0.945842903945164
31
0
210
0
220
0
230
1
40
0.300548
41
2.96958536214202
42
-2.96989044242002
0
ELLIPSE
5
236
100
AcDbEntity
8
1
62
256
6
ByLayer
370
-1
48
1
60
0
100
AcDbEllipse
10
64.992583
20
5.288184
30
0
11
-0.00254601627060556
21
-0.308566300365035
31
0
210
0
220
0
230
1
40
0.03172
41
-1.31631437660291
42
-0.61818267503173
0
ELLIPSE
5
237
100
AcDbEntity
8
1
62
256
6
ByLayer
370
-1
48
1
60
0
100
AcDbEllipse
10
54.576479
20
6.339012
30
0
11
0.088953342698936
21
-0.0456870093427624
31
0
210
0
220
0
230
1
40
0.24646
41
0.350105898020384
42
1.65910283701622
0
ELLIPSE
5
238
100
AcDbEntity
8
1
62
256
6
ByLayer
370
-1
48
1
60
0
100
AcDbEllipse
10
59.667819
20
11.19622
30
0
11
0.148742134389729
21
-0.0193849801957126
31
0
210
0
220
0
230
1
40
0.965377
41
0.752404181591643
42
1.69595250020184
0
ELLIPSE
5
239
100
AcDbEntity
8
1
62
256
6
ByLayer
370
-1
48
1
60
0
100
AcDbEllipse
10
58.636079
20
4.172139
30
0
11
3.97514197230614
21
-0.518064694475849
31
0
210
0
220
0
230
1
40
0.965377
41
0
42
6.28318530717959
0
ELLIPSE
5
23A
100
AcDbEntity
8
1
62
256
6
ByLayer
370
-1
48
1
60
0
100
AcDbEllipse
10
58.636079
20
4.172139
30
0
11
4.07430339523262
21
-0.530988014606323
31
0
210
0
220
0
230
1
40
0.965377
41
-1.61823373186522
42
0.262843166844402
0
ELLIPSE
5
23B
100
AcDbEntity
8
1
62
256
6
ByLayer
370
-1
48
1
60
0
100
AcDbEllipse
10
54.492836
20
9.050954
30
0
11
-0.265908567742184
21
-0.157297654519928
31
0
210
0
220
0
230
1
40
0.201994
41
1.41409686374925
42
2.11222856450112
0
ELLIPSE
5
23C
100
AcDbEntity
8
1
62
256
6
ByLayer
370
-1
48
1
60
0
100
AcDbEllipse
10
62.473541
20
10.060988
30
0
11
-0.00207269667715512
21
-0.474969161028887
31
0
210
0
220
0
230
1
40
0.99947
41
0.334080921010293
42
0.519234948027193
0
ELLIPSE
5
23D
100
AcDbEntity
8
1
62
256
6
ByLayer
370
-1
48
1
60
0
100
AcDbEllipse
10
58.636079
20
4.172139
30
0
11
4.07430339523262
21
-0.530988014606323
31
0
210
0
220
0
230
1
40
0.965377
41
2.57055647292118
42
-1.8315519355488
0
ELLIPSE
5
23E
100
AcDbEntity
8
1
62
256
6
ByLayer
370
-1
48
1
60
0
100
AcDbEllipse
10
58.953808
20
-0.042042
30
0
11
-0.00537370035298821
21
0.0998555123391608
31
0
210
0
220
0
230
1
40
0.049209
41
-1.31141086757912
42
-0.00241392858454915
0
ELLIPSE
5
23F
100
AcDbEntity
8
1
62
256
6
ByLayer
370
-1
48
1
60
0
100
AcDbEllipse
10
64.5201
20
-0.249476
30
0
11
-1.31388551692292
21
-1.41251967007346
31
0
210
0
220
0
230
1
40
0.457532
41
-0.616819571957562
42
-0.121885445608573
0
ELLIPSE
5
240
100
AcDbEntity
8
1
62
256
6
ByLayer
370
-1
48
1
60
0
100
AcDbEllipse
10
58.421407
20
5.132514
30
0
11
-0.457022825452627
21
5.20779046577116
31
0
210
0
220
0
230
1
40
0.820481
41
-1.48782265966807
42
-1.33332254570265
0
ELLIPSE
5
241
100
AcDbEntity
8
1
62
256
6
ByLayer
370
-1
48
1
60
0
100
AcDbEllipse
10
62.50149
20
12.480396
30
0
11
0.284376105461714
21
-0.16742231225983
31
0
210
0
220
0
230
1
40
0.016405
41
-1.9479990122715
42
-1.59893316187238
0
ELLIPSE
5
242
100
AcDbEntity
8
1
62
256
6
ByLayer
370
-1
48
1
60
0
100
AcDbEllipse
10
49.375934
20
3.505362
30
0
11
-0.126635808899253
21
0.304734920717058
31
0
210
0
220
0
230
1
40
0.555252
41
1.52269464233224
42
2.12411403864307
0
ELLIPSE
5
243
100
AcDbEntity
8
1
62
256
6
ByLayer
370
-1
48
1
60
0
100
AcDbEllipse
10
62.448745
20
6.762656
30
0
11
0.0960061990074335
21
0.0279787375009146
31
0
210
0
220
0
230
1
40
0.440961
41
-2.66123226009799
42
-1.51025136740895
0
ELLIPSE
5
244
100
AcDbEntity
8
1
62
256
6
ByLayer
370
-1
48
1
60
0
100
AcDbEllipse
10
49.004537
20
3.351024
30
0
11
0.282937595419736
21
-0.16984203572172
31
0
210
0
220
0
230
1
40
0.699307
41
-1.77208171567268
42
-1.42837221303521
0
ELLIPSE
5
245
100
AcDbEntity
8
1
62
256
6
ByLayer
370
-1
48
1
60
0
100
AcDbEllipse
10
64.984486
20
4.891523
30
0
11
-0.000462075797447263
21
0.125849166800119
31
0
210
0
220
0
230
1
40
0.030535
41
-2.2488596855913
42
-0.751747497313327
0
ELLIPSE
5
246
100
AcDbEntity
8
1
62
256
6
ByLayer
370
-1
48
1
60
0
100
AcDbEllipse
10
55.028241
20
6.666042
30
0
11
-0.0512433440436646
21
0.0858726946777765
31
0
210
0
220
0
230
1
40
0.771982
41
-2.52636745404935
42
-1.27967310489188
0
ELLIPSE
5
247
100
AcDbEntity
8
1
62
256
6
ByLayer
370
-1
48
1
60
0
100
AcDbEllipse
10
54.784502
20
9.153473
30
0
11
-0.119693117990185
21
-0.0782872709117942
31
0
210
0
220
0
230
1
40
0.150921
41
-2.60150427542277
42
-1.10439208713382
0
ELLIPSE
5
248
100
AcDbEntity
8
1
62
256
6
ByLayer
370
-1
48
1
60
0
100
AcDbEllipse
10
64.992583
20
6.159057
30
0
11
-0.00254601628387601
21
-0.308566300403769
31
0
210
0
220
0
230
1
40
0.03172
41
-2.0144460768244
42
-1.31631437508589
0
POINT
5
41
100
AcDbEntity
8
80
62
256
6
ByLayer
370
-1
48
1
60
0
100
AcDbPoint
10
0
20
0
30
0
39
0
210
0
220
0
230
1
50
360
0
POINT
5
43
100
AcDbEntity
8
81
62
256
6
ByLayer
370
-1
48
1
60
0
100
AcDbPoint
10
65
20
14.875
30
0
39
0
210
0
220
0
230
1
50
360
0
POINT
5
45
100
AcDbEntity
8
2
62
256
6
ByLayer
370
-1
48
1
60
0
100
AcDbPoint
10
65
20
14.875
30
0
39
0
210
0
220
0
230
1
50
360
0
POINT
5
47
100
AcDbEntity
8
1
62
256
6
ByLayer
370
-1
48
1
60
0
100
AcDbPoint
10
65.015343
20
14.992726
30
0
39
0
210
0
220
0
230
1
50
360
0
POINT
5
49
100
AcDbEntity
8
1
62
256
6
ByLayer
370
-1
48
1
60
0
100
AcDbPoint
10
62.501421
20
13.256166
30
0
39
0
210
0
220
0
230
1
50
360
0
SPLINE
5
249
100
AcDbEntity
8
SK1
62
256
6
ByLayer
370
-1
48
1
60
0
100
AcDbSpline
70
4
71
2
72
6
73
3
40
0
40
0
40
0
40
1
40
1
40
1
41
1
10
-2.19492113517947
20
17.5202263833814
30
0
41
1
10
-2.59746056758974
20
17.510113191717
30
0
41
1
10
-3
20
17.5000000000527
30
0
0
SPLINE
5
24A
100
AcDbEntity
8
SK1
62
256
6
ByLayer
370
-1
48
1
60
0
100
AcDbSpline
70
4
71
2
72
6
73
3
40
0
40
0
40
0
40
1
40
1
40
1
41
1
10
-3
20
-17.5000000000204
30
0
41
1
10
-2.59746056758974
20
-17.5101131916847
30
0
41
1
10
-2.19492113517947
20
-17.5202263833491
30
0
0
SPLINE
5
24B
100
AcDbEntity
8
SK1
62
256
6
ByLayer
370
-1
48
1
60
0
100
AcDbSpline
70
4
71
2
72
6
73
3
40
0
40
0
40
0
40
1
40
1
40
1
41
1
10
-3
20
17.5000000000527
30
0
41
1
10
-15.7502365839532
20
17.1796696772131
30
0
41
1
10
-28.5004731679065
20
16.8593393543735
30
0
0
SPLINE
5
24C
100
AcDbEntity
8
SK1
62
256
6
ByLayer
370
-1
48
1
60
0
100
AcDbSpline
70
4
71
2
72
6
73
3
40
0
40
0
40
0
40
1
40
1
40
1
41
1
10
-28.5004731679065
20
-16.8593393543424
30
0
41
1
10
-15.7502365839532
20
-17.1796696771814
30
0
41
1
10
-3
20
-17.5000000000204
30
0
0
SPLINE
5
24D
100
AcDbEntity
8
SK1
62
256
6
ByLayer
370
-1
48
1
60
0
100
AcDbSpline
70
4
71
3
72
13
73
9
40
0
40
0
40
0
40
0
40
0.239468143101074
40
0.368375717557475
40
0.500016413682613
40
0.631654380070984
40
0.76055442752932
40
1
40
1
40
1
40
1
41
1
10
-2
20
17.3251501409626
30
0
41
1
10
-2.02607195862893
20
17.3254032171872
30
0
41
1
10
-2.06363514911803
20
17.3325204701499
30
0
41
1
10
-2.11047805080219
20
17.3567460306058
30
0
41
1
10
-2.14242236455519
20
17.382721349279
30
0
41
1
10
-2.16840047419731
20
17.414662371353
30
0
41
1
10
-2.19262861856615
20
17.4615002450208
30
0
41
1
10
-2.19974657466872
20
17.4990601036781
30
0
41
1
10
-2.19999999999999
20
17.5251299249899
30
0
0
SPLINE
5
24E
100
AcDbEntity
8
SK1
62
256
6
ByLayer
370
-1
48
1
60
0
100
AcDbSpline
70
4
71
3
72
13
73
9
40
0
40
0
40
0
40
0
40
0.239445575724619
40
0.368345624848082
40
0.499983592440208
40
0.631624288955049
40
0.760531862675221
40
1
40
1
40
1
40
1
41
1
10
-2.20000000000002
20
-17.5251299251291
30
0
41
1
10
-2.19974657467478
20
-17.4990601038703
30
0
41
1
10
-2.19262861856453
20
-17.4615002452731
30
0
41
1
10
-2.16840047423858
20
-17.4146623717452
30
0
41
1
10
-2.14242236464554
20
-17.3827213497399
30
0
41
1
10
-2.11047805094367
20
-17.3567460311215
30
0
41
1
10
-2.06363514965122
20
-17.3325204707743
30
0
41
1
10
-2.02607195888453
20
-17.3254032177991
30
0
41
1
10
-2
20
-17.3251501414068
30
0
0
SPLINE
5
24F
100
AcDbEntity
8
SK1
62
256
6
ByLayer
370
-1
48
1
60
0
100
AcDbSpline
70
4
71
2
72
6
73
3
40
0
40
0
40
0
40
1
40
1
40
1
41
1
10
-0.400000000000006
20
17.3251501409626
30
0
41
1
10
-1.20000000000002
20
17.3251501409626
30
0
41
1
10
-2
20
17.3251501409626
30
0
0
SPLINE
5
250
100
AcDbEntity
8
SK1
62
256
6
ByLayer
370
-1
48
1
60
0
100
AcDbSpline
70
4
71
2
72
6
73
3
40
0
40
0
40
0
40
1
40
1
40
1
41
1
10
-2
20
-17.3251501414068
30
0
41
1
10
-1.20000000000002
20
-17.3251501414068
30
0
41
1
10
-0.400000000000006
20
-17.3251501414068
30
0
0
SPLINE
5
251
100
AcDbEntity
8
SK1
62
256
6
ByLayer
370
-1
48
1
60
0
100
AcDbSpline
70
4
71
2
72
6
73
3
40
0
40
0
40
0
40
1
40
1
40
1
41
1
10
-28.5003904504266
20
16.8597456617469
30
0
41
1
10
-29.2501952787077
20
16.4010253845871
30
0
41
1
10
-30
20
15.9423013487186
30
0
0
SPLINE
5
252
100
AcDbEntity
8
SK1
62
256
6
ByLayer
370
-1
48
1
60
0
100
AcDbSpline
70
4
71
2
72
6
73
3
40
0
40
0
40
0
40
1
40
1
40
1
41
1
10
-30
20
-15.9408160639395
30
0
41
1
10
-29.250201613525
20
-16.3993636736336
30
0
41
1
10
-28.5004032853135
20
-16.8579102610954
30
0
0
SPLINE
5
253
100
AcDbEntity
8
SK1
62
256
6
ByLayer
370
-1
48
1
60
0
100
AcDbSpline
70
4
71
3
72
11
73
7
40
0
40
0
40
0
40
0
40
0.245755007744093
40
0.501794198211011
40
0.756953870258399
40
1
40
1
40
1
40
1
41
1
10
-0.200000000000017
20
17.5191731511753
30
0
41
1
10
-0.199994647676391
20
17.493844966999
30
0
41
1
10
-0.20935024226452
20
17.445622853432
30
0
41
1
10
-0.254178184246655
20
17.3766360753193
30
0
41
1
10
-0.3244207367608
20
17.33275982811
30
0
41
1
10
-0.373991067023667
20
17.3239685556465
30
0
41
1
10
-0.400000000000006
20
17.3241476526065
30
0
0
SPLINE
5
254
100
AcDbEntity
8
SK1
62
256
6
ByLayer
370
-1
48
1
60
0
100
AcDbSpline
70
4
71
3
72
11
73
7
40
0
40
0
40
0
40
0
40
0.243046950855206
40
0.49820466819262
40
0.754242469704742
40
1
40
1
40
1
40
1
41
1
10
-0.400000000000006
20
-17.3241468641747
30
0
41
1
10
-0.373991174653753
20
-17.323967489369
30
0
41
1
10
-0.324421202647557
20
-17.332758304075
30
0
41
1
10
-0.254178044541106
20
-17.3766339294131
30
0
41
1
10
-0.209350044376066
20
-17.4456203921356
30
0
41
1
10
-0.199994500672233
20
-17.4938412312525
30
0
41
1
10
-0.200000000000017
20
-17.5191688355708
30
0
0
SPLINE
5
255
100
AcDbEntity
8
1
62
256
6
ByLayer
370
-1
48
1
60
0
100
AcDbSpline
70
4
71
3
72
8
73
4
40
0
40
0
40
0
40
0
40
1
40
1
40
1
40
1
41
1
10
47.6669115460271
20
4.79200162167072
30
0
41
1
10
47.6914724003729
20
4.79362512170931
30
0
41
1
10
47.7159761172999
20
4.79485710810425
30
0
41
1
10
47.7404050703753
20
4.79570002942111
30
0
0
SPLINE
5
256
100
AcDbEntity
8
1
62
256
6
ByLayer
370
-1
48
1
60
0
100
AcDbSpline
70
4
71
3
72
8
73
4
40
0
40
0
40
0
40
0
40
1
40
1
40
1
40
1
41
1
10
42.4543319660036
20
10.2856365756976
30
0
41
1
10
42.4502576357055
20
10.2808714665209
30
0
41
1
10
42.4461277900186
20
10.2761092618617
30
0
41
1
10
42.4419417053886
20
10.2713501658451
30
0
0
SPLINE
5
257
100
AcDbEntity
8
1
62
256
6
ByLayer
370
-1
48
1
60
0
100
AcDbSpline
70
4
71
3
72
12
73
8
40
0
40
0
40
0
40
0
40
0.347965792578539
40
0.347965792578539
40
0.700683173726762
40
0.700683173726762
40
1
40
1
40
1
40
1
41
1
10
44.2863658741132
20
-9.42090167612022
30
0
41
1
10
44.4511717094079
20
-9.31825605048613
30
0
41
1
10
44.6573554755488
20
-9.20756146796649
30
0
41
1
10
45.153509302278
20
-9.00629419656451
30
0
41
1
10
45.4533006038665
20
-8.91382237064462
30
0
41
1
10
46.0527304730576
20
-8.8028900916571
30
0
41
1
10
46.354218651711
20
-8.77431643832855
30
0
41
1
10
46.6508018945018
20
-8.77431643832855
30
0
0
SPLINE
5
258
100
AcDbEntity
8
1
62
256
6
ByLayer
370
-1
48
1
60
0
100
AcDbSpline
70
4
71
3
72
18
73
14
40
0
40
0
40
0
40
0
40
0.0809805960321051
40
0.0809805960321051
40
0.544227292214096
40
0.544227292214096
40
0.69931826562168
40
0.69931826562168
40
0.856346274356486
40
0.856346274356486
40
0.966571999538835
40
0.966571999538835
40
1
40
1
40
1
40
1
41
1
10
11.8943375672974
20
23.6665017920809
30
0
41
1
10
11.8893471011257
20
23.672810013698
30
0
41
1
10
11.8840209914239
20
23.6790700603507
30
0
41
1
10
11.8459982791049
20
23.7205303134149
30
0
41
1
10
11.8022255638175
20
23.7548029562659
30
0
41
1
10
11.7151274219927
20
23.7938243006291
30
0
41
1
10
11.6903249195398
20
23.8031592998669
30
0
41
1
10
11.6339533178057
20
23.8196134016841
30
0
41
1
10
11.6016224931833
20
23.8268687494612
30
0
41
1
10
11.5411042357638
20
23.8353793525422
30
0
41
1
10
11.5139568123411
20
23.8378105604685
30
0
41
1
10
11.4781693033538
20
23.8389905264494
30
0
41
1
10
11.4697409388397
20
23.8391299750503
30
0
41
1
10
11.4613248654052
20
23.8391299750503
30
0
0
SPLINE
5
259
100
AcDbEntity
8
1
62
256
6
ByLayer
370
-1
48
1
60
0
100
AcDbSpline
70
4
71
3
72
16
73
12
40
0
40
0
40
0
40
0
40
0.0773436766578271
40
0.0773436766578271
40
0.181588290672557
40
0.181588290672557
40
0.353924998169921
40
0.353924998169921
40
0.659870482235913
40
0.659870482235913
40
1
40
1
40
1
40
1
41
1
10
8.5386751345948
20
23.8391299750503
30
0
41
1
10
8.51930872656195
20
23.8391299750503
30
0
41
1
10
8.4998079520166
20
23.8383766644784
30
0
41
1
10
8.45563565444411
20
23.8350242537625
30
0
41
1
10
8.43110003395827
20
23.8318379431383
30
0
41
1
10
8.37136994789253
20
23.8212426939765
30
0
41
1
10
8.33841285720999
20
23.812328084785
30
0
41
1
10
8.25926399475676
20
23.7850663392819
30
0
41
1
10
8.2201107256756
20
23.7642694363116
30
0
41
1
10
8.15317557860794
20
23.7185457490814
30
0
41
1
10
8.12652521949875
20
23.692873493267
30
0
41
1
10
8.10566243270259
20
23.6665017920809
30
0
0
SPLINE
5
25A
100
AcDbEntity
8
1
62
256
6
ByLayer
370
-1
48
1
60
0
100
AcDbSpline
70
4
71
3
72
8
73
4
40
0
40
0
40
0
40
0
40
1
40
1
40
1
40
1
41
1
10
42.76873264
20
10.5928337992133
30
0
41
1
10
42.6494003114416
20
10.4922116162918
30
0
41
1
10
42.5435125371439
20
10.3899371912193
30
0
41
1
10
42.4543319660036
20
10.2856365756976
30
0
0
SPLINE
5
25B
100
AcDbEntity
8
1
62
256
6
ByLayer
370
-1
48
1
60
0
100
AcDbSpline
70
4
71
3
72
30
73
26
40
0
40
0
40
0
40
0
40
0.0696756875853371
40
0.0696756875853371
40
0.13882221038331
40
0.13882221038331
40
0.240658590623662
40
0.240658590623662
40
0.385081473125109
40
0.385081473125109
40
0.460264677540948
40
0.460264677540948
40
0.520497714380479
40
0.520497714380479
40
0.580450115252107
40
0.580450115252107
40
0.699618555997758
40
0.699618555997758
40
0.830612882535414
40
0.830612882535414
40
0.912156659470319
40
0.912156659470319
40
0.98247500222156
40
0.98247500222156
40
1
40
1
40
1
40
1
41
1
10
44.0497266978151
20
0.927003728729829
30
0
41
1
10
44.0310173578196
20
0.91947366285433
30
0
41
1
10
44.0225519346856
20
0.933569109124022
30
0
41
1
10
44.0193520878829
20
1.0009760027045
30
0
41
1
10
44.0242978427265
20
1.05447297332449
30
0
41
1
10
44.0432753935765
20
1.21934577577574
30
0
41
1
10
44.0606127950728
20
1.34824080011924
30
0
41
1
10
44.0964563191995
20
1.69274055418887
30
0
41
1
10
44.1158215499806
20
1.92874742645012
30
0
41
1
10
44.0949944164939
20
2.29847413676311
30
0
41
1
10
44.0781249540961
20
2.43002597960225
30
0
41
1
10
44.0072028210216
20
2.65723259609806
30
0
41
1
10
43.9590333752995
20
2.75608600254952
30
0
41
1
10
43.830873280879
20
2.92985361091655
30
0
41
1
10
43.7507461625041
20
3.00679423397571
30
0
41
1
10
43.4955826249271
20
3.20947826271461
30
0
41
1
10
43.3020241196724
20
3.31818388326511
30
0
41
1
10
42.9125344005309
20
3.53505630721057
30
0
41
1
10
42.7088731168915
20
3.64391089832901
30
0
41
1
10
42.4311632614064
20
3.8197804320335
30
0
41
1
10
42.3350046066604
20
3.88859078220591
30
0
41
1
10
42.1995263084747
20
4.01591258196041
30
0
41
1
10
42.1531030888826
20
4.07595456178348
30
0
41
1
10
42.1238727227285
20
4.15030750080697
30
0
41
1
10
42.1193801877036
20
4.16532853416737
30
0
41
1
10
42.1163354698535
20
4.18034878380277
30
0
0
SPLINE
5
25C
100
AcDbEntity
8
1
62
256
6
ByLayer
370
-1
48
1
60
0
100
AcDbSpline
70
4
71
3
72
14
73
10
40
0
40
0
40
0
40
0
40
0.0457151223729634
40
0.0457151223729634
40
0.430033371430136
40
0.430033371430136
40
0.93576408094079
40
0.93576408094079
40
1
40
1
40
1
40
1
41
1
10
46.357526018697
20
-5.29563321476567
30
0
41
1
10
46.3244414986279
20
-5.30494165045792
30
0
41
1
10
46.2915780598725
20
-5.31482611995824
30
0
41
1
10
45.9875558677415
20
-5.41213250222893
30
0
41
1
10
45.7313879803304
20
-5.53927873567852
30
0
41
1
10
45.2085689353533
20
-5.88513372622282
30
0
41
1
10
44.9549442301793
20
-6.12458521550911
30
0
41
1
10
44.7222473414353
20
-6.40311728150155
30
0
41
1
10
44.6964421819048
20
-6.43503598880392
30
0
41
1
10
44.6713244952659
20
-6.46709071609502
30
0
0
SPLINE
5
25D
100
AcDbEntity
8
1
62
256
6
ByLayer
370
-1
48
1
60
0
100
AcDbSpline
70
4
71
3
72
10
73
6
40
0
40
0
40
0
40
0
40
0.567235818095843
40
0.567235818095843
40
1
40
1
40
1
40
1
41
1
10
46.7063406182173
20
5.8746148724411
30
0
41
1
10
46.9164070222361
20
5.90984626008836
30
0
41
1
10
47.1343096040115
20
5.90118732833091
30
0
41
1
10
47.5104551703003
20
5.82257153063898
30
0
41
1
10
47.6722957536348
20
5.76709994000993
30
0
41
1
10
47.8287625432746
20
5.69344157955413
30
0
0
SPLINE
5
25E
100
AcDbEntity
8
1
62
256
6
ByLayer
370
-1
48
1
60
0
100
AcDbSpline
70
4
71
3
72
8
73
4
40
0
40
0
40
0
40
0
40
1
40
1
40
1
40
1
41
1
10
42.4543319660036
20
10.1351084727916
30
0
41
1
10
42.5588516127443
20
10.2683313599506
30
0
41
1
10
42.663662796696
20
10.4013398755186
30
0
41
1
10
42.76873264
20
10.5341558474384
30
0
0
SPLINE
5
25F
100
AcDbEntity
8
1
62
256
6
ByLayer
370
-1
48
1
60
0
100
AcDbSpline
70
4
71
3
72
16
73
12
40
0
40
0
40
0
40
0
40
0.0773436766578804
40
0.0773436766578804
40
0.181588290672623
40
0.181588290672623
40
0.353924998170025
40
0.353924998170025
40
0.659870482236127
40
0.659870482236127
40
1
40
1
40
1
40
1
41
1
10
11.4613248654052
20
7.52966679426498
30
0
41
1
10
11.480691273438
20
7.52966679426498
30
0
41
1
10
11.5001920479834
20
7.53205286469702
30
0
41
1
10
11.5443643455559
20
7.54265601007381
30
0
41
1
10
11.5688999660418
20
7.55272636772358
30
0
41
1
10
11.6286300521075
20
7.58609718460602
30
0
41
1
10
11.6615871427901
20
7.61407037421822
30
0
41
1
10
11.7407360052433
20
7.69895209889256
30
0
41
1
10
11.7798892743245
20
7.76300791758413
30
0
41
1
10
11.8468244213921
20
7.90167589305847
30
0
41
1
10
11.8734747805012
20
7.97837348437852
30
0
41
1
10
11.8943375672974
20
8.05584836782771
30
0
0
SPLINE
5
260
100
AcDbEntity
8
1
62
256
6
ByLayer
370
-1
48
1
60
0
100
AcDbSpline
70
4
71
3
72
18
73
14
40
0
40
0
40
0
40
0
40
0.0809805960320615
40
0.0809805960320615
40
0.54422729221394
40
0.54422729221394
40
0.69931826562157
40
0.69931826562157
40
0.856346274356429
40
0.856346274356429
40
0.966571999538782
40
0.966571999538782
40
1
40
1
40
1
40
1
41
1
10
11.8943375672974
20
-8.05584836782771
30
0
41
1
10
11.8893471011257
20
-8.03731605051115
30
0
41
1
10
11.8840209914239
20
-8.01885383673363
30
0
41
1
10
11.845998279105
20
-7.89611164850155
30
0
41
1
10
11.8022255638175
20
-7.79219397274093
30
0
41
1
10
11.7151274219928
20
-7.67169814060131
30
0
41
1
10
11.6903249195398
20
-7.64266520230271
30
0
41
1
10
11.6339533178057
20
-7.59122859579532
30
0
41
1
10
11.6016224931833
20
-7.56839473241365
30
0
41
1
10
11.5411042357638
20
-7.54154007085771
30
0
41
1
10
11.5139568123411
20
-7.53384342094336
30
0
41
1
10
11.4781693033538
20
-7.53010833377257
30
0
41
1
10
11.4697409388397
20
-7.52966679426501
30
0
41
1
10
11.4613248654052
20
-7.52966679426501
30
0
0
SPLINE
5
261
100
AcDbEntity
8
1
62
256
6
ByLayer
370
-1
48
1
60
0
100
AcDbSpline
70
4
71
3
72
18
73
14
40
0
40
0
40
0
40
0
40
0.0809805960320918
40
0.0809805960320918
40
0.544227292214085
40
0.544227292214085
40
0.699318265621671
40
0.699318265621671
40
0.856346274356483
40
0.856346274356483
40
0.966571999538831
40
0.966571999538831
40
1
40
1
40
1
40
1
41
1
10
8.10566243270259
20
8.05584836782774
30
0
41
1
10
8.11065289887435
20
8.03731605051118
30
0
41
1
10
8.11597900857612
20
8.01885383673363
30
0
41
1
10
8.15400172089508
20
7.89611164850155
30
0
41
1
10
8.19777443618253
20
7.7921939727409
30
0
41
1
10
8.28487257800725
20
7.67169814060125
30
0
41
1
10
8.30967508046024
20
7.64266520230268
30
0
41
1
10
8.36604668219428
20
7.59122859579529
30
0
41
1
10
8.3983775068167
20
7.56839473241365
30
0
41
1
10
8.45889576423619
20
7.54154007085771
30
0
41
1
10
8.48604318765894
20
7.53384342094336
30
0
41
1
10
8.52183069664622
20
7.53010833377257
30
0
41
1
10
8.53025906116031
20
7.52966679426501
30
0
41
1
10
8.5386751345948
20
7.52966679426501
30
0
0
SPLINE
5
262
100
AcDbEntity
8
1
62
256
6
ByLayer
370
-1
48
1
60
0
100
AcDbSpline
70
4
71
3
72
16
73
12
40
0
40
0
40
0
40
0
40
0.0773436766578125
40
0.0773436766578125
40
0.181588290672542
40
0.181588290672542
40
0.353924998169895
40
0.353924998169895
40
0.659870482235859
40
0.659870482235859
40
1
40
1
40
1
40
1
41
1
10
8.5386751345948
20
-7.52966679426501
30
0
41
1
10
8.51930872656195
20
-7.52966679426501
30
0
41
1
10
8.4998079520166
20
-7.53205286469702
30
0
41
1
10
8.45563565444414
20
-7.54265601007379
30
0
41
1
10
8.43110003395827
20
-7.55272636772355
30
0
41
1
10
8.37136994789256
20
-7.58609718460599
30
0
41
1
10
8.33841285720999
20
-7.61407037421819
30
0
41
1
10
8.25926399475679
20
-7.69895209889248
30
0
41
1
10
8.22011072567562
20
-7.76300791758402
30
0
41
1
10
8.15317557860797
20
-7.90167589305835
30
0
41
1
10
8.12652521949877
20
-7.97837348437849
30
0
41
1
10
8.10566243270259
20
-8.05584836782774
30
0
0
SPLINE
5
263
100
AcDbEntity
8
1
62
256
6
ByLayer
370
-1
48
1
60
0
100
AcDbSpline
70
4
71
3
72
8
73
4
40
0
40
0
40
0
40
0
40
1
40
1
40
1
40
1
41
1
10
41.967591613638
20
-1.46672623145787
30
0
41
1
10
41.9269140473732
20
-1.41766977284004
30
0
41
1
10
41.8848487464277
20
-1.3696653358748
30
0
41
1
10
41.8414964115093
20
-1.32336142768486
30
0
0
SPLINE
5
264
100
AcDbEntity
8
1
62
256
6
ByLayer
370
-1
48
1
60
0
100
AcDbSpline
70
4
71
3
72
16
73
12
40
0
40
0
40
0
40
0
40
0.0773436766578767
40
0.0773436766578767
40
0.181588290672618
40
0.181588290672618
40
0.35392499817001
40
0.35392499817001
40
0.659870482236094
40
0.659870482236094
40
1
40
1
40
1
40
1
41
1
10
11.4613248654052
20
-23.8391299750503
30
0
41
1
10
11.480691273438
20
-23.8391299750503
30
0
41
1
10
11.5001920479834
20
-23.8383766644784
30
0
41
1
10
11.5443643455559
20
-23.8350242537625
30
0
41
1
10
11.5688999660418
20
-23.8318379431383
30
0
41
1
10
11.6286300521075
20
-23.8212426939765
30
0
41
1
10
11.66158714279
20
-23.812328084785
30
0
41
1
10
11.7407360052433
20
-23.7850663392819
30
0
41
1
10
11.7798892743244
20
-23.7642694363116
30
0
41
1
10
11.8468244213921
20
-23.7185457490814
30
0
41
1
10
11.8734747805012
20
-23.692873493267
30
0
41
1
10
11.8943375672974
20
-23.6665017920809
30
0
0
SPLINE
5
265
100
AcDbEntity
8
1
62
256
6
ByLayer
370
-1
48
1
60
0
100
AcDbSpline
70
4
71
3
72
18
73
14
40
0
40
0
40
0
40
0
40
0.0809805960320801
40
0.0809805960320801
40
0.544227292214068
40
0.544227292214068
40
0.699318265621658
40
0.699318265621658
40
0.856346274356475
40
0.856346274356475
40
0.966571999538822
40
0.966571999538822
40
1
40
1
40
1
40
1
41
1
10
8.10566243270259
20
-23.6665017920809
30
0
41
1
10
8.11065289887435
20
-23.672810013698
30
0
41
1
10
8.11597900857612
20
-23.6790700603507
30
0
41
1
10
8.15400172089508
20
-23.7205303134149
30
0
41
1
10
8.19777443618253
20
-23.7548029562659
30
0
41
1
10
8.28487257800725
20
-23.7938243006291
30
0
41
1
10
8.30967508046024
20
-23.8031592998669
30
0
41
1
10
8.36604668219428
20
-23.8196134016841
30
0
41
1
10
8.3983775068167
20
-23.8268687494612
30
0
41
1
10
8.45889576423616
20
-23.8353793525422
30
0
41
1
10
8.48604318765894
20
-23.8378105604685
30
0
41
1
10
8.52183069664622
20
-23.8389905264494
30
0
41
1
10
8.53025906116031
20
-23.8391299750503
30
0
41
1
10
8.5386751345948
20
-23.8391299750503
30
0
0
SPLINE
5
266
100
AcDbEntity
8
1
62
256
6
ByLayer
370
-1
48
1
60
0
100
AcDbSpline
70
4
71
3
72
18
73
14
40
0
40
0
40
0
40
0
40
0.211700974965305
40
0.211700974965305
40
0.378591498690258
40
0.378591498690258
40
0.546991883559625
40
0.546991883559625
40
0.695025355873763
40
0.695025355873763
40
0.847113694471408
40
0.847113694471408
40
1
40
1
40
1
40
1
41
1
10
38.9917392551091
20
9.43815149714973
30
0
41
1
10
38.9442637389011
20
9.48254935522803
30
0
41
1
10
38.9136615928974
20
9.52704254856192
30
0
41
1
10
38.9058029915822
20
9.60109360801656
30
0
41
1
10
38.9189806914415
20
9.63251484208251
30
0
41
1
10
38.9846793216857
20
9.68826740944121
30
0
41
1
10
39.0388828205978
20
9.71331803367013
30
0
41
1
10
39.1723064368607
20
9.75137821896703
30
0
41
1
10
39.2492562856483
20
9.76602655356669
30
0
41
1
10
39.4201721858412
20
9.78889094954963
30
0
41
1
10
39.5164088380202
20
9.79725365761669
30
0
41
1
10
39.7147944791611
20
9.80847943494203
30
0
41
1
10
39.8187205943018
20
9.811437148842
30
0
41
1
10
39.9222046904689
20
9.81218708130157
30
0
0
SPLINE
5
267
100
AcDbEntity
8
1
62
256
6
ByLayer
370
-1
48
1
60
0
100
AcDbSpline
70
4
71
3
72
12
73
8
40
0
40
0
40
0
40
0
40
0.353974148211242
40
0.353974148211242
40
0.706983536973962
40
0.706983536973962
40
1
40
1
40
1
40
1
41
1
10
41.8414964115084
20
9.82581720012641
30
0
41
1
10
41.9257307721536
20
9.82640321428707
30
0
41
1
10
42.0108641126038
20
9.84174061223845
30
0
41
1
10
42.1683944546656
20
9.8978548304845
30
0
41
1
10
42.2429351802259
20
9.93920855157444
30
0
41
1
10
42.3628702006028
20
10.0320052747097
30
0
41
1
10
42.4121180571434
20
10.0813017580331
30
0
41
1
10
42.4543319660131
20
10.1351084727826
30
0
0
SPLINE
5
268
100
AcDbEntity
8
SK1
62
256
6
ByLayer
370
-1
48
1
60
0
100
AcDbSpline
70
4
71
3
72
20
73
16
40
0
40
0
40
0
40
0
40
0.0482625705635414
40
0.0482625705635414
40
0.325220898603973
40
0.325220898603973
40
0.463381471379661
40
0.463381471379661
40
0.601551524434762
40
0.601551524434762
40
0.739735425204433
40
0.739735425204433
40
0.877939603517415
40
0.877939603517415
40
1
40
1
40
1
40
1
41
1
10
-2.20000000000002
20
15.0247809138971
30
0
41
1
10
-2.20000000000002
20
15.0987632316058
30
0
41
1
10
-2.19999999163144
20
15.1713153633957
30
0
41
1
10
-2.19999985652709
20
15.6498272161843
30
0
41
1
10
-2.19999939887509
20
16.0101821224506
30
0
41
1
10
-2.19999683011551
20
16.4712024133173
30
0
41
1
10
-2.19999564996832
20
16.6117543332689
30
0
41
1
10
-2.19999230715834
20
16.8650200442632
30
0
41
1
10
-2.19999013861343
20
16.9778482087754
30
0
41
1
10
-2.19998437020209
20
17.1737303581388
30
0
41
1
10
-2.19998076728288
20
17.2568757984567
30
0
41
1
10
-2.19997155592219
20
17.390896629152
30
0
41
1
10
-2.19996594630393
20
17.4418577268988
30
0
41
1
10
-2.19995283284749
20
17.5043876537353
30
0
41
1
10
-2.19994561248379
20
17.5199107584737
30
0
41
1
10
-2.19993704319941
20
17.5200998959623
30
0
0
SPLINE
5
269
100
AcDbEntity
8
SK1
62
256
6
ByLayer
370
-1
48
1
60
0
100
AcDbSpline
70
4
71
3
72
20
73
16
40
0
40
0
40
0
40
0
40
0.10770985972128
40
0.10770985972128
40
0.254805889938128
40
0.254805889938128
40
0.401872722908694
40
0.401872722908694
40
0.548920274144332
40
0.548920274144332
40
0.695955076712581
40
0.695955076712581
40
0.842981467918066
40
0.842981467918066
40
1
40
1
40
1
40
1
41
1
10
-2.19993655780451
20
-17.5200998571236
30
0
41
1
10
-2.19994418187713
20
-17.5204461970858
30
0
41
1
10
-2.19995074650436
20
-17.5087568436265
30
0
41
1
10
-2.19996422500265
20
-17.4552443316022
30
0
41
1
10
-2.19997041029708
20
-17.4038992989506
30
0
41
1
10
-2.19998045819511
20
-17.2645372816575
30
0
41
1
10
-2.19998432672412
20
-17.1764163911093
30
0
41
1
10
-2.19999043378135
20
-16.9665639550929
30
0
41
1
10
-2.19999267824221
20
-16.8447172876608
30
0
41
1
10
-2.19999607391784
20
-16.569798663462
30
0
41
1
10
-2.1999972302832
20
-16.4165791409565
30
0
41
1
10
-2.1999988585969
20
-16.0808080953317
30
0
41
1
10
-2.19999933084273
20
-15.8980848535623
30
0
41
1
10
-2.19999991533382
20
-15.4916218225697
30
0
41
1
10
-2.20000000000002
20
-15.2657541717873
30
0
41
1
10
-2.20000000000002
20
-15.0247808645653
30
0
0
SPLINE
5
26A
100
AcDbEntity
8
SK1
62
256
6
ByLayer
370
-1
48
1
60
0
100
AcDbSpline
70
4
71
3
72
79
73
75
40
0
40
0
40
0
40
0
40
0.0067087497327157
40
0.0208027855950757
40
0.0348968214574358
40
0.0489908573197958
40
0.0630848931821558
40
0.0771789290445158
40
0.0912729649068758
40
0.105367000769236
40
0.119461036631596
40
0.133555072493956
40
0.147649108356316
40
0.161743144218676
40
0.175837180081036
40
0.189931215943396
40
0.204025251805756
40
0.218119287668116
40
0.232213323530476
40
0.246307359392836
40
0.260401395255196
40
0.274495431117556
40
0.288589466979916
40
0.302683502842276
40
0.316777538704636
40
0.330871574566996
40
0.344965610429356
40
0.359059646291716
40
0.373153682154076
40
0.387247718016436
40
0.401341753878796
40
0.415435789741156
40
0.429529825603516
40
0.443623861465876
40
0.457717897328236
40
0.471811933190596
40
0.485905969052956
40
0.500000004915316
40
0.514094040777676
40
0.528188076640036
40
0.542282112502396
40
0.556376148364756
40
0.570470184227116
40
0.584564220089477
40
0.598658255951837
40
0.612752291814197
40
0.626846327676556
40
0.640940363538917
40
0.655034399401277
40
0.669128435263637
40
0.683222471125997
40
0.697316506988357
40
0.711410542850717
40
0.725504578713077
40
0.739598614575437
40
0.753692650437797
40
0.767786686300157
40
0.781880722162517
40
0.795974758024877
40
0.810068793887237
40
0.824162829749597
40
0.838256865611957
40
0.852350901474317
40
0.866444937336677
40
0.880538973199037
40
0.894633009061397
40
0.908727044923757
40
0.922821080786117
40
0.936915116648477
40
0.951009152510837
40
0.965103188373197
40
0.979197224235557
40
0.993291260097917
40
1
40
1
40
1
40
1
41
1
10
-2.99999999999997
20
-17.2891029998204
30
0
41
1
10
-2.99999999999997
20
-17.3064425230017
30
0
41
1
10
-2.99999999999997
20
-17.3576824669623
30
0
41
1
10
-2.99999999999997
20
-17.4290648746259
30
0
41
1
10
-2.99999999999997
20
-17.4859427971309
30
0
41
1
10
-2.99999999999997
20
-17.5070292572437
30
0
41
1
10
-2.99999999999997
20
-17.4859401738945
30
0
41
1
10
-3
20
-17.4163913620312
30
0
41
1
10
-3
20
-17.2925088911448
30
0
41
1
10
-3
20
-17.1091123896189
30
0
41
1
10
-3
20
-16.8619882313057
30
0
41
1
10
-3
20
-16.5481197778907
30
0
41
1
10
-3
20
-16.1658744357057
30
0
41
1
10
-3
20
-15.7151402778227
30
0
41
1
10
-3
20
-15.1974002275414
30
0
41
1
10
-3
20
-14.6157505856349
30
0
41
1
10
-3
20
-13.9748490556261
30
0
41
1
10
-3
20
-13.2808105172309
30
0
41
1
10
-3
20
-12.5410348198394
30
0
41
1
10
-3
20
-11.763994099502
30
0
41
1
10
-3
20
-10.9589648821141
30
0
41
1
10
-3
20
-10.1357380738661
30
0
41
1
10
-3
20
-9.30429484700929
30
0
41
1
10
-3
20
-8.47448256671282
30
0
41
1
10
-3
20
-7.6556828892094
30
0
41
1
10
-3
20
-6.85650245921596
30
0
41
1
10
-3
20
-6.08448325445985
30
0
41
1
10
-3
20
-5.34585503158101
30
0
41
1
10
-3
20
-4.64533193812392
30
0
41
1
10
-3
20
-3.9859646700211
30
0
41
1
10
-3
20
-3.36905464097902
30
0
41
1
10
-3
20
-2.79412899561987
30
0
41
1
10
-3
20
-2.25898609800083
30
0
41
1
10
-3
20
-1.75979816383233
30
0
41
1
10
-3
20
-1.29128215780307
30
0
41
1
10
-3
20
-0.846915650735156
30
0
41
1
10
-3
20
-0.41920838047011
30
0
41
1
10
-3
20
8.85488021E-08
30
0
41
1
10
-3
20
0.419208026274788
30
0
41
1
10
-3
20
0.84691581376515
30
0
41
1
10
-3
20
1.29128185987813
30
0
41
1
10
-3
20
1.75979828673439
30
0
41
1
10
-3
20
2.25898590431717
30
0
41
1
10
-3
20
2.79412905823773
30
0
41
1
10
-3
20
3.36905458419105
30
0
41
1
10
-3
20
3.98596466105747
30
0
41
1
10
-3
20
4.64533203076618
30
0
41
1
10
-3
20
5.34585495020943
30
0
41
1
10
-3
20
6.08448348730366
30
0
41
1
10
-3
20
6.85650231512167
30
0
41
1
10
-3
20
7.65568323274246
30
0
41
1
10
-3
20
8.47448237855718
30
0
41
1
10
-3
20
9.30429525609867
30
0
41
1
10
-3
20
10.1357378664365
30
0
41
1
10
-3
20
10.9589653027428
30
0
41
1
10
-3
20
11.7639938999324
30
0
41
1
10
-3
20
12.5410351974886
30
0
41
1
10
-3
20
13.2808103509102
30
0
41
1
10
-3
20
13.9748493432595
30
0
41
1
10
-3
20
14.6157504724401
30
0
41
1
10
-3
20
15.197400392687
30
0
41
1
10
-3
20
15.7151402291805
30
0
41
1
10
-3
20
16.1658744651289
30
0
41
1
10
-3
20
16.5481197951877
30
0
41
1
10
-3
20
16.8619881326948
30
0
41
1
10
-3
20
17.1091124641426
30
0
41
1
10
-3
20
17.2925086916609
30
0
41
1
10
-3
20
17.4163918494222
30
0
41
1
10
-3
20
17.4859391868839
30
0
41
1
10
-2.99999999999997
20
17.5070293524766
30
0
41
1
10
-2.99999999999997
20
17.4859434032096
30
0
41
1
10
-2.99999999999997
20
17.4290646714908
30
0
41
1
10
-2.99999999999997
20
17.3576822655576
30
0
41
1
10
-3
20
17.3064424621938
30
0
41
1
10
-3
20
17.2891029998414
30
0
0
SPLINE
5
26B
100
AcDbEntity
8
SK1
62
256
6
ByLayer
370
-1
48
1
60
0
100
AcDbSpline
70
4
71
3
72
73
73
69
40
0
40
0
40
0
40
0
40
0.0018466561169312
40
0.0173088925234934
40
0.0327711289300555
40
0.0482333653366177
40
0.0636956017431799
40
0.0791578381497421
40
0.0946200745563043
40
0.110082310962866
40
0.125544547369429
40
0.141006783775991
40
0.156469020182553
40
0.171931256589115
40
0.187393492995678
40
0.20285572940224
40
0.218317965808802
40
0.233780202215364
40
0.249242438621926
40
0.264704675028488
40
0.280166911435051
40
0.295629147841613
40
0.311091384248175
40
0.326553620654737
40
0.3420158570613
40
0.357478093467862
40
0.372940329874424
40
0.388402566280986
40
0.403864802687548
40
0.41932703909411
40
0.434789275500673
40
0.450251511907235
40
0.465713748313797
40
0.481175984720359
40
0.496638221126921
40
0.512100457533484
40
0.527562693940046
40
0.543024930346608
40
0.55848716675317
40
0.573949403159732
40
0.589411639566295
40
0.604873875972857
40
0.620336112379419
40
0.635798348785981
40
0.651260585192543
40
0.666722821599105
40
0.682185058005668
40
0.69764729441223
40
0.713109530818792
40
0.728571767225354
40
0.744034003631916
40
0.759496240038479
40
0.774958476445041
40
0.790420712851603
40
0.805882949258165
40
0.821345185664727
40
0.83680742207129
40
0.852269658477852
40
0.867731894884414
40
0.883194131290976
40
0.898656367697538
40
0.9141186041041
40
0.929580840510663
40
0.945043076917225
40
0.960505313323787
40
0.975967549730349
40
0.991429786136912
40
1
40
1
40
1
40
1
41
1
10
-28.5004731679065
20
16.5843275748057
30
0
41
1
10
-28.5004731679065
20
16.5890126478705
30
0
41
1
10
-28.5004731679065
20
16.6325284262555
30
0
41
1
10
-28.5004731679065
20
16.7076779742402
30
0
41
1
10
-28.5004731679065
20
16.7910009100058
30
0
41
1
10
-28.5004731679065
20
16.845797358011
30
0
41
1
10
-28.5004731679065
20
16.866111367971
30
0
41
1
10
-28.5004731679065
20
16.8457932960415
30
0
41
1
10
-28.5004731679065
20
16.7787920295583
30
0
41
1
10
-28.5004731679065
20
16.6594441325878
30
0
41
1
10
-28.5004731679065
20
16.4827618905288
30
0
41
1
10
-28.5004731679065
20
16.2446845781523
30
0
41
1
10
-28.5004731679065
20
15.9423067030317
30
0
41
1
10
-28.5004731679065
20
15.5740550609708
30
0
41
1
10
-28.5004731679065
20
15.1398218356871
30
0
41
1
10
-28.5004731679065
20
14.6410360299331
30
0
41
1
10
-28.5004731679065
20
14.0806798361698
30
0
41
1
10
-28.5004731679065
20
13.4632415716312
30
0
41
1
10
-28.5004731679065
20
12.7946107775085
30
0
41
1
10
-28.5004731679065
20
12.0819181856553
30
0
41
1
10
-28.5004731679065
20
11.3333237326368
30
0
41
1
10
-28.5004731679065
20
10.557766572068
30
0
41
1
10
-28.5004731679065
20
9.76467681695499
30
0
41
1
10
-28.5004731679065
20
8.96367263859332
30
0
41
1
10
-28.5004731679065
20
8.1642385298471
30
0
41
1
10
-28.5004731679065
20
7.37541494914308
30
0
41
1
10
-28.5004731679065
20
6.60549138939064
30
0
41
1
10
-28.5004731679065
20
5.86173553761287
30
0
41
1
10
-28.5004731679065
20
5.15014758540383
30
0
41
1
10
-28.5004731679065
20
4.47527023543958
30
0
41
1
10
-28.5004731679065
20
3.84004176429178
30
0
41
1
10
-28.5004731679065
20
3.2457162593208
30
0
41
1
10
-28.5004731679065
20
2.69183828529165
30
0
41
1
10
-28.5004731679065
20
2.17628628328657
30
0
41
1
10
-28.5004731679065
20
1.69537351492636
30
0
41
1
10
-28.5004731679065
20
1.2440090901581
30
0
41
1
10
-28.5004731679065
20
0.815910920503399
30
0
41
1
10
-28.5004731679065
20
0.403861164287008
30
0
41
1
10
-28.5004731679065
20
8.53071072E-08
30
0
41
1
10
-28.5004731679065
20
-0.403861505515522
30
0
41
1
10
-28.5004731679065
20
-0.815910763441792
30
0
41
1
10
-28.5004731679065
20
-1.24400937717621
30
0
41
1
10
-28.5004731679065
20
-1.69537339652362
30
0
41
1
10
-28.5004731679065
20
-2.17628646987961
30
0
41
1
10
-28.5004731679065
20
-2.69183822496621
30
0
41
1
10
-28.5004731679065
20
-3.24571631402981
30
0
41
1
10
-28.5004731679065
20
-3.84004177292727
30
0
41
1
10
-28.5004731679065
20
-4.47527014618885
30
0
41
1
10
-28.5004731679065
20
-5.15014766379647
30
0
41
1
10
-28.5004731679065
20
-5.86173531329331
30
0
41
1
10
-28.5004731679065
20
-6.60549152820974
30
0
41
1
10
-28.5004731679065
20
-7.37541461818648
30
0
41
1
10
-28.5004731679065
20
-8.16423871111451
30
0
41
1
10
-28.5004731679065
20
-8.96367224448036
30
0
41
1
10
-28.5004731679065
20
-9.76467701679073
30
0
41
1
10
-28.5004731679065
20
-10.5577661668381
30
0
41
1
10
-28.5004731679065
20
-11.3333239249003
30
0
41
1
10
-28.5004731679065
20
-12.0819178218315
30
0
41
1
10
-28.5004731679065
20
-12.7946109377403
30
0
41
1
10
-28.5004731679065
20
-13.4632412945279
30
0
41
1
10
-28.5004731679065
20
-14.0806799452206
30
0
41
1
10
-28.5004731679065
20
-14.6410358708333
30
0
41
1
10
-28.5004731679065
20
-15.1398218825485
30
0
41
1
10
-28.5004731679065
20
-15.5740550326248
30
0
41
1
10
-28.5004731679065
20
-15.942306686368
30
0
41
1
10
-28.5004731679065
20
-16.2446846731531
30
0
41
1
10
-28.5004731679065
20
-16.4473889051978
30
0
41
1
10
-28.5004731679065
20
-16.546015100524
30
0
41
1
10
-28.5004731679065
20
-16.5781578665788
30
0
0
SPLINE
5
26C
100
AcDbEntity
8
SK1
62
256
6
ByLayer
370
-1
48
1
60
0
100
AcDbSpline
70
4
71
3
72
79
73
75
40
0
40
0
40
0
40
0
40
0.0074030719680451
40
0.0214772709933054
40
0.0355514700185658
40
0.0496256690438261
40
0.0636998680690865
40
0.0777740670943468
40
0.0918482661196071
40
0.105922465144868
40
0.119996664170128
40
0.134070863195388
40
0.148145062220648
40
0.162219261245909
40
0.176293460271169
40
0.190367659296429
40
0.20444185832169
40
0.21851605734695
40
0.232590256372211
40
0.246664455397471
40
0.260738654422731
40
0.274812853447992
40
0.288887052473252
40
0.302961251498512
40
0.317035450523773
40
0.331109649549033
40
0.345183848574293
40
0.359258047599553
40
0.373332246624814
40
0.387406445650074
40
0.401480644675335
40
0.415554843700595
40
0.429629042725855
40
0.443703241751115
40
0.457777440776376
40
0.471851639801636
40
0.485925838826897
40
0.500000037852157
40
0.514074236877417
40
0.528148435902678
40
0.542222634927938
40
0.556296833953198
40
0.570371032978459
40
0.584445232003719
40
0.598519431028979
40
0.61259363005424
40
0.6266678290795
40
0.64074202810476
40
0.654816227130021
40
0.668890426155281
40
0.682964625180541
40
0.697038824205802
40
0.711113023231062
40
0.725187222256322
40
0.739261421281583
40
0.753335620306843
40
0.767409819332103
40
0.781484018357364
40
0.795558217382624
40
0.809632416407884
40
0.823706615433145
40
0.837780814458405
40
0.851855013483665
40
0.865929212508926
40
0.880003411534186
40
0.894077610559446
40
0.908151809584707
40
0.922226008609967
40
0.936300207635227
40
0.950374406660488
40
0.964448605685748
40
0.978522804711008
40
0.992597003736269
40
1
40
1
40
1
40
1
41
1
10
-2
20
17.1116144542389
30
0
41
1
10
-2
20
17.1306737735355
30
0
41
1
10
-2
20
17.1831798973923
30
0
41
1
10
-2
20
17.2550395308993
30
0
41
1
10
-2
20
17.3112459497451
30
0
41
1
10
-2
20
17.3321089735132
30
0
41
1
10
-2
20
17.3112189889209
30
0
41
1
10
-2
20
17.2422674474922
30
0
41
1
10
-2
20
17.1193484069474
30
0
41
1
10
-2
20
16.9372587367204
30
0
41
1
10
-2
20
16.6917602356259
30
0
41
1
10
-2
20
16.3798174953022
30
0
41
1
10
-2
20
15.9997825770269
30
0
41
1
10
-2
20
15.5515337348698
30
0
41
1
10
-2
20
15.0365499649754
30
0
41
1
10
-2
20
14.4579280405673
30
0
41
1
10
-2
20
13.8203335391023
30
0
41
1
10
-2.00000000000003
20
13.1298914527523
30
0
41
1
10
-2.00000000000003
20
12.39401945775
30
0
41
1
10
-2.00000000000003
20
11.6212068879994
30
0
41
1
10
-2.00000000000003
20
10.8207542384819
30
0
41
1
10
-2.00000000000003
20
10.00247262006
30
0
41
1
10
-2.00000000000003
20
9.17636811026827
30
0
41
1
10
-2.00000000000003
20
8.35230629219913
30
0
41
1
10
-2.00000000000003
20
7.53968883941312
30
0
41
1
10
-2.00000000000003
20
6.74713346409783
30
0
41
1
10
-2.00000000000003
20
5.98219169787032
30
0
41
1
10
-2.00000000000003
20
5.25109264883253
30
0
41
1
10
-2.00000000000003
20
4.55854550233684
30
0
41
1
10
-2.00000000000003
20
3.90758262960779
30
0
41
1
10
-2.00000000000003
20
3.29948777527221
30
0
41
1
10
-2.00000000000003
20
2.73375387844547
30
0
41
1
10
-2.00000000000003
20
2.20813463136872
30
0
41
1
10
-2.00000000000003
20
1.71876156390923
30
0
41
1
10
-2.00000000000003
20
1.26029526086333
30
0
41
1
10
-2.00000000000003
20
0.826158476850765
30
0
41
1
10
-2.00000000000003
20
0.408799134273892
30
0
41
1
10
-2.00000000000003
20
2.402494488E-07
30
0
41
1
10
-2.00000000000003
20
-0.408799553455736
30
0
41
1
10
-2.00000000000003
20
-0.82615842677356
30
0
41
1
10
-2.00000000000003
20
-1.26029551010325
30
0
41
1
10
-2.00000000000003
20
-1.71876142586774
30
0
41
1
10
-2.00000000000003
20
-2.20813448047156
30
0
41
1
10
-2.00000000000003
20
-2.7337537633878
30
0
41
1
10
-2.00000000000003
20
-3.29948825001514
30
0
41
1
10
-2.00000000000003
20
-3.90758266192117
30
0
41
1
10
-2.00000000000003
20
-4.55854530449344
30
0
41
1
10
-2.00000000000003
20
-5.25109273249788
30
0
41
1
10
-2.00000000000003
20
-5.98219146197602
30
0
41
1
10
-2.00000000000003
20
-6.74713361247495
30
0
41
1
10
-2.00000000000003
20
-7.53968849279406
30
0
41
1
10
-2.00000000000003
20
-8.35230648563552
30
0
41
1
10
-2.00000000000003
20
-9.17636769820604
30
0
41
1
10
-2.00000000000003
20
-10.0024728331477
30
0
41
1
10
-2.00000000000003
20
-10.8207538150476
30
0
41
1
10
-2.00000000000003
20
-11.6212070931939
30
0
41
1
10
-2.00000000000003
20
-12.3940190774915
30
0
41
1
10
-2.00000000000003
20
-13.1298916243886
30
0
41
1
10
-2
20
-13.8203332490725
30
0
41
1
10
-2
20
-14.4579281585871
30
0
41
1
10
-2
20
-15.0365497976464
30
0
41
1
10
-2
20
-15.5515337877379
30
0
41
1
10
-2
20
-15.9997825456108
30
0
41
1
10
-2
20
-16.379817481596
30
0
41
1
10
-2
20
-16.6917603323907
30
0
41
1
10
-2
20
-16.9372586651848
30
0
41
1
10
-2
20
-17.1193485969266
30
0
41
1
10
-2
20
-17.2422669751987
30
0
41
1
10
-2
20
-17.3112199736996
30
0
41
1
10
-2
20
-17.3321088799281
30
0
41
1
10
-2
20
-17.3112453434672
30
0
41
1
10
-2
20
-17.2550397180126
30
0
41
1
10
-2
20
-17.1831802766266
30
0
41
1
10
-2
20
-17.1306742506466
30
0
41
1
10
-2
20
-17.1116151100673
30
0
0
SPLINE
5
26D
100
AcDbEntity
8
SK1
62
256
6
ByLayer
370
-1
48
1
60
0
100
AcDbSpline
70
4
71
3
72
30
73
26
40
0
40
0
40
0
40
0
40
0.045044582587002
40
0.0902490417957238
40
0.135453501004446
40
0.180657960213167
40
0.225862419421889
40
0.271066878630611
40
0.316271337839333
40
0.361475797048054
40
0.406680256256776
40
0.451884715465498
40
0.49708917467422
40
0.542293633882941
40
0.587498093091663
40
0.632702552300385
40
0.677907011509107
40
0.723111470717829
40
0.76831592992655
40
0.813520389135272
40
0.858724848343994
40
0.903929307552716
40
0.949133766761437
40
0.994338225970159
40
1
40
1
40
1
40
1
41
1
10
-0.400000000000006
20
17.3251498299281
30
0
41
1
10
-0.400000000000006
20
17.3250962900938
30
0
41
1
10
-0.399999999999977
20
17.3111377009263
30
0
41
1
10
-0.400000000000006
20
17.2422674474922
30
0
41
1
10
-0.400000000000034
20
17.1193484069474
30
0
41
1
10
-0.400000000000034
20
16.9372587367204
30
0
41
1
10
-0.400000000000034
20
16.6917602356259
30
0
41
1
10
-0.400000000000034
20
16.3798174953022
30
0
41
1
10
-0.400000000000034
20
15.9997825770269
30
0
41
1
10
-0.400000000000034
20
15.5515337348698
30
0
41
1
10
-0.400000000000034
20
15.0365499649754
30
0
41
1
10
-0.400000000000034
20
14.4579280405673
30
0
41
1
10
-0.400000000000034
20
13.8203335391023
30
0
41
1
10
-0.400000000000034
20
13.1298914527523
30
0
41
1
10
-0.400000000000034
20
12.39401945775
30
0
41
1
10
-0.400000000000034
20
11.6212068879994
30
0
41
1
10
-0.400000000000034
20
10.8207542384819
30
0
41
1
10
-0.400000000000034
20
10.00247262006
30
0
41
1
10
-0.400000000000034
20
9.17636811026827
30
0
41
1
10
-0.400000000000034
20
8.35230629219913
30
0
41
1
10
-0.400000000000034
20
7.53968883941312
30
0
41
1
10
-0.400000000000034
20
6.74713346409783
30
0
41
1
10
-0.400000000000034
20
5.98219169787032
30
0
41
1
10
-0.400000000000034
20
5.46426940201667
30
0
41
1
10
-0.400000000000034
20
5.19818241873483
30
0
41
1
10
-0.400000000000034
20
5.16866682996371
30
0
0
SPLINE
5
26E
100
AcDbEntity
8
SK1
62
256
6
ByLayer
370
-1
48
1
60
0
100
AcDbSpline
70
4
71
3
72
30
73
26
40
0
40
0
40
0
40
0
40
0.0056618333773669
40
0.0508667583908923
40
0.0960716834044178
40
0.141276608417943
40
0.186481533431469
40
0.231686458444994
40
0.276891383458519
40
0.322096308472045
40
0.36730123348557
40
0.412506158499096
40
0.457711083512621
40
0.502916008526146
40
0.548120933539672
40
0.593325858553197
40
0.638530783566723
40
0.683735708580248
40
0.728940633593774
40
0.774145558607299
40
0.819350483620824
40
0.86455540863435
40
0.909760333647875
40
0.954965258661401
40
1
40
1
40
1
40
1
41
1
10
-0.400000000000034
20
-5.16866679574528
30
0
41
1
10
-0.400000000000034
20
-5.1981823917107
30
0
41
1
10
-0.400000000000034
20
-5.46426938707833
30
0
41
1
10
-0.400000000000034
20
-5.98219146197602
30
0
41
1
10
-0.400000000000034
20
-6.74713361247495
30
0
41
1
10
-0.400000000000034
20
-7.53968849279406
30
0
41
1
10
-0.400000000000034
20
-8.35230648563555
30
0
41
1
10
-0.400000000000034
20
-9.17636769820604
30
0
41
1
10
-0.400000000000034
20
-10.0024728331477
30
0
41
1
10
-0.400000000000034
20
-10.8207538150476
30
0
41
1
10
-0.400000000000034
20
-11.6212070931939
30
0
41
1
10
-0.400000000000034
20
-12.3940190774915
30
0
41
1
10
-0.400000000000034
20
-13.1298916243886
30
0
41
1
10
-0.400000000000034
20
-13.8203332490725
30
0
41
1
10
-0.400000000000034
20
-14.4579281585871
30
0
41
1
10
-0.400000000000034
20
-15.0365497976464
30
0
41
1
10
-0.400000000000034
20
-15.5515337877379
30
0
41
1
10
-0.400000000000034
20
-15.9997825456108
30
0
41
1
10
-0.400000000000034
20
-16.379817481596
30
0
41
1
10
-0.400000000000034
20
-16.6917603323907
30
0
41
1
10
-0.400000000000034
20
-16.9372586651848
30
0
41
1
10
-0.400000000000034
20
-17.1193485969266
30
0
41
1
10
-0.400000000000006
20
-17.2422669751987
30
0
41
1
10
-0.400000000000006
20
-17.311133444229
30
0
41
1
10
-0.400000000000006
20
-17.3250933704586
30
0
41
1
10
-0.400000000000034
20
-17.3251497957884
30
0
0
SPLINE
5
26F
100
AcDbEntity
8
1
62
256
6
ByLayer
370
-1
48
1
60
0
100
AcDbSpline
70
4
71
3
72
8
73
4
40
0
40
0
40
0
40
0
40
1
40
1
40
1
40
1
41
1
10
59.9214305240742
20
2.91944514922719
30
0
41
1
10
59.926764033341
20
2.9162097989659
30
0
41
1
10
59.9320975239415
20
2.91297447637473
30
0
41
1
10
59.9374309965044
20
2.90973918052114
30
0
0
SPLINE
5
270
100
AcDbEntity
8
1
62
256
6
ByLayer
370
-1
48
1
60
0
100
AcDbSpline
70
4
71
3
72
24
73
20
40
0
40
0
40
0
40
0
40
0.0429952269615269
40
0.0429952269615269
40
0.228745926441294
40
0.228745926441294
40
0.414699745380219
40
0.414699745380219
40
0.538335079651922
40
0.538335079651922
40
0.632242005354073
40
0.632242005354073
40
0.783656353743859
40
0.783656353743859
40
0.875145603232528
40
0.875145603232528
40
0.967942630461937
40
0.967942630461937
40
1
40
1
40
1
40
1
41
1
10
58.6962771359595
20
2.2221818198714
30
0
41
1
10
58.7046296930204
20
2.22244096718725
30
0
41
1
10
58.712978093572
20
2.2227943988168
30
0
41
1
10
58.7573111474565
20
2.22517489889103
30
0
41
1
10
58.7932295939151
20
2.22885861388247
30
0
41
1
10
58.8641264691415
20
2.23995778666841
30
0
41
1
10
58.899273643947
20
2.24739391771777
30
0
41
1
10
58.9561333904919
20
2.26346957748066
30
0
41
1
10
58.9784893731855
20
2.27090149363684
30
0
41
1
10
59.0164584852962
20
2.28606391314622
30
0
41
1
10
59.0324586837771
20
2.29331841885406
30
0
41
1
10
59.0721335277327
20
2.31428227127452
30
0
41
1
10
59.0951769506536
20
2.32952199870235
30
0
41
1
10
59.124621674768
20
2.35794299598717
30
0
41
1
10
59.134135795112
20
2.36980378731843
30
0
41
1
10
59.1471769519372
20
2.39473630676858
30
0
41
1
10
59.1506904274465
20
2.40819851977972
30
0
41
1
10
59.1502818078456
20
2.42560485415964
30
0
41
1
10
59.1497279252418
20
2.43010057676082
30
0
41
1
10
59.1487527584717
20
2.43449928515162
30
0
0
SPLINE
5
271
100
AcDbEntity
8
1
62
256
6
ByLayer
370
-1
48
1
60
0
100
AcDbSpline
70
4
71
3
72
8
73
4
40
0
40
0
40
0
40
0
40
1
40
1
40
1
40
1
41
1
10
59.8385827826816
20
5.36357082485884
30
0
41
1
10
59.8336045430632
20
5.35798773334076
30
0
41
1
10
59.8286262867063
20
5.35240463631121
30
0
41
1
10
59.8236480130276
20
5.34682153357861
30
0
0
SPLINE
5
272
100
AcDbEntity
8
1
62
256
6
ByLayer
370
-1
48
1
60
0
100
AcDbSpline
70
4
71
3
72
36
73
32
40
0
40
0
40
0
40
0
40
0.0475157701008412
40
0.0475157701008412
40
0.126453341677993
40
0.126453341677993
40
0.1915623216811
40
0.1915623216811
40
0.256501777331663
40
0.256501777331663
40
0.354135189055997
40
0.354135189055997
40
0.426604905914218
40
0.426604905914218
40
0.500021324545537
40
0.500021324545537
40
0.56768780849218
40
0.56768780849218
40
0.635361645410336
40
0.635361645410336
40
0.703054973744015
40
0.703054973744015
40
0.770791731985866
40
0.770791731985866
40
0.838628455118725
40
0.838628455118725
40
0.892100072984842
40
0.892100072984842
40
0.974816586590196
40
0.974816586590196
40
1
40
1
40
1
40
1
41
1
10
59.8236480130276
20
5.34682153357863
30
0
41
1
10
59.8127103926138
20
5.33455506082893
30
0
41
1
10
59.7995978952605
20
5.32426601189636
30
0
41
1
10
59.7624762901658
20
5.30222838991915
30
0
41
1
10
59.7363795493878
20
5.29337091848694
30
0
41
1
10
59.6879998545084
20
5.28339309590132
30
0
41
1
10
59.6654403539157
20
5.28113189735308
30
0
41
1
10
59.6202499338905
20
5.28002947058496
30
0
41
1
10
59.5974708776369
20
5.28118459435277
30
0
41
1
10
59.5407264809808
20
5.28750599737447
30
0
41
1
10
59.5066326286858
20
5.2944152279893
30
0
41
1
10
59.4482072015054
20
5.31076294017345
30
0
41
1
10
59.4235012390508
20
5.31913669825641
30
0
41
1
10
59.374614336956
20
5.3384799517622
30
0
41
1
10
59.3503638613398
20
5.3495147984045
30
0
41
1
10
59.3048499304575
20
5.37297246577711
30
0
41
1
10
59.2834394729982
20
5.38525144455502
30
0
41
1
10
59.2418249272355
20
5.41170190631351
30
0
41
1
10
59.221562588347
20
5.42590993663444
30
0
41
1
10
59.1825463876116
20
5.45616268324281
30
0
41
1
10
59.1637318210068
20
5.47225331649918
30
0
41
1
10
59.1280231686987
20
5.50626369723904
30
0
41
1
10
59.1110605148832
20
5.5242463716275
30
0
41
1
10
59.079689923821
20
5.56208431619362
30
0
41
1
10
59.0651951637575
20
5.58204012612612
30
0
41
1
10
59.0425745198734
20
5.61942225783577
30
0
41
1
10
59.0336939924034
20
5.63658712821749
30
0
41
1
10
59.015401391324
20
5.68139757970914
30
0
41
1
10
59.0079093317955
20
5.71060892840816
30
0
41
1
10
59.0076962446244
20
5.74846371453003
30
0
41
1
10
59.0083569791419
20
5.75744624150579
30
0
41
1
10
59.0098415571295
20
5.76625357950454
30
0
0
SPLINE
5
273
100
AcDbEntity
8
1
62
256
6
ByLayer
370
-1
48
1
60
0
100
AcDbSpline
70
4
71
3
72
24
73
20
40
0
40
0
40
0
40
0
40
0.0429952269616163
40
0.0429952269616163
40
0.22874592644138
40
0.22874592644138
40
0.414699745380306
40
0.414699745380306
40
0.538335079652006
40
0.538335079652006
40
0.632242005354126
40
0.632242005354126
40
0.783656353743918
40
0.783656353743918
40
0.875145603232579
40
0.875145603232579
40
0.967942630461972
40
0.967942630461972
40
1
40
1
40
1
40
1
41
1
10
60.2843683516729
20
5.12575243631554
30
0
41
1
10
60.2799104462366
20
5.13261403616247
30
0
41
1
10
60.2753619521524
20
5.13941450882319
30
0
41
1
10
60.2507125333627
20
5.17521939597566
30
0
41
1
10
60.2290179348182
20
5.20315748646414
30
0
41
1
10
60.1824007238229
20
5.25591816819758
30
0
41
1
10
60.1573743345537
20
5.28087192169858
30
0
41
1
10
60.1127934881149
20
5.31860968720906
30
0
41
1
10
60.0941404148958
20
5.33272413300622
30
0
41
1
10
60.0598415388554
20
5.3549785643371
30
0
41
1
10
60.0444961416777
20
5.36377171322226
30
0
41
1
10
60.0033325299406
20
5.38350306763414
30
0
41
1
10
59.9762256195565
20
5.39283741446718
30
0
41
1
10
59.9320460849178
20
5.39828562885481
30
0
41
1
10
59.9149133553823
20
5.39810443204328
30
0
41
1
10
59.882107204295
20
5.39147904444334
30
0
41
1
10
59.8660180889189
20
5.38473248764194
30
0
41
1
10
59.8474641990393
20
5.37151979248355
30
0
41
1
10
59.8428757821803
20
5.36770076627226
30
0
41
1
10
59.8385827826816
20
5.36357082485881
30
0
0
SPLINE
5
274
100
AcDbEntity
8
1
62
256
6
ByLayer
370
-1
48
1
60
0
100
AcDbSpline
70
4
71
3
72
24
73
20
40
0
40
0
40
0
40
0
40
0.0429952269616866
40
0.0429952269616866
40
0.228745926441461
40
0.228745926441461
40
0.414699745380396
40
0.414699745380396
40
0.538335079652063
40
0.538335079652063
40
0.63224200535418
40
0.63224200535418
40
0.783656353743946
40
0.783656353743946
40
0.875145603232588
40
0.875145603232588
40
0.967942630461963
40
0.967942630461963
40
1
40
1
40
1
40
1
41
1
10
56.9550702260748
20
3.11959172772279
30
0
41
1
10
56.9595281315111
20
3.11273012787586
30
0
41
1
10
56.9640750829044
20
3.10591398095852
30
0
41
1
10
56.9887080470625
20
3.06994190923132
30
0
41
1
10
57.0103609083144
20
3.04157975385604
30
0
41
1
10
57.056827012265
20
2.98728377388383
30
0
41
1
10
57.0817440548646
20
2.96121902155636
30
0
41
1
10
57.1260598152318
20
2.92078789267771
30
0
41
1
10
57.1445843862341
20
2.90536782127251
30
0
41
1
10
57.178600555583
20
2.88024099516591
30
0
41
1
10
57.19380486457
20
2.87001434295718
30
0
41
1
10
57.2345346162809
20
2.84587482521062
30
0
41
1
10
57.2613042071509
20
2.83311319901455
30
0
41
1
10
57.3047657422654
20
2.82036986872157
30
0
41
1
10
57.3215802040559
20
2.8173173585312
30
0
41
1
10
57.3536585554769
20
2.8165480574975
30
0
41
1
10
57.3693244627841
20
2.81899467842047
30
0
41
1
10
57.3872829050461
20
2.82615742613589
30
0
41
1
10
57.3917131712966
20
2.82836958913845
30
0
41
1
10
57.3958471407416
20
2.83088373188508
30
0
0
SPLINE
5
275
100
AcDbEntity
8
1
62
256
6
ByLayer
370
-1
48
1
60
0
100
AcDbSpline
70
4
71
3
72
36
73
32
40
0
40
0
40
0
40
0
40
0.0475157701008584
40
0.0475157701008584
40
0.126453341678004
40
0.126453341678004
40
0.191562321681111
40
0.191562321681111
40
0.256501777331687
40
0.256501777331687
40
0.354135189056013
40
0.354135189056013
40
0.426604905914227
40
0.426604905914227
40
0.500021324545543
40
0.500021324545543
40
0.56768780849219
40
0.56768780849219
40
0.635361645410358
40
0.635361645410358
40
0.703054973744053
40
0.703054973744053
40
0.770791731985908
40
0.770791731985908
40
0.838628455118774
40
0.838628455118774
40
0.892100072984871
40
0.892100072984871
40
0.974816586590217
40
0.974816586590217
40
1
40
1
40
1
40
1
41
1
10
59.1434057262057
20
2.45062477901357
30
0
41
1
10
59.1394897784544
20
2.4624344746837
30
0
41
1
10
59.1384196603875
20
2.47506608260156
30
0
41
1
10
59.1411986918961
20
2.50839815085533
30
0
41
1
10
59.1485861939912
20
2.52956183264658
30
0
41
1
10
59.167500601676
20
2.56671442471759
30
0
41
1
10
59.1782580005956
20
2.58326521565851
30
0
41
1
10
59.2025443383826
20
2.61539383369467
30
0
41
1
10
59.2161531279814
20
2.63107642657366
30
0
41
1
10
59.2527615504466
20
2.66920377722877
30
0
41
1
10
59.2772023506213
20
2.69126543752947
30
0
41
1
10
59.3225530817172
20
2.72800533419004
30
0
41
1
10
59.3428548449919
20
2.74319391356315
30
0
41
1
10
59.3851404221262
20
2.77263478622936
30
0
41
1
10
59.4072132432999
20
2.7869205236602
30
0
41
1
10
59.4507260056013
20
2.81314034260049
30
0
41
1
10
59.4721398248478
20
2.8252062562419
30
0
41
1
10
59.5157290622891
20
2.84808884329971
30
0
41
1
10
59.53796510293
20
2.858937713355
30
0
41
1
10
59.5830033328187
20
2.87915348429959
30
0
41
1
10
59.6058746362283
20
2.88855226690231
30
0
41
1
10
59.6519762568417
20
2.90552009407006
30
0
41
1
10
59.6752930963231
20
2.91312264731403
30
0
41
1
10
59.7220105221455
20
2.92594711448476
30
0
41
1
10
59.74553685117
20
2.93120622704453
30
0
41
1
10
59.7871965368403
20
2.93763004013511
30
0
41
1
10
59.8055242558523
20
2.93944015519193
30
0
41
1
10
59.8508062212048
20
2.94038595471108
30
0
41
1
10
59.8780008436786
20
2.93757714711506
30
0
41
1
10
59.9083348972499
20
2.92644764989103
30
0
41
1
10
59.9151652565046
20
2.92324571168149
30
0
41
1
10
59.9214305240729
20
2.91944514922824
30
0
0
SPLINE
5
276
100
AcDbEntity
8
1
62
256
6
ByLayer
370
-1
48
1
60
0
100
AcDbSpline
70
4
71
3
72
36
73
32
40
0
40
0
40
0
40
0
40
0.047515770100856
40
0.047515770100856
40
0.126453341678005
40
0.126453341678005
40
0.191562321681112
40
0.191562321681112
40
0.256501777331686
40
0.256501777331686
40
0.35413518905602
40
0.35413518905602
40
0.426604905914232
40
0.426604905914232
40
0.500021324545544
40
0.500021324545544
40
0.567687808492177
40
0.567687808492177
40
0.635361645410327
40
0.635361645410327
40
0.703054973743998
40
0.703054973743998
40
0.770791731985845
40
0.770791731985845
40
0.838628455118689
40
0.838628455118689
40
0.892100072984821
40
0.892100072984821
40
0.974816586590191
40
0.974816586590191
40
1
40
1
40
1
40
1
41
1
10
60.3501390705813
20
3.70327011239044
30
0
41
1
10
60.3355054216586
20
3.70504778855195
30
0
41
1
10
60.3215425820707
20
3.7096233436823
30
0
41
1
10
60.2877503655706
20
3.72650960248225
30
0
41
1
10
60.2693606239607
20
3.74206201022761
30
0
41
1
10
60.2404146715546
20
3.77451339529176
30
0
41
1
10
60.2288276954682
20
3.79098873577612
30
0
41
1
10
60.208310643883
20
3.82594728824654
30
0
41
1
10
60.1993135863866
20
3.84454486801684
30
0
41
1
10
60.1795593234376
20
3.89287193589647
30
0
41
1
10
60.1700905355272
20
3.92371501296591
30
0
41
1
10
60.1572563741923
20
3.97924653551672
30
0
41
1
10
60.1529296143005
20
4.00359568210371
30
0
41
1
10
60.1464325850459
20
4.05343948761757
30
0
41
1
10
60.1442812716729
20
4.07902770578988
30
0
41
1
10
60.1422801030921
20
4.12870519210279
30
0
41
1
10
60.1422610869208
20
4.15282271696097
30
0
41
1
10
60.1441465472214
20
4.2012491450588
30
0
41
1
10
60.1460532752972
20
4.2256255704242
30
0
41
1
10
60.1518973870455
20
4.27428638748867
30
0
41
1
10
60.1558429129054
20
4.29864586285933
30
0
41
1
10
60.1659699121191
20
4.3469217356197
30
0
41
1
10
60.1721688461031
20
4.37092955411094
30
0
41
1
10
60.1871615161694
20
4.41799353380884
30
0
41
1
10
60.1959932173792
20
4.44117773293391
30
0
41
1
10
60.2146352786469
20
4.48095022256368
30
0
41
1
10
60.2238926920776
20
4.49799699875888
30
0
41
1
10
60.2503672212211
20
4.53852235223368
30
0
41
1
10
60.269716571189
20
4.56133613105689
30
0
41
1
10
60.2993515060009
20
4.58312317605598
30
0
41
1
10
60.306725150315
20
4.58771043894782
30
0
41
1
10
60.3143574125503
20
4.59152252853102
30
0
0
SPLINE
5
277
100
AcDbEntity
8
1
62
256
6
ByLayer
370
-1
48
1
60
0
100
AcDbSpline
70
4
71
3
72
8
73
4
40
0
40
0
40
0
40
0
40
1
40
1
40
1
40
1
41
1
10
56.8836902667229
20
4.4850822880131
30
0
41
1
10
56.8772299334668
20
4.48792542909686
30
0
41
1
10
56.8707696261778
20
4.49076857484684
30
0
41
1
10
56.8643093439814
20
4.49361172510541
30
0
0
SPLINE
5
278
100
AcDbEntity
8
1
62
256
6
ByLayer
370
-1
48
1
60
0
100
AcDbSpline
70
4
71
3
72
8
73
4
40
0
40
0
40
0
40
0
40
1
40
1
40
1
40
1
41
1
10
57.3958471407416
20
2.83088373188505
30
0
41
1
10
57.4006251827593
20
2.83443274865596
30
0
41
1
10
57.4054032437176
20
2.83798179331174
30
0
41
1
10
57.4101813242766
20
2.84153086682491
30
0
0
SPLINE
5
279
100
AcDbEntity
8
1
62
256
6
ByLayer
370
-1
48
1
60
0
100
AcDbSpline
70
4
71
3
72
8
73
4
40
0
40
0
40
0
40
0
40
1
40
1
40
1
40
1
41
1
10
56.9194719247523
20
3.59682987187188
30
0
41
1
10
56.9131749107032
20
3.5956187379924
30
0
41
1
10
56.9068779220033
20
3.59440762412243
30
0
41
1
10
56.9005809577987
20
3.59319652958752
30
0
0
SPLINE
5
27A
100
AcDbEntity
8
1
62
256
6
ByLayer
370
-1
48
1
60
0
100
AcDbSpline
70
4
71
3
72
24
73
20
40
0
40
0
40
0
40
0
40
0.0429952269615626
40
0.0429952269615626
40
0.228745926441321
40
0.228745926441321
40
0.41469974538024
40
0.41469974538024
40
0.53833507965196
40
0.53833507965196
40
0.6322420053541
40
0.6322420053541
40
0.783656353743885
40
0.783656353743885
40
0.875145603232549
40
0.875145603232549
40
0.967942630461951
40
0.967942630461951
40
1
40
1
40
1
40
1
41
1
10
58.5431614417882
20
6.02316234416693
30
0
41
1
10
58.5348088847273
20
6.02290319685108
30
0
41
1
10
58.5264589414848
20
6.02253409096494
30
0
41
1
10
58.4821094329687
20
6.01998640631595
30
0
41
1
10
58.4461492492175
20
6.01587862643771
30
0
41
1
10
58.3751012669464
20
6.00324415541303
30
0
41
1
10
58.3398447454712
20
5.99469702553722
30
0
41
1
10
58.2827199128548
20
5.97592800240611
30
0
41
1
10
58.2602354279444
20
5.96719046064192
30
0
41
1
10
58.2219836091421
20
5.94915564635679
30
0
41
1
10
58.2058423224705
20
5.94046763732538
30
0
41
1
10
58.1657336184888
20
5.91509562157023
30
0
41
1
10
58.1423528760538
20
5.89642861477938
30
0
41
1
10
58.1121901524151
20
5.86071250158921
30
0
41
1
10
58.1023577643261
20
5.84561800325605
30
0
41
1
10
58.0885888078346
20
5.81329079517224
30
0
41
1
10
58.0846521242565
20
5.79552864628269
30
0
41
1
10
58.0844652962398
20
5.7720723644598
30
0
41
1
10
58.0848610282351
20
5.76596977864986
30
0
41
1
10
58.0856771649514
20
5.7599552715923
30
0
0
SPLINE
5
27B
100
AcDbEntity
8
1
62
256
6
ByLayer
370
-1
48
1
60
0
100
AcDbSpline
70
4
71
3
72
22
73
18
40
0
40
0
40
0
40
0
40
0.0904884159773341
40
0.0904884159773341
40
0.167615335033914
40
0.167615335033914
40
0.286482716021623
40
0.286482716021623
40
0.385988194077739
40
0.385988194077739
40
0.485170893000011
40
0.485170893000011
40
0.671495106342887
40
0.671495106342887
40
0.857309270880991
40
0.857309270880991
40
1
40
1
40
1
40
1
41
1
10
59.0136329308317
20
5.78874612500718
30
0
41
1
10
59.0151675008599
20
5.80552465927167
30
0
41
1
10
59.0132409754882
20
5.82299325622188
30
0
41
1
10
59.0035800452123
20
5.85312185937045
30
0
41
1
10
58.9966901482884
20
5.86647082189899
30
0
41
1
10
58.9753270338202
20
5.89716494279682
30
0
41
1
10
58.9585346358811
20
5.91338916175971
30
0
41
1
10
58.9250081977964
20
5.93877102402402
30
0
41
1
10
58.9084340233723
20
5.9488713404817
30
0
41
1
10
58.8742099021044
20
5.9665510490278
30
0
41
1
10
58.8564525418601
20
5.9741909207489
30
0
41
1
10
58.8044961481
20
5.99333595278463
30
0
41
1
10
58.7692803133609
20
6.00250005569211
30
0
41
1
10
58.698310563762
20
6.01582235188312
30
0
41
1
10
58.6623266077153
20
6.02000960700792
30
0
41
1
10
58.5986357644313
20
6.02367814350188
30
0
41
1
10
58.5708661880776
20
6.02402191454587
30
0
41
1
10
58.5431614417882
20
6.02316234416693
30
0
0
SPLINE
5
27C
100
AcDbEntity
8
1
62
256
6
ByLayer
370
-1
48
1
60
0
100
AcDbSpline
70
4
71
3
72
24
73
20
40
0
40
0
40
0
40
0
40
0.0429952269616276
40
0.0429952269616276
40
0.2287459264414
40
0.2287459264414
40
0.414699745380328
40
0.414699745380328
40
0.538335079652012
40
0.538335079652012
40
0.632242005354141
40
0.632242005354141
40
0.78365635374391
40
0.78365635374391
40
0.875145603232564
40
0.875145603232564
40
0.967942630461961
40
0.967942630461961
40
1
40
1
40
1
40
1
41
1
10
60.3609261987585
20
3.22526217416777
30
0
41
1
10
60.3648208503832
20
3.23238292133055
30
0
41
1
10
60.368621528196
20
3.23954466274912
30
0
41
1
10
60.3883133906067
20
3.27781364226323
30
0
41
1
10
60.402558107167
20
3.30964748018653
30
0
41
1
10
60.4269133249205
20
3.37427498382527
30
0
41
1
10
60.4370887837917
20
3.40722036778891
30
0
41
1
10
60.4495002269335
20
3.46238047474637
30
0
41
1
10
60.4532673875164
20
3.48457964950373
30
0
41
1
10
60.4570789769325
20
3.52343269773184
30
0
41
1
10
60.457804322331
20
3.5401971039866
30
0
41
1
10
60.4565324845625
20
3.58309639248631
30
0
41
1
10
60.4526376568564
20
3.60938410642868
30
0
41
1
10
60.4382618460942
20
3.64690087605382
30
0
41
1
10
60.4308023707752
20
3.66019732407449
30
0
41
1
10
60.4114012763463
20
3.68220180024153
30
0
41
1
10
60.3990372405139
20
3.69106742439047
30
0
41
1
10
60.3803724548422
20
3.69828603733347
30
0
41
1
10
60.3753092306836
20
3.69976616532773
30
0
41
1
10
60.3701205794417
20
3.70084283163848
30
0
0
SPLINE
5
27D
100
AcDbEntity
8
1
62
256
6
ByLayer
370
-1
48
1
60
0
100
AcDbSpline
70
4
71
3
72
22
73
18
40
0
40
0
40
0
40
0
40
0.09048841597733
40
0.09048841597733
40
0.167615335033922
40
0.167615335033922
40
0.286482716021632
40
0.286482716021632
40
0.38598819407775
40
0.38598819407775
40
0.485170893000021
40
0.485170893000021
40
0.671495106342913
40
0.671495106342913
40
0.857309270881025
40
0.857309270881025
40
1
40
1
40
1
40
1
41
1
10
59.9374309965044
20
2.90973918052114
30
0
41
1
10
59.9500343683491
20
2.90352108559713
30
0
41
1
10
59.9649753603373
20
2.89983107139031
30
0
41
1
10
59.9940019599887
20
2.89850411413369
30
0
41
1
10
60.0082030021219
20
2.89999168551864
30
0
41
1
10
60.0436728141647
20
2.90784400711496
30
0
41
1
10
60.0652256856669
20
2.91641368130604
30
0
41
1
10
60.1026002723918
20
2.93574088321444
30
0
41
1
10
60.1191025723646
20
2.94606861312158
30
0
41
1
10
60.1505939859947
20
2.96844442553558
30
0
41
1
10
60.1656862860179
20
2.98056047292636
30
0
41
1
10
60.2072114567481
20
3.01712059433075
30
0
41
1
10
60.2322265499879
20
3.04322240285728
30
0
41
1
10
60.2783467161199
20
3.09774989864104
30
0
41
1
10
60.2995911614539
20
3.12635410110684
30
0
41
1
10
60.3340430855427
20
3.17844330316603
30
0
41
1
10
60.3480079589479
20
3.20164324021781
30
0
41
1
10
60.3609261987585
20
3.22526217416777
30
0
0
SPLINE
5
27E
100
AcDbEntity
8
1
62
256
6
ByLayer
370
-1
48
1
60
0
100
AcDbSpline
70
4
71
3
72
8
73
4
40
0
40
0
40
0
40
0
40
1
40
1
40
1
40
1
41
1
10
58.0856771649514
20
5.7599552715923
30
0
41
1
10
58.0872593063298
20
5.75254606718926
30
0
41
1
10
58.0888414549611
20
5.7451368505966
30
0
41
1
10
58.0904236110984
20
5.73772762138995
30
0
0
SPLINE
5
27F
100
AcDbEntity
8
1
62
256
6
ByLayer
370
-1
48
1
60
0
100
AcDbSpline
70
4
71
3
72
36
73
32
40
0
40
0
40
0
40
0
40
0.0475157701008444
40
0.0475157701008444
40
0.12645334167799
40
0.12645334167799
40
0.191562321681102
40
0.191562321681102
40
0.25650177733167
40
0.25650177733167
40
0.354135189056003
40
0.354135189056003
40
0.426604905914227
40
0.426604905914227
40
0.500021324545543
40
0.500021324545543
40
0.567687808492189
40
0.567687808492189
40
0.635361645410347
40
0.635361645410347
40
0.703054973744026
40
0.703054973744026
40
0.770791731985878
40
0.770791731985878
40
0.838628455118727
40
0.838628455118727
40
0.892100072984847
40
0.892100072984847
40
0.9748165865902
40
0.9748165865902
40
1
40
1
40
1
40
1
41
1
10
57.4101813242766
20
2.84153086682488
30
0
41
1
10
57.4206791062053
20
2.84932843309241
30
0
41
1
10
57.433352051894
20
2.85515148973488
30
0
41
1
10
57.4693729428168
20
2.8660054866653
30
0
41
1
10
57.4948306894487
20
2.8683705633249
30
0
41
1
10
57.5421717147512
20
2.867795154753
30
0
41
1
10
57.5643009641704
20
2.86568485711786
30
0
41
1
10
57.6087173228896
20
2.85892256148125
30
0
41
1
10
57.6311499608266
20
2.8542477114664
30
0
41
1
10
57.6871309349988
20
2.84016968003908
30
0
41
1
10
57.7208562588741
20
2.82951607711641
30
0
41
1
10
57.7788006165552
20
2.80828053752006
30
0
41
1
10
57.8033517004337
20
2.79833316117527
30
0
41
1
10
57.8520300111166
20
2.77687054898578
30
0
41
1
10
57.8762278045936
20
2.76530043414513
30
0
41
1
10
57.9217417354759
20
2.74184276677249
30
0
41
1
10
57.9431969488521
20
2.73001852311685
30
0
41
1
10
57.9849899573707
20
2.7053813027953
30
0
41
1
10
58.0053862436126
20
2.69253422249602
30
0
41
1
10
58.0447582791579
20
2.66589687686462
30
0
41
1
10
58.0637952676525
20
2.6520661245851
30
0
41
1
10
58.1000358581438
20
2.62346041413969
30
0
41
1
10
58.1173090153228
20
2.60863255803352
30
0
41
1
10
58.149387935773
20
2.57799147754537
30
0
41
1
10
58.1642824313391
20
2.56209711434724
30
0
41
1
10
58.1876970362599
20
2.53278189297853
30
0
41
1
10
58.1969571199527
20
2.51947344108353
30
0
41
1
10
58.2162793912913
20
2.48512478466384
30
0
41
1
10
58.2244778767747
20
2.46309096052448
30
0
41
1
10
58.2256630271223
20
2.43511266220011
30
0
41
1
10
58.225237191521
20
2.42851678697312
30
0
41
1
10
58.2239877801747
20
2.42209882089892
30
0
0
SPLINE
5
280
100
AcDbEntity
8
1
62
256
6
ByLayer
370
-1
48
1
60
0
100
AcDbSpline
70
4
71
3
72
8
73
4
40
0
40
0
40
0
40
0
40
1
40
1
40
1
40
1
41
1
10
59.0098415571298
20
5.76625357950621
30
0
41
1
10
59.0111053515917
20
5.77375110747613
30
0
41
1
10
59.012369142789
20
5.78124862249791
30
0
41
1
10
59.0136329308317
20
5.78874612500718
30
0
0
SPLINE
5
281
100
AcDbEntity
8
1
62
256
6
ByLayer
370
-1
48
1
60
0
100
AcDbSpline
70
4
71
3
72
22
73
18
40
0
40
0
40
0
40
0
40
0.0904884159773439
40
0.0904884159773439
40
0.167615335033921
40
0.167615335033921
40
0.28648271602163
40
0.28648271602163
40
0.385988194077751
40
0.385988194077751
40
0.485170893000022
40
0.485170893000022
40
0.671495106342908
40
0.671495106342908
40
0.857309270881018
40
0.857309270881018
40
1
40
1
40
1
40
1
41
1
10
60.3338489656245
20
4.60125802715635
30
0
41
1
10
60.3477666430094
20
4.60958050544636
30
0
41
1
10
60.3605620316382
20
4.62113318237903
30
0
41
1
10
60.3795663746299
20
4.6462636310614
30
0
41
1
10
60.3867241314265
20
4.65954168727268
30
0
41
1
10
60.4004897859616
20
4.69462301813726
30
0
41
1
10
60.4050813763287
20
4.7177010013948
30
0
41
1
10
60.4086746938375
20
4.75982089582928
30
0
41
1
10
60.4085056621188
20
4.77926179178272
30
0
41
1
10
60.405606850325
20
4.81762963882431
30
0
41
1
10
60.4028723056001
20
4.83667957207885
30
0
41
1
10
60.3922696000966
20
4.8906424060919
30
0
41
1
10
60.381990254426
20
4.92510967278926
30
0
41
1
10
60.3570242955972
20
4.99177705206844
30
0
41
1
10
60.3422469694942
20
5.02418429261326
30
0
41
1
10
60.3129679598113
20
5.07953469836977
30
0
41
1
10
60.2991548581517
20
5.10299307274451
30
0
41
1
10
60.2843683516729
20
5.12575243631554
30
0
0
SPLINE
5
282
100
AcDbEntity
8
1
62
256
6
ByLayer
370
-1
48
1
60
0
100
AcDbSpline
70
4
71
3
72
8
73
4
40
0
40
0
40
0
40
0
40
1
40
1
40
1
40
1
41
1
10
60.3143574125519
20
4.59152252853164
30
0
41
1
10
60.3208546197206
20
4.59476769163058
30
0
41
1
10
60.3273518038192
20
4.59801285787429
30
0
41
1
10
60.3338489656245
20
4.60125802715638
30
0
0
SPLINE
5
283
100
AcDbEntity
8
1
62
256
6
ByLayer
370
-1
48
1
60
0
100
AcDbSpline
70
4
71
3
72
8
73
4
40
0
40
0
40
0
40
0
40
1
40
1
40
1
40
1
41
1
10
59.1487527584718
20
2.43449928515162
30
0
41
1
10
59.1469704194928
20
2.43987441480746
30
0
41
1
10
59.1451880754628
20
2.44524957902635
30
0
41
1
10
59.1434057262057
20
2.45062477901357
30
0
0
SPLINE
5
284
100
AcDbEntity
8
1
62
256
6
ByLayer
370
-1
48
1
60
0
100
AcDbSpline
70
4
71
3
72
22
73
18
40
0
40
0
40
0
40
0
40
0.0904884159773386
40
0.0904884159773386
40
0.167615335033921
40
0.167615335033921
40
0.286482716021647
40
0.286482716021647
40
0.385988194077777
40
0.385988194077777
40
0.485170893000054
40
0.485170893000054
40
0.671495106342955
40
0.671495106342955
40
0.857309270881079
40
0.857309270881079
40
1
40
1
40
1
40
1
41
1
10
56.9005809577986
20
3.59319652958754
30
0
41
1
10
56.8871038093897
20
3.58934997339853
30
0
41
1
10
56.8747465767365
20
3.58224910808732
30
0
41
1
10
56.8564648865125
20
3.56446105382406
30
0
41
1
10
56.8496139065412
20
3.55429995301725
30
0
41
1
10
56.8365303380849
20
3.52614884541174
30
0
41
1
10
56.8322765141099
20
3.5065026819471
30
0
41
1
10
56.829192858864
20
3.46956112698905
30
0
41
1
10
56.8295562051172
20
3.45209453185839
30
0
41
1
10
56.8327872252231
20
3.41710203265379
30
0
41
1
10
56.8356607389558
20
3.39946407111395
30
0
41
1
10
56.8466064094063
20
3.34898587595504
30
0
41
1
10
56.8570429634197
20
3.316115898731
30
0
41
1
10
56.8822416729721
20
3.2518133448429
30
0
41
1
10
56.8970946298559
20
3.2201745383897
30
0
41
1
10
56.9264538205141
20
3.1656387982265
30
0
41
1
10
56.940283719596
20
3.14235109129382
30
0
41
1
10
56.9550702260748
20
3.11959172772279
30
0
0
SPLINE
5
285
100
AcDbEntity
8
1
62
256
6
ByLayer
370
-1
48
1
60
0
100
AcDbSpline
70
4
71
3
72
8
73
4
40
0
40
0
40
0
40
0
40
1
40
1
40
1
40
1
41
1
10
58.2239877801744
20
2.4220988208973
30
0
41
1
10
58.2229241788323
20
2.41663532214682
30
0
41
1
10
58.2218605830335
20
2.41117185949881
30
0
41
1
10
58.2207969925915
20
2.40570843173671
30
0
0
SPLINE
5
286
100
AcDbEntity
8
1
62
256
6
ByLayer
370
-1
48
1
60
0
100
AcDbSpline
70
4
71
3
72
8
73
4
40
0
40
0
40
0
40
0
40
1
40
1
40
1
40
1
41
1
10
60.3701205794418
20
3.70084283163848
30
0
41
1
10
60.3634600996447
20
3.70165190714988
30
0
41
1
10
60.3567995969571
20
3.70246100052611
30
0
41
1
10
60.3501390705813
20
3.70327011239041
30
0
0
SPLINE
5
287
100
AcDbEntity
8
1
62
256
6
ByLayer
370
-1
48
1
60
0
100
AcDbSpline
70
4
71
3
72
30
73
26
40
0
40
0
40
0
40
0
40
0.0472463991674007
40
0.0472463991674007
40
0.125736466955005
40
0.125736466955005
40
0.257856846531671
40
0.257856846531671
40
0.458496283789628
40
0.458496283789628
40
0.500541067592609
40
0.500541067592609
40
0.607715255533253
40
0.607715255533253
40
0.707741861721495
40
0.707741861721495
40
0.791454476503458
40
0.791454476503458
40
0.856063447344802
40
0.856063447344802
40
0.904947791866617
40
0.904947791866617
40
0.942568096207855
40
0.942568096207855
40
1
40
1
40
1
40
1
41
1
10
56.9194719247539
20
3.59682987187244
30
0
41
1
10
56.9333069113081
20
3.59949081891955
30
0
41
1
10
56.9462480332303
20
3.60490109919553
30
0
41
1
10
56.9770478287476
20
3.62379139656986
30
0
41
1
10
56.9932408173482
20
3.64041677174882
30
0
41
1
10
57.0295174347713
20
3.69032380407595
30
0
41
1
10
57.0458040243432
20
3.72823434306633
30
0
41
1
10
57.0754593549123
20
3.82884365387639
30
0
41
1
10
57.0836167852152
20
3.89659722342464
30
0
41
1
10
57.0841991658805
20
3.98033332965881
30
0
41
1
10
57.083949348334
20
3.99510173979712
30
0
41
1
10
57.0818323985899
20
4.04765340533035
30
0
41
1
10
57.0780642686412
20
4.08599927664977
30
0
41
1
10
57.0663245869745
20
4.15983796711978
30
0
41
1
10
57.0586158442665
20
4.19559445768533
30
0
41
1
10
57.0403051089118
20
4.26001366931371
30
0
41
1
10
57.0303283151104
20
4.28907422912889
30
0
41
1
10
57.0092653664305
20
4.33873992304549
30
0
41
1
10
56.9988945259153
20
4.35989202018678
30
0
41
1
10
56.9782179746958
20
4.39509990532318
30
0
41
1
10
56.9684555271653
20
4.4097156356616
30
0
41
1
10
56.9494998372098
20
4.4337187698091
30
0
41
1
10
56.9406428447496
20
4.44359183347382
30
0
41
1
10
56.916852311739
20
4.46600565140136
30
0
41
1
10
56.9007591819748
20
4.47757039469676
30
0
41
1
10
56.8836902667229
20
4.48508228801308
30
0
0
SPLINE
5
288
100
AcDbEntity
8
1
62
256
6
ByLayer
370
-1
48
1
60
0
100
AcDbSpline
70
4
71
3
72
30
73
26
40
0
40
0
40
0
40
0
40
0.0474443582703327
40
0.0474443582703327
40
0.126263293940462
40
0.126263293940462
40
0.191274421137324
40
0.191274421137324
40
0.256116278761152
40
0.256116278761152
40
0.320888225455353
40
0.320888225455353
40
0.385628263275715
40
0.385628263275715
40
0.499265937488266
40
0.499265937488266
40
0.718350851229867
40
0.718350851229867
40
0.845133679545904
40
0.845133679545904
40
0.929359653053707
40
0.929359653053707
40
0.988622318015174
40
0.988622318015174
40
1
40
1
40
1
40
1
41
1
10
57.31239881323
20
5.26890725117636
30
0
41
1
10
57.3236770729449
20
5.25733005066544
30
0
41
1
10
57.3369660685483
20
5.24786013723659
30
0
41
1
10
57.3742189838526
20
5.22813006696961
30
0
41
1
10
57.40006389245
20
5.22088414262646
30
0
41
1
10
57.4476637189738
20
5.21388419078983
30
0
41
1
10
57.4697432559086
20
5.21300796772564
30
0
41
1
10
57.5138200480075
20
5.21467515489121
30
0
41
1
10
57.5359616926019
20
5.21722399305864
30
0
41
1
10
57.5799453449465
20
5.22504950621251
30
0
41
1
10
57.6018784502228
20
5.23034386137013
30
0
41
1
10
57.645282871052
20
5.24325254996296
30
0
41
1
10
57.6668224471285
20
5.25088817761824
30
0
41
1
10
57.7252350563999
20
5.2747248696875
30
0
41
1
10
57.7617136813699
20
5.29314722343454
30
0
41
1
10
57.8635441074645
20
5.35450796436652
30
0
41
1
10
57.9267739546771
20
5.40544979963815
30
0
41
1
10
58.0098271877839
20
5.49896348439057
30
0
41
1
10
58.0373806687173
20
5.53684109166676
30
0
41
1
10
58.0722959980206
20
5.60454657021506
30
0
41
1
10
58.0835576804402
20
5.63333860331829
30
0
41
1
10
58.0936313448454
20
5.68353072736321
30
0
41
1
10
58.095141574353
20
5.70505469075468
30
0
41
1
10
58.0919482159599
20
5.72976270068432
30
0
41
1
10
58.0912692962479
20
5.73376728210266
30
0
41
1
10
58.0904236110984
20
5.73772762138995
30
0
0
SPLINE
5
289
100
AcDbEntity
8
1
62
256
6
ByLayer
370
-1
48
1
60
0
100
AcDbSpline
70
4
71
3
72
24
73
20
40
0
40
0
40
0
40
0
40
0.0429952269639966
40
0.0429952269639966
40
0.228745926444526
40
0.228745926444526
40
0.414699745384222
40
0.414699745384222
40
0.538335079655281
40
0.538335079655281
40
0.632242005356762
40
0.632242005356762
40
0.783656353745494
40
0.783656353745494
40
0.875145603233859
40
0.875145603233859
40
0.967942630462938
40
0.967942630462938
40
1
40
1
40
1
40
1
41
1
10
56.8785123789892
20
5.02008198987056
30
0
41
1
10
56.882407030614
20
5.02720273703375
30
0
41
1
10
56.886394791993
20
5.03426805645677
30
0
41
1
10
56.9080784413812
20
5.0715104782673
30
0
41
1
10
56.9274120696891
20
5.10072151484724
30
0
41
1
10
56.9694547778007
20
5.15623296857731
30
0
41
1
10
56.9922568537465
20
5.18267065308208
30
0
41
1
10
57.0333166837962
20
5.22306551524918
30
0
41
1
10
57.0506065870094
20
5.23829513162201
30
0
41
1
10
57.082631194094
20
5.26260732233169
30
0
41
1
10
57.0970321465389
20
5.27232338459589
30
0
41
1
10
57.1358946196329
20
5.29453763675158
30
0
41
1
10
57.1617079724048
20
5.30551389324782
30
0
41
1
10
57.2043282086633
20
5.31365516647728
30
0
41
1
10
57.2209847738245
20
5.31452231988487
30
0
41
1
10
57.2532177392959
20
5.30991484277141
30
0
41
1
10
57.2692138761597
20
5.30416376638829
30
0
41
1
10
57.2879465048018
20
5.29210792668422
30
0
41
1
10
57.292608165675
20
5.28857589435987
30
0
41
1
10
57.2969989269188
20
5.28471537622278
30
0
0
SPLINE
5
28A
100
AcDbEntity
8
1
62
256
6
ByLayer
370
-1
48
1
60
0
100
AcDbSpline
70
4
71
3
72
8
73
4
40
0
40
0
40
0
40
0
40
1
40
1
40
1
40
1
41
1
10
57.2969989269188
20
5.28471537622275
30
0
41
1
10
57.302132201881
20
5.27944600562199
30
0
41
1
10
57.3072654970829
20
5.27417663065705
30
0
41
1
10
57.3123988132299
20
5.26890725117633
30
0
0
SPLINE
5
28B
100
AcDbEntity
8
1
62
256
6
ByLayer
370
-1
48
1
60
0
100
AcDbSpline
70
4
71
3
72
22
73
18
40
0
40
0
40
0
40
0
40
0.0904884159773544
40
0.0904884159773544
40
0.167615335033936
40
0.167615335033936
40
0.28648271602166
40
0.28648271602166
40
0.385988194077794
40
0.385988194077794
40
0.485170893000076
40
0.485170893000076
40
0.671495106343748
40
0.671495106343748
40
0.857309270882636
40
0.857309270882636
40
1
40
1
40
1
40
1
41
1
10
56.8643093439814
20
4.49361172510541
30
0
41
1
10
56.850376795887
20
4.50107011936379
30
0
41
1
10
56.837300473955
20
4.51182009787729
30
0
41
1
10
56.8173385898946
20
4.53574157629143
30
0
41
1
10
56.8095620707768
20
4.54855628008383
30
0
41
1
10
56.7939679914727
20
4.58272669275132
30
0
41
1
10
56.7880062915816
20
4.60547724851278
30
0
41
1
10
56.7817500976446
20
4.64729155096686
30
0
41
1
10
56.7806278830257
20
4.66670287336714
30
0
41
1
10
56.7808997501331
20
4.70516909422659
30
0
41
1
10
56.7822902021685
20
4.72434701006526
30
0
41
1
10
56.789007006315
20
4.77884720101065
30
0
41
1
10
56.7967085269908
20
4.81387234396308
30
0
41
1
10
56.8165753139478
20
4.88193070873945
30
0
41
1
10
56.8288145244052
20
4.91517616719571
30
0
41
1
10
56.8536794776347
20
4.97220644925309
30
0
41
1
10
56.8655941391786
20
4.99646305592086
30
0
41
1
10
56.8785123789892
20
5.02008198987056
30
0
0
SPLINE
5
28C
100
AcDbEntity
8
1
62
256
6
ByLayer
370
-1
48
1
60
0
100
AcDbSpline
70
4
71
3
72
22
73
18
40
0
40
0
40
0
40
0
40
0.0904884159773404
40
0.0904884159773404
40
0.167615335033918
40
0.167615335033918
40
0.286482716021631
40
0.286482716021631
40
0.385988194077738
40
0.385988194077738
40
0.48517089299999
40
0.48517089299999
40
0.67149510634286
40
0.67149510634286
40
0.857309270880961
40
0.857309270880961
40
1
40
1
40
1
40
1
41
1
10
58.2207969925915
20
2.40570843173671
30
0
41
1
10
58.2197029515393
20
2.39340581957322
30
0
41
1
10
58.2220676328865
20
2.38038903424445
30
0
41
1
10
58.2324512159301
20
2.35760282551502
30
0
41
1
10
58.2396478896793
20
2.34737081839094
30
0
41
1
10
58.2616930902263
20
2.32360692075218
30
0
41
1
10
58.2788232545575
20
2.31081452158219
30
0
41
1
10
58.3128593549051
20
2.29061099879433
30
0
41
1
10
58.3296278438638
20
2.28248498315941
30
0
41
1
10
58.3641841734437
20
2.26818062245033
30
0
41
1
10
58.3820805026958
20
2.26195272244391
30
0
41
1
10
58.4343798614029
20
2.24629232926233
30
0
41
1
10
58.4697529044848
20
2.23872551582815
30
0
41
1
10
58.5409554048073
20
2.22776804502826
30
0
41
1
10
58.5770149916348
20
2.22434922399506
30
0
41
1
10
58.6407860158941
20
2.22149535309438
30
0
41
1
10
58.66857238967
20
2.22132224949246
30
0
41
1
10
58.6962771359595
20
2.2221818198714
30
0
0
SPLINE
5
28D
100
AcDbEntity
8
SK1
62
256
6
ByLayer
370
-1
48
1
60
0
100
AcDbSpline
70
4
71
3
72
14
73
10
40
0
40
0
40
0
40
0
40
0.10357574079845
40
0.255914577449822
40
0.408253414101195
40
0.560592250752568
40
0.712931087403941
40
0.865269924055314
40
1
40
1
40
1
40
1
41
1
10
-2.20000000000005
20
-15.0247808645648
30
0
41
1
10
-2.20000000000005
20
-14.8954704310019
30
0
41
1
10
-2.20000000000005
20
-14.5640748657279
30
0
41
1
10
-2.20000000000005
20
-13.9908991973699
30
0
41
1
10
-2.20000000000005
20
-13.2960635543425
30
0
41
1
10
-2.20000000000005
20
-12.5554382231013
30
0
41
1
10
-2.20000000000005
20
-11.7775050699617
30
0
41
1
10
-2.20000000000005
20
-11.0026045240078
30
0
41
1
10
-2.20000000000005
20
-10.4855729233102
30
0
41
1
10
-2.20000000000005
20
-10.2416915120114
30
0
0
SPLINE
5
28E
100
AcDbEntity
8
1
62
256
6
ByLayer
370
-1
48
1
60
0
100
AcDbSpline
70
4
71
1
72
4
73
2
40
0
40
0
40
1
40
1
41
1
10
55.841657787797
20
9.05201455055646
30
0
41
1
10
55.4518540738102
20
9.42708709052542
30
0
0
SPLINE
5
28F
100
AcDbEntity
8
1
62
256
6
ByLayer
370
-1
48
1
60
0
100
AcDbSpline
70
4
71
3
72
12
73
8
40
0
40
0
40
0
40
0
40
0.25
40
0.25
40
0.5
40
0.5
40
1
40
1
40
1
40
1
41
1
10
59.6206969006012
20
9.37315380891638
30
0
41
1
10
60.0991554661472
20
9.30404252367535
30
0
41
1
10
60.5344128982403
20
9.10256825433368
30
0
41
1
10
61.422243215922
20
8.7520617060201
30
0
41
1
10
61.8658470723388
20
8.57455290877238
30
0
41
1
10
63.1957010851077
20
8.03909368363071
30
0
41
1
10
64.0826796373095
20
7.68333693173196
30
0
41
1
10
64.969847003457
20
7.32820233770391
30
0
0
SPLINE
5
290
100
AcDbEntity
8
1
62
256
6
ByLayer
370
-1
48
1
60
0
100
AcDbSpline
70
4
71
3
72
12
73
8
40
0
40
0
40
0
40
0
40
0.0143412310805748
40
0.0143412310805748
40
0.5477909890985
40
0.5477909890985
40
1
40
1
40
1
40
1
41
1
10
62.7036396102736
20
4.68134931434861
30
0
41
1
10
62.7045134748836
20
4.68035750644313
30
0
41
1
10
62.7053876740479
20
4.67936685799654
30
0
41
1
10
62.7387852312257
20
4.64153444624714
30
0
41
1
10
62.7714599721077
20
4.60556333488097
30
0
41
1
10
62.828977818041
20
4.54370644752413
30
0
41
1
10
62.8547023337452
20
4.51666409530839
30
0
41
1
10
62.8775814666787
20
4.49307889116832
30
0
0
SPLINE
5
291
100
AcDbEntity
8
1
62
256
6
ByLayer
370
-1
48
1
60
0
100
AcDbSpline
70
4
71
3
72
14
73
10
40
0
40
0
40
0
40
0
40
0.25
40
0.25
40
0.5
40
0.5
40
0.75
40
0.75
40
1
40
1
40
1
40
1
41
1
10
53.8578221252011
20
7.02589685721969
30
0
41
1
10
53.8568527558958
20
6.41744167824672
30
0
41
1
10
53.8558906561498
20
5.80886004481528
30
0
41
1
10
53.8544659210078
20
4.59129856590164
30
0
41
1
10
53.7890725237038
20
3.97490738685579
30
0
41
1
10
54.1019169848603
20
2.77050851092517
30
0
41
1
10
54.471503211855
20
2.26209470624607
30
0
41
1
10
55.1055331531945
20
1.19519089075518
30
0
41
1
10
55.4225590235046
20
0.66174570525601
30
0
41
1
10
55.7395753362846
20
0.128294751126276
30
0
0
SPLINE
5
292
100
AcDbEntity
8
1
62
256
6
ByLayer
370
-1
48
1
60
0
100
AcDbSpline
70
4
71
3
72
14
73
10
40
0
40
0
40
0
40
0
40
0.25
40
0.25
40
0.5
40
0.5
40
0.75
40
0.75
40
1
40
1
40
1
40
1
41
1
10
58.7255506073407
20
-0.953458146998685
30
0
41
1
10
59.2705959355801
20
-0.655640919427782
30
0
41
1
10
59.8156083992975
20
-0.357935739315394
30
0
41
1
10
60.9052822755044
20
0.237513677708279
30
0
41
1
10
61.4876379834362
20
0.482124026911748
30
0
41
1
10
62.405129043906
20
1.33315077151949
30
0
41
1
10
62.6765146450022
20
1.89717410624948
30
0
41
1
10
63.310555210864
20
2.95300032207459
30
0
41
1
10
63.6275648006497
20
3.48092034076208
30
0
41
1
10
63.9445838022364
20
4.00883442519378
30
0
0
SPLINE
5
293
100
AcDbEntity
8
1
62
256
6
ByLayer
370
-1
48
1
60
0
100
AcDbSpline
70
4
71
3
72
12
73
8
40
0
40
0
40
0
40
0
40
0.25
40
0.25
40
0.5
40
0.5
40
1
40
1
40
1
40
1
41
1
10
53.3742767596402
20
2.3082173335589
30
0
41
1
10
53.1920756383595
20
2.74126612354769
30
0
41
1
10
53.1541333703243
20
3.20800101899226
30
0
41
1
10
53.0198803383178
20
4.12688326917998
30
0
41
1
10
52.9527169336272
20
4.58436861377746
30
0
41
1
10
52.7535014810234
20
5.95640384382943
30
0
41
1
10
52.619817564408
20
6.87137458173103
30
0
41
1
10
52.4857837858476
20
7.78658137692557
30
0
0
SPLINE
5
294
100
AcDbEntity
8
1
62
256
6
ByLayer
370
-1
48
1
60
0
100
AcDbSpline
70
4
71
3
72
10
73
6
40
0
40
0
40
0
40
0
40
0.410984291904104
40
0.410984291904104
40
1
40
1
40
1
40
1
41
1
10
53.1919467351479
20
8.33747333120797
30
0
41
1
10
53.0895345534135
20
8.2609275176998
30
0
41
1
10
52.9893074790863
20
8.1846800588209
30
0
41
1
10
52.7513747550392
20
8.00042975755477
30
0
41
1
10
52.6160269523235
20
7.89280584723724
30
0
41
1
10
52.4857837858532
20
7.78658137691104
30
0
0
SPLINE
5
295
100
AcDbEntity
8
1
62
256
6
ByLayer
370
-1
48
1
60
0
100
AcDbSpline
70
4
71
3
72
14
73
10
40
0
40
0
40
0
40
0
40
0.327529474127703
40
0.327529474127703
40
0.665666599581746
40
0.665666599581746
40
0.915673055310736
40
0.915673055310736
40
1
40
1
40
1
40
1
41
1
10
64.2818911421089
20
4.26872420681752
30
0
41
1
10
64.2674018302568
20
4.27369631404179
30
0
41
1
10
64.2491672437573
20
4.27800903330649
30
0
41
1
10
64.2087776316042
20
4.28514921404366
30
0
41
1
10
64.1858853154573
20
4.28803314203648
30
0
41
1
10
64.144370807635
20
4.29118975200882
30
0
41
1
10
64.1257541004004
20
4.2919751276637
30
0
41
1
10
64.1010587587741
20
4.29182908257224
30
0
41
1
10
64.0947677523052
20
4.29168615875582
30
0
41
1
10
64.0885720316336
20
4.29141657517758
30
0
0
SPLINE
5
296
100
AcDbEntity
8
1
62
256
6
ByLayer
370
-1
48
1
60
0
100
AcDbSpline
70
4
71
3
72
10
73
6
40
0
40
0
40
0
40
0
40
0.732128243131975
40
0.732128243131975
40
1
40
1
40
1
40
1
41
1
10
62.62930698329
20
5.74453223567866
30
0
41
1
10
62.6442296069906
20
5.79067433906292
30
0
41
1
10
62.6491857629364
20
5.839298232441
30
0
41
1
10
62.6461892969652
20
5.90351859552811
30
0
41
1
10
62.6443973747088
20
5.92077189783308
30
0
41
1
10
62.6417224818096
20
5.93781678821119
30
0
0
SPLINE
5
297
100
AcDbEntity
8
1
62
256
6
ByLayer
370
-1
48
1
60
0
100
AcDbSpline
70
4
71
3
72
12
73
8
40
0
40
0
40
0
40
0
40
0.33058443093253
40
0.33058443093253
40
0.914285519682807
40
0.914285519682807
40
1
40
1
40
1
40
1
41
1
10
64.9706436208259
20
3.9940323582068
30
0
41
1
10
64.9697880059477
20
3.953135210217
30
0
41
1
10
64.9691888033547
20
3.90880364173663
30
0
41
1
10
64.9679761733354
20
3.78845176693918
30
0
41
1
10
64.96766508615
20
3.71054866513958
30
0
41
1
10
64.96770406777
20
3.62567481810092
30
0
41
1
10
64.9677171193104
20
3.61476572074858
30
0
41
1
10
64.9677382692745
20
3.60393394710891
30
0
0
SPLINE
5
298
100
AcDbEntity
8
1
62
256
6
ByLayer
370
-1
48
1
60
0
100
AcDbSpline
70
4
71
3
72
12
73
8
40
0
40
0
40
0
40
0
40
0.5
40
0.5
40
0.75
40
0.75
40
1
40
1
40
1
40
1
41
1
10
64.9676367675518
20
7.46813171917987
30
0
41
1
10
64.0847939200747
20
7.82581911582932
30
0
41
1
10
63.2022217470157
20
8.18414124567261
30
0
41
1
10
61.8789340535415
20
8.72296242152362
30
0
41
1
10
61.4371537688783
20
8.9005494313482
30
0
41
1
10
60.5509573056824
20
9.24607245798552
30
0
41
1
10
60.1132914421199
20
9.43817251813184
30
0
41
1
10
59.6413498841249
20
9.50825541789888
30
0
0
SPLINE
5
299
100
AcDbEntity
8
1
62
256
6
ByLayer
370
-1
48
1
60
0
100
AcDbSpline
70
4
71
3
72
10
73
6
40
0
40
0
40
0
40
0
40
0.226375763220909
40
0.226375763220909
40
1
40
1
40
1
40
1
41
1
10
54.663898177767
20
6.30361654665293
30
0
41
1
10
54.6947094414849
20
6.33003817332391
30
0
41
1
10
54.726164078264
20
6.35587504162041
30
0
41
1
10
54.8677708645438
20
6.46730161545551
30
0
41
1
10
54.9847142988782
20
6.54665599781876
30
0
41
1
10
55.1083482583879
20
6.61874534430029
30
0
0
SPLINE
5
29A
100
AcDbEntity
8
1
62
256
6
ByLayer
370
-1
48
1
60
0
100
AcDbSpline
70
4
71
3
72
12
73
8
40
0
40
0
40
0
40
0
40
0.133148321068525
40
0.133148321068525
40
0.702614877346734
40
0.702614877346734
40
1
40
1
40
1
40
1
41
1
10
55.4224217960279
20
-1.18655241045127
30
0
41
1
10
55.3305077457749
20
-1.03188761132941
30
0
41
1
10
55.2385932656751
20
-0.877223039159389
30
0
41
1
10
54.7535661017025
20
-0.061068594570969
30
0
41
1
10
54.3604623670522
20
0.600425991854792
30
0
41
1
10
53.7621223103945
20
1.60727889474737
30
0
41
1
10
53.5290698659174
20
1.94031088544904
30
0
41
1
10
53.3742767596402
20
2.3082173335589
30
0
0
SPLINE
5
29B
100
AcDbEntity
8
1
62
256
6
ByLayer
370
-1
48
1
60
0
100
AcDbSpline
70
4
71
3
72
8
73
4
40
0
40
0
40
0
40
0
40
1
40
1
40
1
40
1
41
1
10
64.9706436208163
20
3.99403235820506
30
0
41
1
10
64.9709090988292
20
4.00672182148767
30
0
41
1
10
64.9711745769254
20
4.01941128370447
30
0
41
1
10
64.9714400551044
20
4.03210074486293
30
0
0
SPLINE
5
29C
100
AcDbEntity
8
1
62
256
6
ByLayer
370
-1
48
1
60
0
100
AcDbSpline
70
4
71
3
72
12
73
8
40
0
40
0
40
0
40
0
40
0.454187976028958
40
0.454187976028958
40
0.987490284578528
40
0.987490284578528
40
1
40
1
40
1
40
1
41
1
10
56.8559672128529
20
0.406594472455424
30
0
41
1
10
56.8876666577619
20
0.415164312558943
30
0
41
1
10
56.9228061897245
20
0.428316722088368
30
0
41
1
10
57.0004222224306
20
0.461895838366331
30
0
41
1
10
57.0441113476833
20
0.483636364542889
30
0
41
1
10
57.0883772723992
20
0.507653066556031
30
0
41
1
10
57.0893910746832
20
0.508204476730896
30
0
41
1
10
57.0904051113828
20
0.508756529045741
30
0
0
SPLINE
5
29D
100
AcDbEntity
8
1
62
256
6
ByLayer
370
-1
48
1
60
0
100
AcDbSpline
70
4
71
3
72
10
73
6
40
0
40
0
40
0
40
0
40
0.226375763220907
40
0.226375763220907
40
1
40
1
40
1
40
1
41
1
10
62.369305185774
20
6.71828116945542
30
0
41
1
10
62.3856542429581
20
6.66100883253515
30
0
41
1
10
62.4011729432836
20
6.60347121870112
30
0
41
1
10
62.4659962509763
20
6.34844381089687
30
0
41
1
10
62.5064716957784
20
6.14820386625161
30
0
41
1
10
62.5370936238325
20
5.94616961084427
30
0
0
SPLINE
5
29E
100
AcDbEntity
8
1
62
256
6
ByLayer
370
-1
48
1
60
0
100
AcDbSpline
70
4
71
3
72
12
73
8
40
0
40
0
40
0
40
0
40
0.5
40
0.5
40
0.75
40
0.75
40
1
40
1
40
1
40
1
41
1
10
52.3429909817126
20
7.69240508703663
30
0
41
1
10
52.4708072686749
20
6.77736677645481
30
0
41
1
10
52.5979173382451
20
5.86224263550616
30
0
41
1
10
52.7870937769332
20
4.48937549860403
30
0
41
1
10
52.8523102338427
20
4.03217446845653
30
0
41
1
10
52.9927296400712
20
3.12031600438223
30
0
41
1
10
53.0428520511379
20
2.65941600090878
30
0
41
1
10
53.2197158537473
20
2.22987923382306
30
0
0
SPLINE
5
29F
100
AcDbEntity
8
1
62
256
6
ByLayer
370
-1
48
1
60
0
100
AcDbSpline
70
4
71
3
72
12
73
8
40
0
40
0
40
0
40
0
40
0.327536934741044
40
0.327536934741044
40
0.689545574034047
40
0.689545574034047
40
1
40
1
40
1
40
1
41
1
10
59.6413498841249
20
9.50825541789888
30
0
41
1
10
59.2348114605394
20
9.6081120919477
30
0
41
1
10
58.8055030496496
20
9.5692367974406
30
0
41
1
10
57.9238631211848
20
9.57694206581488
30
0
41
1
10
57.4607960953808
20
9.58099959861249
30
0
41
1
10
56.6006080356647
20
9.58850921595399
30
0
41
1
10
56.2034870423485
20
9.59197213005652
30
0
41
1
10
55.8063660569794
20
9.59543717190263
30
0
0
SPLINE
5
2A0
100
AcDbEntity
8
1
62
256
6
ByLayer
370
-1
48
1
60
0
100
AcDbSpline
70
4
71
3
72
12
73
8
40
0
40
0
40
0
40
0
40
0.330584430932544
40
0.330584430932544
40
0.91428551968282
40
0.91428551968282
40
1
40
1
40
1
40
1
41
1
10
55.4224217960266
20
-1.18655241044911
30
0
41
1
10
55.3908024813725
20
-1.17568304109147
30
0
41
1
10
55.3545991319206
20
-1.16010300269545
30
0
41
1
10
55.2538808160444
20
-1.11301523757314
30
0
41
1
10
55.1859023201932
20
-1.07705342357684
30
0
41
1
10
55.1096207244808
20
-1.03350154421642
30
0
41
1
10
55.099768769591
20
-1.02781065423886
30
0
41
1
10
55.0899385190016
20
-1.02206533535161
30
0
0
SPLINE
5
2A1
100
AcDbEntity
8
1
62
256
6
ByLayer
370
-1
48
1
60
0
100
AcDbSpline
70
4
71
3
72
14
73
10
40
0
40
0
40
0
40
0
40
0.264919990892529
40
0.264919990892529
40
0.530416812891256
40
0.530416812891256
40
0.787654584874263
40
0.787654584874263
40
1
40
1
40
1
40
1
41
1
10
53.2960775785617
20
8.39363393374111
30
0
41
1
10
53.2886653298827
20
8.39129195218078
30
0
41
1
10
53.2800574587704
20
8.38796273643285
30
0
41
1
10
53.2617614875413
20
8.37979151656819
30
0
41
1
10
53.2518106635344
20
8.37482809963362
30
0
41
1
10
53.232347128757
20
8.36414399391734
30
0
41
1
10
53.2225576262669
20
8.35830075110121
30
0
41
1
10
53.2058372400413
20
8.34746827969454
30
0
41
1
10
53.1985340034012
20
8.34239684517391
30
0
41
1
10
53.1919467351485
20
8.33747333120652
30
0
0
SPLINE
5
2A2
100
AcDbEntity
8
1
62
256
6
ByLayer
370
-1
48
1
60
0
100
AcDbSpline
70
4
71
3
72
12
73
8
40
0
40
0
40
0
40
0
40
0.467747243448183
40
0.467747243448183
40
0.91407407358094
40
0.91407407358094
40
1
40
1
40
1
40
1
41
1
10
52.3429909817127
20
7.69240508703661
30
0
41
1
10
52.3670865803506
20
7.70563994417108
30
0
41
1
10
52.3917265583139
20
7.72037061567809
30
0
41
1
10
52.4365348900769
20
7.74951380579478
30
0
41
1
10
52.4575194020131
20
7.76434667514022
30
0
41
1
10
52.4790515679961
20
7.78115307072054
30
0
41
1
10
52.4824748746953
20
7.78388267612979
30
0
41
1
10
52.4857837858501
20
7.78658137690852
30
0
0
SPLINE
5
2A3
100
AcDbEntity
8
1
62
256
6
ByLayer
370
-1
48
1
60
0
100
AcDbSpline
70
4
71
3
72
12
73
8
40
0
40
0
40
0
40
0
40
0.33058443093254
40
0.33058443093254
40
0.914285519682821
40
0.914285519682821
40
1
40
1
40
1
40
1
41
1
10
55.4796934830069
20
9.43670465419274
30
0
41
1
10
55.5096015679045
20
9.4470368775161
30
0
41
1
10
55.5446065122003
20
9.46199525379259
30
0
41
1
10
55.6428995680378
20
9.50734561135542
30
0
41
1
10
55.7102558895181
20
9.54212592636168
30
0
41
1
10
55.7866154484705
20
9.58434521907785
30
0
41
1
10
55.7964935064411
20
9.5898638622476
30
0
41
1
10
55.8063660569588
20
9.59543717189092
30
0
0
SPLINE
5
2A4
100
AcDbEntity
8
1
62
256
6
ByLayer
370
-1
48
1
60
0
100
AcDbSpline
70
4
71
3
72
8
73
4
40
0
40
0
40
0
40
0
40
1
40
1
40
1
40
1
41
1
10
64.9714400551044
20
4.03210074486293
30
0
41
1
10
64.7415904174393
20
4.11097523218112
30
0
41
1
10
64.5117407797741
20
4.18984971949931
30
0
41
1
10
64.2818911421089
20
4.26872420681752
30
0
0
SPLINE
5
2A5
100
AcDbEntity
8
1
62
256
6
ByLayer
370
-1
48
1
60
0
100
AcDbSpline
70
4
71
3
72
8
73
4
40
0
40
0
40
0
40
0
40
1
40
1
40
1
40
1
41
1
10
55.7960943529272
20
8.93514233218622
30
0
41
1
10
55.8448691884842
20
8.92610968327858
30
0
41
1
10
55.8936440237073
20
8.91707702816481
30
0
41
1
10
55.9424188582224
20
8.90804435989276
30
0
0
SPLINE
5
2A6
100
AcDbEntity
8
1
62
256
6
ByLayer
370
-1
48
1
60
0
100
AcDbSpline
70
4
71
3
72
10
73
6
40
0
40
0
40
0
40
0
40
0.266814892217279
40
0.266814892217279
40
1
40
1
40
1
40
1
41
1
10
56.2123406769641
20
7.58707592744045
30
0
41
1
10
56.2180681818068
20
7.6013353188477
30
0
41
1
10
56.2248176261903
20
7.61513394090409
30
0
41
1
10
56.2526719011249
20
7.66467973941158
30
0
41
1
10
56.2785472045289
20
7.69761484487992
30
0
41
1
10
56.3070991963834
20
7.7270913199506
30
0
0
SPLINE
5
2A7
100
AcDbEntity
8
1
62
256
6
ByLayer
370
-1
48
1
60
0
100
AcDbSpline
70
4
71
3
72
12
73
8
40
0
40
0
40
0
40
0
40
0.499999999999999
40
0.499999999999999
40
0.749999999999999
40
0.749999999999999
40
1
40
1
40
1
40
1
41
1
10
58.5531105908023
20
-2.98556750927986
30
0
41
1
10
59.3081371513172
20
-2.42821659534752
30
0
41
1
10
60.0635992548061
20
-1.87141458424233
30
0
41
1
10
61.197710509592
20
-1.03736862319104
30
0
41
1
10
61.5742743373458
20
-0.75775460286809
30
0
41
1
10
62.3200513943134
20
-0.191419165431142
30
0
41
1
10
62.7075948468091
20
0.0773807778959963
30
0
41
1
10
63.0026726021947
20
0.436834645214674
30
0
0
SPLINE
5
2A8
100
AcDbEntity
8
1
62
256
6
ByLayer
370
-1
48
1
60
0
100
AcDbSpline
70
4
71
3
72
8
73
4
40
0
40
0
40
0
40
0
40
1
40
1
40
1
40
1
41
1
10
55.9424188582224
20
-0.182976240931026
30
0
41
1
10
55.9192385647036
20
-0.0704631209611932
30
0
41
1
10
55.8960583201417
20
0.0420500151268755
30
0
41
1
10
55.8728781541971
20
0.154563177097998
30
0
0
SPLINE
5
2A9
100
AcDbEntity
8
1
62
256
6
ByLayer
370
-1
48
1
60
0
100
AcDbSpline
70
4
71
3
72
8
73
4
40
0
40
0
40
0
40
0
40
1
40
1
40
1
40
1
41
1
10
55.9749606095199
20
-0.340928121646158
30
0
41
1
10
55.9380799598467
20
-0.353070277111129
30
0
41
1
10
55.876391859079
20
-0.365226389058023
30
0
41
1
10
55.8416577877971
20
-0.367196415210174
30
0
0
SPLINE
5
2AA
100
AcDbEntity
8
1
62
256
6
ByLayer
370
-1
48
1
60
0
100
AcDbSpline
70
4
71
3
72
14
73
10
40
0
40
0
40
0
40
0
40
0.327529474127729
40
0.327529474127729
40
0.665666599581731
40
0.665666599581731
40
0.915673055310726
40
0.915673055310726
40
1
40
1
40
1
40
1
41
1
10
55.841657787797
20
-0.367196415210202
30
0
41
1
10
55.8498486317917
20
-0.34976690333994
30
0
41
1
10
55.8597769717904
20
-0.329985288104211
30
0
41
1
10
55.8812971663476
20
-0.2888402478346
30
0
41
1
10
55.8932674353261
20
-0.26680753917006
30
0
41
1
10
55.9145703003357
20
-0.229147575805911
30
0
41
1
10
55.9240002756313
20
-0.21295715286584
30
0
41
1
10
55.936277330067
20
-0.192795573019225
30
0
41
1
10
55.9393842006096
20
-0.187776576541211
30
0
41
1
10
55.9424188582224
20
-0.182976240931026
30
0
0
SPLINE
5
2AB
100
AcDbEntity
8
1
62
256
6
ByLayer
370
-1
48
1
60
0
100
AcDbSpline
70
4
71
3
72
10
73
6
40
0
40
0
40
0
40
0
40
0.478255409340378
40
0.478255409340378
40
1
40
1
40
1
40
1
41
1
10
64.9927311089599
20
6.74126152633482
30
0
41
1
10
64.738490511144
20
6.78725582489264
30
0
41
1
10
64.4846168161833
20
6.8344954526487
30
0
41
1
10
63.9547506212186
20
6.93637130545915
30
0
41
1
10
63.6788316479527
20
6.99128771884176
30
0
41
1
10
63.4036345538713
20
7.04838072421444
30
0
0
SPLINE
5
2AC
100
AcDbEntity
8
1
62
256
6
ByLayer
370
-1
48
1
60
0
100
AcDbSpline
70
4
71
3
72
10
73
6
40
0
40
0
40
0
40
0
40
0.266814892217281
40
0.266814892217281
40
1
40
1
40
1
40
1
41
1
10
62.8775814666787
20
4.49307889116832
30
0
41
1
10
62.8861504601887
20
4.48424545059194
30
0
41
1
10
62.8937694603183
20
4.47486925018797
30
0
41
1
10
62.9191080640886
20
4.43871921999229
30
0
41
1
10
62.931847412876
20
4.40963960373563
30
0
41
1
10
62.9402467638857
20
4.37989934943002
30
0
0
SPLINE
5
2AD
100
AcDbEntity
8
1
62
256
6
ByLayer
370
-1
48
1
60
0
100
AcDbSpline
70
4
71
3
72
12
73
8
40
0
40
0
40
0
40
0
40
0.454187976028914
40
0.454187976028914
40
0.987490284578531
40
0.987490284578531
40
1
40
1
40
1
40
1
41
1
10
62.9340724982319
20
4.56050285494459
30
0
41
1
10
62.9038870836393
20
4.57470673428492
30
0
41
1
10
62.8695989078071
20
4.59175066156874
30
0
41
1
10
62.7931910046025
20
4.63145383314443
30
0
41
1
10
62.7497409261395
20
4.65506723607817
30
0
41
1
10
62.7056591070245
20
4.68019617817276
30
0
41
1
10
62.7046492364884
20
4.68077221198593
30
0
41
1
10
62.7036396102736
20
4.68134931434861
30
0
0
SPLINE
5
2AE
100
AcDbEntity
8
1
62
256
6
ByLayer
370
-1
48
1
60
0
100
AcDbSpline
70
4
71
3
72
12
73
8
40
0
40
0
40
0
40
0
40
0.0143412310805836
40
0.0143412310805836
40
0.547790989098481
40
0.547790989098481
40
1
40
1
40
1
40
1
41
1
10
56.1141930630267
20
7.32631040394165
30
0
41
1
10
56.1146380198314
20
7.32753002656489
30
0
41
1
10
56.1150828591304
20
7.32875074009485
30
0
41
1
10
56.132106651109
20
7.37543246444028
30
0
41
1
10
56.1493298131891
20
7.42249209977842
30
0
41
1
10
56.181729795664
20
7.50890707889869
30
0
41
1
10
56.1970482923309
20
7.54900348507277
30
0
41
1
10
56.2123406769641
20
7.58707592744045
30
0
0
SPLINE
5
2AF
100
AcDbEntity
8
1
62
256
6
ByLayer
370
-1
48
1
60
0
100
AcDbSpline
70
4
71
3
72
10
73
6
40
0
40
0
40
0
40
0
40
0.726371168591106
40
0.726371168591106
40
1
40
1
40
1
40
1
41
1
10
56.2102477571051
20
7.77633415643376
30
0
41
1
10
56.1817401821018
20
7.74078938898884
30
0
41
1
10
56.1574799107042
20
7.70025612188934
30
0
41
1
10
56.1344770184129
20
7.63918061791338
30
0
41
1
10
56.1292068870422
20
7.62171273191609
30
0
41
1
10
56.1252964092888
20
7.6037848822719
30
0
0
SPLINE
5
2B0
100
AcDbEntity
8
1
62
256
6
ByLayer
370
-1
48
1
60
0
100
AcDbSpline
70
4
71
3
72
8
73
4
40
0
40
0
40
0
40
0
40
1
40
1
40
1
40
1
41
1
10
55.4796934830159
20
9.43670465418884
30
0
41
1
10
55.4704136783396
20
9.43349879815895
30
0
41
1
10
55.4611338752747
20
9.43029294360787
30
0
41
1
10
55.4518540738101
20
9.42708709052539
30
0
0
SPLINE
5
2B1
100
AcDbEntity
8
1
62
256
6
ByLayer
370
-1
48
1
60
0
100
AcDbSpline
70
4
71
3
72
14
73
10
40
0
40
0
40
0
40
0
40
0.25
40
0.25
40
0.5
40
0.5
40
0.75
40
0.75
40
1
40
1
40
1
40
1
41
1
10
63.4036345538713
20
7.04838072421444
30
0
41
1
10
62.8593213932307
20
7.35719861246685
30
0
41
1
10
62.31498283945
20
7.66586376781615
30
0
41
1
10
61.2259947701992
20
8.2823059887042
30
0
41
1
10
60.7078946230965
20
8.64535612993149
30
0
41
1
10
59.4765356160601
20
8.99087499533417
30
0
41
1
10
58.8368154313293
20
8.94486940106057
30
0
41
1
10
57.5687446953205
20
8.95594524507132
30
0
41
1
10
56.9347094305462
20
8.96147191059768
30
0
41
1
10
56.3006740929247
20
8.96700860185996
30
0
0
SPLINE
5
2B2
100
AcDbEntity
8
1
62
256
6
ByLayer
370
-1
48
1
60
0
100
AcDbSpline
70
4
71
3
72
14
73
10
40
0
40
0
40
0
40
0
40
0.25
40
0.25
40
0.5
40
0.5
40
0.75
40
0.75
40
1
40
1
40
1
40
1
41
1
10
55.8119132681408
20
0.178267985595795
30
0
41
1
10
55.496550381995
20
0.708936297505261
30
0
41
1
10
55.1811796413144
20
1.23960029776074
30
0
41
1
10
54.5504547384666
20
2.30093739885055
30
0
41
1
10
54.1878423105483
20
2.81233102683385
30
0
41
1
10
53.8723202228464
20
4.00591557194213
30
0
41
1
10
53.9304630687989
20
4.61525135726211
30
0
41
1
10
53.9245351357944
20
5.82312927696225
30
0
41
1
10
53.9220994093127
20
6.42707685399452
30
0
41
1
10
53.9199977313436
20
7.03102988036193
30
0
0
SPLINE
5
2B3
100
AcDbEntity
8
1
62
256
6
ByLayer
370
-1
48
1
60
0
100
AcDbSpline
70
4
71
3
72
10
73
6
40
0
40
0
40
0
40
0
40
0.732128243131977
40
0.732128243131977
40
1
40
1
40
1
40
1
41
1
10
55.2190949919883
20
6.76592552203391
30
0
41
1
10
55.1785625323221
20
6.76632991322077
30
0
41
1
10
55.14181059354
20
6.75836424268405
30
0
41
1
10
55.0985517997053
20
6.74040765562131
30
0
41
1
10
55.0874762256604
20
6.73481443806142
30
0
41
1
10
55.0770351360151
20
6.7285838620804
30
0
0
SPLINE
5
2B4
100
AcDbEntity
8
1
62
256
6
ByLayer
370
-1
48
1
60
0
100
AcDbSpline
70
4
71
3
72
14
73
10
40
0
40
0
40
0
40
0
40
0.230106848183434
40
0.230106848183434
40
0.557861158783461
40
0.557861158783461
40
0.896229002650414
40
0.896229002650414
40
1
40
1
40
1
40
1
41
1
10
55.9424188582224
20
8.90804435989276
30
0
41
1
10
55.9342335253242
20
8.92288122467465
30
0
41
1
10
55.92551682956
20
8.93751149258955
30
0
41
1
10
55.9050188156098
20
8.97023502859054
30
0
41
1
10
55.8930348914512
20
8.98793869934897
30
0
41
1
10
55.8704083682928
20
9.01912466038925
30
0
41
1
10
55.8594721872142
20
9.03293121897894
30
0
41
1
10
55.8470864196903
20
9.04657253046904
30
0
41
1
10
55.8442835414064
20
9.04948802748794
30
0
41
1
10
55.841657787797
20
9.05201455055646
30
0
0
SPLINE
5
2B5
100
AcDbEntity
8
1
62
256
6
ByLayer
370
-1
48
1
60
0
100
AcDbSpline
70
4
71
3
72
8
73
4
40
0
40
0
40
0
40
0
40
1
40
1
40
1
40
1
41
1
10
64.0885720316336
20
4.29141657517758
30
0
41
1
10
64.0119783582809
20
4.23240237034284
30
0
41
1
10
63.9353846359148
20
4.1733881862645
30
0
41
1
10
63.8587908348412
20
4.11437403551778
30
0
0
SPLINE
5
2B6
100
AcDbEntity
8
1
62
256
6
ByLayer
370
-1
48
1
60
0
100
AcDbSpline
70
4
71
3
72
10
73
6
40
0
40
0
40
0
40
0
40
0.410984291904107
40
0.410984291904107
40
1
40
1
40
1
40
1
41
1
10
57.7543435201816
20
-2.32611432787994
30
0
41
1
10
57.8510580554239
20
-2.40439855593391
30
0
41
1
10
57.9453342903676
20
-2.48234406611718
30
0
41
1
10
58.1682294424904
20
-2.6706174833931
30
0
41
1
10
58.2942333044178
20
-2.78052304401993
30
0
41
1
10
58.4147382584393
20
-2.8889365936752
30
0
0
SPLINE
5
2B7
100
AcDbEntity
8
1
62
256
6
ByLayer
370
-1
48
1
60
0
100
AcDbSpline
70
4
71
3
72
10
73
6
40
0
40
0
40
0
40
0
40
0.517866865973609
40
0.517866865973609
40
1
40
1
40
1
40
1
41
1
10
53.9654210165837
20
7.06770497407689
30
0
41
1
10
53.8531658310356
20
7.29658583746138
30
0
41
1
10
53.7389617838362
20
7.5254927722053
30
0
41
1
10
53.5154385925524
20
7.96747732524156
30
0
41
1
10
53.4063181444344
20
8.18056691054286
30
0
41
1
10
53.2960775785614
20
8.39363393374168
30
0
0
SPLINE
5
2B8
100
AcDbEntity
8
1
62
256
6
ByLayer
370
-1
48
1
60
0
100
AcDbSpline
70
4
71
3
72
12
73
8
40
0
40
0
40
0
40
0
40
0.327536934741045
40
0.327536934741045
40
0.689545574034049
40
0.689545574034049
40
1
40
1
40
1
40
1
41
1
10
63.0026726021947
20
0.436834645214674
30
0
41
1
10
63.2922396903951
20
0.726422340007474
30
0
41
1
10
63.4681545913444
20
1.10677964436749
30
0
41
1
10
63.9089818979823
20
1.84085294493116
30
0
41
1
10
64.1405284349885
20
2.22640817116238
30
0
41
1
10
64.5706224736964
20
2.94262393104319
30
0
41
1
10
64.7691794415492
20
3.27327943331383
30
0
41
1
10
64.9677382692748
20
3.60393394708586
30
0
0
SPLINE
5
2B9
100
AcDbEntity
8
1
62
256
6
ByLayer
370
-1
48
1
60
0
100
AcDbSpline
70
4
71
3
72
8
73
4
40
0
40
0
40
0
40
0
40
1
40
1
40
1
40
1
41
1
10
55.7960943529272
20
8.93514233218622
30
0
41
1
10
55.7986692977486
20
8.98300383556642
30
0
41
1
10
55.8197545182525
20
9.03708840831916
30
0
41
1
10
55.841657787797
20
9.05201455055635
30
0
0
SPLINE
5
2BA
100
AcDbEntity
8
1
62
256
6
ByLayer
370
-1
48
1
60
0
100
AcDbSpline
70
4
71
3
72
10
73
6
40
0
40
0
40
0
40
0
40
0.274190864391854
40
0.274190864391854
40
1
40
1
40
1
40
1
41
1
10
62.5370936238325
20
5.94616961084427
30
0
41
1
10
62.5407300904676
20
5.93095253618625
30
0
41
1
10
62.5437578433534
20
5.91556421927888
30
0
41
1
10
62.5521939772211
20
5.85937525563605
30
0
41
1
10
62.5537438354538
20
5.81720520575826
30
0
41
1
10
62.5473250995197
20
5.77614151708667
30
0
0
SPLINE
5
2BB
100
AcDbEntity
8
1
62
256
6
ByLayer
370
-1
48
1
60
0
100
AcDbSpline
70
4
71
3
72
10
73
6
40
0
40
0
40
0
40
0
40
0.274190864391843
40
0.274190864391843
40
1
40
1
40
1
40
1
41
1
10
58.2781625817238
20
0.0694107586288908
30
0
41
1
10
58.2642292666327
20
0.0706559644842173
30
0
41
1
10
58.2504484590877
20
0.0724830110331141
30
0
41
1
10
58.2013745837856
20
0.0814478347724048
30
0
41
1
10
58.1668174090568
20
0.0923635965564245
30
0
41
1
10
58.1369302486757
20
0.109948473584609
30
0
0
SPLINE
5
2BC
100
AcDbEntity
8
1
62
256
6
ByLayer
370
-1
48
1
60
0
100
AcDbSpline
70
4
71
3
72
10
73
6
40
0
40
0
40
0
40
0
40
0.226375575408418
40
0.226375575408418
40
1
40
1
40
1
40
1
41
1
10
62.9402467638857
20
4.37989934943002
30
0
41
1
10
62.955748327169
20
4.34400348838807
30
0
41
1
10
62.9704194450325
20
4.30789248139993
30
0
41
1
10
63.0314865785318
20
4.14761659637298
30
0
41
1
10
63.0690148819718
20
4.02119499219847
30
0
41
1
10
63.096511299927
20
3.89304877670733
30
0
0
SPLINE
5
2BD
100
AcDbEntity
8
1
62
256
6
ByLayer
370
-1
48
1
60
0
100
AcDbSpline
70
4
71
3
72
12
73
8
40
0
40
0
40
0
40
0
40
0.327536934741045
40
0.327536934741045
40
0.689545574034048
40
0.689545574034048
40
1
40
1
40
1
40
1
41
1
10
53.2197158537473
20
2.22987923382306
30
0
41
1
10
53.3366871891321
20
1.84043486498155
30
0
41
1
10
53.5903850099619
20
1.50128785112503
30
0
41
1
10
54.0311977257408
20
0.759510003086433
30
0
41
1
10
54.262718381231
20
0.369898523098215
30
0
41
1
10
54.6928124023523
20
-0.353826853254901
30
0
41
1
10
54.891376382647
20
-0.68794561621084
30
0
41
1
10
55.0899385189807
20
-1.02206533533999
30
0
0
SPLINE
5
2BE
100
AcDbEntity
8
1
62
256
6
ByLayer
370
-1
48
1
60
0
100
AcDbSpline
70
4
71
3
72
12
73
8
40
0
40
0
40
0
40
0
40
0.26146680556687
40
0.26146680556687
40
0.727154521522378
40
0.727154521522378
40
1
40
1
40
1
40
1
41
1
10
51.6156223539733
20
4.68448377644287
30
0
41
1
10
51.6365463242996
20
4.6658908329689
30
0
41
1
10
51.6563762789918
20
4.64600228236989
30
0
41
1
10
51.7060237412617
20
4.58712790448914
30
0
41
1
10
51.7318088479412
20
4.54416781902859
30
0
41
1
10
51.7596894164576
20
4.47329691646209
30
0
41
1
10
51.7674825230303
20
4.44627046122039
30
0
41
1
10
51.7732337016847
20
4.41926890876144
30
0
0
SPLINE
5
2BF
100
AcDbEntity
8
1
62
256
6
ByLayer
370
-1
48
1
60
0
100
AcDbSpline
70
4
71
3
72
16
73
12
40
0
40
0
40
0
40
0
40
0.343443954228617
40
0.343443954228617
40
0.535083245610763
40
0.535083245610763
40
0.693553557835213
40
0.693553557835213
40
0.853171508912984
40
0.853171508912984
40
1
40
1
40
1
40
1
41
1
10
63.074501598843
20
-1.0539710701409
30
0
41
1
10
63.0971815389148
20
-1.04025308100816
30
0
41
1
10
63.1217451630441
20
-1.02864287421278
30
0
41
1
10
63.1615439340643
20
-1.01794070255104
30
0
41
1
10
63.1763903903561
20
-1.01557807264547
30
0
41
1
10
63.2029724377074
20
-1.01563848452568
30
0
41
1
10
63.215048992778
20
-1.0173627545901
30
0
41
1
10
63.2372140737744
20
-1.02481523594474
30
0
41
1
10
63.2475499386643
20
-1.03070734574814
30
0
41
1
10
63.264150507472
20
-1.04489998688783
30
0
41
1
10
63.2708933253452
20
-1.05308478114168
30
0
41
1
10
63.2763990485131
20
-1.06186713557716
30
0
0
SPLINE
5
2C0
100
AcDbEntity
8
1
62
256
6
ByLayer
370
-1
48
1
60
0
100
AcDbSpline
70
4
71
3
72
10
73
6
40
0
40
0
40
0
40
0
40
0.226375575408415
40
0.226375575408415
40
1
40
1
40
1
40
1
41
1
10
56.3070991963834
20
7.7270913199506
30
0
41
1
10
56.3436496638518
20
7.77325086401092
30
0
41
1
10
56.3808188977113
20
7.81882656071272
30
0
41
1
10
56.5475448153331
20
8.01733720195389
30
0
41
1
10
56.6836604048446
20
8.16400245773136
30
0
41
1
10
56.8262006004691
20
8.30284683910054
30
0
0
SPLINE
5
2C1
100
AcDbEntity
8
1
62
256
6
ByLayer
370
-1
48
1
60
0
100
AcDbSpline
70
4
71
3
72
10
73
6
40
0
40
0
40
0
40
0
40
0.73212824313198
40
0.73212824313198
40
1
40
1
40
1
40
1
41
1
10
58.0669341450954
20
0.0604244519593351
30
0
41
1
10
58.0955470449699
20
0.036920649773748
30
0
41
1
10
58.1306834049092
20
0.0218948786218505
30
0
41
1
10
58.1815066995761
20
0.0106819124685273
30
0
41
1
10
58.1956175622519
20
0.0085622536871597
30
0
41
1
10
58.2099766753257
20
0.0072865555995349
30
0
0
SPLINE
5
2C2
100
AcDbEntity
8
1
62
256
6
ByLayer
370
-1
48
1
60
0
100
AcDbSpline
70
4
71
3
72
10
73
6
40
0
40
0
40
0
40
0
40
0.226375763220907
40
0.226375763220907
40
1
40
1
40
1
40
1
41
1
10
58.9484465611595
20
0.0578143554210726
30
0
41
1
10
58.8969182829839
20
0.0551494633200491
30
0
41
1
10
58.8455712606041
20
0.0532906552024883
30
0
41
1
10
58.6198187422762
20
0.0486293495565349
30
0
41
1
10
58.447395055486
20
0.054382108297915
30
0
41
1
10
58.2781625817238
20
0.0694107586288908
30
0
0
SPLINE
5
2C3
100
AcDbEntity
8
1
62
256
6
ByLayer
370
-1
48
1
60
0
100
AcDbSpline
70
4
71
3
72
10
73
6
40
0
40
0
40
0
40
0
40
0.410984291904105
40
0.410984291904105
40
1
40
1
40
1
40
1
41
1
10
64.9927311089615
20
6.74126152633451
30
0
41
1
10
64.9898822857154
20
6.83051398476169
30
0
41
1
10
64.9869068660213
20
6.91621522394166
30
0
41
1
10
64.9793880800591
20
7.11566263380467
30
0
41
1
10
64.9747161096651
20
7.22564716409815
30
0
41
1
10
64.9698470034406
20
7.32820233770812
30
0
0
SPLINE
5
2C4
100
AcDbEntity
8
1
62
256
6
ByLayer
370
-1
48
1
60
0
100
AcDbSpline
70
4
71
3
72
12
73
8
40
0
40
0
40
0
40
0
40
0.454187976028944
40
0.454187976028944
40
0.987490284578523
40
0.987490284578523
40
1
40
1
40
1
40
1
41
1
10
56.1252964092888
20
7.6037848822719
30
0
41
1
10
56.1214890688146
20
7.56341445422976
30
0
41
1
10
56.118970811654
20
7.5204278842287
30
0
41
1
10
56.1152922221943
20
7.42818960656294
30
0
41
1
10
56.1144151996138
20
7.37794045033439
30
0
41
1
10
56.114201741196
20
7.32856958026875
30
0
41
1
10
56.1141974735114
20
7.32743955861918
30
0
41
1
10
56.1141930630267
20
7.32631040394165
30
0
0
SPLINE
5
2C5
100
AcDbEntity
8
1
62
256
6
ByLayer
370
-1
48
1
60
0
100
AcDbSpline
70
4
71
3
72
8
73
4
40
0
40
0
40
0
40
0
40
1
40
1
40
1
40
1
41
1
10
55.4224217960281
20
-1.18655241043641
30
0
41
1
10
55.4322325567302
20
-1.18992493077457
30
0
41
1
10
55.4420433159875
20
-1.1932974496072
30
0
41
1
10
55.4518540738101
20
-1.19666996694477
30
0
0
SPLINE
5
2C6
100
AcDbEntity
8
1
62
256
6
ByLayer
370
-1
48
1
60
0
100
AcDbSpline
70
4
71
3
72
12
73
8
40
0
40
0
40
0
40
0
40
0.45220901090152
40
0.45220901090152
40
0.985658768919412
40
0.985658768919412
40
1
40
1
40
1
40
1
41
1
10
58.1369302486757
20
0.109948473584609
30
0
41
1
10
58.1073598073532
20
0.127347000834902
30
0
41
1
10
58.0760816782495
20
0.14925457078138
30
0
41
1
10
58.0080250476535
20
0.201367466122093
30
0
41
1
10
57.9705681169908
20
0.232917041178837
30
0
41
1
10
57.9328248587634
20
0.266731487129846
30
0
41
1
10
57.9318377035571
20
0.267617698223688
30
0
41
1
10
57.9308505034942
20
0.268504717979113
30
0
0
SPLINE
5
2C7
100
AcDbEntity
8
1
62
256
6
ByLayer
370
-1
48
1
60
0
100
AcDbSpline
70
4
71
3
72
8
73
4
40
0
40
0
40
0
40
0
40
1
40
1
40
1
40
1
41
1
10
64.1960982700776
20
4.37426385847613
30
0
41
1
10
64.2330213019914
20
4.35862742060979
30
0
41
1
10
64.2727233992183
20
4.30978719666714
30
0
41
1
10
64.2818911421088
20
4.26872420681755
30
0
0
SPLINE
5
2C8
100
AcDbEntity
8
1
62
256
6
ByLayer
370
-1
48
1
60
0
100
AcDbSpline
70
4
71
3
72
10
73
6
40
0
40
0
40
0
40
0
40
0.391412264300147
40
0.391412264300147
40
1
40
1
40
1
40
1
41
1
10
55.7395753362846
20
0.128294751126305
30
0
41
1
10
55.7528940510345
20
0.0636476266955128
30
0
41
1
10
55.7662127943232
20
-0.0009994892450607
30
0
41
1
10
55.8002402585071
20
-0.166163217417022
30
0
41
1
10
55.8209490132556
20
-0.266679819385132
30
0
41
1
10
55.841657787797
20
-0.367196415210202
30
0
0
SPLINE
5
2C9
100
AcDbEntity
8
1
62
256
6
ByLayer
370
-1
48
1
60
0
100
AcDbSpline
70
4
71
3
72
8
73
4
40
0
40
0
40
0
40
0
40
1
40
1
40
1
40
1
41
1
10
55.9749606095199
20
-0.340928121646158
30
0
41
1
10
55.9641133525195
20
-0.288277496903504
30
0
41
1
10
55.9532661003012
20
-0.235626870586344
30
0
41
1
10
55.9424188582224
20
-0.182976240931026
30
0
0
SPLINE
5
2CA
100
AcDbEntity
8
1
62
256
6
ByLayer
370
-1
48
1
60
0
100
AcDbSpline
70
4
71
3
72
12
73
8
40
0
40
0
40
0
40
0
40
0.261466805566812
40
0.261466805566812
40
0.727154521522318
40
0.727154521522318
40
1
40
1
40
1
40
1
41
1
10
61.6225955668832
20
-2.10789345385351
30
0
41
1
10
61.6279492604224
20
-2.08209005664005
30
0
41
1
10
61.6352265861979
20
-2.05630255980506
30
0
41
1
10
61.6619383003948
20
-1.98682059476124
30
0
41
1
10
61.6873278174071
20
-1.94410721421897
30
0
41
1
10
61.7374770489019
20
-1.88487241578221
30
0
41
1
10
61.758222170312
20
-1.86443315486935
30
0
41
1
10
61.7802069145946
20
-1.84543054094343
30
0
0
SPLINE
5
2CB
100
AcDbEntity
8
1
62
256
6
ByLayer
370
-1
48
1
60
0
100
AcDbSpline
70
4
71
3
72
12
73
8
40
0
40
0
40
0
40
0
40
0.0125097154214887
40
0.0125097154214887
40
0.545812023971054
40
0.545812023971054
40
1
40
1
40
1
40
1
41
1
10
62.4921237002288
20
5.50309928180613
30
0
41
1
10
62.492739097631
20
5.50405377824308
30
0
41
1
10
62.4933548261076
20
5.50500900618914
30
0
41
1
10
62.5202217914235
20
5.54676063845119
30
0
41
1
10
62.546531192248
20
5.58973963175148
30
0
41
1
10
62.5920568881671
20
5.67001539143672
30
0
41
1
10
62.6121894625797
20
5.70796668887846
30
0
41
1
10
62.62930698329
20
5.74453223567866
30
0
0
SPLINE
5
2CC
100
AcDbEntity
8
1
62
256
6
ByLayer
370
-1
48
1
60
0
100
AcDbSpline
70
4
71
3
72
10
73
6
40
0
40
0
40
0
40
0
40
0.726371168591123
40
0.726371168591123
40
1
40
1
40
1
40
1
41
1
10
63.0228343642363
20
4.45717792319357
30
0
41
1
10
63.0110017347726
20
4.48529305596963
30
0
41
1
10
62.9926738694368
20
4.5122359192186
30
0
41
1
10
62.9571137894322
20
4.54442398512441
30
0
41
1
10
62.9461762915252
20
4.55281780052434
30
0
41
1
10
62.9340724982319
20
4.56050285494459
30
0
0
SPLINE
5
2CD
100
AcDbEntity
8
1
62
256
6
ByLayer
370
-1
48
1
60
0
100
AcDbSpline
70
4
71
3
72
14
73
10
40
0
40
0
40
0
40
0
40
0.264919990892538
40
0.264919990892538
40
0.530416812891306
40
0.530416812891306
40
0.787654584874268
40
0.787654584874268
40
1
40
1
40
1
40
1
41
1
10
57.6499221648318
20
-2.26813302452786
30
0
41
1
10
57.6578199140668
20
-2.27060866531522
30
0
41
1
10
57.666820492173
20
-2.2740916062134
30
0
41
1
10
57.6856437406177
20
-2.28258688400655
30
0
41
1
10
57.6957355617808
20
-2.28772527708912
30
0
41
1
10
57.7152009279244
20
-2.29874923959929
30
0
41
1
10
57.724859540502
20
-2.30476226820127
30
0
41
1
10
57.7411170957903
20
-2.31588264338143
30
0
41
1
10
57.7481227310462
20
-2.32107899710633
30
0
41
1
10
57.7543435201827
20
-2.32611432787863
30
0
0
SPLINE
5
2CE
100
AcDbEntity
8
1
62
256
6
ByLayer
370
-1
48
1
60
0
100
AcDbSpline
70
4
71
3
72
10
73
6
40
0
40
0
40
0
40
0
40
0.226375575408422
40
0.226375575408422
40
1
40
1
40
1
40
1
41
1
10
56.6762585036751
20
0.527335044392828
30
0
41
1
10
56.628592810144
20
0.550727994177691
30
0
41
1
10
56.5811403209122
20
0.574931640761974
30
0
41
1
10
56.3727139396045
20
0.685298522258336
30
0
41
1
10
56.214060843335
20
0.780080167156058
30
0
41
1
10
56.0589380243045
20
0.883816455721529
30
0
0
SPLINE
5
2CF
100
AcDbEntity
8
1
62
256
6
ByLayer
370
-1
48
1
60
0
100
AcDbSpline
70
4
71
3
72
10
73
6
40
0
40
0
40
0
40
0
40
0.517866865973609
40
0.517866865973609
40
1
40
1
40
1
40
1
41
1
10
63.3885479606215
20
6.93614186881445
30
0
41
1
10
63.664259592709
20
6.87845358833457
30
0
41
1
10
63.9406955473247
20
6.82297849234379
30
0
41
1
10
64.4755295943831
20
6.71931841147693
30
0
41
1
10
64.7338688889538
20
6.67089587151887
30
0
41
1
10
64.9925858529907
20
6.62377594673819
30
0
0
SPLINE
5
2D0
100
AcDbEntity
8
1
62
256
6
ByLayer
370
-1
48
1
60
0
100
AcDbSpline
70
4
71
3
72
14
73
10
40
0
40
0
40
0
40
0
40
0.25
40
0.25
40
0.5
40
0.5
40
0.75
40
0.75
40
1
40
1
40
1
40
1
41
1
10
63.875121139623
20
4.0600459068979
30
0
41
1
10
63.5597558559516
20
3.53488531105253
30
0
41
1
10
63.2443984245181
20
3.00972026258526
30
0
41
1
10
62.6136669879859
20
1.95939956376952
30
0
41
1
10
62.3395674863939
20
1.40417480959923
30
0
41
1
10
61.4302664457226
20
0.552608715063457
30
0
41
1
10
60.8547351881112
20
0.301376621756049
30
0
41
1
10
59.7754073635153
20
-0.298075355356417
30
0
41
1
10
59.2354674773138
20
-0.597363416318842
30
0
41
1
10
58.695353070689
20
-0.89637454055628
30
0
0
SPLINE
5
2D1
100
AcDbEntity
8
1
62
256
6
ByLayer
370
-1
48
1
60
0
100
AcDbSpline
70
4
71
3
72
16
73
12
40
0
40
0
40
0
40
0
40
0.343443954228578
40
0.343443954228578
40
0.535083245610713
40
0.535083245610713
40
0.693553557835153
40
0.693553557835153
40
0.853171508912955
40
0.853171508912955
40
1
40
1
40
1
40
1
41
1
10
61.0005566694768
20
10.3778510087045
30
0
41
1
10
60.9777170445876
20
10.3913117107323
30
0
41
1
10
60.9560210806206
20
10.4076543435248
30
0
41
1
10
60.9284618914913
20
10.4385383148262
30
0
41
1
10
60.9197073014903
20
10.4509445127954
30
0
41
1
10
60.9080502473367
20
10.4754881726793
30
0
41
1
10
60.9043432056581
20
10.4875604351593
30
0
41
1
10
60.9015544490787
20
10.5120469092396
30
0
41
1
10
60.902517216264
20
10.5247782229916
30
0
41
1
10
60.9084919868144
20
10.5477952399128
30
0
41
1
10
60.913184928868
20
10.5584589313266
30
0
41
1
10
60.9189825623767
20
10.568306534169
30
0
0
SPLINE
5
2D2
100
AcDbEntity
8
1
62
256
6
ByLayer
370
-1
48
1
60
0
100
AcDbSpline
70
4
71
3
72
8
73
4
40
0
40
0
40
0
40
0
40
1
40
1
40
1
40
1
41
1
10
55.4518540738101
20
-1.19666996694474
30
0
41
1
10
55.5817886451391
20
-0.920178783033236
30
0
41
1
10
55.711723216468
20
-0.643687599121733
30
0
41
1
10
55.841657787797
20
-0.367196415210202
30
0
0
SPLINE
5
2D3
100
AcDbEntity
8
1
62
256
6
ByLayer
370
-1
48
1
60
0
100
AcDbSpline
70
4
71
3
72
10
73
6
40
0
40
0
40
0
40
0
40
0.391412264300148
40
0.391412264300148
40
1
40
1
40
1
40
1
41
1
10
56.3006740929247
20
8.96700860185996
30
0
41
1
10
56.2407858967977
20
8.97809946429311
30
0
41
1
10
56.1808976968147
20
8.9891902925749
30
0
41
1
10
56.0278922639895
20
9.0175256330038
30
0
41
1
10
55.9347750269684
20
9.03477010402847
30
0
41
1
10
55.841657787797
20
9.05201455055646
30
0
0
SPLINE
5
2D4
100
AcDbEntity
8
1
62
256
6
ByLayer
370
-1
48
1
60
0
100
AcDbSpline
70
4
71
3
72
12
73
8
40
0
40
0
40
0
40
0
40
0.261466805566842
40
0.261466805566842
40
0.727154521522351
40
0.727154521522351
40
1
40
1
40
1
40
1
41
1
10
62.6272434667171
20
9.61160002287107
30
0
41
1
10
62.600722057133
20
9.60251929337949
30
0
41
1
10
62.5734451477881
20
9.59531877443021
30
0
41
1
10
62.4967884218849
20
9.58242807230974
30
0
41
1
10
62.4456097605515
20
9.58264379615724
30
0
41
1
10
62.3678671800714
20
9.59648375325258
30
0
41
1
10
62.3395025650227
20
9.60440309020481
30
0
41
1
10
62.3120207712943
20
9.61435197764243
30
0
0
SPLINE
5
2D5
100
AcDbEntity
8
1
62
256
6
ByLayer
370
-1
48
1
60
0
100
AcDbSpline
70
4
71
3
72
10
73
6
40
0
40
0
40
0
40
0
40
0.391412264300144
40
0.391412264300144
40
1
40
1
40
1
40
1
41
1
10
63.9445838022364
20
4.00883442519378
30
0
41
1
10
63.9885926006966
20
4.04274241111926
30
0
41
1
10
64.0326013730352
20
4.07665041166408
30
0
41
1
10
64.1450371715576
20
4.16328032939643
30
0
41
1
10
64.213464166236
20
4.21600226339169
30
0
41
1
10
64.2818911421089
20
4.26872420681752
30
0
0
SPLINE
5
2D6
100
AcDbEntity
8
1
62
256
6
ByLayer
370
-1
48
1
60
0
100
AcDbSpline
70
4
71
3
72
10
73
6
40
0
40
0
40
0
40
0
40
0.478255409340386
40
0.478255409340386
40
1
40
1
40
1
40
1
41
1
10
57.7543435201827
20
-2.32611432787863
30
0
41
1
10
57.9073191302082
20
-2.10584439786535
30
0
41
1
10
58.0610794692705
20
-1.88616694889873
30
0
41
1
10
58.3845115042129
20
-1.42835946957754
30
0
41
1
10
58.5543639372476
20
-1.19035458751651
30
0
41
1
10
58.7255506073407
20
-0.953458146998685
30
0
0
SPLINE
5
2D7
100
AcDbEntity
8
1
62
256
6
ByLayer
370
-1
48
1
60
0
100
AcDbSpline
70
4
71
3
72
12
73
8
40
0
40
0
40
0
40
0
40
0.0143412310805856
40
0.0143412310805856
40
0.547790989098491
40
0.547790989098491
40
1
40
1
40
1
40
1
41
1
10
57.0904051113828
20
0.508756529045741
30
0
41
1
10
57.0890862899681
20
0.50852871432798
30
0
41
1
10
57.0877676420413
20
0.508301645855283
30
0
41
1
10
57.0373761738972
20
0.499681612090285
30
0
41
1
10
56.9880449831371
20
0.492941505377956
30
0
41
1
10
56.9003390328198
20
0.485355289000694
30
0
41
1
10
56.8607811943638
20
0.483697065001735
30
0
41
1
10
56.824676991058
20
0.4850724550829
30
0
0
SPLINE
5
2D8
100
AcDbEntity
8
1
62
256
6
ByLayer
370
-1
48
1
60
0
100
AcDbSpline
70
4
71
3
72
14
73
10
40
0
40
0
40
0
40
0
40
0.264919990892519
40
0.264919990892519
40
0.530416812891246
40
0.530416812891246
40
0.787654584874255
40
0.787654584874255
40
1
40
1
40
1
40
1
41
1
10
64.99258585299
20
6.62377594673831
30
0
41
1
10
64.992828603268
20
6.63418148211611
30
0
41
1
10
64.9930249567661
20
6.64551353581547
30
0
41
1
10
64.9932885953738
20
6.66824877878489
30
0
41
1
10
64.9933590939519
20
6.67997340846034
30
0
41
1
10
64.993360009635
20
6.70170255496367
30
0
41
1
10
64.9932945646788
20
6.71205233696907
30
0
41
1
10
64.9930631492101
20
6.72867818857409
30
0
41
1
10
64.992914348518
20
6.73552070648392
30
0
41
1
10
64.9927311089599
20
6.74126152633482
30
0
0
SPLINE
5
2D9
100
AcDbEntity
8
1
62
256
6
ByLayer
370
-1
48
1
60
0
100
AcDbSpline
70
4
71
3
72
10
73
6
40
0
40
0
40
0
40
0
40
0.478255409340384
40
0.478255409340384
40
1
40
1
40
1
40
1
41
1
10
53.1919467351485
20
8.33747333120652
30
0
41
1
10
53.3006622665308
20
8.1283775776632
30
0
41
1
10
53.4083100834275
20
7.91927287934013
30
0
41
1
10
53.6307063863649
20
7.48206804255292
30
0
41
1
10
53.7452196347328
20
7.25395885339634
30
0
41
1
10
53.8578221252011
20
7.02589685721969
30
0
0
SPLINE
5
2DA
100
AcDbEntity
8
1
62
256
6
ByLayer
370
-1
48
1
60
0
100
AcDbSpline
70
4
71
3
72
12
73
8
40
0
40
0
40
0
40
0
40
0.467747243448206
40
0.467747243448206
40
0.914074073580956
40
0.914074073580956
40
1
40
1
40
1
40
1
41
1
10
64.9676367675518
20
7.46813171917987
30
0
41
1
10
64.9676367675518
20
7.44124128648801
30
0
41
1
10
64.9678047687211
20
7.41521990297309
30
0
41
1
10
64.9684408851307
20
7.37080513879457
30
0
41
1
10
64.9689050788719
20
7.3514664680479
30
0
41
1
10
64.9696040798988
20
7.33358035424416
30
0
41
1
10
64.9697233006748
20
7.33080781765347
30
0
41
1
10
64.9698470034404
20
7.32820233771054
30
0
0
SPLINE
5
2DB
100
AcDbEntity
8
1
62
256
6
ByLayer
370
-1
48
1
60
0
100
AcDbSpline
70
4
71
3
72
10
73
6
40
0
40
0
40
0
40
0
40
0.274190864391847
40
0.274190864391847
40
1
40
1
40
1
40
1
41
1
10
55.1083482583879
20
6.61874534430029
30
0
41
1
10
55.1178136763018
20
6.62633759588459
30
0
41
1
10
55.1277317579301
20
6.63349206729265
30
0
41
1
10
55.1653450807249
20
6.65750965866258
30
0
41
1
10
55.1961273467594
20
6.67169099896628
30
0
41
1
10
55.2303437865054
20
6.6791372830204
30
0
0
SPLINE
5
2DC
100
AcDbEntity
8
1
62
256
6
ByLayer
370
-1
48
1
60
0
100
AcDbSpline
70
4
71
3
72
10
73
6
40
0
40
0
40
0
40
0
40
0.517866865973608
40
0.517866865973608
40
1
40
1
40
1
40
1
41
1
10
58.6328107767015
20
-0.884773279244257
30
0
41
1
10
58.4607891716604
20
-1.12168684530531
30
0
41
1
10
58.2901360063187
20
-1.35973550932357
30
0
41
1
10
57.9627904049671
20
-1.82109556148453
30
0
41
1
10
57.8059423154479
20
-2.04430225381421
30
0
41
1
10
57.6499221648313
20
-2.26813302452845
30
0
0
SPLINE
5
2DD
100
AcDbEntity
8
1
62
256
6
ByLayer
370
-1
48
1
60
0
100
AcDbSpline
70
4
71
3
72
8
73
4
40
0
40
0
40
0
40
0
40
1
40
1
40
1
40
1
41
1
10
64.1960982700776
20
4.37426385847613
30
0
41
1
10
64.1602561971718
20
4.34664809459198
30
0
41
1
10
64.1244141194782
20
4.31903233273539
30
0
41
1
10
64.0885720316336
20
4.29141657517761
30
0
0
SPLINE
5
2DE
100
AcDbEntity
8
1
62
256
6
ByLayer
370
-1
48
1
60
0
100
AcDbSpline
70
4
71
3
72
12
73
8
40
0
40
0
40
0
40
0
40
0.133148321068527
40
0.133148321068527
40
0.702614877346735
40
0.702614877346735
40
1
40
1
40
1
40
1
41
1
10
55.4796934830043
20
9.43670465419277
30
0
41
1
10
55.6635213418562
20
9.43509990941413
30
0
41
1
10
55.8473492019918
20
9.43349565562696
30
0
41
1
10
56.8173966565973
20
9.42503074859496
30
0
41
1
10
57.6036162227982
20
9.41815985949825
30
0
41
1
10
58.800311670589
20
9.40770458144948
30
0
41
1
10
59.2142115449389
20
9.43186887305038
30
0
41
1
10
59.6206969006012
20
9.37315380891638
30
0
0
SPLINE
5
2DF
100
AcDbEntity
8
1
62
256
6
ByLayer
370
-1
48
1
60
0
100
AcDbSpline
70
4
71
3
72
16
73
12
40
0
40
0
40
0
40
0
40
0.16471073663027
40
0.16471073663027
40
0.331370362656764
40
0.331370362656764
40
0.476446336500483
40
0.476446336500483
40
0.702801041235992
40
0.702801041235992
40
1
40
1
40
1
40
1
41
1
10
61.7175324437116
20
-3.65777584313651
30
0
41
1
10
61.7049909718527
20
-3.65859021123245
30
0
41
1
10
61.6922625776244
20
-3.65782292421676
30
0
41
1
10
61.6684232060301
20
-3.65199217086669
30
0
41
1
10
61.6570450132149
20
-3.6467370130799
30
0
41
1
10
61.6390948530701
20
-3.63351085953357
30
0
41
1
10
61.6318575178499
20
-3.6258702955956
30
0
41
1
10
61.6167389657058
20
-3.60452924553979
30
0
41
1
10
61.6103844669917
20
-3.5895271901218
30
0
41
1
10
61.6006647466336
20
-3.55394647167486
30
0
41
1
10
61.5986254678814
20
-3.53256250661895
30
0
41
1
10
61.5988645926196
20
-3.51128136330877
30
0
0
SPLINE
5
2E0
100
AcDbEntity
8
1
62
256
6
ByLayer
370
-1
48
1
60
0
100
AcDbSpline
70
4
71
3
72
8
73
4
40
0
40
0
40
0
40
0
40
1
40
1
40
1
40
1
41
1
10
55.9424188582224
20
8.90804435989276
30
0
41
1
10
56.0466494978793
20
8.88874176663617
30
0
41
1
10
56.1508801341183
20
8.8694391098461
30
0
41
1
10
56.2551107648685
20
8.8501363510313
30
0
0
SPLINE
5
2E1
100
AcDbEntity
8
1
62
256
6
ByLayer
370
-1
48
1
60
0
100
AcDbSpline
70
4
71
3
72
10
73
6
40
0
40
0
40
0
40
0
40
0.266814892217289
40
0.266814892217289
40
1
40
1
40
1
40
1
41
1
10
56.824676991058
20
0.4850724550829
30
0
41
1
10
56.8111547704079
20
0.48558758424943
30
0
41
1
10
56.7975796278804
20
0.487252217076588
30
0
41
1
10
56.7473672813107
20
0.496726253476425
30
0
41
1
10
56.7110025722799
20
0.510134715252292
30
0
41
1
10
56.6762585036751
20
0.527335044392828
30
0
0
SPLINE
5
2E2
100
AcDbEntity
8
1
62
256
6
ByLayer
370
-1
48
1
60
0
100
AcDbSpline
70
4
71
3
72
16
73
12
40
0
40
0
40
0
40
0
40
0.164710736630285
40
0.164710736630285
40
0.33137036265677
40
0.33137036265677
40
0.476446336500496
40
0.476446336500496
40
0.702801041235986
40
0.702801041235986
40
1
40
1
40
1
40
1
41
1
10
64.0367157719784
20
10.5410881234809
30
0
41
1
10
64.0430048597766
20
10.5299662433352
30
0
41
1
10
64.0478952576024
20
10.517812796855
30
0
41
1
10
64.0529403889578
20
10.492663466052
30
0
41
1
10
64.0530333738984
20
10.4793170537537
30
0
41
1
10
64.0485583304514
20
10.4555806309106
30
0
41
1
10
64.0445929183167
20
10.444756597968
30
0
41
1
10
64.0312713260898
20
10.4192228655887
30
0
41
1
10
64.0200235963937
20
10.4052138699723
30
0
41
1
10
63.9909889591069
20
10.3769228373646
30
0
41
1
10
63.9718636791955
20
10.3634259619205
30
0
41
1
10
63.9518306819237
20
10.3520858188306
30
0
0
SPLINE
5
2E3
100
AcDbEntity
8
1
62
256
6
ByLayer
370
-1
48
1
60
0
100
AcDbSpline
70
4
71
3
72
12
73
8
40
0
40
0
40
0
40
0
40
0.249999999999999
40
0.249999999999999
40
0.499999999999999
40
0.499999999999999
40
1
40
1
40
1
40
1
41
1
10
62.8769998596867
20
0.556787191399508
30
0
41
1
10
62.5803283098763
20
0.189672229567265
30
0
41
1
10
62.1839282329786
20
-0.0685668769868926
30
0
41
1
10
61.4312564946908
20
-0.629994258573163
30
0
41
1
10
61.0544757941948
20
-0.912581555468023
30
0
41
1
10
59.9225160653243
20
-1.75929496836847
30
0
41
1
10
59.168492331119
20
-2.32410337250664
30
0
41
1
10
58.4147382584281
20
-2.8889365936883
30
0
0
SPLINE
5
2E4
100
AcDbEntity
8
1
62
256
6
ByLayer
370
-1
48
1
60
0
100
AcDbSpline
70
4
71
3
72
12
73
8
40
0
40
0
40
0
40
0
40
0.452209010901519
40
0.452209010901519
40
0.985658768919407
40
0.985658768919407
40
1
40
1
40
1
40
1
41
1
10
55.2303437865054
20
6.6791372830204
30
0
41
1
10
55.2641976291211
20
6.68650465760146
30
0
41
1
10
55.3018877262393
20
6.6954191508014
30
0
41
1
10
55.3860493672306
20
6.71677518748535
30
0
41
1
10
55.4337722549101
20
6.72976363269763
30
0
41
1
10
55.4827022159401
20
6.74406169523701
30
0
41
1
10
55.4839828755062
20
6.74443635040495
30
0
41
1
10
55.4852635809602
20
6.74481224755073
30
0
0
SPLINE
5
2E5
100
AcDbEntity
8
1
62
256
6
ByLayer
370
-1
48
1
60
0
100
AcDbSpline
70
4
71
3
72
12
73
8
40
0
40
0
40
0
40
0
40
0.0125097154214912
40
0.0125097154214912
40
0.545812023971056
40
0.545812023971056
40
1
40
1
40
1
40
1
41
1
10
55.4852635809602
20
6.74481224755073
30
0
41
1
10
55.4840957764428
20
6.74485759095526
30
0
41
1
10
55.4829280870805
20
6.7449040398331
30
0
41
1
10
55.4319542419926
20
6.74694794643395
30
0
41
1
10
55.3818645192954
20
6.75007406381496
30
0
41
1
10
55.2937167746083
20
6.75741117920887
30
0
41
1
10
55.2541442260828
20
6.76148126237734
30
0
41
1
10
55.2190949919883
20
6.76592552203391
30
0
0
SPLINE
5
2E6
100
AcDbEntity
8
1
62
256
6
ByLayer
370
-1
48
1
60
0
100
AcDbSpline
70
4
71
3
72
12
73
8
40
0
40
0
40
0
40
0
40
0.467747243448222
40
0.467747243448222
40
0.914074073580947
40
0.914074073580947
40
1
40
1
40
1
40
1
41
1
10
58.5531105908024
20
-2.98556750927986
30
0
41
1
10
58.5290149921644
20
-2.97191193372248
30
0
41
1
10
58.5047110165396
20
-2.95675397208515
30
0
41
1
10
58.4611749175958
20
-2.92683951809332
30
0
41
1
10
58.441118793142
20
-2.91164835609709
30
0
41
1
10
58.4209846292129
20
-2.89447820544118
30
0
41
1
10
58.4177997640656
20
-2.89169090942045
30
0
41
1
10
58.4147382584421
20
-2.88893659367776
30
0
0
SPLINE
5
2E7
100
AcDbEntity
8
1
62
256
6
ByLayer
370
-1
48
1
60
0
100
AcDbSpline
70
4
71
3
72
12
73
8
40
0
40
0
40
0
40
0
40
0.133148321068527
40
0.133148321068527
40
0.702614877346737
40
0.702614877346737
40
1
40
1
40
1
40
1
41
1
10
64.9706436208272
20
3.99403235820896
30
0
41
1
10
64.8787298035548
20
3.84097223731354
30
0
41
1
10
64.786816418698
20
3.68791188193938
30
0
41
1
10
64.3017961147806
20
2.88022224244827
30
0
41
1
10
63.9086801899088
20
2.22559782906197
30
0
41
1
10
63.3103250104028
20
1.22920182804464
30
0
41
1
10
63.1290439218552
20
0.868678056304589
30
0
41
1
10
62.8769998596867
20
0.556787191399508
30
0
0
SPLINE
5
2E8
100
AcDbEntity
8
1
62
256
6
ByLayer
370
-1
48
1
60
0
100
AcDbSpline
70
4
71
3
72
16
73
12
40
0
40
0
40
0
40
0
40
0.164710736630266
40
0.164710736630266
40
0.331370362656765
40
0.331370362656765
40
0.476446336500481
40
0.476446336500481
40
0.702801041235993
40
0.702801041235993
40
1
40
1
40
1
40
1
41
1
10
50.1358643164039
20
5.49402779929619
30
0
41
1
10
50.1418270257843
20
5.50374135606239
30
0
41
1
10
50.1493480269593
20
5.51269519182861
30
0
41
1
10
50.167485144044
20
5.52697162327422
30
0
41
1
10
50.1784210349197
20
5.53238254716422
30
0
41
1
10
50.2002239223335
20
5.53811774650313
30
0
41
1
10
50.2111424478104
20
5.53912036371656
30
0
41
1
10
50.238911210452
20
5.53816149311552
30
0
41
1
10
50.2561441874802
20
5.53433514495708
30
0
41
1
10
50.2941514013187
20
5.52131257915866
30
0
41
1
10
50.3149583130887
20
5.51068124313778
30
0
41
1
10
50.334450783114
20
5.49842756310252
30
0
0
SPLINE
5
2E9
100
AcDbEntity
8
1
62
256
6
ByLayer
370
-1
48
1
60
0
100
AcDbSpline
70
4
71
3
72
14
73
10
40
0
40
0
40
0
40
0
40
0.25
40
0.25
40
0.5
40
0.5
40
0.75
40
0.75
40
1
40
1
40
1
40
1
41
1
10
56.3021114580397
20
8.89891499193203
30
0
41
1
10
56.932839627857
20
8.8934072758679
30
0
41
1
10
57.5635677999709
20
8.88790832407972
30
0
41
1
10
58.8250241393511
20
8.87689192180557
30
0
41
1
10
59.4617360688613
20
8.92072304799262
30
0
41
1
10
60.6865591972344
20
8.57870459742014
30
0
41
1
10
61.2039476088934
20
8.22060090540757
30
0
41
1
10
62.2892033664939
20
7.61217496281989
30
0
41
1
10
62.831578979177
20
7.30751544675005
30
0
41
1
10
63.3737950637709
20
7.00257354462011
30
0
0
SPLINE
5
2EA
100
AcDbEntity
8
1
62
256
6
ByLayer
370
-1
48
1
60
0
100
AcDbSpline
70
4
71
3
72
16
73
12
40
0
40
0
40
0
40
0
40
0.343443954228574
40
0.343443954228574
40
0.535083245610717
40
0.535083245610717
40
0.69355355783514
40
0.69355355783514
40
0.853171508912942
40
0.853171508912942
40
1
40
1
40
1
40
1
41
1
10
51.8100877893374
20
3.01535208006075
30
0
41
1
10
51.8105945848154
20
2.99083679015186
30
0
41
1
10
51.8081497303052
20
2.9661281640993
30
0
41
1
10
51.7967122293342
20
2.93069643691462
30
0
41
1
10
51.7909430909566
20
2.91840391998494
30
0
41
1
10
51.7766578567714
20
2.89882958187144
30
0
41
1
10
51.7686034840494
20
2.89089968302173
30
0
41
1
10
51.7498674483195
20
2.87877866441301
30
0
41
1
10
51.7389022744777
20
2.87449810581026
30
0
41
1
10
51.7169307637709
20
2.87030694406928
30
0
41
1
10
51.7057751950799
20
2.86997797133589
30
0
41
1
10
51.6947309212041
20
2.87090068104888
30
0
0
SPLINE
5
2EB
100
AcDbEntity
8
1
62
256
6
ByLayer
370
-1
48
1
60
0
100
AcDbSpline
70
4
71
3
72
10
73
6
40
0
40
0
40
0
40
0
40
0.726371168591126
40
0.726371168591126
40
1
40
1
40
1
40
1
41
1
10
56.6956521718089
20
0.440175126263796
30
0
41
1
10
56.7326559778971
20
0.422004372847141
30
0
41
1
10
56.7718713743437
20
0.409715534937931
30
0
41
1
10
56.8260619562369
20
0.405053354987331
30
0
41
1
10
56.8410875944163
20
0.40505793585578
30
0
41
1
10
56.8559672128529
20
0.406594472455424
30
0
0
SPLINE
5
2EC
100
AcDbEntity
8
SK1
62
256
6
ByLayer
370
-1
48
1
60
0
100
AcDbSpline
70
4
71
3
72
41
73
37
40
0
40
0
40
0
40
0
40
0.003586261541826
40
0.0346121196535795
40
0.065637977765333
40
0.0966638358770865
40
0.12768969398884
40
0.158715552100593
40
0.189741410212347
40
0.220767268324101
40
0.251793126435854
40
0.282818984547608
40
0.313844842659361
40
0.344870700771115
40
0.375896558882868
40
0.406922416994622
40
0.437948275106375
40
0.468974133218129
40
0.499999991329882
40
0.531025849441636
40
0.562051707553389
40
0.593077565665143
40
0.624103423776896
40
0.65512928188865
40
0.686155140000403
40
0.717180998112157
40
0.74820685622391
40
0.779232714335664
40
0.810258572447417
40
0.841284430559171
40
0.872310288670924
40
0.903336146782678
40
0.934362004894431
40
0.965387863006185
40
0.996413721117938
40
1
40
1
40
1
40
1
41
1
10
-2.20000000000002
20
-10.2416915120114
30
0
41
1
10
-2.20000000000002
20
-10.2098170446198
30
0
41
1
10
-2.20000000000002
20
-9.90198508683847
30
0
41
1
10
-2.20000000000002
20
-9.3149808480191
30
0
41
1
10
-2.20000000000002
20
-8.48421552667966
30
0
41
1
10
-2.20000000000002
20
-7.66447545612931
30
0
41
1
10
-2.20000000000002
20
-6.86437716583347
30
0
41
1
10
-2.20000000000002
20
-6.09147129549578
30
0
41
1
10
-2.20000000000002
20
-5.35199475664402
30
0
41
1
10
-2.20000000000002
20
-4.6506671110304
30
0
41
1
10
-2.20000000000002
20
-3.99054255831777
30
0
41
1
10
-2.20000000000002
20
-3.37292400688881
30
0
41
1
10
-2.20000000000002
20
-2.79733805829036
30
0
41
1
10
-2.20000000000002
20
-2.26158054799637
30
0
41
1
10
-2.20000000000002
20
-1.76181929549949
30
0
41
1
10
-2.20000000000002
20
-1.29276519791185
30
0
41
1
10
-2.20000000000002
20
-0.847888335032877
30
0
41
1
10
-2.20000000000002
20
-0.419689842123091
30
0
41
1
10
-2.20000000000002
20
8.86504949E-08
30
0
41
1
10
-2.20000000000002
20
0.419689487520998
30
0
41
1
10
-2.20000000000002
20
0.847888498250114
30
0
41
1
10
-2.20000000000002
20
1.29276489964477
30
0
41
1
10
-2.20000000000002
20
1.7618194185427
30
0
41
1
10
-2.20000000000002
20
2.26158035409029
30
0
41
1
10
-2.20000000000002
20
2.79733812098013
30
0
41
1
10
-2.20000000000002
20
3.37292395003561
30
0
41
1
10
-2.20000000000002
20
3.99054254934384
30
0
41
1
10
-2.20000000000002
20
4.65066720377908
30
0
41
1
10
-2.20000000000002
20
5.35199467517899
30
0
41
1
10
-2.20000000000002
20
6.091471528607
30
0
41
1
10
-2.20000000000002
20
6.86437702157369
30
0
41
1
10
-2.20000000000002
20
7.66447580005692
30
0
41
1
10
-2.20000000000002
20
8.48421533830793
30
0
41
1
10
-2.20000000000002
20
9.31498125757835
30
0
41
1
10
-2.20000000000002
20
9.90198521620599
30
0
41
1
10
-2.20000000000002
20
10.2098173562794
30
0
41
1
10
-2.20000000000002
20
10.2416919827174
30
0
0
SPLINE
5
2ED
100
AcDbEntity
8
SK1
62
256
6
ByLayer
370
-1
48
1
60
0
100
AcDbSpline
70
4
71
3
72
14
73
10
40
0
40
0
40
0
40
0
40
0.134730002443746
40
0.287068852257179
40
0.439407702070613
40
0.591746551884047
40
0.744085401697481
40
0.896424251510915
40
1
40
1
40
1
40
1
41
1
10
-2.20000000000005
20
10.2416919827174
30
0
41
1
10
-2.20000000000005
20
10.4855732775987
30
0
41
1
10
-2.20000000000005
20
11.0026050713442
30
0
41
1
10
-2.20000000000005
20
11.777504870163
30
0
41
1
10
-2.20000000000005
20
12.5554386011843
30
0
41
1
10
-2.20000000000005
20
13.2960633878308
30
0
41
1
10
-2.20000000000005
20
13.9908994853336
30
0
41
1
10
-2.20000000000005
20
14.5640747934535
30
0
41
1
10
-2.20000000000005
20
14.8954704523378
30
0
41
1
10
-2.20000000000005
20
15.0247809138972
30
0
0
SPLINE
5
2EE
100
AcDbEntity
8
1
62
256
6
ByLayer
370
-1
48
1
60
0
100
AcDbSpline
70
4
71
3
72
12
73
8
40
0
40
0
40
0
40
0
40
0.452209010901514
40
0.452209010901514
40
0.985658768919417
40
0.985658768919417
40
1
40
1
40
1
40
1
41
1
10
62.5473250995197
20
5.77614151708667
30
0
41
1
10
62.5409743839656
20
5.73551298694656
30
0
41
1
10
62.533077242036
20
5.6932950938407
30
0
41
1
10
62.5147603535498
20
5.6028542864299
30
0
41
1
10
62.5039276843314
20
5.55396784890084
30
0
41
1
10
62.4927111005161
20
5.50562606157985
30
0
41
1
10
62.4924172056198
20
5.50436219870733
30
0
41
1
10
62.4921237002288
20
5.50309928180613
30
0
0
SPLINE
5
2EF
100
AcDbEntity
8
SK1
62
256
6
ByLayer
370
-1
48
1
60
0
100
AcDbSpline
70
4
71
3
72
10
73
6
40
0
40
0
40
0
40
0
40
0.5
40
0.5
40
1
40
1
40
1
40
1
41
1
10
-1.30710678118655
20
3.80474436172742
30
0
41
1
10
-1.52921682270321
20
2.59907728352434
30
0
41
1
10
-1.70909405340865
20
1.31281235086666
30
0
41
1
10
-1.7096317930087
20
-1.30649832374493
30
0
41
1
10
-1.52966155970611
20
-2.5966617696443
30
0
41
1
10
-1.30710678118663
20
-3.80474664113297
30
0
0
SPLINE
5
2F0
100
AcDbEntity
8
SK1
62
256
6
ByLayer
370
-1
48
1
60
0
100
AcDbSpline
70
4
71
3
72
22
73
18
40
0
40
0
40
0
40
0
40
0.352684316750051
40
0.352684316750051
40
0.750046292484899
40
0.750046292484899
40
0.835479263400861
40
0.835479263400861
40
0.86935277413835
40
0.86935277413835
40
0.903637365464604
40
0.903637365464604
40
0.934112944215775
40
0.934112944215775
40
0.983611230456553
40
0.983611230456553
40
1
40
1
40
1
40
1
41
1
10
-1.30710678118655
20
3.80474436172742
30
0
41
1
10
-1.26637440296074
20
4.02584957204775
30
0
41
1
10
-1.21786346361694
20
4.24386265362048
30
0
41
1
10
-1.08311917044625
20
4.69265802851214
30
0
41
1
10
-1.00360006874376
20
4.93633956823067
30
0
41
1
10
-0.8033447497628
20
5.16879396055813
30
0
41
1
10
-0.76102131187784
20
5.20853400127967
30
0
41
1
10
-0.689167148695731
20
5.24561851051851
30
0
41
1
10
-0.666676206231415
20
5.25408214518689
30
0
41
1
10
-0.619919785859764
20
5.26355270960357
30
0
41
1
10
-0.595012690956537
20
5.26445496143654
30
0
41
1
10
-0.54992619516284
20
5.25839930645884
30
0
41
1
10
-0.529028206588009
20
5.25231844804927
30
0
41
1
10
-0.478237300450644
20
5.2307965704984
30
0
41
1
10
-0.449806665426394
20
5.21177878736736
30
0
41
1
10
-0.416050679082105
20
5.18357602352128
30
0
41
1
10
-0.407890864165267
20
5.17622805658175
30
0
41
1
10
-0.400000000000006
20
5.16866682996363
30
0
0
SPLINE
5
2F1
100
AcDbEntity
8
SK1
62
256
6
ByLayer
370
-1
48
1
60
0
100
AcDbSpline
70
4
71
3
72
24
73
20
40
0
40
0
40
0
40
0
40
0.029900329896163
40
0.029900329896163
40
0.0528622635029668
40
0.0528622635029668
40
0.0709275158044993
40
0.0709275158044993
40
0.0890039000876292
40
0.0890039000876292
40
0.11362248491787
40
0.11362248491787
40
0.157577258657195
40
0.157577258657195
40
0.29602514002948
40
0.29602514002948
40
0.878150828056824
40
0.878150828056824
40
1
40
1
40
1
40
1
41
1
10
-0.400000000000034
20
5.16866682996297
30
0
41
1
10
-0.394094307655593
20
5.16300784544387
30
0
41
1
10
-0.38760623850834
20
5.15782429554133
30
0
41
1
10
-0.374945775641891
20
5.1507540726119
30
0
41
1
10
-0.368929355824321
20
5.14835070696066
30
0
41
1
10
-0.35770867701234
20
5.14629827954846
30
0
41
1
10
-0.352495529695631
20
5.14618209741417
30
0
41
1
10
-0.342356257615734
20
5.14777530545462
30
0
41
1
10
-0.337316914191916
20
5.1495007928761
30
0
41
1
10
-0.326353738404208
20
5.15512166080455
30
0
41
1
10
-0.320571087776045
20
5.15961290941803
30
0
41
1
10
-0.306345382412019
20
5.17348963231112
30
0
41
1
10
-0.298929389281341
20
5.1841444040335
30
0
41
1
10
-0.272649182798801
20
5.22929437458617
30
0
41
1
10
-0.260939846150848
20
5.26761390191822
30
0
41
1
10
-0.21079653079866
20
5.46289223314824
30
0
41
1
10
-0.20436648289828
20
5.62478131775705
30
0
41
1
10
-0.200325121553277
20
5.8154278903541
30
0
41
1
10
-0.200000000000046
20
5.8484679854401
30
0
41
1
10
-0.200000000000046
20
5.88142452370542
30
0
0
SPLINE
5
2F2
100
AcDbEntity
8
SK1
62
256
6
ByLayer
370
-1
48
1
60
0
100
AcDbSpline
70
4
71
3
72
26
73
22
40
0
40
0
40
0
40
0
40
0.466011607458027
40
0.466011607458027
40
0.670240466301672
40
0.670240466301672
40
0.774567270182201
40
0.774567270182201
40
0.857070717706408
40
0.857070717706408
40
0.898538406950315
40
0.898538406950315
40
0.918045307993229
40
0.918045307993229
40
0.937772855809242
40
0.937772855809242
40
0.955553297254214
40
0.955553297254214
40
0.98423071272984
40
0.98423071272984
40
1
40
1
40
1
40
1
41
1
10
-0.200000000000046
20
-5.88142397393347
30
0
41
1
10
-0.200000000000046
20
-5.75538988127934
30
0
41
1
10
-0.204053336884698
20
-5.62782146467677
30
0
41
1
10
-0.224291300237979
20
-5.44372978251536
30
0
41
1
10
-0.232375898168357
20
-5.3873284499669
30
0
41
1
10
-0.251389677244674
20
-5.30297629006839
30
0
41
1
10
-0.25900395291697
20
-5.27447755328694
30
0
41
1
10
-0.277073232762461
20
-5.22483382882945
30
0
41
1
10
-0.286541211569755
20
-5.20296176881411
30
0
41
1
10
-0.306529791401147
20
-5.17375294403038
30
0
41
1
10
-0.314426911926432
20
-5.1643717298173
30
0
41
1
10
-0.328481919155991
20
-5.15398148698225
30
0
41
1
10
-0.333472930985607
20
-5.15114386616668
30
0
41
1
10
-0.343977733072507
20
-5.14732547572157
30
0
41
1
10
-0.349636276202261
20
-5.14634920679938
30
0
41
1
10
-0.360093315739704
20
-5.1465317925306
30
0
41
1
10
-0.365036235354097
20
-5.14747094480913
30
0
41
1
10
-0.377122372198727
20
-5.15149960910935
30
0
41
1
10
-0.384002450469694
20
-5.1555505154767
30
0
41
1
10
-0.393629001799496
20
-5.16285427826699
30
0
41
1
10
-0.396890469609758
20
-5.16568716298278
30
0
41
1
10
-0.400000000000063
20
-5.16866679574503
30
0
0
SPLINE
5
2F3
100
AcDbEntity
8
SK1
62
256
6
ByLayer
370
-1
48
1
60
0
100
AcDbSpline
70
4
71
3
72
22
73
18
40
0
40
0
40
0
40
0
40
0.0434921783994971
40
0.0434921783994971
40
0.0876860403067031
40
0.0876860403067031
40
0.118952127699588
40
0.118952127699588
40
0.150155842428301
40
0.150155842428301
40
0.196307791916002
40
0.196307791916002
40
0.283435745194103
40
0.283435745194103
40
0.579041181948967
40
0.579041181948967
40
1
40
1
40
1
40
1
41
1
10
-0.400000000000034
20
-5.16866679574528
30
0
41
1
10
-0.420550053748514
20
-5.18835839085108
30
0
41
1
10
-0.443027188827415
20
-5.20675192843447
30
0
41
1
10
-0.492732016073376
20
-5.23775963373393
30
0
41
1
10
-0.520750465867962
20
-5.25056923469424
30
0
41
1
10
-0.571323171411422
20
-5.26230651341535
30
0
41
1
10
-0.593569294960218
20
-5.26418855716773
30
0
41
1
10
-0.636876257397915
20
-5.26111275520464
30
0
41
1
10
-0.658413974519078
20
-5.25617334660447
30
0
41
1
10
-0.70801905917827
20
-5.23795018495881
30
0
41
1
10
-0.735222931334562
20
-5.22174262348992
30
0
41
1
10
-0.805307091704577
20
-5.16870577827882
30
0
41
1
10
-0.843008552736933
20
-5.12565182749091
30
0
41
1
10
-0.98697835479976
20
-4.93030734845306
30
0
41
1
10
-1.05565821402414
20
-4.75512394253201
30
0
41
1
10
-1.19912511806339
20
-4.32976589005261
30
0
41
1
10
-1.25838015422249
20
-4.06924736884375
30
0
41
1
10
-1.30710678118655
20
-3.80474664113271
30
0
0
SPLINE
5
2F4
100
AcDbEntity
8
1
62
256
6
ByLayer
370
-1
48
1
60
0
100
AcDbSpline
70
4
71
3
72
12
73
8
40
0
40
0
40
0
40
0
40
0.0125097154214847
40
0.0125097154214847
40
0.545812023971054
40
0.545812023971054
40
1
40
1
40
1
40
1
41
1
10
57.9308505034942
20
0.268504717979113
30
0
41
1
10
57.9314029106092
20
0.267504878137657
30
0
41
1
10
57.9319552074315
20
0.266505778975329
30
0
41
1
10
57.9560914400211
20
0.222935466069828
30
0
41
1
10
57.9805097376841
20
0.181725582507255
30
0
41
1
10
58.0256022464102
20
0.11306869724018
30
0
41
1
10
58.0467091215533
20
0.0838375498177868
30
0
41
1
10
58.0669341450954
20
0.0604244519593351
30
0
0
LINE
5
4A
100
AcDbEntity
8
1
62
256
6
ByLayer
370
-1
48
1
60
0
100
AcDbLine
10
64.967637
20
9.1592
30
0
11
64.967637
21
7.468132
31
0
39
0
210
0
220
0
230
1
0
LINE
5
4B
100
AcDbEntity
8
1
62
256
6
ByLayer
370
-1
48
1
60
0
100
AcDbLine
10
62.43037
20
13.256786
30
0
11
62.572472
21
13.255546
31
0
39
0
210
0
220
0
230
1
0
LINE
5
4C
100
AcDbEntity
8
1
62
256
6
ByLayer
370
-1
48
1
60
0
100
AcDbLine
10
19.5
20
25
30
0
11
0.3
21
25
31
0
39
0
210
0
220
0
230
1
0
LINE
5
4D
100
AcDbEntity
8
1
62
256
6
ByLayer
370
-1
48
1
60
0
100
AcDbLine
10
0.3
20
-25
30
0
11
19.5
21
-25
31
0
39
0
210
0
220
0
230
1
0
LINE
5
4E
100
AcDbEntity
8
1
62
256
6
ByLayer
370
-1
48
1
60
0
100
AcDbLine
10
19.5
20
-25
30
0
11
23.280919
21
-10.889417
31
0
39
0
210
0
220
0
230
1
0
LINE
5
4F
100
AcDbEntity
8
1
62
256
6
ByLayer
370
-1
48
1
60
0
100
AcDbLine
10
23.280919
20
10.889417
30
0
11
19.5
21
25
31
0
39
0
210
0
220
0
230
1
0
LINE
5
50
100
AcDbEntity
8
1
62
256
6
ByLayer
370
-1
48
1
60
0
100
AcDbLine
10
0.3
20
25
30
0
11
0
21
24.7
31
0
39
0
210
0
220
0
230
1
0
LINE
5
51
100
AcDbEntity
8
1
62
256
6
ByLayer
370
-1
48
1
60
0
100
AcDbLine
10
0
20
-24.7
30
0
11
0.3
21
-25
31
0
39
0
210
0
220
0
230
1
0
LINE
5
52
100
AcDbEntity
8
1
62
256
6
ByLayer
370
-1
48
1
60
0
100
AcDbLine
10
24.44003
20
-10
30
0
11
41.841496
21
-10
31
0
39
0
210
0
220
0
230
1
0
LINE
5
53
100
AcDbEntity
8
1
62
256
6
ByLayer
370
-1
48
1
60
0
100
AcDbLine
10
41.841496
20
10
30
0
11
24.44003
21
10
31
0
39
0
210
0
220
0
230
1
0
LINE
5
54
100
AcDbEntity
8
1
62
256
6
ByLayer
370
-1
48
1
60
0
100
AcDbLine
10
41.967592
20
-10.01
30
0
11
42.945947
21
-10.01
31
0
39
0
210
0
220
0
230
1
0
LINE
5
55
100
AcDbEntity
8
1
62
256
6
ByLayer
370
-1
48
1
60
0
100
AcDbLine
10
55.0597
20
4.450391
30
0
11
55.030078
21
4.14942
31
0
39
0
210
0
220
0
230
1
0
LINE
5
56
100
AcDbEntity
8
1
62
256
6
ByLayer
370
-1
48
1
60
0
100
AcDbLine
10
62.145697
20
3.449087
30
0
11
62.175319
21
3.750058
31
0
39
0
210
0
220
0
230
1
0
LINE
5
57
100
AcDbEntity
8
1
62
256
6
ByLayer
370
-1
48
1
60
0
100
AcDbLine
10
59.139627
20
2.489391
30
0
11
59.127399
21
2.365141
31
0
39
0
210
0
220
0
230
1
0
LINE
5
58
100
AcDbEntity
8
1
62
256
6
ByLayer
370
-1
48
1
60
0
100
AcDbLine
10
57.040485
20
3.4855
30
0
11
57.080239
21
3.889419
31
0
39
0
210
0
220
0
230
1
0
LINE
5
59
100
AcDbEntity
8
1
62
256
6
ByLayer
370
-1
48
1
60
0
100
AcDbLine
10
60.146908
20
4.231045
30
0
11
60.107279
21
3.828398
31
0
39
0
210
0
220
0
230
1
0
LINE
5
5A
100
AcDbEntity
8
1
62
256
6
ByLayer
370
-1
48
1
60
0
100
AcDbLine
10
58.050497
20
5.254902
30
0
11
58.092866
21
5.685386
31
0
39
0
210
0
220
0
230
1
0
LINE
5
5B
100
AcDbEntity
8
1
62
256
6
ByLayer
370
-1
48
1
60
0
100
AcDbLine
10
64.649945
20
-4.772998
30
0
11
64.837254
21
-3.335759
31
0
39
0
210
0
220
0
230
1
0
LINE
5
5C
100
AcDbEntity
8
1
62
256
6
ByLayer
370
-1
48
1
60
0
100
AcDbLine
10
48.621695
20
3.28883
30
0
11
48.434588
21
1.853148
31
0
39
0
210
0
220
0
230
1
0
LINE
5
5D
100
AcDbEntity
8
1
62
256
6
ByLayer
370
-1
48
1
60
0
100
AcDbLine
10
51.660303
20
1.586599
30
0
11
51.55806
21
0.80208
31
0
39
0
210
0
220
0
230
1
0
LINE
5
5E
100
AcDbEntity
8
1
62
256
6
ByLayer
370
-1
48
1
60
0
100
AcDbLine
10
64.810609
20
-0.901185
30
0
11
64.979436
21
0.394235
31
0
39
0
210
0
220
0
230
1
0
LINE
5
5F
100
AcDbEntity
8
4
62
256
6
ByLayer
370
-1
48
0.05
60
0
100
AcDbLine
10
0
20
0
30
0
11
65
21
0
31
0
39
0
210
0
220
0
230
1
0
LINE
5
61
100
AcDbEntity
8
SK4
62
256
6
ByLayer
370
-1
48
0.05
60
0
100
AcDbLine
10
-35
20
0
30
0
11
70
21
0
31
0
39
0
210
0
220
0
230
1
0
LINE
5
63
100
AcDbEntity
8
80
62
256
6
ByLayer
370
-1
48
1
60
0
100
AcDbLine
10
0
20
0
30
0
11
-5
21
0
31
0
39
0
210
0
220
0
230
1
0
LINE
5
64
100
AcDbEntity
8
81
62
256
6
ByLayer
370
-1
48
1
60
0
100
AcDbLine
10
65
20
14.875
30
0
11
70
21
14.875
31
0
39
0
210
0
220
0
230
1
0
LINE
5
65
100
AcDbEntity
8
1
62
256
6
ByLayer
370
-1
48
1
60
0
100
AcDbLine
10
49.84253
20
0.791037
30
0
11
50.329758
21
1.04911
31
0
39
0
210
0
220
0
230
1
0
LINE
5
66
100
AcDbEntity
8
1
62
256
6
ByLayer
370
-1
48
1
60
0
100
AcDbLine
10
44.671324
20
-6.467091
30
0
11
44.286366
21
-9.420902
31
0
39
0
210
0
220
0
230
1
0
LINE
5
67
100
AcDbEntity
8
1
62
256
6
ByLayer
370
-1
48
1
60
0
100
AcDbLine
10
41.841496
20
9.825817
30
0
11
41.841496
21
10
31
0
39
0
210
0
220
0
230
1
0
LINE
5
68
100
AcDbEntity
8
1
62
256
6
ByLayer
370
-1
48
1
60
0
100
AcDbLine
10
11.894338
20
8.055848
30
0
11
11.894338
21
23.666502
31
0
39
0
210
0
220
0
230
1
0
LINE
5
69
100
AcDbEntity
8
1
62
256
6
ByLayer
370
-1
48
1
60
0
100
AcDbLine
10
11.461325
20
-23.83913
30
0
11
8.538675
21
-23.83913
31
0
39
0
210
0
220
0
230
1
0
LINE
5
6A
100
AcDbEntity
8
1
62
256
6
ByLayer
370
-1
48
1
60
0
100
AcDbLine
10
52.860767
20
8.084517
30
0
11
52.869152
21
8.133147
31
0
39
0
210
0
220
0
230
1
0
LINE
5
6B
100
AcDbEntity
8
1
62
256
6
ByLayer
370
-1
48
1
60
0
100
AcDbLine
10
46.693876
20
2.22586
30
0
11
47.17447
21
1.478299
31
0
39
0
210
0
220
0
230
1
0
LINE
5
6C
100
AcDbEntity
8
1
62
256
6
ByLayer
370
-1
48
1
60
0
100
AcDbLine
10
8.538675
20
23.83913
30
0
11
11.461325
21
23.83913
31
0
39
0
210
0
220
0
230
1
0
LINE
5
6D
100
AcDbEntity
8
1
62
256
6
ByLayer
370
-1
48
1
60
0
100
AcDbLine
10
8.105662
20
-23.666502
30
0
11
8.105662
21
-8.055848
31
0
39
0
210
0
220
0
230
1
0
LINE
5
6E
100
AcDbEntity
8
1
62
256
6
ByLayer
370
-1
48
1
60
0
100
AcDbLine
10
8.538675
20
7.529667
30
0
11
8.538675
21
23.83913
31
0
39
0
210
0
220
0
230
1
0
LINE
5
6F
100
AcDbEntity
8
1
62
256
6
ByLayer
370
-1
48
1
60
0
100
AcDbLine
10
61.766266
20
-4.959977
30
0
11
61.045205
21
-4.977393
31
0
39
0
210
0
220
0
230
1
0
LINE
5
70
100
AcDbEntity
8
1
62
256
6
ByLayer
370
-1
48
1
60
0
100
AcDbLine
10
50.27786
20
6.012049
30
0
11
47.694701
21
4.588043
31
0
39
0
210
0
220
0
230
1
0
LINE
5
71
100
AcDbEntity
8
1
62
256
6
ByLayer
370
-1
48
1
60
0
100
AcDbLine
10
41.841496
20
-1.323361
30
0
11
41.841496
21
-10
31
0
39
0
210
0
220
0
230
1
0
LINE
5
72
100
AcDbEntity
8
1
62
256
6
ByLayer
370
-1
48
1
60
0
100
AcDbLine
10
48.126229
20
5.518538
30
0
11
52.869152
21
8.133147
31
0
39
0
210
0
220
0
230
1
0
LINE
5
73
100
AcDbEntity
8
1
62
256
6
ByLayer
370
-1
48
1
60
0
100
AcDbLine
10
24.44003
20
-10
30
0
11
24.44003
21
0
31
0
39
0
210
0
220
0
230
1
0
LINE
5
74
100
AcDbEntity
8
1
62
256
6
ByLayer
370
-1
48
1
60
0
100
AcDbLine
10
24.44003
20
0
30
0
11
24.44003
21
10
31
0
39
0
210
0
220
0
230
1
0
LINE
5
75
100
AcDbEntity
8
1
62
256
6
ByLayer
370
-1
48
1
60
0
100
AcDbLine
10
47.090509
20
-5.40042
30
0
11
46.650802
21
-8.774316
31
0
39
0
210
0
220
0
230
1
0
LINE
5
76
100
AcDbEntity
8
1
62
256
6
ByLayer
370
-1
48
1
60
0
100
AcDbLine
10
47.715013
20
4.79442
30
0
11
47.694701
21
4.588043
31
0
39
0
210
0
220
0
230
1
0
LINE
5
77
100
AcDbEntity
8
1
62
256
6
ByLayer
370
-1
48
1
60
0
100
AcDbLine
10
47.804882
20
4.512777
30
0
11
50.151725
21
5.80651
31
0
39
0
210
0
220
0
230
1
0
LINE
5
78
100
AcDbEntity
8
1
62
256
6
ByLayer
370
-1
48
1
60
0
100
AcDbLine
10
63.551507
20
-8.774316
30
0
11
46.650802
21
-8.774316
31
0
39
0
210
0
220
0
230
1
0
LINE
5
79
100
AcDbEntity
8
1
62
256
6
ByLayer
370
-1
48
1
60
0
100
AcDbLine
10
61.643097
20
-7.218872
30
0
11
61.438169
21
-7.269276
31
0
39
0
210
0
220
0
230
1
0
LINE
5
7A
100
AcDbEntity
8
1
62
256
6
ByLayer
370
-1
48
1
60
0
100
AcDbLine
10
54.652275
20
9.082189
30
0
11
53.142878
21
9.09214
31
0
39
0
210
0
220
0
230
1
0
LINE
5
7B
100
AcDbEntity
8
1
62
256
6
ByLayer
370
-1
48
1
60
0
100
AcDbLine
10
11.461325
20
7.529667
30
0
11
8.538675
21
7.529667
31
0
39
0
210
0
220
0
230
1
0
LINE
5
7C
100
AcDbEntity
8
1
62
256
6
ByLayer
370
-1
48
1
60
0
100
AcDbLine
10
47.540858
20
6.595301
30
0
11
47.828763
21
5.693442
31
0
39
0
210
0
220
0
230
1
0
LINE
5
7D
100
AcDbEntity
8
1
62
256
6
ByLayer
370
-1
48
1
60
0
100
AcDbLine
10
52.155294
20
10.592834
30
0
11
52.869152
21
10.14768
31
0
39
0
210
0
220
0
230
1
0
LINE
5
7E
100
AcDbEntity
8
1
62
256
6
ByLayer
370
-1
48
1
60
0
100
AcDbLine
10
53.142878
20
9.09214
30
0
11
53.142878
21
8.30013
31
0
39
0
210
0
220
0
230
1
0
LINE
5
7F
100
AcDbEntity
8
1
62
256
6
ByLayer
370
-1
48
1
60
0
100
AcDbLine
10
42.116335
20
4.180349
30
0
11
38.991739
21
9.438151
31
0
39
0
210
0
220
0
230
1
0
LINE
5
80
100
AcDbEntity
8
1
62
256
6
ByLayer
370
-1
48
1
60
0
100
AcDbLine
10
50.329758
20
1.04911
30
0
11
61.045205
21
-4.977393
31
0
39
0
210
0
220
0
230
1
0
LINE
5
81
100
AcDbEntity
8
1
62
256
6
ByLayer
370
-1
48
1
60
0
100
AcDbLine
10
61.045205
20
-6.026961
30
0
11
61.045205
21
-4.977393
31
0
39
0
210
0
220
0
230
1
0
LINE
5
82
100
AcDbEntity
8
1
62
256
6
ByLayer
370
-1
48
1
60
0
100
AcDbLine
10
52.117165
20
9.08917
30
0
11
52.869152
21
8.133147
31
0
39
0
210
0
220
0
230
1
0
LINE
5
83
100
AcDbEntity
8
1
62
256
6
ByLayer
370
-1
48
1
60
0
100
AcDbLine
10
61.766266
20
-6.476607
30
0
11
61.643097
21
-7.218872
31
0
39
0
210
0
220
0
230
1
0
LINE
5
84
100
AcDbEntity
8
1
62
256
6
ByLayer
370
-1
48
1
60
0
100
AcDbLine
10
61.045205
20
-6.026961
30
0
11
49.27399
21
-5.924196
31
0
39
0
210
0
220
0
230
1
0
LINE
5
85
100
AcDbEntity
8
1
62
256
6
ByLayer
370
-1
48
1
60
0
100
AcDbLine
10
61.41525
20
-7.502137
30
0
11
61.512671
21
-7.52867
31
0
39
0
210
0
220
0
230
1
0
LINE
5
86
100
AcDbEntity
8
1
62
256
6
ByLayer
370
-1
48
1
60
0
100
AcDbLine
10
49.27399
20
-5.924196
30
0
11
39.922205
21
9.812187
31
0
39
0
210
0
220
0
230
1
0
LINE
5
87
100
AcDbEntity
8
1
62
256
6
ByLayer
370
-1
48
1
60
0
100
AcDbLine
10
63.711958
20
-7.54317
30
0
11
61.512671
21
-7.52867
31
0
39
0
210
0
220
0
230
1
0
LINE
5
88
100
AcDbEntity
8
1
62
256
6
ByLayer
370
-1
48
1
60
0
100
AcDbLine
10
51.141042
20
1.037446
30
0
11
50.329758
21
1.04911
31
0
39
0
210
0
220
0
230
1
0
LINE
5
89
100
AcDbEntity
8
1
62
256
6
ByLayer
370
-1
48
1
60
0
100
AcDbLine
10
52.155294
20
10.592834
30
0
11
42.768733
21
10.592834
31
0
39
0
210
0
220
0
230
1
0
LINE
5
8A
100
AcDbEntity
8
1
62
256
6
ByLayer
370
-1
48
1
60
0
100
AcDbLine
10
47.929591
20
-5.6017
30
0
11
44.049727
21
0.927004
31
0
39
0
210
0
220
0
230
1
0
LINE
5
8B
100
AcDbEntity
8
1
62
256
6
ByLayer
370
-1
48
1
60
0
100
AcDbLine
10
41.967592
20
-10.01
30
0
11
41.967592
21
-1.466726
31
0
39
0
210
0
220
0
230
1
0
LINE
5
8C
100
AcDbEntity
8
1
62
256
6
ByLayer
370
-1
48
1
60
0
100
AcDbLine
10
11.461325
20
7.529667
30
0
11
11.461325
21
23.83913
31
0
39
0
210
0
220
0
230
1
0
LINE
5
8D
100
AcDbEntity
8
1
62
256
6
ByLayer
370
-1
48
1
60
0
100
AcDbLine
10
47.643971
20
4.55892
30
0
11
47.666912
21
4.792002
31
0
39
0
210
0
220
0
230
1
0
LINE
5
8E
100
AcDbEntity
8
1
62
256
6
ByLayer
370
-1
48
1
60
0
100
AcDbLine
10
61.512671
20
-7.52867
30
0
11
61.512671
21
-7.250941
31
0
39
0
210
0
220
0
230
1
0
LINE
5
8F
100
AcDbEntity
8
1
62
256
6
ByLayer
370
-1
48
1
60
0
100
AcDbLine
10
8.538675
20
-7.529667
30
0
11
11.461325
21
-7.529667
31
0
39
0
210
0
220
0
230
1
0
LINE
5
90
100
AcDbEntity
8
1
62
256
6
ByLayer
370
-1
48
1
60
0
100
AcDbLine
10
61.045205
20
-6.026961
30
0
11
61.766266
21
-6.476607
31
0
39
0
210
0
220
0
230
1
0
LINE
5
91
100
AcDbEntity
8
1
62
256
6
ByLayer
370
-1
48
1
60
0
100
AcDbLine
10
0.3
20
-25
30
0
11
0.3
21
0
31
0
39
0
210
0
220
0
230
1
0
LINE
5
92
100
AcDbEntity
8
1
62
256
6
ByLayer
370
-1
48
1
60
0
100
AcDbLine
10
0.3
20
0
30
0
11
0.3
21
25
31
0
39
0
210
0
220
0
230
1
0
LINE
5
93
100
AcDbEntity
8
1
62
256
6
ByLayer
370
-1
48
1
60
0
100
AcDbLine
10
52.117165
20
9.08917
30
0
11
47.540858
21
6.595301
31
0
39
0
210
0
220
0
230
1
0
LINE
5
94
100
AcDbEntity
8
1
62
256
6
ByLayer
370
-1
48
1
60
0
100
AcDbLine
10
61.766266
20
-6.476607
30
0
11
61.766266
21
-4.959977
31
0
39
0
210
0
220
0
230
1
0
LINE
5
95
100
AcDbEntity
8
1
62
256
6
ByLayer
370
-1
48
1
60
0
100
AcDbLine
10
47.983577
20
4.792685
30
0
11
50.320088
21
6.080723
31
0
39
0
210
0
220
0
230
1
0
LINE
5
96
100
AcDbEntity
8
1
62
256
6
ByLayer
370
-1
48
1
60
0
100
AcDbLine
10
11.461325
20
-23.83913
30
0
11
11.461325
21
-7.529667
31
0
39
0
210
0
220
0
230
1
0
LINE
5
97
100
AcDbEntity
8
1
62
256
6
ByLayer
370
-1
48
1
60
0
100
AcDbLine
10
8.538675
20
-23.83913
30
0
11
8.538675
21
-7.529667
31
0
39
0
210
0
220
0
230
1
0
LINE
5
98
100
AcDbEntity
8
1
62
256
6
ByLayer
370
-1
48
1
60
0
100
AcDbLine
10
52.117165
20
9.08917
30
0
11
52.117165
21
10.581258
31
0
39
0
210
0
220
0
230
1
0
LINE
5
99
100
AcDbEntity
8
1
62
256
6
ByLayer
370
-1
48
1
60
0
100
AcDbLine
10
64.311763
20
-6.967569
30
0
11
64.132388
21
-8.343929
31
0
39
0
210
0
220
0
230
1
0
LINE
5
9A
100
AcDbEntity
8
1
62
256
6
ByLayer
370
-1
48
1
60
0
100
AcDbLine
10
64.311763
20
-1.703355
30
0
11
64.311763
21
-2.431072
31
0
39
0
210
0
220
0
230
1
0
LINE
5
9B
100
AcDbEntity
8
1
62
256
6
ByLayer
370
-1
48
1
60
0
100
AcDbLine
10
64.311763
20
-5.042236
30
0
11
64.311763
21
-6.967569
31
0
39
0
210
0
220
0
230
1
0
LINE
5
9C
100
AcDbEntity
8
1
62
256
6
ByLayer
370
-1
48
1
60
0
100
AcDbLine
10
47.929591
20
-5.6017
30
0
11
47.090509
21
-5.40042
31
0
39
0
210
0
220
0
230
1
0
LINE
5
9D
100
AcDbEntity
8
1
62
256
6
ByLayer
370
-1
48
1
60
0
100
AcDbLine
10
61.438169
20
-7.269276
30
0
11
61.41525
21
-7.502137
31
0
39
0
210
0
220
0
230
1
0
LINE
5
9E
100
AcDbEntity
8
1
62
256
6
ByLayer
370
-1
48
1
60
0
100
AcDbLine
10
23.280919
20
-10.889417
30
0
11
23.280919
21
10.889417
31
0
39
0
210
0
220
0
230
1
0
LINE
5
9F
100
AcDbEntity
8
1
62
256
6
ByLayer
370
-1
48
1
60
0
100
AcDbLine
10
42.768733
20
10.534156
30
0
11
42.768733
21
10.592834
31
0
39
0
210
0
220
0
230
1
0
LINE
5
A0
100
AcDbEntity
8
1
62
256
6
ByLayer
370
-1
48
1
60
0
100
AcDbLine
10
19.5
20
-25
30
0
11
19.5
21
0
31
0
39
0
210
0
220
0
230
1
0
LINE
5
A1
100
AcDbEntity
8
1
62
256
6
ByLayer
370
-1
48
1
60
0
100
AcDbLine
10
19.5
20
0
30
0
11
19.5
21
25
31
0
39
0
210
0
220
0
230
1
0
LINE
5
A2
100
AcDbEntity
8
1
62
256
6
ByLayer
370
-1
48
1
60
0
100
AcDbLine
10
52.869152
20
10.14768
30
0
11
52.869152
21
8.133147
31
0
39
0
210
0
220
0
230
1
0
LINE
5
A3
100
AcDbEntity
8
1
62
256
6
ByLayer
370
-1
48
1
60
0
100
AcDbLine
10
11.894338
20
-23.666502
30
0
11
11.894338
21
-8.055848
31
0
39
0
210
0
220
0
230
1
0
LINE
5
A4
100
AcDbEntity
8
1
62
256
6
ByLayer
370
-1
48
1
60
0
100
AcDbLine
10
61.766266
20
-4.959977
30
0
11
56.453654
21
-1.961265
31
0
39
0
210
0
220
0
230
1
0
LINE
5
A5
100
AcDbEntity
8
1
62
256
6
ByLayer
370
-1
48
1
60
0
100
AcDbLine
10
52.120389
20
0.484653
30
0
11
51.141042
21
1.037446
31
0
39
0
210
0
220
0
230
1
0
LINE
5
A6
100
AcDbEntity
8
1
62
256
6
ByLayer
370
-1
48
1
60
0
100
AcDbLine
10
63.551507
20
-8.774316
30
0
11
63.711958
21
-7.54317
31
0
39
0
210
0
220
0
230
1
0
LINE
5
A7
100
AcDbEntity
8
1
62
256
6
ByLayer
370
-1
48
1
60
0
100
AcDbLine
10
0
20
-24.7
30
0
11
0
21
24.7
31
0
39
0
210
0
220
0
230
1
0
LINE
5
A8
100
AcDbEntity
8
1
62
256
6
ByLayer
370
-1
48
1
60
0
100
AcDbLine
10
63.711958
20
-7.54317
30
0
11
64.311763
21
-6.967569
31
0
39
0
210
0
220
0
230
1
0
LINE
5
A9
100
AcDbEntity
8
1
62
256
6
ByLayer
370
-1
48
1
60
0
100
AcDbLine
10
42.454332
20
10.285637
30
0
11
42.454332
21
10.135108
31
0
39
0
210
0
220
0
230
1
0
LINE
5
AA
100
AcDbEntity
8
1
62
256
6
ByLayer
370
-1
48
1
60
0
100
AcDbLine
10
8.105662
20
8.055848
30
0
11
8.105662
21
23.666502
31
0
39
0
210
0
220
0
230
1
0
LINE
5
AB
100
AcDbEntity
8
1
62
256
6
ByLayer
370
-1
48
1
60
0
100
AcDbLine
10
61.766315
20
-5.057491
30
0
11
64.403127
21
-5.041924
31
0
39
0
210
0
220
0
230
1
0
LINE
5
AC
100
AcDbEntity
8
1
62
256
6
ByLayer
370
-1
48
1
60
0
100
AcDbLine
10
60.197131
20
-3.877779
30
0
11
60.173276
21
-4.060818
31
0
39
0
210
0
220
0
230
1
0
LINE
5
AD
100
AcDbEntity
8
1
62
256
6
ByLayer
370
-1
48
1
60
0
100
AcDbLine
10
52.160621
20
0.750539
30
0
11
52.125582
21
0.481678
31
0
39
0
210
0
220
0
230
1
0
LINE
5
AE
100
AcDbEntity
8
1
62
256
6
ByLayer
370
-1
48
1
60
0
100
AcDbLine
10
60.049324
20
-3.990855
30
0
11
60.068419
21
-3.844331
31
0
39
0
210
0
220
0
230
1
0
LINE
5
AF
100
AcDbEntity
8
1
62
256
6
ByLayer
370
-1
48
1
60
0
100
AcDbLine
10
63.687956
20
-1.177358
30
0
11
63.661608
21
-1.379523
31
0
39
0
210
0
220
0
230
1
0
LINE
5
B0
100
AcDbEntity
8
1
62
256
6
ByLayer
370
-1
48
1
60
0
100
AcDbLine
10
64.050933
20
-0.572909
30
0
11
63.895322
21
-1.76692
31
0
39
0
210
0
220
0
230
1
0
LINE
5
B1
100
AcDbEntity
8
1
62
256
6
ByLayer
370
-1
48
1
60
0
100
AcDbLine
10
52.029572
20
0.535909
30
0
11
52.069167
21
0.839726
31
0
39
0
210
0
220
0
230
1
0
LINE
5
B2
100
AcDbEntity
8
1
62
256
6
ByLayer
370
-1
48
1
60
0
100
AcDbLine
10
51.679215
20
1.495903
30
0
11
51.586685
21
0.785912
31
0
39
0
210
0
220
0
230
1
0
LINE
5
B3
100
AcDbEntity
8
1
62
256
6
ByLayer
370
-1
48
1
60
0
100
AcDbLine
10
51.730921
20
2.022065
30
0
11
51.682364
21
1.649485
31
0
39
0
210
0
220
0
230
1
0
LINE
5
B4
100
AcDbEntity
8
1
62
256
6
ByLayer
370
-1
48
1
60
0
100
AcDbLine
10
51.200226
20
1.345942
30
0
11
51.505966
21
0.831468
31
0
39
0
210
0
220
0
230
1
0
LINE
5
B5
100
AcDbEntity
8
SK1
62
256
6
ByLayer
370
-1
48
1
60
0
100
AcDbLine
10
-0.2
20
17.833485
30
0
11
-0.2
21
5.881425
31
0
39
0
210
0
220
0
230
1
0
LINE
5
B7
100
AcDbEntity
8
SK1
62
256
6
ByLayer
370
-1
48
1
60
0
100
AcDbLine
10
-0.2
20
-5.881424
30
0
11
-0.2
21
-17.833485
31
0
39
0
210
0
220
0
230
1
0
LINE
5
B8
100
AcDbEntity
8
SK1
62
256
6
ByLayer
370
-1
48
1
60
0
100
AcDbLine
10
-30
20
-15.939791
30
0
11
-30
21
15.941288
31
0
39
0
210
0
220
0
230
1
0
LINE
5
B9
100
AcDbEntity
8
1
62
256
6
ByLayer
370
-1
48
1
60
0
100
AcDbLine
10
59.145526
20
2.401712
30
0
11
59.148753
21
2.434499
31
0
39
0
210
0
220
0
230
1
0
LINE
5
BA
100
AcDbEntity
8
1
62
256
6
ByLayer
370
-1
48
1
60
0
100
AcDbLine
10
58.221821
20
2.400087
30
0
11
58.223988
21
2.422099
31
0
39
0
210
0
220
0
230
1
0
LINE
5
BB
100
AcDbEntity
8
1
62
256
6
ByLayer
370
-1
48
1
60
0
100
AcDbLine
10
56.870058
20
3.283069
30
0
11
56.900581
21
3.593197
31
0
39
0
210
0
220
0
230
1
0
LINE
5
BC
100
AcDbEntity
8
1
62
256
6
ByLayer
370
-1
48
1
60
0
100
AcDbLine
10
59.136097
20
2.376364
30
0
11
59.143406
21
2.450625
31
0
39
0
210
0
220
0
230
1
0
LINE
5
BD
100
AcDbEntity
8
1
62
256
6
ByLayer
370
-1
48
1
60
0
100
AcDbLine
10
56.885357
20
3.250211
30
0
11
56.919472
21
3.59683
31
0
39
0
210
0
220
0
230
1
0
LINE
5
BE
100
AcDbEntity
8
1
62
256
6
ByLayer
370
-1
48
1
60
0
100
AcDbLine
10
58.966809
20
5.329026
30
0
11
59.009842
21
5.766254
31
0
39
0
210
0
220
0
230
1
0
LINE
5
BF
100
AcDbEntity
8
1
62
256
6
ByLayer
370
-1
48
1
60
0
100
AcDbLine
10
60.307106
20
3.266043
30
0
11
60.350139
21
3.70327
31
0
39
0
210
0
220
0
230
1
0
LINE
5
C0
100
AcDbEntity
8
1
62
256
6
ByLayer
370
-1
48
1
60
0
100
AcDbLine
10
57.269366
20
4.83168
30
0
11
57.312399
21
5.268907
31
0
39
0
210
0
220
0
230
1
0
LINE
5
C1
100
AcDbEntity
8
1
62
256
6
ByLayer
370
-1
48
1
60
0
100
AcDbLine
10
57.253666
20
4.844437
30
0
11
57.296999
21
5.284715
31
0
39
0
210
0
220
0
230
1
0
LINE
5
C2
100
AcDbEntity
8
1
62
256
6
ByLayer
370
-1
48
1
60
0
100
AcDbLine
10
60.326788
20
3.260564
30
0
11
60.370121
21
3.700843
31
0
39
0
210
0
220
0
230
1
0
LINE
5
C3
100
AcDbEntity
8
1
62
256
6
ByLayer
370
-1
48
1
60
0
100
AcDbLine
10
59.79525
20
4.923292
30
0
11
59.838583
21
5.363571
31
0
39
0
210
0
220
0
230
1
0
LINE
5
C4
100
AcDbEntity
8
1
62
256
6
ByLayer
370
-1
48
1
60
0
100
AcDbLine
10
60.307106
20
3.266043
30
0
11
60.326788
21
3.260564
31
0
39
0
210
0
220
0
230
1
0
LINE
5
C5
100
AcDbEntity
8
1
62
256
6
ByLayer
370
-1
48
1
60
0
100
AcDbLine
10
59.780615
20
4.909594
30
0
11
59.823648
21
5.346822
31
0
39
0
210
0
220
0
230
1
0
LINE
5
C6
100
AcDbEntity
8
1
62
256
6
ByLayer
370
-1
48
1
60
0
100
AcDbLine
10
59.780615
20
4.909594
30
0
11
59.79525
21
4.923292
31
0
39
0
210
0
220
0
230
1
0
LINE
5
C7
100
AcDbEntity
8
1
62
256
6
ByLayer
370
-1
48
1
60
0
100
AcDbLine
10
57.253666
20
4.844437
30
0
11
57.269366
21
4.83168
31
0
39
0
210
0
220
0
230
1
0
LINE
5
C8
100
AcDbEntity
8
1
62
256
6
ByLayer
370
-1
48
1
60
0
100
AcDbLine
10
64.986773
20
4.983465
30
0
11
64.196098
21
4.374264
31
0
39
0
210
0
220
0
230
1
0
LINE
5
C9
100
AcDbEntity
8
1
62
256
6
ByLayer
370
-1
48
1
60
0
100
AcDbLine
10
55.841658
20
-0.367197
30
0
11
56.055283
21
-1.404102
31
0
39
0
210
0
220
0
230
1
0
LINE
5
CA
100
AcDbEntity
8
1
62
256
6
ByLayer
370
-1
48
1
60
0
100
AcDbLine
10
48.681406
20
1.536506
30
0
11
50.962113
21
1.483219
31
0
39
0
210
0
220
0
230
1
0
LINE
5
CB
100
AcDbEntity
8
1
62
256
6
ByLayer
370
-1
48
1
60
0
100
AcDbLine
10
48.831596
20
3.191115
30
0
11
48.815056
21
3.163561
31
0
39
0
210
0
220
0
230
1
0
LINE
5
CC
100
AcDbEntity
8
1
62
256
6
ByLayer
370
-1
48
1
60
0
100
AcDbLine
10
64.814687
20
-3.399813
30
0
11
64.62725
21
-4.838029
31
0
39
0
210
0
220
0
230
1
0
LINE
5
CD
100
AcDbEntity
8
1
62
256
6
ByLayer
370
-1
48
1
60
0
100
AcDbLine
10
48.793629
20
3.199617
30
0
11
48.815056
21
3.163561
31
0
39
0
210
0
220
0
230
1
0
LINE
5
CE
100
AcDbEntity
8
1
62
256
6
ByLayer
370
-1
48
1
60
0
100
AcDbLine
10
62.726096
20
13.163459
30
0
11
64.74502
21
9.593111
31
0
39
0
210
0
220
0
230
1
0
LINE
5
CF
100
AcDbEntity
8
1
62
256
6
ByLayer
370
-1
48
1
60
0
100
AcDbLine
10
50.334451
20
5.498428
30
0
11
51.545398
21
4.737182
31
0
39
0
210
0
220
0
230
1
0
LINE
5
D0
100
AcDbEntity
8
1
62
256
6
ByLayer
370
-1
48
1
60
0
100
AcDbLine
10
48.642584
20
3.348043
30
0
11
50.556734
21
6.46629
31
0
39
0
210
0
220
0
230
1
0
LINE
5
D1
100
AcDbEntity
8
1
62
256
6
ByLayer
370
-1
48
1
60
0
100
AcDbLine
10
55.841658
20
9.052015
30
0
11
54.881083
21
9.229906
31
0
39
0
210
0
220
0
230
1
0
LINE
5
D2
100
AcDbEntity
8
1
62
256
6
ByLayer
370
-1
48
1
60
0
100
AcDbLine
10
64.821752
20
9.46303
30
0
11
64.932246
21
9.283402
31
0
39
0
210
0
220
0
230
1
0
LINE
5
D3
100
AcDbEntity
8
1
62
256
6
ByLayer
370
-1
48
1
60
0
100
AcDbLine
10
51.78275
20
4.337787
30
0
11
51.810088
21
3.015352
31
0
39
0
210
0
220
0
230
1
0
LINE
5
D4
100
AcDbEntity
8
1
62
256
6
ByLayer
370
-1
48
1
60
0
100
AcDbLine
10
50.556734
20
6.46629
30
0
11
51.615622
21
4.684484
31
0
39
0
210
0
220
0
230
1
0
LINE
5
D5
100
AcDbEntity
8
1
62
256
6
ByLayer
370
-1
48
1
60
0
100
AcDbLine
10
51.131063
20
2.77958
30
0
11
48.868051
21
2.968646
31
0
39
0
210
0
220
0
230
1
0
LINE
5
D6
100
AcDbEntity
8
1
62
256
6
ByLayer
370
-1
48
1
60
0
100
AcDbLine
10
64.779088
20
-0.991507
30
0
11
64.947915
21
0.303913
31
0
39
0
210
0
220
0
230
1
0
LINE
5
D7
100
AcDbEntity
8
1
62
256
6
ByLayer
370
-1
48
1
60
0
100
AcDbLine
10
56.255111
20
8.850136
30
0
11
56.741976
21
8.358624
31
0
39
0
210
0
220
0
230
1
0
LINE
5
D8
100
AcDbEntity
8
1
62
256
6
ByLayer
370
-1
48
1
60
0
100
AcDbLine
10
54.625273
20
6.401555
30
0
11
53.965421
21
7.067705
31
0
39
0
210
0
220
0
230
1
0
LINE
5
D9
100
AcDbEntity
8
1
62
256
6
ByLayer
370
-1
48
1
60
0
100
AcDbLine
10
51.316094
20
3.213137
30
0
11
49.291263
21
3.382304
31
0
39
0
210
0
220
0
230
1
0
LINE
5
DA
100
AcDbEntity
8
1
62
256
6
ByLayer
370
-1
48
1
60
0
100
AcDbLine
10
56.005099
20
0.827715
30
0
11
55.811913
21
0.178268
31
0
39
0
210
0
220
0
230
1
0
LINE
5
DB
100
AcDbEntity
8
1
62
256
6
ByLayer
370
-1
48
1
60
0
100
AcDbLine
10
62.618736
20
13.048701
30
0
11
64.036716
21
10.541088
31
0
39
0
210
0
220
0
230
1
0
LINE
5
DC
100
AcDbEntity
8
1
62
256
6
ByLayer
370
-1
48
1
60
0
100
AcDbLine
10
64.14181
20
-3.285363
30
0
11
64.527148
21
-3.446307
31
0
39
0
210
0
220
0
230
1
0
LINE
5
DD
100
AcDbEntity
8
1
62
256
6
ByLayer
370
-1
48
1
60
0
100
AcDbLine
10
61.42782
20
10.675006
30
0
11
62.490745
21
12.480442
31
0
39
0
210
0
220
0
230
1
0
LINE
5
DE
100
AcDbEntity
8
1
62
256
6
ByLayer
370
-1
48
1
60
0
100
AcDbLine
10
48.910589
20
3.103506
30
0
11
48.927129
21
3.131059
31
0
39
0
210
0
220
0
230
1
0
LINE
5
DF
100
AcDbEntity
8
1
62
256
6
ByLayer
370
-1
48
1
60
0
100
AcDbLine
10
48.791472
20
3.303945
30
0
11
50.135864
21
5.494028
31
0
39
0
210
0
220
0
230
1
0
LINE
5
E0
100
AcDbEntity
8
1
62
256
6
ByLayer
370
-1
48
1
60
0
100
AcDbLine
10
56.788977
20
8.407403
30
0
11
56.302111
21
8.898915
31
0
39
0
210
0
220
0
230
1
0
LINE
5
E1
100
AcDbEntity
8
1
62
256
6
ByLayer
370
-1
48
1
60
0
100
AcDbLine
10
62.521539
20
13.105985
30
0
11
62.499348
21
13.069042
31
0
39
0
210
0
220
0
230
1
0
LINE
5
E2
100
AcDbEntity
8
1
62
256
6
ByLayer
370
-1
48
1
60
0
100
AcDbLine
10
55.936012
20
9.670016
30
0
11
58.474753
21
11.15834
31
0
39
0
210
0
220
0
230
1
0
LINE
5
E3
100
AcDbEntity
8
1
62
256
6
ByLayer
370
-1
48
1
60
0
100
AcDbLine
10
64.274164
20
-0.431683
30
0
11
64.98139
21
0.746027
31
0
39
0
210
0
220
0
230
1
0
LINE
5
E4
100
AcDbEntity
8
1
62
256
6
ByLayer
370
-1
48
1
60
0
100
AcDbLine
10
53.532714
20
8.468402
30
0
11
55.219095
21
6.765926
31
0
39
0
210
0
220
0
230
1
0
LINE
5
E5
100
AcDbEntity
8
1
62
256
6
ByLayer
370
-1
48
1
60
0
100
AcDbLine
10
64.74502
20
9.593111
30
0
11
62.627243
21
9.6116
31
0
39
0
210
0
220
0
230
1
0
LINE
5
E6
100
AcDbEntity
8
1
62
256
6
ByLayer
370
-1
48
1
60
0
100
AcDbLine
10
63.19507
20
3.902111
30
0
11
63.875121
21
4.060046
31
0
39
0
210
0
220
0
230
1
0
LINE
5
E7
100
AcDbEntity
8
1
62
256
6
ByLayer
370
-1
48
1
60
0
100
AcDbLine
10
64.265374
20
-0.432977
30
0
11
64.096611
21
-1.727904
31
0
39
0
210
0
220
0
230
1
0
LINE
5
E8
100
AcDbEntity
8
1
62
256
6
ByLayer
370
-1
48
1
60
0
100
AcDbLine
10
62.469634
20
10.061005
30
0
11
61.42782
21
10.675006
31
0
39
0
210
0
220
0
230
1
0
LINE
5
E9
100
AcDbEntity
8
1
62
256
6
ByLayer
370
-1
48
1
60
0
100
AcDbLine
10
64.589772
20
-3.609783
30
0
11
64.403127
21
-5.041924
31
0
39
0
210
0
220
0
230
1
0
LINE
5
EA
100
AcDbEntity
8
1
62
256
6
ByLayer
370
-1
48
1
60
0
100
AcDbLine
10
55.872878
20
0.154563
30
0
11
56.066064
21
0.80401
31
0
39
0
210
0
220
0
230
1
0
LINE
5
EB
100
AcDbEntity
8
1
62
256
6
ByLayer
370
-1
48
1
60
0
100
AcDbLine
10
51.730921
20
2.022065
30
0
11
51.367944
21
2.632852
31
0
39
0
210
0
220
0
230
1
0
LINE
5
EC
100
AcDbEntity
8
1
62
256
6
ByLayer
370
-1
48
1
60
0
100
AcDbLine
10
62.090294
20
-3.322099
30
0
11
62.102856
21
-2.204163
31
0
39
0
210
0
220
0
230
1
0
LINE
5
ED
100
AcDbEntity
8
1
62
256
6
ByLayer
370
-1
48
1
60
0
100
AcDbLine
10
64.664332
20
-3.275804
30
0
11
64.624837
21
-3.283629
31
0
39
0
210
0
220
0
230
1
0
LINE
5
EE
100
AcDbEntity
8
1
62
256
6
ByLayer
370
-1
48
1
60
0
100
AcDbLine
10
54.961238
20
-0.945231
30
0
11
52.448855
21
0.58719
31
0
39
0
210
0
220
0
230
1
0
LINE
5
EF
100
AcDbEntity
8
1
62
256
6
ByLayer
370
-1
48
1
60
0
100
AcDbLine
10
49.291263
20
3.382304
30
0
11
50.269003
21
4.975092
31
0
39
0
210
0
220
0
230
1
0
LINE
5
F0
100
AcDbEntity
8
1
62
256
6
ByLayer
370
-1
48
1
60
0
100
AcDbLine
10
63.687097
20
-1.434787
30
0
11
64.815239
21
-3.234323
31
0
39
0
210
0
220
0
230
1
0
LINE
5
F1
100
AcDbEntity
8
1
62
256
6
ByLayer
370
-1
48
1
60
0
100
AcDbLine
10
63.522003
20
10.656723
30
0
11
62.469634
21
10.061005
31
0
39
0
210
0
220
0
230
1
0
LINE
5
F2
100
AcDbEntity
8
1
62
256
6
ByLayer
370
-1
48
1
60
0
100
AcDbLine
10
59.889205
20
11.145991
30
0
11
59.89429
21
11.138588
31
0
39
0
210
0
220
0
230
1
0
LINE
5
F3
100
AcDbEntity
8
1
62
256
6
ByLayer
370
-1
48
1
60
0
100
AcDbLine
10
51.292977
20
4.331385
30
0
11
51.316094
21
3.213137
31
0
39
0
210
0
220
0
230
1
0
LINE
5
F4
100
AcDbEntity
8
1
62
256
6
ByLayer
370
-1
48
1
60
0
100
AcDbLine
10
62.521539
20
13.105985
30
0
11
62.478685
21
13.106359
31
0
39
0
210
0
220
0
230
1
0
LINE
5
F5
100
AcDbEntity
8
1
62
256
6
ByLayer
370
-1
48
1
60
0
100
AcDbLine
10
48.64472
20
3.182529
30
0
11
48.457283
21
1.744313
31
0
39
0
210
0
220
0
230
1
0
LINE
5
F6
100
AcDbEntity
8
1
62
256
6
ByLayer
370
-1
48
1
60
0
100
AcDbLine
10
51.741629
20
1.777249
30
0
11
52.448855
21
0.58719
31
0
39
0
210
0
220
0
230
1
0
LINE
5
F7
100
AcDbEntity
8
1
62
256
6
ByLayer
370
-1
48
1
60
0
100
AcDbLine
10
60.563707
20
-3.871211
30
0
11
61.622596
21
-2.107893
31
0
39
0
210
0
220
0
230
1
0
LINE
5
F8
100
AcDbEntity
8
1
62
256
6
ByLayer
370
-1
48
1
60
0
100
AcDbLine
10
60.119817
20
11.016872
30
0
11
60.845772
21
11.010534
31
0
39
0
210
0
220
0
230
1
0
LINE
5
F9
100
AcDbEntity
8
1
62
256
6
ByLayer
370
-1
48
1
60
0
100
AcDbLine
10
64.239499
20
-3.122685
30
0
11
63.230093
21
-1.512548
31
0
39
0
210
0
220
0
230
1
0
LINE
5
FA
100
AcDbEntity
8
1
62
256
6
ByLayer
370
-1
48
1
60
0
100
AcDbLine
10
63.620833
20
10.712299
30
0
11
62.589575
21
12.536018
31
0
39
0
210
0
220
0
230
1
0
LINE
5
FB
100
AcDbEntity
8
1
62
256
6
ByLayer
370
-1
48
1
60
0
100
AcDbLine
10
64.545216
20
-3.474163
30
0
11
61.717532
21
-3.657776
31
0
39
0
210
0
220
0
230
1
0
LINE
5
FC
100
AcDbEntity
8
1
62
256
6
ByLayer
370
-1
48
1
60
0
100
AcDbLine
10
58.474753
20
11.15834
30
0
11
58.762987
21
11.316656
31
0
39
0
210
0
220
0
230
1
0
LINE
5
FD
100
AcDbEntity
8
1
62
256
6
ByLayer
370
-1
48
1
60
0
100
AcDbLine
10
54.881083
20
9.229906
30
0
11
55.451854
21
9.427087
31
0
39
0
210
0
220
0
230
1
0
LINE
5
FE
100
AcDbEntity
8
1
62
256
6
ByLayer
370
-1
48
1
60
0
100
AcDbLine
10
59.789197
20
11.280198
30
0
11
59.889205
21
11.145991
31
0
39
0
210
0
220
0
230
1
0
LINE
5
FF
100
AcDbEntity
8
1
62
256
6
ByLayer
370
-1
48
1
60
0
100
AcDbLine
10
61.598865
20
-3.511281
30
0
11
61.61372
21
-2.189215
31
0
39
0
210
0
220
0
230
1
0
LINE
5
100
100
AcDbEntity
8
1
62
256
6
ByLayer
370
-1
48
1
60
0
100
AcDbLine
10
51.367944
20
2.632852
30
0
11
51.200226
21
1.345942
31
0
39
0
210
0
220
0
230
1
0
LINE
5
101
100
AcDbEntity
8
1
62
256
6
ByLayer
370
-1
48
1
60
0
100
AcDbLine
10
58.894637
20
-0.004573
30
0
11
58.632811
21
-0.884773
31
0
39
0
210
0
220
0
230
1
0
LINE
5
102
100
AcDbEntity
8
1
62
256
6
ByLayer
370
-1
48
1
60
0
100
AcDbLine
10
62.596546
20
13.011758
30
0
11
62.618736
21
13.048701
31
0
39
0
210
0
220
0
230
1
0
LINE
5
103
100
AcDbEntity
8
1
62
256
6
ByLayer
370
-1
48
1
60
0
100
AcDbLine
10
64.664332
20
-3.275804
30
0
11
63.276399
21
-1.061867
31
0
39
0
210
0
220
0
230
1
0
LINE
5
104
100
AcDbEntity
8
1
62
256
6
ByLayer
370
-1
48
1
60
0
100
AcDbLine
10
64.389137
20
-1.640875
30
0
11
64.779088
21
-0.991507
31
0
39
0
210
0
220
0
230
1
0
LINE
5
105
100
AcDbEntity
8
1
62
256
6
ByLayer
370
-1
48
1
60
0
100
AcDbLine
10
56.855967
20
0.406594
30
0
11
56.273395
21
-1.551878
31
0
39
0
210
0
220
0
230
1
0
LINE
5
106
100
AcDbEntity
8
1
62
256
6
ByLayer
370
-1
48
1
60
0
100
AcDbLine
10
64.443644
20
-0.416124
30
0
11
64.274817
21
-1.711544
31
0
39
0
210
0
220
0
230
1
0
LINE
5
107
100
AcDbEntity
8
1
62
256
6
ByLayer
370
-1
48
1
60
0
100
AcDbLine
10
56.214249
20
-1.502397
30
0
11
55.974961
21
-0.340928
31
0
39
0
210
0
220
0
230
1
0
LINE
5
108
100
AcDbEntity
8
1
62
256
6
ByLayer
370
-1
48
1
60
0
100
AcDbLine
10
50.178576
20
5.042569
30
0
11
49.200836
21
3.449781
31
0
39
0
210
0
220
0
230
1
0
LINE
5
109
100
AcDbEntity
8
1
62
256
6
ByLayer
370
-1
48
1
60
0
100
AcDbLine
10
57.397786
20
-2.189098
30
0
11
58.066934
21
0.060424
31
0
39
0
210
0
220
0
230
1
0
LINE
5
10A
100
AcDbEntity
8
1
62
256
6
ByLayer
370
-1
48
1
60
0
100
AcDbLine
10
62.085312
20
-3.4189
30
0
11
64.14181
21
-3.285363
31
0
39
0
210
0
220
0
230
1
0
LINE
5
10B
100
AcDbEntity
8
1
62
256
6
ByLayer
370
-1
48
1
60
0
100
AcDbLine
10
51.773234
20
4.419269
30
0
11
54.961238
21
-0.945231
31
0
39
0
210
0
220
0
230
1
0
LINE
5
10C
100
AcDbEntity
8
1
62
256
6
ByLayer
370
-1
48
1
60
0
100
AcDbLine
10
64.641734
20
-3.415784
30
0
11
64.623666
21
-3.387928
31
0
39
0
210
0
220
0
230
1
0
LINE
5
10D
100
AcDbEntity
8
1
62
256
6
ByLayer
370
-1
48
1
60
0
100
AcDbLine
10
58.695353
20
-0.896375
30
0
11
58.95718
21
-0.016174
31
0
39
0
210
0
220
0
230
1
0
LINE
5
10E
100
AcDbEntity
8
1
62
256
6
ByLayer
370
-1
48
1
60
0
100
AcDbLine
10
64.274164
20
-0.431683
30
0
11
64.265374
21
-0.432977
31
0
39
0
210
0
220
0
230
1
0
LINE
5
10F
100
AcDbEntity
8
1
62
256
6
ByLayer
370
-1
48
1
60
0
100
AcDbLine
10
49.200836
20
3.449781
30
0
11
48.829439
21
3.295443
31
0
39
0
210
0
220
0
230
1
0
LINE
5
110
100
AcDbEntity
8
1
62
256
6
ByLayer
370
-1
48
1
60
0
100
AcDbLine
10
64.623666
20
-3.387928
30
0
11
64.66316
21
-3.380103
31
0
39
0
210
0
220
0
230
1
0
LINE
5
111
100
AcDbEntity
8
1
62
256
6
ByLayer
370
-1
48
1
60
0
100
AcDbLine
10
62.934072
20
4.560503
30
0
11
64.984836
21
5.03677
31
0
39
0
210
0
220
0
230
1
0
LINE
5
112
100
AcDbEntity
8
1
62
256
6
ByLayer
370
-1
48
1
60
0
100
AcDbLine
10
51.741629
20
1.777249
30
0
11
51.745142
21
1.784467
31
0
39
0
210
0
220
0
230
1
0
LINE
5
113
100
AcDbEntity
8
1
62
256
6
ByLayer
370
-1
48
1
60
0
100
AcDbLine
10
61.087206
20
11.149586
30
0
11
62.275162
21
13.167396
31
0
39
0
210
0
220
0
230
1
0
LINE
5
114
100
AcDbEntity
8
1
62
256
6
ByLayer
370
-1
48
1
60
0
100
AcDbLine
10
61.851072
20
-1.793964
30
0
11
63.074502
21
-1.053971
31
0
39
0
210
0
220
0
230
1
0
LINE
5
115
100
AcDbEntity
8
1
62
256
6
ByLayer
370
-1
48
1
60
0
100
AcDbLine
10
64.98139
20
0.746027
30
0
11
64.98139
21
0.424362
31
0
39
0
210
0
220
0
230
1
0
LINE
5
116
100
AcDbEntity
8
1
62
256
6
ByLayer
370
-1
48
1
60
0
100
AcDbLine
10
64.743637
20
-3.518131
30
0
11
64.556199
21
-4.956347
31
0
39
0
210
0
220
0
230
1
0
LINE
5
117
100
AcDbEntity
8
1
62
256
6
ByLayer
370
-1
48
1
60
0
100
AcDbLine
10
57.930851
20
0.268505
30
0
11
57.223404
21
-2.109768
31
0
39
0
210
0
220
0
230
1
0
LINE
5
118
100
AcDbEntity
8
1
62
256
6
ByLayer
370
-1
48
1
60
0
100
AcDbLine
10
62.466869
20
6.722092
30
0
11
63.388548
21
6.936142
31
0
39
0
210
0
220
0
230
1
0
LINE
5
119
100
AcDbEntity
8
1
62
256
6
ByLayer
370
-1
48
1
60
0
100
AcDbLine
10
63.137385
20
-1.578427
30
0
11
64.146792
21
-3.188563
31
0
39
0
210
0
220
0
230
1
0
LINE
5
11A
100
AcDbEntity
8
1
62
256
6
ByLayer
370
-1
48
1
60
0
100
AcDbLine
10
61.780207
20
-1.845431
30
0
11
64.968211
21
3.463406
31
0
39
0
210
0
220
0
230
1
0
LINE
5
11B
100
AcDbEntity
8
1
62
256
6
ByLayer
370
-1
48
1
60
0
100
AcDbLine
10
56.125296
20
7.603785
30
0
11
54.657105
21
9.08599
31
0
39
0
210
0
220
0
230
1
0
LINE
5
11C
100
AcDbEntity
8
1
62
256
6
ByLayer
370
-1
48
1
60
0
100
AcDbLine
10
48.71577
20
3.062971
30
0
11
48.528333
21
1.624755
31
0
39
0
210
0
220
0
230
1
0
LINE
5
11D
100
AcDbEntity
8
1
62
256
6
ByLayer
370
-1
48
1
60
0
100
AcDbLine
10
48.71577
20
3.062971
30
0
11
48.64472
21
3.182529
31
0
39
0
210
0
220
0
230
1
0
LINE
5
11E
100
AcDbEntity
8
1
62
256
6
ByLayer
370
-1
48
1
60
0
100
AcDbLine
10
53.219716
20
2.229879
30
0
11
50.629515
21
6.588448
31
0
39
0
210
0
220
0
230
1
0
LINE
5
11F
100
AcDbEntity
8
1
62
256
6
ByLayer
370
-1
48
1
60
0
100
AcDbLine
10
60.068419
20
-3.844331
30
0
11
58.553111
21
-2.985568
31
0
39
0
210
0
220
0
230
1
0
LINE
5
120
100
AcDbEntity
8
1
62
256
6
ByLayer
370
-1
48
1
60
0
100
AcDbLine
10
51.672156
20
1.627482
30
0
11
51.741629
21
1.777249
31
0
39
0
210
0
220
0
230
1
0
LINE
5
121
100
AcDbEntity
8
1
62
256
6
ByLayer
370
-1
48
1
60
0
100
AcDbLine
10
64.814687
20
-3.399813
30
0
11
64.743637
21
-3.518131
31
0
39
0
210
0
220
0
230
1
0
LINE
5
122
100
AcDbEntity
8
1
62
256
6
ByLayer
370
-1
48
1
60
0
100
AcDbLine
10
52.448855
20
0.58719
30
0
11
52.160621
21
0.750539
31
0
39
0
210
0
220
0
230
1
0
LINE
5
123
100
AcDbEntity
8
1
62
256
6
ByLayer
370
-1
48
1
60
0
100
AcDbLine
10
63.002673
20
0.436835
30
0
11
60.412472
21
-3.876508
31
0
39
0
210
0
220
0
230
1
0
LINE
5
124
100
AcDbEntity
8
1
62
256
6
ByLayer
370
-1
48
1
60
0
100
AcDbLine
10
62.312021
20
9.614352
30
0
11
55.936012
21
9.670016
31
0
39
0
210
0
220
0
230
1
0
LINE
5
125
100
AcDbEntity
8
1
62
256
6
ByLayer
370
-1
48
1
60
0
100
AcDbLine
10
50.269003
20
4.975092
30
0
11
51.292977
21
4.331385
31
0
39
0
210
0
220
0
230
1
0
LINE
5
126
100
AcDbEntity
8
1
62
256
6
ByLayer
370
-1
48
1
60
0
100
AcDbLine
10
64.624837
20
-3.283629
30
0
11
64.239499
21
-3.122685
31
0
39
0
210
0
220
0
230
1
0
LINE
5
127
100
AcDbEntity
8
1
62
256
6
ByLayer
370
-1
48
1
60
0
100
AcDbLine
10
56.055283
20
-1.404102
30
0
11
55.451854
21
-1.19667
31
0
39
0
210
0
220
0
230
1
0
LINE
5
128
100
AcDbEntity
8
1
62
256
6
ByLayer
370
-1
48
1
60
0
100
AcDbLine
10
60.412472
20
-3.876508
30
0
11
60.197131
21
-3.877779
31
0
39
0
210
0
220
0
230
1
0
LINE
5
129
100
AcDbEntity
8
1
62
256
6
ByLayer
370
-1
48
1
60
0
100
AcDbLine
10
62.401166
20
13.013464
30
0
11
62.394195
21
12.537724
31
0
39
0
210
0
220
0
230
1
0
LINE
5
12A
100
AcDbEntity
8
1
62
256
6
ByLayer
370
-1
48
1
60
0
100
AcDbLine
10
57.223404
20
-2.109768
30
0
11
56.443045
21
-1.667519
31
0
39
0
210
0
220
0
230
1
0
LINE
5
12B
100
AcDbEntity
8
1
62
256
6
ByLayer
370
-1
48
1
60
0
100
AcDbLine
10
59.64135
20
9.508255
30
0
11
64.821752
21
9.46303
31
0
39
0
210
0
220
0
230
1
0
LINE
5
12C
100
AcDbEntity
8
1
62
256
6
ByLayer
370
-1
48
1
60
0
100
AcDbLine
10
62.492124
20
5.503099
30
0
11
64.98247
21
6.081455
31
0
39
0
210
0
220
0
230
1
0
LINE
5
12D
100
AcDbEntity
8
1
62
256
6
ByLayer
370
-1
48
1
60
0
100
AcDbLine
10
51.131063
20
2.77958
30
0
11
50.962113
21
1.483219
31
0
39
0
210
0
220
0
230
1
0
LINE
5
12E
100
AcDbEntity
8
1
62
256
6
ByLayer
370
-1
48
1
60
0
100
AcDbLine
10
64.992586
20
6.623776
30
0
11
64.984836
21
6.291578
31
0
39
0
210
0
220
0
230
1
0
LINE
5
12F
100
AcDbEntity
8
1
62
256
6
ByLayer
370
-1
48
1
60
0
100
AcDbLine
10
50.629515
20
6.588448
30
0
11
50.734361
21
6.769346
31
0
39
0
210
0
220
0
230
1
0
LINE
5
130
100
AcDbEntity
8
1
62
256
6
ByLayer
370
-1
48
1
60
0
100
AcDbLine
10
59.889205
20
11.145991
30
0
11
58.474753
21
11.15834
31
0
39
0
210
0
220
0
230
1
0
LINE
5
131
100
AcDbEntity
8
1
62
256
6
ByLayer
370
-1
48
1
60
0
100
AcDbLine
10
64.146792
20
-3.188563
30
0
11
62.090294
21
-3.322099
31
0
39
0
210
0
220
0
230
1
0
LINE
5
132
100
AcDbEntity
8
1
62
256
6
ByLayer
370
-1
48
1
60
0
100
AcDbLine
10
54.657105
20
9.08599
30
0
11
54.720125
21
9.134404
31
0
39
0
210
0
220
0
230
1
0
LINE
5
133
100
AcDbEntity
8
1
62
256
6
ByLayer
370
-1
48
1
60
0
100
AcDbLine
10
64.050933
20
-0.572909
30
0
11
63.687956
21
-1.177358
31
0
39
0
210
0
220
0
230
1
0
LINE
5
134
100
AcDbEntity
8
1
62
256
6
ByLayer
370
-1
48
1
60
0
100
AcDbLine
10
62.490745
20
12.480442
30
0
11
63.522003
21
10.656723
31
0
39
0
210
0
220
0
230
1
0
LINE
5
135
100
AcDbEntity
8
1
62
256
6
ByLayer
370
-1
48
1
60
0
100
AcDbLine
10
64.557964
20
-0.345455
30
0
11
64.389137
21
-1.640875
31
0
39
0
210
0
220
0
230
1
0
LINE
5
136
100
AcDbEntity
8
1
62
256
6
ByLayer
370
-1
48
1
60
0
100
AcDbLine
10
58.887916
20
11.347918
30
0
11
59.667819
21
11.341109
31
0
39
0
210
0
220
0
230
1
0
LINE
5
137
100
AcDbEntity
8
1
62
256
6
ByLayer
370
-1
48
1
60
0
100
AcDbLine
10
62.589575
20
12.536018
30
0
11
62.596546
21
13.011758
31
0
39
0
210
0
220
0
230
1
0
LINE
5
138
100
AcDbEntity
8
1
62
256
6
ByLayer
370
-1
48
1
60
0
100
AcDbLine
10
48.927129
20
3.131059
30
0
11
49.298526
21
3.285397
31
0
39
0
210
0
220
0
230
1
0
LINE
5
139
100
AcDbEntity
8
1
62
256
6
ByLayer
370
-1
48
1
60
0
100
AcDbLine
10
53.296078
20
8.393634
30
0
11
53.532714
21
8.468402
31
0
39
0
210
0
220
0
230
1
0
LINE
5
13A
100
AcDbEntity
8
1
62
256
6
ByLayer
370
-1
48
1
60
0
100
AcDbLine
10
48.793629
20
3.199617
30
0
11
48.831596
21
3.191115
31
0
39
0
210
0
220
0
230
1
0
LINE
5
13B
100
AcDbEntity
8
1
62
256
6
ByLayer
370
-1
48
1
60
0
100
AcDbLine
10
48.457283
20
1.744313
30
0
11
48.528333
21
1.624755
31
0
39
0
210
0
220
0
230
1
0
LINE
5
13C
100
AcDbEntity
8
1
62
256
6
ByLayer
370
-1
48
1
60
0
100
AcDbLine
10
54.482723
20
8.973352
30
0
11
56.114193
21
7.32631
31
0
39
0
210
0
220
0
230
1
0
LINE
5
13D
100
AcDbEntity
8
1
62
256
6
ByLayer
370
-1
48
1
60
0
100
AcDbLine
10
54.720125
20
9.134404
30
0
11
55.796094
21
8.935142
31
0
39
0
210
0
220
0
230
1
0
LINE
5
13E
100
AcDbEntity
8
1
62
256
6
ByLayer
370
-1
48
1
60
0
100
AcDbLine
10
56.443045
20
-1.667519
30
0
11
57.090405
21
0.508757
31
0
39
0
210
0
220
0
230
1
0
LINE
5
13F
100
AcDbEntity
8
1
62
256
6
ByLayer
370
-1
48
1
60
0
100
AcDbLine
10
53.919998
20
7.03103
30
0
11
54.57985
21
6.36488
31
0
39
0
210
0
220
0
230
1
0
LINE
5
140
100
AcDbEntity
8
1
62
256
6
ByLayer
370
-1
48
1
60
0
100
AcDbLine
10
48.829439
20
3.295443
30
0
11
48.791472
21
3.303945
31
0
39
0
210
0
220
0
230
1
0
LINE
5
141
100
AcDbEntity
8
1
62
256
6
ByLayer
370
-1
48
1
60
0
100
AcDbLine
10
64.984836
20
6.291578
30
0
11
62.629307
21
5.744532
31
0
39
0
210
0
220
0
230
1
0
LINE
5
142
100
AcDbEntity
8
1
62
256
6
ByLayer
370
-1
48
1
60
0
100
AcDbLine
10
64.98247
20
6.081455
30
0
11
64.98247
21
5.210583
31
0
39
0
210
0
220
0
230
1
0
LINE
5
143
100
AcDbEntity
8
1
62
256
6
ByLayer
370
-1
48
1
60
0
100
AcDbLine
10
64.968211
20
3.463406
30
0
11
64.98139
21
0.746027
31
0
39
0
210
0
220
0
230
1
0
LINE
5
144
100
AcDbEntity
8
1
62
256
6
ByLayer
370
-1
48
1
60
0
100
AcDbLine
10
64.556199
20
-4.956347
30
0
11
64.62725
21
-4.838029
31
0
39
0
210
0
220
0
230
1
0
LINE
5
145
100
AcDbEntity
8
1
62
256
6
ByLayer
370
-1
48
1
60
0
100
AcDbLine
10
48.868051
20
2.968646
30
0
11
48.681406
21
1.536506
31
0
39
0
210
0
220
0
230
1
0
LINE
5
146
100
AcDbEntity
8
1
62
256
6
ByLayer
370
-1
48
1
60
0
100
AcDbLine
10
57.649922
20
-2.268133
30
0
11
57.397786
21
-2.189098
31
0
39
0
210
0
220
0
230
1
0
LINE
5
147
100
AcDbEntity
8
1
62
256
6
ByLayer
370
-1
48
1
60
0
100
AcDbLine
10
64.987769
20
4.81259
30
0
11
64.97144
21
4.032101
31
0
39
0
210
0
220
0
230
1
0
LINE
5
148
100
AcDbEntity
8
1
62
256
6
ByLayer
370
-1
48
1
60
0
100
AcDbLine
10
62.102856
20
-2.204163
30
0
11
63.137385
21
-1.578427
31
0
39
0
210
0
220
0
230
1
0
LINE
5
149
100
AcDbEntity
8
1
62
256
6
ByLayer
370
-1
48
1
60
0
100
AcDbLine
10
62.380503
20
13.050781
30
0
11
60.918983
21
10.568307
31
0
39
0
210
0
220
0
230
1
0
LINE
5
14A
100
AcDbEntity
8
1
62
256
6
ByLayer
370
-1
48
1
60
0
100
AcDbLine
10
49.298526
20
3.285397
30
0
11
51.323357
21
3.11623
31
0
39
0
210
0
220
0
230
1
0
LINE
5
14B
100
AcDbEntity
8
1
62
256
6
ByLayer
370
-1
48
1
60
0
100
AcDbLine
10
64.641734
20
-3.415784
30
0
11
64.66316
21
-3.380103
31
0
39
0
210
0
220
0
230
1
0
LINE
5
14C
100
AcDbEntity
8
1
62
256
6
ByLayer
370
-1
48
1
60
0
100
AcDbLine
10
64.947915
20
0.303913
30
0
11
64.557964
21
-0.345455
31
0
39
0
210
0
220
0
230
1
0
LINE
5
14D
100
AcDbEntity
8
1
62
256
6
ByLayer
370
-1
48
1
60
0
100
AcDbLine
10
64.281891
20
4.268724
30
0
11
64.987769
21
4.81259
31
0
39
0
210
0
220
0
230
1
0
LINE
5
14E
100
AcDbEntity
8
1
62
256
6
ByLayer
370
-1
48
1
60
0
100
AcDbLine
10
64.096611
20
-1.727904
30
0
11
64.274817
21
-1.711544
31
0
39
0
210
0
220
0
230
1
0
LINE
5
14F
100
AcDbEntity
8
1
62
256
6
ByLayer
370
-1
48
1
60
0
100
AcDbLine
10
64.984836
20
5.03677
30
0
11
64.986773
21
4.983465
31
0
39
0
210
0
220
0
230
1
0
LINE
5
150
100
AcDbEntity
8
1
62
256
6
ByLayer
370
-1
48
1
60
0
100
AcDbLine
10
63.373795
20
7.002574
30
0
11
62.452116
21
6.788524
31
0
39
0
210
0
220
0
230
1
0
LINE
5
151
100
AcDbEntity
8
1
62
256
6
ByLayer
370
-1
48
1
60
0
100
AcDbLine
10
48.910589
20
3.103506
30
0
11
51.694731
21
2.870901
31
0
39
0
210
0
220
0
230
1
0
LINE
5
152
100
AcDbEntity
8
1
62
256
6
ByLayer
370
-1
48
1
60
0
100
AcDbLine
10
63.951831
20
10.352086
30
0
11
62.707304
21
9.647593
31
0
39
0
210
0
220
0
230
1
0
LINE
5
153
100
AcDbEntity
8
1
62
256
6
ByLayer
370
-1
48
1
60
0
100
AcDbLine
10
64.443644
20
-0.416124
30
0
11
64.274164
21
-0.431683
31
0
39
0
210
0
220
0
230
1
0
LINE
5
154
100
AcDbEntity
8
1
62
256
6
ByLayer
370
-1
48
1
60
0
100
AcDbLine
10
53.702364
20
8.544729
30
0
11
54.482723
21
8.973352
31
0
39
0
210
0
220
0
230
1
0
LINE
5
155
100
AcDbEntity
8
1
62
256
6
ByLayer
370
-1
48
1
60
0
100
AcDbLine
10
62.394195
20
12.537724
30
0
11
61.331271
21
10.732287
31
0
39
0
210
0
220
0
230
1
0
LINE
5
156
100
AcDbEntity
8
1
62
256
6
ByLayer
370
-1
48
1
60
0
100
AcDbLine
10
55.485264
20
6.744812
30
0
11
53.702364
21
8.544729
31
0
39
0
210
0
220
0
230
1
0
LINE
5
157
100
AcDbEntity
8
1
62
256
6
ByLayer
370
-1
48
1
60
0
100
AcDbLine
10
62.380503
20
13.050781
30
0
11
62.401166
21
13.013464
31
0
39
0
210
0
220
0
230
1
0
LINE
5
158
100
AcDbEntity
8
1
62
256
6
ByLayer
370
-1
48
1
60
0
100
AcDbLine
10
64.527148
20
-3.446307
30
0
11
64.545216
21
-3.474163
31
0
39
0
210
0
220
0
230
1
0
LINE
5
159
100
AcDbEntity
8
1
62
256
6
ByLayer
370
-1
48
1
60
0
100
AcDbLine
10
52.069167
20
0.839726
30
0
11
51.679215
21
1.495903
31
0
39
0
210
0
220
0
230
1
0
LINE
5
15A
100
AcDbEntity
8
1
62
256
6
ByLayer
370
-1
48
1
60
0
100
AcDbLine
10
63.858791
20
4.114374
30
0
11
63.17874
21
3.95644
31
0
39
0
210
0
220
0
230
1
0
LINE
5
15B
100
AcDbEntity
8
1
62
256
6
ByLayer
370
-1
48
1
60
0
100
AcDbLine
10
62.2326
20
9.651737
30
0
11
61.000557
21
10.377851
31
0
39
0
210
0
220
0
230
1
0
LINE
5
15C
100
AcDbEntity
8
1
62
256
6
ByLayer
370
-1
48
1
60
0
100
AcDbLine
10
64.98247
20
5.210583
30
0
11
62.70364
21
4.681349
31
0
39
0
210
0
220
0
230
1
0
LINE
5
15D
100
AcDbEntity
8
1
62
256
6
ByLayer
370
-1
48
1
60
0
100
AcDbLine
10
64.589772
20
-3.609783
30
0
11
60.563707
21
-3.871211
31
0
39
0
210
0
220
0
230
1
0
LINE
5
15E
100
AcDbEntity
8
1
62
256
6
ByLayer
370
-1
48
1
60
0
100
AcDbLine
10
50.827682
20
6.8601
30
0
11
52.342991
21
7.692405
31
0
39
0
210
0
220
0
230
1
0
LINE
5
15F
100
AcDbEntity
8
1
62
256
6
ByLayer
370
-1
48
1
60
0
100
AcDbLine
10
56.273395
20
-1.551878
30
0
11
56.214249
21
-1.502397
31
0
39
0
210
0
220
0
230
1
0
LINE
5
160
100
AcDbEntity
8
1
62
256
6
ByLayer
370
-1
48
1
60
0
100
AcDbLine
10
62.499348
20
13.069042
30
0
11
62.478685
21
13.106359
31
0
39
0
210
0
220
0
230
1
0
LINE
5
161
100
AcDbEntity
8
SK1
62
256
6
ByLayer
370
-1
48
1
60
0
100
AcDbLine
10
-1.307107
20
3.804744
30
0
11
-1.307107
21
-3.804747
31
0
39
0
210
0
220
0
230
1
0
MTEXT
5
2F5
100
AcDbEntity
8
SK6
62
256
6
ByLayer
370
-1
48
1
60
0
100
AcDbMText
10
-14.125
20
-35.875
30
0
210
0
220
0
230
1
1
\W00.719;\fsimplex.shx,bigfont.shx;C5-266RKF-15065-22 
40
3.5
41
0
44
1.084337
50
0
71
7
72
5
7
DEFAULT
0
DIMENSION
5
328
100
AcDbEntity
8
2
62
256
6
ByLayer
370
-3
48
1
60
0
100
AcDbDimension
2
DimnDraft3D1
10
79.25
20
14.875
30
0
11
79.25
21
5.371053
31
0
70
32
71
5
72
1
41
1
210
0
220
0
230
1
3
Standard
100
AcDbAlignedDimension
13
71.5
23
0
33
0
14
66.5
24
14.875
34
0
50
90
100
AcDbRotatedDimension
1001
ACAD
1000
DSTYLE
1002
{
1070
    74
1070
     0
1070
   279
1070
     0
1070
   172
1070
     1
1070
   173
1070
     1
1070
   340
1005
2F6
1070
   271
1070
     3
1070
   272
1070
     3
1070
    77
1070
     1
1070
    73
1070
     0
1070
   171
1070
     4
1070
   274
1070
     4
1070
   177
1070
     2
1070
   176
1070
     2
1070
   178
1070
     7
1070
    78
1070
     8
1070
    41
1041
3.0
1070
   147
1041
2.25
1070
    42
1041
1.5
1070
    44
1041
3.0
1070
   140
1041
4.5
1070
   343
1005
329
1070
   344
1005
329
1002
}
0
DIMENSION
5
33E
100
AcDbEntity
8
SK2
62
256
6
ByLayer
370
-3
48
1
60
0
100
AcDbDimension
2
DimnDraft3D2
10
-39.75
20
-25
30
0
11
-39.75
21
-4.784211
31
0
70
32
71
5
72
1
41
1
210
0
220
0
230
1
3
Standard
100
AcDbAlignedDimension
13
-1.5
23
25
33
0
14
-1.5
24
-25
34
0
50
90
100
AcDbRotatedDimension
1001
ACAD
1000
DSTYLE
1002
{
1070
    74
1070
     0
1070
   279
1070
     0
1070
   172
1070
     1
1070
   173
1070
     1
1070
   340
1005
2F6
1070
   271
1070
     3
1070
   272
1070
     3
1070
    77
1070
     1
1070
    73
1070
     0
1070
   171
1070
     4
1070
   274
1070
     4
1070
   177
1070
     2
1070
   176
1070
     2
1070
   178
1070
     7
1070
    78
1070
     8
1070
    41
1041
3.0
1070
   147
1041
2.25
1070
    42
1041
1.5
1070
    44
1041
3.0
1070
   140
1041
4.5
1070
   343
1005
329
1070
   344
1005
329
1002
}
0
DIMENSION
5
34C
100
AcDbEntity
8
2
62
256
6
ByLayer
370
-3
48
1
60
0
100
AcDbDimension
2
DimnDraft3D3
10
0
20
34.625
30
0
11
29.871053
21
34.625
31
0
70
32
71
5
72
1
41
1
210
0
220
0
230
1
3
Standard
100
AcDbAlignedDimension
13
65
23
16.375
33
0
14
0
24
1.5
34
0
50
0
100
AcDbRotatedDimension
1001
ACAD
1000
DSTYLE
1002
{
1070
   279
1070
     0
1070
   172
1070
     1
1070
   173
1070
     1
1070
   340
1005
2F6
1070
   271
1070
     3
1070
   272
1070
     3
1070
    77
1070
     1
1070
    73
1070
     0
1070
   171
1070
     4
1070
   274
1070
     4
1070
   177
1070
     2
1070
   176
1070
     2
1070
   178
1070
     7
1070
    78
1070
     8
1070
    41
1041
3.0
1070
   147
1041
2.25
1070
    42
1041
1.5
1070
    44
1041
3.0
1070
   140
1041
4.5
1070
   343
1005
329
1070
   344
1005
329
1002
}
0
DIMENSION
5
35A
100
AcDbEntity
8
2
62
256
6
ByLayer
370
-3
48
1
60
0
100
AcDbDimension
2
DimnDraft3D4
10
65
20
24.625
30
0
11
41.956329
21
24.625
31
0
70
32
71
5
72
1
41
1
210
0
220
0
230
1
3
Standard
100
AcDbAlignedDimension
13
23.519238
23
16.375
33
0
14
65
24
16.375
34
0
50
0
100
AcDbRotatedDimension
1001
ACAD
1000
DSTYLE
1002
{
1070
   279
1070
     0
1070
   172
1070
     1
1070
   173
1070
     1
1070
   340
1005
2F6
1070
   271
1070
     3
1070
   272
1070
     3
1070
    77
1070
     1
1070
    73
1070
     0
1070
   171
1070
     4
1070
   274
1070
     4
1070
   177
1070
     2
1070
   176
1070
     2
1070
   178
1070
     7
1070
    78
1070
     8
1070
    41
1041
3.0
1070
   147
1041
2.25
1070
    42
1041
1.5
1070
    44
1041
3.0
1070
   140
1041
4.5
1070
   343
1005
329
1070
   344
1005
329
1002
}
0
ENDSEC
0
SECTION
2
OBJECTS
0
DICTIONARY
5
38b
330
0
100
AcDbDictionary
280
0
281
1
3
ACAD_GROUP
350
38c
3
ACAD_MLINESTYLE
350
38d
0
DICTIONARY
5
38c
330
0
100
AcDbDictionary
280
0
281
1
0
DICTIONARY
5
38d
330
0
100
AcDbDictionary
280
0
281
1
3
Standard
350
18
0
MLINESTYLE
5
18
330
38d
100
AcDbMlineStyle
2
Standard
70
0
3

62
256
51
90
52
90
71
2
49
-0.5
62
256
6
ByLayer
49
0.5
62
256
6
ByLayer
0
RASTERVARIABLES
5
379
330

100
AcDbRasterVariables
90
0
70
1
71
1
72
1
0
ENDSEC
0
EOF
