0
SECTION
2
HEADER
9
$ACADVER
1
AC1015
9
$DWGCODEPAGE
3
ANSI_1252
9
$HANDSEED
5
1bc
9
$ANGBASE
50
0
9
$ANGDIR
70
0
9
$ATTMODE
70
1
9
$AUNITS
70
0
9
$AUPREC
70
0
9
$CECOLOR
62
256
9
$CELTSCALE
40
1
9
$CELTYPE
6
ByLayer
9
$CELWEIGHT
370
18
9
$CLAYER
8
0
9
$CMLJUST
70
0
9
$CMLSCALE
40
1
9
$CMLSTYLE
2
Standard
9
$DIMSTYLE
2
Standard
9
$TEXTSIZE
40
0.2
9
$TEXTSTYLE
7
Standard
9
$LUNITS
70
2
9
$LUPREC
70
4
9
$EXTNAMES
290
1
9
$INSUNITS
70
4
9
$LTSCALE
40
1
9
$LWDISPLAY
290
1
9
$PDMODE
70
0
9
$PDSIZE
40
0
9
$PLINEGEN
70
0
0
ENDSEC
0
SECTION
2
CLASSES
0
CLASS
1
RASTERVARIABLES
2
AcDbRasterVariables
3
ISM
90
0
280
0
281
0
0
ENDSEC
0
SECTION
2
TABLES
0
TABLE
2
VPORT
5
1b2
100
AcDbSymbolTable
0
VPORT
5
1
100
AcDbSymbolTableRecord
100
AcDbViewportTableRecord
2
*Active
70
0
10
0
20
0
11
1
21
1
12
-1
22
1
13
0
23
0
14
0.5
24
0.5
15
10
25
10
16
0
26
0
36
1
17
0
27
0
37
0
0
ENDTAB
0
TABLE
2
LTYPE
5
1b3
100
AcDbSymbolTable
0
LTYPE
5
14
100
AcDbSymbolTableRecord
100
AcDbLinetypeTableRecord
70
0
2
ByBlock
3

72
65
73
0
40
0
0
LTYPE
5
15
100
AcDbSymbolTableRecord
100
AcDbLinetypeTableRecord
70
0
2
ByLayer
3

72
65
73
0
40
0
0
LTYPE
5
16
100
AcDbSymbolTableRecord
100
AcDbLinetypeTableRecord
70
0
2
CONTINUOUS
3
Solid line
72
65
73
0
40
0
0
LTYPE
5
6A
100
AcDbSymbolTableRecord
100
AcDbLinetypeTableRecord
70
0
2
CENTER
3
____ _ ____ _ ____ _ ____
72
65
73
4
40
47.5
49
22
74
0
49
-8.5
74
0
49
8.5
74
0
49
-8.5
74
0
0
LTYPE
5
6B
100
AcDbSymbolTableRecord
100
AcDbLinetypeTableRecord
70
0
2
DASHED
3
__ __ __ __ __ __ __ __ __
72
65
73
2
40
25.72
49
12.86
74
0
49
-12.86
74
0
0
ENDTAB
0
TABLE
2
LAYER
5
1b4
100
AcDbSymbolTable
0
LAYER
5
10
100
AcDbSymbolTableRecord
100
AcDbLayerTableRecord
2
0
70
0
62
7
6
CONTINUOUS
290
1
370
-3
390
0
0
LAYER
5
6D
100
AcDbSymbolTableRecord
100
AcDbLayerTableRecord
2
81
70
0
62
-3
6
CONTINUOUS
290
1
370
-3
390
0
0
LAYER
5
6F
100
AcDbSymbolTableRecord
100
AcDbLayerTableRecord
2
80
70
0
62
-6
6
CONTINUOUS
290
1
370
-3
390
0
0
LAYER
5
76
100
AcDbSymbolTableRecord
100
AcDbLayerTableRecord
2
4
70
0
62
-2
6
CENTER
290
1
370
-3
390
0
0
LAYER
5
7A
100
AcDbSymbolTableRecord
100
AcDbLayerTableRecord
2
1
70
0
62
4
6
CONTINUOUS
290
1
370
-3
390
0
0
LAYER
5
C7
100
AcDbSymbolTableRecord
100
AcDbLayerTableRecord
2
2
70
0
62
7
6
CONTINUOUS
290
1
370
-3
390
0
0
LAYER
5
19e
100
AcDbSymbolTableRecord
100
AcDbLayerTableRecord
2
SK2
70
0
62
7
6
CONTINUOUS
290
1
370
-3
390
0
0
LAYER
5
19f
100
AcDbSymbolTableRecord
100
AcDbLayerTableRecord
2
SK4
70
0
62
2
6
CENTER
290
1
370
-3
390
0
0
LAYER
5
1a0
100
AcDbSymbolTableRecord
100
AcDbLayerTableRecord
2
SK1
70
0
62
4
6
CONTINUOUS
290
1
370
-3
390
0
0
LAYER
5
1a1
100
AcDbSymbolTableRecord
100
AcDbLayerTableRecord
2
SK6
70
0
62
5
6
CONTINUOUS
290
1
370
-3
390
0
0
ENDTAB
0
TABLE
2
STYLE
5
1b5
100
AcDbSymbolTable
0
STYLE
5
11
100
AcDbSymbolTableRecord
100
AcDbTextStyleTableRecord
2
Standard
3
txt
70
0
71
0
40
0
41
1
42
0
50
0
0
STYLE
5
105
100
AcDbSymbolTableRecord
100
AcDbTextStyleTableRecord
2
iso_b_vert
3
simplex.shx
70
0
71
0
40
0
41
1
42
0
50
0
0
STYLE
5
106
100
AcDbSymbolTableRecord
100
AcDbTextStyleTableRecord
2
DWGDirectTextStyle
3
simplex
70
0
71
0
40
0
41
1
42
0
50
0
0
ENDTAB
0
TABLE
2
DIMSTYLE
5
1b6
100
AcDbSymbolTable
100
AcDbDimStyleTable
0
DIMSTYLE
105
27
100
AcDbSymbolTableRecord
100
AcDbDimStyleTableRecord
2
Standard
70
0
3
<>
41
0.18
42
0.0625
44
0.18
140
0.18
147
0.09
73
0
74
0
77
1
271
2
275
0
278
52
280
0
340
11
0
ENDTAB
0
TABLE
2
VIEW
5
1b7
100
AcDbSymbolTable
0
ENDTAB
0
TABLE
2
UCS
5
1b8
100
AcDbSymbolTable
0
ENDTAB
0
TABLE
2
APPID
5
1b9
100
AcDbSymbolTable
0
APPID
5
12
100
AcDbSymbolTableRecord
100
AcDbRegAppTableRecord
2
ACAD
70
0
0
ENDTAB
0
TABLE
2
BLOCK_RECORD
5
1ba
100
AcDbSymbolTable
0
BLOCK_RECORD
5
1F
100
AcDbSymbolTableRecord
100
AcDbBlockTableRecord
2
*Model_Space
340
0
70
0
0
BLOCK_RECORD
5
1B
100
AcDbSymbolTableRecord
100
AcDbBlockTableRecord
2
*Paper_Space
340
0
70
0
0
BLOCK_RECORD
5
23
100
AcDbSymbolTableRecord
100
AcDbBlockTableRecord
2
*Paper_Space0
340
0
70
0
0
BLOCK_RECORD
5
11A
100
AcDbSymbolTableRecord
100
AcDbBlockTableRecord
2
DimnDraft3D1
340
0
70
0
0
BLOCK_RECORD
5
125
100
AcDbSymbolTableRecord
100
AcDbBlockTableRecord
2
DimnDraft3D2
340
0
70
0
0
BLOCK_RECORD
5
12F
100
AcDbSymbolTableRecord
100
AcDbBlockTableRecord
2
DimnDraft3D3
340
0
70
0
0
BLOCK_RECORD
5
13A
100
AcDbSymbolTableRecord
100
AcDbBlockTableRecord
2
DimnDraft3D4
340
0
70
0
0
ENDTAB
0
ENDSEC
0
SECTION
2
BLOCKS
0
BLOCK
5
20
100
AcDbEntity
8
0
100
AcDbBlockBegin
2
*Model_Space
70
0
10
0
20
0
30
0
3
*Model_Space
0
ENDBLK
5
21
100
AcDbEntity
8
0
100
AcDbBlockEnd
0
BLOCK
5
1C
100
AcDbEntity
8
0
100
AcDbBlockBegin
2
*Paper_Space
70
0
10
0
20
0
30
0
3
*Paper_Space
0
ENDBLK
5
1D
100
AcDbEntity
8
0
100
AcDbBlockEnd
0
BLOCK
5
24
100
AcDbEntity
8
0
100
AcDbBlockBegin
2
*Paper_Space0
70
0
10
0
20
0
30
0
3
*Paper_Space0
0
ENDBLK
5
25
100
AcDbEntity
8
0
100
AcDbBlockEnd
0
BLOCK
5
122
100
AcDbEntity
8
0
100
AcDbBlockBegin
2
DimnDraft3D1
70
0
10
0
20
0
30
0
3
DimnDraft3D1
0
MTEXT
5
11B
100
AcDbEntity
8
SK2
62
256
6
ByLayer
370
18
48
1
60
0
100
AcDbMText
10
71.35
20
2.936842
30
0
210
0
220
0
230
1
1
\W0.6740;22
40
4.5
41
0
44
1.084337
50
90
71
7
72
5
7
iso_b_vert
0
MTEXT
5
11C
100
AcDbEntity
8
SK2
62
256
6
ByLayer
370
18
48
1
60
0
100
AcDbMText
10
71.35
20
-3.778002
30
0
210
0
220
0
230
1
1
%%c
40
4.5
41
0
44
1.084337
50
90
71
7
72
5
7
iso_b_vert
0
LINE
5
11D
100
AcDbEntity
8
SK2
62
256
6
ByLayer
370
13
48
1
60
0
100
AcDbLine
10
53.9875
20
11
30
0
11
75.6
21
11
31
0
39
0
210
0
220
0
230
1
0
LINE
5
11E
100
AcDbEntity
8
SK2
62
256
6
ByLayer
370
13
48
1
60
0
100
AcDbLine
10
53.9875
20
-11
30
0
11
75.6
21
-11
31
0
39
0
210
0
220
0
230
1
0
LINE
5
11F
100
AcDbEntity
8
SK2
62
256
6
ByLayer
370
13
48
1
60
0
100
AcDbLine
10
73.6
20
22.25
30
0
11
73.6
21
-22.25
31
0
39
0
210
0
220
0
230
1
0
SOLID
5
120
100
AcDbEntity
8
SK2
62
256
6
ByLayer
370
13
48
1
60
0
100
AcDbTrace
10
73.6
20
11
30
0
11
72.602374
21
15.499996
31
0
12
74.597626
22
15.500004
32
0
13
73.6
23
11
33
0
39
0
210
0
220
0
230
1
0
SOLID
5
121
100
AcDbEntity
8
SK2
62
256
6
ByLayer
370
13
48
1
60
0
100
AcDbTrace
10
73.6
20
-11
30
0
11
74.597626
21
-15.499996
31
0
12
72.602374
22
-15.500004
32
0
13
73.6
23
-11
33
0
39
0
210
0
220
0
230
1
0
ENDBLK
5
123
100
AcDbEntity
8
0
100
AcDbBlockEnd
0
BLOCK
5
12C
100
AcDbEntity
8
0
100
AcDbBlockBegin
2
DimnDraft3D2
70
0
10
0
20
0
30
0
3
DimnDraft3D2
0
MTEXT
5
126
100
AcDbEntity
8
SK2
62
256
6
ByLayer
370
18
48
1
60
0
100
AcDbMText
10
32.688158
20
35.225
30
0
210
0
220
0
230
1
1
\W0.7178;2,4
40
4.5
41
0
44
1.084337
50
0
71
7
72
5
7
iso_b_vert
0
LINE
5
127
100
AcDbEntity
8
SK2
62
256
6
ByLayer
370
13
48
1
60
0
100
AcDbLine
10
52.4
20
12.5875
30
0
11
52.4
21
36.1
31
0
39
0
210
0
220
0
230
1
0
LINE
5
128
100
AcDbEntity
8
SK2
62
256
6
ByLayer
370
13
48
1
60
0
100
AcDbLine
10
50
20
21.5875
30
0
11
50
21
36.1
31
0
39
0
210
0
220
0
230
1
0
LINE
5
129
100
AcDbEntity
8
SK2
62
256
6
ByLayer
370
13
48
1
60
0
100
AcDbLine
10
31.563158
20
34.1
30
0
11
63.65
21
34.1
31
0
39
0
210
0
220
0
230
1
0
SOLID
5
12A
100
AcDbEntity
8
SK2
62
256
6
ByLayer
370
13
48
1
60
0
100
AcDbTrace
10
52.4
20
34.1
30
0
11
56.899996
21
35.097626
31
0
12
56.900004
22
33.102374
32
0
13
52.4
23
34.1
33
0
39
0
210
0
220
0
230
1
0
SOLID
5
12B
100
AcDbEntity
8
SK2
62
256
6
ByLayer
370
13
48
1
60
0
100
AcDbTrace
10
50
20
34.1
30
0
11
45.500004
21
33.102374
31
0
12
45.499996
22
35.097626
32
0
13
50
23
34.1
33
0
39
0
210
0
220
0
230
1
0
ENDBLK
5
12D
100
AcDbEntity
8
0
100
AcDbBlockEnd
0
BLOCK
5
137
100
AcDbEntity
8
0
100
AcDbBlockBegin
2
DimnDraft3D3
70
0
10
0
20
0
30
0
3
DimnDraft3D3
0
MTEXT
5
130
100
AcDbEntity
8
SK2
62
256
6
ByLayer
370
18
48
1
60
0
100
AcDbMText
10
-50.35
20
2.7
30
0
210
0
220
0
230
1
1
\W0.7361;40
40
4.5
41
0
44
1.084337
50
90
71
7
72
5
7
iso_b_vert
0
MTEXT
5
131
100
AcDbEntity
8
SK2
62
256
6
ByLayer
370
18
48
1
60
0
100
AcDbMText
10
-50.35
20
-4.014844
30
0
210
0
220
0
230
1
1
%%c
40
4.5
41
0
44
1.084337
50
90
71
7
72
5
7
iso_b_vert
0
LINE
5
132
100
AcDbEntity
8
SK2
62
256
6
ByLayer
370
13
48
1
60
0
100
AcDbLine
10
-1.5875
20
-20
30
0
11
-50.1
21
-20
31
0
39
0
210
0
220
0
230
1
0
LINE
5
133
100
AcDbEntity
8
SK2
62
256
6
ByLayer
370
13
48
1
60
0
100
AcDbLine
10
-1.5875
20
20
30
0
11
-50.1
21
20
31
0
39
0
210
0
220
0
230
1
0
LINE
5
134
100
AcDbEntity
8
SK2
62
256
6
ByLayer
370
13
48
1
60
0
100
AcDbLine
10
-48.1
20
-20
30
0
11
-48.1
21
20
31
0
39
0
210
0
220
0
230
1
0
SOLID
5
135
100
AcDbEntity
8
SK2
62
256
6
ByLayer
370
13
48
1
60
0
100
AcDbTrace
10
-48.1
20
-20
30
0
11
-49.097626
21
-15.500004
31
0
12
-47.102374
22
-15.499996
32
0
13
-48.1
23
-20
33
0
39
0
210
0
220
0
230
1
0
SOLID
5
136
100
AcDbEntity
8
SK2
62
256
6
ByLayer
370
13
48
1
60
0
100
AcDbTrace
10
-48.1
20
20
30
0
11
-47.102374
21
15.500004
31
0
12
-49.097626
22
15.499996
32
0
13
-48.1
23
20
33
0
39
0
210
0
220
0
230
1
0
ENDBLK
5
138
100
AcDbEntity
8
0
100
AcDbBlockEnd
0
BLOCK
5
142
100
AcDbEntity
8
0
100
AcDbBlockBegin
2
DimnDraft3D4
70
0
10
0
20
0
30
0
3
DimnDraft3D4
0
MTEXT
5
13B
100
AcDbEntity
8
SK2
62
256
6
ByLayer
370
18
48
1
60
0
100
AcDbMText
10
86.35
20
2.7
30
0
210
0
220
0
230
1
1
\W0.7361;40
40
4.5
41
0
44
1.084337
50
90
71
7
72
5
7
iso_b_vert
0
MTEXT
5
13C
100
AcDbEntity
8
SK2
62
256
6
ByLayer
370
18
48
1
60
0
100
AcDbMText
10
86.35
20
-4.014844
30
0
210
0
220
0
230
1
1
%%c
40
4.5
41
0
44
1.084337
50
90
71
7
72
5
7
iso_b_vert
0
LINE
5
13D
100
AcDbEntity
8
SK2
62
256
6
ByLayer
370
13
48
1
60
0
100
AcDbLine
10
51.5875
20
-20
30
0
11
90.6
21
-20
31
0
39
0
210
0
220
0
230
1
0
LINE
5
13E
100
AcDbEntity
8
SK2
62
256
6
ByLayer
370
13
48
1
60
0
100
AcDbLine
10
51.5875
20
20
30
0
11
90.6
21
20
31
0
39
0
210
0
220
0
230
1
0
LINE
5
13F
100
AcDbEntity
8
SK2
62
256
6
ByLayer
370
13
48
1
60
0
100
AcDbLine
10
88.6
20
-20
30
0
11
88.6
21
20
31
0
39
0
210
0
220
0
230
1
0
SOLID
5
140
100
AcDbEntity
8
SK2
62
256
6
ByLayer
370
13
48
1
60
0
100
AcDbTrace
10
88.6
20
-20
30
0
11
87.602374
21
-15.500004
31
0
12
89.597626
22
-15.499996
32
0
13
88.6
23
-20
33
0
39
0
210
0
220
0
230
1
0
SOLID
5
141
100
AcDbEntity
8
SK2
62
256
6
ByLayer
370
13
48
1
60
0
100
AcDbTrace
10
88.6
20
20
30
0
11
89.597626
21
15.500004
31
0
12
87.602374
22
15.499996
32
0
13
88.6
23
20
33
0
39
0
210
0
220
0
230
1
0
ENDBLK
5
143
100
AcDbEntity
8
0
100
AcDbBlockEnd
0
ENDSEC
0
SECTION
2
ENTITIES
0
ARC
5
D0
100
AcDbEntity
8
SK1
62
256
6
ByLayer
370
18
48
1
60
0
100
AcDbCircle
39
0
10
0.6
20
15
30
0
40
0.999999999999989
210
0
220
0
230
-1
100
AcDbArc
50
233.130102
51
246.421822
0
ARC
5
D1
100
AcDbEntity
8
1
62
256
6
ByLayer
370
18
48
1
60
0
100
AcDbCircle
39
0
10
-20
20
20.79
30
0
40
0.8
210
0
220
0
230
-1
100
AcDbArc
50
260.931278
51
270
0
ARC
5
D2
100
AcDbEntity
8
1
62
256
6
ByLayer
370
18
48
1
60
0
100
AcDbCircle
39
0
10
-20
20
-20.79
30
0
40
0.8
210
0
220
0
230
-1
100
AcDbArc
50
90
51
99.068722
0
ARC
5
D3
100
AcDbEntity
8
1
62
256
6
ByLayer
370
18
48
1
60
0
100
AcDbCircle
39
0
10
-50.614157
20
-14.010708
30
0
40
0.2
210
0
220
0
230
-1
100
AcDbArc
50
90
51
135
0
ARC
5
D4
100
AcDbEntity
8
SK1
62
256
6
ByLayer
370
18
48
1
60
0
100
AcDbCircle
39
0
10
0.6
20
-15
30
0
40
0.999999999999989
210
0
220
0
230
-1
100
AcDbArc
50
113.578178
51
126.869898
0
ARC
5
D5
100
AcDbEntity
8
1
62
256
6
ByLayer
370
18
48
1
60
0
100
AcDbCircle
39
0
10
-50.614157
20
8.616708
30
0
40
0.2
210
0
220
0
230
-1
100
AcDbArc
50
90
51
135
0
ARC
5
D6
100
AcDbEntity
8
1
62
256
6
ByLayer
370
18
48
1
60
0
100
AcDbCircle
39
0
10
-50.614157
20
-8.616708
30
0
40
0.2
210
0
220
0
230
-1
100
AcDbArc
50
225
51
270
0
ARC
5
D7
100
AcDbEntity
8
1
62
256
6
ByLayer
370
18
48
1
60
0
100
AcDbCircle
39
0
10
-50.614157
20
14.010708
30
0
40
0.2
210
0
220
0
230
-1
100
AcDbArc
50
225
51
270
0
ELLIPSE
5
D8
100
AcDbEntity
8
1
62
256
6
ByLayer
370
18
48
1
60
0
100
AcDbEllipse
10
-0.948929
20
0
30
0
11
9.36273417084214
21
19.7318782781739
31
0
210
0
220
0
230
1
40
0.341999
41
-1.0953381396138
42
-0.153707632784439
0
ELLIPSE
5
D9
100
AcDbEntity
8
1
62
256
6
ByLayer
370
18
48
1
60
0
100
AcDbEllipse
10
16.948929
20
0
30
0
11
9.36273417084236
21
-19.7318782781741
31
0
210
0
220
0
230
1
40
0.341999
41
-2.98788502080536
42
-2.046254513976
0
ELLIPSE
5
DA
100
AcDbEntity
8
1
62
256
6
ByLayer
370
18
48
1
60
0
100
AcDbEllipse
10
-0.948929
20
0
30
0
11
9.36273417084266
21
-19.7318782781745
31
0
210
0
220
0
230
1
40
0.341999
41
0.153707632784437
42
1.09533813961378
0
ELLIPSE
5
DB
100
AcDbEntity
8
1
62
256
6
ByLayer
370
18
48
1
60
0
100
AcDbEllipse
10
16.948929
20
0
30
0
11
9.3627341708418
21
19.7318782781734
31
0
210
0
220
0
230
1
40
0.341999
41
2.04625451397597
42
2.98788502080535
0
POINT
5
6C
100
AcDbEntity
8
81
62
256
6
ByLayer
370
18
48
1
60
0
100
AcDbPoint
10
50
20
0
30
0
39
0
210
0
220
0
230
1
50
360
0
POINT
5
6E
100
AcDbEntity
8
80
62
256
6
ByLayer
370
18
48
1
60
0
100
AcDbPoint
10
0
20
0
30
0
39
0
210
0
220
0
230
1
50
360
0
POINT
5
70
100
AcDbEntity
8
SK2
62
256
6
ByLayer
370
18
48
1
60
1
100
AcDbPoint
10
0
20
-20
30
0
39
0
210
0
220
0
230
1
50
360
0
POINT
5
72
100
AcDbEntity
8
SK2
62
256
6
ByLayer
370
18
48
1
60
1
100
AcDbPoint
10
0
20
20
30
0
39
0
210
0
220
0
230
1
50
360
0
SPLINE
5
DC
100
AcDbEntity
8
SK1
62
256
6
ByLayer
370
18
48
1
60
0
100
AcDbSpline
70
4
71
2
72
6
73
3
40
0
40
0
40
0
40
1
40
1
40
1
41
1
10
-22.5
20
-13.4933966698402
30
0
41
1
10
-12.0999999999449
20
-13.7545973909208
30
0
41
1
10
-1.69999999999999
20
-14.0157977997179
30
0
0
SPLINE
5
DD
100
AcDbEntity
8
SK1
62
256
6
ByLayer
370
18
48
1
60
0
100
AcDbSpline
70
4
71
2
72
6
73
3
40
0
40
0
40
0
40
1
40
1
40
1
41
1
10
-1.69999999999999
20
14.0157970602974
30
0
41
1
10
-12.099999999963
20
13.7545958471854
30
0
41
1
10
-22.5
20
13.493394380475
30
0
0
SPLINE
5
DE
100
AcDbEntity
8
SK1
62
256
6
ByLayer
370
18
48
1
60
0
100
AcDbSpline
70
4
71
2
72
6
73
3
40
0
40
0
40
0
40
1
40
1
40
1
41
1
10
-0.394976888875277
20
13.740379899128
30
0
41
1
10
-0.945008433407281
20
13.7266611372791
30
0
41
1
10
-1.49503997793931
20
13.7129423752896
30
0
0
SPLINE
5
DF
100
AcDbEntity
8
SK1
62
256
6
ByLayer
370
18
48
1
60
0
100
AcDbSpline
70
4
71
2
72
6
73
3
40
0
40
0
40
0
40
1
40
1
40
1
41
1
10
-1.49503997793931
20
-13.7129410868425
30
0
41
1
10
-0.945008433407281
20
-13.7266599565288
30
0
41
1
10
-0.394976888875277
20
-13.7403788260786
30
0
0
SPLINE
5
E0
100
AcDbEntity
8
SK1
62
256
6
ByLayer
370
18
48
1
60
0
100
AcDbSpline
70
4
71
2
72
6
73
3
40
0
40
0
40
0
40
1
40
1
40
1
41
1
10
-22.5
20
13.4970852847173
30
0
41
1
10
-23.2499999989318
20
13.0640908004416
30
0
41
1
10
-24
20
12.6310961283886
30
0
0
SPLINE
5
E1
100
AcDbEntity
8
SK1
62
256
6
ByLayer
370
18
48
1
60
0
100
AcDbSpline
70
4
71
2
72
6
73
3
40
0
40
0
40
0
40
1
40
1
40
1
41
1
10
-24
20
-12.6310964932104
30
0
41
1
10
-23.2499999989322
20
-13.0640911753538
30
0
41
1
10
-22.5
20
-13.4970856697526
30
0
0
SPLINE
5
E2
100
AcDbEntity
8
SK1
62
256
6
ByLayer
370
18
48
1
60
0
100
AcDbSpline
70
4
71
3
72
13
73
9
40
0
40
0
40
0
40
0
40
0.23945613699745
40
0.368359723417176
40
0.499998985516748
40
0.631638416576594
40
0.760542468702438
40
1
40
1
40
1
40
1
41
1
10
-1.69999999999999
20
-14.0200984156386
30
0
41
1
10
-1.6990919864528
20
-13.9940409390257
30
0
41
1
10
-1.69103284110332
20
-13.9566683539303
30
0
41
1
10
-1.66563592205637
20
-13.9104491790265
30
0
41
1
10
-1.63886378681673
20
-13.8791676243502
30
0
41
1
10
-1.60627712752265
20
-13.8540002532836
30
0
41
1
10
-1.5588406423667
20
-13.830956449625
30
0
41
1
10
-1.52111030874428
20
-13.8247841935567
30
0
41
1
10
-1.49503997793931
20
-13.8251858327438
30
0
0
SPLINE
5
E3
100
AcDbEntity
8
SK1
62
256
6
ByLayer
370
18
48
1
60
0
100
AcDbSpline
70
4
71
3
72
13
73
9
40
0
40
0
40
0
40
0
40
0.239457531275257
40
0.368361583394578
40
0.500001014452602
40
0.6316402765553
40
0.760543862982293
40
1
40
1
40
1
40
1
41
1
10
-1.49503997793931
20
13.8251858293361
30
0
41
1
10
-1.52111030874494
20
13.8247841901529
30
0
41
1
10
-1.55884064236798
20
13.8309564462263
30
0
41
1
10
-1.60627712752338
20
13.8540002498916
30
0
41
1
10
-1.63886378681735
20
13.8791676209636
30
0
41
1
10
-1.66563592205679
20
13.9104491756452
30
0
41
1
10
-1.69103284110358
20
13.9566683505561
30
0
41
1
10
-1.69909198645308
20
13.9940409356568
30
0
41
1
10
-1.69999999999999
20
14.0200984122732
30
0
0
SPLINE
5
E4
100
AcDbEntity
8
SK1
62
256
6
ByLayer
370
13
48
1
60
0
100
AcDbSpline
70
4
71
3
72
91
73
87
40
0
40
0
40
0
40
0
40
0.004723155761932
40
0.0147478622427688
40
0.0247725687236057
40
0.0347972752044425
40
0.0448219816852794
40
0.0648713946469531
40
0.0849208076086269
40
0.104970220570301
40
0.125019633531974
40
0.135044340012811
40
0.145069046493648
40
0.155093752974485
40
0.165118459455322
40
0.185167872416996
40
0.205217285378669
40
0.215241991859506
40
0.225266698340343
40
0.23529140482118
40
0.245316111302017
40
0.255340817782854
40
0.26536552426369
40
0.285414937225364
40
0.295439643706201
40
0.305464350187038
40
0.325513763148712
40
0.345563176110385
40
0.355587882591222
40
0.365612589072059
40
0.385662002033733
40
0.39568670851457
40
0.400699061754988
40
0.405711414995407
40
0.415736121476243
40
0.42576082795708
40
0.445810240918754
40
0.455834947399591
40
0.465859653880428
40
0.475884360361265
40
0.485909066842101
40
0.495933773322938
40
0.505958479803775
40
0.515983186284612
40
0.526007892765449
40
0.536032599246286
40
0.546057305727123
40
0.566106718688796
40
0.576131425169633
40
0.58615613165047
40
0.596180838131307
40
0.601193191371725
40
0.606205544612144
40
0.616230251092981
40
0.626254957573818
40
0.636279664054655
40
0.646304370535491
40
0.656329077016328
40
0.666353783497165
40
0.686403196458839
40
0.706452609420512
40
0.716477315901349
40
0.726502022382186
40
0.74655143534386
40
0.756576141824697
40
0.766600848305534
40
0.776625554786371
40
0.786650261267207
40
0.796674967748044
40
0.806699674228881
40
0.816724380709718
40
0.826749087190555
40
0.846798500152229
40
0.856823206633065
40
0.866847913113902
40
0.876872619594739
40
0.886897326075576
40
0.896922032556413
40
0.90694673903725
40
0.926996151998923
40
0.93702085847976
40
0.947045564960597
40
0.957070271441434
40
0.967094977922271
40
0.987144390883945
40
1
40
1
40
1
40
1
41
1
10
-0.394976888875277
20
5.0009244140283
30
0
41
1
10
-0.394976888875277
20
5.02359271293304
30
0
41
1
10
-0.394976888875277
20
5.09425517295406
30
0
41
1
10
-0.394976888875277
20
5.21232773385495
30
0
41
1
10
-0.394976888875277
20
5.35463940810163
30
0
41
1
10
-0.394976888875277
20
5.49591838220567
30
0
41
1
10
-0.394976888875277
20
5.68302324019061
30
0
41
1
10
-0.394976888875277
20
5.91406385279547
30
0
41
1
10
-0.394976888875277
20
6.18726433662556
30
0
41
1
10
-0.394976888875277
20
6.45627503636445
30
0
41
1
10
-0.394976888875277
20
6.67684685573994
30
0
41
1
10
-0.394976888875277
20
6.85136200824962
30
0
41
1
10
-0.394976888875277
20
6.98112244545175
30
0
41
1
10
-0.394976888875277
20
7.10982244878713
30
0
41
1
10
-0.394976888875277
20
7.28009509164627
30
0
41
1
10
-0.394976888875277
20
7.49008089634199
30
0
41
1
10
-0.394976888875277
20
7.69650359349293
30
0
41
1
10
-0.394976888875277
20
7.85964213989763
30
0
41
1
10
-0.394976888875277
20
7.98086143927398
30
0
41
1
10
-0.394976888875277
20
8.10100252302422
30
0
41
1
10
-0.394976888875277
20
8.22006379392718
30
0
41
1
10
-0.394976888875277
20
8.33804225713789
30
0
41
1
10
-0.394976888875277
20
8.49397418950429
30
0
41
1
10
-0.394976888875277
20
8.64751154095558
30
0
41
1
10
-0.394976888875277
20
8.79907643306458
30
0
41
1
10
-0.394976888875277
20
8.94918033853523
30
0
41
1
10
-0.394976888875277
20
9.13390678694702
30
0
41
1
10
-0.394976888875277
20
9.3149499665038
30
0
41
1
10
-0.394976888875277
20
9.45767861814849
30
0
41
1
10
-0.394976888875277
20
9.59892076352932
30
0
41
1
10
-0.394976888875277
20
9.73773600630287
30
0
41
1
10
-0.394976888875277
20
9.85736934874495
30
0
41
1
10
-0.394976888875277
20
9.92517900727512
30
0
41
1
10
-0.394976888875277
20
9.99261143893298
30
0
41
1
10
-0.394976888875277
20
10.0761265525343
30
0
41
1
10
-0.394976888875277
20
10.2083399780688
30
0
41
1
10
-0.394976888875277
20
10.3380960413352
30
0
41
1
10
-0.394976888875277
20
10.4657231550753
30
0
41
1
10
-0.394976888875277
20
10.5602461340712
30
0
41
1
10
-0.394976888875277
20
10.6536100721469
30
0
41
1
10
-0.394976888875277
20
10.74580988339
30
0
41
1
10
-0.394976888875277
20
10.8368404439692
30
0
41
1
10
-0.394976888875277
20
10.9266969759659
30
0
41
1
10
-0.394976888875277
20
11.0153746780185
30
0
41
1
10
-0.394976888875277
20
11.102867622286
30
0
41
1
10
-0.394976888875277
20
11.1891707558493
30
0
41
1
10
-0.394976888875277
20
11.3026972493618
30
0
41
1
10
-0.394976888875277
20
11.4136741241806
30
0
41
1
10
-0.394976888875277
20
11.5223699646631
30
0
41
1
10
-0.394976888875277
20
11.6026363586083
30
0
41
1
10
-0.394976888875277
20
11.6684804259269
30
0
41
1
10
-0.394976888875277
20
11.7205808778945
30
0
41
1
10
-0.394976888875277
20
11.7722691621604
30
0
41
1
10
-0.394976888875277
20
11.8360539668501
30
0
41
1
10
-0.394976888875277
20
11.9113764581405
30
0
41
1
10
-0.394976888875277
20
11.9854459580753
30
0
41
1
10
-0.394976888875277
20
12.0582544060742
30
0
41
1
10
-0.394976888875277
20
12.1297946053789
30
0
41
1
10
-0.394976888875277
20
12.2235215734124
30
0
41
1
10
-0.394976888875277
20
12.3373769122162
30
0
41
1
10
-0.394976888875277
20
12.4468991604423
30
0
41
1
10
-0.394976888875277
20
12.5319491453114
30
0
41
1
10
-0.394976888875277
20
12.6152283382819
30
0
41
1
10
-0.394976888875277
20
12.6957215859151
30
0
41
1
10
-0.394976888875277
20
12.7736108931729
30
0
41
1
10
-0.394976888875277
20
12.8306328717281
30
0
41
1
10
-0.394976888875277
20
12.8862769376535
30
0
41
1
10
-0.394976888875277
20
12.9405320737836
30
0
41
1
10
-0.394976888875277
20
12.9933861020735
30
0
41
1
10
-0.394976888875277
20
13.0448282447276
30
0
41
1
10
-0.394976888875277
20
13.094846134259
30
0
41
1
10
-0.394976888875277
20
13.1596507604527
30
0
41
1
10
-0.394976888875277
20
13.2214670183476
30
0
41
1
10
-0.394976888875277
20
13.2804176635455
30
0
41
1
10
-0.394976888875277
20
13.3231185671574
30
0
41
1
10
-0.394976888875277
20
13.3643136176474
30
0
41
1
10
-0.394976888875277
20
13.4039879614121
30
0
41
1
10
-0.394976888875277
20
13.4421262012037
30
0
41
1
10
-0.394976888875277
20
13.4909311840823
30
0
41
1
10
-0.394976888875277
20
13.5365270016785
30
0
41
1
10
-0.394976888875277
20
13.5789821852606
30
0
41
1
10
-0.394976888875277
20
13.6091837483775
30
0
41
1
10
-0.394976888875277
20
13.6377421071264
30
0
41
1
10
-0.394976888875277
20
13.6736219510479
30
0
41
1
10
-0.394976888875277
20
13.7083936629626
30
0
41
1
10
-0.394976888875277
20
13.731953112854
30
0
41
1
10
-0.394976888875277
20
13.7406754136241
30
0
0
SPLINE
5
E5
100
AcDbEntity
8
SK1
62
256
6
ByLayer
370
18
48
1
60
0
100
AcDbSpline
70
4
71
3
72
15
73
11
40
0
40
0
40
0
40
0
40
0.0913510524184431
40
0.345951818890013
40
0.473252202125797
40
0.600552585361581
40
0.727852968597365
40
0.85515335183315
40
0.982453735068936
40
1
40
1
40
1
40
1
41
1
10
-0.394976888875249
20
13.7406755175428
30
0
41
1
10
-0.394976888875277
20
13.7455563479568
30
0
41
1
10
-0.394976888875306
20
13.7634686421978
30
0
41
1
10
-0.394976888875277
20
13.7849758313288
30
0
41
1
10
-0.394976888875277
20
13.8044829705053
30
0
41
1
10
-0.394976888875277
20
13.8172492272358
30
0
41
1
10
-0.394976888875277
20
13.8281310063336
30
0
41
1
10
-0.394976888875277
20
13.8370982474882
30
0
41
1
10
-0.394976888875277
20
13.842101166137
30
0
41
1
10
-0.394976888875277
20
13.8443369604552
30
0
41
1
10
-0.394976888875277
20
13.8446015176322
30
0
0
SPLINE
5
E6
100
AcDbEntity
8
SK1
62
256
6
ByLayer
370
18
48
1
60
0
100
AcDbSpline
70
4
71
3
72
24
73
20
40
0
40
0
40
0
40
0
40
0.25
40
0.25
40
0.5
40
0.5
40
0.625000000000001
40
0.625000000000001
40
0.750000000000001
40
0.750000000000001
40
0.8125
40
0.8125
40
0.875
40
0.875
40
0.90625
40
0.90625
40
0.9375
40
0.9375
40
1
40
1
40
1
40
1
41
1
10
-1.30710678118655
20
3.62781725664613
30
0
41
1
10
-1.27668453291463
20
3.78212308479132
30
0
41
1
10
-1.24216894361871
20
3.93398824770151
30
0
41
1
10
-1.16077398327334
20
4.23236365169211
30
0
41
1
10
-1.11410703752748
20
4.37933268310843
30
0
41
1
10
-1.02709553867305
20
4.59256928859341
30
0
41
1
10
-0.995116720198951
20
4.66266858366526
30
0
41
1
10
-0.921756293939922
20
4.79796868002737
30
0
41
1
10
-0.880935597851789
20
4.86334184876199
30
0
41
1
10
-0.803759710398054
20
4.95360164898065
30
0
41
1
10
-0.775353909590535
20
4.98222160107781
30
0
41
1
10
-0.710417102430739
20
5.0316543750771
30
0
41
1
10
-0.672905235706793
20
5.05301456959728
30
0
41
1
10
-0.609903088653198
20
5.06932192720456
30
0
41
1
10
-0.588493507310886
20
5.07194672129913
30
0
41
1
10
-0.544749997564537
20
5.07084577117553
30
0
41
1
10
-0.523311125415034
20
5.06708508199603
30
0
41
1
10
-0.461957218190179
20
5.0481351773571
30
0
41
1
10
-0.426487186903671
20
5.02630216465266
30
0
41
1
10
-0.394976888875277
20
5.00092441402839
30
0
0
SPLINE
5
E7
100
AcDbEntity
8
1
62
256
6
ByLayer
370
18
48
1
60
0
100
AcDbSpline
70
4
71
3
72
14
73
10
40
0
40
0
40
0
40
0
40
0.25
40
0.25
40
0.5
40
0.5
40
0.75
40
0.75
40
1
40
1
40
1
40
1
41
1
10
6.66339745962156
20
6.18530333348511
30
0
41
1
10
6.67278161066807
20
6.15122984207497
30
0
41
1
10
6.68401082539069
20
6.11782763535436
30
0
41
1
10
6.7114426816313
20
6.05286193322368
30
0
41
1
10
6.72769320426727
20
6.02106703939825
30
0
41
1
10
6.76778420785129
20
5.96145602522549
30
0
41
1
10
6.79167842402154
20
5.93351950816276
30
0
41
1
10
6.84975949351247
20
5.89027467139996
30
0
41
1
10
6.88564128631961
20
5.87498344726853
30
0
41
1
10
6.92320508075687
20
5.87498344726853
30
0
0
SPLINE
5
E8
100
AcDbEntity
8
SK1
62
256
6
ByLayer
370
18
48
1
60
0
100
AcDbSpline
70
4
71
3
72
24
73
20
40
0
40
0
40
0
40
0
40
0.0312499999999997
40
0.0312499999999997
40
0.0624999999999994
40
0.0624999999999994
40
0.093749999999999
40
0.093749999999999
40
0.124999999999999
40
0.124999999999999
40
0.187499999999998
40
0.187499999999998
40
0.249999999999998
40
0.249999999999998
40
0.499999999999998
40
0.499999999999998
40
0.749999999999999
40
0.749999999999999
40
1
40
1
40
1
40
1
41
1
10
-0.394976888875277
20
5.0009244140283
30
0
41
1
10
-0.388468642918042
20
4.99568280562602
30
0
41
1
10
-0.381324616905118
20
4.99114019130747
30
0
41
1
10
-0.365549432031372
20
4.98518739058181
30
0
41
1
10
-0.356796835457004
20
4.98390560483415
30
0
41
1
10
-0.339435615628844
20
4.98662575165022
30
0
41
1
10
-0.330979825278035
20
4.99064303829883
30
0
41
1
10
-0.316458154456313
20
5.00137749301294
30
0
41
1
10
-0.31023293620882
20
5.00796421336065
30
0
41
1
10
-0.293637908337502
20
5.0291345250522
30
0
41
1
10
-0.285356392442452
20
5.04485242604278
30
0
41
1
10
-0.271048262620639
20
5.07695293962848
30
0
41
1
10
-0.265213301889418
20
5.09323765336489
30
0
41
1
10
-0.239456434884659
20
5.175224214336
30
0
41
1
10
-0.228706677165746
20
5.24267174957345
30
0
41
1
10
-0.212355887615843
20
5.37559968949549
30
0
41
1
10
-0.20749656564243
20
5.44161594206614
30
0
41
1
10
-0.201274525264864
20
5.57292339447449
30
0
41
1
10
-0.200000000000102
20
5.63821129007178
30
0
41
1
10
-0.200000000000102
20
5.70317614351211
30
0
0
SPLINE
5
E9
100
AcDbEntity
8
1
62
256
6
ByLayer
370
18
48
1
60
0
100
AcDbSpline
70
4
71
3
72
14
73
10
40
0
40
0
40
0
40
0
40
0.25
40
0.25
40
0.5
40
0.5
40
0.75
40
0.75
40
1
40
1
40
1
40
1
41
1
10
9.07679491924313
20
5.87498344726856
30
0
41
1
10
9.11440934806228
20
5.87498344726856
30
0
41
1
10
9.14975448264647
20
5.88992350224112
30
0
41
1
10
9.20871985963095
20
5.93380536541048
30
0
41
1
10
9.23220645479122
20
5.96144402228086
30
0
41
1
10
9.27230177535671
20
6.02105769459283
30
0
41
1
10
9.28841290466525
20
6.05255978196584
30
0
41
1
10
9.31589871808356
20
6.11757389266165
30
0
41
1
10
9.32721493594875
20
6.15121730297341
30
0
41
1
10
9.33660254037846
20
6.18530333348511
30
0
0
SPLINE
5
EA
100
AcDbEntity
8
1
62
256
6
ByLayer
370
18
48
1
60
0
100
AcDbSpline
70
4
71
3
72
14
73
10
40
0
40
0
40
0
40
0
40
0.25
40
0.25
40
0.5
40
0.5
40
0.75
40
0.75
40
1
40
1
40
1
40
1
41
1
10
9.33660254037844
20
19.0090010961328
30
0
41
1
10
9.32721838933193
20
19.0200882058098
30
0
41
1
10
9.31598917460931
20
19.0308551549148
30
0
41
1
10
9.2885573183687
20
19.0516173938221
30
0
41
1
10
9.27230679573273
20
19.0616848088323
30
0
41
1
10
9.23221579214871
20
19.0804118955409
30
0
41
1
10
9.20832157597849
20
19.0891057565939
30
0
41
1
10
9.15024050648756
20
19.1024939899386
30
0
41
1
10
9.11435871368039
20
19.1071889479934
30
0
41
1
10
9.07679491924313
20
19.1071889479934
30
0
0
SPLINE
5
EB
100
AcDbEntity
8
1
62
256
6
ByLayer
370
18
48
1
60
0
100
AcDbSpline
70
4
71
3
72
14
73
10
40
0
40
0
40
0
40
0
40
0.25
40
0.25
40
0.5
40
0.5
40
0.75
40
0.75
40
1
40
1
40
1
40
1
41
1
10
6.9232050807569
20
19.1071889479934
30
0
41
1
10
6.88559065193772
20
19.1071889479934
30
0
41
1
10
6.85024551735353
20
19.1026026677725
30
0
41
1
10
6.79128014036908
20
19.0890172987105
30
0
41
1
10
6.76779354520878
20
19.0804156479914
30
0
41
1
10
6.72769822464332
20
19.0616877628737
30
0
41
1
10
6.71158709533478
20
19.05171343244
30
0
41
1
10
6.68410128191644
20
19.0309367686909
30
0
41
1
10
6.67278506405125
20
19.0200922858846
30
0
41
1
10
6.66339745962154
20
19.0090010961328
30
0
0
SPLINE
5
EC
100
AcDbEntity
8
1
62
256
6
ByLayer
370
18
48
1
60
0
100
AcDbSpline
70
4
71
3
72
14
73
10
40
0
40
0
40
0
40
0
40
0.25
40
0.25
40
0.5
40
0.5
40
0.75
40
0.75
40
1
40
1
40
1
40
1
41
1
10
6.66339745962156
20
-19.0090010961328
30
0
41
1
10
6.67278161066807
20
-19.0200882058098
30
0
41
1
10
6.68401082539069
20
-19.0308551549148
30
0
41
1
10
6.7114426816313
20
-19.0516173938221
30
0
41
1
10
6.72769320426727
20
-19.0616848088323
30
0
41
1
10
6.76778420785129
20
-19.0804118955409
30
0
41
1
10
6.79167842402154
20
-19.0891057565939
30
0
41
1
10
6.84975949351247
20
-19.1024939899386
30
0
41
1
10
6.88564128631961
20
-19.1071889479934
30
0
41
1
10
6.92320508075687
20
-19.1071889479934
30
0
0
SPLINE
5
ED
100
AcDbEntity
8
1
62
256
6
ByLayer
370
18
48
1
60
0
100
AcDbSpline
70
4
71
3
72
14
73
10
40
0
40
0
40
0
40
0
40
0.25
40
0.25
40
0.5
40
0.5
40
0.75
40
0.75
40
1
40
1
40
1
40
1
41
1
10
9.07679491924313
20
-19.1071889479934
30
0
41
1
10
9.11440934806228
20
-19.1071889479934
30
0
41
1
10
9.14975448264647
20
-19.1026026677725
30
0
41
1
10
9.20871985963095
20
-19.0890172987105
30
0
41
1
10
9.23220645479122
20
-19.0804156479914
30
0
41
1
10
9.27230177535671
20
-19.0616877628737
30
0
41
1
10
9.28841290466525
20
-19.05171343244
30
0
41
1
10
9.31589871808359
20
-19.0309367686909
30
0
41
1
10
9.32721493594875
20
-19.0200922858846
30
0
41
1
10
9.33660254037846
20
-19.0090010961328
30
0
0
SPLINE
5
EE
100
AcDbEntity
8
1
62
256
6
ByLayer
370
18
48
1
60
0
100
AcDbSpline
70
4
71
3
72
14
73
10
40
0
40
0
40
0
40
0
40
0.25
40
0.25
40
0.5
40
0.5
40
0.75
40
0.75
40
1
40
1
40
1
40
1
41
1
10
9.33660254037844
20
-6.18530333348511
30
0
41
1
10
9.32721838933193
20
-6.15122984207497
30
0
41
1
10
9.31598917460934
20
-6.11782763535436
30
0
41
1
10
9.2885573183687
20
-6.05286193322368
30
0
41
1
10
9.27230679573273
20
-6.02106703939822
30
0
41
1
10
9.23221579214871
20
-5.96145602522549
30
0
41
1
10
9.20832157597849
20
-5.93351950816273
30
0
41
1
10
9.15024050648756
20
-5.89027467139996
30
0
41
1
10
9.11435871368039
20
-5.87498344726853
30
0
41
1
10
9.07679491924313
20
-5.87498344726853
30
0
0
SPLINE
5
EF
100
AcDbEntity
8
SK1
62
256
6
ByLayer
370
18
48
1
60
0
100
AcDbSpline
70
4
71
3
72
16
73
12
40
0
40
0
40
0
40
0
40
0.017544025573139
40
0.144844227573876
40
0.272144429574613
40
0.399444631575351
40
0.526744833576088
40
0.654045035576825
40
0.781345237577562
40
0.908645439578299
40
1
40
1
40
1
40
1
41
1
10
-0.394976888875277
20
-13.8446019297682
30
0
41
1
10
-0.394976888875277
20
-13.8443373794894
30
0
41
1
10
-0.394976888875277
20
-13.8421014019358
30
0
41
1
10
-0.394976888875277
20
-13.8370980881852
30
0
41
1
10
-0.394976888875277
20
-13.8281307581185
30
0
41
1
10
-0.394976888875277
20
-13.8172491473121
30
0
41
1
10
-0.394976888875277
20
-13.8044829828858
30
0
41
1
10
-0.394976888875277
20
-13.7898613788954
30
0
41
1
10
-0.394976888875277
20
-13.7734119916164
30
0
41
1
10
-0.394976888875277
20
-13.7568788304845
30
0
41
1
10
-0.394976888875306
20
-13.7455562391848
30
0
41
1
10
-0.394976888875334
20
-13.7406739297681
30
0
0
SPLINE
5
F0
100
AcDbEntity
8
SK1
62
256
6
ByLayer
370
13
48
1
60
0
100
AcDbSpline
70
4
71
3
72
92
73
88
40
0
40
0
40
0
40
0
40
0.0028307426411005
40
0.0128554511878801
40
0.0329048682814392
40
0.0429295768282187
40
0.0529542853749983
40
0.0629789939217778
40
0.0730037024685573
40
0.0930531195621164
40
0.103077828108896
40
0.113102536655676
40
0.123127245202455
40
0.133151953749235
40
0.143176662296014
40
0.153201370842794
40
0.173250787936353
40
0.183275496483132
40
0.193300205029912
40
0.203324913576691
40
0.213349622123471
40
0.22337433067025
40
0.23339903921703
40
0.24342374776381
40
0.253448456310589
40
0.273497873404148
40
0.283522581950928
40
0.293547290497707
40
0.313596707591266
40
0.333646124684825
40
0.343670833231605
40
0.353695541778385
40
0.363720250325164
40
0.373744958871943
40
0.383769667418723
40
0.393794375965503
40
0.398806730238892
40
0.403819084512282
40
0.413843793059062
40
0.423868501605841
40
0.433893210152621
40
0.45394262724618
40
0.46396733579296
40
0.473992044339739
40
0.484016752886519
40
0.494041461433298
40
0.504066169980078
40
0.514090878526857
40
0.524115587073637
40
0.534140295620416
40
0.544165004167196
40
0.554189712713975
40
0.574239129807534
40
0.584263838354314
40
0.594288546901093
40
0.599300901174483
40
0.604313255447873
40
0.614337963994653
40
0.634387381088212
40
0.644412089634991
40
0.654436798181771
40
0.67448621527533
40
0.694535632368889
40
0.704560340915668
40
0.714585049462448
40
0.734634466556007
40
0.744659175102787
40
0.754683883649566
40
0.764708592196346
40
0.774733300743125
40
0.784758009289905
40
0.794782717836684
40
0.814832134930243
40
0.834881552023802
40
0.844906260570582
40
0.854930969117362
40
0.864955677664141
40
0.874980386210921
40
0.89502980330448
40
0.915079220398039
40
0.935128637491598
40
0.955178054585157
40
0.965202763131937
40
0.975227471678716
40
0.985252180225496
40
0.995276888772275
40
1
40
1
40
1
40
1
41
1
10
-0.394976888875334
20
-13.7406740821812
30
0
41
1
10
-0.394976888875306
20
-13.7387529709496
30
0
41
1
10
-0.394976888875277
20
-13.7299218268936
30
0
41
1
10
-0.394976888875277
20
-13.706079968468
30
0
41
1
10
-0.394976888875277
20
-13.6736219491958
30
0
41
1
10
-0.394976888875277
20
-13.6377421279937
30
0
41
1
10
-0.394976888875277
20
-13.6091837809887
30
0
41
1
10
-0.394976888875277
20
-13.5789822078612
30
0
41
1
10
-0.394976888875277
20
-13.5365270011545
30
0
41
1
10
-0.394976888875277
20
-13.490931201485
30
0
41
1
10
-0.394976888875277
20
-13.4421262291561
30
0
41
1
10
-0.394976888875277
20
-13.4039879870964
30
0
41
1
10
-0.394976888875277
20
-13.3643136307331
30
0
41
1
10
-0.394976888875277
20
-13.3231185723383
30
0
41
1
10
-0.394976888875277
20
-13.2804176772461
30
0
41
1
10
-0.394976888875277
20
-13.221467049789
30
0
41
1
10
-0.394976888875277
20
-13.1596507828291
30
0
41
1
10
-0.394976888875277
20
-13.0948461430692
30
0
41
1
10
-0.394976888875277
20
-13.0448282543027
30
0
41
1
10
-0.394976888875277
20
-12.9933861205259
30
0
41
1
10
-0.394976888875277
20
-12.940532100831
30
0
41
1
10
-0.394976888875277
20
-12.8862769625636
30
0
41
1
10
-0.394976888875277
20
-12.8306328883531
30
0
41
1
10
-0.394976888875277
20
-12.773610902979
30
0
41
1
10
-0.394976888875277
20
-12.6957215996061
30
0
41
1
10
-0.394976888875277
20
-12.6152283642396
30
0
41
1
10
-0.394976888875277
20
-12.5319491682166
30
0
41
1
10
-0.394976888875277
20
-12.446899173783
30
0
41
1
10
-0.394976888875277
20
-12.3373769247913
30
0
41
1
10
-0.394976888875277
20
-12.2235215963167
30
0
41
1
10
-0.394976888875277
20
-12.1297946270485
30
0
41
1
10
-0.394976888875277
20
-12.0582544232072
30
0
41
1
10
-0.394976888875277
20
-11.9854459723214
30
0
41
1
10
-0.394976888875277
20
-11.9113764724791
30
0
41
1
10
-0.394976888875277
20
-11.836053984022
30
0
41
1
10
-0.394976888875277
20
-11.7722691819395
30
0
41
1
10
-0.394976888875277
20
-11.7205808983271
30
0
41
1
10
-0.394976888875277
20
-11.6684804460587
30
0
41
1
10
-0.394976888875277
20
-11.6026363770329
30
0
41
1
10
-0.394976888875277
20
-11.5223699808134
30
0
41
1
10
-0.394976888875277
20
-11.413674138825
30
0
41
1
10
-0.394976888875277
20
-11.3026972665534
30
0
41
1
10
-0.394976888875277
20
-11.1891707748317
30
0
41
1
10
-0.394976888875277
20
-11.1028676417001
30
0
41
1
10
-0.394976888875277
20
-11.0153746961414
30
0
41
1
10
-0.394976888875277
20
-10.9266969919675
30
0
41
1
10
-0.394976888875277
20
-10.8368404586376
30
0
41
1
10
-0.394976888875277
20
-10.7458098983122
30
0
41
1
10
-0.394976888875277
20
-10.6536100894112
30
0
41
1
10
-0.394976888875277
20
-10.5602461538978
30
0
41
1
10
-0.394976888875277
20
-10.4657231753345
30
0
41
1
10
-0.394976888875277
20
-10.338096057249
30
0
41
1
10
-0.394976888875277
20
-10.2083399899529
30
0
41
1
10
-0.394976888875277
20
-10.0761265678462
30
0
41
1
10
-0.394976888875277
20
-9.99261145812801
30
0
41
1
10
-0.394976888875277
20
-9.92517902838179
30
0
41
1
10
-0.394976888875277
20
-9.85736937045593
30
0
41
1
10
-0.394976888875277
20
-9.73773602301958
30
0
41
1
10
-0.394976888875277
20
-9.59892077296985
30
0
41
1
10
-0.394976888875277
20
-9.45767863215664
30
0
41
1
10
-0.394976888875277
20
-9.31494999082747
30
0
41
1
10
-0.394976888875277
20
-9.13390680482667
30
0
41
1
10
-0.394976888875277
20
-8.94918034619519
30
0
41
1
10
-0.394976888875277
20
-8.79907644696402
30
0
41
1
10
-0.394976888875277
20
-8.64751156797169
30
0
41
1
10
-0.394976888875277
20
-8.49397420958985
30
0
41
1
10
-0.394976888875277
20
-8.3380422654499
30
0
41
1
10
-0.394976888875277
20
-8.22006380191277
30
0
41
1
10
-0.394976888875277
20
-8.10100253994159
30
0
41
1
10
-0.394976888875277
20
-7.98086146605701
30
0
41
1
10
-0.394976888875277
20
-7.85964216476054
30
0
41
1
10
-0.394976888875277
20
-7.69650359935568
30
0
41
1
10
-0.394976888875277
20
-7.49008091096033
30
0
41
1
10
-0.394976888875277
20
-7.28009512097313
30
0
41
1
10
-0.394976888875277
20
-7.10982246715957
30
0
41
1
10
-0.394976888875277
20
-6.98112245032084
30
0
41
1
10
-0.394976888875277
20
-6.85136201549099
30
0
41
1
10
-0.394976888875277
20
-6.6768468885183
30
0
41
1
10
-0.394976888875277
20
-6.45627504712579
30
0
41
1
10
-0.394976888875277
20
-6.18726435105106
30
0
41
1
10
-0.394976888875277
20
-5.91406388300979
30
0
41
1
10
-0.394976888875277
20
-5.68302324398948
30
0
41
1
10
-0.394976888875277
20
-5.49591839522026
30
0
41
1
10
-0.394976888875277
20
-5.35463943777347
30
0
41
1
10
-0.394976888875277
20
-5.21232773830431
30
0
41
1
10
-0.394976888875277
20
-5.09425535366776
30
0
41
1
10
-0.394976888875277
20
-5.02359314607173
30
0
41
1
10
-0.394976888875277
20
-5.00092508225413
30
0
0
SPLINE
5
F1
100
AcDbEntity
8
1
62
256
6
ByLayer
370
18
48
1
60
0
100
AcDbSpline
70
4
71
3
72
14
73
10
40
0
40
0
40
0
40
0
40
0.25
40
0.25
40
0.5
40
0.5
40
0.75
40
0.75
40
1
40
1
40
1
40
1
41
1
10
6.9232050807569
20
-5.87498344726856
30
0
41
1
10
6.88559065193772
20
-5.87498344726856
30
0
41
1
10
6.85024551735353
20
-5.88992350224112
30
0
41
1
10
6.79128014036905
20
-5.93380536541048
30
0
41
1
10
6.76779354520878
20
-5.96144402228086
30
0
41
1
10
6.72769822464329
20
-6.02105769459283
30
0
41
1
10
6.71158709533478
20
-6.05255978196584
30
0
41
1
10
6.68410128191644
20
-6.11757389266165
30
0
41
1
10
6.67278506405125
20
-6.15121730297341
30
0
41
1
10
6.66339745962154
20
-6.18530333348511
30
0
0
SPLINE
5
F2
100
AcDbEntity
8
1
62
256
6
ByLayer
370
18
48
1
60
0
100
AcDbSpline
70
2053
71
3
72
100
73
96
40
0
40
0
40
0
40
0
40
0.0312500000000002
40
0.0312500000000002
40
0.0468750000000003
40
0.0468750000000003
40
0.0625000000000004
40
0.0625000000000004
40
0.0937500000000005
40
0.0937500000000005
40
0.109375000000001
40
0.109375000000001
40
0.125000000000001
40
0.140625000000001
40
0.140625000000001
40
0.156250000000001
40
0.156250000000001
40
0.187500000000001
40
0.187500000000001
40
0.203125000000001
40
0.203125000000001
40
0.218750000000001
40
0.218750000000001
40
0.234375000000001
40
0.234375000000001
40
0.250000000000001
40
0.250000000000001
40
0.281250000000001
40
0.281250000000001
40
0.312500000000001
40
0.312500000000001
40
0.343750000000002
40
0.343750000000002
40
0.359375000000002
40
0.359375000000002
40
0.375000000000002
40
0.375000000000002
40
0.406250000000002
40
0.406250000000002
40
0.421875000000002
40
0.421875000000002
40
0.437500000000002
40
0.437500000000002
40
0.468750000000002
40
0.468750000000002
40
0.484375000000002
40
0.484375000000002
40
0.500000000000002
40
0.500000000000002
40
0.515625000000001
40
0.515625000000001
40
0.531250000000001
40
0.531250000000001
40
0.562500000000001
40
0.562500000000001
40
0.578125000000001
40
0.578125000000001
40
0.593750000000001
40
0.593750000000001
40
0.625000000000001
40
0.625000000000001
40
0.640625000000001
40
0.640625000000001
40
0.656250000000001
40
0.671875000000001
40
0.671875000000001
40
0.687500000000001
40
0.687500000000001
40
0.718750000000001
40
0.718750000000001
40
0.734375000000001
40
0.734375000000001
40
0.750000000000001
40
0.750000000000001
40
0.765625000000001
40
0.765625000000001
40
0.781250000000001
40
0.781250000000001
40
0.812500000000001
40
0.812500000000001
40
0.828125000000001
40
0.828125000000001
40
0.843750000000001
40
0.843750000000001
40
0.875000000000001
40
0.875000000000001
40
0.890625000000001
40
0.890625000000001
40
0.906250000000001
40
0.906250000000001
40
0.9375
40
0.9375
40
0.96875
40
0.96875
40
1
40
1
40
1
40
1
41
1
10
5.08615557768583
20
-1.94774684068415
30
0
41
1
10
4.94503710078445
20
-1.76825380528524
30
0
41
1
10
4.82427027325261
20
-1.57734917626394
30
0
41
1
10
4.67405482630954
20
-1.27354014924558
30
0
41
1
10
4.629176529521
20
-1.16934083169511
30
0
41
1
10
4.55038578923981
20
-0.954741754545012
30
0
41
1
10
4.51706228451849
20
-0.845856571480937
30
0
41
1
10
4.43565032023665
20
-0.51675988770117
30
0
41
1
10
4.4055731379737
20
-0.293180132740872
30
0
41
1
10
4.39825987330698
20
0.0487331993913358
30
0
41
1
10
4.40228172126061
20
0.163593390561715
30
0
41
1
10
4.42283087207218
20
0.389496522227063
30
0
41
1
10
4.45581287495355
20
0.613099132470182
30
0
41
1
10
4.51316375127033
20
0.832196560239311
30
0
41
1
10
4.58283049990919
20
1.04902055548445
30
0
41
1
10
4.62388504025924
20
1.15618147776527
30
0
41
1
10
4.7623319625402
20
1.4667389183187
30
0
41
1
10
4.87562249181616
20
1.6619780508351
30
0
41
1
10
5.07595235225267
20
1.93785237819438
30
0
41
1
10
5.14789159311488
20
2.02689770249094
30
0
41
1
10
5.29876554218666
20
2.19569852583246
30
0
41
1
10
5.37804947747492
20
2.27596529801255
30
0
41
1
10
5.54405121224579
20
2.42854041257161
30
0
41
1
10
5.63076978253093
20
2.50084787780653
30
0
41
1
10
5.81161145991189
20
2.63756509355909
30
0
41
1
10
5.90615580679292
20
2.70219378862649
30
0
41
1
10
6.19578389835649
20
2.88088979875352
30
0
41
1
10
6.39789613962654
20
2.98095179977841
30
0
41
1
10
6.81949931582906
20
3.1446015066482
30
0
41
1
10
7.04072452399308
20
3.20822118924014
30
0
41
1
10
7.48489183429336
20
3.29436950930247
30
0
41
1
10
7.70937054430092
20
3.31778205056591
30
0
41
1
10
8.04969199893148
20
3.32337168342096
30
0
41
1
10
8.16430815679274
20
3.32022558882602
30
0
41
1
10
8.39146937961178
20
3.30391610836952
30
0
41
1
10
8.50396646344606
20
3.29082150011678
30
0
41
1
10
8.83828128233299
20
3.23704203797371
30
0
41
1
10
9.05695067342396
20
3.18199342075539
30
0
41
1
10
9.3784377842014
20
3.06956682770885
30
0
41
1
10
9.48485257048563
20
3.0268755307132
30
0
41
1
10
9.69119491226385
20
2.93295746510432
30
0
41
1
10
9.79161026163447
20
2.8815977012008
30
0
41
1
10
10.0846629603203
20
2.71439204420923
30
0
41
1
10
10.2691937197475
20
2.58556137466886
30
0
41
1
10
10.5285837353632
20
2.36422855443237
30
0
41
1
10
10.6117916351903
20
2.28592041586455
30
0
41
1
10
10.7684334291387
20
2.12325647610032
30
0
41
1
10
10.8423517310737
20
2.03850274548529
30
0
41
1
10
10.9813282434006
20
1.86208488270049
30
0
41
1
10
11.0463874179443
20
1.77042154189189
30
0
41
1
10
11.1673143480055
20
1.57990273906637
30
0
41
1
10
11.2233724823078
20
1.48066393514048
30
0
41
1
10
11.3755276764473
20
1.17389969628397
30
0
41
1
10
11.4535703987194
20
0.962252216575081
30
0
41
1
10
11.5356071251476
20
0.634049592904574
30
0
41
1
10
11.557071462829
20
0.522847148304663
30
0
41
1
10
11.5876825323217
20
0.29666476125746
30
0
41
1
10
11.5966669156099
20
0.182166144329159
30
0
41
1
10
11.6043386220463
20
-0.157939008385171
30
0
41
1
10
11.5843814639392
20
-0.383036406082681
30
0
41
1
10
11.5166229767289
20
-0.718212017970529
30
0
41
1
10
11.4875996882893
20
-0.829425992343658
30
0
41
1
10
11.4184063176123
20
-1.04555449451084
30
0
41
1
10
11.3378206786498
20
-1.25681920609435
30
0
41
1
10
11.2351308805537
20
-1.45866682992786
30
0
41
1
10
11.1213803545583
20
-1.65581468704016
30
0
41
1
10
11.0589528722263
20
-1.75191031923148
30
0
41
1
10
10.8594923145792
20
-2.02707360016228
30
0
41
1
10
10.7091904700159
20
-2.19538530142003
30
0
41
1
10
10.4587321455672
20
-2.42617453526736
30
0
41
1
10
10.3707831544548
20
-2.49959406871815
30
0
41
1
10
10.1900060019441
20
-2.63642067852507
30
0
41
1
10
10.096802483165
20
-2.70021302686396
30
0
41
1
10
9.90494871473862
20
-2.8188892052853
30
0
41
1
10
9.80629789327776
20
-2.87377204253366
30
0
41
1
10
9.6035708169313
20
-2.97469408403435
30
0
41
1
10
9.49905756670185
20
-3.02089702979345
30
0
41
1
10
9.18035343337672
20
-3.14476407329258
30
0
41
1
10
8.96313503019729
20
-3.20721586372397
30
0
41
1
10
8.63048656636977
20
-3.2721161111013
30
0
41
1
10
8.51845905775352
20
-3.2889190922144
30
0
41
1
10
8.2920734452841
20
-3.31270247310491
30
0
41
1
10
8.17744526844245
20
-3.3196382381015
30
0
41
1
10
7.83664312312203
20
-3.32524420404084
30
0
41
1
10
7.61144239662806
20
-3.30916724437407
30
0
41
1
10
7.2766084447299
20
-3.25563082645854
30
0
41
1
10
7.16549473592394
20
-3.23285041745373
30
0
41
1
10
6.94429627419163
20
-3.1770680496054
30
0
41
1
10
6.83482923122116
20
-3.14417198184771
30
0
41
1
10
6.51436125345879
20
-3.03202958415645
30
0
41
1
10
6.30936777768699
20
-2.9390088858716
30
0
41
1
10
5.91700481956829
20
-2.71554443066677
30
0
41
1
10
5.72847430437565
20
-2.58372349481104
30
0
41
1
10
5.38453547129504
20
-2.2899415686652
30
0
41
1
10
5.22727405458721
20
-2.12723987608305
30
0
41
1
10
5.08615557768583
20
-1.94774684068415
30
0
0
SPLINE
5
F3
100
AcDbEntity
8
SK1
62
256
6
ByLayer
370
18
48
1
60
0
100
AcDbSpline
70
4
71
3
72
281
73
277
40
0
40
0
40
0
40
0
40
0.0026986502218391
40
0.0062508068219899
40
0.0098029634221408
40
0.0133551200222917
40
0.0169072766224425
40
0.0204594332225933
40
0.0240115898227441
40
0.0311159030230458
40
0.0382202162233474
40
0.0453245294236491
40
0.0488766860238
40
0.0524288426239508
40
0.0559809992241017
40
0.0595331558242525
40
0.0666374690245541
40
0.070189625624705
40
0.0737417822248558
40
0.0772939388250066
40
0.0808460954251575
40
0.0843982520253083
40
0.0879504086254592
40
0.0950547218257608
40
0.0986068784259117
40
0.102159035026063
40
0.105711191626213
40
0.109263348226364
40
0.112815504826515
40
0.116367661426666
40
0.119919818026817
40
0.123471974626968
40
0.130576287827269
40
0.13412844442742
40
0.137680601027571
40
0.144784914227873
40
0.151889227428174
40
0.155441384028325
40
0.158993540628476
40
0.162545697228627
40
0.166097853828778
40
0.169650010428928
40
0.173202167029079
40
0.174978245329155
40
0.17675432362923
40
0.180306480229381
40
0.183858636829532
40
0.187410793429683
40
0.194515106629984
40
0.198067263230135
40
0.201619419830286
40
0.205171576430437
40
0.208723733030588
40
0.212275889630739
40
0.215828046230889
40
0.21938020283104
40
0.222932359431191
40
0.226484516031342
40
0.230036672631493
40
0.237140985831794
40
0.240693142431945
40
0.244245299032096
40
0.246021377332171
40
0.247797455632247
40
0.251349612232398
40
0.258453925432699
40
0.26200608203285
40
0.265558238633001
40
0.272662551833303
40
0.279766865033604
40
0.283319021633755
40
0.286871178233906
40
0.293975491434208
40
0.297527648034358
40
0.301079804634509
40
0.30463196123466
40
0.308184117834811
40
0.311736274434962
40
0.315288431035113
40
0.322392744235414
40
0.329497057435716
40
0.333049214035867
40
0.336601370636018
40
0.340153527236169
40
0.343705683836319
40
0.350809997036621
40
0.357914310236923
40
0.365018623437224
40
0.372122936637526
40
0.375675093237677
40
0.379227249837828
40
0.382779406437978
40
0.386331563038129
40
0.38988371963828
40
0.393435876238431
40
0.396988032838582
40
0.400540189438733
40
0.404092346038884
40
0.407644502639035
40
0.411196659239185
40
0.414748815839336
40
0.418300972439487
40
0.421853129039638
40
0.425405285639789
40
0.428957442239939
40
0.43250959884009
40
0.436061755440241
40
0.439613912040392
40
0.443166068640543
40
0.446718225240693
40
0.448494303540769
40
0.450270381840844
40
0.453822538440995
40
0.455598616741071
40
0.457374695041146
40
0.459150773341222
40
0.460926851641297
40
0.462702929941372
40
0.464479008241448
40
0.466255086541523
40
0.468031164841599
40
0.471583321441749
40
0.473359399741825
40
0.4751354780419
40
0.476911556341976
40
0.478687634642051
40
0.480463712942126
40
0.482239791242202
40
0.484015869542277
40
0.485791947842353
40
0.487568026142428
40
0.489344104442503
40
0.491120182742579
40
0.492896261042654
40
0.49467233934273
40
0.496448417642805
40
0.498224495942881
40
0.500000574242956
40
0.501776652543032
40
0.503552730843107
40
0.505328809143182
40
0.507104887443258
40
0.508880965743333
40
0.510657044043409
40
0.512433122343484
40
0.514209200643559
40
0.515985278943635
40
0.51776135724371
40
0.519537435543786
40
0.521313513843861
40
0.523089592143936
40
0.524865670444012
40
0.526641748744087
40
0.528417827044163
40
0.531969983644314
40
0.533746061944389
40
0.535522140244464
40
0.53729821854454
40
0.539074296844615
40
0.540850375144691
40
0.542626453444766
40
0.544402531744842
40
0.546178610044917
40
0.549730766645068
40
0.551506844945143
40
0.553282923245219
40
0.556835079845369
40
0.56038723644552
40
0.563939393045671
40
0.567491549645822
40
0.571043706245973
40
0.574595862846124
40
0.578148019446274
40
0.581700176046425
40
0.585252332646576
40
0.588804489246727
40
0.592356645846878
40
0.595908802447028
40
0.599460959047179
40
0.60301311564733
40
0.606565272247481
40
0.610117428847632
40
0.613669585447783
40
0.617221742047934
40
0.620773898648085
40
0.624326055248235
40
0.627878211848386
40
0.634982525048688
40
0.642086838248989
40
0.649191151449291
40
0.656295464649593
40
0.659847621249744
40
0.663399777849894
40
0.666951934450045
40
0.670504091050196
40
0.677608404250498
40
0.6847127174508
40
0.68826487405095
40
0.691817030651101
40
0.695369187251252
40
0.698921343851403
40
0.702473500451554
40
0.706025657051704
40
0.713129970252006
40
0.716682126852157
40
0.720234283452308
40
0.727338596652609
40
0.734442909852911
40
0.737995066453062
40
0.741547223053213
40
0.748651536253515
40
0.752203692853665
40
0.753979771153741
40
0.755755849453816
40
0.759308006053967
40
0.762860162654118
40
0.76996447585442
40
0.77351663245457
40
0.777068789054721
40
0.780620945654872
40
0.784173102255023
40
0.787725258855174
40
0.791277415455324
40
0.794829572055475
40
0.798381728655626
40
0.801933885255777
40
0.805486041855928
40
0.81259035505623
40
0.816142511656381
40
0.819694668256531
40
0.823246824856682
40
0.825022903156757
40
0.826798981456833
40
0.830351138056984
40
0.833903294657135
40
0.837455451257285
40
0.841007607857436
40
0.844559764457587
40
0.848111921057738
40
0.85521623425804
40
0.862320547458341
40
0.865872704058492
40
0.869424860658643
40
0.876529173858945
40
0.880081330459095
40
0.883633487059246
40
0.887185643659397
40
0.890737800259548
40
0.894289956859699
40
0.89784211345985
40
0.90139427006
40
0.904946426660151
40
0.912050739860453
40
0.915602896460604
40
0.919155053060755
40
0.922707209660905
40
0.926259366261056
40
0.929811522861207
40
0.933363679461358
40
0.94046799266166
40
0.944020149261811
40
0.947572305861961
40
0.951124462462112
40
0.954676619062263
40
0.961780932262565
40
0.965333088862716
40
0.968885245462866
40
0.972437402063017
40
0.975989558663168
40
0.979541715263319
40
0.98309387186347
40
0.98664602846362
40
0.990198185063771
40
0.993750341663922
40
0.997302498264073
40
1
40
1
40
1
40
1
41
1
10
-24
20
12.6301285446826
30
0
41
1
10
-24
20
12.6295507138439
30
0
41
1
10
-24
20
12.6277960242995
30
0
41
1
10
-24
20
12.623548726994
30
0
41
1
10
-24
20
12.6171099043118
30
0
41
1
10
-24
20
12.6088736083307
30
0
41
1
10
-24
20
12.5988647342338
30
0
41
1
10
-24
20
12.5871069661154
30
0
41
1
10
-24
20
12.569020437469
30
0
41
1
10
-24
20
12.5424060911485
30
0
41
1
10
-24
20
12.5036823998811
30
0
41
1
10
-24
20
12.466179119183
30
0
41
1
10
-24
20
12.4326960489613
30
0
41
1
10
-24
20
12.4061495447384
30
0
41
1
10
-24
20
12.3780532328159
30
0
41
1
10
-24
20
12.3383402816863
30
0
41
1
10
-24
20
12.2962370819873
30
0
41
1
10
-24
20
12.2505027270978
30
0
41
1
10
-24
20
12.2149010201899
30
0
41
1
10
-24
20
12.1778433481664
30
0
41
1
10
-24
20
12.139344023803
30
0
41
1
10
-24
20
12.0994154546281
30
0
41
1
10
-24
20
12.0440223921018
30
0
41
1
10
-24
20
11.9866456328948
30
0
41
1
10
-24
20
11.9256779328097
30
0
41
1
10
-24
20
11.8787993022056
30
0
41
1
10
-24
20
11.8305656793587
30
0
41
1
10
-24
20
11.78099039585
30
0
41
1
10
-24
20
11.7300825884547
30
0
41
1
10
-24
20
11.6778529900837
30
0
41
1
10
-24
20
11.6243139686469
30
0
41
1
10
-24
20
11.5508590476175
30
0
41
1
10
-24
20
11.4758394707542
30
0
41
1
10
-24
20
11.3972466128896
30
0
41
1
10
-24
20
11.3169609533628
30
0
41
1
10
-24
20
11.2142799019792
30
0
41
1
10
-24
20
11.1074990885262
30
0
41
1
10
-24
20
11.0189464603389
30
0
41
1
10
-24
20
10.9516093773873
30
0
41
1
10
-24
20
10.8830697782116
30
0
41
1
10
-24
20
10.8133337656712
30
0
41
1
10
-24
20
10.7424101789121
30
0
41
1
10
-24
20
10.6825334430363
30
0
41
1
10
-24
20
10.6336671760819
30
0
41
1
10
-24
20
10.5844084477176
30
0
41
1
10
-24
20
10.5225869468266
30
0
41
1
10
-24
20
10.4469857296791
30
0
41
1
10
-24
20
10.3442039867662
30
0
41
1
10
-24
20
10.2404782892815
30
0
41
1
10
-24
20
10.133123847137
30
0
41
1
10
-24
20
10.0518274139735
30
0
41
1
10
-24
20
9.96941226524035
30
0
41
1
10
-24
20
9.8858827890852
30
0
41
1
10
-24
20
9.80124634105394
30
0
41
1
10
-24
20
9.71550990056983
30
0
41
1
10
-24
20
9.62867742465991
30
0
41
1
10
-24
20
9.54075474090101
30
0
41
1
10
-24
20
9.45175012870757
30
0
41
1
10
-24
20
9.33111730296773
30
0
41
1
10
-24
20
9.20992961158598
30
0
41
1
10
-24
20
9.08500600225796
30
0
41
1
10
-24
20
9.00666454438806
30
0
41
1
10
-24
20
8.94296708063843
30
0
41
1
10
-24
20
8.87892107357061
30
0
41
1
10
-24
20
8.76613371827506
30
0
41
1
10
-24
20
8.63663898523424
30
0
41
1
10
-24
20
8.50332881313912
30
0
41
1
10
-24
20
8.36865251940401
30
0
41
1
10
-24
20
8.19913342470036
30
0
41
1
10
-24
20
8.02625870426021
30
0
41
1
10
-24
20
7.88481232676438
30
0
41
1
10
-24
20
7.74204568631339
30
0
41
1
10
-24
20
7.59930458489882
30
0
41
1
10
-24
20
7.45257386795717
30
0
41
1
10
-24
20
7.34207855908448
30
0
41
1
10
-24
20
7.23061782890775
30
0
41
1
10
-24
20
7.11820191301103
30
0
41
1
10
-24
20
7.00483374343872
30
0
41
1
10
-24
20
6.8516785758469
30
0
41
1
10
-24
20
6.65959441745028
30
0
41
1
10
-24
20
6.46441027855923
30
0
41
1
10
-24
20
6.30499529459033
30
0
41
1
10
-24
20
6.18514753468796
30
0
41
1
10
-24
20
6.06440158167572
30
0
41
1
10
-24
20
5.90137597131746
30
0
41
1
10
-24
20
5.69736367955667
30
0
41
1
10
-24
20
5.44799894794272
30
0
41
1
10
-24
20
5.19525670130326
30
0
41
1
10
-24
20
4.98285125019774
30
0
41
1
10
-24
20
4.80950544532163
30
0
41
1
10
-24
20
4.67950096380329
30
0
41
1
10
-24
20
4.54872537799758
30
0
41
1
10
-24
20
4.41719445888799
30
0
41
1
10
-24
20
4.28492388892991
30
0
41
1
10
-24
20
4.15193103870837
30
0
41
1
10
-24
20
4.01823650200188
30
0
41
1
10
-24
20
3.88386015063668
30
0
41
1
10
-24
20
3.74882265025218
30
0
41
1
10
-24
20
3.61314816606938
30
0
41
1
10
-24
20
3.47686551917991
30
0
41
1
10
-24
20
3.34000139230267
30
0
41
1
10
-24
20
3.20258393847712
30
0
41
1
10
-24
20
3.06464837689458
30
0
41
1
10
-24
20
2.9262304523017
30
0
41
1
10
-24
20
2.78737006373561
30
0
41
1
10
-24
20
2.64810891556724
30
0
41
1
10
-24
20
2.50849315364215
30
0
41
1
10
-24
20
2.36857603859875
30
0
41
1
10
-24
20
2.22840727338092
30
0
41
1
10
-24
20
2.11231267734073
30
0
41
1
10
-24
20
2.01771125590744
30
0
41
1
10
-24
20
1.92310511773127
30
0
41
1
10
-24
20
1.8313714962141
30
0
41
1
10
-24
20
1.73663368976398
30
0
41
1
10
-24
20
1.66636839269287
30
0
41
1
10
-24
20
1.59612143913762
30
0
41
1
10
-24
20
1.52590617425699
30
0
41
1
10
-24
20
1.45572440081648
30
0
41
1
10
-24
20
1.38559146347788
30
0
41
1
10
-24
20
1.31551245865842
30
0
41
1
10
-24
20
1.22103102890804
30
0
41
1
10
-24
20
1.13019491172781
30
0
41
1
10
-24
20
1.03590357373665
30
0
41
1
10
-24
20
0.966211278320685
30
0
41
1
10
-24
20
0.896616942008535
30
0
41
1
10
-24
20
0.827119549474418
30
0
41
1
10
-24
20
0.757724503129253
30
0
41
1
10
-24
20
0.688430802184314
30
0
41
1
10
-24
20
0.619238394305086
30
0
41
1
10
-24
20
0.550143822342449
30
0
41
1
10
-24
20
0.481142957404018
30
0
41
1
10
-24
20
0.412229055265982
30
0
41
1
10
-24
20
0.343394373554958
30
0
41
1
10
-24
20
0.274627961865065
30
0
41
1
10
-24
20
0.205919183520024
30
0
41
1
10
-24
20
0.137254128872428
30
0
41
1
10
-24
20
0.068619580615092
30
0
41
1
10
-24
20
1.20069785E-08
30
0
41
1
10
-24
20
-0.0686195837654395
30
0
41
1
10
-24
20
-0.1372541822264
30
0
41
1
10
-24
20
-0.205919229600312
30
0
41
1
10
-24
20
-0.274627932715674
30
0
41
1
10
-24
20
-0.343394334295567
30
0
41
1
10
-24
20
-0.412229116407673
30
0
41
1
10
-24
20
-0.48114304712405
30
0
41
1
10
-24
20
-0.55014378989776
30
0
41
1
10
-24
20
-0.619238310392802
30
0
41
1
10
-24
20
-0.688430856535206
30
0
41
1
10
-24
20
-0.757724640342815
30
0
41
1
10
-24
20
-0.827119544713668
30
0
41
1
10
-24
20
-0.896616816711344
30
0
41
1
10
-24
20
-0.966211277672699
30
0
41
1
10
-24
20
-1.03590373801057
30
0
41
1
10
-24
20
-1.13019491751669
30
0
41
1
10
-24
20
-1.22103090337816
30
0
41
1
10
-24
20
-1.31551253110209
30
0
41
1
10
-24
20
-1.38559165365194
30
0
41
1
10
-24
20
-1.45572444737027
30
0
41
1
10
-24
20
-1.52590604398472
30
0
41
1
10
-24
20
-1.59612132289769
30
0
41
1
10
-24
20
-1.66636846888792
30
0
41
1
10
-24
20
-1.73663389391052
30
0
41
1
10
-24
20
-1.83137150908334
30
0
41
1
10
-24
20
-1.923104963833
30
0
41
1
10
-24
20
-2.01771124909399
30
0
41
1
10
-24
20
-2.11231287096447
30
0
41
1
10
-24
20
-2.22840729138045
30
0
41
1
10
-24
20
-2.36857592379664
30
0
41
1
10
-24
20
-2.50849329023109
30
0
41
1
10
-24
20
-2.64810899336408
30
0
41
1
10
-24
20
-2.7873694745272
30
0
41
1
10
-24
20
-2.92622914514115
30
0
41
1
10
-24
20
-3.06464867495961
30
0
41
1
10
-24
20
-3.20258694679336
30
0
41
1
10
-24
20
-3.34000339886188
30
0
41
1
10
-24
20
-3.47686412773234
30
0
41
1
10
-24
20
-3.61314539193521
30
0
41
1
10
-24
20
-3.74882070125756
30
0
41
1
10
-24
20
-3.88386081960974
30
0
41
1
10
-24
20
-4.01823910176785
30
0
41
1
10
-24
20
-4.15193237523465
30
0
41
1
10
-24
20
-4.28492323331267
30
0
41
1
10
-24
20
-4.41719365917405
30
0
41
1
10
-24
20
-4.54872525063161
30
0
41
1
10
-24
20
-4.67950102029136
30
0
41
1
10
-24
20
-4.8095053694127
30
0
41
1
10
-24
20
-4.98285124277228
30
0
41
1
10
-24
20
-5.19525677656026
30
0
41
1
10
-24
20
-5.44799891971269
30
0
41
1
10
-24
20
-5.69736372546623
30
0
41
1
10
-24
20
-5.90137602298265
30
0
41
1
10
-24
20
-6.0644015068855
30
0
41
1
10
-24
20
-6.1851475156806
30
0
41
1
10
-24
20
-6.30499537148728
30
0
41
1
10
-24
20
-6.46441033734266
30
0
41
1
10
-24
20
-6.65959438580623
30
0
41
1
10
-24
20
-6.85167858307042
30
0
41
1
10
-24
20
-7.00483382763792
30
0
41
1
10
-24
20
-7.11820195418233
30
0
41
1
10
-24
20
-7.2306178054078
30
0
41
1
10
-24
20
-7.34207852113332
30
0
41
1
10
-24
20
-7.45257387547733
30
0
41
1
10
-24
20
-7.59930464836137
30
0
41
1
10
-24
20
-7.74204572237986
30
0
41
1
10
-24
20
-7.88481230085068
30
0
41
1
10
-24
20
-8.02625870014725
30
0
41
1
10
-24
20
-8.19913346952643
30
0
41
1
10
-24
20
-8.36865254580422
30
0
41
1
10
-24
20
-8.50332879773273
30
0
41
1
10
-24
20
-8.63663898786112
30
0
41
1
10
-24
20
-8.76613375581505
30
0
41
1
10
-24
20
-8.87892111197036
30
0
41
1
10
-24
20
-8.94296710462893
30
0
41
1
10
-24
20
-9.00666455327519
30
0
41
1
10
-24
20
-9.08500599911847
30
0
41
1
10
-24
20
-9.20992961783276
30
0
41
1
10
-24
20
-9.33111733072479
30
0
41
1
10
-24
20
-9.45175015939358
30
0
41
1
10
-24
20
-9.54075475929304
30
0
41
1
10
-24
20
-9.62867743247332
30
0
41
1
10
-24
20
-9.71550990736878
30
0
41
1
10
-24
20
-9.80124635456619
30
0
41
1
10
-24
20
-9.88588281033205
30
0
41
1
10
-24
20
-9.9694122909747
30
0
41
1
10
-24
20
-10.0518274374696
30
0
41
1
10
-24
20
-10.1331238647016
30
0
41
1
10
-24
20
-10.240478300249
30
0
41
1
10
-24
20
-10.3442039980406
30
0
41
1
10
-24
20
-10.4469857502475
30
0
41
1
10
-24
20
-10.5225869730086
30
0
41
1
10
-24
20
-10.5844084741421
30
0
41
1
10
-24
20
-10.6336671988976
30
0
41
1
10
-24
20
-10.6825334589273
30
0
41
1
10
-24
20
-10.7424101865055
30
0
41
1
10
-24
20
-10.8133337727233
30
0
41
1
10
-24
20
-10.8830697936353
30
0
41
1
10
-24
20
-10.951609404873
30
0
41
1
10
-24
20
-11.0189464931514
30
0
41
1
10
-24
20
-11.1074991058536
30
0
41
1
10
-24
20
-11.2142799044294
30
0
41
1
10
-24
20
-11.3169609751522
30
0
41
1
10
-24
20
-11.3972466509688
30
0
41
1
10
-24
20
-11.4758394909226
30
0
41
1
10
-24
20
-11.5508590446085
30
0
41
1
10
-24
20
-11.6243139791192
30
0
41
1
10
-24
20
-11.6778530233414
30
0
41
1
10
-24
20
-11.7300826287653
30
0
41
1
10
-24
20
-11.7809904199399
30
0
41
1
10
-24
20
-11.8305656793297
30
0
41
1
10
-24
20
-11.8787992978642
30
0
41
1
10
-24
20
-11.9256779481161
30
0
41
1
10
-24
20
-11.9866456736684
30
0
41
1
10
-24
20
-12.0440224201629
30
0
41
1
10
-24
20
-12.099415447517
30
0
41
1
10
-24
20
-12.1393440246738
30
0
41
1
10
-24
20
-12.1778433772408
30
0
41
1
10
-24
20
-12.2149010599454
30
0
41
1
10
-24
20
-12.250502752964
30
0
41
1
10
-24
20
-12.2962370828382
30
0
41
1
10
-24
20
-12.3383402824608
30
0
41
1
10
-24
20
-12.3780532736994
30
0
41
1
10
-24
20
-12.4061495785297
30
0
41
1
10
-24
20
-12.4326960530149
30
0
41
1
10
-24
20
-12.4661791203578
30
0
41
1
10
-24
20
-12.4959885477691
30
0
41
1
10
-24
20
-12.523037071398
30
0
41
1
10
-24
20
-12.5415673540695
30
0
41
1
10
-24
20
-12.55843663992
30
0
41
1
10
-24
20
-12.5736235086905
30
0
41
1
10
-24
20
-12.5871069547276
30
0
41
1
10
-24
20
-12.5988645879939
30
0
41
1
10
-24
20
-12.6088733436887
30
0
41
1
10
-24
20
-12.617109869821
30
0
41
1
10
-24
20
-12.6235493215145
30
0
41
1
10
-24
20
-12.6277964616926
30
0
41
1
10
-24
20
-12.629550828736
30
0
41
1
10
-24
20
-12.6301284548493
30
0
0
SPLINE
5
F4
100
AcDbEntity
8
SK1
62
256
6
ByLayer
370
18
48
1
60
0
100
AcDbSpline
70
4
71
3
72
24
73
20
40
0
40
0
40
0
40
0
40
0.0566107961798356
40
0.0566107961798356
40
0.292458097134877
40
0.292458097134877
40
0.528305398089917
40
0.528305398089917
40
0.646229048567438
40
0.646229048567438
40
0.764152699044958
40
0.764152699044958
40
0.823114524283719
40
0.823114524283719
40
0.882076349522479
40
0.882076349522479
40
0.94103817476124
40
0.94103817476124
40
1
40
1
40
1
40
1
41
1
10
-0.217769766830855
20
13.9477750956957
30
0
41
1
10
-0.218661054589859
20
13.9462698749445
30
0
41
1
10
-0.219597534884798
20
13.9447405263227
30
0
41
1
10
-0.22468293430498
20
13.9367111271038
30
0
41
1
10
-0.229617567212614
20
13.9298132257638
30
0
41
1
10
-0.242229439580598
20
13.9149025794457
30
0
41
1
10
-0.249833588846485
20
13.9068988482931
30
0
41
1
10
-0.265207264314512
20
13.8938007843295
30
0
41
1
10
-0.270999147250933
20
13.8892469004429
30
0
41
1
10
-0.285075726022257
20
13.8795541723659
30
0
41
1
10
-0.293382262191528
20
13.8743360124917
30
0
41
1
10
-0.309973208906484
20
13.865979539183
30
0
41
1
10
-0.316214208385901
20
13.8631087549699
30
0
41
1
10
-0.330656403377191
20
13.8574219230766
30
0
41
1
10
-0.339105376305724
20
13.8545577585332
30
0
41
1
10
-0.356551358104895
20
13.849859688057
30
0
41
1
10
-0.365376234673619
20
13.848068489605
30
0
41
1
10
-0.381257584369365
20
13.8456585749161
30
0
41
1
10
-0.388437406663598
20
13.844979298583
30
0
41
1
10
-0.394976888882155
20
13.8446015176357
30
0
0
SPLINE
5
F5
100
AcDbEntity
8
SK1
62
256
6
ByLayer
370
18
48
1
60
0
100
AcDbSpline
70
4
71
3
72
24
73
20
40
0
40
0
40
0
40
0
40
0.0312500000000005
40
0.0312500000000005
40
0.0625000000000011
40
0.0625000000000011
40
0.0937500000000016
40
0.0937500000000016
40
0.125000000000002
40
0.125000000000002
40
0.187500000000001
40
0.187500000000001
40
0.250000000000001
40
0.250000000000001
40
0.5
40
0.5
40
0.75
40
0.75
40
1
40
1
40
1
40
1
41
1
10
-0.394976888875306
20
-13.8446019297682
30
0
41
1
10
-0.388468629926223
20
-13.8449779249513
30
0
41
1
10
-0.381324590932536
20
-13.8456530881875
30
0
41
1
10
-0.365549387179726
20
-13.8480385128452
30
0
41
1
10
-0.356796789473265
20
-13.8498063080825
30
0
41
1
10
-0.339435575062225
20
-13.8544574766954
30
0
41
1
10
-0.330979789430216
20
-13.8573064570467
30
0
41
1
10
-0.316458103440169
20
-13.8630021925908
30
0
41
1
10
-0.310232882497303
20
-13.8658582165515
30
0
41
1
10
-0.293637826177729
20
-13.8741901944621
30
0
41
1
10
-0.285356310437095
20
-13.879370858282
30
0
41
1
10
-0.271048178733906
20
-13.8892040331652
30
0
41
1
10
-0.265213225486491
20
-13.8937947816305
30
0
41
1
10
-0.239456395896752
20
-13.9157444690284
30
0
41
1
10
-0.228706663403443
20
-13.9303424576192
30
0
41
1
10
-0.212355837349577
20
-13.956189887512
30
0
41
1
10
-0.207496542760453
20
-13.9673765992812
30
0
41
1
10
-0.201274525742775
20
-13.9872294917
30
0
41
1
10
-0.200000000000102
20
-13.9958729075746
30
0
41
1
10
-0.200000000000102
20
-14.0034375364997
30
0
0
SPLINE
5
F6
100
AcDbEntity
8
SK1
62
256
6
ByLayer
370
18
48
1
60
0
100
AcDbSpline
70
4
71
3
72
20
73
16
40
0
40
0
40
0
40
0
40
0.25
40
0.25
40
0.375
40
0.375
40
0.4375
40
0.4375
40
0.5
40
0.5
40
0.75
40
0.75
40
0.875
40
0.875
40
1
40
1
40
1
40
1
41
1
10
-1.69999999999999
20
2.58372509632824
30
0
41
1
10
-1.7661113123057
20
2.16779007042717
30
0
41
1
10
-1.8231520478235
20
1.74563966403682
30
0
41
1
10
-1.88431819816691
20
1.09996691447751
30
0
41
1
10
-1.90058047077932
20
0.882646870115849
30
0
41
1
10
-1.91721350759224
20
0.553023201537144
30
0
41
1
10
-1.92146378406954
20
0.442540802025576
30
0
41
1
10
-1.92715977707795
20
0.220285135648538
30
0
41
1
10
-1.9285879277983
20
0.108677548680731
30
0
41
1
10
-1.92849632274925
20
-0.445359331572774
30
0
41
1
10
-1.90492944339621
20
-0.881328490160882
30
0
41
1
10
-1.84396151081339
20
-1.52649956093123
30
0
41
1
10
-1.81946627012516
20
-1.74010817855648
30
0
41
1
10
-1.76401082902217
20
-2.16479512178211
30
0
41
1
10
-1.73306081558337
20
-2.37572486620761
30
0
41
1
10
-1.69999999999999
20
-2.58372503195247
30
0
0
SPLINE
5
F7
100
AcDbEntity
8
SK1
62
256
6
ByLayer
370
18
48
1
60
0
100
AcDbSpline
70
4
71
3
72
116
73
112
40
0
40
0
40
0
40
0
40
0.0075236717566563
40
0.0155476300045431
40
0.0235715882524299
40
0.0315955465003167
40
0.0396195047482035
40
0.0476434629960903
40
0.0556674212439771
40
0.0636913794918638
40
0.0717153377397506
40
0.0797392959876374
40
0.095787212483411
40
0.103811170731298
40
0.111835128979185
40
0.119859087227071
40
0.127883045474958
40
0.143930961970732
40
0.151954920218619
40
0.159978878466505
40
0.168002836714392
40
0.176026794962279
40
0.184050753210166
40
0.192074711458052
40
0.208122627953826
40
0.216146586201713
40
0.2241705444496
40
0.232194502697486
40
0.240218460945373
40
0.24824241919326
40
0.256266377441147
40
0.264290335689034
40
0.27231429393692
40
0.288362210432694
40
0.296386168680581
40
0.304410126928467
40
0.320458043424241
40
0.336505959920015
40
0.344529918167902
40
0.352553876415788
40
0.360577834663675
40
0.368601792911562
40
0.376625751159449
40
0.384649709407335
40
0.388661688531279
40
0.392673667655222
40
0.400697625903109
40
0.408721584150996
40
0.416745542398883
40
0.432793458894656
40
0.440817417142543
40
0.44884137539043
40
0.456865333638317
40
0.464889291886203
40
0.47291325013409
40
0.480937208381977
40
0.488961166629864
40
0.49698512487775
40
0.505009083125637
40
0.513033041373524
40
0.529080957869298
40
0.537104916117184
40
0.545128874365071
40
0.549140853489015
40
0.553152832612958
40
0.561176790860845
40
0.577224707356618
40
0.585248665604505
40
0.593272623852392
40
0.609320540348166
40
0.625368456843939
40
0.633392415091826
40
0.641416373339713
40
0.657464289835486
40
0.665488248083373
40
0.67351220633126
40
0.681536164579147
40
0.689560122827033
40
0.69758408107492
40
0.705608039322807
40
0.721655955818581
40
0.737703872314354
40
0.745727830562241
40
0.753751788810128
40
0.761775747058015
40
0.769799705305901
40
0.785847621801675
40
0.801895538297448
40
0.817943454793222
40
0.833991371288996
40
0.842015329536882
40
0.850039287784769
40
0.858063246032656
40
0.866087204280543
40
0.87411116252843
40
0.882135120776317
40
0.890159079024203
40
0.89818303727209
40
0.906206995519977
40
0.914230953767864
40
0.92225491201575
40
0.930278870263637
40
0.938302828511524
40
0.946326786759411
40
0.954350745007297
40
0.962374703255184
40
0.970398661503071
40
0.978422619750958
40
0.986446577998845
40
0.994470536246731
40
1
40
1
40
1
40
1
41
1
10
-1.69999999999996
20
-14.0157960318861
30
0
41
1
10
-1.69999999999999
20
-14.0144803676448
30
0
41
1
10
-1.69999999999999
20
-14.0111456740483
30
0
41
1
10
-1.69999999999999
20
-14.0041924220526
30
0
41
1
10
-1.69999999999999
20
-13.9951249982352
30
0
41
1
10
-1.69999999999999
20
-13.9841238377961
30
0
41
1
10
-1.69999999999999
20
-13.9712195410175
30
0
41
1
10
-1.69999999999999
20
-13.9564420504847
30
0
41
1
10
-1.69999999999999
20
-13.9398197437578
30
0
41
1
10
-1.69999999999999
20
-13.9213794981548
30
0
41
1
10
-1.69999999999999
20
-13.9011479145568
30
0
41
1
10
-1.69999999999999
20
-13.8718187984145
30
0
41
1
10
-1.69999999999999
20
-13.8389980176944
30
0
41
1
10
-1.69999999999999
20
-13.8027899277569
30
0
41
1
10
-1.69999999999999
20
-13.7739560268625
30
0
41
1
10
-1.69999999999999
20
-13.7434661079967
30
0
41
1
10
-1.69999999999999
20
-13.7006353167884
30
0
41
1
10
-1.69999999999999
20
-13.6545611570253
30
0
41
1
10
-1.69999999999999
20
-13.6053356175566
30
0
41
1
10
-1.69999999999999
20
-13.5668499598694
30
0
41
1
10
-1.69999999999999
20
-13.5268172136993
30
0
41
1
10
-1.69999999999999
20
-13.4852529409442
30
0
41
1
10
-1.69999999999999
20
-13.4421723383994
30
0
41
1
10
-1.69999999999999
20
-13.3827344481881
30
0
41
1
10
-1.69999999999999
20
-13.3203101272292
30
0
41
1
10
-1.69999999999999
20
-13.2549799687684
30
0
41
1
10
-1.69999999999999
20
-13.2045321176789
30
0
41
1
10
-1.69999999999999
20
-13.1526505331688
30
0
41
1
10
-1.69999999999999
20
-13.0993474417035
30
0
41
1
10
-1.69999999999999
20
-13.0446338377524
30
0
41
1
10
-1.69999999999999
20
-12.9885221046098
30
0
41
1
10
-1.69999999999999
20
-12.9310230820619
30
0
41
1
10
-1.69999999999999
20
-12.8525264302737
30
0
41
1
10
-1.69999999999999
20
-12.7712834981639
30
0
41
1
10
-1.69999999999999
20
-12.687362440577
30
0
41
1
10
-1.69999999999999
20
-12.6016599065257
30
0
41
1
10
-1.69999999999999
20
-12.4912006631364
30
0
41
1
10
-1.69999999999999
20
-12.3763763795169
30
0
41
1
10
-1.69999999999999
20
-12.2819407102379
30
0
41
1
10
-1.69999999999999
20
-12.2098248313331
30
0
41
1
10
-1.69999999999999
20
-12.1364317035572
30
0
41
1
10
-1.69999999999999
20
-12.0617686735772
30
0
41
1
10
-1.69999999999999
20
-11.9858436943514
30
0
41
1
10
-1.69999999999999
20
-11.9215236271769
30
0
41
1
10
-1.69999999999999
20
-11.869448828233
30
0
41
1
10
-1.69999999999999
20
-11.8169591619061
30
0
41
1
10
-1.69999999999999
20
-11.7505641463283
30
0
41
1
10
-1.69999999999999
20
-11.6696587897978
30
0
41
1
10
-1.69999999999999
20
-11.5601529310588
30
0
41
1
10
-1.69999999999999
20
-11.4481829097131
30
0
41
1
10
-1.69999999999999
20
-11.3338110691597
30
0
41
1
10
-1.69999999999999
20
-11.2468221981049
30
0
41
1
10
-1.69999999999999
20
-11.1586337774266
30
0
41
1
10
-1.69999999999999
20
-11.069250952524
30
0
41
1
10
-1.69999999999999
20
-10.9786794570574
30
0
41
1
10
-1.69999999999999
20
-10.8869237943964
30
0
41
1
10
-1.69999999999999
20
-10.7939888545435
30
0
41
1
10
-1.69999999999999
20
-10.6998796625668
30
0
41
1
10
-1.69999999999999
20
-10.6046008653873
30
0
41
1
10
-1.69999999999999
20
-10.4760157822056
30
0
41
1
10
-1.69999999999999
20
-10.3450861597474
30
0
41
1
10
-1.69999999999999
20
-10.2118742978003
30
0
41
1
10
-1.69999999999999
20
-10.127650582945
30
0
41
1
10
-1.69999999999999
20
-10.059706595653
30
0
41
1
10
-1.69999999999999
20
-9.99138145148612
30
0
41
1
10
-1.69999999999999
20
-9.87081045044334
30
0
41
1
10
-1.69999999999999
20
-9.73071863089592
30
0
41
1
10
-1.69999999999999
20
-9.58839009925038
30
0
41
1
10
-1.69999999999999
20
-9.44455857133374
30
0
41
1
10
-1.69999999999999
20
-9.26193699842017
30
0
41
1
10
-1.69999999999999
20
-9.07558728630886
30
0
41
1
10
-1.69999999999999
20
-8.92429762219672
30
0
41
1
10
-1.69999999999999
20
-8.77152769372714
30
0
41
1
10
-1.69999999999999
20
-8.61651163422607
30
0
41
1
10
-1.69999999999999
20
-8.45931946186533
30
0
41
1
10
-1.69999999999999
20
-8.34031608257325
30
0
41
1
10
-1.69999999999999
20
-8.22021382021134
30
0
41
1
10
-1.69999999999999
20
-8.09901466976936
30
0
41
1
10
-1.69999999999999
20
-7.97672004102665
30
0
41
1
10
-1.69999999999999
20
-7.81221412115067
30
0
41
1
10
-1.69999999999999
20
-7.60382757721297
30
0
41
1
10
-1.69999999999999
20
-7.391814483107
30
0
41
1
10
-1.69999999999999
20
-7.22005471809891
30
0
41
1
10
-1.69999999999999
20
-7.0901422748378
30
0
41
1
10
-1.69999999999999
20
-6.95914718913937
30
0
41
1
10
-1.69999999999999
20
-6.78305839594086
30
0
41
1
10
-1.69999999999999
20
-6.56021849497904
30
0
41
1
10
-1.69999999999999
20
-6.28851702131561
30
0
41
1
10
-1.69999999999999
20
-6.01251450148573
30
0
41
1
10
-1.69999999999999
20
-5.77892152593586
30
0
41
1
10
-1.69999999999999
20
-5.58993219435266
30
0
41
1
10
-1.69999999999999
20
-5.44710902267545
30
0
41
1
10
-1.69999999999999
20
-5.30321731736851
30
0
41
1
10
-1.69999999999999
20
-5.15825863689906
30
0
41
1
10
-1.69999999999999
20
-5.01223421717728
30
0
41
1
10
-1.69999999999999
20
-4.86514572624662
30
0
41
1
10
-1.69999999999999
20
-4.7169946256985
30
0
41
1
10
-1.69999999999999
20
-4.56778315161375
30
0
41
1
10
-1.69999999999999
20
-4.41751369191317
30
0
41
1
10
-1.69999999999999
20
-4.26618881241484
30
0
41
1
10
-1.69999999999999
20
-4.11381118090259
30
0
41
1
10
-1.69999999999999
20
-3.9603838288908
30
0
41
1
10
-1.69999999999999
20
-3.80591068333541
30
0
41
1
10
-1.69999999999999
20
-3.65039703338328
30
0
41
1
10
-1.69999999999999
20
-3.49384788295134
30
0
41
1
10
-1.69999999999999
20
-3.33626946559076
30
0
41
1
10
-1.69999999999999
20
-3.17766896347746
30
0
41
1
10
-1.69999999999999
20
-3.01805529196176
30
0
41
1
10
-1.69999999999999
20
-2.85743848960826
30
0
41
1
10
-1.69999999999999
20
-2.71257747842986
30
0
41
1
10
-1.69999999999999
20
-2.62111400924692
30
0
41
1
10
-1.69999999999999
20
-2.5837250319525
30
0
0
SPLINE
5
F8
100
AcDbEntity
8
SK1
62
256
6
ByLayer
370
13
48
1
60
0
100
AcDbSpline
70
4
71
3
72
107
73
103
40
0
40
0
40
0
40
0
40
0.0019284613241131
40
0.0105817150337825
40
0.019234968743452
40
0.0278882224531215
40
0.036541476162791
40
0.0451947298724605
40
0.05384798358213
40
0.0625012372917994
40
0.0711544910014689
40
0.0798077447111384
40
0.0884609984208079
40
0.0971142521304774
40
0.105767505840147
40
0.114420759549816
40
0.123074013259486
40
0.131727266969155
40
0.140380520678825
40
0.149033774388494
40
0.157687028098164
40
0.166340281807833
40
0.174993535517503
40
0.192300042936842
40
0.209606550356181
40
0.22691305777552
40
0.244219565194858
40
0.252872818904528
40
0.261526072614198
40
0.270179326323867
40
0.278832580033537
40
0.296139087452875
40
0.313445594872214
40
0.322098848581884
40
0.330752102291553
40
0.339405356001223
40
0.348058609710892
40
0.356711863420562
40
0.365365117130231
40
0.38267162454957
40
0.39132487825924
40
0.399978131968909
40
0.417284639388248
40
0.434591146807587
40
0.443244400517257
40
0.451897654226926
40
0.469204161646265
40
0.477857415355935
40
0.482184042210769
40
0.486510669065604
40
0.495163922775274
40
0.503817176484943
40
0.521123683904282
40
0.529776937613952
40
0.538430191323621
40
0.54708344503329
40
0.55573669874296
40
0.564389952452629
40
0.573043206162299
40
0.581696459871968
40
0.590349713581638
40
0.599002967291307
40
0.607656221000977
40
0.624962728420316
40
0.633615982129985
40
0.642269235839655
40
0.650922489549324
40
0.655249116404159
40
0.659575743258994
40
0.668228996968663
40
0.676882250678333
40
0.685535504388002
40
0.694188758097672
40
0.702842011807341
40
0.711495265517011
40
0.72880177293635
40
0.746108280355689
40
0.754761534065358
40
0.763414787775027
40
0.780721295194367
40
0.789374548904036
40
0.798027802613706
40
0.806681056323375
40
0.815334310033044
40
0.823987563742714
40
0.832640817452383
40
0.841294071162053
40
0.849947324871722
40
0.867253832291061
40
0.875907086000731
40
0.8845603397104
40
0.89321359342007
40
0.901866847129739
40
0.910520100839409
40
0.919173354549078
40
0.936479861968417
40
0.945133115678087
40
0.953786369387756
40
0.962439623097426
40
0.971092876807095
40
0.988399384226434
40
1
40
1
40
1
40
1
41
1
10
-1.49503997793931
20
2.59465115838307
30
0
41
1
10
-1.49503997793931
20
2.60647323876151
30
0
41
1
10
-1.49503997793931
20
2.67130381064959
30
0
41
1
10
-1.49503997793931
20
2.78881794429316
30
0
41
1
10
-1.49503997793931
20
2.94652918151195
30
0
41
1
10
-1.49503997793931
20
3.1033357799555
30
0
41
1
10
-1.49503997793931
20
3.25922165821993
30
0
41
1
10
-1.49503997793931
20
3.41417271020586
30
0
41
1
10
-1.49503997793931
20
3.56817690176541
30
0
41
1
10
-1.49503997793931
20
3.7212231412766
30
0
41
1
10
-1.49503997793931
20
3.87330192992579
30
0
41
1
10
-1.49503997793931
20
4.02440432752809
30
0
41
1
10
-1.49503997793931
20
4.17452288947305
30
0
41
1
10
-1.49503997793931
20
4.32365113214263
30
0
41
1
10
-1.49503997793931
20
4.47178260268984
30
0
41
1
10
-1.49503997793931
20
4.61891156596767
30
0
41
1
10
-1.49503997793931
20
4.7650332428635
30
0
41
1
10
-1.49503997793931
20
4.91014315579861
30
0
41
1
10
-1.49503997793931
20
5.05423706888553
30
0
41
1
10
-1.49503997793931
20
5.19731095553269
30
0
41
1
10
-1.49503997793931
20
5.33936157753735
30
0
41
1
10
-1.49503997793931
20
5.48038541909952
30
0
41
1
10
-1.49503997793931
20
5.66717892097088
30
0
41
1
10
-1.49503997793931
20
5.89779783511918
30
0
41
1
10
-1.49503997793931
20
6.17053536578155
30
0
41
1
10
-1.49503997793931
20
6.43910149333703
30
0
41
1
10
-1.49503997793931
20
6.65929858415237
30
0
41
1
10
-1.49503997793931
20
6.83355373772449
30
0
41
1
10
-1.49503997793931
20
6.96311018452545
30
0
41
1
10
-1.49503997793931
20
7.09160986883526
30
0
41
1
10
-1.49503997793931
20
7.261636811758
30
0
41
1
10
-1.49503997793931
20
7.47128766686797
30
0
41
1
10
-1.49503997793931
20
7.67738589461936
30
0
41
1
10
-1.49503997793931
20
7.84029852533041
30
0
41
1
10
-1.49503997793931
20
7.96134016006346
30
0
41
1
10
-1.49503997793931
20
8.08130642958628
30
0
41
1
10
-1.49503997793931
20
8.20019570647173
30
0
41
1
10
-1.49503997793931
20
8.31800483202281
30
0
41
1
10
-1.49503997793931
20
8.47372854841302
30
0
41
1
10
-1.49503997793931
20
8.62702158956
30
0
41
1
10
-1.49503997793931
20
8.77838738443313
30
0
41
1
10
-1.49503997793931
20
8.92829537712967
30
0
41
1
10
-1.49503997793931
20
9.11275363063515
30
0
41
1
10
-1.49503997793931
20
9.29353602958125
30
0
41
1
10
-1.49503997793931
20
9.43608246295526
30
0
41
1
10
-1.49503997793931
20
9.57714511427093
30
0
41
1
10
-1.49503997793931
20
9.71574944153573
30
0
41
1
10
-1.49503997793931
20
9.83522786489038
30
0
41
1
10
-1.49503997793931
20
9.90295235506755
30
0
41
1
10
-1.49503997793931
20
9.97030026745779
30
0
41
1
10
-1.49503997793931
20
10.0536983054632
30
0
41
1
10
-1.49503997793931
20
10.1857467684219
30
0
41
1
10
-1.49503997793931
20
10.3153089364435
30
0
41
1
10
-1.49503997793931
20
10.4427777751693
30
0
41
1
10
-1.49503997793931
20
10.5371758780398
30
0
41
1
10
-1.49503997793931
20
10.6304166849825
30
0
41
1
10
-1.49503997793931
20
10.7224950378189
30
0
41
1
10
-1.49503997793931
20
10.8134057967923
30
0
41
1
10
-1.49503997793931
20
10.9031442025602
30
0
41
1
10
-1.49503997793931
20
10.9917054044732
30
0
41
1
10
-1.49503997793931
20
11.0790834423827
30
0
41
1
10
-1.49503997793931
20
11.1652732784127
30
0
41
1
10
-1.49503997793931
20
11.278660103453
30
0
41
1
10
-1.49503997793931
20
11.3894728900619
30
0
41
1
10
-1.49503997793931
20
11.4980348993556
30
0
41
1
10
-1.49503997793931
20
11.5781957241672
30
0
41
1
10
-1.49503997793931
20
11.643948764099
30
0
41
1
10
-1.49503997793931
20
11.6959849101866
30
0
41
1
10
-1.49503997793931
20
11.7476093345099
30
0
41
1
10
-1.49503997793931
20
11.8113057028001
30
0
41
1
10
-1.49503997793931
20
11.8865286504803
30
0
41
1
10
-1.49503997793931
20
11.9605000871413
30
0
41
1
10
-1.49503997793931
20
12.0332119345842
30
0
41
1
10
-1.49503997793931
20
12.1046570208051
30
0
41
1
10
-1.49503997793931
20
12.1982668977617
30
0
41
1
10
-1.49503997793931
20
12.3119621458456
30
0
41
1
10
-1.49503997793931
20
12.4213295833849
30
0
41
1
10
-1.49503997793931
20
12.50627175547
30
0
41
1
10
-1.49503997793931
20
12.5894449005116
30
0
41
1
10
-1.49503997793931
20
12.6698142834541
30
0
41
1
10
-1.49503997793931
20
12.74760324418
30
0
41
1
10
-1.49503997793931
20
12.8045464062654
30
0
41
1
10
-1.49503997793931
20
12.860113205584
30
0
41
1
10
-1.49503997793931
20
12.9142925944038
30
0
41
1
10
-1.49503997793931
20
12.9670724273821
30
0
41
1
10
-1.49503997793931
20
13.0184419638584
30
0
41
1
10
-1.49503997793931
20
13.0683888145289
30
0
41
1
10
-1.49503997793931
20
13.1331066142243
30
0
41
1
10
-1.49503997793931
20
13.1948224098965
30
0
41
1
10
-1.49503997793931
20
13.2536925499096
30
0
41
1
10
-1.49503997793931
20
13.2963307178616
30
0
41
1
10
-1.49503997793931
20
13.3374647662751
30
0
41
1
10
-1.49503997793931
20
13.3770798968994
30
0
41
1
10
-1.49503997793931
20
13.4151607370273
30
0
41
1
10
-1.49503997793931
20
13.4638962341071
30
0
41
1
10
-1.49503997793931
20
13.509413016618
30
0
41
1
10
-1.49503997793931
20
13.5518061457236
30
0
41
1
10
-1.49503997793931
20
13.5819600687286
30
0
41
1
10
-1.49503997793931
20
13.6104729008558
30
0
41
1
10
-1.49503997793931
20
13.6462985077496
30
0
41
1
10
-1.49503997793931
20
13.6814821015226
30
0
41
1
10
-1.49503997793934
20
13.7053631767751
30
0
41
1
10
-1.49503997793934
20
13.7144201582727
30
0
0
SPLINE
5
F9
100
AcDbEntity
8
SK1
62
256
6
ByLayer
370
18
48
1
60
0
100
AcDbSpline
70
4
71
3
72
18
73
14
40
0
40
0
40
0
40
0
40
0.0617685064471533
40
0.249107126542191
40
0.34277643658971
40
0.436445746637227
40
0.530115056684746
40
0.623784366732268
40
0.717453676779785
40
0.811122986827304
40
0.904792296874821
40
0.998461606922341
40
1
40
1
40
1
40
1
41
1
10
-1.49503997793934
20
13.7144193675169
30
0
41
1
10
-1.49503997793931
20
13.7188744230706
30
0
41
1
10
-1.49503997793931
20
13.736327385702
30
0
41
1
10
-1.49503997793931
20
13.7574597557179
30
0
41
1
10
-1.49503997793931
20
13.7769347476405
30
0
41
1
10
-1.49503997793931
20
13.7896781830989
30
0
41
1
10
-1.49503997793931
20
13.8005402090708
30
0
41
1
10
-1.49503997793931
20
13.8094909095343
30
0
41
1
10
-1.49503997793931
20
13.8164982902869
30
0
41
1
10
-1.49503997793931
20
13.8215305966481
30
0
41
1
10
-1.49503997793931
20
13.8245539604948
30
0
41
1
10
-1.49503997793931
20
13.8252115907208
30
0
41
1
10
-1.49503997793931
20
13.8251845658147
30
0
41
1
10
-1.49503997793931
20
13.8251835657147
30
0
0
SPLINE
5
FA
100
AcDbEntity
8
SK1
62
256
6
ByLayer
370
18
48
1
60
0
100
AcDbSpline
70
4
71
3
72
8
73
4
40
0
40
0
40
0
40
0
40
1
40
1
40
1
40
1
41
1
10
-1.30710678118655
20
3.62781725664613
30
0
41
1
10
-1.37353763980974
20
3.29087080342427
30
0
41
1
10
-1.4372149826398
20
2.94709379867732
30
0
41
1
10
-1.49503997793931
20
2.5946511583831
30
0
0
SPLINE
5
FB
100
AcDbEntity
8
SK1
62
256
6
ByLayer
370
18
48
1
60
0
100
AcDbSpline
70
4
71
3
72
287
73
283
40
0
40
0
40
0
40
0
40
0.0011263729668157
40
0.0046149954457101
40
0.0081036179246045
40
0.0115922404034989
40
0.0150808628823932
40
0.0185694853612876
40
0.022058107840182
40
0.0255467303190763
40
0.0290353527979707
40
0.0325239752768651
40
0.0360125977557595
40
0.0395012202346538
40
0.0429898427135482
40
0.0464784651924425
40
0.0534557101502313
40
0.0569443326291256
40
0.06043295510802
40
0.0639215775869144
40
0.0674102000658088
40
0.0743874450235975
40
0.0778760675024918
40
0.0813646899813862
40
0.0848533124602806
40
0.0883419349391749
40
0.0918305574180694
40
0.0953191798969637
40
0.102296424854752
40
0.105785047333647
40
0.109273669812541
40
0.112762292291436
40
0.11625091477033
40
0.119739537249224
40
0.123228159728119
40
0.126716782207013
40
0.130205404685907
40
0.137182649643696
40
0.140671272122591
40
0.144159894601485
40
0.151137139559273
40
0.158114384517062
40
0.161603006995957
40
0.165091629474851
40
0.168580251953745
40
0.17206887443264
40
0.175557496911534
40
0.179046119390428
40
0.180790430629876
40
0.182534741869323
40
0.186023364348217
40
0.189511986827112
40
0.193000609306006
40
0.199977854263795
40
0.203466476742689
40
0.206955099221583
40
0.210443721700478
40
0.213932344179372
40
0.217420966658266
40
0.220909589137161
40
0.224398211616055
40
0.22788683409495
40
0.231375456573844
40
0.234864079052738
40
0.241841324010527
40
0.245329946489421
40
0.248818568968316
40
0.250562880207763
40
0.25230719144721
40
0.255795813926105
40
0.262773058883893
40
0.266261681362788
40
0.269750303841682
40
0.276727548799471
40
0.283704793757259
40
0.287193416236154
40
0.290682038715048
40
0.297659283672837
40
0.301147906151731
40
0.304636528630626
40
0.30812515110952
40
0.311613773588415
40
0.315102396067309
40
0.318591018546203
40
0.325568263503992
40
0.332545508461781
40
0.336034130940675
40
0.339522753419569
40
0.343011375898464
40
0.346499998377358
40
0.353477243335147
40
0.360454488292936
40
0.367431733250724
40
0.374408978208513
40
0.377897600687407
40
0.381386223166302
40
0.384874845645196
40
0.388363468124091
40
0.391852090602985
40
0.395340713081879
40
0.398829335560774
40
0.402317958039668
40
0.405806580518562
40
0.409295202997457
40
0.412783825476351
40
0.416272447955245
40
0.41976107043414
40
0.423249692913034
40
0.426738315391929
40
0.430226937870823
40
0.433715560349717
40
0.437204182828612
40
0.440692805307506
40
0.444181427786401
40
0.447670050265295
40
0.449414361504742
40
0.451158672744189
40
0.454647295223084
40
0.456391606462531
40
0.458135917701978
40
0.459880228941425
40
0.461624540180872
40
0.463368851420319
40
0.465113162659767
40
0.466857473899214
40
0.468601785138661
40
0.472090407617555
40
0.473834718857003
40
0.47557903009645
40
0.477323341335897
40
0.479067652575344
40
0.480811963814791
40
0.482556275054238
40
0.484300586293686
40
0.486044897533133
40
0.48778920877258
40
0.489533520012027
40
0.491277831251475
40
0.493022142490922
40
0.494766453730369
40
0.496510764969816
40
0.498255076209263
40
0.49999938744871
40
0.501743698688158
40
0.503488009927605
40
0.505232321167052
40
0.506976632406499
40
0.508720943645946
40
0.510465254885393
40
0.512209566124841
40
0.513953877364288
40
0.515698188603735
40
0.517442499843182
40
0.519186811082629
40
0.520931122322077
40
0.522675433561524
40
0.524419744800971
40
0.526164056040418
40
0.527908367279865
40
0.53139698975876
40
0.533141300998207
40
0.534885612237654
40
0.536629923477101
40
0.538374234716548
40
0.540118545955995
40
0.541862857195443
40
0.54360716843489
40
0.545351479674337
40
0.548840102153232
40
0.550584413392679
40
0.552328724632126
40
0.55581734711102
40
0.559305969589915
40
0.562794592068809
40
0.566283214547703
40
0.569771837026598
40
0.573260459505492
40
0.576749081984387
40
0.580237704463281
40
0.583726326942175
40
0.587214949421069
40
0.590703571899964
40
0.594192194378858
40
0.597680816857753
40
0.601169439336647
40
0.604658061815541
40
0.608146684294436
40
0.61163530677333
40
0.615123929252224
40
0.618612551731119
40
0.622101174210013
40
0.625589796688907
40
0.632567041646696
40
0.639544286604485
40
0.646521531562274
40
0.653498776520063
40
0.656987398998957
40
0.660476021477851
40
0.663964643956746
40
0.66745326643564
40
0.674430511393429
40
0.681407756351218
40
0.684896378830112
40
0.688385001309006
40
0.691873623787901
40
0.695362246266795
40
0.698850868745689
40
0.702339491224584
40
0.709316736182372
40
0.712805358661267
40
0.716293981140161
40
0.72327122609795
40
0.730248471055739
40
0.733737093534633
40
0.737225716013527
40
0.744202960971316
40
0.74769158345021
40
0.749435894689658
40
0.751180205929105
40
0.754668828407999
40
0.758157450886894
40
0.765134695844682
40
0.768623318323577
40
0.772111940802471
40
0.775600563281365
40
0.77908918576026
40
0.782577808239154
40
0.786066430718048
40
0.789555053196943
40
0.793043675675837
40
0.796532298154731
40
0.800020920633626
40
0.806998165591415
40
0.810486788070309
40
0.813975410549203
40
0.817464033028098
40
0.819208344267545
40
0.820952655506992
40
0.824441277985886
40
0.827929900464781
40
0.831418522943675
40
0.83490714542257
40
0.838395767901464
40
0.841884390380358
40
0.848861635338147
40
0.855838880295936
40
0.85932750277483
40
0.862816125253724
40
0.869793370211513
40
0.873281992690408
40
0.876770615169302
40
0.880259237648196
40
0.883747860127091
40
0.887236482605985
40
0.890725105084879
40
0.894213727563774
40
0.897702350042668
40
0.904679595000457
40
0.908168217479351
40
0.911656839958246
40
0.91514546243714
40
0.918634084916034
40
0.922122707394929
40
0.925611329873823
40
0.932588574831612
40
0.936077197310506
40
0.939565819789401
40
0.943054442268295
40
0.94654306474719
40
0.953520309704978
40
0.960497554662767
40
0.967474799620555
40
0.97096342209945
40
0.974452044578344
40
0.977940667057239
40
0.981429289536133
40
0.984917912015028
40
0.988406534493922
40
0.991895156972816
40
0.99538377945171
40
0.998872401930605
40
1
40
1
40
1
40
1
41
1
10
-22.5
20
-13.4956568820283
30
0
41
1
10
-22.5
20
-13.4959565512508
30
0
41
1
10
-22.5
20
-13.4970361193985
30
0
41
1
10
-22.5
20
-13.497871542388
30
0
41
1
10
-22.5
20
-13.4969168014739
30
0
41
1
10
-22.5
20
-13.4939634903146
30
0
41
1
10
-22.5
20
-13.4890446841776
30
0
41
1
10
-22.5
20
-13.4821927509398
30
0
41
1
10
-22.5
20
-13.4734380181859
30
0
41
1
10
-22.5
20
-13.4628103286331
30
0
41
1
10
-22.5
20
-13.4503375548199
30
0
41
1
10
-22.5
20
-13.4360470510206
30
0
41
1
10
-22.5
20
-13.4199649415155
30
0
41
1
10
-22.5
20
-13.4021158939438
30
0
41
1
10
-22.5
20
-13.3825245595672
30
0
41
1
10
-22.5
20
-13.3540536969874
30
0
41
1
10
-22.5
20
-13.3223661764574
30
0
41
1
10
-22.5
20
-13.2871835921006
30
0
41
1
10
-22.5
20
-13.2592105165633
30
0
41
1
10
-22.5
20
-13.2296213845592
30
0
41
1
10
-22.5
20
-13.187963912528
30
0
41
1
10
-22.5
20
-13.143384141029
30
0
41
1
10
-22.5
20
-13.0954724456838
30
0
41
1
10
-22.5
20
-13.0580721081213
30
0
41
1
10
-22.5
20
-13.0191589652135
30
0
41
1
10
-22.5
20
-12.9787481114295
30
0
41
1
10
-22.5
20
-12.9368537080862
30
0
41
1
10
-22.5
20
-12.8789380178894
30
0
41
1
10
-22.5
20
-12.8184132466048
30
0
41
1
10
-22.5
20
-12.7547247990428
30
0
41
1
10
-22.5
20
-12.7056201424592
30
0
41
1
10
-22.5
20
-12.6551113940766
30
0
41
1
10
-22.5
20
-12.6032111946844
30
0
41
1
10
-22.5
20
-12.5499298292215
30
0
41
1
10
-22.5
20
-12.4952790541085
30
0
41
1
10
-22.5
20
-12.4392702870471
30
0
41
1
10
-22.5
20
-12.3626709807027
30
0
41
1
10
-22.5
20
-12.2837700876339
30
0
41
1
10
-22.5
20
-12.2018541939414
30
0
41
1
10
-22.5
20
-12.1181901818312
30
0
41
1
10
-22.5
20
-12.0106580919609
30
0
41
1
10
-22.5
20
-11.8988608066556
30
0
41
1
10
-22.5
20
-11.8066391033683
30
0
41
1
10
-22.5
20
-11.7363216229303
30
0
41
1
10
-22.5
20
-11.664755015164
30
0
41
1
10
-22.5
20
-11.5919461625789
30
0
41
1
10
-22.5
20
-11.5179033535968
30
0
41
1
10
-22.5
20
-11.4552554448703
30
0
41
1
10
-22.5
20
-11.4043881128182
30
0
41
1
10
-22.5
20
-11.3531143441571
30
0
41
1
10
-22.5
20
-11.2884404756242
30
0
41
1
10
-22.5
20
-11.2095312195267
30
0
41
1
10
-22.5
20
-11.1025558384385
30
0
41
1
10
-22.5
20
-10.9936883968037
30
0
41
1
10
-22.5
20
-10.881957410682
30
0
41
1
10
-22.5
20
-10.7971107724731
30
0
41
1
10
-22.5
20
-10.7110950034658
30
0
41
1
10
-22.5
20
-10.6239149629423
30
0
41
1
10
-22.5
20
-10.5355769962349
30
0
41
1
10
-22.5
20
-10.4460865401309
30
0
41
1
10
-22.5
20
-10.3554481360506
30
0
41
1
10
-22.5
20
-10.2636671117607
30
0
41
1
10
-22.5
20
-10.1707494782419
30
0
41
1
10
-22.5
20
-10.0451570606616
30
0
41
1
10
-22.5
20
-9.91789360326428
30
0
41
1
10
-22.5
20
-9.7878008492857
30
0
41
1
10
-22.5
20
-9.70579080403837
30
0
41
1
10
-22.5
20
-9.63944491324963
30
0
41
1
10
-22.5
20
-9.57273013875857
30
0
41
1
10
-22.5
20
-9.45508835059124
30
0
41
1
10
-22.5
20
-9.31898451102214
30
0
41
1
10
-22.5
20
-9.18004984465043
30
0
41
1
10
-22.5
20
-9.0396637144479
30
0
41
1
10
-22.5
20
-8.86197299364807
30
0
41
1
10
-22.5
20
-8.68069429599308
30
0
41
1
10
-22.5
20
-8.53310893988203
30
0
41
1
10
-22.5
20
-8.38410356414289
30
0
41
1
10
-22.5
20
-8.23370694014301
30
0
41
1
10
-22.5
20
-8.08045169790759
30
0
41
1
10
-22.5
20
-7.96465013686171
30
0
41
1
10
-22.5
20
-7.84779994085653
30
0
41
1
10
-22.5
20
-7.72990620240671
30
0
41
1
10
-22.5
20
-7.6109708771202
30
0
41
1
10
-22.5
20
-7.4507365478344
30
0
41
1
10
-22.5
20
-7.24848505302427
30
0
41
1
10
-22.5
20
-7.04280522024894
30
0
41
1
10
-22.5
20
-6.87569116366484
30
0
41
1
10
-22.5
20
-6.74956631857705
30
0
41
1
10
-22.5
20
-6.6224282598192
30
0
41
1
10
-22.5
20
-6.451255571394
30
0
41
1
10
-22.5
20
-6.23550104742759
30
0
41
1
10
-22.5
20
-5.97220551419213
30
0
41
1
10
-22.5
20
-5.70495655337433
30
0
41
1
10
-22.5
20
-5.47933703089231
30
0
41
1
10
-22.5
20
-5.29623478947158
30
0
41
1
10
-22.5
20
-5.15823571506778
30
0
41
1
10
-22.5
20
-5.01927991936705
30
0
41
1
10
-22.5
20
-4.87937424460151
30
0
41
1
10
-22.5
20
-4.73852585442467
30
0
41
1
10
-22.5
20
-4.59674271442694
30
0
41
1
10
-22.5
20
-4.45403251641869
30
0
41
1
10
-22.5
20
-4.31040320562681
30
0
41
1
10
-22.5
20
-4.1658649918152
30
0
41
1
10
-22.5
20
-4.02042950258553
30
0
41
1
10
-22.5
20
-3.87410940415094
30
0
41
1
10
-22.5
20
-3.72691655621918
30
0
41
1
10
-22.5
20
-3.57886234252629
30
0
41
1
10
-22.5
20
-3.42996282061054
30
0
41
1
10
-22.5
20
-3.2802363758513
30
0
41
1
10
-22.5
20
-3.12970236953149
30
0
41
1
10
-22.5
20
-2.9783800820847
30
0
41
1
10
-22.5
20
-2.82629223006825
30
0
41
1
10
-22.5
20
-2.67346522993279
30
0
41
1
10
-22.5
20
-2.51992552331163
30
0
41
1
10
-22.5
20
-2.39172837491469
30
0
41
1
10
-22.5
20
-2.28823685042076
30
0
41
1
10
-22.5
20
-2.18454583019769
30
0
41
1
10
-22.5
20
-2.08161605220536
30
0
41
1
10
-22.5
20
-1.97729736527978
30
0
41
1
10
-22.5
20
-1.89920687090043
30
0
41
1
10
-22.5
20
-1.82098461234611
30
0
41
1
10
-22.5
20
-1.74263820265685
30
0
41
1
10
-22.5
20
-1.66417088377818
30
0
41
1
10
-22.5
20
-1.58559131690836
30
0
41
1
10
-22.5
20
-1.50690430877853
30
0
41
1
10
-22.5
20
-1.40144071039387
30
0
41
1
10
-22.5
20
-1.29707565327635
30
0
41
1
10
-22.5
20
-1.19121866112906
30
0
41
1
10
-22.5
20
-1.11209555133374
30
0
41
1
10
-22.5
20
-1.03290641330761
30
0
41
1
10
-22.5
20
-0.953656082911976
30
0
41
1
10
-22.5
20
-0.874352236673616
30
0
41
1
10
-22.5
20
-0.795000235128668
30
0
41
1
10
-22.5
20
-0.715606595157226
30
0
41
1
10
-22.5
20
-0.63617667254502
30
0
41
1
10
-22.5
20
-0.556716044364009
30
0
41
1
10
-22.5
20
-0.477229377934975
30
0
41
1
10
-22.5
20
-0.397721596430074
30
0
41
1
10
-22.5
20
-0.318196574925025
30
0
41
1
10
-22.5
20
-0.238658616598514
30
0
41
1
10
-22.5
20
-0.159110863620981
30
0
41
1
10
-22.5
20
-0.0795570195282949
30
0
41
1
10
-22.5
20
-4.3520458E-09
30
0
41
1
10
-22.5
20
0.0795570008675952
30
0
41
1
10
-22.5
20
0.159110826532412
30
0
41
1
10
-22.5
20
0.238658582119825
30
0
41
1
10
-22.5
20
0.318196568076161
30
0
41
1
10
-22.5
20
0.397721593521055
30
0
41
1
10
-22.5
20
0.477229338262958
30
0
41
1
10
-22.5
20
0.556715993884097
30
0
41
1
10
-22.5
20
0.63617666680787
30
0
41
1
10
-22.5
20
0.71560660892132
30
0
41
1
10
-22.5
20
0.795000198505278
30
0
41
1
10
-22.5
20
0.874352168955852
30
0
41
1
10
-22.5
20
0.95365606681014
30
0
41
1
10
-22.5
20
1.03290644237791
30
0
41
1
10
-22.5
20
1.11209553564783
30
0
41
1
10
-22.5
20
1.1912185842138
30
0
41
1
10
-22.5
20
1.29707563275716
30
0
41
1
10
-22.5
20
1.40144074045128
30
0
41
1
10
-22.5
20
1.50690426712365
30
0
41
1
10
-22.5
20
1.58559123041411
30
0
41
1
10
-22.5
20
1.66417084854152
30
0
41
1
10
-22.5
20
1.74263823347056
30
0
41
1
10
-22.5
20
1.82098464012651
30
0
41
1
10
-22.5
20
1.89920682890118
30
0
41
1
10
-22.5
20
1.97729727415896
30
0
41
1
10
-22.5
20
2.08161602870015
30
0
41
1
10
-22.5
20
2.18454587114542
30
0
41
1
10
-22.5
20
2.2882368400623
30
0
41
1
10
-22.5
20
2.39172828921559
30
0
41
1
10
-22.5
20
2.51992549648591
30
0
41
1
10
-22.5
20
2.67346525953189
30
0
41
1
10
-22.5
20
2.8262921676581
30
0
41
1
10
-22.5
20
2.97838003358396
30
0
41
1
10
-22.5
20
3.12970257053468
30
0
41
1
10
-22.5
20
3.28023687778401
30
0
41
1
10
-22.5
20
3.4299627769704
30
0
41
1
10
-22.5
20
3.57886126909131
30
0
41
1
10
-22.5
20
3.72691565105669
30
0
41
1
10
-22.5
20
3.87410976932693
30
0
41
1
10
-22.5
20
4.02043049501106
30
0
41
1
10
-22.5
20
4.16586580001649
30
0
41
1
10
-22.5
20
4.31040309161108
30
0
41
1
10
-22.5
20
4.45403157575558
30
0
41
1
10
-22.5
20
4.59674211262629
30
0
41
1
10
-22.5
20
4.73852599905979
30
0
41
1
10
-22.5
20
4.87937450907222
30
0
41
1
10
-22.5
20
5.01927995326392
30
0
41
1
10
-22.5
20
5.15823567759486
30
0
41
1
10
-22.5
20
5.29623480232564
30
0
41
1
10
-22.5
20
5.47933703035866
30
0
41
1
10
-22.5
20
5.70495651005669
30
0
41
1
10
-22.5
20
5.97220551217549
30
0
41
1
10
-22.5
20
6.23550102644131
30
0
41
1
10
-22.5
20
6.45125553312127
30
0
41
1
10
-22.5
20
6.62242827644155
30
0
41
1
10
-22.5
20
6.74956632065386
30
0
41
1
10
-22.5
20
6.87569112826711
30
0
41
1
10
-22.5
20
7.04280518235291
30
0
41
1
10
-22.5
20
7.24848505186407
30
0
41
1
10
-22.5
20
7.45073654157579
30
0
41
1
10
-22.5
20
7.61097083499584
30
0
41
1
10
-22.5
20
7.72990617143802
30
0
41
1
10
-22.5
20
7.84779993569691
30
0
41
1
10
-22.5
20
7.96465014223952
30
0
41
1
10
-22.5
20
8.08045168982594
30
0
41
1
10
-22.5
20
8.23370690743869
30
0
41
1
10
-22.5
20
8.38410353449396
30
0
41
1
10
-22.5
20
8.53310893756458
30
0
41
1
10
-22.5
20
8.68069429175793
30
0
41
1
10
-22.5
20
8.86197296792949
30
0
41
1
10
-22.5
20
9.03966368952013
30
0
41
1
10
-22.5
20
9.18004983919923
30
0
41
1
10
-22.5
20
9.31898450356377
30
0
41
1
10
-22.5
20
9.45508832781687
30
0
41
1
10
-22.5
20
9.57273011219269
30
0
41
1
10
-22.5
20
9.63944489130401
30
0
41
1
10
-22.5
20
9.70579078784201
30
0
41
1
10
-22.5
20
9.78780083934149
30
0
41
1
10
-22.5
20
9.9178935930201
30
0
41
1
10
-22.5
20
10.0451570413025
30
0
41
1
10
-22.5
20
10.1707494549495
30
0
41
1
10
-22.5
20
10.2636670923514
30
0
41
1
10
-22.5
20
10.3554481215356
30
0
41
1
10
-22.5
20
10.4460865275718
30
0
41
1
10
-22.5
20
10.5355769819029
30
0
41
1
10
-22.5
20
10.6239149454148
30
0
41
1
10
-22.5
20
10.7110949831286
30
0
41
1
10
-22.5
20
10.7971107518715
30
0
41
1
10
-22.5
20
10.881957392112
30
0
41
1
10
-22.5
20
10.9936883814227
30
0
41
1
10
-22.5
20
11.1025558247745
30
0
41
1
10
-22.5
20
11.2095312020912
30
0
41
1
10
-22.5
20
11.2884404549429
30
0
41
1
10
-22.5
20
11.3531143221947
30
0
41
1
10
-22.5
20
11.4043880916922
30
0
41
1
10
-22.5
20
11.4552554262223
30
0
41
1
10
-22.5
20
11.5179033392113
30
0
41
1
10
-22.5
20
11.59194615036
30
0
41
1
10
-22.5
20
11.6647550005754
30
0
41
1
10
-22.5
20
11.7363216027856
30
0
41
1
10
-22.5
20
11.8066390784571
30
0
41
1
10
-22.5
20
11.8988607853737
30
0
41
1
10
-22.5
20
12.0106580823312
30
0
41
1
10
-22.5
20
12.1181901660327
30
0
41
1
10
-22.5
20
12.2018541666219
30
0
41
1
10
-22.5
20
12.2837700633604
30
0
41
1
10
-22.5
20
12.3626709718699
30
0
41
1
10
-22.5
20
12.4392702770472
30
0
41
1
10
-22.5
20
12.4952790326449
30
0
41
1
10
-22.5
20
12.5499297998313
30
0
41
1
10
-22.5
20
12.6032111684974
30
0
41
1
10
-22.5
20
12.6551113810006
30
0
41
1
10
-22.5
20
12.7056201369325
30
0
41
1
10
-22.5
20
12.7547247883428
30
0
41
1
10
-22.5
20
12.8184132188765
30
0
41
1
10
-22.5
20
12.8789379874313
30
0
41
1
10
-22.5
20
12.9368537004399
30
0
41
1
10
-22.5
20
12.9787481075024
30
0
41
1
10
-22.5
20
13.0191589474766
30
0
41
1
10
-22.5
20
13.0580720783436
30
0
41
1
10
-22.5
20
13.0954724183383
30
0
41
1
10
-22.5
20
13.1433841284413
30
0
41
1
10
-22.5
20
13.1879639126742
30
0
41
1
10
-22.5
20
13.2296213566399
30
0
41
1
10
-22.5
20
13.2592104836088
30
0
41
1
10
-22.5
20
13.2871835761246
30
0
41
1
10
-22.5
20
13.3223661774289
30
0
41
1
10
-22.5
20
13.3620642251226
30
0
41
1
10
-22.5
20
13.402990048048
30
0
41
1
10
-22.5
20
13.4312436783152
30
0
41
1
10
-22.5
20
13.4503375493538
30
0
41
1
10
-22.5
20
13.4628104278487
30
0
41
1
10
-22.5
20
13.4734382711797
30
0
41
1
10
-22.5
20
13.4821928739338
30
0
41
1
10
-22.5
20
13.4890441905268
30
0
41
1
10
-22.5
20
13.4939625245411
30
0
41
1
10
-22.5
20
13.4969161903089
30
0
41
1
10
-22.5
20
13.4978716184631
30
0
41
1
10
-22.5
20
13.4970363206465
30
0
41
1
10
-22.5
20
13.4959563526338
30
0
41
1
10
-22.5
20
13.4956562854107
30
0
0
SPLINE
5
FC
100
AcDbEntity
8
SK1
62
256
6
ByLayer
370
18
48
1
60
0
100
AcDbSpline
70
4
71
3
72
114
73
110
40
0
40
0
40
0
40
0
40
0.005529450187106
40
0.0135533950338709
40
0.0215773398806357
40
0.0296012847274006
40
0.0376252295741655
40
0.0456491744209303
40
0.0536731192676952
40
0.0616970641144601
40
0.0697210089612249
40
0.0777449538079898
40
0.0857688986547546
40
0.0937928435015195
40
0.101816788348284
40
0.109840733195049
40
0.117864678041814
40
0.125888622888579
40
0.133912567735344
40
0.141936512582109
40
0.149960457428874
40
0.157984402275639
40
0.166008347122403
40
0.182056236815933
40
0.198104126509463
40
0.214152016202993
40
0.230199905896522
40
0.238223850743287
40
0.246247795590052
40
0.254271740436817
40
0.262295685283582
40
0.278343574977111
40
0.294391464670641
40
0.302415409517406
40
0.310439354364171
40
0.318463299210936
40
0.326487244057701
40
0.334511188904466
40
0.34253513375123
40
0.35858302344476
40
0.366606968291525
40
0.37463091313829
40
0.39067880283182
40
0.406726692525349
40
0.414750637372114
40
0.422774582218879
40
0.438822471912409
40
0.446846416759174
40
0.450858389182556
40
0.454870361605939
40
0.462894306452703
40
0.470918251299468
40
0.486966140992998
40
0.494990085839763
40
0.503014030686528
40
0.511037975533293
40
0.519061920380058
40
0.527085865226822
40
0.535109810073587
40
0.543133754920352
40
0.551157699767117
40
0.559181644613882
40
0.567205589460647
40
0.583253479154176
40
0.591277424000941
40
0.599301368847706
40
0.607325313694471
40
0.611337286117853
40
0.615349258541236
40
0.623373203388001
40
0.631397148234766
40
0.639421093081531
40
0.647445037928295
40
0.65546898277506
40
0.663492927621825
40
0.679540817315355
40
0.695588707008885
40
0.703612651855649
40
0.711636596702414
40
0.727684486395944
40
0.735708431242709
40
0.743732376089474
40
0.751756320936239
40
0.759780265783004
40
0.767804210629768
40
0.775828155476533
40
0.783852100323298
40
0.791876045170063
40
0.807923934863593
40
0.815947879710357
40
0.823971824557122
40
0.831995769403887
40
0.840019714250652
40
0.848043659097417
40
0.856067603944182
40
0.872115493637712
40
0.880139438484476
40
0.888163383331241
40
0.896187328178006
40
0.904211273024771
40
0.920259162718301
40
0.936307052411831
40
0.95235494210536
40
0.960378886952125
40
0.96840283179889
40
0.976426776645655
40
0.98445072149242
40
0.992474666339185
40
1
40
1
40
1
40
1
41
1
10
-1.69999999999999
20
2.58372509632827
30
0
41
1
10
-1.69999999999999
20
2.62111404232408
30
0
41
1
10
-1.69999999999999
20
2.71257747642741
30
0
41
1
10
-1.69999999999999
20
2.85743846779499
30
0
41
1
10
-1.69999999999999
20
3.01805527431182
30
0
41
1
10
-1.69999999999999
20
3.17766893265431
30
0
41
1
10
-1.69999999999999
20
3.33626943234705
30
0
41
1
10
-1.69999999999999
20
3.49384789900154
30
0
41
1
10
-1.69999999999999
20
3.65039714326571
30
0
41
1
10
-1.69999999999999
20
3.80591077742719
30
0
41
1
10
-1.69999999999999
20
3.96038358832212
30
0
41
1
10
-1.69999999999999
20
4.11381092681606
30
0
41
1
10
-1.69999999999999
20
4.26618872973953
30
0
41
1
10
-1.69999999999999
20
4.41751381174834
30
0
41
1
10
-1.69999999999999
20
4.56778337246482
30
0
41
1
10
-1.69999999999999
20
4.71699468615466
30
0
41
1
10
-1.69999999999999
20
4.86514556778678
30
0
41
1
10
-1.69999999999999
20
5.01223405348068
30
0
41
1
10
-1.69999999999999
20
5.15825857839869
30
0
41
1
10
-1.69999999999999
20
5.30321729486519
30
0
41
1
10
-1.69999999999999
20
5.44710899667646
30
0
41
1
10
-1.69999999999999
20
5.58993216915877
30
0
41
1
10
-1.69999999999999
20
5.77892152059965
30
0
41
1
10
-1.69999999999999
20
6.01251447744062
30
0
41
1
10
-1.69999999999999
20
6.28851700104784
30
0
41
1
10
-1.69999999999999
20
6.56021848903171
30
0
41
1
10
-1.69999999999999
20
6.7830583657493
30
0
41
1
10
-1.69999999999999
20
6.95914717066265
30
0
41
1
10
-1.69999999999999
20
7.09014226669851
30
0
41
1
10
-1.69999999999999
20
7.22005470774221
30
0
41
1
10
-1.69999999999999
20
7.39181445781463
30
0
41
1
10
-1.69999999999999
20
7.60382755625838
30
0
41
1
10
-1.69999999999999
20
7.81221411547432
30
0
41
1
10
-1.69999999999999
20
7.9767200242907
30
0
41
1
10
-1.69999999999999
20
8.09901464495698
30
0
41
1
10
-1.69999999999999
20
8.22021379775831
30
0
41
1
10
-1.69999999999999
20
8.34031606829598
30
0
41
1
10
-1.69999999999999
20
8.45931945344486
30
0
41
1
10
-1.69999999999999
20
8.61651162008161
30
0
41
1
10
-1.69999999999999
20
8.77152766795061
30
0
41
1
10
-1.69999999999999
20
8.92429760284432
30
0
41
1
10
-1.69999999999999
20
9.07558727703642
30
0
41
1
10
-1.69999999999999
20
9.26193698423123
30
0
41
1
10
-1.69999999999999
20
9.44455854729449
30
0
41
1
10
-1.69999999999999
20
9.58839008121353
30
0
41
1
10
-1.69999999999999
20
9.73071862052217
30
0
41
1
10
-1.69999999999999
20
9.87081043657869
30
0
41
1
10
-1.69999999999999
20
9.9913814320609
30
0
41
1
10
-1.69999999999999
20
10.0597065749413
30
0
41
1
10
-1.69999999999999
20
10.1276505623382
30
0
41
1
10
-1.69999999999999
20
10.2118742799613
30
0
41
1
10
-1.69999999999999
20
10.3450861470912
30
0
41
1
10
-1.69999999999999
20
10.4760157679139
30
0
41
1
10
-1.69999999999999
20
10.6046008465563
30
0
41
1
10
-1.69999999999999
20
10.6998796425436
30
0
41
1
10
-1.69999999999999
20
10.7939888359847
30
0
41
1
10
-1.69999999999999
20
10.8869237783616
30
0
41
1
10
-1.69999999999999
20
10.9786794422307
30
0
41
1
10
-1.69999999999999
20
11.0692509372408
30
0
41
1
10
-1.69999999999999
20
11.1586337603462
30
0
41
1
10
-1.69999999999999
20
11.2468221792499
30
0
41
1
10
-1.69999999999999
20
11.3338110499831
30
0
41
1
10
-1.69999999999999
20
11.448182891669
30
0
41
1
10
-1.69999999999999
20
11.5601529159528
30
0
41
1
10
-1.69999999999999
20
11.6696587742526
30
0
41
1
10
-1.69999999999999
20
11.7505641289662
30
0
41
1
10
-1.69999999999999
20
11.8169591426362
30
0
41
1
10
-1.69999999999999
20
11.8694488081267
30
0
41
1
10
-1.69999999999999
20
11.9215236068653
30
0
41
1
10
-1.69999999999999
20
11.9858436758677
30
0
41
1
10
-1.69999999999999
20
12.0617686582407
30
0
41
1
10
-1.69999999999999
20
12.1364316894724
30
0
41
1
10
-1.69999999999999
20
12.209824815618
30
0
41
1
10
-1.69999999999999
20
12.2819406900945
30
0
41
1
10
-1.69999999999999
20
12.3763763558488
30
0
41
1
10
-1.69999999999999
20
12.4912006491746
30
0
41
1
10
-1.69999999999999
20
12.6016598943421
30
0
41
1
10
-1.69999999999999
20
12.6873624197502
30
0
41
1
10
-1.69999999999999
20
12.7712834714132
30
0
41
1
10
-1.69999999999999
20
12.8525264142953
30
0
41
1
10
-1.69999999999999
20
12.9310230723471
30
0
41
1
10
-1.69999999999999
20
12.9885220902628
30
0
41
1
10
-1.69999999999999
20
13.0446338149516
30
0
41
1
10
-1.69999999999999
20
13.099347414251
30
0
41
1
10
-1.69999999999999
20
13.1526505121852
30
0
41
1
10
-1.69999999999999
20
13.2045321061977
30
0
41
1
10
-1.69999999999999
20
13.254979960848
30
0
41
1
10
-1.69999999999999
20
13.3203101073726
30
0
41
1
10
-1.69999999999999
20
13.3827344162836
30
0
41
1
10
-1.69999999999999
20
13.4421723218484
30
0
41
1
10
-1.69999999999999
20
13.485252935173
30
0
41
1
10
-1.69999999999999
20
13.5268172028035
30
0
41
1
10
-1.69999999999999
20
13.5668499361124
30
0
41
1
10
-1.69999999999999
20
13.6053355893185
30
0
41
1
10
-1.69999999999999
20
13.6545611373555
30
0
41
1
10
-1.69999999999999
20
13.7006353174901
30
0
41
1
10
-1.69999999999999
20
13.7434660879001
30
0
41
1
10
-1.69999999999999
20
13.773955994413
30
0
41
1
10
-1.69999999999999
20
13.8027899045868
30
0
41
1
10
-1.69999999999999
20
13.838998019961
30
0
41
1
10
-1.69999999999999
20
13.8800204120324
30
0
41
1
10
-1.69999999999999
20
13.9222750232465
30
0
41
1
10
-1.69999999999999
20
13.9515178138587
30
0
41
1
10
-1.69999999999999
20
13.9712195253815
30
0
41
1
10
-1.69999999999999
20
13.9841239086368
30
0
41
1
10
-1.69999999999999
20
13.9951252442004
30
0
41
1
10
-1.69999999999999
20
14.0041925984504
30
0
41
1
10
-1.69999999999999
20
14.0111457478249
30
0
41
1
10
-1.69999999999999
20
14.0144803195259
30
0
41
1
10
-1.69999999999999
20
14.0157960961757
30
0
0
SPLINE
5
FD
100
AcDbEntity
8
SK1
62
256
6
ByLayer
370
18
48
1
60
0
100
AcDbSpline
70
4
71
3
72
30
73
26
40
0
40
0
40
0
40
0
40
0.249999999999995
40
0.249999999999995
40
0.374999999999992
40
0.374999999999992
40
0.406249999999991
40
0.406249999999991
40
0.43749999999999
40
0.43749999999999
40
0.45312499999999
40
0.45312499999999
40
0.46874999999999
40
0.46874999999999
40
0.484374999999989
40
0.484374999999989
40
0.499999999999989
40
0.499999999999989
40
0.562499999999989
40
0.562499999999989
40
0.62499999999999
40
0.62499999999999
40
0.749999999999993
40
0.749999999999993
40
1
40
1
40
1
40
1
41
1
10
-1.69999999999999
20
-2.5837250319525
30
0
41
1
10
-1.69960577308385
20
-2.48597799469368
30
0
41
1
10
-1.69767355238125
20
-2.38798982618385
30
0
41
1
10
-1.68844262802617
20
-2.24033510329087
30
0
41
1
10
-1.6845074563401
20
-2.19070814790993
30
0
41
1
10
-1.67522587914647
20
-2.12935469948891
30
0
41
1
10
-1.67312828441314
20
-2.11712975813981
30
0
41
1
10
-1.66799661065508
20
-2.09285679379502
30
0
41
1
10
-1.66501908824247
20
-2.08070007713755
30
0
41
1
10
-1.65873245221243
20
-2.06342051623665
30
0
41
1
10
-1.65636984487858
20
-2.05788078872462
30
0
41
1
10
-1.65023143895016
20
-2.04803772586061
30
0
41
1
10
-1.64627248366924
20
-2.04380832654704
30
0
41
1
10
-1.63739722305138
20
-2.04164679415916
30
0
41
1
10
-1.63308445530924
20
-2.04380258018921
30
0
41
1
10
-1.62595582684793
20
-2.05010802243763
30
0
41
1
10
-1.62290108509805
20
-2.0542524418091
30
0
41
1
10
-1.6090604043298
20
-2.07622701889966
30
0
41
1
10
-1.60160514051981
20
-2.09765684448166
30
0
41
1
10
-1.58759099418751
20
-2.14045324455233
30
0
41
1
10
-1.58147400139299
20
-2.16239311413938
30
0
41
1
10
-1.56425204899804
20
-2.22885918383585
30
0
41
1
10
-1.55431624483137
20
-2.27405720199982
30
0
41
1
10
-1.526294645391
20
-2.41049928039388
30
0
41
1
10
-1.5101601902295
20
-2.50249360080099
30
0
41
1
10
-1.49503997793928
20
-2.59465115086948
30
0
0
SPLINE
5
FE
100
AcDbEntity
8
SK1
62
256
6
ByLayer
370
18
48
1
60
0
100
AcDbSpline
70
4
71
3
72
19
73
15
40
0
40
0
40
0
40
0
40
0.0013021902673303
40
0.0949939354092567
40
0.188685680551183
40
0.28237742569311
40
0.376069170835037
40
0.469760915976963
40
0.56345266111889
40
0.657144406260817
40
0.750836151402743
40
0.84452789654467
40
0.938219641686596
40
1
40
1
40
1
40
1
41
1
10
-1.49503997793931
20
-13.8251837301738
30
0
41
1
10
-1.49503997793931
20
-13.8251847302738
30
0
41
1
10
-1.49503997793931
20
-13.825210919874
30
0
41
1
10
-1.49503997793931
20
-13.8245545856003
30
0
41
1
10
-1.49503997793931
20
-13.821531562835
30
0
41
1
10
-1.49503997793931
20
-13.8164987457743
30
0
41
1
10
-1.49503997793931
20
-13.8094907530557
30
0
41
1
10
-1.49503997793931
20
-13.800539960484
30
0
41
1
10
-1.49503997793931
20
-13.7896781016746
30
0
41
1
10
-1.49503997793931
20
-13.7769347594832
30
0
41
1
10
-1.49503997793931
20
-13.7623389110759
30
0
41
1
10
-1.49503997793931
20
-13.7459180935577
30
0
41
1
10
-1.49503997793931
20
-13.7297669057333
30
0
41
1
10
-1.49503997793931
20
-13.7188752515026
30
0
41
1
10
-1.49503997793931
20
-13.7144191507348
30
0
0
SPLINE
5
FF
100
AcDbEntity
8
SK1
62
256
6
ByLayer
370
13
48
1
60
0
100
AcDbSpline
70
4
71
3
72
108
73
104
40
0
40
0
40
0
40
0
40
0.0029472964093423
40
0.0116005506696147
40
0.0289070591901596
40
0.037560313450432
40
0.0462135677107044
40
0.0548668219709768
40
0.0635200762312492
40
0.080826584751794
40
0.0894798390120664
40
0.0981330932723389
40
0.106786347532611
40
0.115439601792884
40
0.124092856053156
40
0.132746110313429
40
0.150052618833973
40
0.158705873094246
40
0.167359127354518
40
0.17601238161479
40
0.184665635875063
40
0.193318890135335
40
0.201972144395608
40
0.21062539865588
40
0.219278652916153
40
0.236585161436697
40
0.24523841569697
40
0.253891669957242
40
0.271198178477787
40
0.288504686998332
40
0.297157941258604
40
0.305811195518876
40
0.314464449779149
40
0.323117704039421
40
0.331770958299694
40
0.340424212559966
40
0.344750839690102
40
0.349077466820239
40
0.357730721080511
40
0.366383975340783
40
0.375037229601056
40
0.392343738121601
40
0.400996992381873
40
0.409650246642145
40
0.418303500902418
40
0.42695675516269
40
0.435610009422963
40
0.444263263683235
40
0.452916517943508
40
0.46156977220378
40
0.470223026464052
40
0.478876280724325
40
0.49618278924487
40
0.504836043505142
40
0.513489297765414
40
0.517815924895551
40
0.522142552025687
40
0.530795806285959
40
0.548102314806504
40
0.556755569066776
40
0.565408823327049
40
0.582715331847594
40
0.600021840368138
40
0.608675094628411
40
0.617328348888683
40
0.634634857409228
40
0.643288111669501
40
0.651941365929773
40
0.660594620190045
40
0.669247874450318
40
0.67790112871059
40
0.686554382970862
40
0.703860891491407
40
0.721167400011952
40
0.729820654272225
40
0.738473908532497
40
0.747127162792769
40
0.755780417053042
40
0.773086925573586
40
0.790393434094131
40
0.807699942614676
40
0.825006451135221
40
0.833659705395493
40
0.842312959655766
40
0.850966213916038
40
0.859619468176311
40
0.868272722436583
40
0.876925976696855
40
0.885579230957128
40
0.8942324852174
40
0.902885739477673
40
0.911538993737945
40
0.920192247998217
40
0.92884550225849
40
0.937498756518762
40
0.946152010779035
40
0.954805265039307
40
0.963458519299579
40
0.972111773559852
40
0.980765027820124
40
0.989418282080397
40
0.998071536340669
40
1
40
1
40
1
40
1
41
1
10
-1.49503997793931
20
-13.7144191507352
30
0
41
1
10
-1.49503997793931
20
-13.7121174425672
30
0
41
1
10
-1.49503997793931
20
-13.7029234498445
30
0
41
1
10
-1.49503997793931
20
-13.6786965897716
30
0
41
1
10
-1.49503997793931
20
-13.646298505966
30
0
41
1
10
-1.49503997793931
20
-13.6104729213425
30
0
41
1
10
-1.49503997793931
20
-13.5819601013665
30
0
41
1
10
-1.49503997793931
20
-13.551806168738
30
0
41
1
10
-1.49503997793931
20
-13.5094130161235
30
0
41
1
10
-1.49503997793931
20
-13.4638962511352
30
0
41
1
10
-1.49503997793931
20
-13.4151607649325
30
0
41
1
10
-1.49503997793931
20
-13.3770799229021
30
0
41
1
10
-1.49503997793931
20
-13.3374647797226
30
0
41
1
10
-1.49503997793931
20
-13.2963307229449
30
0
41
1
10
-1.49503997793931
20
-13.2536925631392
30
0
41
1
10
-1.49503997793931
20
-13.1948224412614
30
0
41
1
10
-1.49503997793931
20
-13.133106637017
30
0
41
1
10
-1.49503997793931
20
-13.0683888234861
30
0
41
1
10
-1.49503997793931
20
-13.0184419731185
30
0
41
1
10
-1.49503997793931
20
-12.9670724454163
30
0
41
1
10
-1.49503997793931
20
-12.9142926213842
30
0
41
1
10
-1.49503997793931
20
-12.8601132308426
30
0
41
1
10
-1.49503997793931
20
-12.8045464232669
30
0
41
1
10
-1.49503997793931
20
-12.7476032540011
30
0
41
1
10
-1.49503997793931
20
-12.6698142967672
30
0
41
1
10
-1.49503997793931
20
-12.5894449263383
30
0
41
1
10
-1.49503997793931
20
-12.5062717787185
30
0
41
1
10
-1.49503997793931
20
-12.4213295969168
30
0
41
1
10
-1.49503997793931
20
-12.3119621581916
30
0
41
1
10
-1.49503997793931
20
-12.1982669205398
30
0
41
1
10
-1.49503997793931
20
-12.1046570427268
30
0
41
1
10
-1.49503997793931
20
-12.0332119519516
30
0
41
1
10
-1.49503997793931
20
-11.960500101414
30
0
41
1
10
-1.49503997793931
20
-11.886528664654
30
0
41
1
10
-1.49503997793931
20
-11.8113057197552
30
0
41
1
10
-1.49503997793931
20
-11.747609354201
30
0
41
1
10
-1.49503997793931
20
-11.6959849306732
30
0
41
1
10
-1.49503997793931
20
-11.6439487843731
30
0
41
1
10
-1.49503997793931
20
-11.5781957427673
30
0
41
1
10
-1.49503997793931
20
-11.4980349156058
30
0
41
1
10
-1.49503997793931
20
-11.3894729046301
30
0
41
1
10
-1.49503997793931
20
-11.2786601205037
30
0
41
1
10
-1.49503997793931
20
-11.165273297363
30
0
41
1
10
-1.49503997793931
20
-11.0790834618892
30
0
41
1
10
-1.49503997793931
20
-10.9917054227683
30
0
41
1
10
-1.49503997793931
20
-10.9031442186804
30
0
41
1
10
-1.49503997793931
20
-10.8134058114344
30
0
41
1
10
-1.49503997793931
20
-10.7224950525572
30
0
41
1
10
-1.49503997793931
20
-10.630416702033
30
0
41
1
10
-1.49503997793931
20
-10.537175897834
30
0
41
1
10
-1.49503997793931
20
-10.4427777956644
30
0
41
1
10
-1.49503997793931
20
-10.3153089526253
30
0
41
1
10
-1.49503997793931
20
-10.1857467801784
30
0
41
1
10
-1.49503997793931
20
-10.0536983203575
30
0
41
1
10
-1.49503997793931
20
-9.97030028641953
30
0
41
1
10
-1.49503997793931
20
-9.90295237623948
30
0
41
1
10
-1.49503997793931
20
-9.835227886979
30
0
41
1
10
-1.49503997793931
20
-9.71574945872362
30
0
41
1
10
-1.49503997793931
20
-9.57714512355727
30
0
41
1
10
-1.49503997793931
20
-9.43608247629774
30
0
41
1
10
-1.49503997793931
20
-9.2935360539519
30
0
41
1
10
-1.49503997793931
20
-9.11275364912453
30
0
41
1
10
-1.49503997793931
20
-8.92829538452324
30
0
41
1
10
-1.49503997793931
20
-8.7783873974316
30
0
41
1
10
-1.49503997793931
20
-8.62702161678089
30
0
41
1
10
-1.49503997793931
20
-8.47372856948019
30
0
41
1
10
-1.49503997793931
20
-8.31800484031689
30
0
41
1
10
-1.49503997793931
20
-8.2001957134178
30
0
41
1
10
-1.49503997793931
20
-8.08130644558901
30
0
41
1
10
-1.49503997793931
20
-7.96134018717205
30
0
41
1
10
-1.49503997793931
20
-7.84029855153605
30
0
41
1
10
-1.49503997793931
20
-7.67738590051292
30
0
41
1
10
-1.49503997793931
20
-7.47128768043942
30
0
41
1
10
-1.49503997793931
20
-7.2616368417514
30
0
41
1
10
-1.49503997793931
20
-7.09160988853208
30
0
41
1
10
-1.49503997793931
20
-6.96311018885422
30
0
41
1
10
-1.49503997793931
20
-6.83355374310952
30
0
41
1
10
-1.49503997793931
20
-6.65929861735813
30
0
41
1
10
-1.49503997793931
20
-6.43910150489376
30
0
41
1
10
-1.49503997793931
20
-6.17053537924178
30
0
41
1
10
-1.49503997793931
20
-5.89779786635279
30
0
41
1
10
-1.49503997793931
20
-5.66717892451575
30
0
41
1
10
-1.49503997793931
20
-5.48038543010179
30
0
41
1
10
-1.49503997793931
20
-5.33936160781602
30
0
41
1
10
-1.49503997793931
20
-5.19731095699919
30
0
41
1
10
-1.49503997793931
20
-5.05423700692029
30
0
41
1
10
-1.49503997793931
20
-4.91014320448997
30
0
41
1
10
-1.49503997793931
20
-4.76503356668587
30
0
41
1
10
-1.49503997793931
20
-4.61891187892093
30
0
41
1
10
-1.49503997793931
20
-4.47178250674139
30
0
41
1
10
-1.49503997793931
20
-4.32365075555242
30
0
41
1
10
-1.49503997793931
20
-4.17452257114442
30
0
41
1
10
-1.49503997793931
20
-4.02440435063468
30
0
41
1
10
-1.49503997793931
20
-3.87330241838256
30
0
41
1
10
-1.49503997793931
20
-3.72122348266291
30
0
41
1
10
-1.49503997793931
20
-3.56817684914566
30
0
41
1
10
-1.49503997793931
20
-3.4141725129254
30
0
41
1
10
-1.49503997793931
20
-3.25922160409144
30
0
41
1
10
-1.49503997793931
20
-3.10333581737226
30
0
41
1
10
-1.49503997793931
20
-2.94652921585708
30
0
41
1
10
-1.49503997793931
20
-2.78881794693001
30
0
41
1
10
-1.49503997793931
20
-2.67130382016646
30
0
41
1
10
-1.49503997793931
20
-2.60647324344194
30
0
41
1
10
-1.49503997793931
20
-2.59465115086951
30
0
0
SPLINE
5
100
100
AcDbEntity
8
SK1
62
256
6
ByLayer
370
18
48
1
60
0
100
AcDbSpline
70
4
71
3
72
30
73
26
40
0
40
0
40
0
40
0
40
0.249999999999996
40
0.249999999999996
40
0.374999999999995
40
0.374999999999995
40
0.437499999999994
40
0.437499999999994
40
0.468749999999994
40
0.468749999999994
40
0.499999999999995
40
0.499999999999995
40
0.515624999999995
40
0.515624999999995
40
0.531249999999995
40
0.531249999999995
40
0.546874999999996
40
0.546874999999996
40
0.562499999999996
40
0.562499999999996
40
0.624999999999997
40
0.624999999999997
40
0.749999999999998
40
0.749999999999998
40
1
40
1
40
1
40
1
41
1
10
-1.49503997793931
20
2.59465115838304
30
0
41
1
10
-1.51026746272268
20
2.50183982455951
30
0
41
1
10
-1.52651400478425
20
2.40922455962408
30
0
41
1
10
-1.55478813482398
20
2.27186617316025
30
0
41
1
10
-1.56483850627197
20
2.22626541767522
30
0
41
1
10
-1.58232732166977
20
2.1592818069538
30
0
41
1
10
-1.58855430949953
20
2.13715881603292
30
0
41
1
10
-1.59928375148641
20
2.10496662261352
30
0
41
1
10
-1.60308610086514
20
2.0944176300969
30
0
41
1
10
-1.6116030497501
20
2.07406881511585
30
0
41
1
10
-1.6162780233625
20
2.06410999368941
30
0
41
1
10
-1.6249689304999
20
2.05149541629649
30
0
41
1
10
-1.62816482150973
20
2.04762113463221
30
0
41
1
10
-1.63581311778782
20
2.04242474357423
30
0
41
1
10
-1.64047550516949
20
2.04153346480726
30
0
41
1
10
-1.64893986683211
20
2.04619400336981
30
0
41
1
10
-1.65243193129891
20
2.05108113187367
30
0
41
1
10
-1.65796633561408
20
2.06142619765944
30
0
41
1
10
-1.66019890815173
20
2.06715816278913
30
0
41
1
10
-1.66988903742802
20
2.09599783238281
30
0
41
1
10
-1.67400497309845
20
2.1206918183903
30
0
41
1
10
-1.68477614120369
20
2.19380514302554
30
0
41
1
10
-1.68861651052396
20
2.24263416926129
30
0
41
1
10
-1.69768397047525
20
2.38915025298928
30
0
41
1
10
-1.69960876100487
20
2.48671898766878
30
0
41
1
10
-1.69999999999999
20
2.58372509632824
30
0
0
SPLINE
5
101
100
AcDbEntity
8
SK1
62
256
6
ByLayer
370
18
48
1
60
0
100
AcDbSpline
70
4
71
3
72
26
73
22
40
0
40
0
40
0
40
0
40
0.250000000000001
40
0.250000000000001
40
0.500000000000002
40
0.500000000000002
40
0.625000000000001
40
0.625000000000001
40
0.750000000000001
40
0.750000000000001
40
0.812500000000001
40
0.812500000000001
40
0.875
40
0.875
40
0.90625
40
0.90625
40
0.9375
40
0.9375
40
0.96875
40
0.96875
40
1
40
1
40
1
40
1
41
1
10
-0.199999999999989
20
-5.70317605472852
30
0
41
1
10
-0.199999999999989
20
-5.63823579019839
30
0
41
1
10
-0.201272969697698
20
-5.57293605649684
30
0
41
1
10
-0.207502897007288
20
-5.44150249678518
30
0
41
1
10
-0.212379710104415
20
-5.37529109300414
30
0
41
1
10
-0.224682606237224
20
-5.27544442994071
30
0
41
1
10
-0.229617185866203
20
-5.24213518580024
30
0
41
1
10
-0.242229041643611
20
-5.1755172556598
30
0
41
1
10
-0.249833221611908
20
-5.14218113288823
30
0
41
1
10
-0.265207031268687
20
-5.09326445830425
30
0
41
1
10
-0.270998974325948
20
-5.07711544581855
30
0
41
1
10
-0.285075712605988
20
-5.04543234149861
30
0
41
1
10
-0.293382354784626
20
-5.02955049623239
30
0
41
1
10
-0.309973406893136
20
-5.0082528518075
30
0
41
1
10
-0.316214408917858
20
-5.00161256354821
30
0
41
1
10
-0.330656646938593
20
-4.99083059730327
30
0
41
1
10
-0.339105605325415
20
-4.98673490231505
30
0
41
1
10
-0.356551440191907
20
-4.9838899879212
30
0
41
1
10
-0.365376268604308
20
-4.98514225758564
30
0
41
1
10
-0.381257580405617
20
-4.99109645865985
30
0
41
1
10
-0.388437394911762
20
-4.99565833585206
30
0
41
1
10
-0.394976888882155
20
-5.00092508225595
30
0
0
SPLINE
5
102
100
AcDbEntity
8
SK1
62
256
6
ByLayer
370
18
48
1
60
0
100
AcDbSpline
70
4
71
3
72
28
73
24
40
0
40
0
40
0
40
0
40
0.03125
40
0.03125
40
0.0624999999999999
40
0.0624999999999999
40
0.0937499999999998
40
0.0937499999999998
40
0.125
40
0.125
40
0.15625
40
0.15625
40
0.187499999999999
40
0.187499999999999
40
0.249999999999999
40
0.249999999999999
40
0.374999999999999
40
0.374999999999999
40
0.499999999999999
40
0.499999999999999
40
0.75
40
0.75
40
1
40
1
40
1
40
1
41
1
10
-0.394976888875277
20
-5.00092508226589
30
0
41
1
10
-0.410801723401704
20
-5.01367001187572
30
0
41
1
10
-0.427535664067619
20
-5.02539849227171
30
0
41
1
10
-0.463639445661784
20
-5.0459351174548
30
0
41
1
10
-0.483045340970222
20
-5.05469251156367
30
0
41
1
10
-0.523643941253312
20
-5.06714353053101
30
0
41
1
10
-0.545504646179353
20
-5.07093169487277
30
0
41
1
10
-0.589142052070628
20
-5.07189455751239
30
0
41
1
10
-0.611301179625713
20
-5.06908452808324
30
0
41
1
10
-0.653272178017914
20
-5.05796409301098
30
0
41
1
10
-0.673415768762112
20
-5.04965465210262
30
0
41
1
10
-0.71070702730745
20
-5.02985460655336
30
0
41
1
10
-0.727980485161311
20
-5.01838752948004
30
0
41
1
10
-0.776992972544861
20
-4.98075525164251
30
0
41
1
10
-0.805333125323216
20
-4.95193028425561
30
0
41
1
10
-0.881947101638417
20
-4.86181030678543
30
0
41
1
10
-0.923425703606313
20
-4.7952167904414
30
0
41
1
10
-0.996640730061074
20
-4.6595176511631
30
0
41
1
10
-1.02822753812495
20
-4.58996776098479
30
0
41
1
10
-1.11453443489469
20
-4.37792667248613
30
0
41
1
10
-1.160861761315
20
-4.23206106343852
30
0
41
1
10
-1.2421727576718
20
-3.93395789518055
30
0
41
1
10
-1.27672450018153
20
-3.78192043895183
30
0
41
1
10
-1.30710678118763
20
-3.62781610099955
30
0
0
SPLINE
5
103
100
AcDbEntity
8
SK1
62
256
6
ByLayer
370
18
48
1
60
0
100
AcDbSpline
70
4
71
3
72
8
73
4
40
0
40
0
40
0
40
0
40
1
40
1
40
1
40
1
41
1
10
-1.49503997793931
20
-2.59465115086951
30
0
41
1
10
-1.43721506486062
20
-2.94709344599565
30
0
41
1
10
-1.37353709472987
20
-3.29086972471188
30
0
41
1
10
-1.30710678118766
20
-3.62781610099941
30
0
0
LINE
5
73
100
AcDbEntity
8
SK4
62
256
6
ByLayer
370
18
48
0.05
60
0
100
AcDbLine
10
55
20
0
30
0
11
-29
21
0
31
0
39
0
210
0
220
0
230
1
0
LINE
5
75
100
AcDbEntity
8
4
62
256
6
ByLayer
370
18
48
0.05
60
0
100
AcDbLine
10
55
20
0
30
0
11
0
21
0
31
0
39
0
210
0
220
0
230
1
0
LINE
5
77
100
AcDbEntity
8
81
62
256
6
ByLayer
370
18
48
1
60
0
100
AcDbLine
10
50
20
0
30
0
11
55
21
0
31
0
39
0
210
0
220
0
230
1
0
LINE
5
78
100
AcDbEntity
8
80
62
256
6
ByLayer
370
18
48
1
60
0
100
AcDbLine
10
0
20
0
30
0
11
-5
21
0
31
0
39
0
210
0
220
0
230
1
0
LINE
5
79
100
AcDbEntity
8
1
62
256
6
ByLayer
370
18
48
1
60
0
100
AcDbLine
10
49.7
20
-20
30
0
11
50
21
-19.7
31
0
39
0
210
0
220
0
230
1
0
LINE
5
7B
100
AcDbEntity
8
1
62
256
6
ByLayer
370
18
48
1
60
0
100
AcDbLine
10
50
20
19.7
30
0
11
49.7
21
20
31
0
39
0
210
0
220
0
230
1
0
LINE
5
7C
100
AcDbEntity
8
1
62
256
6
ByLayer
370
18
48
1
60
0
100
AcDbLine
10
49.7
20
20
30
0
11
20.126095
21
20
31
0
39
0
210
0
220
0
230
1
0
LINE
5
7D
100
AcDbEntity
8
1
62
256
6
ByLayer
370
18
48
1
60
0
100
AcDbLine
10
20.126095
20
-20
30
0
11
49.7
21
-20
31
0
39
0
210
0
220
0
230
1
0
LINE
5
7E
100
AcDbEntity
8
1
62
256
6
ByLayer
370
18
48
1
60
0
100
AcDbLine
10
0.3
20
-19.99
30
0
11
20
21
-19.99
31
0
39
0
210
0
220
0
230
1
0
LINE
5
7F
100
AcDbEntity
8
1
62
256
6
ByLayer
370
18
48
1
60
0
100
AcDbLine
10
20
20
19.99
30
0
11
0.3
21
19.99
31
0
39
0
210
0
220
0
230
1
0
LINE
5
80
100
AcDbEntity
8
1
62
256
6
ByLayer
370
18
48
1
60
0
100
AcDbLine
10
0.3
20
19.99
30
0
11
0
21
19.69
31
0
39
0
210
0
220
0
230
1
0
LINE
5
81
100
AcDbEntity
8
1
62
256
6
ByLayer
370
18
48
1
60
0
100
AcDbLine
10
0
20
-19.69
30
0
11
0.3
21
-19.99
31
0
39
0
210
0
220
0
230
1
0
LINE
5
82
100
AcDbEntity
8
1
62
256
6
ByLayer
370
18
48
1
60
0
100
AcDbLine
10
52.299997
20
-10.881282
30
0
11
52.4
21
-10.823545
31
0
39
0
210
0
220
0
230
1
0
LINE
5
83
100
AcDbEntity
8
1
62
256
6
ByLayer
370
18
48
1
60
0
100
AcDbLine
10
52.4
20
10.823545
30
0
11
52.299997
21
10.881282
31
0
39
0
210
0
220
0
230
1
0
LINE
5
84
100
AcDbEntity
8
1
62
256
6
ByLayer
370
18
48
1
60
0
100
AcDbLine
10
52.2
20
15.313708
30
0
11
50.755579
21
13.869287
31
0
39
0
210
0
220
0
230
1
0
LINE
5
85
100
AcDbEntity
8
1
62
256
6
ByLayer
370
18
48
1
60
0
100
AcDbLine
10
50.755579
20
8.75813
30
0
11
52.2
21
7.313708
31
0
39
0
210
0
220
0
230
1
0
LINE
5
86
100
AcDbEntity
8
1
62
256
6
ByLayer
370
18
48
1
60
0
100
AcDbLine
10
50.614157
20
13.810708
30
0
11
49.999925
21
13.810708
31
0
39
0
210
0
220
0
230
1
0
LINE
5
87
100
AcDbEntity
8
1
62
256
6
ByLayer
370
18
48
1
60
0
100
AcDbLine
10
49.999925
20
8.816708
30
0
11
50.614157
21
8.816708
31
0
39
0
210
0
220
0
230
1
0
LINE
5
88
100
AcDbEntity
8
1
62
256
6
ByLayer
370
18
48
1
60
0
100
AcDbLine
10
52.2
20
-7.313708
30
0
11
50.755579
21
-8.75813
31
0
39
0
210
0
220
0
230
1
0
LINE
5
89
100
AcDbEntity
8
1
62
256
6
ByLayer
370
18
48
1
60
0
100
AcDbLine
10
50.755579
20
-13.869287
30
0
11
52.2
21
-15.313708
31
0
39
0
210
0
220
0
230
1
0
LINE
5
8A
100
AcDbEntity
8
1
62
256
6
ByLayer
370
18
48
1
60
0
100
AcDbLine
10
50.614157
20
-8.816708
30
0
11
49.999925
21
-8.816708
31
0
39
0
210
0
220
0
230
1
0
LINE
5
8B
100
AcDbEntity
8
1
62
256
6
ByLayer
370
18
48
1
60
0
100
AcDbLine
10
49.999925
20
-13.810708
30
0
11
50.614157
21
-13.810708
31
0
39
0
210
0
220
0
230
1
0
LINE
5
8C
100
AcDbEntity
8
1
62
256
6
ByLayer
370
18
48
1
60
0
100
AcDbLine
10
52.3
20
15.313708
30
0
11
52.2
21
15.313708
31
0
39
0
210
0
220
0
230
1
0
LINE
5
8D
100
AcDbEntity
8
1
62
256
6
ByLayer
370
18
48
1
60
0
100
AcDbLine
10
52.2
20
7.313708
30
0
11
52.3
21
7.313708
31
0
39
0
210
0
220
0
230
1
0
LINE
5
8E
100
AcDbEntity
8
1
62
256
6
ByLayer
370
18
48
1
60
0
100
AcDbLine
10
52.3
20
-7.313708
30
0
11
52.2
21
-7.313708
31
0
39
0
210
0
220
0
230
1
0
LINE
5
8F
100
AcDbEntity
8
1
62
256
6
ByLayer
370
18
48
1
60
0
100
AcDbLine
10
52.2
20
-15.313708
30
0
11
52.3
21
-15.313708
31
0
39
0
210
0
220
0
230
1
0
LINE
5
90
100
AcDbEntity
8
1
62
256
6
ByLayer
370
13
48
1
60
0
100
AcDbLine
10
20
20
0
30
0
11
20
21
-19.99
31
0
39
0
210
0
220
0
230
1
0
LINE
5
91
100
AcDbEntity
8
1
62
256
6
ByLayer
370
13
48
1
60
0
100
AcDbLine
10
20
20
19.99
30
0
11
20
21
0
31
0
39
0
210
0
220
0
230
1
0
LINE
5
92
100
AcDbEntity
8
SK1
62
256
6
ByLayer
370
18
48
1
60
0
100
AcDbLine
10
-0.2
20
-14.083485
30
0
11
-0.2
21
-5.703176
31
0
39
0
210
0
220
0
230
1
0
LINE
5
94
100
AcDbEntity
8
1
62
256
6
ByLayer
370
18
48
1
60
0
100
AcDbLine
10
20.126095
20
0
30
0
11
20.126095
21
-20
31
0
39
0
210
0
220
0
230
1
0
LINE
5
95
100
AcDbEntity
8
1
62
256
6
ByLayer
370
18
48
1
60
0
100
AcDbLine
10
20.126095
20
20
30
0
11
20.126095
21
0
31
0
39
0
210
0
220
0
230
1
0
LINE
5
96
100
AcDbEntity
8
1
62
256
6
ByLayer
370
18
48
1
60
0
100
AcDbLine
10
50
20
0
30
0
11
50
21
-19.7
31
0
39
0
210
0
220
0
230
1
0
LINE
5
97
100
AcDbEntity
8
1
62
256
6
ByLayer
370
18
48
1
60
0
100
AcDbLine
10
50
20
19.7
30
0
11
50
21
0
31
0
39
0
210
0
220
0
230
1
0
LINE
5
98
100
AcDbEntity
8
1
62
256
6
ByLayer
370
18
48
1
60
0
100
AcDbLine
10
49.7
20
0
30
0
11
49.7
21
-20
31
0
39
0
210
0
220
0
230
1
0
LINE
5
99
100
AcDbEntity
8
1
62
256
6
ByLayer
370
18
48
1
60
0
100
AcDbLine
10
49.7
20
20
30
0
11
49.7
21
0
31
0
39
0
210
0
220
0
230
1
0
LINE
5
9A
100
AcDbEntity
8
1
62
256
6
ByLayer
370
18
48
1
60
0
100
AcDbLine
10
6.923205
20
5.874983
30
0
11
9.076795
21
5.874983
31
0
39
0
210
0
220
0
230
1
0
LINE
5
9B
100
AcDbEntity
8
1
62
256
6
ByLayer
370
18
48
1
60
0
100
AcDbLine
10
9.076795
20
19.107189
30
0
11
6.923205
21
19.107189
31
0
39
0
210
0
220
0
230
1
0
LINE
5
9C
100
AcDbEntity
8
1
62
256
6
ByLayer
370
18
48
1
60
0
100
AcDbLine
10
0.3
20
-19.99
30
0
11
0.3
21
19.99
31
0
39
0
210
0
220
0
230
1
0
LINE
5
9D
100
AcDbEntity
8
1
62
256
6
ByLayer
370
18
48
1
60
0
100
AcDbLine
10
6.923205
20
-19.107189
30
0
11
9.076795
21
-19.107189
31
0
39
0
210
0
220
0
230
1
0
LINE
5
9E
100
AcDbEntity
8
1
62
256
6
ByLayer
370
13
48
1
60
0
100
AcDbLine
10
9.076795
20
-5.874983
30
0
11
9.076795
21
-19.107189
31
0
39
0
210
0
220
0
230
1
0
LINE
5
9F
100
AcDbEntity
8
1
62
256
6
ByLayer
370
13
48
1
60
0
100
AcDbLine
10
9.336603
20
-6.185303
30
0
11
9.336603
21
-19.009001
31
0
39
0
210
0
220
0
230
1
0
LINE
5
A0
100
AcDbEntity
8
1
62
256
6
ByLayer
370
13
48
1
60
0
100
AcDbLine
10
6.663397
20
19.009001
30
0
11
6.663397
21
6.185303
31
0
39
0
210
0
220
0
230
1
0
LINE
5
A1
100
AcDbEntity
8
1
62
256
6
ByLayer
370
13
48
1
60
0
100
AcDbLine
10
6.923205
20
19.107189
30
0
11
6.923205
21
5.874983
31
0
39
0
210
0
220
0
230
1
0
LINE
5
A2
100
AcDbEntity
8
1
62
256
6
ByLayer
370
13
48
1
60
0
100
AcDbLine
10
6.663397
20
-6.185303
30
0
11
6.663397
21
-19.009001
31
0
39
0
210
0
220
0
230
1
0
LINE
5
A3
100
AcDbEntity
8
1
62
256
6
ByLayer
370
13
48
1
60
0
100
AcDbLine
10
6.923205
20
-5.874983
30
0
11
6.923205
21
-19.107189
31
0
39
0
210
0
220
0
230
1
0
LINE
5
A4
100
AcDbEntity
8
1
62
256
6
ByLayer
370
13
48
1
60
0
100
AcDbLine
10
9.076795
20
19.107189
30
0
11
9.076795
21
5.874983
31
0
39
0
210
0
220
0
230
1
0
LINE
5
A5
100
AcDbEntity
8
1
62
256
6
ByLayer
370
13
48
1
60
0
100
AcDbLine
10
9.336603
20
19.009001
30
0
11
9.336603
21
6.185303
31
0
39
0
210
0
220
0
230
1
0
LINE
5
A6
100
AcDbEntity
8
1
62
256
6
ByLayer
370
18
48
1
60
0
100
AcDbLine
10
9.076795
20
-5.874983
30
0
11
6.923205
21
-5.874983
31
0
39
0
210
0
220
0
230
1
0
LINE
5
A7
100
AcDbEntity
8
SK1
62
256
6
ByLayer
370
13
48
1
60
0
100
AcDbLine
10
-1.307107
20
-3.627816
30
0
11
-1.307107
21
3.627817
31
0
39
0
210
0
220
0
230
1
0
LINE
5
A8
100
AcDbEntity
8
SK1
62
256
6
ByLayer
370
18
48
1
60
0
100
AcDbLine
10
-0.2
20
5.703176
30
0
11
-0.2
21
14.083485
31
0
39
0
210
0
220
0
230
1
0
LINE
5
A9
100
AcDbEntity
8
1
62
256
6
ByLayer
370
18
48
1
60
0
100
AcDbLine
10
50.495617
20
-8.817213
30
0
11
50.495617
21
8.816568
31
0
39
0
210
0
220
0
230
1
0
LINE
5
AA
100
AcDbEntity
8
1
62
256
6
ByLayer
370
18
48
1
60
0
100
AcDbLine
10
0
20
-19.69
30
0
11
0
21
19.69
31
0
39
0
210
0
220
0
230
1
0
LINE
5
AB
100
AcDbEntity
8
1
62
256
6
ByLayer
370
18
48
1
60
0
100
AcDbLine
10
52.1
20
0
30
0
11
52.1
21
-7.41292
31
0
39
0
210
0
220
0
230
1
0
LINE
5
AC
100
AcDbEntity
8
1
62
256
6
ByLayer
370
18
48
1
60
0
100
AcDbLine
10
52.1
20
7.413717
30
0
11
52.1
21
0
31
0
39
0
210
0
220
0
230
1
0
LINE
5
AD
100
AcDbEntity
8
1
62
256
6
ByLayer
370
18
48
1
60
0
100
AcDbLine
10
52.4
20
0
30
0
11
52.4
21
-10.823545
31
0
39
0
210
0
220
0
230
1
0
LINE
5
AE
100
AcDbEntity
8
1
62
256
6
ByLayer
370
18
48
1
60
0
100
AcDbLine
10
52.4
20
10.823545
30
0
11
52.4
21
0
31
0
39
0
210
0
220
0
230
1
0
LINE
5
AF
100
AcDbEntity
8
1
62
256
6
ByLayer
370
18
48
1
60
0
100
AcDbLine
10
52.2
20
-11.313708
30
0
11
52.2
21
-15.313708
31
0
39
0
210
0
220
0
230
1
0
LINE
5
B0
100
AcDbEntity
8
1
62
256
6
ByLayer
370
18
48
1
60
0
100
AcDbLine
10
52.2
20
-7.313708
30
0
11
52.2
21
-11.313708
31
0
39
0
210
0
220
0
230
1
0
LINE
5
B1
100
AcDbEntity
8
1
62
256
6
ByLayer
370
18
48
1
60
0
100
AcDbLine
10
52.2
20
11.313708
30
0
11
52.2
21
7.313708
31
0
39
0
210
0
220
0
230
1
0
LINE
5
B2
100
AcDbEntity
8
1
62
256
6
ByLayer
370
18
48
1
60
0
100
AcDbLine
10
52.2
20
15.313708
30
0
11
52.2
21
11.313708
31
0
39
0
210
0
220
0
230
1
0
LINE
5
B3
100
AcDbEntity
8
1
62
256
6
ByLayer
370
18
48
1
60
0
100
AcDbLine
10
52.3
20
11.313708
30
0
11
52.3
21
7.313708
31
0
39
0
210
0
220
0
230
1
0
LINE
5
B4
100
AcDbEntity
8
1
62
256
6
ByLayer
370
18
48
1
60
0
100
AcDbLine
10
52.3
20
15.313708
30
0
11
52.3
21
11.313708
31
0
39
0
210
0
220
0
230
1
0
LINE
5
B5
100
AcDbEntity
8
1
62
256
6
ByLayer
370
18
48
1
60
0
100
AcDbLine
10
52.3
20
-11.313708
30
0
11
52.3
21
-15.313708
31
0
39
0
210
0
220
0
230
1
0
LINE
5
B6
100
AcDbEntity
8
1
62
256
6
ByLayer
370
18
48
1
60
0
100
AcDbLine
10
52.3
20
-7.313708
30
0
11
52.3
21
-11.313708
31
0
39
0
210
0
220
0
230
1
0
LINE
5
B7
100
AcDbEntity
8
1
62
256
6
ByLayer
370
13
48
1
60
0
100
AcDbLine
10
50.755579
20
11.313708
30
0
11
50.755579
21
8.75813
31
0
39
0
210
0
220
0
230
1
0
LINE
5
B8
100
AcDbEntity
8
1
62
256
6
ByLayer
370
13
48
1
60
0
100
AcDbLine
10
50.755579
20
13.869287
30
0
11
50.755579
21
11.313708
31
0
39
0
210
0
220
0
230
1
0
LINE
5
B9
100
AcDbEntity
8
1
62
256
6
ByLayer
370
13
48
1
60
0
100
AcDbLine
10
50.614157
20
8.816708
30
0
11
50.614157
21
13.810708
31
0
39
0
210
0
220
0
230
1
0
LINE
5
BA
100
AcDbEntity
8
1
62
256
6
ByLayer
370
13
48
1
60
0
100
AcDbLine
10
50.755579
20
-11.313708
30
0
11
50.755579
21
-13.869287
31
0
39
0
210
0
220
0
230
1
0
LINE
5
BB
100
AcDbEntity
8
1
62
256
6
ByLayer
370
13
48
1
60
0
100
AcDbLine
10
50.755579
20
-8.75813
30
0
11
50.755579
21
-11.313708
31
0
39
0
210
0
220
0
230
1
0
LINE
5
BC
100
AcDbEntity
8
1
62
256
6
ByLayer
370
13
48
1
60
0
100
AcDbLine
10
50.614157
20
-13.810708
30
0
11
50.614157
21
-8.816708
31
0
39
0
210
0
220
0
230
1
0
LINE
5
BD
100
AcDbEntity
8
SK2
62
256
6
ByLayer
370
13
48
1
60
0
100
AcDbLine
10
-24
20
58.1
30
0
11
0
21
58.1
31
0
39
0
210
0
220
0
230
1
0
LINE
5
BE
100
AcDbEntity
8
SK2
62
256
6
ByLayer
370
13
48
1
60
0
100
AcDbLine
10
0
20
21.5875
30
0
11
0
21
60.1
31
0
39
0
210
0
220
0
230
1
0
LINE
5
BF
100
AcDbEntity
8
SK2
62
256
6
ByLayer
370
13
48
1
60
0
100
AcDbLine
10
-24
20
15.9875
30
0
11
-24
21
60.1
31
0
39
0
210
0
220
0
230
1
0
LINE
5
C0
100
AcDbEntity
8
1
62
256
6
ByLayer
370
18
48
1
60
1
100
AcDbLine
10
0
20
58.1
30
0
11
-4.499996
21
57.102374
31
0
39
0
210
0
220
0
230
1
0
LINE
5
C1
100
AcDbEntity
8
1
62
256
6
ByLayer
370
18
48
1
60
1
100
AcDbLine
10
-4.499996
20
57.102374
30
0
11
-4.500004
21
59.097626
31
0
39
0
210
0
220
0
230
1
0
LINE
5
C2
100
AcDbEntity
8
1
62
256
6
ByLayer
370
18
48
1
60
1
100
AcDbLine
10
-4.500004
20
59.097626
30
0
11
0
21
58.1
31
0
39
0
210
0
220
0
230
1
0
LINE
5
C3
100
AcDbEntity
8
1
62
256
6
ByLayer
370
18
48
1
60
1
100
AcDbLine
10
-24
20
58.1
30
0
11
-19.500004
21
59.097626
31
0
39
0
210
0
220
0
230
1
0
LINE
5
C4
100
AcDbEntity
8
1
62
256
6
ByLayer
370
18
48
1
60
1
100
AcDbLine
10
-19.500004
20
59.097626
30
0
11
-19.499996
21
57.102374
31
0
39
0
210
0
220
0
230
1
0
LINE
5
C5
100
AcDbEntity
8
1
62
256
6
ByLayer
370
18
48
1
60
1
100
AcDbLine
10
-19.499996
20
57.102374
30
0
11
-24
21
58.1
31
0
39
0
210
0
220
0
230
1
0
LINE
5
C6
100
AcDbEntity
8
2
62
256
6
ByLayer
370
13
48
1
60
0
100
AcDbLine
10
0
20
58.1
30
0
11
50
21
58.1
31
0
39
0
210
0
220
0
230
1
0
LINE
5
C8
100
AcDbEntity
8
2
62
256
6
ByLayer
370
13
48
1
60
0
100
AcDbLine
10
50
20
12.5875
30
0
11
50
21
60.1
31
0
39
0
210
0
220
0
230
1
0
LINE
5
C9
100
AcDbEntity
8
2
62
256
6
ByLayer
370
13
48
1
60
0
100
AcDbLine
10
0
20
21.5875
30
0
11
0
21
60.1
31
0
39
0
210
0
220
0
230
1
0
LINE
5
CA
100
AcDbEntity
8
1
62
256
6
ByLayer
370
18
48
1
60
1
100
AcDbLine
10
50
20
58.1
30
0
11
45.500004
21
57.102374
31
0
39
0
210
0
220
0
230
1
0
LINE
5
CB
100
AcDbEntity
8
1
62
256
6
ByLayer
370
18
48
1
60
1
100
AcDbLine
10
45.500004
20
57.102374
30
0
11
45.499996
21
59.097626
31
0
39
0
210
0
220
0
230
1
0
LINE
5
CC
100
AcDbEntity
8
1
62
256
6
ByLayer
370
18
48
1
60
1
100
AcDbLine
10
45.499996
20
59.097626
30
0
11
50
21
58.1
31
0
39
0
210
0
220
0
230
1
0
LINE
5
CD
100
AcDbEntity
8
1
62
256
6
ByLayer
370
18
48
1
60
1
100
AcDbLine
10
0
20
58.1
30
0
11
4.499996
21
59.097626
31
0
39
0
210
0
220
0
230
1
0
LINE
5
CE
100
AcDbEntity
8
1
62
256
6
ByLayer
370
18
48
1
60
1
100
AcDbLine
10
4.499996
20
59.097626
30
0
11
4.500004
21
57.102374
31
0
39
0
210
0
220
0
230
1
0
LINE
5
CF
100
AcDbEntity
8
1
62
256
6
ByLayer
370
18
48
1
60
1
100
AcDbLine
10
4.500004
20
57.102374
30
0
11
0
21
58.1
31
0
39
0
210
0
220
0
230
1
0
LINE
5
109
100
AcDbEntity
8
1
62
256
6
ByLayer
370
18
48
1
60
1
100
AcDbLine
10
0
20
58.1
30
0
11
-4.499996
21
57.102374
31
0
39
0
210
0
220
0
230
1
0
LINE
5
10A
100
AcDbEntity
8
1
62
256
6
ByLayer
370
18
48
1
60
1
100
AcDbLine
10
-4.499996
20
57.102374
30
0
11
-4.500004
21
59.097626
31
0
39
0
210
0
220
0
230
1
0
LINE
5
10B
100
AcDbEntity
8
1
62
256
6
ByLayer
370
18
48
1
60
1
100
AcDbLine
10
-4.500004
20
59.097626
30
0
11
0
21
58.1
31
0
39
0
210
0
220
0
230
1
0
LINE
5
10D
100
AcDbEntity
8
1
62
256
6
ByLayer
370
18
48
1
60
1
100
AcDbLine
10
-24
20
58.1
30
0
11
-19.500004
21
59.097626
31
0
39
0
210
0
220
0
230
1
0
LINE
5
10E
100
AcDbEntity
8
1
62
256
6
ByLayer
370
18
48
1
60
1
100
AcDbLine
10
-19.500004
20
59.097626
30
0
11
-19.499996
21
57.102374
31
0
39
0
210
0
220
0
230
1
0
LINE
5
10F
100
AcDbEntity
8
1
62
256
6
ByLayer
370
18
48
1
60
1
100
AcDbLine
10
-19.499996
20
57.102374
30
0
11
-24
21
58.1
31
0
39
0
210
0
220
0
230
1
0
LINE
5
112
100
AcDbEntity
8
1
62
256
6
ByLayer
370
18
48
1
60
1
100
AcDbLine
10
50
20
58.1
30
0
11
45.500004
21
57.102374
31
0
39
0
210
0
220
0
230
1
0
LINE
5
113
100
AcDbEntity
8
1
62
256
6
ByLayer
370
18
48
1
60
1
100
AcDbLine
10
45.500004
20
57.102374
30
0
11
45.499996
21
59.097626
31
0
39
0
210
0
220
0
230
1
0
LINE
5
114
100
AcDbEntity
8
1
62
256
6
ByLayer
370
18
48
1
60
1
100
AcDbLine
10
45.499996
20
59.097626
30
0
11
50
21
58.1
31
0
39
0
210
0
220
0
230
1
0
LINE
5
116
100
AcDbEntity
8
1
62
256
6
ByLayer
370
18
48
1
60
1
100
AcDbLine
10
0
20
58.1
30
0
11
4.499996
21
59.097626
31
0
39
0
210
0
220
0
230
1
0
LINE
5
117
100
AcDbEntity
8
1
62
256
6
ByLayer
370
18
48
1
60
1
100
AcDbLine
10
4.499996
20
59.097626
30
0
11
4.500004
21
57.102374
31
0
39
0
210
0
220
0
230
1
0
LINE
5
118
100
AcDbEntity
8
1
62
256
6
ByLayer
370
18
48
1
60
1
100
AcDbLine
10
4.500004
20
57.102374
30
0
11
0
21
58.1
31
0
39
0
210
0
220
0
230
1
0
MTEXT
5
104
100
AcDbEntity
8
SK6
62
256
6
ByLayer
370
18
48
1
60
0
100
AcDbMText
10
-10.875
20
-71.125
30
0
210
0
220
0
230
1
1
\W0.7516;C4-X22-040-050
40
4.5
41
0
44
1.084337
50
0
71
7
72
5
7
iso_b_vert
0
MTEXT
5
108
100
AcDbEntity
8
SK2
62
256
6
ByLayer
370
18
48
1
60
0
100
AcDbMText
10
-13.740789
20
59.225
30
0
210
0
220
0
230
1
1
\W0.7167;24
40
4.5
41
0
44
1.084337
50
0
71
7
72
5
7
iso_b_vert
0
MTEXT
5
111
100
AcDbEntity
8
2
62
256
6
ByLayer
370
18
48
1
60
0
100
AcDbMText
10
23.496053
20
59.225
30
0
210
0
220
0
230
1
1
\W0.6740;50
40
4.5
41
0
44
1.084337
50
0
71
7
72
5
7
iso_b_vert
0
HATCH
5
10C
100
AcDbEntity
8
SK2
62
256
6
ByLayer
370
13
48
1
60
0
100
AcDbHatch
10
0
20
0
30
0
210
0
220
0
230
1
2
ANSI31
70
0
71
0
91
1
92
5
93
3
72
1
10
0
20
58.1
11
-4.49999633551516
21
57.1023740181135
72
1
10
-4.49999633551516
20
57.1023740181135
11
-4.50000366448484
21
59.0976259818865
72
1
10
-4.50000366448484
20
59.0976259818865
11
0
21
58.1
97
0
75
0
76
1
52
0
41
0.02
77
0
78
1
53
44.9999999999999
43
0
44
0
45
-0.0449012806053457
46
0.0449012806053459
79
0
47
0
98
1
10
0
20
0
0
HATCH
5
110
100
AcDbEntity
8
SK2
62
256
6
ByLayer
370
13
48
1
60
0
100
AcDbHatch
10
0
20
0
30
0
210
0
220
0
230
1
2
ANSI31
70
0
71
0
91
1
92
5
93
3
72
1
10
-24
20
58.1
11
-19.5000036644848
21
59.0976259818865
72
1
10
-19.5000036644848
20
59.0976259818865
11
-19.4999963355152
21
57.1023740181135
72
1
10
-19.4999963355152
20
57.1023740181135
11
-24
21
58.1
97
0
75
0
76
1
52
0
41
0.02
77
0
78
1
53
44.9999999999999
43
0
44
0
45
-0.0449012806053457
46
0.0449012806053459
79
0
47
0
98
1
10
0
20
0
0
HATCH
5
115
100
AcDbEntity
8
2
62
256
6
ByLayer
370
13
48
1
60
0
100
AcDbHatch
10
0
20
0
30
0
210
0
220
0
230
1
2
ANSI31
70
0
71
0
91
1
92
5
93
3
72
1
10
50
20
58.1
11
45.5000036644848
21
57.1023740181135
72
1
10
45.5000036644848
20
57.1023740181135
11
45.4999963355152
21
59.0976259818865
72
1
10
45.4999963355152
20
59.0976259818865
11
50
21
58.1
97
0
75
0
76
1
52
0
41
0.02
77
0
78
1
53
44.9999999999999
43
0
44
0
45
-0.0449012806053457
46
0.0449012806053459
79
0
47
0
98
1
10
0
20
0
0
HATCH
5
119
100
AcDbEntity
8
2
62
256
6
ByLayer
370
13
48
1
60
0
100
AcDbHatch
10
0
20
0
30
0
210
0
220
0
230
1
2
ANSI31
70
0
71
0
91
1
92
5
93
3
72
1
10
0
20
58.1
11
4.49999633551516
21
59.0976259818865
72
1
10
4.49999633551516
20
59.0976259818865
11
4.50000366448484
21
57.1023740181135
72
1
10
4.50000366448484
20
57.1023740181135
11
0
21
58.1
97
0
75
0
76
1
52
0
41
0.02
77
0
78
1
53
44.9999999999999
43
0
44
0
45
-0.0449012806053457
46
0.0449012806053459
79
0
47
0
98
1
10
0
20
0
0
DIMENSION
5
124
100
AcDbEntity
8
SK2
62
256
6
ByLayer
370
13
48
1
60
0
100
AcDbDimension
2
DimnDraft3D1
10
75.6
20
-11
30
0
11
70.225
21
1.811842
31
0
70
33
71
5
72
1
41
1
210
0
220
0
230
1
3
Standard
100
AcDbAlignedDimension
13
53.9875
23
11
33
0
14
53.9875
24
-11
34
0
1001
ACAD
1000
DSTYLE
1002
{
1070
   279
1070
     0
1070
    74
1070
     0
1070
   173
1070
     1
1070
   340
1005
105
1070
   271
1070
     1
1070
   272
1070
     2
1070
    77
1070
     1
1070
    73
1070
     0
1070
   171
1070
     3
1070
   274
1070
     4
1070
   177
1070
     2
1070
   176
1070
     2
1070
   178
1070
     2
1070
    78
1070
     8
1070
    48
1040
-0.005
1070
    41
1041
4.5
1070
   147
1041
2.25
1070
    42
1041
1.5875
1070
    44
1041
2.0
1070
   140
1041
4.5
1070
   343
1005
0
1070
   344
1005
0
1002
}
0
DIMENSION
5
12E
100
AcDbEntity
8
SK2
62
256
6
ByLayer
370
13
48
1
60
0
100
AcDbDimension
2
DimnDraft3D2
10
50
20
34.1
30
0
11
31.563158
21
34.1
31
0
70
32
71
5
72
1
41
1
210
0
220
0
230
1
3
Standard
100
AcDbAlignedDimension
13
52.4
23
12.5875
33
0
14
50
24
21.5875
34
0
50
0
100
AcDbRotatedDimension
1001
ACAD
1000
DSTYLE
1002
{
1070
   279
1070
     0
1070
   172
1070
     1
1070
   173
1070
     1
1070
   340
1005
105
1070
   271
1070
     1
1070
   272
1070
     2
1070
    77
1070
     1
1070
    73
1070
     0
1070
   171
1070
     3
1070
   274
1070
     4
1070
   177
1070
     2
1070
   176
1070
     2
1070
   178
1070
     2
1070
    78
1070
     8
1070
    48
1040
-0.005
1070
    41
1041
4.5
1070
   147
1041
2.25
1070
    42
1041
1.5875
1070
    44
1041
2.0
1070
   140
1041
4.5
1070
   343
1005
0
1070
   344
1005
0
1002
}
0
DIMENSION
5
139
100
AcDbEntity
8
SK2
62
256
6
ByLayer
370
13
48
1
60
0
100
AcDbDimension
2
DimnDraft3D3
10
-50.1
20
20
30
0
11
-51.475
21
1.575
31
0
70
33
71
5
72
1
41
1
210
0
220
0
230
1
3
Standard
100
AcDbAlignedDimension
13
-1.5875
23
-20
33
0
14
-1.5875
24
20
34
0
1001
ACAD
1000
DSTYLE
1002
{
1070
   279
1070
     0
1070
    74
1070
     0
1070
   173
1070
     1
1070
   340
1005
105
1070
   271
1070
     0
1070
   272
1070
     2
1070
    77
1070
     1
1070
    73
1070
     0
1070
   171
1070
     3
1070
   274
1070
     4
1070
   177
1070
     2
1070
   176
1070
     2
1070
   178
1070
     2
1070
    78
1070
     8
1070
    48
1040
-0.005
1070
    41
1041
4.5
1070
   147
1041
2.25
1070
    42
1041
1.5875
1070
    44
1041
2.0
1070
   140
1041
4.5
1070
   343
1005
0
1070
   344
1005
0
1002
}
0
DIMENSION
5
144
100
AcDbEntity
8
SK2
62
256
6
ByLayer
370
13
48
1
60
0
100
AcDbDimension
2
DimnDraft3D4
10
90.6
20
20
30
0
11
85.225
21
1.575
31
0
70
33
71
5
72
1
41
1
210
0
220
0
230
1
3
Standard
100
AcDbAlignedDimension
13
51.5875
23
-20
33
0
14
51.5875
24
20
34
0
1001
ACAD
1000
DSTYLE
1002
{
1070
   279
1070
     0
1070
    74
1070
     0
1070
   173
1070
     1
1070
   340
1005
105
1070
   271
1070
     1
1070
   272
1070
     2
1070
    77
1070
     1
1070
    73
1070
     0
1070
   171
1070
     3
1070
   274
1070
     4
1070
   177
1070
     2
1070
   176
1070
     2
1070
   178
1070
     2
1070
    78
1070
     8
1070
    48
1040
-0.005
1070
    41
1041
4.5
1070
   147
1041
2.25
1070
    42
1041
1.5875
1070
    44
1041
2.0
1070
   140
1041
4.5
1070
   343
1005
0
1070
   344
1005
0
1002
}
0
ENDSEC
0
SECTION
2
OBJECTS
0
DICTIONARY
5
1af
330
0
100
AcDbDictionary
280
0
281
1
3
ACAD_GROUP
350
1b0
3
ACAD_MLINESTYLE
350
1b1
0
DICTIONARY
5
1b0
330
0
100
AcDbDictionary
280
0
281
1
0
DICTIONARY
5
1b1
330
0
100
AcDbDictionary
280
0
281
1
3
Standard
350
18
0
MLINESTYLE
5
18
330
1b1
100
AcDbMlineStyle
2
Standard
70
0
3

62
256
51
90
52
90
71
2
49
-0.5
62
256
6
ByLayer
49
0.5
62
256
6
ByLayer
0
RASTERVARIABLES
5
19d
330

100
AcDbRasterVariables
90
0
70
1
71
1
72
1
0
ENDSEC
0
EOF
