0
SECTION
2
HEADER
9
$ACADVER
1
AC1015
9
$DWGCODEPAGE
3
ANSI_1252
9
$HANDSEED
5
1cb
9
$ANGBASE
50
0
9
$ANGDIR
70
0
9
$ATTMODE
70
1
9
$AUNITS
70
0
9
$AUPREC
70
0
9
$CECOLOR
62
256
9
$CELTSCALE
40
1
9
$CELTYPE
6
ByLayer
9
$CELWEIGHT
370
-1
9
$CLAYER
8
0
9
$CMLJUST
70
0
9
$CMLSCALE
40
1
9
$CMLSTYLE
2
Standard
9
$DIMSTYLE
2
Standard
9
$TEXTSIZE
40
0.2
9
$TEXTSTYLE
7
Standard
9
$LUNITS
70
2
9
$LUPREC
70
4
9
$EXTNAMES
290
1
9
$INSUNITS
70
4
9
$LTSCALE
40
1
9
$LWDISPLAY
290
0
9
$PDMODE
70
0
9
$PDSIZE
40
0
9
$PLINEGEN
70
0
0
ENDSEC
0
SECTION
2
CLASSES
0
CLASS
1
RASTERVARIABLES
2
AcDbRasterVariables
3
ISM
90
0
280
0
281
0
0
ENDSEC
0
SECTION
2
TABLES
0
TABLE
2
VPORT
5
1c1
100
AcDbSymbolTable
0
VPORT
5
1
100
AcDbSymbolTableRecord
100
AcDbViewportTableRecord
2
*Active
70
0
10
0
20
0
11
1
21
1
12
-1
22
1
13
0
23
0
14
0.5
24
0.5
15
10
25
10
16
0
26
0
36
1
17
0
27
0
37
0
0
ENDTAB
0
TABLE
2
LTYPE
5
1c2
100
AcDbSymbolTable
0
LTYPE
5
14
100
AcDbSymbolTableRecord
100
AcDbLinetypeTableRecord
70
0
2
ByBlock
3

72
65
73
0
40
0
0
LTYPE
5
15
100
AcDbSymbolTableRecord
100
AcDbLinetypeTableRecord
70
0
2
ByLayer
3

72
65
73
0
40
0
0
LTYPE
5
16
100
AcDbSymbolTableRecord
100
AcDbLinetypeTableRecord
70
0
2
CONTINUOUS
3
Solid line
72
65
73
0
40
0
0
LTYPE
5
3B
100
AcDbSymbolTableRecord
100
AcDbLinetypeTableRecord
70
0
2
DASHED
3
__ __ __ __ __ __ __ __ __
72
65
73
2
40
25.72
49
12.86
74
0
49
-12.86
74
0
0
LTYPE
5
3C
100
AcDbSymbolTableRecord
100
AcDbLinetypeTableRecord
70
0
2
HIDDEN
3
_ _ _ _ _ _ _ _ _ _ _ _ _ _ _
72
65
73
2
40
0.5
49
0.25
74
0
49
-0.25
74
0
0
LTYPE
5
3D
100
AcDbSymbolTableRecord
100
AcDbLinetypeTableRecord
70
0
2
PHANTOM
3
____ _ _ ____ _ _ _____ _ _ ____
72
65
73
6
40
50.5
49
18
74
0
49
-6.5
74
0
49
6.5
74
0
49
-6.5
74
0
49
6.5
74
0
49
-6.5
74
0
0
LTYPE
5
3E
100
AcDbSymbolTableRecord
100
AcDbLinetypeTableRecord
70
0
2
CENTER
3
____ _ ____ _ ____ _ ____
72
65
73
4
40
47.5
49
22
74
0
49
-8.5
74
0
49
8.5
74
0
49
-8.5
74
0
0
LTYPE
5
3F
100
AcDbSymbolTableRecord
100
AcDbLinetypeTableRecord
70
0
2
DOT
3
.........................
72
65
73
2
40
10
49
0
74
0
49
-10
74
0
0
LTYPE
5
40
100
AcDbSymbolTableRecord
100
AcDbLinetypeTableRecord
70
0
2
DASHDOT
3
_._._._._._._._._._._._._._._._.
72
65
73
4
40
70
49
31
74
0
49
-13
74
0
49
13
74
0
49
-13
74
0
0
ENDTAB
0
TABLE
2
LAYER
5
1c3
100
AcDbSymbolTable
0
LAYER
5
10
100
AcDbSymbolTableRecord
100
AcDbLayerTableRecord
2
0
70
0
62
7
6
CONTINUOUS
290
1
370
-3
390
0
0
LAYER
5
42
100
AcDbSymbolTableRecord
100
AcDbLayerTableRecord
2
80
70
0
62
-6
6
CONTINUOUS
290
1
370
-3
390
0
0
LAYER
5
44
100
AcDbSymbolTableRecord
100
AcDbLayerTableRecord
2
81
70
0
62
-3
6
CONTINUOUS
290
1
370
-3
390
0
0
LAYER
5
46
100
AcDbSymbolTableRecord
100
AcDbLayerTableRecord
2
1
70
0
62
4
6
CONTINUOUS
290
1
370
-3
390
0
0
LAYER
5
48
100
AcDbSymbolTableRecord
100
AcDbLayerTableRecord
2
2
70
0
62
7
6
CONTINUOUS
290
1
370
-3
390
0
0
LAYER
5
4F
100
AcDbSymbolTableRecord
100
AcDbLayerTableRecord
2
4
70
0
62
-2
6
CENTER
290
1
370
-3
390
0
0
LAYER
5
1ad
100
AcDbSymbolTableRecord
100
AcDbLayerTableRecord
2
SK4
70
0
62
2
6
CENTER
290
1
370
-3
390
0
0
LAYER
5
1ae
100
AcDbSymbolTableRecord
100
AcDbLayerTableRecord
2
SK1
70
0
62
4
6
CONTINUOUS
290
1
370
-3
390
0
0
LAYER
5
1af
100
AcDbSymbolTableRecord
100
AcDbLayerTableRecord
2
SK6
70
0
62
5
6
CONTINUOUS
290
1
370
-3
390
0
0
LAYER
5
1b0
100
AcDbSymbolTableRecord
100
AcDbLayerTableRecord
2
SK2
70
0
62
7
6
CONTINUOUS
290
1
370
-3
390
0
0
ENDTAB
0
TABLE
2
STYLE
5
1c4
100
AcDbSymbolTable
0
STYLE
5
11
100
AcDbSymbolTableRecord
100
AcDbTextStyleTableRecord
2
Standard
3
txt
70
0
71
0
40
0
41
1
42
0
50
0
0
STYLE
5
10F
100
AcDbSymbolTableRecord
100
AcDbTextStyleTableRecord
2
DEFAULT
3
simplex.shx
70
0
71
0
40
0
41
1
42
0
50
0
0
STYLE
5
132
100
AcDbSymbolTableRecord
100
AcDbTextStyleTableRecord
2
DWGDirectTextStyle
3
SIMPLEX
70
0
71
0
40
0
41
1
42
0
50
0
0
ENDTAB
0
TABLE
2
DIMSTYLE
5
1c5
100
AcDbSymbolTable
100
AcDbDimStyleTable
0
DIMSTYLE
105
27
100
AcDbSymbolTableRecord
100
AcDbDimStyleTableRecord
2
Standard
70
0
3
<>
41
0.18
42
0.0625
44
0.18
140
0.18
147
0.09
73
0
74
0
77
1
271
2
275
0
278
52
280
0
340
11
0
ENDTAB
0
TABLE
2
VIEW
5
1c6
100
AcDbSymbolTable
0
ENDTAB
0
TABLE
2
UCS
5
1c7
100
AcDbSymbolTable
0
ENDTAB
0
TABLE
2
APPID
5
1c8
100
AcDbSymbolTable
0
APPID
5
12
100
AcDbSymbolTableRecord
100
AcDbRegAppTableRecord
2
ACAD
70
0
0
ENDTAB
0
TABLE
2
BLOCK_RECORD
5
1c9
100
AcDbSymbolTable
0
BLOCK_RECORD
5
1F
100
AcDbSymbolTableRecord
100
AcDbBlockTableRecord
2
*Model_Space
340
0
70
0
0
BLOCK_RECORD
5
1B
100
AcDbSymbolTableRecord
100
AcDbBlockTableRecord
2
*Paper_Space
340
0
70
0
0
BLOCK_RECORD
5
23
100
AcDbSymbolTableRecord
100
AcDbBlockTableRecord
2
*Paper_Space0
340
0
70
0
0
BLOCK_RECORD
5
134
100
AcDbSymbolTableRecord
100
AcDbBlockTableRecord
2
DimnDraft3D1
340
0
70
0
0
BLOCK_RECORD
5
143
100
AcDbSymbolTableRecord
100
AcDbBlockTableRecord
2
_CLOSED
340
0
70
0
0
BLOCK_RECORD
5
14A
100
AcDbSymbolTableRecord
100
AcDbBlockTableRecord
2
DimnDraft3D2
340
0
70
0
0
BLOCK_RECORD
5
156
100
AcDbSymbolTableRecord
100
AcDbBlockTableRecord
2
DimnDraft3D3
340
0
70
0
0
BLOCK_RECORD
5
164
100
AcDbSymbolTableRecord
100
AcDbBlockTableRecord
2
DimnDraft3D4
340
0
70
0
0
BLOCK_RECORD
5
172
100
AcDbSymbolTableRecord
100
AcDbBlockTableRecord
2
DimnDraft3D5
340
0
70
0
0
BLOCK_RECORD
5
180
100
AcDbSymbolTableRecord
100
AcDbBlockTableRecord
2
DimnDraft3D6
340
0
70
0
0
ENDTAB
0
ENDSEC
0
SECTION
2
BLOCKS
0
BLOCK
5
20
100
AcDbEntity
8
0
100
AcDbBlockBegin
2
*Model_Space
70
0
10
0
20
0
30
0
3
*Model_Space
0
ENDBLK
5
21
100
AcDbEntity
8
0
100
AcDbBlockEnd
0
BLOCK
5
1C
100
AcDbEntity
8
0
100
AcDbBlockBegin
2
*Paper_Space
70
0
10
0
20
0
30
0
3
*Paper_Space
0
ENDBLK
5
1D
100
AcDbEntity
8
0
100
AcDbBlockEnd
0
BLOCK
5
24
100
AcDbEntity
8
0
100
AcDbBlockBegin
2
*Paper_Space0
70
0
10
0
20
0
30
0
3
*Paper_Space0
0
ENDBLK
5
25
100
AcDbEntity
8
0
100
AcDbBlockEnd
0
BLOCK
5
140
100
AcDbEntity
8
0
100
AcDbBlockBegin
2
DimnDraft3D1
70
0
10
0
20
0
30
0
3
DimnDraft3D1
0
MTEXT
5
135
100
AcDbEntity
8
SK2
62
256
6
ByLayer
370
-1
48
1
60
0
100
AcDbMText
10
-37.875
20
-3.896053
30
0
210
0
220
0
230
1
1
\W01.000;\fsimplex.shx,bigfont.shx;%%c40 
40
4.5
41
0
44
1.084337
50
90
71
7
72
5
7
DEFAULT
0
LINE
5
137
100
AcDbEntity
8
SK2
62
256
6
ByLayer
370
-1
48
1
60
0
100
AcDbLine
10
-2
20
-20
30
0
11
-38.75
21
-20
31
0
39
0
210
0
220
0
230
1
0
LINE
5
138
100
AcDbEntity
8
SK2
62
256
6
ByLayer
370
-1
48
1
60
0
100
AcDbLine
10
-2
20
20
30
0
11
-38.75
21
20
31
0
39
0
210
0
220
0
230
1
0
LINE
5
139
100
AcDbEntity
8
SK2
62
256
6
ByLayer
370
-1
48
1
60
0
100
AcDbLine
10
-36.75
20
-20
30
0
11
-36.75
21
20
31
0
39
0
210
0
220
0
230
1
0
LINE
5
13A
100
AcDbEntity
8
SK2
62
256
6
ByLayer
370
-1
48
1
60
0
100
AcDbLine
10
-36.75
20
-20
30
0
11
-37.167997
21
-16.825002
31
0
39
0
210
0
220
0
230
1
0
LINE
5
13B
100
AcDbEntity
8
SK2
62
256
6
ByLayer
370
-1
48
1
60
0
100
AcDbLine
10
-36.75
20
-20
30
0
11
-36.332003
21
-16.824998
31
0
39
0
210
0
220
0
230
1
0
LINE
5
13C
100
AcDbEntity
8
SK2
62
256
6
ByLayer
370
-1
48
1
60
0
100
AcDbLine
10
-37.167997
20
-16.825002
30
0
11
-36.332003
21
-16.824998
31
0
39
0
210
0
220
0
230
1
0
LINE
5
13D
100
AcDbEntity
8
SK2
62
256
6
ByLayer
370
-1
48
1
60
0
100
AcDbLine
10
-36.75
20
20
30
0
11
-36.332003
21
16.825002
31
0
39
0
210
0
220
0
230
1
0
LINE
5
13E
100
AcDbEntity
8
SK2
62
256
6
ByLayer
370
-1
48
1
60
0
100
AcDbLine
10
-36.75
20
20
30
0
11
-37.167997
21
16.824998
31
0
39
0
210
0
220
0
230
1
0
LINE
5
13F
100
AcDbEntity
8
SK2
62
256
6
ByLayer
370
-1
48
1
60
0
100
AcDbLine
10
-36.332003
20
16.825002
30
0
11
-37.167997
21
16.824998
31
0
39
0
210
0
220
0
230
1
0
ENDBLK
5
141
100
AcDbEntity
8
0
100
AcDbBlockEnd
0
BLOCK
5
144
100
AcDbEntity
8
0
100
AcDbBlockBegin
2
_CLOSED
70
0
10
0
20
0
30
0
3
_CLOSED
0
LINE
5
146
100
AcDbEntity
8
0
62
256
6
ByLayer
370
-2
48
1
60
0
100
AcDbLine
10
-1
20
0.166667
30
0
11
0
21
0
31
0
39
0
210
0
220
0
230
1
0
LINE
5
147
100
AcDbEntity
8
0
62
256
6
ByLayer
370
-2
48
1
60
0
100
AcDbLine
10
0
20
0
30
0
11
-1
21
-0.166667
31
0
39
0
210
0
220
0
230
1
0
LINE
5
148
100
AcDbEntity
8
0
62
256
6
ByLayer
370
-2
48
1
60
0
100
AcDbLine
10
-1
20
0.166667
30
0
11
-1
21
-0.166667
31
0
39
0
210
0
220
0
230
1
0
LINE
5
149
100
AcDbEntity
8
0
62
256
6
ByLayer
370
-2
48
1
60
0
100
AcDbLine
10
0
20
0
30
0
11
-1
21
0
31
0
39
0
210
0
220
0
230
1
0
ENDBLK
5
145
100
AcDbEntity
8
0
100
AcDbBlockEnd
0
BLOCK
5
153
100
AcDbEntity
8
0
100
AcDbBlockBegin
2
DimnDraft3D2
70
0
10
0
20
0
30
0
3
DimnDraft3D2
0
MTEXT
5
14B
100
AcDbEntity
8
2
62
256
6
ByLayer
370
-1
48
1
60
0
100
AcDbMText
10
33.725
20
-6.193421
30
0
210
0
220
0
230
1
1
\W01.000;\fsimplex.shx,bigfont.shx;%%c39.7 
40
4.5
41
0
44
1.084337
50
90
71
7
72
5
7
DEFAULT
0
LINE
5
14C
100
AcDbEntity
8
2
62
256
6
ByLayer
370
-1
48
1
60
0
100
AcDbLine
10
34.85
20
-19.85
30
0
11
34.85
21
19.85
31
0
39
0
210
0
220
0
230
1
0
LINE
5
14D
100
AcDbEntity
8
2
62
256
6
ByLayer
370
-1
48
1
60
0
100
AcDbLine
10
34.85
20
-19.85
30
0
11
34.432003
21
-16.675002
31
0
39
0
210
0
220
0
230
1
0
LINE
5
14E
100
AcDbEntity
8
2
62
256
6
ByLayer
370
-1
48
1
60
0
100
AcDbLine
10
34.85
20
-19.85
30
0
11
35.267997
21
-16.674998
31
0
39
0
210
0
220
0
230
1
0
LINE
5
14F
100
AcDbEntity
8
2
62
256
6
ByLayer
370
-1
48
1
60
0
100
AcDbLine
10
34.432003
20
-16.675002
30
0
11
35.267997
21
-16.674998
31
0
39
0
210
0
220
0
230
1
0
LINE
5
150
100
AcDbEntity
8
2
62
256
6
ByLayer
370
-1
48
1
60
0
100
AcDbLine
10
34.85
20
19.85
30
0
11
35.267997
21
16.675002
31
0
39
0
210
0
220
0
230
1
0
LINE
5
151
100
AcDbEntity
8
2
62
256
6
ByLayer
370
-1
48
1
60
0
100
AcDbLine
10
34.85
20
19.85
30
0
11
34.432003
21
16.674998
31
0
39
0
210
0
220
0
230
1
0
LINE
5
152
100
AcDbEntity
8
2
62
256
6
ByLayer
370
-1
48
1
60
0
100
AcDbLine
10
35.267997
20
16.675002
30
0
11
34.432003
21
16.674998
31
0
39
0
210
0
220
0
230
1
0
ENDBLK
5
154
100
AcDbEntity
8
0
100
AcDbBlockEnd
0
BLOCK
5
161
100
AcDbEntity
8
0
100
AcDbBlockBegin
2
DimnDraft3D3
70
0
10
0
20
0
30
0
3
DimnDraft3D3
0
MTEXT
5
157
100
AcDbEntity
8
2
62
256
6
ByLayer
370
-1
48
1
60
0
100
AcDbMText
10
131.125
20
9.411842
30
0
210
0
220
0
230
1
1
\W01.000;\fsimplex.shx,bigfont.shx;27.0 
40
4.5
41
0
44
1.084337
50
90
71
7
72
5
7
DEFAULT
0
LINE
5
158
100
AcDbEntity
8
2
62
256
6
ByLayer
370
-1
48
1
60
0
100
AcDbLine
10
122
20
26.9
30
0
11
134.25
21
26.9
31
0
39
0
210
0
220
0
230
1
0
LINE
5
159
100
AcDbEntity
8
2
62
256
6
ByLayer
370
-1
48
1
60
0
100
AcDbLine
10
122
20
0
30
0
11
134.25
21
0
31
0
39
0
210
0
220
0
230
1
0
LINE
5
15A
100
AcDbEntity
8
2
62
256
6
ByLayer
370
-1
48
1
60
0
100
AcDbLine
10
132.25
20
26.9
30
0
11
132.25
21
0
31
0
39
0
210
0
220
0
230
1
0
LINE
5
15B
100
AcDbEntity
8
2
62
256
6
ByLayer
370
-1
48
1
60
0
100
AcDbLine
10
132.25
20
26.9
30
0
11
132.667997
21
23.725002
31
0
39
0
210
0
220
0
230
1
0
LINE
5
15C
100
AcDbEntity
8
2
62
256
6
ByLayer
370
-1
48
1
60
0
100
AcDbLine
10
132.25
20
26.9
30
0
11
131.832003
21
23.724998
31
0
39
0
210
0
220
0
230
1
0
LINE
5
15D
100
AcDbEntity
8
2
62
256
6
ByLayer
370
-1
48
1
60
0
100
AcDbLine
10
132.667997
20
23.725002
30
0
11
131.832003
21
23.724998
31
0
39
0
210
0
220
0
230
1
0
LINE
5
15E
100
AcDbEntity
8
2
62
256
6
ByLayer
370
-1
48
1
60
0
100
AcDbLine
10
132.25
20
0
30
0
11
131.832003
21
3.174998
31
0
39
0
210
0
220
0
230
1
0
LINE
5
15F
100
AcDbEntity
8
2
62
256
6
ByLayer
370
-1
48
1
60
0
100
AcDbLine
10
132.25
20
0
30
0
11
132.667997
21
3.175002
31
0
39
0
210
0
220
0
230
1
0
LINE
5
160
100
AcDbEntity
8
2
62
256
6
ByLayer
370
-1
48
1
60
0
100
AcDbLine
10
131.832003
20
3.174998
30
0
11
132.667997
21
3.175002
31
0
39
0
210
0
220
0
230
1
0
ENDBLK
5
162
100
AcDbEntity
8
0
100
AcDbBlockEnd
0
BLOCK
5
16F
100
AcDbEntity
8
0
100
AcDbBlockBegin
2
DimnDraft3D4
70
0
10
0
20
0
30
0
3
DimnDraft3D4
0
MTEXT
5
165
100
AcDbEntity
8
2
62
256
6
ByLayer
370
-1
48
1
60
0
100
AcDbMText
10
54.872368
20
55.775
30
0
210
0
220
0
230
1
1
\W01.000;\fsimplex.shx,bigfont.shx;120.0 
40
4.5
41
0
44
1.084337
50
0
71
7
72
5
7
DEFAULT
0
LINE
5
166
100
AcDbEntity
8
2
62
256
6
ByLayer
370
-1
48
1
60
0
100
AcDbLine
10
0
20
22
30
0
11
0
21
56.65
31
0
39
0
210
0
220
0
230
1
0
LINE
5
167
100
AcDbEntity
8
2
62
256
6
ByLayer
370
-1
48
1
60
0
100
AcDbLine
10
120
20
28.9
30
0
11
120
21
56.65
31
0
39
0
210
0
220
0
230
1
0
LINE
5
168
100
AcDbEntity
8
2
62
256
6
ByLayer
370
-1
48
1
60
0
100
AcDbLine
10
0
20
54.65
30
0
11
120
21
54.65
31
0
39
0
210
0
220
0
230
1
0
LINE
5
169
100
AcDbEntity
8
2
62
256
6
ByLayer
370
-1
48
1
60
0
100
AcDbLine
10
0
20
54.65
30
0
11
3.174998
21
55.067997
31
0
39
0
210
0
220
0
230
1
0
LINE
5
16A
100
AcDbEntity
8
2
62
256
6
ByLayer
370
-1
48
1
60
0
100
AcDbLine
10
0
20
54.65
30
0
11
3.175002
21
54.232003
31
0
39
0
210
0
220
0
230
1
0
LINE
5
16B
100
AcDbEntity
8
2
62
256
6
ByLayer
370
-1
48
1
60
0
100
AcDbLine
10
3.174998
20
55.067997
30
0
11
3.175002
21
54.232003
31
0
39
0
210
0
220
0
230
1
0
LINE
5
16C
100
AcDbEntity
8
2
62
256
6
ByLayer
370
-1
48
1
60
0
100
AcDbLine
10
120
20
54.65
30
0
11
116.825002
21
54.232003
31
0
39
0
210
0
220
0
230
1
0
LINE
5
16D
100
AcDbEntity
8
2
62
256
6
ByLayer
370
-1
48
1
60
0
100
AcDbLine
10
120
20
54.65
30
0
11
116.824998
21
55.067997
31
0
39
0
210
0
220
0
230
1
0
LINE
5
16E
100
AcDbEntity
8
2
62
256
6
ByLayer
370
-1
48
1
60
0
100
AcDbLine
10
116.825002
20
54.232003
30
0
11
116.824998
21
55.067997
31
0
39
0
210
0
220
0
230
1
0
ENDBLK
5
170
100
AcDbEntity
8
0
100
AcDbBlockEnd
0
BLOCK
5
17D
100
AcDbEntity
8
0
100
AcDbBlockBegin
2
DimnDraft3D5
70
0
10
0
20
0
30
0
3
DimnDraft3D5
0
MTEXT
5
173
100
AcDbEntity
8
2
62
256
6
ByLayer
370
-1
48
1
60
0
100
AcDbMText
10
64.435526
20
40.775
30
0
210
0
220
0
230
1
1
\W01.000;\fsimplex.shx,bigfont.shx;100.4 
40
4.5
41
0
44
1.084337
50
0
71
7
72
5
7
DEFAULT
0
LINE
5
174
100
AcDbEntity
8
2
62
256
6
ByLayer
370
-1
48
1
60
0
100
AcDbLine
10
19.6
20
21.85
30
0
11
19.6
21
41.65
31
0
39
0
210
0
220
0
230
1
0
LINE
5
175
100
AcDbEntity
8
2
62
256
6
ByLayer
370
-1
48
1
60
0
100
AcDbLine
10
120
20
28.9
30
0
11
120
21
41.65
31
0
39
0
210
0
220
0
230
1
0
LINE
5
176
100
AcDbEntity
8
2
62
256
6
ByLayer
370
-1
48
1
60
0
100
AcDbLine
10
19.6
20
39.65
30
0
11
120
21
39.65
31
0
39
0
210
0
220
0
230
1
0
LINE
5
177
100
AcDbEntity
8
2
62
256
6
ByLayer
370
-1
48
1
60
0
100
AcDbLine
10
19.6
20
39.65
30
0
11
22.774998
21
40.067997
31
0
39
0
210
0
220
0
230
1
0
LINE
5
178
100
AcDbEntity
8
2
62
256
6
ByLayer
370
-1
48
1
60
0
100
AcDbLine
10
19.6
20
39.65
30
0
11
22.775002
21
39.232003
31
0
39
0
210
0
220
0
230
1
0
LINE
5
179
100
AcDbEntity
8
2
62
256
6
ByLayer
370
-1
48
1
60
0
100
AcDbLine
10
22.774998
20
40.067997
30
0
11
22.775002
21
39.232003
31
0
39
0
210
0
220
0
230
1
0
LINE
5
17A
100
AcDbEntity
8
2
62
256
6
ByLayer
370
-1
48
1
60
0
100
AcDbLine
10
120
20
39.65
30
0
11
116.825002
21
39.232003
31
0
39
0
210
0
220
0
230
1
0
LINE
5
17B
100
AcDbEntity
8
2
62
256
6
ByLayer
370
-1
48
1
60
0
100
AcDbLine
10
120
20
39.65
30
0
11
116.824998
21
40.067997
31
0
39
0
210
0
220
0
230
1
0
LINE
5
17C
100
AcDbEntity
8
2
62
256
6
ByLayer
370
-1
48
1
60
0
100
AcDbLine
10
116.825002
20
39.232003
30
0
11
116.824998
21
40.067997
31
0
39
0
210
0
220
0
230
1
0
ENDBLK
5
17E
100
AcDbEntity
8
0
100
AcDbBlockEnd
0
BLOCK
5
18B
100
AcDbEntity
8
0
100
AcDbBlockBegin
2
DimnDraft3D6
70
0
10
0
20
0
30
0
3
DimnDraft3D6
0
MTEXT
5
181
100
AcDbEntity
8
2
62
256
6
ByLayer
370
-1
48
1
60
0
100
AcDbMText
10
132.1598
20
-41.659383
30
0
210
0
220
0
230
1
1
\W01.000;\fsimplex.shx,bigfont.shx;107%%d30' 
40
4.5
41
0
44
1.084337
50
36.2499999999999
71
7
72
5
7
DEFAULT
0
LINE
5
182
100
AcDbEntity
8
2
62
256
6
ByLayer
370
-1
48
1
60
0
100
AcDbLine
10
114.587296
20
9.733095
30
0
11
96.806008
21
-46.661944
31
0
39
0
210
0
220
0
230
1
0
LINE
5
183
100
AcDbEntity
8
2
62
256
6
ByLayer
370
-1
48
1
60
0
100
AcDbLine
10
122
20
0
30
0
11
160.444869
21
0
31
0
39
0
210
0
220
0
230
1
0
ARC
5
184
100
AcDbEntity
8
2
62
256
6
ByLayer
370
-1
48
1
60
0
100
AcDbCircle
39
0
10
111.518463
20
0
30
0
40
46.926406878293
210
0
220
0
230
1
100
AcDbArc
50
252.5
51
0
0
LINE
5
185
100
AcDbEntity
8
2
62
256
6
ByLayer
370
-1
48
1
60
0
100
AcDbLine
10
97.40742
20
-44.75451
30
0
11
100.570115
21
-45.257198
31
0
39
0
210
0
220
0
230
1
0
LINE
5
186
100
AcDbEntity
8
2
62
256
6
ByLayer
370
-1
48
1
60
0
100
AcDbLine
10
97.40742
20
-44.75451
30
0
11
100.332246
21
-46.058636
31
0
39
0
210
0
220
0
230
1
0
LINE
5
187
100
AcDbEntity
8
2
62
256
6
ByLayer
370
-1
48
1
60
0
100
AcDbLine
10
100.570115
20
-45.257198
30
0
11
100.332246
21
-46.058636
31
0
39
0
210
0
220
0
230
1
0
LINE
5
188
100
AcDbEntity
8
2
62
256
6
ByLayer
370
-1
48
1
60
0
100
AcDbLine
10
158.444869
20
0
30
0
11
158.809125
21
-3.181612
31
0
39
0
210
0
220
0
230
1
0
LINE
5
189
100
AcDbEntity
8
2
62
256
6
ByLayer
370
-1
48
1
60
0
100
AcDbLine
10
158.444869
20
0
30
0
11
157.973251
21
-3.16748
31
0
39
0
210
0
220
0
230
1
0
LINE
5
18A
100
AcDbEntity
8
2
62
256
6
ByLayer
370
-1
48
1
60
0
100
AcDbLine
10
158.809125
20
-3.181612
30
0
11
157.973251
21
-3.16748
31
0
39
0
210
0
220
0
230
1
0
ENDBLK
5
18C
100
AcDbEntity
8
0
100
AcDbBlockEnd
0
ENDSEC
0
SECTION
2
ENTITIES
0
ARC
5
91
100
AcDbEntity
8
SK1
62
256
6
ByLayer
370
-1
48
1
60
0
100
AcDbCircle
39
0
10
0.6
20
-15
30
0
40
1
210
0
220
0
230
-1
100
AcDbArc
50
113.578178
51
126.869898
0
ARC
5
92
100
AcDbEntity
8
SK1
62
256
6
ByLayer
370
-1
48
1
60
0
100
AcDbCircle
39
0
10
0.6
20
15
30
0
40
1
210
0
220
0
230
-1
100
AcDbArc
50
233.130102
51
246.421822
0
ARC
5
93
100
AcDbEntity
8
1
62
256
6
ByLayer
370
-1
48
1
60
0
100
AcDbCircle
39
0
10
-97.77375
20
27.35
30
0
40
7.99999999952713
210
0
220
0
230
-1
100
AcDbArc
50
270
51
283.537247
0
ELLIPSE
5
94
100
AcDbEntity
8
1
62
256
6
ByLayer
370
-1
48
1
60
0
100
AcDbEllipse
10
102.885502
20
2.366209
30
0
11
-1.43057542612235
21
0.451058699256399
31
0
210
0
220
0
230
1
40
0.99062
41
-2.13066616624783
42
-0.337183196571383
0
ELLIPSE
5
95
100
AcDbEntity
8
1
62
256
6
ByLayer
370
-1
48
1
60
0
100
AcDbEllipse
10
103.051425
20
2.89245
30
0
11
2.08424784599427
21
1.62244293463219
31
0
210
0
220
0
230
-1
40
0.007783
41
0.838735873574287
42
1.02220804691927
0
ELLIPSE
5
96
100
AcDbEntity
8
1
62
256
6
ByLayer
370
-1
48
1
60
0
100
AcDbEllipse
10
-0.948929
20
0
30
0
11
9.36741787978168
21
-19.7417491527498
31
0
210
0
220
0
230
-1
40
0.341999
41
-1.09631952749991
42
-0.152726244898338
0
ELLIPSE
5
97
100
AcDbEntity
8
1
62
256
6
ByLayer
370
-1
48
1
60
0
100
AcDbEllipse
10
-0.948929
20
0
30
0
11
9.36741787978086
21
19.7417491527488
31
0
210
0
220
0
230
-1
40
0.341999
41
0.152726244898353
42
1.09631952749996
0
ELLIPSE
5
98
100
AcDbEntity
8
1
62
256
6
ByLayer
370
-1
48
1
60
0
100
AcDbEllipse
10
102.795493
20
4.428507
30
0
11
-1.54979004496587
21
0.488646924194431
31
0
210
0
220
0
230
1
40
0.99062
41
-0.610865238198012
42
-0.129711703831687
0
ELLIPSE
5
99
100
AcDbEntity
8
1
62
256
6
ByLayer
370
-1
48
1
60
0
100
AcDbEllipse
10
103.191632
20
3.33713
30
0
11
-1.43057542612235
21
0.451058699256399
31
0
210
0
220
0
230
1
40
0.99062
41
-0.104917041938726
42
-2.35827684290267
0
ELLIPSE
5
9A
100
AcDbEntity
8
1
62
256
6
ByLayer
370
-1
48
1
60
0
100
AcDbEllipse
10
102.92074
20
4.825738
30
0
11
-1.54979004496587
21
0.488646924194431
31
0
210
0
220
0
230
1
40
0.99062
41
-0.610865238197994
42
0.44633731549098
0
ELLIPSE
5
9B
100
AcDbEntity
8
1
62
256
6
ByLayer
370
-1
48
1
60
0
100
AcDbEllipse
10
16.948929
20
0
30
0
11
9.3674178797817
21
-19.7417491527498
31
0
210
0
220
0
230
-1
40
0.341999
41
2.04527312608988
42
2.98886640869144
0
ELLIPSE
5
9C
100
AcDbEntity
8
1
62
256
6
ByLayer
370
-1
48
1
60
0
100
AcDbEllipse
10
105.421283
20
25.41529
30
0
11
-7.62973560598584
21
2.40564639603412
31
0
210
0
220
0
230
1
40
0.99062
41
1.17869483268589
42
1.98232187549903
0
ELLIPSE
5
9D
100
AcDbEntity
8
1
62
256
6
ByLayer
370
-1
48
1
60
0
100
AcDbEllipse
10
102.858793
20
2.281499
30
0
11
1.43057542612234
21
-0.451058699256409
31
0
210
0
220
0
230
1
40
0.99062
41
0.381566701921243
42
2.75994839730477
0
ELLIPSE
5
9E
100
AcDbEntity
8
1
62
256
6
ByLayer
370
-1
48
1
60
0
100
AcDbEllipse
10
122.989443
20
12.000241
30
0
11
7.62973560598575
21
-2.40564639603416
31
0
210
0
220
0
230
1
40
0.99062
41
-2.83060933718669
42
-2.76381001618999
0
ELLIPSE
5
9F
100
AcDbEntity
8
1
62
256
6
ByLayer
370
-1
48
1
60
0
100
AcDbEllipse
10
16.948929
20
0
30
0
11
9.36741787978175
21
19.7417491527498
31
0
210
0
220
0
230
-1
40
0.341999
41
-2.98886640869145
42
-2.04527312608988
0
ELLIPSE
5
A0
100
AcDbEntity
8
1
62
256
6
ByLayer
370
-1
48
1
60
0
100
AcDbEllipse
10
103.101624
20
5.399428
30
0
11
1.87406117457962
21
-0.590889218630079
31
0
210
0
220
0
230
1
40
0.99062
41
2.53072741539185
42
-1.98218070164043
0
ELLIPSE
5
A1
100
AcDbEntity
8
1
62
256
6
ByLayer
370
-1
48
1
60
0
100
AcDbEllipse
10
104.241448
20
3.935631
30
0
11
0.728019426419046
21
0.493846043640466
31
0
210
0
220
0
230
-1
40
0.110805
41
1.23941249073521
42
2.01136979541513
0
ELLIPSE
5
A2
100
AcDbEntity
8
1
62
256
6
ByLayer
370
-1
48
1
60
0
100
AcDbEllipse
10
104.127347
20
4.701044
30
0
11
0.786821570999482
21
-0.109614188423426
31
0
210
0
220
0
230
-1
40
0.993352
41
0.901602140277491
42
-3.09829747054852
0
ELLIPSE
5
A3
100
AcDbEntity
8
1
62
256
6
ByLayer
370
-1
48
1
60
0
100
AcDbEllipse
10
104.169498
20
4.418284
30
0
11
0.786821571057292
21
-0.109614188059324
31
0
210
0
220
0
230
-1
40
0.993352
41
1.67355944542534
42
2.41293053241531
0
ELLIPSE
5
A4
100
AcDbEntity
8
1
62
256
6
ByLayer
370
-1
48
1
60
0
100
AcDbEllipse
10
104.241448
20
3.935631
30
0
11
0.72206729481815
21
-1.21604591893236
31
0
210
0
220
0
230
-1
40
0.44821
41
1.86587387317958
42
2.30993054851856
0
ELLIPSE
5
A5
100
AcDbEntity
8
1
62
256
6
ByLayer
370
-1
48
1
60
0
100
AcDbEllipse
10
103.960255
20
4.00064
30
0
11
-0.410098288821739
21
0.129303493786834
31
0
210
0
220
0
230
1
40
0.99062
41
0.438605526713218
42
2.2291337314848
0
ELLIPSE
5
A6
100
AcDbEntity
8
1
62
256
6
ByLayer
370
-1
48
1
60
0
100
AcDbEllipse
10
114.376173
20
11.894861
30
0
11
-0.391023949806774
21
0.123289377796749
31
0
210
0
220
0
230
1
40
0.99062
41
2.83771652562088
42
3.1415926535896
0
ELLIPSE
5
A7
100
AcDbEntity
8
1
62
256
6
ByLayer
370
-1
48
1
60
0
100
AcDbEllipse
10
110.222816
20
15.309428
30
0
11
-0.278485349618483
21
0.0878060934552455
31
0
210
0
220
0
230
1
40
0.99062
41
-1.09669395402045
42
-0.459672131434821
0
ELLIPSE
5
A8
100
AcDbEntity
8
1
62
256
6
ByLayer
370
-1
48
1
60
0
100
AcDbEllipse
10
110.056183
20
16.265764
30
0
11
-0.654249828213286
21
0.206284178459926
31
0
210
0
220
0
230
1
40
0.99062
41
2.04489869956959
42
2.71454599327388
0
ELLIPSE
5
A9
100
AcDbEntity
8
1
62
256
6
ByLayer
370
-1
48
1
60
0
100
AcDbEllipse
10
111.017025
20
16.437151
30
0
11
-0.278485349618483
21
0.0878060934552455
31
0
210
0
220
0
230
1
40
0.99062
41
-2.13801608775708
42
-0.31608477055124
0
ELLIPSE
5
AA
100
AcDbEntity
8
1
62
256
6
ByLayer
370
-1
48
1
60
0
100
AcDbEllipse
10
111.763882
20
17.058427
30
0
11
-0.654249828213286
21
0.206284178459926
31
0
210
0
220
0
230
1
40
0.99062
41
1.00357656583274
42
1.78756720945353
0
ELLIPSE
5
AB
100
AcDbEntity
8
1
62
256
6
ByLayer
370
-1
48
1
60
0
100
AcDbEllipse
10
112.391915
20
16.312199
30
0
11
-0.278485349618483
21
0.0878060934552455
31
0
210
0
220
0
230
1
40
0.99062
41
-3.06682497293238
42
-0.570034800515604
0
ELLIPSE
5
AC
100
AcDbEntity
8
1
62
256
6
ByLayer
370
-1
48
1
60
0
100
AcDbEllipse
10
113.311981
20
15.980637
30
0
11
-0.654249828213286
21
0.206284178459926
31
0
210
0
220
0
230
1
40
0.99062
41
1.10417982030345E-05
42
0.743160205938258
0
ELLIPSE
5
AD
100
AcDbEntity
8
1
62
256
6
ByLayer
370
-1
48
1
60
0
100
AcDbEllipse
10
112.98023
20
15.070363
30
0
11
-0.278485349618483
21
0.0878060934552455
31
0
210
0
220
0
230
1
40
0.99062
41
-2.80259252395025
42
-1.6144418040308
0
ELLIPSE
5
AE
100
AcDbEntity
8
1
62
256
6
ByLayer
370
-1
48
1
60
0
100
AcDbEllipse
10
111.601523
20
15.189895
30
0
11
-1.15065950107774
21
0.362801547101896
31
0
210
0
220
0
230
1
40
0.99062
41
2.10264876296978
42
2.74175062423116
0
ELLIPSE
5
AF
100
AcDbEntity
8
1
62
256
6
ByLayer
370
-1
48
1
60
0
100
AcDbEllipse
10
111.648927
20
15.340242
30
0
11
1.15065950107774
21
-0.362801547101906
31
0
210
0
220
0
230
1
40
0.99062
41
2.76712740107889
42
2.90519266790269
0
ELLIPSE
5
B0
100
AcDbEntity
8
1
62
256
6
ByLayer
370
-1
48
1
60
0
100
AcDbEllipse
10
111.660077
20
15.375606
30
0
11
1.5989064679294
21
-0.504133272868911
31
0
210
0
220
0
230
1
40
0.99062
41
-1.87622894589392
42
-0.831821942378648
0
ELLIPSE
5
B1
100
AcDbEntity
8
1
62
256
6
ByLayer
370
-1
48
1
60
0
100
AcDbEllipse
10
113.146862
20
14.114026
30
0
11
-0.654249828213286
21
0.206284178459926
31
0
210
0
220
0
230
1
40
0.99062
41
1.00325996272758E-05
42
0.485828715822242
0
ELLIPSE
5
B2
100
AcDbEntity
8
1
62
256
6
ByLayer
370
-1
48
1
60
0
100
AcDbEllipse
10
111.660077
20
15.375606
30
0
11
1.5989064679294
21
-0.504133272868911
31
0
210
0
220
0
230
1
40
0.99062
41
-2.92063594940916
42
-1.87622894589392
0
ELLIPSE
5
B3
100
AcDbEntity
8
1
62
256
6
ByLayer
370
-1
48
1
60
0
100
AcDbEllipse
10
111.601523
20
15.189895
30
0
11
-1.15065950107774
21
0.362801547101896
31
0
210
0
220
0
230
1
40
0.99062
41
0.893962428185501
42
1.50813926430537
0
ELLIPSE
5
B4
100
AcDbEntity
8
1
62
256
6
ByLayer
370
-1
48
1
60
0
100
AcDbEllipse
10
111.648927
20
15.340242
30
0
11
1.15065950107774
21
-0.362801547101906
31
0
210
0
220
0
230
1
40
0.99062
41
-0.37446525251081
42
-0.236399985687175
0
ELLIPSE
5
B5
100
AcDbEntity
8
1
62
256
6
ByLayer
370
-1
48
1
60
0
100
AcDbEllipse
10
111.601523
20
15.189895
30
0
11
1.15065950107773
21
-0.362801547101905
31
0
210
0
220
0
230
1
40
0.99062
41
0.743160205938257
42
1.78756720945353
0
ELLIPSE
5
B6
100
AcDbEntity
8
1
62
256
6
ByLayer
370
-1
48
1
60
0
100
AcDbEllipse
10
111.601523
20
15.189895
30
0
11
-1.15065950107774
21
0.362801547101896
31
0
210
0
220
0
230
1
40
0.99062
41
-1.35402544413625
42
-0.374465252510899
0
ELLIPSE
5
B7
100
AcDbEntity
8
1
62
256
6
ByLayer
370
-1
48
1
60
0
100
AcDbEllipse
10
111.660077
20
15.375606
30
0
11
1.5989064679294
21
-0.504133272868911
31
0
210
0
220
0
230
1
40
0.99062
41
-0.831821942378648
42
0.220956704180633
0
ELLIPSE
5
B8
100
AcDbEntity
8
1
62
256
6
ByLayer
370
-1
48
1
60
0
100
AcDbEllipse
10
111.763882
20
17.058427
30
0
11
-0.654249828213286
21
0.206284178459926
31
0
210
0
220
0
230
1
40
0.99062
41
1.78756720945353
42
2.57155785307435
0
ELLIPSE
5
B9
100
AcDbEntity
8
1
62
256
6
ByLayer
370
-1
48
1
60
0
100
AcDbEllipse
10
111.660077
20
15.375606
30
0
11
1.5989064679294
21
-0.504133272868911
31
0
210
0
220
0
230
1
40
0.99062
41
2.30977071121115
42
-2.92063594940916
0
ELLIPSE
5
BA
100
AcDbEntity
8
1
62
256
6
ByLayer
370
-1
48
1
60
0
100
AcDbEllipse
10
111.601523
20
15.189895
30
0
11
1.15065950107773
21
-0.362801547101905
31
0
210
0
220
0
230
1
40
0.99062
41
2.7671274010789
42
2.90519266790268
0
ELLIPSE
5
BB
100
AcDbEntity
8
1
62
256
6
ByLayer
370
-1
48
1
60
0
100
AcDbEllipse
10
111.660077
20
15.375606
30
0
11
1.5989064679294
21
-0.504133272868911
31
0
210
0
220
0
230
1
40
0.99062
41
0.220956704180634
42
1.26536370769592
0
ELLIPSE
5
BC
100
AcDbEntity
8
1
62
256
6
ByLayer
370
-1
48
1
60
0
100
AcDbEllipse
10
110.056183
20
16.265764
30
0
11
-0.654249828213286
21
0.206284178459926
31
0
210
0
220
0
230
1
40
0.99062
41
2.95777407570768
42
-3.14158233355
0
ELLIPSE
5
BD
100
AcDbEntity
8
1
62
256
6
ByLayer
370
-1
48
1
60
0
100
AcDbEllipse
10
111.601523
20
15.189895
30
0
11
-1.15065950107774
21
0.362801547101896
31
0
210
0
220
0
230
1
40
0.99062
41
-0.23639998568711
42
0.450884159667811
0
ELLIPSE
5
BE
100
AcDbEntity
8
1
62
256
6
ByLayer
370
-1
48
1
60
0
100
AcDbEllipse
10
111.660077
20
15.375606
30
0
11
1.5989064679294
21
-0.504133272868911
31
0
210
0
220
0
230
1
40
0.99062
41
1.26536370769592
42
2.30977071121115
0
ELLIPSE
5
BF
100
AcDbEntity
8
1
62
256
6
ByLayer
370
-1
48
1
60
0
100
AcDbEllipse
10
111.601523
20
15.189895
30
0
11
-1.15065950107774
21
0.362801547101896
31
0
210
0
220
0
230
1
40
0.99062
41
3.04862190507963
42
-2.39843244765153
0
ELLIPSE
5
C0
100
AcDbEntity
8
1
62
256
6
ByLayer
370
-1
48
1
60
0
100
AcDbEllipse
10
113.311981
20
15.980637
30
0
11
-0.654249828213286
21
0.206284178459926
31
0
210
0
220
0
230
1
40
0.99062
41
0.743160205938258
42
1.52715084955907
0
ELLIPSE
5
C1
100
AcDbEntity
8
1
62
256
6
ByLayer
370
-1
48
1
60
0
100
AcDbEllipse
10
111.660077
20
15.375606
30
0
11
1.71669051134682
21
-0.541270439107692
31
0
210
0
220
0
230
1
40
0.99062
41
0
42
6.28318530717959
0
ELLIPSE
5
C2
100
AcDbEntity
8
1
62
256
6
ByLayer
370
-1
48
1
60
0
100
AcDbEllipse
10
111.60255
20
15.193153
30
0
11
2.50350699571409
21
-0.789352723698715
31
0
210
0
220
0
230
1
40
0.99062
41
3.1415742349138
42
0
0
ELLIPSE
5
C3
100
AcDbEntity
8
1
62
256
6
ByLayer
370
-1
48
1
60
0
100
AcDbEllipse
10
111.648759
20
15.33971
30
0
11
2.50350699571409
21
-0.789352723698712
31
0
210
0
220
0
230
1
40
0.99062
41
0
42
6.28318530717959
0
ELLIPSE
5
C4
100
AcDbEntity
8
1
62
256
6
ByLayer
370
-1
48
1
60
0
100
AcDbEllipse
10
119.217247
20
26.127683
30
0
11
0.786821570999253
21
-0.109614188424938
31
0
210
0
220
0
230
-1
40
0.993352
41
-2.2399905133135
42
0.0432951830396906
0
ELLIPSE
5
C5
100
AcDbEntity
8
1
62
256
6
ByLayer
370
-1
48
1
60
0
100
AcDbEllipse
10
111.672297
20
15.414363
30
0
11
2.90362383720892
21
-0.915509079232116
31
0
210
0
220
0
230
1
40
0.99062
41
0
42
6.28318530717959
0
ELLIPSE
5
C6
100
AcDbEntity
8
1
62
256
6
ByLayer
370
-1
48
1
60
0
100
AcDbEllipse
10
111.62376
20
15.260423
30
0
11
2.80817345793614
21
-0.885413690249369
31
0
210
0
220
0
230
1
40
0.99062
41
-0.639725340131979
42
0
0
ELLIPSE
5
C7
100
AcDbEntity
8
1
62
256
6
ByLayer
370
-1
48
1
60
0
100
AcDbEllipse
10
111.62376
20
15.260423
30
0
11
2.80817345793614
21
-0.885413690249369
31
0
210
0
220
0
230
1
40
0.99062
41
0
42
0.308145811461459
0
ELLIPSE
5
C8
100
AcDbEntity
8
1
62
256
6
ByLayer
370
-1
48
1
60
0
100
AcDbEllipse
10
111.62376
20
15.260423
30
0
11
2.80817345793614
21
-0.885413690249369
31
0
210
0
220
0
230
1
40
0.99062
41
0.30814592152392
42
-2.50190433097974
0
ELLIPSE
5
C9
100
AcDbEntity
8
1
62
256
6
ByLayer
370
-1
48
1
60
0
100
AcDbEllipse
10
111.630385
20
15.281434
30
0
11
2.8611508522447
21
-0.902117398512825
31
0
210
0
220
0
230
1
40
0.99062
41
-0.299844135515546
42
0
0
ELLIPSE
5
CA
100
AcDbEntity
8
1
62
256
6
ByLayer
370
-1
48
1
60
0
100
AcDbEllipse
10
111.630385
20
15.281434
30
0
11
2.8611508522447
21
-0.902117398512825
31
0
210
0
220
0
230
1
40
0.99062
41
0
42
0.308146001506268
0
ELLIPSE
5
CB
100
AcDbEntity
8
1
62
256
6
ByLayer
370
-1
48
1
60
0
100
AcDbEllipse
10
111.630385
20
15.281434
30
0
11
2.8611508522447
21
-0.902117398512825
31
0
210
0
220
0
230
1
40
0.99062
41
0.308145937728242
42
-2.84178536504616
0
ELLIPSE
5
CC
100
AcDbEntity
8
1
62
256
6
ByLayer
370
-1
48
1
60
0
100
AcDbEllipse
10
107.922759
20
18.024802
30
0
11
0.370211271892278
21
-0.155575513416172
31
0
210
0
220
0
230
-1
40
0.987006
41
3.05039196012713
42
-2.624327269901
0
ELLIPSE
5
CD
100
AcDbEntity
8
1
62
256
6
ByLayer
370
-1
48
1
60
0
100
AcDbEllipse
10
115.421835
20
12.803925
30
0
11
0.37021127203852
21
-0.15557551294773
31
0
210
0
220
0
230
-1
40
0.987006
41
-0.0912006922677644
42
0.517265384920242
0
POINT
5
41
100
AcDbEntity
8
80
62
256
6
ByLayer
370
-1
48
1
60
0
100
AcDbPoint
10
0
20
0
30
0
39
0
210
0
220
0
230
1
50
360
0
POINT
5
43
100
AcDbEntity
8
81
62
256
6
ByLayer
370
-1
48
1
60
0
100
AcDbPoint
10
120
20
26.9
30
0
39
0
210
0
220
0
230
1
50
360
0
POINT
5
45
100
AcDbEntity
8
1
62
256
6
ByLayer
370
-1
48
1
60
0
100
AcDbPoint
10
0
20
0
30
0
39
0
210
0
220
0
230
1
50
360
0
POINT
5
47
100
AcDbEntity
8
2
62
256
6
ByLayer
370
-1
48
1
60
0
100
AcDbPoint
10
120
20
26.9
30
0
39
0
210
0
220
0
230
1
50
360
0
POINT
5
49
100
AcDbEntity
8
2
62
256
6
ByLayer
370
-1
48
1
60
0
100
AcDbPoint
10
119.571745
20
24.672042
30
0
39
0
210
0
220
0
230
1
50
360
0
SPLINE
5
CE
100
AcDbEntity
8
SK1
62
256
6
ByLayer
370
-1
48
1
60
0
100
AcDbSpline
70
4
71
2
72
6
73
3
40
0
40
0
40
0
40
1
40
1
40
1
41
1
10
-2.5
20
14.0000000000425
30
0
41
1
10
-12.5002365839528
20
13.7487592491499
30
0
41
1
10
-22.5004731679057
20
13.4975184982574
30
0
0
SPLINE
5
CF
100
AcDbEntity
8
SK1
62
256
6
ByLayer
370
-1
48
1
60
0
100
AcDbSpline
70
4
71
2
72
6
73
3
40
0
40
0
40
0
40
1
40
1
40
1
41
1
10
-22.5004731679057
20
-13.4975184982324
30
0
41
1
10
-12.5002365839528
20
-13.7487592491245
30
0
41
1
10
-2.5
20
-14.0000000000165
30
0
0
SPLINE
5
D0
100
AcDbEntity
8
SK1
62
256
6
ByLayer
370
-1
48
1
60
0
100
AcDbSpline
70
4
71
2
72
6
73
3
40
0
40
0
40
0
40
1
40
1
40
1
41
1
10
-1.69501459340779
20
14.0202240353752
30
0
41
1
10
-2.0975072967039
20
14.0101120177088
30
0
41
1
10
-2.5
20
14.0000000000425
30
0
0
SPLINE
5
D1
100
AcDbEntity
8
SK1
62
256
6
ByLayer
370
-1
48
1
60
0
100
AcDbSpline
70
4
71
2
72
6
73
3
40
0
40
0
40
0
40
1
40
1
40
1
41
1
10
-2.5
20
-14.0000000000165
30
0
41
1
10
-2.0975072967039
20
-14.0101120176829
30
0
41
1
10
-1.69501459340779
20
-14.0202240353492
30
0
0
SPLINE
5
D2
100
AcDbEntity
8
SK1
62
256
6
ByLayer
370
-1
48
1
60
0
100
AcDbSpline
70
4
71
2
72
6
73
3
40
0
40
0
40
0
40
1
40
1
40
1
41
1
10
-22.5003908339782
20
13.4978821831766
30
0
41
1
10
-23.250195418368
20
13.0391711292673
30
0
41
1
10
-24
20
12.580456895609
30
0
0
SPLINE
5
D3
100
AcDbEntity
8
SK1
62
256
6
ByLayer
370
-1
48
1
60
0
100
AcDbSpline
70
4
71
2
72
6
73
3
40
0
40
0
40
0
40
1
40
1
40
1
41
1
10
-24
20
-12.579249793836
30
0
41
1
10
-23.2502022102608
20
-13.0377782396013
30
0
41
1
10
-22.5004044652863
20
-13.4963063088843
30
0
0
SPLINE
5
D4
100
AcDbEntity
8
SK1
62
256
6
ByLayer
370
-1
48
1
60
0
100
AcDbSpline
70
4
71
2
72
6
73
3
40
0
40
0
40
0
40
1
40
1
40
1
41
1
10
-1.5307338908475
20
13.6252614478748
30
0
41
1
10
-1.53145146754062
20
13.6187560658346
30
0
41
1
10
-1.53248549198287
20
13.6035488735101
30
0
0
SPLINE
5
D5
100
AcDbEntity
8
SK1
62
256
6
ByLayer
370
-1
48
1
60
0
100
AcDbSpline
70
4
71
3
72
17
73
13
40
0
40
0
40
0
40
0
40
0.0145833558077114
40
0.112130151763803
40
0.219032510386727
40
0.33389777224674
40
0.454856455681662
40
0.579671973306757
40
0.705875321170092
40
0.830911232223804
40
0.952290521297557
40
1
40
1
40
1
40
1
41
1
10
-1.68701305435192
20
-5.32942014223536
30
0
41
1
10
-1.68666930224578
20
-5.38550449046915
30
0
41
1
10
-1.68397445401345
20
-5.81410306988334
30
0
41
1
10
-1.67747795392953
20
-6.59498365509117
30
0
41
1
10
-1.66733035148536
20
-7.67989781062096
30
0
41
1
10
-1.65521296658039
20
-8.75231679586201
30
0
41
1
10
-1.64144529409293
20
-9.78469838326623
30
0
41
1
10
-1.6261751854091
20
-10.7406546133084
30
0
41
1
10
-1.60969228283148
20
-11.593520022169
30
0
41
1
10
-1.59218937142671
20
-12.3124383508891
30
0
41
1
10
-1.5776378624337
20
-12.7998189050261
30
0
41
1
10
-1.56854622455617
20
-13.0112709401583
30
0
41
1
10
-1.56593765313892
20
-13.0666967750816
30
0
0
SPLINE
5
D6
100
AcDbEntity
8
SK1
62
256
6
ByLayer
370
-1
48
1
60
0
100
AcDbSpline
70
4
71
2
72
6
73
3
40
0
40
0
40
0
40
1
40
1
40
1
41
1
10
-1.49999999999994
20
-13.7870504860687
30
0
41
1
10
-0.94999999999996
20
-13.7870504860687
30
0
41
1
10
-0.399999999999949
20
-13.7870504860687
30
0
0
SPLINE
5
D7
100
AcDbEntity
8
SK1
62
256
6
ByLayer
370
-1
48
1
60
0
100
AcDbSpline
70
4
71
2
72
6
73
3
40
0
40
0
40
0
40
1
40
1
40
1
41
1
10
-0.399999999999949
20
13.787050293933
30
0
41
1
10
-0.94999999999996
20
13.787050293933
30
0
41
1
10
-1.49999999999994
20
13.787050293933
30
0
0
SPLINE
5
D8
100
AcDbEntity
8
1
62
256
6
ByLayer
370
-1
48
1
60
0
100
AcDbSpline
70
4
71
3
72
18
73
14
40
0
40
0
40
0
40
0
40
0.0074698584964846
40
0.0074698584964846
40
0.116973966194816
40
0.116973966194816
40
0.258725811908727
40
0.258725811908727
40
0.483357667469355
40
0.483357667469355
40
0.91437209527524
40
0.91437209527524
40
1
40
1
40
1
40
1
41
1
10
9.07679491924307
20
-19.1222825906926
30
0
41
1
10
9.07791531278104
20
-19.1222825906926
30
0
41
1
10
9.07903578618209
20
-19.122278667842
30
0
41
1
10
9.09637412624431
20
-19.1221572838471
30
0
41
1
10
9.11270417149058
20
-19.1211855627664
30
0
41
1
10
9.1475850522387
20
-19.1174067506416
30
0
41
1
10
9.16596173018905
20
-19.1141200721534
30
0
41
1
10
9.20810355067709
20
-19.1041233146922
30
0
41
1
10
9.22982072744469
20
-19.0964050302577
30
0
41
1
10
9.28328154913385
20
-19.0724543460921
30
0
41
1
10
9.30783261541364
20
-19.0543706588151
30
0
41
1
10
9.32995866734097
20
-19.0320887998676
30
0
41
1
10
9.33339464013244
20
-19.0283457512527
30
0
41
1
10
9.33660254037841
20
-19.0245744101322
30
0
0
SPLINE
5
D9
100
AcDbEntity
8
1
62
256
6
ByLayer
370
-1
48
1
60
0
100
AcDbSpline
70
4
71
3
72
10
73
6
40
0
40
0
40
0
40
0
40
0.679347771445097
40
0.679347771445097
40
1
40
1
40
1
40
1
41
1
10
101.808552262132
20
3.65793803939735
30
0
41
1
10
101.803271782891
20
3.72646702127094
30
0
41
1
10
101.802409798856
20
3.79091968306676
30
0
41
1
10
101.80844020556
20
3.87981791023731
30
0
41
1
10
101.811483271937
20
3.90741957707095
30
0
41
1
10
101.815716967465
20
3.93412008933913
30
0
0
SPLINE
5
DA
100
AcDbEntity
8
1
62
256
6
ByLayer
370
-1
48
1
60
0
100
AcDbSpline
70
4
71
3
72
16
73
12
40
0
40
0
40
0
40
0
40
0.26737209152312
40
0.26737209152312
40
0.600855844067793
40
0.600855844067793
40
0.762574643716858
40
0.762574643716858
40
0.898037673161672
40
0.898037673161672
40
1
40
1
40
1
40
1
41
1
10
9.33660254037846
20
19.0245744101322
30
0
41
1
10
9.32665759364994
20
19.036266103658
30
0
41
1
10
9.3145318522902
20
19.0477160699853
30
0
41
1
10
9.2807030305579
20
19.0724552288876
30
0
41
1
10
9.25716973041023
20
19.0857432838256
30
0
41
1
10
9.21115368872734
20
19.1026287554228
30
0
41
1
10
9.19404341926798
20
19.1077588484921
30
0
41
1
10
9.1586453384337
20
19.1154700309996
30
0
41
1
10
9.14061920638903
20
19.1183821582684
30
0
41
1
10
9.10716397282852
20
19.1215414200073
30
0
41
1
10
9.09190067197864
20
19.1222825906925
30
0
41
1
10
9.07679491924313
20
19.1222825906925
30
0
0
SPLINE
5
DB
100
AcDbEntity
8
1
62
256
6
ByLayer
370
-1
48
1
60
0
100
AcDbSpline
70
4
71
3
72
24
73
20
40
0
40
0
40
0
40
0
40
0.125
40
0.125
40
0.25
40
0.25
40
0.375
40
0.375
40
0.5
40
0.5
40
0.5625
40
0.5625
40
0.625
40
0.625
40
0.75
40
0.75
40
0.875
40
0.875
40
1
40
1
40
1
40
1
41
1
10
93.6808178113605
20
-18.141279470313
30
0
41
1
10
90.2738819333996
20
-17.7305111645588
30
0
41
1
10
87.0084756931258
20
-17.1192197309885
30
0
41
1
10
80.7663579123055
20
-15.1153162616721
30
0
41
1
10
77.8209785996187
20
-13.7151827329436
30
0
41
1
10
72.5680122383809
20
-9.80242241796594
30
0
41
1
10
70.2498157196344
20
-7.26735975317945
30
0
41
1
10
66.6450922111231
20
-1.20089206582298
30
0
41
1
10
65.3490027643926
20
2.3296422339256
30
0
41
1
10
64.8224838305368
20
7.47871716433619
30
0
41
1
10
64.8942421629744
20
9.12448473964184
30
0
41
1
10
65.627571366419
20
12.1048190708239
30
0
41
1
10
66.2902806295823
20
13.4050217730254
30
0
41
1
10
69.0134131163176
20
16.5884152289421
30
0
41
1
10
71.7599265643398
20
17.7551419312421
30
0
41
1
10
77.832293924514
20
19.1605057579781
30
0
41
1
10
81.1513743042725
20
19.4312704418233
30
0
41
1
10
88.0433661926495
20
19.7473901541087
30
0
41
1
10
91.5611595627315
20
19.7802149395739
30
0
41
1
10
95.1426406175286
20
19.7950504821603
30
0
0
SPLINE
5
DC
100
AcDbEntity
8
1
62
256
6
ByLayer
370
-1
48
1
60
0
100
AcDbSpline
70
4
71
3
72
34
73
30
40
-0.124999999999999
40
-0.124999999999999
40
0
40
0
40
0.125
40
0.125
40
0.1875
40
0.1875
40
0.21875
40
0.21875
40
0.25
40
0.25
40
0.3125
40
0.3125
40
0.375
40
0.375
40
0.500000000000001
40
0.500000000000001
40
0.625000000000002
40
0.625000000000002
40
0.687500000000003
40
0.687500000000003
40
0.718750000000002
40
0.718750000000002
40
0.750000000000002
40
0.750000000000002
40
0.812500000000001
40
0.812500000000001
40
0.875000000000001
40
0.875000000000001
40
1
40
1
40
1.125
40
1.125
41
1
10
87.0017764650851
20
8.8017499037241
30
0
41
1
10
84.5696221775036
20
7.63343003370682
30
0
41
1
10
83.3154375707703
20
7.15419534676306
30
0
41
1
10
81.3472538939426
20
6.96935150133501
30
0
41
1
10
80.6581933147307
20
6.98044448159791
30
0
41
1
10
79.7320748139048
20
7.48031327725843
30
0
41
1
10
79.4576192907501
20
7.75475173011273
30
0
41
1
10
79.2138114219503
20
8.43716435520929
30
0
41
1
10
79.2440744978883
20
8.80989217177245
30
0
41
1
10
79.5430231990345
20
9.78085764374245
30
0
41
1
10
79.9764353374446
20
10.2995960971532
30
0
41
1
10
80.9287226112151
20
11.1966642528819
30
0
41
1
10
81.4611673195863
20
11.5696153174631
30
0
41
1
10
83.15749506932
20
12.5734029694664
30
0
41
1
10
84.4080704787658
20
13.0781891106122
30
0
41
1
10
86.9857840150902
20
13.8940912133824
30
0
41
1
10
88.3359032803589
20
14.2185558954825
30
0
41
1
10
90.4271837206721
20
14.4969353629795
30
0
41
1
10
91.1422294571754
20
14.5767219049108
30
0
41
1
10
92.2024095366333
20
14.4354742601779
30
0
41
1
10
92.6476732313041
20
14.3193518306572
30
0
41
1
10
92.7858565338549
20
13.6087329307554
30
0
41
1
10
92.5457229892378
20
13.2859731607431
30
0
41
1
10
91.9202058179907
20
12.4500305065805
30
0
41
1
10
91.4009767882578
20
11.9805226600586
30
0
41
1
10
90.3566416463055
20
11.0906447049411
30
0
41
1
10
89.8134407348573
20
10.6757820089547
30
0
41
1
10
88.1444694164026
20
9.49473168606764
30
0
41
1
10
87.0017764650851
20
8.8017499037241
30
0
41
1
10
84.5696221775036
20
7.63343003370682
30
0
0
SPLINE
5
DD
100
AcDbEntity
8
1
62
256
6
ByLayer
370
-1
48
1
60
0
100
AcDbSpline
70
4
71
3
72
8
73
4
40
0
40
0
40
0
40
0
40
1
40
1
40
1
40
1
41
1
10
94.9891945795409
20
19.8479399128171
30
0
41
1
10
94.999990376982
20
19.8444113907125
30
0
41
1
10
95.0512927499814
20
19.8268635672963
30
0
41
1
10
95.1426406175285
20
19.7950504821603
30
0
0
SPLINE
5
DE
100
AcDbEntity
8
1
62
256
6
ByLayer
370
-1
48
1
60
0
100
AcDbSpline
70
4
71
3
72
8
73
4
40
0
40
0
40
0
40
0
40
1
40
1
40
1
40
1
41
1
10
95.1426406175285
20
19.7950504821603
30
0
41
1
10
95.3901374434801
20
19.708856487639
30
0
41
1
10
95.6428952440117
20
19.6344307888444
30
0
41
1
10
95.9011307096434
20
19.5722563593894
30
0
0
SPLINE
5
DF
100
AcDbEntity
8
1
62
256
6
ByLayer
370
-1
48
1
60
0
100
AcDbSpline
70
4
71
3
72
16
73
12
40
0
40
0
40
0
40
0
40
0.267372091523256
40
0.267372091523256
40
0.600855844067868
40
0.600855844067868
40
0.762574643716911
40
0.762574643716911
40
0.898037673161716
40
0.898037673161716
40
1
40
1
40
1
40
1
41
1
10
6.66339745962154
20
-19.0245744101322
30
0
41
1
10
6.67334240635006
20
-19.036266103658
30
0
41
1
10
6.68546814770983
20
-19.0477160699853
30
0
41
1
10
6.7192969694421
20
-19.0724552288877
30
0
41
1
10
6.7428302695898
20
-19.0857432838256
30
0
41
1
10
6.78884631127269
20
-19.1026287554228
30
0
41
1
10
6.80595658073201
20
-19.1077588484921
30
0
41
1
10
6.84135466156636
20
-19.1154700309997
30
0
41
1
10
6.85938079361097
20
-19.1183821582684
30
0
41
1
10
6.89283602717151
20
-19.1215414200073
30
0
41
1
10
6.90809932802136
20
-19.1222825906926
30
0
41
1
10
6.92320508075687
20
-19.1222825906926
30
0
0
SPLINE
5
E0
100
AcDbEntity
8
1
62
256
6
ByLayer
370
-1
48
1
60
0
100
AcDbSpline
70
4
71
3
72
18
73
14
40
0
40
0
40
0
40
0
40
0.0074698584965012
40
0.0074698584965012
40
0.116973966194809
40
0.116973966194809
40
0.25872581190871
40
0.25872581190871
40
0.483357667469334
40
0.483357667469334
40
0.914372095275209
40
0.914372095275209
40
1
40
1
40
1
40
1
41
1
10
6.9232050807569
20
19.1222825906925
30
0
41
1
10
6.92208468721896
20
19.1222825906925
30
0
41
1
10
6.92096421381788
20
19.122278667842
30
0
41
1
10
6.90362587375569
20
19.1221572838471
30
0
41
1
10
6.88729582850945
20
19.1211855627664
30
0
41
1
10
6.85241494776133
20
19.1174067506415
30
0
41
1
10
6.83403826981095
20
19.1141200721533
30
0
41
1
10
6.7918964493229
20
19.1041233146922
30
0
41
1
10
6.77017927255534
20
19.0964050302576
30
0
41
1
10
6.71671845086618
20
19.072454346092
30
0
41
1
10
6.69216738458638
20
19.054370658815
30
0
41
1
10
6.67004133265903
20
19.0320887998676
30
0
41
1
10
6.66660535986759
20
19.0283457512526
30
0
41
1
10
6.66339745962159
20
19.0245744101322
30
0
0
SPLINE
5
E1
100
AcDbEntity
8
1
62
256
6
ByLayer
370
-1
48
1
60
0
100
AcDbSpline
70
4
71
3
72
16
73
12
40
0
40
0
40
0
40
0
40
0.267372091523283
40
0.267372091523283
40
0.600855844067897
40
0.600855844067897
40
0.762574643716936
40
0.762574643716936
40
0.898037673161731
40
0.898037673161731
40
1
40
1
40
1
40
1
41
1
10
6.66339745962154
20
6.1697300194856
30
0
41
1
10
6.67334240635006
20
6.13367828095576
30
0
41
1
10
6.68546814770983
20
6.09801792960664
30
0
41
1
10
6.71929696944213
20
6.02025855383837
30
0
41
1
10
6.74283026958983
20
5.9779480294857
30
0
41
1
10
6.78884631127269
20
5.92367470492701
30
0
41
1
10
6.80595658073204
20
5.90709361727346
30
0
41
1
10
6.84135466156636
20
5.88208699512387
30
0
41
1
10
6.85938079361097
20
5.87260601127599
30
0
41
1
10
6.89283602717151
20
5.86230971122501
30
0
41
1
10
6.90809932802136
20
5.85988980456929
30
0
41
1
10
6.92320508075687
20
5.85988980456929
30
0
0
SPLINE
5
E2
100
AcDbEntity
8
1
62
256
6
ByLayer
370
-1
48
1
60
0
100
AcDbSpline
70
4
71
3
72
18
73
14
40
0
40
0
40
0
40
0
40
0.0074698584964884
40
0.0074698584964884
40
0.116973966194809
40
0.116973966194809
40
0.258725811908718
40
0.258725811908718
40
0.483357667469339
40
0.483357667469339
40
0.914372095275223
40
0.914372095275223
40
1
40
1
40
1
40
1
41
1
10
9.07679491924307
20
5.85988980456929
30
0
41
1
10
9.07791531278104
20
5.85988980456929
30
0
41
1
10
9.07903578618209
20
5.85990260585533
30
0
41
1
10
9.09637412624431
20
5.86029870927979
30
0
41
1
10
9.11270417149058
20
5.8634711769441
30
0
41
1
10
9.1475850522387
20
5.87578180524309
30
0
41
1
10
9.16596173018905
20
5.8864748710601
30
0
41
1
10
9.20810355067709
20
5.91885996191004
30
0
41
1
10
9.22982072744469
20
5.94374247779547
30
0
41
1
10
9.28328154913385
20
6.02032056207824
30
0
41
1
10
9.30783261541364
20
6.07738634703668
30
0
41
1
10
9.32995866734097
20
6.14652276485666
30
0
41
1
10
9.33339464013244
20
6.15810095961672
30
0
41
1
10
9.33660254037841
20
6.16973001948557
30
0
0
SPLINE
5
E3
100
AcDbEntity
8
1
62
256
6
ByLayer
370
-1
48
1
60
0
100
AcDbSpline
70
4
71
3
72
16
73
12
40
0
40
0
40
0
40
0
40
0.26737209152346
40
0.26737209152346
40
0.600855844067949
40
0.600855844067949
40
0.762574643716998
40
0.762574643716998
40
0.898037673161785
40
0.898037673161785
40
1
40
1
40
1
40
1
41
1
10
9.33660254037846
20
-6.16973001948571
30
0
41
1
10
9.32665759364994
20
-6.13367828095585
30
0
41
1
10
9.31453185229014
20
-6.0980179296067
30
0
41
1
10
9.28070303055785
20
-6.02025855383846
30
0
41
1
10
9.25716973041017
20
-5.97794802948579
30
0
41
1
10
9.21115368872728
20
-5.92367470492709
30
0
41
1
10
9.19404341926793
20
-5.90709361727357
30
0
41
1
10
9.15864533843364
20
-5.88208699512398
30
0
41
1
10
9.14061920638903
20
-5.87260601127613
30
0
41
1
10
9.10716397282852
20
-5.86230971122512
30
0
41
1
10
9.09190067197864
20
-5.85988980456943
30
0
41
1
10
9.07679491924313
20
-5.85988980456943
30
0
0
SPLINE
5
E4
100
AcDbEntity
8
1
62
256
6
ByLayer
370
-1
48
1
60
0
100
AcDbSpline
70
4
71
3
72
18
73
14
40
0
40
0
40
0
40
0
40
0.0074698584964997
40
0.0074698584964997
40
0.116973966194809
40
0.116973966194809
40
0.258725811908725
40
0.258725811908725
40
0.483357667469371
40
0.483357667469371
40
0.914372095275296
40
0.914372095275296
40
1
40
1
40
1
40
1
41
1
10
6.9232050807569
20
-5.85988980456943
30
0
41
1
10
6.92208468721896
20
-5.85988980456943
30
0
41
1
10
6.92096421381788
20
-5.85990260585547
30
0
41
1
10
6.90362587375569
20
-5.86029870927993
30
0
41
1
10
6.88729582850945
20
-5.86347117694424
30
0
41
1
10
6.85241494776133
20
-5.87578180524324
30
0
41
1
10
6.83403826981095
20
-5.88647487106027
30
0
41
1
10
6.7918964493229
20
-5.91885996191019
30
0
41
1
10
6.77017927255531
20
-5.94374247779564
30
0
41
1
10
6.71671845086618
20
-6.02032056207844
30
0
41
1
10
6.69216738458636
20
-6.07738634703685
30
0
41
1
10
6.67004133265903
20
-6.14652276485683
30
0
41
1
10
6.66660535986759
20
-6.15810095961689
30
0
41
1
10
6.66339745962159
20
-6.16973001948574
30
0
0
SPLINE
5
E5
100
AcDbEntity
8
SK1
62
256
6
ByLayer
370
-1
48
1
60
0
100
AcDbSpline
70
4
71
3
72
8
73
4
40
0
40
0
40
0
40
0
40
1
40
1
40
1
40
1
41
1
10
-1.49999999999989
20
2.55452876952822
30
0
41
1
10
-1.44087207369964
20
2.90701199552916
30
0
41
1
10
-1.37532387973016
20
3.25201982801605
30
0
41
1
10
-1.30710678118652
20
3.58871725126215
30
0
0
SPLINE
5
E6
100
AcDbEntity
8
SK1
62
256
6
ByLayer
370
-1
48
1
60
0
100
AcDbSpline
70
4
71
3
72
26
73
22
40
0
40
0
40
0
40
0
40
0.469785788569223
40
0.469785788569223
40
0.668418514928441
40
0.668418514928441
40
0.804692954578532
40
0.804692954578532
40
0.873184756231219
40
0.873184756231219
40
0.896859155065293
40
0.896859155065293
40
0.920924484951571
40
0.920924484951571
40
0.939434470473137
40
0.939434470473137
40
0.957835931594602
40
0.957835931594602
40
0.988578442147356
40
0.988578442147356
40
1
40
1
40
1
40
1
41
1
10
-0.199999999999903
20
5.54704287025544
30
0
41
1
10
-0.199999999999903
20
5.42431718290925
30
0
41
1
10
-0.20396457895626
20
5.29966999710626
30
0
41
1
10
-0.224282767013307
20
5.12103358120197
30
0
41
1
10
-0.232179309049343
20
5.06756976720519
30
0
41
1
10
-0.252704740622079
20
4.978190210186
30
0
41
1
10
-0.262871079026354
20
4.94160900373799
30
0
41
1
10
-0.286311952507617
20
4.88949466422366
30
0
41
1
10
-0.295652382926335
20
4.87213340280371
30
0
41
1
10
-0.312747464259928
20
4.85229180429835
30
0
41
1
10
-0.317656735592436
20
4.84745945050676
30
0
41
1
10
-0.328573296848816
20
4.83925806030632
30
0
41
1
10
-0.334764979883033
20
4.83584014543155
30
0
41
1
10
-0.346232005513514
20
4.8322957525329
30
0
41
1
10
-0.35150620542197
20
4.83157582806544
30
0
41
1
10
-0.361702396533559
20
4.83188756629812
30
0
41
1
10
-0.366737314583702
20
4.83289323712492
30
0
41
1
10
-0.379301479802251
20
4.83714877172162
30
0
41
1
10
-0.386503100688515
20
4.84144785455825
30
0
41
1
10
-0.395398036299696
20
4.84826453743355
30
0
41
1
10
-0.397738018100881
20
4.85023021284434
30
0
41
1
10
-0.39999999999992
20
4.85227506835233
30
0
0
SPLINE
5
E7
100
AcDbEntity
8
SK1
62
256
6
ByLayer
370
-1
48
1
60
0
100
AcDbSpline
70
4
71
3
72
24
73
20
40
0
40
0
40
0
40
0
40
0.0301438054682626
40
0.0301438054682626
40
0.0534484785704926
40
0.0534484785704926
40
0.0720095400082129
40
0.0720095400082129
40
0.0905695383101134
40
0.0905695383101134
40
0.116305960787128
40
0.116305960787128
40
0.162592546214773
40
0.162592546214773
40
0.309069601694218
40
0.309069601694218
40
0.921117608952043
40
0.921117608952043
40
1
40
1
40
1
40
1
41
1
10
-0.39999999999992
20
-4.85227456454996
30
0
41
1
10
-0.394020023648153
20
-4.84686859936412
30
0
41
1
10
-0.387451859572622
20
-4.84195482474243
30
0
41
1
10
-0.374634642632799
20
-4.83535851489759
30
0
41
1
10
-0.36852859233727
20
-4.8331693070069
30
0
41
1
10
-0.357122680087087
20
-4.83148108534394
30
0
41
1
10
-0.351799999816166
20
-4.83153855404609
30
0
41
1
10
-0.341483048247653
20
-4.83346410195867
30
0
41
1
10
-0.336373704588141
20
-4.83534876772512
30
0
41
1
10
-0.325154856426082
20
-4.84135562492241
30
0
41
1
10
-0.319215535801988
20
-4.84610423757906
30
0
41
1
10
-0.304561922415417
20
-4.86072267449359
30
0
41
1
10
-0.296947393086157
20
-4.87187082056749
30
0
41
1
10
-0.269928948964264
20
-4.91910282403435
30
0
41
1
10
-0.258077067230175
20
-4.95889086918967
30
0
41
1
10
-0.207846446885668
20
-5.16015067546422
30
0
41
1
10
-0.202576938682426
20
-5.32517565344045
30
0
41
1
10
-0.200133226173534
20
-5.50577396851835
30
0
41
1
10
-0.199999999999903
20
-5.52643078383124
30
0
41
1
10
-0.199999999999903
20
-5.54704286105715
30
0
0
SPLINE
5
E8
100
AcDbEntity
8
SK1
62
256
6
ByLayer
370
-1
48
1
60
0
100
AcDbSpline
70
4
71
3
72
8
73
4
40
0
40
0
40
0
40
0
40
1
40
1
40
1
40
1
41
1
10
-1.30710678118655
20
-3.5887172715492
30
0
41
1
10
-1.37532422566159
20
-3.25201925983745
30
0
41
1
10
-1.44087263133542
20
-2.90701066801501
30
0
41
1
10
-1.49999999999989
20
-2.55452633951475
30
0
0
SPLINE
5
E9
100
AcDbEntity
8
SK1
62
256
6
ByLayer
370
-1
48
1
60
0
100
AcDbSpline
70
4
71
3
72
24
73
20
40
0
40
0
40
0
40
0
40
0.000829925335579
40
0.000829925335579
40
0.374241324443827
40
0.374241324443827
40
0.63234478947936
40
0.63234478947936
40
0.762112395220848
40
0.762112395220848
40
0.806579694985541
40
0.806579694985541
40
0.85178635761524
40
0.85178635761524
40
0.893227000155117
40
0.893227000155117
40
0.936464331680753
40
0.936464331680753
40
1
40
1
40
1
40
1
41
1
10
-0.218267038722644
20
-13.9259778556266
30
0
41
1
10
-0.218280426881989
20
-13.9259543424539
30
0
41
1
10
-0.218293824099845
20
-13.9259308243107
30
0
41
1
10
-0.224346935588187
20
-13.9153098301286
30
0
41
1
10
-0.232233669438102
20
-13.9036655551733
30
0
41
1
10
-0.252765410814618
20
-13.8814084969653
30
0
41
1
10
-0.262983257543368
20
-13.8715421084066
30
0
41
1
10
-0.286616108803798
20
-13.8549361512882
30
0
41
1
10
-0.296048597512964
20
-13.8489546731
30
0
41
1
10
-0.313313649213939
20
-13.8405611977702
30
0
41
1
10
-0.318242626725265
20
-13.8383488525843
30
0
41
1
10
-0.329187128776852
20
-13.8339930106961
30
0
41
1
10
-0.335388564995384
20
-13.83179581462
30
0
41
1
10
-0.347755359286083
20
-13.8280854434499
30
0
41
1
10
-0.354048035137083
20
-13.8264890383489
30
0
41
1
10
-0.366250197629455
20
-13.8239295609977
30
0
41
1
10
-0.372316125402563
20
-13.8229457626001
30
0
41
1
10
-0.38603706697225
20
-13.821215643274
30
0
41
1
10
-0.393386043187917
20
-13.8207370125792
30
0
41
1
10
-0.399999999999977
20
-13.8205593061294
30
0
0
SPLINE
5
EA
100
AcDbEntity
8
SK1
62
256
6
ByLayer
370
-1
48
1
60
0
100
AcDbSpline
70
4
71
3
72
28
73
24
40
0
40
0
40
0
40
0
40
0.0501427590348134
40
0.0501427590348134
40
0.162499771627178
40
0.162499771627178
40
0.274856784219544
40
0.274856784219544
40
0.387213796811909
40
0.387213796811909
40
0.499570809404274
40
0.499570809404274
40
0.555749315700457
40
0.555749315700457
40
0.611927821996639
40
0.611927821996639
40
0.724284834589004
40
0.724284834589004
40
0.836641847181369
40
0.836641847181369
40
0.948998859773735
40
0.948998859773735
40
1
40
1
40
1
40
1
41
1
10
-24
20
12.5805081855686
30
0
41
1
10
-24
20
12.5752826568088
30
0
41
1
10
-24
20
12.5048481115291
30
0
41
1
10
-24
20
12.1268240366655
30
0
41
1
10
-24
20
11.6069824914266
30
0
41
1
10
-24
20
10.2308904791419
30
0
41
1
10
-23.9999999999999
20
9.3350510096983
30
0
41
1
10
-24
20
7.25451337711701
30
0
41
1
10
-24
20
6.03406201720802
30
0
41
1
10
-23.9999999999999
20
3.29058259471469
30
0
41
1
10
-23.9999999999999
20
1.73762162493182
30
0
41
1
10
-23.9999999999999
20
-0.765894734704204
30
0
41
1
10
-23.9999999999999
20
-1.58205517513369
30
0
41
1
10
-24
20
-3.14126978157822
30
0
41
1
10
-23.9999999999999
20
-3.8725832985441
30
0
41
1
10
-24
20
-5.96204061486441
30
0
41
1
10
-24
20
-7.16781782016216
30
0
41
1
10
-24
20
-9.29720085705901
30
0
41
1
10
-24
20
-10.1768487891987
30
0
41
1
10
-24
20
-11.5892073073507
30
0
41
1
10
-24
20
-12.1068779312492
30
0
41
1
10
-24
20
-12.4983591896839
30
0
41
1
10
-24
20
-12.5722980900073
30
0
41
1
10
-24
20
-12.578906814485
30
0
0
SPLINE
5
EB
100
AcDbEntity
8
SK1
62
256
6
ByLayer
370
-1
48
1
60
0
100
AcDbSpline
70
4
71
3
72
32
73
28
40
0
40
0
40
0
40
0
40
0.343889632240037
40
0.343889632240037
40
0.424881203786091
40
0.424881203786091
40
0.45219319517405
40
0.45219319517405
40
0.473746524143709
40
0.473746524143709
40
0.495563509153789
40
0.495563509153789
40
0.504202913264278
40
0.504202913264278
40
0.510236809227349
40
0.510236809227349
40
0.516312447398371
40
0.516312447398371
40
0.523454548652051
40
0.523454548652051
40
0.535565299712341
40
0.535565299712341
40
0.57300444614615
40
0.57300444614615
40
0.744007987780293
40
0.744007987780293
40
1
40
1
40
1
40
1
41
1
10
-1.49999999999989
20
-2.55452633951475
30
0
41
1
10
-1.52085985378923
20
-2.43017154880397
30
0
41
1
10
-1.54277848657128
20
-2.30539150900933
30
0
41
1
10
-1.58054446546703
20
-2.15690281341079
30
0
41
1
10
-1.58828317908851
20
-2.12879825114811
30
0
41
1
10
-1.60072712650165
20
-2.09279395763306
30
0
41
1
10
-1.60406058795391
20
-2.08384105107302
30
0
41
1
10
-1.61062680538262
20
-2.06838289745696
30
0
41
1
10
-1.6137338099156
20
-2.06173130148738
30
0
41
1
10
-1.62074858386092
20
-2.04929690476194
30
0
41
1
10
-1.6246915213566
20
-2.04329967204669
30
0
41
1
10
-1.63143983836963
20
-2.03738508207587
30
0
41
1
10
-1.6335507648601
20
-2.03598317715259
30
0
41
1
10
-1.63737876424599
20
-2.03469617825761
30
0
41
1
10
-1.63905717359933
20
-2.03448731940549
30
0
41
1
10
-1.64239270814321
20
-2.0349385986527
30
0
41
1
10
-1.64408889405067
20
-2.03561765464858
30
0
41
1
10
-1.64749825596724
20
-2.03787010124455
30
0
41
1
10
-1.64921667651578
20
-2.03959185511141
30
0
41
1
10
-1.65333511326014
20
-2.04482054191681
30
0
41
1
10
-1.65549701098459
20
-2.04879885431208
30
0
41
1
10
-1.66311966371092
20
-2.06550748630016
30
0
41
1
10
-1.66673415611749
20
-2.07974527657228
30
0
41
1
10
-1.68385102741172
20
-2.1575921539345
30
0
41
1
10
-1.68804814437192
20
-2.22386329884722
30
0
41
1
10
-1.69782346255605
20
-2.3865563041347
30
0
41
1
10
-1.69965656225776
20
-2.48393126749517
30
0
41
1
10
-1.69996145716266
20
-2.58068890323847
30
0
0
SPLINE
5
EC
100
AcDbEntity
8
SK1
62
256
6
ByLayer
370
-1
48
1
60
0
100
AcDbSpline
70
4
71
3
72
73
73
69
40
0
40
0
40
0
40
0
40
0.0021269020719405
40
0.0175876600197906
40
0.0330484179676406
40
0.0485091759154907
40
0.0639699338633408
40
0.0794306918111909
40
0.094891449759041
40
0.110352207706891
40
0.125812965654741
40
0.141273723602591
40
0.156734481550441
40
0.172195239498291
40
0.187655997446142
40
0.203116755393992
40
0.218577513341842
40
0.234038271289692
40
0.249499029237542
40
0.264959787185392
40
0.280420545133242
40
0.295881303081092
40
0.311342061028942
40
0.326802818976792
40
0.342263576924642
40
0.357724334872492
40
0.373185092820343
40
0.388645850768193
40
0.404106608716043
40
0.419567366663893
40
0.435028124611743
40
0.450488882559593
40
0.465949640507443
40
0.481410398455293
40
0.496871156403143
40
0.512331914350993
40
0.527792672298843
40
0.543253430246694
40
0.558714188194544
40
0.574174946142394
40
0.589635704090244
40
0.605096462038094
40
0.620557219985944
40
0.636017977933794
40
0.651478735881644
40
0.666939493829494
40
0.682400251777344
40
0.697861009725194
40
0.713321767673045
40
0.728782525620895
40
0.744243283568745
40
0.759704041516595
40
0.775164799464445
40
0.790625557412295
40
0.806086315360145
40
0.821547073307995
40
0.837007831255845
40
0.852468589203695
40
0.867929347151546
40
0.883390105099395
40
0.898850863047245
40
0.914311620995096
40
0.929772378942946
40
0.945233136890796
40
0.960693894838646
40
0.976154652786496
40
0.991615410734346
40
1
40
1
40
1
40
1
41
1
10
-22.5004731679057
20
13.2758819182787
30
0
41
1
10
-22.5004731679057
20
13.2802062548795
30
0
41
1
10
-22.5004731679057
20
13.31559543813
30
0
41
1
10
-22.5004731679057
20
13.3761852100001
30
0
41
1
10
-22.5004731679057
20
13.4428288363681
30
0
41
1
10
-22.5004731679057
20
13.4866768366259
30
0
41
1
10
-22.5004731679057
20
13.5029401449552
30
0
41
1
10
-22.5004731679057
20
13.4866735728523
30
0
41
1
10
-22.5004731679057
20
13.4330108195395
30
0
41
1
10
-22.5004731679057
20
13.337397000512
30
0
41
1
10
-22.5004731679057
20
13.1958202698685
30
0
41
1
10
-22.5004731679057
20
13.0050138959382
30
0
41
1
10
-22.5004731679057
20
12.7626398072662
30
0
41
1
10
-22.5004731679057
20
12.4674309788965
30
0
41
1
10
-22.5004731679057
20
12.1192984726134
30
0
41
1
10
-22.5004731679057
20
11.7193888839714
30
0
41
1
10
-22.5004731679057
20
11.2700975146
30
0
41
1
10
-22.5004731679057
20
10.7750305295073
30
0
41
1
10
-22.5004731679057
20
10.2389206082719
30
0
41
1
10
-22.5004731679056
20
9.66749825781358
30
0
41
1
10
-22.5004731679056
20
9.06732135073148
30
0
41
1
10
-22.5004731679056
20
8.44557410053281
30
0
41
1
10
-22.5004731679056
20
7.80983526623564
30
0
41
1
10
-22.5004731679056
20
7.16783457729306
30
0
41
1
10
-22.5004731679056
20
6.52719401685732
30
0
41
1
10
-22.5004731679056
20
5.89517825258659
30
0
41
1
10
-22.5004731679056
20
5.27844782766641
30
0
41
1
10
-22.5004731679056
20
4.68284136974694
30
0
41
1
10
-22.5004731679056
20
4.11317803178852
30
0
41
1
10
-22.5004731679056
20
3.57310471645678
30
0
41
1
10
-22.5004731679056
20
3.06497793170669
30
0
41
1
10
-22.5004731679056
20
2.58979965981251
30
0
41
1
10
-22.5004731679056
20
2.14719700401545
30
0
41
1
10
-22.5004731679056
20
1.73545710126746
30
0
41
1
10
-22.5004731679056
20
1.35160831830677
30
0
41
1
10
-22.5004731679056
20
0.99154975841634
30
0
41
1
10
-22.5004731679056
20
0.650222532349147
30
0
41
1
10
-22.5004731679056
20
0.321815193057716
30
0
41
1
10
-22.5004731679056
20
6.8677366E-08
30
0
41
1
10
-22.5004731679056
20
-0.321815467767209
30
0
41
1
10
-22.5004731679056
20
-0.6502224058938
30
0
41
1
10
-22.5004731679056
20
-0.991549989528409
30
0
41
1
10
-22.5004731679056
20
-1.35160822294216
30
0
41
1
10
-22.5004731679056
20
-1.73545725161398
30
0
41
1
10
-22.5004731679056
20
-2.147196955358
30
0
41
1
10
-22.5004731679056
20
-2.58979970409598
30
0
41
1
10
-22.5004731679056
20
-3.06497793851142
30
0
41
1
10
-22.5004731679056
20
-3.57310464495464
30
0
41
1
10
-22.5004731679056
20
-4.11317809469654
30
0
41
1
10
-22.5004731679056
20
-4.68284118961728
30
0
41
1
10
-22.5004731679056
20
-5.27844793917419
30
0
41
1
10
-22.5004731679056
20
-5.8951779866853
30
0
41
1
10
-22.5004731679056
20
-6.52719416250756
30
0
41
1
10
-22.5004731679056
20
-7.16783426059354
30
0
41
1
10
-22.5004731679056
20
-7.80983542682932
30
0
41
1
10
-22.5004731679056
20
-8.44557377485773
30
0
41
1
10
-22.5004731679056
20
-9.06732150524965
30
0
41
1
10
-22.5004731679056
20
-9.66749796541603
30
0
41
1
10
-22.5004731679057
20
-10.2389207370426
30
0
41
1
10
-22.5004731679057
20
-10.7750303068224
30
0
41
1
10
-22.5004731679057
20
-11.2700976022241
30
0
41
1
10
-22.5004731679057
20
-11.7193887561596
30
0
41
1
10
-22.5004731679057
20
-12.1192985102377
30
0
41
1
10
-22.5004731679057
20
-12.4674309562112
30
0
41
1
10
-22.5004731679057
20
-12.7626397938224
30
0
41
1
10
-22.5004731679057
20
-13.0050139723987
30
0
41
1
10
-22.5004731679057
20
-13.1667104461118
30
0
41
1
10
-22.5004731679057
20
-13.2452876126088
30
0
41
1
10
-22.5004731679057
20
-13.2705909219918
30
0
0
SPLINE
5
ED
100
AcDbEntity
8
SK1
62
256
6
ByLayer
370
-1
48
1
60
0
100
AcDbSpline
70
4
71
3
72
36
73
32
40
0
40
0
40
0
40
0
40
0.0332996421668992
40
0.0332996421668992
40
0.0866295922423514
40
0.0866295922423514
40
0.193745270170427
40
0.193745270170427
40
0.247042319250746
40
0.247042319250746
40
0.300332977595313
40
0.300332977595313
40
0.353619292124248
40
0.353619292124248
40
0.460448184653514
40
0.460448184653514
40
0.513730575829645
40
0.513730575829645
40
0.620535716615793
40
0.620535716615793
40
0.673818292229039
40
0.673818292229039
40
0.727102323613187
40
0.727102323613187
40
0.833958376073233
40
0.833958376073233
40
0.887248781073952
40
0.887248781073952
40
0.994263406450817
40
0.994263406450817
40
1
40
1
40
1
40
1
41
1
10
-1.69996145737016
20
2.58069190327936
30
0
41
1
10
-1.69996429163038
20
2.80951695785709
30
0
41
1
10
-1.69996696089558
20
3.03562557775425
30
0
41
1
10
-1.699973337193
20
3.6157289366447
30
0
41
1
10
-1.69997671926922
20
3.96552379997851
30
0
41
1
10
-1.69998530650679
20
4.99113580073313
30
0
41
1
10
-1.69998901558614
20
5.6451156934246
30
0
41
1
10
-1.69999286236259
20
6.57296958257461
30
0
41
1
10
-1.69999386162712
20
6.87371338526046
30
0
41
1
10
-1.69999546843783
20
7.4583834927808
30
0
41
1
10
-1.69999607823138
20
7.74261790611689
30
0
41
1
10
-1.69999703744654
20
8.29417338948343
30
0
41
1
10
-1.69999738660749
20
8.56175046472268
30
0
41
1
10
-1.69999817831075
20
9.33946452185438
30
0
41
1
10
-1.69999837743333
20
9.82518649337788
30
0
41
1
10
-1.69999839575107
20
10.4996879381028
30
0
41
1
10
-1.69999835090127
20
10.7156644660853
30
0
41
1
10
-1.69999804475921
20
11.336874457689
30
0
41
1
10
-1.69999762619807
20
11.7157820313895
30
0
41
1
10
-1.69999631259481
20
12.2254945281863
30
0
41
1
10
-1.69999575688217
20
12.385732211918
30
0
41
1
10
-1.69999429236034
20
12.686096780789
30
0
41
1
10
-1.69999338656007
20
12.8263310062018
30
0
41
1
10
-1.69998989513294
20
13.2157140959206
30
0
41
1
10
-1.69998657603577
20
13.4338327645562
30
0
41
1
10
-1.69997869923833
20
13.6890552895256
30
0
41
1
10
-1.69997557888936
20
13.7622199088226
30
0
41
1
10
-1.69996421209731
20
13.9433027119529
30
0
41
1
10
-1.69995396430045
20
14.0130768516047
30
0
41
1
10
-1.69993838351951
20
14.019951428195
30
0
41
1
10
-1.69993757578195
20
14.0201187474204
30
0
41
1
10
-1.69993675425064
20
14.0201000442184
30
0
0
SPLINE
5
EE
100
AcDbEntity
8
SK1
62
256
6
ByLayer
370
-1
48
1
60
0
100
AcDbSpline
70
4
71
3
72
30
73
26
40
0
40
0
40
0
40
0
40
0.323683715287821
40
0.323683715287821
40
0.409735865249923
40
0.409735865249923
40
0.452928625832081
40
0.452928625832081
40
0.468145406180671
40
0.468145406180671
40
0.475617260213128
40
0.475617260213128
40
0.481869520397867
40
0.481869520397867
40
0.48817626052579
40
0.48817626052579
40
0.495259728072395
40
0.495259728072395
40
0.507216161807773
40
0.507216161807773
40
0.544450808915845
40
0.544450808915845
40
0.715771905876251
40
0.715771905876251
40
1
40
1
40
1
40
1
41
1
10
-1.69996145737014
20
2.58069190327925
30
0
41
1
10
-1.69957279427672
20
2.45735174741614
30
0
41
1
10
-1.69747943572614
20
2.33275959372483
30
0
41
1
10
-1.68280786661543
20
2.17510563663223
30
0
41
1
10
-1.67905312643578
20
2.14178513841156
30
0
41
1
10
-1.66982584439811
20
2.09257517130857
30
0
41
1
10
-1.66622418704014
20
2.07599882381985
30
0
41
1
10
-1.65853526999027
20
2.05523575475587
30
0
41
1
10
-1.65621727335139
20
2.04990011502019
30
0
41
1
10
-1.65190392784498
20
2.04295844851055
30
0
41
1
10
-1.65031465018177
20
2.04081354663947
30
0
41
1
10
-1.64708474378222
20
2.03758976610058
30
0
41
1
10
-1.64546025470034
20
2.03637666738331
30
0
41
1
10
-1.64208683909158
20
2.03484515225668
30
0
41
1
10
-1.64029350998899
20
2.0345257545506
30
0
41
1
10
-1.63665124005524
20
2.03480200364953
30
0
41
1
10
-1.63476836522864
20
2.03549609263416
30
0
41
1
10
-1.63011332934306
20
2.03820563111981
30
0
41
1
10
-1.62749907113707
20
2.04079535648785
30
0
41
1
10
-1.61785331798274
20
2.05253646839518
30
0
41
1
10
-1.61239259265159
20
2.06415551700681
30
0
41
1
10
-1.58481103440909
20
2.12952424336697
30
0
41
1
10
-1.57120245893441
20
2.19071878810982
30
0
41
1
10
-1.53537272921412
20
2.35076653698448
30
0
41
1
10
-1.51709733996256
20
2.45260526361207
30
0
41
1
10
-1.49999999999989
20
2.55452876952825
30
0
0
SPLINE
5
EF
100
AcDbEntity
8
SK1
62
256
6
ByLayer
370
-1
48
1
60
0
100
AcDbSpline
70
4
71
3
72
27
73
23
40
0
40
0
40
0
40
0
40
0.0373491017404509
40
0.0884223864815621
40
0.139495671222673
40
0.190568955963784
40
0.241642240704896
40
0.292715525446007
40
0.343788810187118
40
0.394862094928229
40
0.44593537966934
40
0.497008664410451
40
0.548081949151563
40
0.599155233892674
40
0.650228518633785
40
0.701301803374896
40
0.752375088116007
40
0.803448372857118
40
0.854521657598229
40
0.905594942339341
40
0.956668227080452
40
1
40
1
40
1
40
1
41
1
10
-0.399999999999977
20
13.7965930683186
30
0
41
1
10
-0.399999999999977
20
13.7852940850967
30
0
41
1
10
-0.399999999999977
20
13.7501746952189
30
0
41
1
10
-0.399999999999949
20
13.6607745146452
30
0
41
1
10
-0.399999999999949
20
13.5152595834079
30
0
41
1
10
-0.399999999999949
20
13.3190171661248
30
0
41
1
10
-0.399999999999949
20
13.0696050793313
30
0
41
1
10
-0.399999999999949
20
12.765695711353
30
0
41
1
10
-0.399999999999949
20
12.4071875173709
30
0
41
1
10
-0.399999999999949
20
11.9952649527342
30
0
41
1
10
-0.399999999999949
20
11.5324121673266
30
0
41
1
10
-0.39999999999992
20
11.0223736645665
30
0
41
1
10
-0.39999999999992
20
10.470066387995
30
0
41
1
10
-0.39999999999992
20
9.88144573908428
30
0
41
1
10
-0.39999999999992
20
9.26332794093628
30
0
41
1
10
-0.39999999999992
20
8.62318069742537
30
0
41
1
10
-0.39999999999992
20
7.96888164701966
30
0
41
1
10
-0.39999999999992
20
7.30846469728445
30
0
41
1
10
-0.39999999999992
20
6.64985041554638
30
0
41
1
10
-0.39999999999992
20
6.00058612356241
30
0
41
1
10
-0.39999999999992
20
5.39957119182188
30
0
41
1
10
-0.39999999999992
20
5.02226907709914
30
0
41
1
10
-0.39999999999992
20
4.85227506835238
30
0
0
SPLINE
5
F0
100
AcDbEntity
8
SK1
62
256
6
ByLayer
370
-1
48
1
60
0
100
AcDbSpline
70
4
71
3
72
24
73
20
40
0
40
0
40
0
40
0
40
0.394875644104776
40
0.394875644104776
40
0.580237478202818
40
0.580237478202818
40
0.768024594545524
40
0.768024594545524
40
0.821318184582328
40
0.821318184582328
40
0.86063645050671
40
0.86063645050671
40
0.893544596745066
40
0.893544596745066
40
0.926376480305815
40
0.926376480305815
40
0.975583602956219
40
0.975583602956219
40
1
40
1
40
1
40
1
41
1
10
-1.30710678118703
20
-3.58871727154681
30
0
41
1
10
-1.25970314050051
20
-3.82268545505016
30
0
41
1
10
-1.20268951681544
20
-4.0522990637061
30
0
41
1
10
-1.088442965686
20
-4.37621064451773
30
0
41
1
10
-1.04721780763597
20
-4.47806704652851
30
0
41
1
10
-0.946498347972181
20
-4.67402400407769
30
0
41
1
10
-0.887649711538188
20
-4.77181850306434
30
0
41
1
10
-0.778611976213341
20
-4.87193345154523
30
0
41
1
10
-0.751538353604559
20
-4.89265008986257
30
0
41
1
10
-0.699050623103489
20
-4.92098681441374
30
0
41
1
10
-0.67456405913228
20
-4.93073454927372
30
0
41
1
10
-0.627610440444386
20
-4.94089837201273
30
0
41
1
10
-0.604990345651117
20
-4.94257917258165
30
0
41
1
10
-0.561019153025597
20
-4.93928086468458
30
0
41
1
10
-0.539185873337146
20
-4.9343220454893
30
0
41
1
10
-0.488505513252846
20
-4.91611333631423
30
0
41
1
10
-0.460609299544473
20
-4.89990010346509
30
0
41
1
10
-0.423195770996898
20
-4.87233551414784
30
0
41
1
10
-0.411325532072311
20
-4.86251297160928
30
0
41
1
10
-0.39999999999992
20
-4.85227456454996
30
0
0
SPLINE
5
F1
100
AcDbEntity
8
SK1
62
256
6
ByLayer
370
-1
48
1
60
0
100
AcDbSpline
70
4
71
3
72
22
73
18
40
0
40
0
40
0
40
0
40
0.0453538571579231
40
0.0453538571579231
40
0.0914518524267671
40
0.0914518524267671
40
0.124365048640693
40
0.124365048640693
40
0.157186848928651
40
0.157186848928651
40
0.206991933628443
40
0.206991933628443
40
0.302636793523901
40
0.302636793523901
40
0.633583445149988
40
0.633583445149988
40
1
40
1
40
1
40
1
41
1
10
-0.39999999999992
20
4.85227506835233
30
0
41
1
10
-0.420964880828222
20
4.87122754186862
30
0
41
1
10
-0.443888117925155
20
4.88887456363264
30
0
41
1
10
-0.494495022291204
20
4.91840151431526
30
0
41
1
10
-0.52299513623484
20
4.93045451470871
30
0
41
1
10
-0.574401278620741
20
4.94114219540694
30
0
41
1
10
-0.597076224252902
20
4.9426164760024
30
0
41
1
10
-0.641056311684366
20
4.93891494651641
30
0
41
1
10
-0.662845886446405
20
4.9337627063027
30
0
41
1
10
-0.71376347581031
20
4.91501929832424
30
0
41
1
10
-0.741856008482671
20
4.89837342492686
30
0
41
1
10
-0.814978349041638
20
4.84361103162897
30
0
41
1
10
-0.854317961498367
20
4.79908644376556
30
0
41
1
10
-1.00688542665307
20
4.59427172963152
30
0
41
1
10
-1.0791858799123
20
4.40986442942582
30
0
41
1
10
-1.21067514066451
20
4.01906025534171
30
0
41
1
10
-1.26311821358462
20
3.80583052169118
30
0
41
1
10
-1.30710678118919
20
3.58871725124908
30
0
0
SPLINE
5
F2
100
AcDbEntity
8
SK1
62
256
6
ByLayer
370
-1
48
1
60
0
100
AcDbSpline
70
4
71
3
72
33
73
29
40
0
40
0
40
0
40
0
40
0.0324085629669046
40
0.0724748852858421
40
0.11254120760478
40
0.152607529923717
40
0.192673852242655
40
0.232740174561592
40
0.27280649688053
40
0.312872819199467
40
0.352939141518405
40
0.393005463837342
40
0.43307178615628
40
0.473138108475217
40
0.513204430794155
40
0.553270753113092
40
0.59333707543203
40
0.633403397750968
40
0.673469720069905
40
0.713536042388843
40
0.75360236470778
40
0.793668687026718
40
0.833735009345655
40
0.873801331664593
40
0.91386765398353
40
0.953933976302468
40
0.994000298621405
40
1
40
1
40
1
40
1
41
1
10
-1.49999999999997
20
13.8245317696661
30
0
41
1
10
-1.49999999999994
20
13.8227864651045
30
0
41
1
10
-1.49999999999997
20
13.8105223078277
30
0
41
1
10
-1.49999999999994
20
13.7589702687857
30
0
41
1
10
-1.49999999999994
20
13.6607745146452
30
0
41
1
10
-1.49999999999994
20
13.5152595834079
30
0
41
1
10
-1.49999999999994
20
13.3190171661248
30
0
41
1
10
-1.49999999999994
20
13.0696050793313
30
0
41
1
10
-1.49999999999994
20
12.765695711353
30
0
41
1
10
-1.49999999999991
20
12.4071875173709
30
0
41
1
10
-1.49999999999991
20
11.9952649527342
30
0
41
1
10
-1.49999999999991
20
11.5324121673266
30
0
41
1
10
-1.49999999999991
20
11.0223736645665
30
0
41
1
10
-1.49999999999991
20
10.470066387995
30
0
41
1
10
-1.49999999999991
20
9.88144573908428
30
0
41
1
10
-1.49999999999991
20
9.26332794093628
30
0
41
1
10
-1.49999999999991
20
8.62318069742537
30
0
41
1
10
-1.49999999999991
20
7.96888164701966
30
0
41
1
10
-1.49999999999991
20
7.30846469728445
30
0
41
1
10
-1.49999999999989
20
6.64985041554638
30
0
41
1
10
-1.49999999999989
20
6.00058612356241
30
0
41
1
10
-1.49999999999989
20
5.36758867042255
30
0
41
1
10
-1.49999999999989
20
4.75691763797596
30
0
41
1
10
-1.49999999999989
20
4.17356939352865
30
0
41
1
10
-1.49999999999989
20
3.62131845460988
30
0
41
1
10
-1.49999999999989
20
3.10259083011954
30
0
41
1
10
-1.49999999999989
20
2.75563447873756
30
0
41
1
10
-1.49999999999989
20
2.57759088990096
30
0
41
1
10
-1.49999999999989
20
2.55452876952825
30
0
0
SPLINE
5
F3
100
AcDbEntity
8
SK1
62
256
6
ByLayer
370
-1
48
1
60
0
100
AcDbSpline
70
4
71
3
72
79
73
75
40
0
40
0
40
0
40
0
40
0.0069311071778941
40
0.0210187899511214
40
0.0351064727243487
40
0.0491941554975761
40
0.0632818382708034
40
0.0773695210440307
40
0.091457203817258
40
0.105544886590485
40
0.119632569363713
40
0.13372025213694
40
0.147807934910167
40
0.161895617683394
40
0.175983300456622
40
0.190070983229849
40
0.204158666003076
40
0.218246348776304
40
0.232334031549531
40
0.246421714322758
40
0.260509397095986
40
0.274597079869213
40
0.28868476264244
40
0.302772445415668
40
0.316860128188895
40
0.330947810962122
40
0.345035493735349
40
0.359123176508577
40
0.373210859281804
40
0.387298542055031
40
0.401386224828259
40
0.415473907601486
40
0.429561590374713
40
0.443649273147941
40
0.457736955921168
40
0.471824638694395
40
0.485912321467622
40
0.50000000424085
40
0.514087687014077
40
0.528175369787304
40
0.542263052560532
40
0.556350735333759
40
0.570438418106986
40
0.584526100880214
40
0.598613783653441
40
0.612701466426668
40
0.626789149199896
40
0.640876831973123
40
0.65496451474635
40
0.669052197519577
40
0.683139880292805
40
0.697227563066032
40
0.711315245839259
40
0.725402928612487
40
0.739490611385714
40
0.753578294158941
40
0.767665976932169
40
0.781753659705396
40
0.795841342478623
40
0.809929025251851
40
0.824016708025078
40
0.838104390798305
40
0.852192073571532
40
0.86627975634476
40
0.880367439117987
40
0.894455121891214
40
0.908542804664442
40
0.922630487437669
40
0.936718170210896
40
0.950805852984124
40
0.964893535757351
40
0.978981218530578
40
0.993068901303805
40
1
40
1
40
1
40
1
41
1
10
-2.5
20
-13.8300380029658
30
0
41
1
10
-2.5
20
-13.8443994560473
30
0
41
1
10
-2.5
20
-13.8858550860173
30
0
41
1
10
-2.5
20
-13.9432745301022
30
0
41
1
10
-2.5
20
-13.9887542441536
30
0
41
1
10
-2.5
20
-14.0056234056246
30
0
41
1
10
-2.5
20
-13.988752133348
30
0
41
1
10
-2.5
20
-13.9330904587156
30
0
41
1
10
-2.5
20
-13.8339177083708
30
0
41
1
10
-2.5
20
-13.6870701821128
30
0
41
1
10
-2.49999999999997
20
-13.4891606659135
30
0
41
1
10
-2.49999999999997
20
-13.2377634553435
30
0
41
1
10
-2.49999999999997
20
-12.9315646731672
30
0
41
1
10
-2.49999999999997
20
-12.5704720586786
30
0
41
1
10
-2.49999999999997
20
-12.1556745862519
30
0
41
1
10
-2.49999999999997
20
-11.6896573582757
30
0
41
1
10
-2.49999999999997
20
-11.1761598486008
30
0
41
1
10
-2.49999999999997
20
-10.6200921552756
30
0
41
1
10
-2.49999999999994
20
-10.0273966309962
30
0
41
1
10
-2.49999999999994
20
-9.40487698463008
30
0
41
1
10
-2.49999999999994
20
-8.75998301936997
30
0
41
1
10
-2.49999999999994
20
-8.10057759802723
30
0
41
1
10
-2.49999999999994
20
-7.43467620819112
30
0
41
1
10
-2.49999999999994
20
-6.77018655593477
30
0
41
1
10
-2.49999999999994
20
-6.11464187468977
30
0
41
1
10
-2.49999999999994
20
-5.47495238907831
30
0
41
1
10
-2.49999999999994
20
-4.85717257311447
30
0
41
1
10
-2.49999999999994
20
-4.26630223424849
30
0
41
1
10
-2.49999999999994
20
-3.70612309484702
30
0
41
1
10
-2.49999999999994
20
-3.17908000235968
30
0
41
1
10
-2.49999999999994
20
-2.68621197756718
30
0
41
1
10
-2.49999999999994
20
-2.22713214869714
30
0
41
1
10
-2.49999999999994
20
-1.80006432484655
30
0
41
1
10
-2.49999999999994
20
-1.40192548161284
30
0
41
1
10
-2.49999999999994
20
-1.02846311010666
30
0
41
1
10
-2.49999999999994
20
-0.674428687296569
30
0
41
1
10
-2.49999999999994
20
-0.333795915844576
30
0
41
1
10
-2.49999999999994
20
7.12340693E-08
30
0
41
1
10
-2.49999999999994
20
0.333795630908241
30
0
41
1
10
-2.49999999999994
20
0.674428818459575
30
0
41
1
10
-2.49999999999994
20
1.02846287039082
30
0
41
1
10
-2.49999999999994
20
1.40192558052763
30
0
41
1
10
-2.49999999999994
20
1.80006416890296
30
0
41
1
10
-2.49999999999994
20
2.22713219916599
30
0
41
1
10
-2.49999999999994
20
2.68621193163514
30
0
41
1
10
-2.49999999999994
20
3.17907999530164
30
0
41
1
10
-2.49999999999994
20
3.70612316901105
30
0
41
1
10
-2.49999999999994
20
4.26630216899858
30
0
41
1
10
-2.49999999999994
20
4.85717275994992
30
0
41
1
10
-2.49999999999994
20
5.47495227341935
30
0
41
1
10
-2.49999999999994
20
6.11464215048997
30
0
41
1
10
-2.49999999999994
20
6.7701864048623
30
0
41
1
10
-2.49999999999994
20
7.43467653668063
30
0
41
1
10
-2.49999999999994
20
8.10057743145504
30
0
41
1
10
-2.49999999999994
20
8.75998335716918
30
0
41
1
10
-2.49999999999994
20
9.40487682435958
30
0
41
1
10
-2.49999999999997
20
10.027396934279
30
0
41
1
10
-2.49999999999997
20
10.6200920217111
30
0
41
1
10
-2.49999999999997
20
11.1761600795757
30
0
41
1
10
-2.49999999999997
20
11.6896572673894
30
0
41
1
10
-2.49999999999997
20
12.1556747188218
30
0
41
1
10
-2.49999999999997
20
12.5704720196536
30
0
41
1
10
-2.49999999999997
20
12.931564696697
30
0
41
1
10
-2.49999999999997
20
13.2377634692878
30
0
41
1
10
-2.49999999999997
20
13.4891605866066
30
0
41
1
10
-2.5
20
13.6870702420279
30
0
41
1
10
-2.5
20
13.8339175480175
30
0
41
1
10
-2.5
20
13.9330908491367
30
0
41
1
10
-2.5
20
13.9887513430622
30
0
41
1
10
-2.5
20
14.0056234821498
30
0
41
1
10
-2.5
20
13.9887547283385
30
0
41
1
10
-2.5
20
13.9432743681012
30
0
41
1
10
-2.5
20
13.8858549220369
30
0
41
1
10
-2.5
20
13.8443994037607
30
0
41
1
10
-2.49999999999997
20
13.8300379971563
30
0
0
SPLINE
5
F4
100
AcDbEntity
8
SK1
62
256
6
ByLayer
370
-1
48
1
60
0
100
AcDbSpline
70
4
71
3
72
27
73
23
40
0
40
0
40
0
40
0
40
0.043331847602828
40
0.0944051784798329
40
0.145478509356838
40
0.196551840233843
40
0.247625171110848
40
0.298698501987852
40
0.349771832864857
40
0.400845163741862
40
0.451918494618867
40
0.502991825495872
40
0.554065156372877
40
0.605138487249882
40
0.656211818126886
40
0.707285149003891
40
0.758358479880896
40
0.809431810757901
40
0.860505141634906
40
0.911578472511911
40
0.962651803388915
40
1
40
1
40
1
40
1
41
1
10
-0.39999999999992
20
-4.85227456455002
30
0
41
1
10
-0.39999999999992
20
-5.02226873502778
30
0
41
1
10
-0.39999999999992
20
-5.3995711445526
30
0
41
1
10
-0.39999999999992
20
-6.00058584498379
30
0
41
1
10
-0.39999999999992
20
-6.64985057156352
30
0
41
1
10
-0.39999999999992
20
-7.30846436616247
30
0
41
1
10
-0.39999999999992
20
-7.96888181888042
30
0
41
1
10
-0.39999999999992
20
-8.62318035716163
30
0
41
1
10
-0.39999999999992
20
-9.26332810646636
30
0
41
1
10
-0.39999999999992
20
-9.88144543350359
30
0
41
1
10
-0.39999999999992
20
-10.4700665265398
30
0
41
1
10
-0.39999999999992
20
-11.022373431452
30
0
41
1
10
-0.399999999999949
20
-11.5324122627522
30
0
41
1
10
-0.399999999999949
20
-11.9952648181666
30
0
41
1
10
-0.399999999999949
20
-12.4071875603976
30
0
41
1
10
-0.399999999999949
20
-12.7656956859389
30
0
41
1
10
-0.399999999999949
20
-13.0696050688166
30
0
41
1
10
-0.399999999999949
20
-13.3190172436223
30
0
41
1
10
-0.399999999999949
20
-13.5152595263794
30
0
41
1
10
-0.399999999999949
20
-13.6607746658667
30
0
41
1
10
-0.399999999999949
20
-13.7501737648923
30
0
41
1
10
-0.399999999999977
20
-13.7852935510315
30
0
41
1
10
-0.399999999999977
20
-13.7965925646374
30
0
0
SPLINE
5
F5
100
AcDbEntity
8
SK1
62
256
6
ByLayer
370
-1
48
1
60
0
100
AcDbSpline
70
4
71
3
72
22
73
18
40
0
40
0
40
0
40
0
40
0.0595258214859749
40
0.0595258214859749
40
0.105568894829542
40
0.105568894829542
40
0.142277186834195
40
0.142277186834195
40
0.178981358892531
40
0.178981358892531
40
0.229954859327683
40
0.229954859327683
40
0.321691642303062
40
0.321691642303062
40
0.6121678123505
40
0.6121678123505
40
1
40
1
40
1
40
1
41
1
10
-0.399999999999977
20
13.8205590132786
30
0
41
1
10
-0.394013511242747
20
13.8207198641373
30
0
41
1
10
-0.387438377041548
20
13.8211277948213
30
0
41
1
10
-0.374607857819029
20
13.8226095541097
30
0
41
1
10
-0.368494470268644
20
13.8235344490986
30
0
41
1
10
-0.357073302473168
20
13.8258132771122
30
0
41
1
10
-0.351741572367729
20
13.8270713477329
30
0
41
1
10
-0.34140996003066
20
13.8299215021952
30
0
41
1
10
-0.336294849042844
20
13.831543966011
30
0
41
1
10
-0.325054468279149
20
13.8355258548496
30
0
41
1
10
-0.319101901704443
20
13.8379842992552
30
0
41
1
10
-0.304411347490543
20
13.8446767815525
30
0
41
1
10
-0.296779548188397
20
13.8489171706104
30
0
41
1
10
-0.269692663824316
20
13.8655029311592
30
0
41
1
10
-0.257826564745358
20
13.8765532193897
30
0
41
1
10
-0.235124081103947
20
13.8999306105895
30
0
41
1
10
-0.225788536075328
20
13.9118728961634
30
0
41
1
10
-0.219011124100007
20
13.9226732108115
30
0
0
SPLINE
5
F6
100
AcDbEntity
8
SK1
62
256
6
ByLayer
370
-1
48
1
60
0
100
AcDbSpline
70
4
71
3
72
10
73
6
40
0
40
0
40
0
40
0
40
0.5
40
0.5
40
1
40
1
40
1
40
1
41
1
10
-1.69996145737096
20
2.58069190327947
30
0
41
1
10
-1.83066345631863
20
1.75993459600485
30
0
41
1
10
-1.92828862479948
20
0.882205733470045
30
0
41
1
10
-1.92884980393794
20
-0.873906280567809
30
0
41
1
10
-1.83183274904312
20
-1.75257870763846
30
0
41
1
10
-1.69996145715965
20
-2.5806889032381
30
0
0
SPLINE
5
F7
100
AcDbEntity
8
SK1
62
256
6
ByLayer
370
-1
48
1
60
0
100
AcDbSpline
70
4
71
3
72
33
73
29
40
0
40
0
40
0
40
0
40
0.005999917201375
40
0.0460661204279702
40
0.0861323236545653
40
0.12619852688116
40
0.166264730107755
40
0.206330933334351
40
0.246397136560946
40
0.286463339787541
40
0.326529543014136
40
0.366595746240731
40
0.406661949467326
40
0.446728152693921
40
0.486794355920516
40
0.526860559147111
40
0.566926762373707
40
0.606992965600302
40
0.647059168826897
40
0.687125372053492
40
0.727191575280087
40
0.767257778506682
40
0.807323981733277
40
0.847390184959872
40
0.887456388186467
40
0.927522591413062
40
0.967588794639658
40
1
40
1
40
1
40
1
41
1
10
-1.49999999999989
20
-2.55452633951475
30
0
41
1
10
-1.49999999999989
20
-2.57758935777625
30
0
41
1
10
-1.49999999999989
20
-2.75563386385181
30
0
41
1
10
-1.49999999999989
20
-3.10259085919483
30
0
41
1
10
-1.49999999999989
20
-3.62131828040256
30
0
41
1
10
-1.49999999999989
20
-4.17356946094313
30
0
41
1
10
-1.49999999999989
20
-4.75691744833273
30
0
41
1
10
-1.49999999999989
20
-5.36758879010387
30
0
41
1
10
-1.49999999999989
20
-6.00058584498379
30
0
41
1
10
-1.49999999999989
20
-6.64985057156352
30
0
41
1
10
-1.49999999999991
20
-7.30846436616247
30
0
41
1
10
-1.49999999999991
20
-7.96888181888042
30
0
41
1
10
-1.49999999999991
20
-8.62318035716163
30
0
41
1
10
-1.49999999999991
20
-9.26332810646636
30
0
41
1
10
-1.49999999999991
20
-9.88144543350359
30
0
41
1
10
-1.49999999999991
20
-10.4700665265398
30
0
41
1
10
-1.49999999999991
20
-11.022373431452
30
0
41
1
10
-1.49999999999991
20
-11.5324122627522
30
0
41
1
10
-1.49999999999991
20
-11.9952648181666
30
0
41
1
10
-1.49999999999991
20
-12.4071875603976
30
0
41
1
10
-1.49999999999994
20
-12.7656956859389
30
0
41
1
10
-1.49999999999994
20
-13.0696050688166
30
0
41
1
10
-1.49999999999994
20
-13.3190172436223
30
0
41
1
10
-1.49999999999994
20
-13.5152595263794
30
0
41
1
10
-1.49999999999994
20
-13.6607746658667
30
0
41
1
10
-1.49999999999994
20
-13.7589698929487
30
0
41
1
10
-1.49999999999994
20
-13.8105242759321
30
0
41
1
10
-1.49999999999994
20
-13.8227877021277
30
0
41
1
10
-1.49999999999994
20
-13.8245323395978
30
0
0
SPLINE
5
F8
100
AcDbEntity
8
SK1
62
256
6
ByLayer
370
-1
48
1
60
0
100
AcDbSpline
70
4
71
3
72
36
73
32
40
0
40
0
40
0
40
0
40
0.0609459679797774
40
0.0609459679797774
40
0.132350572983445
40
0.132350572983445
40
0.203732784323137
40
0.203732784323137
40
0.275101574809797
40
0.275101574809797
40
0.346462424969329
40
0.346462424969329
40
0.417819049792453
40
0.417819049792453
40
0.489174288114219
40
0.489174288114219
40
0.560530863047166
40
0.560530863047166
40
0.631891607752386
40
0.631891607752386
40
0.703260276788572
40
0.703260276788572
40
0.774642141230732
40
0.774642141230732
40
0.846046336363805
40
0.846046336363805
40
0.917489939234962
40
0.917489939234962
40
0.989010298502656
40
0.989010298502656
40
1
40
1
40
1
40
1
41
1
10
-1.69993712518539
20
-14.0200998908196
30
0
41
1
10
-1.69994579429311
20
-14.0197255439046
30
0
41
1
10
-1.69995293797186
20
-13.9984598300076
30
0
41
1
10
-1.699965968995
20
-13.912699878437
30
0
41
1
10
-1.69997144501835
20
-13.8412461697365
30
0
41
1
10
-1.69998026772575
20
-13.6540534429184
30
0
41
1
10
-1.69998362760808
20
-13.5381086536818
30
0
41
1
10
-1.69998893512073
20
-13.2660178923742
30
0
41
1
10
-1.69999089366294
20
-13.1096457528619
30
0
41
1
10
-1.69999393023608
20
-12.759718428774
30
0
41
1
10
-1.69999500206259
20
-12.5659031533754
30
0
41
1
10
-1.69999661222786
20
-12.1434156407086
30
0
41
1
10
-1.69999715099706
20
-11.9144442673658
30
0
41
1
10
-1.69999791606469
20
-11.4234052370848
30
0
41
1
10
-1.69999814136457
20
-11.1610105069826
30
0
41
1
10
-1.69999839419393
20
-10.6045273427662
30
0
41
1
10
-1.69999842180135
20
-10.310058909404
30
0
41
1
10
-1.69999829195729
20
-9.69048832766435
30
0
41
1
10
-1.69999813485148
20
-9.36495240576079
30
0
41
1
10
-1.69999754826782
20
-8.68408754721199
30
0
41
1
10
-1.69999711775765
20
-8.3282356479576
30
0
41
1
10
-1.6999957833763
20
-7.58734438932615
30
0
41
1
10
-1.69999487990981
20
-7.20167717645487
30
0
41
1
10
-1.69999225979791
20
-6.40163925188287
30
0
41
1
10
-1.69999054604449
20
-5.98644558449715
30
0
41
1
10
-1.6999858288633
20
-5.12780487492378
30
0
41
1
10
-1.69998281485047
20
-4.68321714982289
30
0
41
1
10
-1.69997494930925
20
-3.76648812038707
30
0
41
1
10
-1.69997003537304
20
-3.29259296387656
30
0
41
1
10
-1.69996330814757
20
-2.73138446680247
30
0
41
1
10
-1.6999623922878
20
-2.65618850451398
30
0
41
1
10
-1.69996145716257
20
-2.58068890323852
30
0
0
SPLINE
5
F9
100
AcDbEntity
8
SK1
62
256
6
ByLayer
370
-1
48
1
60
0
100
AcDbSpline
70
4
71
3
72
30
73
26
40
0
40
0
40
0
40
0
40
0.12489792239099
40
0.12489792239099
40
0.167561104039548
40
0.167561104039548
40
0.203477104541581
40
0.203477104541581
40
0.24010443932597
40
0.24010443932597
40
0.25094436898525
40
0.25094436898525
40
0.261968600588152
40
0.261968600588152
40
0.271359827231991
40
0.271359827231991
40
0.284980205918188
40
0.284980205918188
40
0.311241725528343
40
0.311241725528343
40
0.406685756992866
40
0.406685756992866
40
0.786544903778607
40
0.786544903778607
40
1
40
1
40
1
40
1
41
1
10
-1.5743420067262
20
13.5697524952529
30
0
41
1
10
-1.58142388217658
20
13.5659826201095
30
0
41
1
10
-1.58903635364726
20
13.5626863620185
30
0
41
1
10
-1.60130723593383
20
13.5605634744677
30
0
41
1
10
-1.60462784617891
20
13.5602351852046
30
0
41
1
10
-1.61136477270867
20
13.5603829527657
30
0
41
1
10
-1.6146830542956
20
13.5607248602462
30
0
41
1
10
-1.62228239094077
20
13.5626439304685
30
0
41
1
10
-1.62665165692866
20
13.5641658144187
30
0
41
1
10
-1.633716248285
20
13.5686250506848
30
0
41
1
10
-1.63548301786963
20
13.5698688039791
30
0
41
1
10
-1.639165556969
20
13.5728313577292
30
0
41
1
10
-1.64113772385812
20
13.5746110950765
30
0
41
1
10
-1.64462082807191
20
13.5781471549731
30
0
41
1
10
-1.64619573481406
20
13.5799049614575
30
0
41
1
10
-1.64972043997636
20
13.584157849073
30
0
41
1
10
-1.65159006135414
20
13.5866989919877
30
0
41
1
10
-1.65639599432834
20
13.5937562155754
30
0
41
1
10
-1.65888709683196
20
13.598117184021
30
0
41
1
10
-1.66876077054772
20
13.6169304791085
30
0
41
1
10
-1.67291602816357
20
13.6292362105215
30
0
41
1
10
-1.69081671913955
20
13.6869666460463
30
0
41
1
10
-1.69435307535019
20
13.7234530454499
30
0
41
1
10
-1.69876945362606
20
13.7776281868664
30
0
41
1
10
-1.69958314545906
20
13.7961831676943
30
0
41
1
10
-1.69987639962216
20
13.8139891097792
30
0
0
SPLINE
5
FA
100
AcDbEntity
8
1
62
256
6
ByLayer
370
-1
48
1
60
0
100
AcDbSpline
70
4
71
3
72
18
73
14
40
0
40
0
40
0
40
0
40
0.199851294247131
40
0.199851294247131
40
0.3762326624142
40
0.3762326624142
40
0.55444307592234
40
0.55444307592234
40
0.707902926106462
40
0.707902926106462
40
0.908562606470858
40
0.908562606470858
40
1
40
1
40
1
40
1
41
1
10
111.294090571593
20
16.7941573825763
30
0
41
1
10
111.335676310461
20
16.738833989663
30
0
41
1
10
111.38619222012
20
16.6884673494931
30
0
41
1
10
111.495308207995
20
16.6105039244231
30
0
41
1
10
111.553624532812
20
16.5801915683919
30
0
41
1
10
111.678225460613
20
16.5392352470519
30
0
41
1
10
111.746550072302
20
16.528418824126
30
0
41
1
10
111.871223167316
20
16.5294020323439
30
0
41
1
10
111.929402670622
20
16.5381821409788
30
0
41
1
10
112.055011854277
20
16.5740770347961
30
0
41
1
10
112.121987156746
20
16.6063385787024
30
0
41
1
10
112.208355307699
20
16.6647147268433
30
0
41
1
10
112.234203982855
20
16.684890578423
30
0
41
1
10
112.258481610769
20
16.7065117470943
30
0
0
SPLINE
5
FB
100
AcDbEntity
8
1
62
256
6
ByLayer
370
-1
48
1
60
0
100
AcDbSpline
70
4
71
3
72
16
73
12
40
0
40
0
40
0
40
0
40
0.188441855562232
40
0.188441855562232
40
0.411184270002341
40
0.411184270002341
40
0.64354406099346
40
0.64354406099346
40
0.895804229837036
40
0.895804229837036
40
1
40
1
40
1
40
1
41
1
10
113.329562189127
20
15.2308633806319
30
0
41
1
10
113.33160680099
20
15.2556047602351
30
0
41
1
10
113.330321101249
20
15.2806658745089
30
0
41
1
10
113.320563699266
20
15.3328393009983
30
0
41
1
10
113.310676452392
20
15.3601521060296
30
0
41
1
10
113.283213365021
20
15.4099970685037
30
0
41
1
10
113.265004476485
20
15.4329129624249
30
0
41
1
10
113.221747079123
20
15.4726348930941
30
0
41
1
10
113.1957296468
20
15.48927176034
30
0
41
1
10
113.156919526674
20
15.5061027447201
30
0
41
1
10
113.145229357996
20
15.5102696995673
30
0
41
1
10
113.133357757453
20
15.5136548499567
30
0
0
SPLINE
5
FC
100
AcDbEntity
8
1
62
256
6
ByLayer
370
-1
48
1
60
0
100
AcDbSpline
70
4
71
3
72
12
73
8
40
0
40
0
40
0
40
0
40
0.20020562196316
40
0.20020562196316
40
0.562109878639631
40
0.562109878639631
40
1
40
1
40
1
40
1
41
1
10
110.709463009212
20
16.0948370643672
30
0
41
1
10
110.724752183422
20
16.1236252885571
30
0
41
1
10
110.73802750921
20
16.1536768953663
30
0
41
1
10
110.769097040289
20
16.2394214110957
30
0
41
1
10
110.782148472995
20
16.2970880226939
30
0
41
1
10
110.796143732646
20
16.4225187384887
30
0
41
1
10
110.79428123984
20
16.4914049545207
30
0
41
1
10
110.7841540577
20
16.5572665530708
30
0
0
SPLINE
5
FD
100
AcDbEntity
8
1
62
256
6
ByLayer
370
-1
48
1
60
0
100
AcDbSpline
70
4
71
3
72
18
73
14
40
0
40
0
40
0
40
0
40
0.201901848552634
40
0.201901848552634
40
0.377912175349245
40
0.377912175349245
40
0.555727757924972
40
0.555727757924972
40
0.709098865946994
40
0.709098865946994
40
0.910108894593737
40
0.910108894593737
40
1
40
1
40
1
40
1
41
1
10
112.720695106726
20
16.3847175256049
30
0
41
1
10
112.696561878327
20
16.3173305953295
30
0
41
1
10
112.681280765966
20
16.244818703486
30
0
41
1
10
112.673809571104
20
16.1065921874463
30
0
41
1
10
112.679000339781
20
16.0396215811506
30
0
41
1
10
112.709014033609
20
15.910295964502
30
0
41
1
10
112.734704684094
20
15.8461310382477
30
0
41
1
10
112.79799162089
20
15.7409852597974
30
0
41
1
10
112.834145893843
20
15.6967127639426
30
0
41
1
10
112.925901713444
20
15.6106748568829
30
0
41
1
10
112.985447034512
20
15.5722658309438
30
0
41
1
10
113.075447853886
20
15.532326575009
30
0
41
1
10
113.104199475309
20
15.521969244446
30
0
41
1
10
113.133357757453
20
15.5136548499548
30
0
0
SPLINE
5
FE
100
AcDbEntity
8
1
62
256
6
ByLayer
370
-1
48
1
60
0
100
AcDbSpline
70
4
71
3
72
14
73
10
40
0
40
0
40
0
40
0
40
0.242396128136371
40
0.242396128136371
40
0.533930537612567
40
0.533930537612567
40
0.797394121447015
40
0.797394121447015
40
1
40
1
40
1
40
1
41
1
10
110.590505602808
20
14.3380984941515
30
0
41
1
10
110.58147846639
20
14.3133549879258
30
0
41
1
10
110.576219893523
20
14.2864173197994
30
0
41
1
10
110.574536132046
20
14.2256249777741
30
0
41
1
10
110.580185280716
20
14.1904622767779
30
0
41
1
10
110.604049400709
20
14.1266721600777
30
0
41
1
10
110.621426945297
20
14.0967881145088
30
0
41
1
10
110.660605629273
20
14.0504583769822
30
0
41
1
10
110.680859898956
20
14.0320059047922
30
0
41
1
10
110.702986098984
20
14.016601587578
30
0
0
SPLINE
5
FF
100
AcDbEntity
8
1
62
256
6
ByLayer
370
-1
48
1
60
0
100
AcDbSpline
70
4
71
3
72
18
73
14
40
0
40
0
40
0
40
0
40
0.0486937830568717
40
0.0486937830568717
40
0.271802818633837
40
0.271802818633837
40
0.496891641152436
40
0.496891641152436
40
0.735773189762767
40
0.735773189762767
40
0.997741684268808
40
0.997741684268808
40
1
40
1
40
1
40
1
41
1
10
109.990591693412
20
15.5203484760899
30
0
41
1
10
109.990059123025
20
15.5139039638859
30
0
41
1
10
109.98974002857
20
15.5074225026387
30
0
41
1
10
109.989159888055
20
15.4714292361523
30
0
41
1
10
109.993240064943
20
15.4412345489642
30
0
41
1
10
110.00955907126
20
15.3840269788562
30
0
41
1
10
110.022056276881
20
15.3563097293234
30
0
41
1
10
110.054093511212
20
15.3051456593745
30
0
41
1
10
110.074393592657
20
15.2814072341762
30
0
41
1
10
110.121218430131
20
15.2398267578269
30
0
41
1
10
110.148721554067
20
15.2222265586473
30
0
41
1
10
110.177347952071
20
15.2093820987958
30
0
41
1
10
110.177595406908
20
15.209271459014
30
0
41
1
10
110.177842952082
20
15.2091611698014
30
0
0
SPLINE
5
100
100
AcDbEntity
8
1
62
256
6
ByLayer
370
-1
48
1
60
0
100
AcDbSpline
70
4
71
3
72
18
73
14
40
0
40
0
40
0
40
0
40
0.207350175592967
40
0.207350175592967
40
0.382328292600575
40
0.382328292600575
40
0.559047073836627
40
0.559047073836627
40
0.712154538519467
40
0.712154538519467
40
0.914064073352216
40
0.914064073352216
40
1
40
1
40
1
40
1
41
1
10
112.017110137941
20
13.9286586371798
30
0
41
1
10
111.97100063599
20
13.9767097335469
30
0
41
1
10
111.915394080293
20
14.019966997269
30
0
41
1
10
111.799165109077
20
14.0847188922541
30
0
41
1
10
111.73927616139
20
14.1091816685473
30
0
41
1
10
111.613215384583
20
14.1426383172339
30
0
41
1
10
111.545059679033
20
14.1518298423444
30
0
41
1
10
111.421964386724
20
14.1525741684139
30
0
41
1
10
111.364998953932
20
14.1463927224281
30
0
41
1
10
111.242510182367
20
14.119251163345
30
0
41
1
10
111.177853113253
20
14.0939307151354
30
0
41
1
10
111.097182206514
20
14.0478559893723
30
0
41
1
10
111.074245326909
20
14.0326631570646
30
0
41
1
10
111.052719098764
20
14.0163042726633
30
0
0
SPLINE
5
101
100
AcDbEntity
8
1
62
256
6
ByLayer
370
-1
48
1
60
0
100
AcDbSpline
70
4
71
3
72
20
73
16
40
0
40
0
40
0
40
0
40
0.0865922642182407
40
0.0865922642182407
40
0.286413956193215
40
0.286413956193215
40
0.448303164069983
40
0.448303164069983
40
0.610997933781496
40
0.610997933781496
40
0.763419022163819
40
0.763419022163819
40
0.980064676895059
40
0.980064676895059
40
1
40
1
40
1
40
1
41
1
10
110.590505602808
20
14.3380984941514
30
0
41
1
10
110.599658415698
20
14.3631864813315
30
0
41
1
10
110.607187099515
20
14.3892201265732
30
0
41
1
10
110.626132895588
20
14.477613385946
30
0
41
1
10
110.629978116903
20
14.5445141986838
30
0
41
1
10
110.616419009392
20
14.6685698728611
30
0
41
1
10
110.602605526833
20
14.7265522583613
30
0
41
1
10
110.559933036099
20
14.8388296031215
30
0
41
1
10
110.53037890321
20
14.8945515468998
30
0
41
1
10
110.462806830561
20
14.9918109338767
30
0
41
1
10
110.42473107561
20
15.0352052993387
30
0
41
1
10
110.326555037642
20
15.1259231087373
30
0
41
1
10
110.262290897897
20
15.1690086795079
30
0
41
1
10
110.190196892672
20
15.2035542461348
30
0
41
1
10
110.18403015471
20
15.2064045751344
30
0
41
1
10
110.177842952082
20
15.2091611698014
30
0
0
SPLINE
5
102
100
AcDbEntity
8
1
62
256
6
ByLayer
370
-1
48
1
60
0
100
AcDbSpline
70
4
71
3
72
12
73
8
40
0
40
0
40
0
40
0
40
0.316984324257084
40
0.316984324257084
40
0.784233127066879
40
0.784233127066879
40
1
40
1
40
1
40
1
41
1
10
112.588390528299
20
14.5856471339757
30
0
41
1
10
112.564640529631
20
14.5415226236222
30
0
41
1
10
112.546381333474
20
14.4954556186546
30
0
41
1
10
112.515826846745
20
14.3831129645661
30
0
41
1
10
112.509779768442
20
14.3157233875301
30
0
41
1
10
112.516282318103
20
14.2224269277536
30
0
41
1
10
112.520568429567
20
14.1933854275574
30
0
41
1
10
112.526903724251
20
14.1650961583036
30
0
0
SPLINE
5
103
100
AcDbEntity
8
1
62
256
6
ByLayer
370
-1
48
1
60
0
100
AcDbSpline
70
4
71
3
72
14
73
10
40
0
40
0
40
0
40
0
40
0.265516249808997
40
0.265516249808997
40
0.554155671479646
40
0.554155671479646
40
0.815202288522903
40
0.815202288522903
40
1
40
1
40
1
40
1
41
1
10
111.294090571593
20
16.7941573825764
30
0
41
1
10
111.274556210274
20
16.8201448286573
30
0
41
1
10
111.250477578297
20
16.8434354061975
30
0
41
1
10
111.19358106389
20
16.8820907122169
30
0
41
1
10
111.159237002751
20
16.8971346938729
30
0
41
1
10
111.09079229272
20
16.9117014054749
30
0
41
1
10
111.055933376653
20
16.9127280848108
30
0
41
1
10
110.998388578896
20
16.9033339220833
30
0
41
1
10
110.974601086448
20
16.8961106777357
30
0
41
1
10
110.952304777702
20
16.8859160882682
30
0
0
SPLINE
5
104
100
AcDbEntity
8
1
62
256
6
ByLayer
370
-1
48
1
60
0
100
AcDbSpline
70
4
71
3
72
14
73
10
40
0
40
0
40
0
40
0
40
0.270748501653669
40
0.270748501653669
40
0.556910746467975
40
0.556910746467975
40
0.815700895511145
40
0.815700895511145
40
1
40
1
40
1
40
1
41
1
10
110.227070695593
20
15.7662458120588
30
0
41
1
10
110.196023935399
20
15.7631555614034
30
0
41
1
10
110.164946591182
20
15.7544728854931
30
0
41
1
10
110.106185008961
20
15.7253143074654
30
0
41
1
10
110.077902677882
20
15.7036691100072
30
0
41
1
10
110.034100322147
20
15.6525889863211
30
0
41
1
10
110.017001883696
20
15.6232806346577
30
0
41
1
10
109.997808281048
20
15.5690593137106
30
0
41
1
10
109.992614604543
20
15.5448272601034
30
0
41
1
10
109.990591693412
20
15.5203484760899
30
0
0
SPLINE
5
105
100
AcDbEntity
8
1
62
256
6
ByLayer
370
-1
48
1
60
0
100
AcDbSpline
70
4
71
3
72
16
73
12
40
0
40
0
40
0
40
0
40
0.102713007522733
40
0.102713007522733
40
0.322948205264472
40
0.322948205264472
40
0.548215609726559
40
0.548215609726559
40
0.789626086201405
40
0.789626086201405
40
1
40
1
40
1
40
1
41
1
10
112.367849104837
20
13.8652957684536
30
0
41
1
10
112.380373130485
20
13.8710221557859
30
0
41
1
10
112.39249818327
20
13.8775961439769
30
0
41
1
10
112.428599212058
20
13.9004842848752
30
0
41
1
10
112.450773520186
20
13.9197469999477
30
0
41
1
10
112.487543461938
20
13.962729071184
30
0
41
1
10
112.502440293521
20
13.9870694461088
30
0
41
1
10
112.524161420078
20
14.0388333767036
30
0
41
1
10
112.530633282832
20
14.0669889164316
30
0
41
1
10
112.533956404136
20
14.1184484096975
30
0
41
1
10
112.532000991061
20
14.1423351092189
30
0
41
1
10
112.526903724251
20
14.1650961583036
30
0
0
SPLINE
5
106
100
AcDbEntity
8
1
62
256
6
ByLayer
370
-1
48
1
60
0
100
AcDbSpline
70
4
71
3
72
16
73
12
40
0
40
0
40
0
40
0
40
0.0897944729906629
40
0.0897944729906629
40
0.403246972344946
40
0.403246972344946
40
0.683237453220511
40
0.683237453220511
40
0.930177491252043
40
0.930177491252043
40
1
40
1
40
1
40
1
41
1
10
112.720695106729
20
16.3847175256032
30
0
41
1
10
112.724510573888
20
16.3953714097478
30
0
41
1
10
112.727794816717
20
16.4062753588469
30
0
41
1
10
112.739870401918
20
16.4556505288718
30
0
41
1
10
112.742352823328
20
16.4969925261209
30
0
41
1
10
112.731587649877
20
16.5729813534301
30
0
41
1
10
112.719741528034
20
16.6090480879304
30
0
41
1
10
112.685671753875
20
16.6697053465782
30
0
41
1
10
112.664298660338
20
16.6960120955935
30
0
41
1
10
112.632280636218
20
16.7235075084763
30
0
41
1
10
112.62485242778
20
16.7292602001232
30
0
41
1
10
112.617167783555
20
16.7346102691438
30
0
0
SPLINE
5
107
100
AcDbEntity
8
1
62
256
6
ByLayer
370
-1
48
1
60
0
100
AcDbSpline
70
4
71
3
72
12
73
8
40
0
40
0
40
0
40
0
40
0.487780513073314
40
0.487780513073314
40
0.894045612655284
40
0.894045612655284
40
1
40
1
40
1
40
1
41
1
10
113.083987086357
20
14.9561168993155
30
0
41
1
10
113.013344956453
20
14.9398449757292
30
0
41
1
10
112.942394584857
20
14.9127524773972
30
0
41
1
10
112.820405118369
20
14.843655612048
30
0
41
1
10
112.766718742837
20
14.8039962702788
30
0
41
1
10
112.706997495638
20
14.7460081166892
30
0
41
1
10
112.694964194946
20
14.7334837030988
30
0
41
1
10
112.683410822841
20
14.7205695332293
30
0
0
SPLINE
5
108
100
AcDbEntity
8
1
62
256
6
ByLayer
370
-1
48
1
60
0
100
AcDbSpline
70
4
71
3
72
16
73
12
40
0
40
0
40
0
40
0
40
0.0151183852976794
40
0.0151183852976794
40
0.330986078508368
40
0.330986078508368
40
0.619355944009309
40
0.619355944009309
40
0.873210897508587
40
0.873210897508587
40
1
40
1
40
1
40
1
41
1
10
112.017110137941
20
13.9286586371798
30
0
41
1
10
112.018312804407
20
13.9274053284304
30
0
41
1
10
112.01952921973
20
13.9261610194291
30
0
41
1
10
112.046068665172
20
13.8995134689073
30
0
41
1
10
112.077798590943
20
13.8776815967207
30
0
41
1
10
112.145820457629
20
13.8484568538048
30
0
41
1
10
112.182588458694
20
13.8395806737916
30
0
41
1
10
112.252977449345
20
13.8357333637087
30
0
41
1
10
112.287502265614
20
13.8392214716171
30
0
41
1
10
112.336426294815
20
13.8524805614867
30
0
41
1
10
112.35250203234
20
13.8582785933052
30
0
41
1
10
112.367849104837
20
13.8652957684536
30
0
0
SPLINE
5
109
100
AcDbEntity
8
1
62
256
6
ByLayer
370
-1
48
1
60
0
100
AcDbSpline
70
4
71
3
72
18
73
14
40
0
40
0
40
0
40
0
40
0.0493640327754842
40
0.0493640327754842
40
0.270379003999669
40
0.270379003999669
40
0.493419976994932
40
0.493419976994932
40
0.730178086551812
40
0.730178086551812
40
0.989847464638032
40
0.989847464638032
40
1
40
1
40
1
40
1
41
1
10
110.952304777702
20
16.8859160882682
30
0
41
1
10
110.946259365503
20
16.8831519313745
30
0
41
1
10
110.94030192653
20
16.8801649507309
30
0
41
1
10
110.90850331304
20
16.8627713329636
30
0
41
1
10
110.884434434466
20
16.8440857205135
30
0
41
1
10
110.843527714338
20
16.8008515131053
30
0
41
1
10
110.826220290455
20
16.7757162486013
30
0
41
1
10
110.799203423086
20
16.7211102737932
30
0
41
1
10
110.789660254385
20
16.6907989484745
30
0
41
1
10
110.779181379411
20
16.6273549335441
30
0
41
1
10
110.779000978084
20
16.5934418310903
30
0
41
1
10
110.783769549276
20
16.5598167430792
30
0
41
1
10
110.783958137758
20
16.5585407081488
30
0
41
1
10
110.7841540577
20
16.5572665530708
30
0
0
SPLINE
5
10A
100
AcDbEntity
8
1
62
256
6
ByLayer
370
-1
48
1
60
0
100
AcDbSpline
70
4
71
3
72
16
73
12
40
0
40
0
40
0
40
0
40
0.149222030372557
40
0.149222030372557
40
0.450081169034069
40
0.450081169034069
40
0.722087447858709
40
0.722087447858709
40
0.963031255903614
40
0.963031255903614
40
1
40
1
40
1
40
1
41
1
10
113.083987086357
20
14.9561168993109
30
0
41
1
10
113.101907274173
20
14.9602446900101
30
0
41
1
10
113.119754437485
20
14.9659789532185
30
0
41
1
10
113.171904019774
20
14.9879356479368
30
0
41
1
10
113.205586675893
20
15.0094750281034
30
0
41
1
10
113.26014362498
20
15.061026570471
30
0
41
1
10
113.282733274202
20
15.0908831439808
30
0
41
1
10
113.313588737867
20
15.1522736509377
30
0
41
1
10
113.323606818033
20
15.1841331095762
30
0
41
1
10
113.328609896182
20
15.2209383061442
30
0
41
1
10
113.329152042045
20
15.2259002847895
30
0
41
1
10
113.329562189127
20
15.2308633806319
30
0
0
SPLINE
5
10B
100
AcDbEntity
8
1
62
256
6
ByLayer
370
-1
48
1
60
0
100
AcDbSpline
70
4
71
3
72
18
73
14
40
0
40
0
40
0
40
0
40
0.0334095294098927
40
0.0334095294098927
40
0.256901059993351
40
0.256901059993351
40
0.481486810659901
40
0.481486810659901
40
0.719147371257383
40
0.719147371257383
40
0.979363887896818
40
0.979363887896818
40
1
40
1
40
1
40
1
41
1
10
110.702986098984
20
14.016601587578
30
0
41
1
10
110.706662785411
20
14.0140418690562
30
0
41
1
10
110.710397645769
20
14.0115586778723
30
0
41
1
10
110.739256452901
20
13.9932489250835
30
0
41
1
10
110.767014763198
20
13.9807772430267
30
0
41
1
10
110.823401572897
20
13.9643861462361
30
0
41
1
10
110.852748572606
20
13.9602790440489
30
0
41
1
10
110.910846784079
20
13.9601750714741
30
0
41
1
10
110.940193737763
20
13.9646330075114
30
0
41
1
10
110.996526800846
20
13.9817633042621
30
0
41
1
10
111.023744369429
20
13.9953575623421
30
0
41
1
10
111.04903169423
20
14.0135402785573
30
0
41
1
10
111.0508867062
20
14.0149117436057
30
0
41
1
10
111.052719098765
20
14.016304272662
30
0
0
SPLINE
5
10C
100
AcDbEntity
8
1
62
256
6
ByLayer
370
-1
48
1
60
0
100
AcDbSpline
70
4
71
3
72
12
73
8
40
0
40
0
40
0
40
0
40
0.397701198300006
40
0.397701198300006
40
0.820830006203342
40
0.820830006203342
40
1
40
1
40
1
40
1
41
1
10
110.227070695593
20
15.7662458120588
30
0
41
1
10
110.282251905434
20
15.7717382940058
30
0
41
1
10
110.337599629624
20
15.7847153704441
30
0
41
1
10
110.447587316296
20
15.8281198655474
30
0
41
1
10
110.503224234692
20
15.8603175053897
30
0
41
1
10
110.57468938084
20
15.9194845576044
30
0
41
1
10
110.595196869176
20
15.9389391013012
30
0
41
1
10
110.614442714671
20
15.9599146651134
30
0
0
SPLINE
5
10D
100
AcDbEntity
8
1
62
256
6
ByLayer
370
-1
48
1
60
0
100
AcDbSpline
70
4
71
3
72
16
73
12
40
0
40
0
40
0
40
0
40
0.157402404984649
40
0.157402404984649
40
0.379728290663914
40
0.379728290663914
40
0.610041824564629
40
0.610041824564629
40
0.858970771238501
40
0.858970771238501
40
1
40
1
40
1
40
1
41
1
10
112.617167783555
20
16.7346102691438
30
0
41
1
10
112.599995211749
20
16.7465658576836
30
0
41
1
10
112.581352426339
20
16.7566048242275
30
0
41
1
10
112.534751673008
20
16.7752612807408
30
0
41
1
10
112.505503377379
20
16.7817718223957
30
0
41
1
10
112.446652965138
20
16.7856060315401
30
0
41
1
10
112.416336608647
20
16.7826679476254
30
0
41
1
10
112.356894731916
20
16.7677435124047
30
0
41
1
10
112.327312847681
20
16.7548922221753
30
0
41
1
10
112.285808905226
20
16.7288964172239
30
0
41
1
10
112.27161453078
20
16.7182076623538
30
0
41
1
10
112.258481610767
20
16.7065117470959
30
0
0
LINE
5
4A
100
AcDbEntity
8
80
62
256
6
ByLayer
370
-1
48
1
60
0
100
AcDbLine
10
0
20
0
30
0
11
-10
21
0
31
0
39
0
210
0
220
0
230
1
0
LINE
5
4B
100
AcDbEntity
8
81
62
256
6
ByLayer
370
-1
48
1
60
0
100
AcDbLine
10
120
20
26.9
30
0
11
130
21
26.9
31
0
39
0
210
0
220
0
230
1
0
LINE
5
4C
100
AcDbEntity
8
SK4
62
256
6
ByLayer
370
-1
48
0.05
60
0
100
AcDbLine
10
-29
20
0
30
0
11
124.571745
21
0
31
0
39
0
210
0
220
0
230
1
0
LINE
5
4E
100
AcDbEntity
8
4
62
256
6
ByLayer
370
-1
48
0.05
60
0
100
AcDbLine
10
0
20
0
30
0
11
148.571745
21
0
31
0
39
0
210
0
220
0
230
1
0
LINE
5
50
100
AcDbEntity
8
1
62
256
6
ByLayer
370
-1
48
1
60
0
100
AcDbLine
10
19.5
20
-20
30
0
11
19.65
21
-19.85
31
0
39
0
210
0
220
0
230
1
0
LINE
5
51
100
AcDbEntity
8
1
62
256
6
ByLayer
370
-1
48
1
60
0
100
AcDbLine
10
19.65
20
19.85
30
0
11
19.5
21
20
31
0
39
0
210
0
220
0
230
1
0
LINE
5
52
100
AcDbEntity
8
1
62
256
6
ByLayer
370
-1
48
1
60
0
100
AcDbLine
10
19.5
20
20
30
0
11
0.3
21
20
31
0
39
0
210
0
220
0
230
1
0
LINE
5
53
100
AcDbEntity
8
1
62
256
6
ByLayer
370
-1
48
1
60
0
100
AcDbLine
10
0.3
20
-20
30
0
11
19.5
21
-20
31
0
39
0
210
0
220
0
230
1
0
LINE
5
54
100
AcDbEntity
8
1
62
256
6
ByLayer
370
-1
48
1
60
0
100
AcDbLine
10
0.3
20
20
30
0
11
0
21
19.7
31
0
39
0
210
0
220
0
230
1
0
LINE
5
55
100
AcDbEntity
8
1
62
256
6
ByLayer
370
-1
48
1
60
0
100
AcDbLine
10
0
20
-19.7
30
0
11
0.3
21
-20
31
0
39
0
210
0
220
0
230
1
0
LINE
5
56
100
AcDbEntity
8
1
62
256
6
ByLayer
370
-1
48
1
60
0
100
AcDbLine
10
19.65
20
-19.85
30
0
11
91.974868
21
-19.85
31
0
39
0
210
0
220
0
230
1
0
LINE
5
57
100
AcDbEntity
8
1
62
256
6
ByLayer
370
-1
48
1
60
0
100
AcDbLine
10
94.991087
20
19.85
30
0
11
19.65
21
19.85
31
0
39
0
210
0
220
0
230
1
0
LINE
5
58
100
AcDbEntity
8
1
62
256
6
ByLayer
370
-1
48
1
60
0
100
AcDbLine
10
110.589599
20
14.333323
30
0
11
110.598821
21
14.36257
31
0
39
0
210
0
220
0
230
1
0
LINE
5
59
100
AcDbEntity
8
1
62
256
6
ByLayer
370
-1
48
1
60
0
100
AcDbLine
10
114.106057
20
14.403801
30
0
11
114.152266
21
14.550357
31
0
39
0
210
0
220
0
230
1
0
LINE
5
5A
100
AcDbEntity
8
1
62
256
6
ByLayer
370
-1
48
1
60
0
100
AcDbLine
10
109.145252
20
16.129062
30
0
11
109.099043
21
15.982506
31
0
39
0
210
0
220
0
230
1
0
LINE
5
5B
100
AcDbEntity
8
1
62
256
6
ByLayer
370
-1
48
1
60
0
100
AcDbLine
10
112.541068
20
14.473992
30
0
11
112.492612
21
14.32031
31
0
39
0
210
0
220
0
230
1
0
LINE
5
5C
100
AcDbEntity
8
1
62
256
6
ByLayer
370
-1
48
1
60
0
100
AcDbLine
10
112.711284
20
16.356771
30
0
11
112.657731
21
16.186921
31
0
39
0
210
0
220
0
230
1
0
LINE
5
5D
100
AcDbEntity
8
1
62
256
6
ByLayer
370
-1
48
1
60
0
100
AcDbLine
10
110.710433
20
16.05948
30
0
11
110.758897
21
16.213189
31
0
39
0
210
0
220
0
230
1
0
LINE
5
5E
100
AcDbEntity
8
1
62
256
6
ByLayer
370
-1
48
1
60
0
100
AcDbLine
10
103.341604
20
4.586798
30
0
11
103.352212
21
4.515639
31
0
39
0
210
0
220
0
230
1
0
LINE
5
5F
100
AcDbEntity
8
1
62
256
6
ByLayer
370
-1
48
1
60
0
100
AcDbLine
10
0.3
20
-20
30
0
11
0.3
21
20
31
0
39
0
210
0
220
0
230
1
0
LINE
5
60
100
AcDbEntity
8
1
62
256
6
ByLayer
370
-1
48
1
60
0
100
AcDbLine
10
6.923205
20
-19.122283
30
0
11
6.923205
21
-5.85989
31
0
39
0
210
0
220
0
230
1
0
LINE
5
61
100
AcDbEntity
8
1
62
256
6
ByLayer
370
-1
48
1
60
0
100
AcDbLine
10
9.076795
20
-19.122283
30
0
11
9.076795
21
-5.85989
31
0
39
0
210
0
220
0
230
1
0
LINE
5
62
100
AcDbEntity
8
1
62
256
6
ByLayer
370
-1
48
1
60
0
100
AcDbLine
10
9.076795
20
5.85989
30
0
11
6.923205
21
5.85989
31
0
39
0
210
0
220
0
230
1
0
LINE
5
63
100
AcDbEntity
8
1
62
256
6
ByLayer
370
-1
48
1
60
0
100
AcDbLine
10
101.928874
20
6.106599
30
0
11
104.316238
21
7.921723
31
0
39
0
210
0
220
0
230
1
0
LINE
5
64
100
AcDbEntity
8
1
62
256
6
ByLayer
370
-1
48
1
60
0
100
AcDbLine
10
9.076795
20
5.85989
30
0
11
9.076795
21
19.122283
31
0
39
0
210
0
220
0
230
1
0
LINE
5
65
100
AcDbEntity
8
1
62
256
6
ByLayer
370
-1
48
1
60
0
100
AcDbLine
10
103.435627
20
-8.370627
30
0
11
111.79268
21
0
31
0
39
0
210
0
220
0
230
1
0
LINE
5
66
100
AcDbEntity
8
1
62
256
6
ByLayer
370
-1
48
1
60
0
100
AcDbLine
10
19.5
20
-20
30
0
11
19.5
21
20
31
0
39
0
210
0
220
0
230
1
0
LINE
5
67
100
AcDbEntity
8
1
62
256
6
ByLayer
370
-1
48
1
60
0
100
AcDbLine
10
115.333266
20
11.229304
30
0
11
114.643644
21
11.709421
31
0
39
0
210
0
220
0
230
1
0
LINE
5
68
100
AcDbEntity
8
1
62
256
6
ByLayer
370
-1
48
1
60
0
100
AcDbLine
10
9.336603
20
6.16973
30
0
11
9.336603
21
19.024574
31
0
39
0
210
0
220
0
230
1
0
LINE
5
69
100
AcDbEntity
8
1
62
256
6
ByLayer
370
-1
48
1
60
0
100
AcDbLine
10
6.923205
20
19.122283
30
0
11
9.076795
21
19.122283
31
0
39
0
210
0
220
0
230
1
0
LINE
5
6A
100
AcDbEntity
8
1
62
256
6
ByLayer
370
-1
48
1
60
0
100
AcDbLine
10
101.902224
20
6.948291
30
0
11
101.928874
21
6.106599
31
0
39
0
210
0
220
0
230
1
0
LINE
5
6B
100
AcDbEntity
8
1
62
256
6
ByLayer
370
-1
48
1
60
0
100
AcDbLine
10
95.901131
20
19.572256
30
0
11
103.435627
21
-8.370627
31
0
39
0
210
0
220
0
230
1
0
LINE
5
6C
100
AcDbEntity
8
1
62
256
6
ByLayer
370
-1
48
1
60
0
100
AcDbLine
10
6.923205
20
5.85989
30
0
11
6.923205
21
19.122283
31
0
39
0
210
0
220
0
230
1
0
LINE
5
6D
100
AcDbEntity
8
1
62
256
6
ByLayer
370
-1
48
1
60
0
100
AcDbLine
10
115.333266
20
11.229304
30
0
11
111.79268
21
0
31
0
39
0
210
0
220
0
230
1
0
LINE
5
6E
100
AcDbEntity
8
1
62
256
6
ByLayer
370
-1
48
1
60
0
100
AcDbLine
10
100.303498
20
19.35
30
0
11
97.77375
21
19.35
31
0
39
0
210
0
220
0
230
1
0
LINE
5
6F
100
AcDbEntity
8
1
62
256
6
ByLayer
370
-1
48
1
60
0
100
AcDbLine
10
104.673723
20
9.055474
30
0
11
101.902224
21
6.948291
31
0
39
0
210
0
220
0
230
1
0
LINE
5
70
100
AcDbEntity
8
1
62
256
6
ByLayer
370
-1
48
1
60
0
100
AcDbLine
10
104.023854
20
3.327453
30
0
11
104.1491
21
3.724685
31
0
39
0
210
0
220
0
230
1
0
LINE
5
71
100
AcDbEntity
8
1
62
256
6
ByLayer
370
-1
48
1
60
0
100
AcDbLine
10
0
20
-19.7
30
0
11
0
21
19.7
31
0
39
0
210
0
220
0
230
1
0
LINE
5
72
100
AcDbEntity
8
1
62
256
6
ByLayer
370
-1
48
1
60
0
100
AcDbLine
10
101.803627
20
5.709368
30
0
11
101.928874
21
6.106599
31
0
39
0
210
0
220
0
230
1
0
LINE
5
73
100
AcDbEntity
8
1
62
256
6
ByLayer
370
-1
48
1
60
0
100
AcDbLine
10
93.680818
20
-18.141279
30
0
11
91.974868
21
-19.85
31
0
39
0
210
0
220
0
230
1
0
LINE
5
74
100
AcDbEntity
8
1
62
256
6
ByLayer
370
-1
48
1
60
0
100
AcDbLine
10
19.65
20
19.85
30
0
11
19.65
21
-19.85
31
0
39
0
210
0
220
0
230
1
0
LINE
5
75
100
AcDbEntity
8
1
62
256
6
ByLayer
370
-1
48
1
60
0
100
AcDbLine
10
106.289117
20
17.525864
30
0
11
107.154461
21
16.923409
31
0
39
0
210
0
220
0
230
1
0
LINE
5
76
100
AcDbEntity
8
1
62
256
6
ByLayer
370
-1
48
1
60
0
100
AcDbLine
10
6.923205
20
-5.85989
30
0
11
9.076795
21
-5.85989
31
0
39
0
210
0
220
0
230
1
0
LINE
5
77
100
AcDbEntity
8
1
62
256
6
ByLayer
370
-1
48
1
60
0
100
AcDbLine
10
93.680818
20
-18.141279
30
0
11
103.435627
21
-8.370627
31
0
39
0
210
0
220
0
230
1
0
LINE
5
78
100
AcDbEntity
8
1
62
256
6
ByLayer
370
-1
48
1
60
0
100
AcDbLine
10
101.803627
20
5.709368
30
0
11
104.190992
21
7.524491
31
0
39
0
210
0
220
0
230
1
0
LINE
5
79
100
AcDbEntity
8
1
62
256
6
ByLayer
370
-1
48
1
60
0
100
AcDbLine
10
9.076795
20
-19.122283
30
0
11
6.923205
21
-19.122283
31
0
39
0
210
0
220
0
230
1
0
LINE
5
7A
100
AcDbEntity
8
1
62
256
6
ByLayer
370
-1
48
1
60
0
100
AcDbLine
10
6.663397
20
6.16973
30
0
11
6.663397
21
19.024574
31
0
39
0
210
0
220
0
230
1
0
LINE
5
7B
100
AcDbEntity
8
1
62
256
6
ByLayer
370
-1
48
1
60
0
100
AcDbLine
10
101.808552
20
3.657938
30
0
11
101.693789
21
3.293956
31
0
39
0
210
0
220
0
230
1
0
LINE
5
7C
100
AcDbEntity
8
1
62
256
6
ByLayer
370
-1
48
1
60
0
100
AcDbLine
10
9.336603
20
-19.024574
30
0
11
9.336603
21
-6.16973
31
0
39
0
210
0
220
0
230
1
0
LINE
5
7D
100
AcDbEntity
8
1
62
256
6
ByLayer
370
-1
48
1
60
0
100
AcDbLine
10
6.663397
20
-19.024574
30
0
11
6.663397
21
-6.16973
31
0
39
0
210
0
220
0
230
1
0
LINE
5
7E
100
AcDbEntity
8
SK1
62
256
6
ByLayer
370
-1
48
1
60
0
100
AcDbLine
10
-0.2
20
14.083485
30
0
11
-0.2
21
5.547043
31
0
39
0
210
0
220
0
230
1
0
LINE
5
80
100
AcDbEntity
8
SK1
62
256
6
ByLayer
370
-1
48
1
60
0
100
AcDbLine
10
-0.2
20
-14.083485
30
0
11
-0.2
21
-5.547043
31
0
39
0
210
0
220
0
230
1
0
LINE
5
81
100
AcDbEntity
8
SK1
62
256
6
ByLayer
370
-1
48
1
60
0
100
AcDbLine
10
-1.307107
20
-3.588717
30
0
11
-1.307107
21
3.588717
31
0
39
0
210
0
220
0
230
1
0
LINE
5
82
100
AcDbEntity
8
1
62
256
6
ByLayer
370
-1
48
1
60
0
100
AcDbLine
10
114.780384
20
11.813396
30
0
11
114.767197
21
11.771572
31
0
39
0
210
0
220
0
230
1
0
LINE
5
83
100
AcDbEntity
8
1
62
256
6
ByLayer
370
-1
48
1
60
0
100
AcDbLine
10
114.678124
20
11.735648
30
0
11
114.665139
21
11.694462
31
0
39
0
210
0
220
0
230
1
0
LINE
5
84
100
AcDbEntity
8
1
62
256
6
ByLayer
370
-1
48
1
60
0
100
AcDbLine
10
104.280259
20
3.844203
30
0
11
104.273413
21
3.822489
31
0
39
0
210
0
220
0
230
1
0
LINE
5
85
100
AcDbEntity
8
1
62
256
6
ByLayer
370
-1
48
1
60
0
100
AcDbLine
10
112.472897
20
13.99381
30
0
11
112.526904
21
14.165096
31
0
39
0
210
0
220
0
230
1
0
LINE
5
86
100
AcDbEntity
8
1
62
256
6
ByLayer
370
-1
48
1
60
0
100
AcDbLine
10
113.07928
20
15.342142
30
0
11
113.133358
21
15.513655
31
0
39
0
210
0
220
0
230
1
0
LINE
5
87
100
AcDbEntity
8
1
62
256
6
ByLayer
370
-1
48
1
60
0
100
AcDbLine
10
112.204404
20
16.534999
30
0
11
112.258482
21
16.706512
31
0
39
0
210
0
220
0
230
1
0
LINE
5
88
100
AcDbEntity
8
1
62
256
6
ByLayer
370
-1
48
1
60
0
100
AcDbLine
10
111.240013
20
16.622645
30
0
11
111.294091
21
16.794157
31
0
39
0
210
0
220
0
230
1
0
LINE
5
89
100
AcDbEntity
8
1
62
256
6
ByLayer
370
-1
48
1
60
0
100
AcDbLine
10
110.173064
20
15.59496
30
0
11
110.227071
21
15.766246
31
0
39
0
210
0
220
0
230
1
0
LINE
5
8A
100
AcDbEntity
8
1
62
256
6
ByLayer
370
-1
48
1
60
0
100
AcDbLine
10
110.614443
20
15.959915
30
0
11
110.567039
21
15.809568
31
0
39
0
210
0
220
0
230
1
0
LINE
5
8B
100
AcDbEntity
8
1
62
256
6
ByLayer
370
-1
48
1
60
0
100
AcDbLine
10
110.662059
20
15.94449
30
0
11
110.709463
21
16.094837
31
0
39
0
210
0
220
0
230
1
0
LINE
5
8C
100
AcDbEntity
8
1
62
256
6
ByLayer
370
-1
48
1
60
0
100
AcDbLine
10
103.345975
20
4.844384
30
0
11
107.540101
21
18.146452
31
0
39
0
210
0
220
0
230
1
0
LINE
5
8D
100
AcDbEntity
8
1
62
256
6
ByLayer
370
-1
48
1
60
0
100
AcDbLine
10
115.66768
20
12.488011
30
0
11
104.530054
21
4.020025
31
0
39
0
210
0
220
0
230
1
0
LINE
5
8E
100
AcDbEntity
8
1
62
256
6
ByLayer
370
-1
48
1
60
0
100
AcDbLine
10
119.998619
20
25.984343
30
0
11
115.804493
21
12.682275
31
0
39
0
210
0
220
0
230
1
0
LINE
5
8F
100
AcDbEntity
8
1
62
256
6
ByLayer
370
-1
48
1
60
0
100
AcDbLine
10
107.676914
20
18.340716
30
0
11
118.814541
21
26.808701
31
0
39
0
210
0
220
0
230
1
0
LINE
5
90
100
AcDbEntity
8
2
62
256
6
ByLayer
370
-1
48
1
60
1
100
AcDbLine
10
120
20
0
30
0
11
120.001
21
0.001
31
0
39
0
210
0
220
0
230
1
0
MTEXT
5
10E
100
AcDbEntity
8
SK6
62
256
6
ByLayer
370
-1
48
1
60
0
100
AcDbMText
10
3.060873
20
-34.316539
30
0
210
0
220
0
230
1
1
\W00.735;\fsimplex.shx,bigfont.shx;C4-SVQBR-27120-16 
40
3.5
41
0
44
1.084337
50
0
71
7
72
5
7
DEFAULT
0
DIMENSION
5
142
100
AcDbEntity
8
SK2
62
256
6
ByLayer
370
-3
48
1
60
0
100
AcDbDimension
2
DimnDraft3D1
10
-36.75
20
20
30
0
11
-36.75
21
-5.021053
31
0
70
32
71
5
72
1
41
1
210
0
220
0
230
1
3
Standard
100
AcDbAlignedDimension
13
-2
23
-20
33
0
14
-2
24
20
34
0
50
90
100
AcDbRotatedDimension
1001
ACAD
1000
DSTYLE
1002
{
1070
    74
1070
     0
1070
   279
1070
     0
1070
   172
1070
     1
1070
   173
1070
     1
1070
   340
1005
10F
1070
    77
1070
     1
1070
    73
1070
     0
1070
   171
1070
     4
1070
   274
1070
     4
1070
   177
1070
     2
1070
   176
1070
     2
1070
   178
1070
     7
1070
    78
1070
     8
1070
    41
1041
3.175
1070
   147
1041
2.25
1070
    42
1041
2.0
1070
    44
1041
2.0
1070
   140
1041
4.5
1070
   343
1005
143
1070
   344
1005
143
1002
}
0
DIMENSION
5
155
100
AcDbEntity
8
2
62
256
6
ByLayer
370
-3
48
1
60
0
100
AcDbDimension
2
DimnDraft3D2
10
34.85
20
19.85
30
0
11
34.85
21
0
31
0
70
32
71
5
72
1
41
1
210
0
220
0
230
1
3
Standard
100
AcDbAlignedDimension
13
19.6
23
19.85
33
0
14
0
24
0
34
0
50
90
100
AcDbRotatedDimension
1001
ACAD
1000
DSTYLE
1002
{
1070
    74
1070
     0
1070
   279
1070
     0
1070
   172
1070
     1
1070
   173
1070
     1
1070
   340
1005
10F
1070
    75
1070
     1
1070
    76
1070
     1
1070
    77
1070
     1
1070
    73
1070
     0
1070
   171
1070
     4
1070
   274
1070
     4
1070
   177
1070
     2
1070
   176
1070
     2
1070
   178
1070
     7
1070
    78
1070
     8
1070
    41
1041
3.175
1070
   147
1041
2.25
1070
    42
1041
2.0
1070
    44
1041
2.0
1070
   140
1041
4.5
1070
   343
1005
143
1070
   344
1005
143
1002
}
0
DIMENSION
5
163
100
AcDbEntity
8
2
62
256
6
ByLayer
370
-3
48
1
60
0
100
AcDbDimension
2
DimnDraft3D3
10
132.25
20
0
30
0
11
132.25
21
8.286842
31
0
70
32
71
5
72
1
41
1
210
0
220
0
230
1
3
Standard
100
AcDbAlignedDimension
13
122
23
26.9
33
0
14
122
24
0
34
0
50
90
100
AcDbRotatedDimension
1001
ACAD
1000
DSTYLE
1002
{
1070
    74
1070
     0
1070
   279
1070
     0
1070
   172
1070
     1
1070
   173
1070
     1
1070
   340
1005
10F
1070
    77
1070
     1
1070
    73
1070
     0
1070
   171
1070
     4
1070
   274
1070
     4
1070
   177
1070
     2
1070
   176
1070
     2
1070
   178
1070
     7
1070
    78
1070
     8
1070
    41
1041
3.175
1070
   147
1041
2.25
1070
    42
1041
2.0
1070
    44
1041
2.0
1070
   140
1041
4.5
1070
   343
1005
143
1070
   344
1005
143
1002
}
0
DIMENSION
5
171
100
AcDbEntity
8
2
62
256
6
ByLayer
370
-3
48
1
60
0
100
AcDbDimension
2
DimnDraft3D4
10
120
20
54.65
30
0
11
53.747368
21
54.65
31
0
70
32
71
5
72
1
41
1
210
0
220
0
230
1
3
Standard
100
AcDbAlignedDimension
13
0
23
22
33
0
14
120
24
28.9
34
0
50
0
100
AcDbRotatedDimension
1001
ACAD
1000
DSTYLE
1002
{
1070
   279
1070
     0
1070
   172
1070
     1
1070
   173
1070
     1
1070
   340
1005
10F
1070
    77
1070
     1
1070
    73
1070
     0
1070
   171
1070
     4
1070
   274
1070
     4
1070
   177
1070
     2
1070
   176
1070
     2
1070
   178
1070
     7
1070
    78
1070
     8
1070
    41
1041
3.175
1070
   147
1041
2.25
1070
    42
1041
2.0
1070
    44
1041
2.0
1070
   140
1041
4.5
1070
   343
1005
143
1070
   344
1005
143
1002
}
0
DIMENSION
5
17F
100
AcDbEntity
8
2
62
256
6
ByLayer
370
-3
48
1
60
0
100
AcDbDimension
2
DimnDraft3D5
10
120
20
39.65
30
0
11
63.310526
21
39.65
31
0
70
32
71
5
72
1
41
1
210
0
220
0
230
1
3
Standard
100
AcDbAlignedDimension
13
19.6
23
21.85
33
0
14
120
24
28.9
34
0
50
0
100
AcDbRotatedDimension
1001
ACAD
1000
DSTYLE
1002
{
1070
   279
1070
     0
1070
   172
1070
     1
1070
   173
1070
     1
1070
   340
1005
10F
1070
    77
1070
     1
1070
    73
1070
     0
1070
   171
1070
     4
1070
   274
1070
     4
1070
   177
1070
     2
1070
   176
1070
     2
1070
   178
1070
     7
1070
    78
1070
     8
1070
    41
1041
3.175
1070
   147
1041
2.25
1070
    42
1041
2.0
1070
    44
1041
2.0
1070
   140
1041
4.5
1070
   343
1005
143
1070
   344
1005
143
1002
}
0
DIMENSION
5
18D
100
AcDbEntity
8
2
62
256
6
ByLayer
370
-3
48
1
60
0
100
AcDbDimension
2
DimnDraft3D6
10
160.444869
20
0
30
0
11
130.587327
21
-41.417356
31
0
70
34
71
5
72
1
41
1
210
0
220
0
230
1
3
Standard
100
AcDb2LineAngularDimension
13
114.587296
23
9.733095
33
0
14
96.806008
24
-46.661944
34
0
15
122
25
0
35
0
16
136.605606
26
-34.214547
36
0
40
0
0
ENDSEC
0
SECTION
2
OBJECTS
0
DICTIONARY
5
1be
330
0
100
AcDbDictionary
280
0
281
1
3
ACAD_GROUP
350
1bf
3
ACAD_MLINESTYLE
350
1c0
0
DICTIONARY
5
1bf
330
0
100
AcDbDictionary
280
0
281
1
0
DICTIONARY
5
1c0
330
0
100
AcDbDictionary
280
0
281
1
3
Standard
350
18
0
MLINESTYLE
5
18
330
1c0
100
AcDbMlineStyle
2
Standard
70
0
3

62
256
51
90
52
90
71
2
49
-0.5
62
256
6
ByLayer
49
0.5
62
256
6
ByLayer
0
RASTERVARIABLES
5
1ac
330

100
AcDbRasterVariables
90
0
70
1
71
1
72
1
0
ENDSEC
0
EOF
