0
SECTION
2
HEADER
9
$ACADVER
1
AC1015
9
$DWGCODEPAGE
3
ANSI_1252
9
$HANDSEED
5
1cb
9
$ANGBASE
50
0
9
$ANGDIR
70
0
9
$ATTMODE
70
1
9
$AUNITS
70
0
9
$AUPREC
70
0
9
$CECOLOR
62
256
9
$CELTSCALE
40
1
9
$CELTYPE
6
ByLayer
9
$CELWEIGHT
370
-1
9
$CLAYER
8
0
9
$CMLJUST
70
0
9
$CMLSCALE
40
1
9
$CMLSTYLE
2
Standard
9
$DIMSTYLE
2
Standard
9
$TEXTSIZE
40
0.2
9
$TEXTSTYLE
7
Standard
9
$LUNITS
70
2
9
$LUPREC
70
4
9
$EXTNAMES
290
1
9
$INSUNITS
70
4
9
$LTSCALE
40
1
9
$LWDISPLAY
290
0
9
$PDMODE
70
0
9
$PDSIZE
40
0
9
$PLINEGEN
70
0
0
ENDSEC
0
SECTION
2
CLASSES
0
CLASS
1
RASTERVARIABLES
2
AcDbRasterVariables
3
ISM
90
0
280
0
281
0
0
ENDSEC
0
SECTION
2
TABLES
0
TABLE
2
VPORT
5
1c1
100
AcDbSymbolTable
0
VPORT
5
1
100
AcDbSymbolTableRecord
100
AcDbViewportTableRecord
2
*Active
70
0
10
0
20
0
11
1
21
1
12
-1
22
1
13
0
23
0
14
0.5
24
0.5
15
10
25
10
16
0
26
0
36
1
17
0
27
0
37
0
0
ENDTAB
0
TABLE
2
LTYPE
5
1c2
100
AcDbSymbolTable
0
LTYPE
5
14
100
AcDbSymbolTableRecord
100
AcDbLinetypeTableRecord
70
0
2
ByBlock
3

72
65
73
0
40
0
0
LTYPE
5
15
100
AcDbSymbolTableRecord
100
AcDbLinetypeTableRecord
70
0
2
ByLayer
3

72
65
73
0
40
0
0
LTYPE
5
16
100
AcDbSymbolTableRecord
100
AcDbLinetypeTableRecord
70
0
2
CONTINUOUS
3
Solid line
72
65
73
0
40
0
0
LTYPE
5
3B
100
AcDbSymbolTableRecord
100
AcDbLinetypeTableRecord
70
0
2
DASHED
3
__ __ __ __ __ __ __ __ __
72
65
73
2
40
25.72
49
12.86
74
0
49
-12.86
74
0
0
LTYPE
5
3C
100
AcDbSymbolTableRecord
100
AcDbLinetypeTableRecord
70
0
2
HIDDEN
3
_ _ _ _ _ _ _ _ _ _ _ _ _ _ _
72
65
73
2
40
0.5
49
0.25
74
0
49
-0.25
74
0
0
LTYPE
5
3D
100
AcDbSymbolTableRecord
100
AcDbLinetypeTableRecord
70
0
2
PHANTOM
3
____ _ _ ____ _ _ _____ _ _ ____
72
65
73
6
40
50.5
49
18
74
0
49
-6.5
74
0
49
6.5
74
0
49
-6.5
74
0
49
6.5
74
0
49
-6.5
74
0
0
LTYPE
5
3E
100
AcDbSymbolTableRecord
100
AcDbLinetypeTableRecord
70
0
2
CENTER
3
____ _ ____ _ ____ _ ____
72
65
73
4
40
47.5
49
22
74
0
49
-8.5
74
0
49
8.5
74
0
49
-8.5
74
0
0
LTYPE
5
3F
100
AcDbSymbolTableRecord
100
AcDbLinetypeTableRecord
70
0
2
DOT
3
.........................
72
65
73
2
40
10
49
0
74
0
49
-10
74
0
0
LTYPE
5
40
100
AcDbSymbolTableRecord
100
AcDbLinetypeTableRecord
70
0
2
DASHDOT
3
_._._._._._._._._._._._._._._._.
72
65
73
4
40
70
49
31
74
0
49
-13
74
0
49
13
74
0
49
-13
74
0
0
ENDTAB
0
TABLE
2
LAYER
5
1c3
100
AcDbSymbolTable
0
LAYER
5
10
100
AcDbSymbolTableRecord
100
AcDbLayerTableRecord
2
0
70
0
62
7
6
CONTINUOUS
290
1
370
-3
390
0
0
LAYER
5
42
100
AcDbSymbolTableRecord
100
AcDbLayerTableRecord
2
80
70
0
62
-6
6
CONTINUOUS
290
1
370
-3
390
0
0
LAYER
5
44
100
AcDbSymbolTableRecord
100
AcDbLayerTableRecord
2
81
70
0
62
-3
6
CONTINUOUS
290
1
370
-3
390
0
0
LAYER
5
46
100
AcDbSymbolTableRecord
100
AcDbLayerTableRecord
2
1
70
0
62
4
6
CONTINUOUS
290
1
370
-3
390
0
0
LAYER
5
48
100
AcDbSymbolTableRecord
100
AcDbLayerTableRecord
2
2
70
0
62
7
6
CONTINUOUS
290
1
370
-3
390
0
0
LAYER
5
4F
100
AcDbSymbolTableRecord
100
AcDbLayerTableRecord
2
4
70
0
62
-2
6
CENTER
290
1
370
-3
390
0
0
LAYER
5
1ad
100
AcDbSymbolTableRecord
100
AcDbLayerTableRecord
2
SK4
70
0
62
2
6
CENTER
290
1
370
-3
390
0
0
LAYER
5
1ae
100
AcDbSymbolTableRecord
100
AcDbLayerTableRecord
2
SK1
70
0
62
4
6
CONTINUOUS
290
1
370
-3
390
0
0
LAYER
5
1af
100
AcDbSymbolTableRecord
100
AcDbLayerTableRecord
2
SK6
70
0
62
5
6
CONTINUOUS
290
1
370
-3
390
0
0
LAYER
5
1b0
100
AcDbSymbolTableRecord
100
AcDbLayerTableRecord
2
SK2
70
0
62
7
6
CONTINUOUS
290
1
370
-3
390
0
0
ENDTAB
0
TABLE
2
STYLE
5
1c4
100
AcDbSymbolTable
0
STYLE
5
11
100
AcDbSymbolTableRecord
100
AcDbTextStyleTableRecord
2
Standard
3
txt
70
0
71
0
40
0
41
1
42
0
50
0
0
STYLE
5
10F
100
AcDbSymbolTableRecord
100
AcDbTextStyleTableRecord
2
DEFAULT
3
simplex.shx
70
0
71
0
40
0
41
1
42
0
50
0
0
STYLE
5
132
100
AcDbSymbolTableRecord
100
AcDbTextStyleTableRecord
2
DWGDirectTextStyle
3
SIMPLEX
70
0
71
0
40
0
41
1
42
0
50
0
0
ENDTAB
0
TABLE
2
DIMSTYLE
5
1c5
100
AcDbSymbolTable
100
AcDbDimStyleTable
0
DIMSTYLE
105
27
100
AcDbSymbolTableRecord
100
AcDbDimStyleTableRecord
2
Standard
70
0
3
<>
41
0.18
42
0.0625
44
0.18
140
0.18
147
0.09
73
0
74
0
77
1
271
2
275
0
278
52
280
0
340
11
0
ENDTAB
0
TABLE
2
VIEW
5
1c6
100
AcDbSymbolTable
0
ENDTAB
0
TABLE
2
UCS
5
1c7
100
AcDbSymbolTable
0
ENDTAB
0
TABLE
2
APPID
5
1c8
100
AcDbSymbolTable
0
APPID
5
12
100
AcDbSymbolTableRecord
100
AcDbRegAppTableRecord
2
ACAD
70
0
0
ENDTAB
0
TABLE
2
BLOCK_RECORD
5
1c9
100
AcDbSymbolTable
0
BLOCK_RECORD
5
1F
100
AcDbSymbolTableRecord
100
AcDbBlockTableRecord
2
*Model_Space
340
0
70
0
0
BLOCK_RECORD
5
1B
100
AcDbSymbolTableRecord
100
AcDbBlockTableRecord
2
*Paper_Space
340
0
70
0
0
BLOCK_RECORD
5
23
100
AcDbSymbolTableRecord
100
AcDbBlockTableRecord
2
*Paper_Space0
340
0
70
0
0
BLOCK_RECORD
5
134
100
AcDbSymbolTableRecord
100
AcDbBlockTableRecord
2
DimnDraft3D1
340
0
70
0
0
BLOCK_RECORD
5
143
100
AcDbSymbolTableRecord
100
AcDbBlockTableRecord
2
_CLOSED
340
0
70
0
0
BLOCK_RECORD
5
14A
100
AcDbSymbolTableRecord
100
AcDbBlockTableRecord
2
DimnDraft3D2
340
0
70
0
0
BLOCK_RECORD
5
156
100
AcDbSymbolTableRecord
100
AcDbBlockTableRecord
2
DimnDraft3D3
340
0
70
0
0
BLOCK_RECORD
5
164
100
AcDbSymbolTableRecord
100
AcDbBlockTableRecord
2
DimnDraft3D4
340
0
70
0
0
BLOCK_RECORD
5
172
100
AcDbSymbolTableRecord
100
AcDbBlockTableRecord
2
DimnDraft3D5
340
0
70
0
0
BLOCK_RECORD
5
180
100
AcDbSymbolTableRecord
100
AcDbBlockTableRecord
2
DimnDraft3D6
340
0
70
0
0
ENDTAB
0
ENDSEC
0
SECTION
2
BLOCKS
0
BLOCK
5
20
100
AcDbEntity
8
0
100
AcDbBlockBegin
2
*Model_Space
70
0
10
0
20
0
30
0
3
*Model_Space
0
ENDBLK
5
21
100
AcDbEntity
8
0
100
AcDbBlockEnd
0
BLOCK
5
1C
100
AcDbEntity
8
0
100
AcDbBlockBegin
2
*Paper_Space
70
0
10
0
20
0
30
0
3
*Paper_Space
0
ENDBLK
5
1D
100
AcDbEntity
8
0
100
AcDbBlockEnd
0
BLOCK
5
24
100
AcDbEntity
8
0
100
AcDbBlockBegin
2
*Paper_Space0
70
0
10
0
20
0
30
0
3
*Paper_Space0
0
ENDBLK
5
25
100
AcDbEntity
8
0
100
AcDbBlockEnd
0
BLOCK
5
140
100
AcDbEntity
8
0
100
AcDbBlockBegin
2
DimnDraft3D1
70
0
10
0
20
0
30
0
3
DimnDraft3D1
0
MTEXT
5
135
100
AcDbEntity
8
SK2
62
256
6
ByLayer
370
-1
48
1
60
0
100
AcDbMText
10
-37.875
20
-3.896053
30
0
210
0
220
0
230
1
1
\W01.000;\fsimplex.shx,bigfont.shx;%%c40 
40
4.5
41
0
44
1.084337
50
90
71
7
72
5
7
DEFAULT
0
LINE
5
137
100
AcDbEntity
8
SK2
62
256
6
ByLayer
370
-1
48
1
60
0
100
AcDbLine
10
-2
20
-20
30
0
11
-38.75
21
-20
31
0
39
0
210
0
220
0
230
1
0
LINE
5
138
100
AcDbEntity
8
SK2
62
256
6
ByLayer
370
-1
48
1
60
0
100
AcDbLine
10
-2
20
20
30
0
11
-38.75
21
20
31
0
39
0
210
0
220
0
230
1
0
LINE
5
139
100
AcDbEntity
8
SK2
62
256
6
ByLayer
370
-1
48
1
60
0
100
AcDbLine
10
-36.75
20
-20
30
0
11
-36.75
21
20
31
0
39
0
210
0
220
0
230
1
0
LINE
5
13A
100
AcDbEntity
8
SK2
62
256
6
ByLayer
370
-1
48
1
60
0
100
AcDbLine
10
-36.75
20
-20
30
0
11
-37.167997
21
-16.825002
31
0
39
0
210
0
220
0
230
1
0
LINE
5
13B
100
AcDbEntity
8
SK2
62
256
6
ByLayer
370
-1
48
1
60
0
100
AcDbLine
10
-36.75
20
-20
30
0
11
-36.332003
21
-16.824998
31
0
39
0
210
0
220
0
230
1
0
LINE
5
13C
100
AcDbEntity
8
SK2
62
256
6
ByLayer
370
-1
48
1
60
0
100
AcDbLine
10
-37.167997
20
-16.825002
30
0
11
-36.332003
21
-16.824998
31
0
39
0
210
0
220
0
230
1
0
LINE
5
13D
100
AcDbEntity
8
SK2
62
256
6
ByLayer
370
-1
48
1
60
0
100
AcDbLine
10
-36.75
20
20
30
0
11
-36.332003
21
16.825002
31
0
39
0
210
0
220
0
230
1
0
LINE
5
13E
100
AcDbEntity
8
SK2
62
256
6
ByLayer
370
-1
48
1
60
0
100
AcDbLine
10
-36.75
20
20
30
0
11
-37.167997
21
16.824998
31
0
39
0
210
0
220
0
230
1
0
LINE
5
13F
100
AcDbEntity
8
SK2
62
256
6
ByLayer
370
-1
48
1
60
0
100
AcDbLine
10
-36.332003
20
16.825002
30
0
11
-37.167997
21
16.824998
31
0
39
0
210
0
220
0
230
1
0
ENDBLK
5
141
100
AcDbEntity
8
0
100
AcDbBlockEnd
0
BLOCK
5
144
100
AcDbEntity
8
0
100
AcDbBlockBegin
2
_CLOSED
70
0
10
0
20
0
30
0
3
_CLOSED
0
LINE
5
146
100
AcDbEntity
8
0
62
256
6
ByLayer
370
-2
48
1
60
0
100
AcDbLine
10
-1
20
0.166667
30
0
11
0
21
0
31
0
39
0
210
0
220
0
230
1
0
LINE
5
147
100
AcDbEntity
8
0
62
256
6
ByLayer
370
-2
48
1
60
0
100
AcDbLine
10
0
20
0
30
0
11
-1
21
-0.166667
31
0
39
0
210
0
220
0
230
1
0
LINE
5
148
100
AcDbEntity
8
0
62
256
6
ByLayer
370
-2
48
1
60
0
100
AcDbLine
10
-1
20
0.166667
30
0
11
-1
21
-0.166667
31
0
39
0
210
0
220
0
230
1
0
LINE
5
149
100
AcDbEntity
8
0
62
256
6
ByLayer
370
-2
48
1
60
0
100
AcDbLine
10
0
20
0
30
0
11
-1
21
0
31
0
39
0
210
0
220
0
230
1
0
ENDBLK
5
145
100
AcDbEntity
8
0
100
AcDbBlockEnd
0
BLOCK
5
153
100
AcDbEntity
8
0
100
AcDbBlockBegin
2
DimnDraft3D2
70
0
10
0
20
0
30
0
3
DimnDraft3D2
0
MTEXT
5
14B
100
AcDbEntity
8
2
62
256
6
ByLayer
370
-1
48
1
60
0
100
AcDbMText
10
36.225
20
-6.193421
30
0
210
0
220
0
230
1
1
\W01.000;\fsimplex.shx,bigfont.shx;%%c20.0 
40
4.5
41
0
44
1.084337
50
90
71
7
72
5
7
DEFAULT
0
LINE
5
14C
100
AcDbEntity
8
2
62
256
6
ByLayer
370
-1
48
1
60
0
100
AcDbLine
10
37.35
20
-10
30
0
11
37.35
21
10
31
0
39
0
210
0
220
0
230
1
0
LINE
5
14D
100
AcDbEntity
8
2
62
256
6
ByLayer
370
-1
48
1
60
0
100
AcDbLine
10
37.35
20
-10
30
0
11
36.932003
21
-6.825002
31
0
39
0
210
0
220
0
230
1
0
LINE
5
14E
100
AcDbEntity
8
2
62
256
6
ByLayer
370
-1
48
1
60
0
100
AcDbLine
10
37.35
20
-10
30
0
11
37.767997
21
-6.824998
31
0
39
0
210
0
220
0
230
1
0
LINE
5
14F
100
AcDbEntity
8
2
62
256
6
ByLayer
370
-1
48
1
60
0
100
AcDbLine
10
36.932003
20
-6.825002
30
0
11
37.767997
21
-6.824998
31
0
39
0
210
0
220
0
230
1
0
LINE
5
150
100
AcDbEntity
8
2
62
256
6
ByLayer
370
-1
48
1
60
0
100
AcDbLine
10
37.35
20
10
30
0
11
37.767997
21
6.825002
31
0
39
0
210
0
220
0
230
1
0
LINE
5
151
100
AcDbEntity
8
2
62
256
6
ByLayer
370
-1
48
1
60
0
100
AcDbLine
10
37.35
20
10
30
0
11
36.932003
21
6.824998
31
0
39
0
210
0
220
0
230
1
0
LINE
5
152
100
AcDbEntity
8
2
62
256
6
ByLayer
370
-1
48
1
60
0
100
AcDbLine
10
37.767997
20
6.825002
30
0
11
36.932003
21
6.824998
31
0
39
0
210
0
220
0
230
1
0
ENDBLK
5
154
100
AcDbEntity
8
0
100
AcDbBlockEnd
0
BLOCK
5
161
100
AcDbEntity
8
0
100
AcDbBlockBegin
2
DimnDraft3D3
70
0
10
0
20
0
30
0
3
DimnDraft3D3
0
MTEXT
5
157
100
AcDbEntity
8
2
62
256
6
ByLayer
370
-1
48
1
60
0
100
AcDbMText
10
91.125
20
3.974342
30
0
210
0
220
0
230
1
1
\W01.000;\fsimplex.shx,bigfont.shx;15.0 
40
4.5
41
0
44
1.084337
50
90
71
7
72
5
7
DEFAULT
0
LINE
5
158
100
AcDbEntity
8
2
62
256
6
ByLayer
370
-1
48
1
60
0
100
AcDbLine
10
82
20
14.9
30
0
11
94.25
21
14.9
31
0
39
0
210
0
220
0
230
1
0
LINE
5
159
100
AcDbEntity
8
2
62
256
6
ByLayer
370
-1
48
1
60
0
100
AcDbLine
10
82
20
0
30
0
11
94.25
21
0
31
0
39
0
210
0
220
0
230
1
0
LINE
5
15A
100
AcDbEntity
8
2
62
256
6
ByLayer
370
-1
48
1
60
0
100
AcDbLine
10
92.25
20
26.15
30
0
11
92.25
21
-11.25
31
0
39
0
210
0
220
0
230
1
0
LINE
5
15B
100
AcDbEntity
8
2
62
256
6
ByLayer
370
-1
48
1
60
0
100
AcDbLine
10
92.25
20
14.9
30
0
11
91.832003
21
18.074998
31
0
39
0
210
0
220
0
230
1
0
LINE
5
15C
100
AcDbEntity
8
2
62
256
6
ByLayer
370
-1
48
1
60
0
100
AcDbLine
10
92.25
20
14.9
30
0
11
92.667997
21
18.075002
31
0
39
0
210
0
220
0
230
1
0
LINE
5
15D
100
AcDbEntity
8
2
62
256
6
ByLayer
370
-1
48
1
60
0
100
AcDbLine
10
91.832003
20
18.074998
30
0
11
92.667997
21
18.075002
31
0
39
0
210
0
220
0
230
1
0
LINE
5
15E
100
AcDbEntity
8
2
62
256
6
ByLayer
370
-1
48
1
60
0
100
AcDbLine
10
92.25
20
0
30
0
11
92.667997
21
-3.174998
31
0
39
0
210
0
220
0
230
1
0
LINE
5
15F
100
AcDbEntity
8
2
62
256
6
ByLayer
370
-1
48
1
60
0
100
AcDbLine
10
92.25
20
0
30
0
11
91.832003
21
-3.175002
31
0
39
0
210
0
220
0
230
1
0
LINE
5
160
100
AcDbEntity
8
2
62
256
6
ByLayer
370
-1
48
1
60
0
100
AcDbLine
10
92.667997
20
-3.174998
30
0
11
91.832003
21
-3.175002
31
0
39
0
210
0
220
0
230
1
0
ENDBLK
5
162
100
AcDbEntity
8
0
100
AcDbBlockEnd
0
BLOCK
5
16F
100
AcDbEntity
8
0
100
AcDbBlockBegin
2
DimnDraft3D4
70
0
10
0
20
0
30
0
3
DimnDraft3D4
0
MTEXT
5
165
100
AcDbEntity
8
2
62
256
6
ByLayer
370
-1
48
1
60
0
100
AcDbMText
10
35.961842
20
43.775
30
0
210
0
220
0
230
1
1
\W01.000;\fsimplex.shx,bigfont.shx;80.0 
40
4.5
41
0
44
1.084337
50
0
71
7
72
5
7
DEFAULT
0
LINE
5
166
100
AcDbEntity
8
2
62
256
6
ByLayer
370
-1
48
1
60
0
100
AcDbLine
10
0
20
22
30
0
11
0
21
44.65
31
0
39
0
210
0
220
0
230
1
0
LINE
5
167
100
AcDbEntity
8
2
62
256
6
ByLayer
370
-1
48
1
60
0
100
AcDbLine
10
80
20
16.9
30
0
11
80
21
44.65
31
0
39
0
210
0
220
0
230
1
0
LINE
5
168
100
AcDbEntity
8
2
62
256
6
ByLayer
370
-1
48
1
60
0
100
AcDbLine
10
0
20
42.65
30
0
11
80
21
42.65
31
0
39
0
210
0
220
0
230
1
0
LINE
5
169
100
AcDbEntity
8
2
62
256
6
ByLayer
370
-1
48
1
60
0
100
AcDbLine
10
0
20
42.65
30
0
11
3.174998
21
43.067997
31
0
39
0
210
0
220
0
230
1
0
LINE
5
16A
100
AcDbEntity
8
2
62
256
6
ByLayer
370
-1
48
1
60
0
100
AcDbLine
10
0
20
42.65
30
0
11
3.175002
21
42.232003
31
0
39
0
210
0
220
0
230
1
0
LINE
5
16B
100
AcDbEntity
8
2
62
256
6
ByLayer
370
-1
48
1
60
0
100
AcDbLine
10
3.174998
20
43.067997
30
0
11
3.175002
21
42.232003
31
0
39
0
210
0
220
0
230
1
0
LINE
5
16C
100
AcDbEntity
8
2
62
256
6
ByLayer
370
-1
48
1
60
0
100
AcDbLine
10
80
20
42.65
30
0
11
76.825002
21
42.232003
31
0
39
0
210
0
220
0
230
1
0
LINE
5
16D
100
AcDbEntity
8
2
62
256
6
ByLayer
370
-1
48
1
60
0
100
AcDbLine
10
80
20
42.65
30
0
11
76.824998
21
43.067997
31
0
39
0
210
0
220
0
230
1
0
LINE
5
16E
100
AcDbEntity
8
2
62
256
6
ByLayer
370
-1
48
1
60
0
100
AcDbLine
10
76.825002
20
42.232003
30
0
11
76.824998
21
43.067997
31
0
39
0
210
0
220
0
230
1
0
ENDBLK
5
170
100
AcDbEntity
8
0
100
AcDbBlockEnd
0
BLOCK
5
17D
100
AcDbEntity
8
0
100
AcDbBlockBegin
2
DimnDraft3D5
70
0
10
0
20
0
30
0
3
DimnDraft3D5
0
MTEXT
5
173
100
AcDbEntity
8
2
62
256
6
ByLayer
370
-1
48
1
60
0
100
AcDbMText
10
47.011842
20
28.775
30
0
210
0
220
0
230
1
1
\W01.000;\fsimplex.shx,bigfont.shx;57.9 
40
4.5
41
0
44
1.084337
50
0
71
7
72
5
7
DEFAULT
0
LINE
5
174
100
AcDbEntity
8
2
62
256
6
ByLayer
370
-1
48
1
60
0
100
AcDbLine
10
22.1
20
12
30
0
11
22.1
21
29.65
31
0
39
0
210
0
220
0
230
1
0
LINE
5
175
100
AcDbEntity
8
2
62
256
6
ByLayer
370
-1
48
1
60
0
100
AcDbLine
10
80
20
16.9
30
0
11
80
21
29.65
31
0
39
0
210
0
220
0
230
1
0
LINE
5
176
100
AcDbEntity
8
2
62
256
6
ByLayer
370
-1
48
1
60
0
100
AcDbLine
10
22.1
20
27.65
30
0
11
80
21
27.65
31
0
39
0
210
0
220
0
230
1
0
LINE
5
177
100
AcDbEntity
8
2
62
256
6
ByLayer
370
-1
48
1
60
0
100
AcDbLine
10
22.1
20
27.65
30
0
11
25.274998
21
28.067997
31
0
39
0
210
0
220
0
230
1
0
LINE
5
178
100
AcDbEntity
8
2
62
256
6
ByLayer
370
-1
48
1
60
0
100
AcDbLine
10
22.1
20
27.65
30
0
11
25.275002
21
27.232003
31
0
39
0
210
0
220
0
230
1
0
LINE
5
179
100
AcDbEntity
8
2
62
256
6
ByLayer
370
-1
48
1
60
0
100
AcDbLine
10
25.274998
20
28.067997
30
0
11
25.275002
21
27.232003
31
0
39
0
210
0
220
0
230
1
0
LINE
5
17A
100
AcDbEntity
8
2
62
256
6
ByLayer
370
-1
48
1
60
0
100
AcDbLine
10
80
20
27.65
30
0
11
76.825002
21
27.232003
31
0
39
0
210
0
220
0
230
1
0
LINE
5
17B
100
AcDbEntity
8
2
62
256
6
ByLayer
370
-1
48
1
60
0
100
AcDbLine
10
80
20
27.65
30
0
11
76.824998
21
28.067997
31
0
39
0
210
0
220
0
230
1
0
LINE
5
17C
100
AcDbEntity
8
2
62
256
6
ByLayer
370
-1
48
1
60
0
100
AcDbLine
10
76.825002
20
27.232003
30
0
11
76.824998
21
28.067997
31
0
39
0
210
0
220
0
230
1
0
ENDBLK
5
17E
100
AcDbEntity
8
0
100
AcDbBlockEnd
0
BLOCK
5
18B
100
AcDbEntity
8
0
100
AcDbBlockBegin
2
DimnDraft3D6
70
0
10
0
20
0
30
0
3
DimnDraft3D6
0
MTEXT
5
181
100
AcDbEntity
8
2
62
256
6
ByLayer
370
-1
48
1
60
0
100
AcDbMText
10
95.943386
20
-41.659383
30
0
210
0
220
0
230
1
1
\W01.000;\fsimplex.shx,bigfont.shx;107%%d30' 
40
4.5
41
0
44
1.084337
50
36.25
71
7
72
5
7
DEFAULT
0
LINE
5
182
100
AcDbEntity
8
2
62
256
6
ByLayer
370
-1
48
1
60
0
100
AcDbLine
10
76.090825
20
2.50168
30
0
11
60.589594
21
-46.661944
31
0
39
0
210
0
220
0
230
1
0
LINE
5
183
100
AcDbEntity
8
2
62
256
6
ByLayer
370
-1
48
1
60
0
100
AcDbLine
10
82
20
0
30
0
11
124.228455
21
0
31
0
39
0
210
0
220
0
230
1
0
ARC
5
184
100
AcDbEntity
8
2
62
256
6
ByLayer
370
-1
48
1
60
0
100
AcDbCircle
39
0
10
75.302048
20
0
30
0
40
46.9264068782928
210
0
220
0
230
1
100
AcDbArc
50
252.5
51
0
0
LINE
5
185
100
AcDbEntity
8
2
62
256
6
ByLayer
370
-1
48
1
60
0
100
AcDbLine
10
61.191005
20
-44.75451
30
0
11
64.353701
21
-45.257198
31
0
39
0
210
0
220
0
230
1
0
LINE
5
186
100
AcDbEntity
8
2
62
256
6
ByLayer
370
-1
48
1
60
0
100
AcDbLine
10
61.191005
20
-44.75451
30
0
11
64.115832
21
-46.058636
31
0
39
0
210
0
220
0
230
1
0
LINE
5
187
100
AcDbEntity
8
2
62
256
6
ByLayer
370
-1
48
1
60
0
100
AcDbLine
10
64.353701
20
-45.257198
30
0
11
64.115832
21
-46.058636
31
0
39
0
210
0
220
0
230
1
0
LINE
5
188
100
AcDbEntity
8
2
62
256
6
ByLayer
370
-1
48
1
60
0
100
AcDbLine
10
122.228455
20
0
30
0
11
122.59271
21
-3.181612
31
0
39
0
210
0
220
0
230
1
0
LINE
5
189
100
AcDbEntity
8
2
62
256
6
ByLayer
370
-1
48
1
60
0
100
AcDbLine
10
122.228455
20
0
30
0
11
121.756837
21
-3.16748
31
0
39
0
210
0
220
0
230
1
0
LINE
5
18A
100
AcDbEntity
8
2
62
256
6
ByLayer
370
-1
48
1
60
0
100
AcDbLine
10
122.59271
20
-3.181612
30
0
11
121.756837
21
-3.16748
31
0
39
0
210
0
220
0
230
1
0
ENDBLK
5
18C
100
AcDbEntity
8
0
100
AcDbBlockEnd
0
ENDSEC
0
SECTION
2
ENTITIES
0
ARC
5
94
100
AcDbEntity
8
1
62
256
6
ByLayer
370
-1
48
1
60
0
100
AcDbCircle
39
0
10
-26.739484
20
-16
30
0
40
6
210
0
220
0
230
-1
100
AcDbArc
50
14.574216
51
90
0
ARC
5
95
100
AcDbEntity
8
1
62
256
6
ByLayer
370
-1
48
1
60
0
100
AcDbCircle
39
0
10
-26.739484
20
16
30
0
40
6
210
0
220
0
230
-1
100
AcDbArc
50
270
51
345.425784
0
ARC
5
96
100
AcDbEntity
8
SK1
62
256
6
ByLayer
370
-1
48
1
60
0
100
AcDbCircle
39
0
10
0.6
20
-15
30
0
40
1
210
0
220
0
230
-1
100
AcDbArc
50
113.578178
51
126.869898
0
ARC
5
97
100
AcDbEntity
8
SK1
62
256
6
ByLayer
370
-1
48
1
60
0
100
AcDbCircle
39
0
10
0.6
20
15
30
0
40
1
210
0
220
0
230
-1
100
AcDbArc
50
233.130102
51
246.421822
0
ELLIPSE
5
98
100
AcDbEntity
8
1
62
256
6
ByLayer
370
-1
48
1
60
0
100
AcDbEllipse
10
68.408622
20
-0.424385
30
0
11
0.198650364843222
21
-2.04043104726937
31
0
210
0
220
0
230
-1
40
0.671671
41
-2.76940566819088
42
-2.61717014838615
0
ELLIPSE
5
99
100
AcDbEntity
8
1
62
256
6
ByLayer
370
-1
48
1
60
0
100
AcDbEllipse
10
16.948929
20
0
30
0
11
9.36741787978175
21
19.7417491527498
31
0
210
0
220
0
230
-1
40
0.341999
41
-2.98886640869145
42
-2.04527312608988
0
ELLIPSE
5
9A
100
AcDbEntity
8
1
62
256
6
ByLayer
370
-1
48
1
60
0
100
AcDbEllipse
10
69.402641
20
0.574027
30
0
11
1.1162123101943
21
-0.35194038953606
31
0
210
0
220
0
230
1
40
0.995905
41
-0.755695901710302
42
-0.610865238198049
0
ELLIPSE
5
9B
100
AcDbEntity
8
1
62
256
6
ByLayer
370
-1
48
1
60
0
100
AcDbEllipse
10
69.595295
20
10.876811
30
0
11
3.73477565861879
21
-2.04033337061731
31
0
210
0
220
0
230
-1
40
0.550985
41
1.11495945845678
42
1.18497811092346
0
ELLIPSE
5
9C
100
AcDbEntity
8
1
62
256
6
ByLayer
370
-1
48
1
60
0
100
AcDbEllipse
10
68.733324
20
0.605438
30
0
11
1.70437356156392
21
0.6323454943566
31
0
210
0
220
0
230
-1
40
0.390518
41
-1.4585648248232
42
-1.3166102597469
0
ELLIPSE
5
9D
100
AcDbEntity
8
1
62
256
6
ByLayer
370
-1
48
1
60
0
100
AcDbEllipse
10
70.070846
20
12.385067
30
0
11
-4.00561119314255
21
1.26296435791791
31
0
210
0
220
0
230
1
40
0.995905
41
1.09083078249647
42
1.84845911672652
0
ELLIPSE
5
9E
100
AcDbEntity
8
1
62
256
6
ByLayer
370
-1
48
1
60
0
100
AcDbEllipse
10
68.555084
20
0.040133
30
0
11
1.43057542612235
21
-0.451058699256392
31
0
210
0
220
0
230
1
40
0.995905
41
1.76353194713157
42
-0.0236359421491547
0
ELLIPSE
5
9F
100
AcDbEntity
8
1
62
256
6
ByLayer
370
-1
48
1
60
0
100
AcDbEllipse
10
80.818653
20
4.651964
30
0
11
4.00561119314256
21
-1.26296435791789
31
0
210
0
220
0
230
1
40
0.995905
41
-2.85669546593843
42
-2.76134144689688
0
ELLIPSE
5
A0
100
AcDbEntity
8
1
62
256
6
ByLayer
370
-1
48
1
60
0
100
AcDbEllipse
10
68.496633
20
-0.145252
30
0
11
1.43057542612235
21
-0.451058699256392
31
0
210
0
220
0
230
1
40
0.995905
41
1.41403888443301
42
1.7532509918745
0
ELLIPSE
5
A1
100
AcDbEntity
8
1
62
256
6
ByLayer
370
-1
48
1
60
0
100
AcDbEllipse
10
68.496633
20
-0.145252
30
0
11
1.43057542612235
21
-0.451058699256392
31
0
210
0
220
0
230
1
40
0.995905
41
0.0651091531063769
42
0.183552148840606
0
ELLIPSE
5
A2
100
AcDbEntity
8
1
62
256
6
ByLayer
370
-1
48
1
60
0
100
AcDbEllipse
10
70.012395
20
12.199683
30
0
11
4.00561119314255
21
-1.26296435791789
31
0
210
0
220
0
230
1
40
0.995905
41
-1.18020256499945
42
-0.933015437300181
0
ELLIPSE
5
A3
100
AcDbEntity
8
1
62
256
6
ByLayer
370
-1
48
1
60
0
100
AcDbEllipse
10
68.773457
20
0.732652
30
0
11
0.132050190144784
21
-2.41606808419326
31
0
210
0
220
0
230
-1
40
0.545011
41
-1.09282526841376
42
-1.08520015968853
0
ELLIPSE
5
A4
100
AcDbEntity
8
1
62
256
6
ByLayer
370
-1
48
1
60
0
100
AcDbEllipse
10
-0.948929
20
0
30
0
11
9.36741787978086
21
19.7417491527488
31
0
210
0
220
0
230
-1
40
0.341999
41
0.152726244898353
42
1.09631952749996
0
ELLIPSE
5
A5
100
AcDbEntity
8
1
62
256
6
ByLayer
370
-1
48
1
60
0
100
AcDbEllipse
10
-0.948929
20
0
30
0
11
9.36741787978168
21
-19.7417491527498
31
0
210
0
220
0
230
-1
40
0.341999
41
-1.09631952749991
42
-0.152726244898338
0
ELLIPSE
5
A6
100
AcDbEntity
8
1
62
256
6
ByLayer
370
-1
48
1
60
0
100
AcDbEllipse
10
16.948929
20
0
30
0
11
9.3674178797817
21
-19.7417491527498
31
0
210
0
220
0
230
-1
40
0.341999
41
2.04527312608988
42
2.98886640869144
0
ELLIPSE
5
A7
100
AcDbEntity
8
1
62
256
6
ByLayer
370
-1
48
1
60
0
100
AcDbEllipse
10
68.484399
20
-0.184051
30
0
11
1.43057542612235
21
-0.451058699256392
31
0
210
0
220
0
230
1
40
0.995905
41
0.0786720194508624
42
0.205121452231637
0
ELLIPSE
5
A8
100
AcDbEntity
8
1
62
256
6
ByLayer
370
-1
48
1
60
0
100
AcDbEllipse
10
68.484399
20
-0.184051
30
0
11
1.43057542612235
21
-0.451058699256392
31
0
210
0
220
0
230
1
40
0.995905
41
1.41394715681042
42
3.06289063351825
0
ELLIPSE
5
A9
100
AcDbEntity
8
1
62
256
6
ByLayer
370
-1
48
1
60
0
100
AcDbEllipse
10
79.603034
20
14.504264
30
0
11
-0.378625629447014
21
0.119380202403183
31
0
210
0
220
0
230
1
40
0.995905
41
3.1415926535897
42
-0.610865238197921
0
ELLIPSE
5
AA
100
AcDbEntity
8
1
62
256
6
ByLayer
370
-1
48
1
60
0
100
AcDbEllipse
10
69.02703
20
-0.562005
30
0
11
-0.378625629447049
21
0.119380202403194
31
0
210
0
220
0
230
1
40
0.995905
41
0
42
2.53072741539179
0
ELLIPSE
5
AB
100
AcDbEntity
8
1
62
256
6
ByLayer
370
-1
48
1
60
0
100
AcDbEllipse
10
71.927916
20
8.63843
30
0
11
-0.378625629447064
21
0.119380202403199
31
0
210
0
220
0
230
1
40
0.995905
41
-0.610865238198055
42
0
0
ELLIPSE
5
AC
100
AcDbEntity
8
1
62
256
6
ByLayer
370
-1
48
1
60
0
100
AcDbEllipse
10
68.962328
20
-0.767212
30
0
11
0.180039806507973
21
-0.0567663329419678
31
0
210
0
220
0
230
1
40
0.995905
41
-1.84079905825801
42
-1.30080749572324
0
ELLIPSE
5
AD
100
AcDbEntity
8
1
62
256
6
ByLayer
370
-1
48
1
60
0
100
AcDbEllipse
10
73.438668
20
6.950812
30
0
11
-0.176437635888422
21
0.0556305729082892
31
0
210
0
220
0
230
1
40
0.995905
41
-1.08251881899084
42
-0.279158557245286
0
ELLIPSE
5
AE
100
AcDbEntity
8
1
62
256
6
ByLayer
370
-1
48
1
60
0
100
AcDbEllipse
10
73.925932
20
7.644955
30
0
11
-0.176437635888422
21
0.0556305729082892
31
0
210
0
220
0
230
1
40
0.995905
41
-2.12795888797793
42
-0.227926690361083
0
ELLIPSE
5
AF
100
AcDbEntity
8
1
62
256
6
ByLayer
370
-1
48
1
60
0
100
AcDbEllipse
10
74.386335
20
8.037777
30
0
11
-0.402468553215753
21
0.1268978473908
31
0
210
0
220
0
230
1
40
0.995905
41
1.01363376561174
42
1.7885334934642
0
ELLIPSE
5
B0
100
AcDbEntity
8
1
62
256
6
ByLayer
370
-1
48
1
60
0
100
AcDbEllipse
10
74.771811
20
7.569848
30
0
11
-0.176437635888422
21
0.0556305729082892
31
0
210
0
220
0
230
1
40
0.995905
41
-3.0823392316515
42
-0.578159432273159
0
ELLIPSE
5
B1
100
AcDbEntity
8
1
62
256
6
ByLayer
370
-1
48
1
60
0
100
AcDbEllipse
10
75.344463
20
7.368564
30
0
11
-0.402468553215753
21
0.1268978473908
31
0
210
0
220
0
230
1
40
0.995905
41
1.05993937884436E-05
42
0.742193921927539
0
ELLIPSE
5
B2
100
AcDbEntity
8
1
62
256
6
ByLayer
370
-1
48
1
60
0
100
AcDbEllipse
10
75.13187
20
6.802657
30
0
11
-0.176437635888422
21
0.0556305729082892
31
0
210
0
220
0
230
1
40
0.995905
41
-2.89574829709539
42
-1.6244990038098
0
ELLIPSE
5
B3
100
AcDbEntity
8
1
62
256
6
ByLayer
370
-1
48
1
60
0
100
AcDbEllipse
10
74.285269
20
6.876735
30
0
11
-0.71338027915967
21
0.224927938029189
31
0
210
0
220
0
230
1
40
0.995905
41
2.04722493751866
42
2.75372495654942
0
ELLIPSE
5
B4
100
AcDbEntity
8
1
62
256
6
ByLayer
370
-1
48
1
60
0
100
AcDbEllipse
10
74.30795
20
6.948669
30
0
11
0.713380279159671
21
-0.224927938029185
31
0
210
0
220
0
230
1
40
0.995905
41
2.79842868257374
42
2.8738913864078
0
ELLIPSE
5
B5
100
AcDbEntity
8
1
62
256
6
ByLayer
370
-1
48
1
60
0
100
AcDbEllipse
10
74.312455
20
6.962956
30
0
11
0.987097044024414
21
-0.311230502486908
31
0
210
0
220
0
230
1
40
0.995905
41
-1.8762289458939
42
-0.829889374357217
0
ELLIPSE
5
B6
100
AcDbEntity
8
1
62
256
6
ByLayer
370
-1
48
1
60
0
100
AcDbEllipse
10
75.2429
20
6.20787
30
0
11
-0.402468553215753
21
0.1268978473908
31
0
210
0
220
0
230
1
40
0.995905
41
1.11056464897248E-05
42
0.471653580792965
0
ELLIPSE
5
B7
100
AcDbEntity
8
1
62
256
6
ByLayer
370
-1
48
1
60
0
100
AcDbEllipse
10
74.312455
20
6.962956
30
0
11
0.987097044024414
21
-0.311230502486908
31
0
210
0
220
0
230
1
40
0.995905
41
-2.92256851743059
42
-1.8762289458939
0
ELLIPSE
5
B8
100
AcDbEntity
8
1
62
256
6
ByLayer
370
-1
48
1
60
0
100
AcDbEllipse
10
74.285269
20
6.876735
30
0
11
-0.71338027915967
21
0.224927938029189
31
0
210
0
220
0
230
1
40
0.995905
41
0.878022417088908
42
1.54313450817033
0
ELLIPSE
5
B9
100
AcDbEntity
8
1
62
256
6
ByLayer
370
-1
48
1
60
0
100
AcDbEllipse
10
74.30795
20
6.948669
30
0
11
0.713380279159671
21
-0.224927938029185
31
0
210
0
220
0
230
1
40
0.995905
41
-0.343163971015921
42
-0.267701267182075
0
ELLIPSE
5
BA
100
AcDbEntity
8
1
62
256
6
ByLayer
370
-1
48
1
60
0
100
AcDbEllipse
10
74.285269
20
6.876735
30
0
11
0.713380279159675
21
-0.224927938029186
31
0
210
0
220
0
230
1
40
0.995905
41
0.742193921927535
42
1.78853349346424
0
ELLIPSE
5
BB
100
AcDbEntity
8
1
62
256
6
ByLayer
370
-1
48
1
60
0
100
AcDbEllipse
10
74.285269
20
6.876735
30
0
11
-0.71338027915967
21
0.224927938029189
31
0
210
0
220
0
230
1
40
0.995905
41
-1.35305916012556
42
-0.34316397101606
0
ELLIPSE
5
BC
100
AcDbEntity
8
1
62
256
6
ByLayer
370
-1
48
1
60
0
100
AcDbEllipse
10
74.312455
20
6.962956
30
0
11
0.987097044024414
21
-0.311230502486908
31
0
210
0
220
0
230
1
40
0.995905
41
-0.829889374357217
42
0.219024136159191
0
ELLIPSE
5
BD
100
AcDbEntity
8
1
62
256
6
ByLayer
370
-1
48
1
60
0
100
AcDbEllipse
10
74.386335
20
8.037777
30
0
11
-0.402468553215753
21
0.1268978473908
31
0
210
0
220
0
230
1
40
0.995905
41
1.7885334934642
42
2.56343322131669
0
ELLIPSE
5
BE
100
AcDbEntity
8
1
62
256
6
ByLayer
370
-1
48
1
60
0
100
AcDbEllipse
10
74.312455
20
6.962956
30
0
11
0.987097044024414
21
-0.311230502486908
31
0
210
0
220
0
230
1
40
0.995905
41
2.31170327923261
42
-2.92256851743059
0
ELLIPSE
5
BF
100
AcDbEntity
8
1
62
256
6
ByLayer
370
-1
48
1
60
0
100
AcDbEllipse
10
74.312455
20
6.962956
30
0
11
0.987097044024414
21
-0.311230502486908
31
0
210
0
220
0
230
1
40
0.995905
41
0.219024136159193
42
1.26536370769587
0
ELLIPSE
5
C0
100
AcDbEntity
8
1
62
256
6
ByLayer
370
-1
48
1
60
0
100
AcDbEllipse
10
74.285269
20
6.876735
30
0
11
-0.71338027915967
21
0.224927938029189
31
0
210
0
220
0
230
1
40
0.995905
41
-0.267701267182005
42
0.489372711433433
0
ELLIPSE
5
C1
100
AcDbEntity
8
1
62
256
6
ByLayer
370
-1
48
1
60
0
100
AcDbEllipse
10
74.312455
20
6.962956
30
0
11
0.987097044024414
21
-0.311230502486908
31
0
210
0
220
0
230
1
40
0.995905
41
1.26536370769587
42
2.31170327923261
0
ELLIPSE
5
C2
100
AcDbEntity
8
1
62
256
6
ByLayer
370
-1
48
1
60
0
100
AcDbEllipse
10
74.285269
20
6.876735
30
0
11
-0.71338027915967
21
0.224927938029189
31
0
210
0
220
0
230
1
40
0.995905
41
2.99383156808779
42
-2.39939873166227
0
ELLIPSE
5
C3
100
AcDbEntity
8
1
62
256
6
ByLayer
370
-1
48
1
60
0
100
AcDbEllipse
10
75.344463
20
7.368564
30
0
11
-0.402468553215753
21
0.1268978473908
31
0
210
0
220
0
230
1
40
0.995905
41
0.742193921927539
42
1.51709364977995
0
ELLIPSE
5
C4
100
AcDbEntity
8
1
62
256
6
ByLayer
370
-1
48
1
60
0
100
AcDbEllipse
10
74.312455
20
6.962956
30
0
11
1.23983203597269
21
-0.390917539355536
31
0
210
0
220
0
230
1
40
0.995905
41
0
42
6.28318530717959
0
ELLIPSE
5
C5
100
AcDbEntity
8
1
62
256
6
ByLayer
370
-1
48
1
60
0
100
AcDbEllipse
10
74.307726
20
6.94796
30
0
11
1.6451617400407
21
-0.518717504144851
31
0
210
0
220
0
230
1
40
0.995905
41
0
42
6.28318530717959
0
ELLIPSE
5
C6
100
AcDbEntity
8
1
62
256
6
ByLayer
370
-1
48
1
60
0
100
AcDbEllipse
10
74.287988
20
6.885357
30
0
11
1.64516174004069
21
-0.518717504144848
31
0
210
0
220
0
230
1
40
0.995905
41
3.14150371150759
42
0
0
ELLIPSE
5
C7
100
AcDbEntity
8
1
62
256
6
ByLayer
370
-1
48
1
60
0
100
AcDbEllipse
10
76.702148
20
5.303829
30
0
11
-0.37862562944705
21
0.119380202403195
31
0
210
0
220
0
230
1
40
0.995905
41
2.53072741539174
42
-3.14159265358978
0
ELLIPSE
5
C8
100
AcDbEntity
8
1
62
256
6
ByLayer
370
-1
48
1
60
0
100
AcDbEllipse
10
74.315032
20
6.97113
30
0
11
1.81653460596243
21
-0.572751161216689
31
0
210
0
220
0
230
1
40
0.995905
41
0
42
6.28318530717959
0
ELLIPSE
5
C9
100
AcDbEntity
8
1
62
256
6
ByLayer
370
-1
48
1
60
0
100
AcDbEllipse
10
74.292355
20
6.89921
30
0
11
1.73992504334095
21
-0.548596258905589
31
0
210
0
220
0
230
1
40
0.995905
41
0
42
6.28318530717959
0
ELLIPSE
5
CA
100
AcDbEntity
8
1
62
256
6
ByLayer
370
-1
48
1
60
0
100
AcDbEllipse
10
74.296546
20
6.912499
30
0
11
1.78821928265295
21
-0.563823374070493
31
0
210
0
220
0
230
1
40
0.995905
41
-0.501664010537381
42
-9.51285829819906E-16
0
ELLIPSE
5
CB
100
AcDbEntity
8
1
62
256
6
ByLayer
370
-1
48
1
60
0
100
AcDbEllipse
10
74.296546
20
6.912499
30
0
11
1.78821928265295
21
-0.563823374070493
31
0
210
0
220
0
230
1
40
0.995905
41
0
42
0.306611543108462
0
ELLIPSE
5
CC
100
AcDbEntity
8
1
62
256
6
ByLayer
370
-1
48
1
60
0
100
AcDbEllipse
10
74.296546
20
6.912499
30
0
11
1.78821928265295
21
-0.563823374070493
31
0
210
0
220
0
230
1
40
0.995905
41
0.306611267507505
42
-2.63991059020391
0
POINT
5
41
100
AcDbEntity
8
80
62
256
6
ByLayer
370
-1
48
1
60
0
100
AcDbPoint
10
0
20
0
30
0
39
0
210
0
220
0
230
1
50
360
0
POINT
5
43
100
AcDbEntity
8
81
62
256
6
ByLayer
370
-1
48
1
60
0
100
AcDbPoint
10
80
20
14.9
30
0
39
0
210
0
220
0
230
1
50
360
0
POINT
5
45
100
AcDbEntity
8
1
62
256
6
ByLayer
370
-1
48
1
60
0
100
AcDbPoint
10
0
20
0
30
0
39
0
210
0
220
0
230
1
50
360
0
POINT
5
47
100
AcDbEntity
8
2
62
256
6
ByLayer
370
-1
48
1
60
0
100
AcDbPoint
10
80
20
14.9
30
0
39
0
210
0
220
0
230
1
50
360
0
POINT
5
49
100
AcDbEntity
8
2
62
256
6
ByLayer
370
-1
48
1
60
0
100
AcDbPoint
10
79.704183
20
14.086806
30
0
39
0
210
0
220
0
230
1
50
360
0
SPLINE
5
CD
100
AcDbEntity
8
SK1
62
256
6
ByLayer
370
-1
48
1
60
0
100
AcDbSpline
70
4
71
2
72
6
73
3
40
0
40
0
40
0
40
1
40
1
40
1
41
1
10
-2.5
20
14.0000000000425
30
0
41
1
10
-12.5002365839528
20
13.7487592491499
30
0
41
1
10
-22.5004731679057
20
13.4975184982574
30
0
0
SPLINE
5
CE
100
AcDbEntity
8
SK1
62
256
6
ByLayer
370
-1
48
1
60
0
100
AcDbSpline
70
4
71
2
72
6
73
3
40
0
40
0
40
0
40
1
40
1
40
1
41
1
10
-22.5004731679057
20
-13.4975184982324
30
0
41
1
10
-12.5002365839528
20
-13.7487592491245
30
0
41
1
10
-2.5
20
-14.0000000000165
30
0
0
SPLINE
5
CF
100
AcDbEntity
8
SK1
62
256
6
ByLayer
370
-1
48
1
60
0
100
AcDbSpline
70
4
71
2
72
6
73
3
40
0
40
0
40
0
40
1
40
1
40
1
41
1
10
-1.69501459340779
20
14.0202240353752
30
0
41
1
10
-2.0975072967039
20
14.0101120177088
30
0
41
1
10
-2.5
20
14.0000000000425
30
0
0
SPLINE
5
D0
100
AcDbEntity
8
SK1
62
256
6
ByLayer
370
-1
48
1
60
0
100
AcDbSpline
70
4
71
2
72
6
73
3
40
0
40
0
40
0
40
1
40
1
40
1
41
1
10
-2.5
20
-14.0000000000165
30
0
41
1
10
-2.0975072967039
20
-14.0101120176829
30
0
41
1
10
-1.69501459340779
20
-14.0202240353492
30
0
0
SPLINE
5
D1
100
AcDbEntity
8
SK1
62
256
6
ByLayer
370
-1
48
1
60
0
100
AcDbSpline
70
4
71
2
72
6
73
3
40
0
40
0
40
0
40
1
40
1
40
1
41
1
10
-22.5003908339782
20
13.4978821831766
30
0
41
1
10
-23.250195418368
20
13.0391711292673
30
0
41
1
10
-24
20
12.580456895609
30
0
0
SPLINE
5
D2
100
AcDbEntity
8
SK1
62
256
6
ByLayer
370
-1
48
1
60
0
100
AcDbSpline
70
4
71
2
72
6
73
3
40
0
40
0
40
0
40
1
40
1
40
1
41
1
10
-24
20
-12.579249793836
30
0
41
1
10
-23.2502022102608
20
-13.0377782396013
30
0
41
1
10
-22.5004044652863
20
-13.4963063088843
30
0
0
SPLINE
5
D3
100
AcDbEntity
8
SK1
62
256
6
ByLayer
370
-1
48
1
60
0
100
AcDbSpline
70
4
71
2
72
6
73
3
40
0
40
0
40
0
40
1
40
1
40
1
41
1
10
-1.5307338908475
20
13.6252614478748
30
0
41
1
10
-1.53145146754065
20
13.6187560658346
30
0
41
1
10
-1.53248549198287
20
13.6035488735101
30
0
0
SPLINE
5
D4
100
AcDbEntity
8
SK1
62
256
6
ByLayer
370
-1
48
1
60
0
100
AcDbSpline
70
4
71
3
72
17
73
13
40
0
40
0
40
0
40
0
40
0.0145833558077114
40
0.112130151763803
40
0.219032510386727
40
0.33389777224674
40
0.454856455681662
40
0.579671973306757
40
0.705875321170092
40
0.830911232223804
40
0.952290521297557
40
1
40
1
40
1
40
1
41
1
10
-1.68701305435195
20
-5.32942014223536
30
0
41
1
10
-1.68666930224578
20
-5.38550449046915
30
0
41
1
10
-1.68397445401342
20
-5.81410306988334
30
0
41
1
10
-1.67747795392955
20
-6.59498365509117
30
0
41
1
10
-1.66733035148536
20
-7.67989781062096
30
0
41
1
10
-1.65521296658039
20
-8.75231679586201
30
0
41
1
10
-1.64144529409293
20
-9.78469838326623
30
0
41
1
10
-1.62617518540907
20
-10.7406546133084
30
0
41
1
10
-1.60969228283148
20
-11.593520022169
30
0
41
1
10
-1.59218937142668
20
-12.3124383508891
30
0
41
1
10
-1.57763786243373
20
-12.7998189050261
30
0
41
1
10
-1.56854622455614
20
-13.0112709401583
30
0
41
1
10
-1.56593765313892
20
-13.0666967750816
30
0
0
SPLINE
5
D5
100
AcDbEntity
8
SK1
62
256
6
ByLayer
370
-1
48
1
60
0
100
AcDbSpline
70
4
71
2
72
6
73
3
40
0
40
0
40
0
40
1
40
1
40
1
41
1
10
-1.49999999999994
20
-13.7870504860687
30
0
41
1
10
-0.949999999999932
20
-13.7870504860687
30
0
41
1
10
-0.399999999999977
20
-13.7870504860687
30
0
0
SPLINE
5
D6
100
AcDbEntity
8
SK1
62
256
6
ByLayer
370
-1
48
1
60
0
100
AcDbSpline
70
4
71
2
72
6
73
3
40
0
40
0
40
0
40
1
40
1
40
1
41
1
10
-0.399999999999977
20
13.787050293933
30
0
41
1
10
-0.949999999999932
20
13.787050293933
30
0
41
1
10
-1.49999999999994
20
13.787050293933
30
0
0
SPLINE
5
D7
100
AcDbEntity
8
1
62
256
6
ByLayer
370
-1
48
1
60
0
100
AcDbSpline
70
4
71
3
72
8
73
4
40
0
40
0
40
0
40
0
40
1
40
1
40
1
40
1
41
1
10
70.0094464992162
20
-0.300287467410897
30
0
41
1
10
70.0027419633593
20
-0.349726052652613
30
0
41
1
10
69.991127330596
20
-0.397793306506571
30
0
41
1
10
69.9746435152556
20
-0.444471444494468
30
0
0
SPLINE
5
D8
100
AcDbEntity
8
1
62
256
6
ByLayer
370
-1
48
1
60
0
100
AcDbSpline
70
4
71
3
72
8
73
4
40
0
40
0
40
0
40
0
40
1
40
1
40
1
40
1
41
1
10
69.9996480049936
20
-0.331364320762105
30
0
41
1
10
69.9893230365392
20
-0.376379604142926
30
0
41
1
10
69.9780666602395
20
-0.421132862762192
30
0
41
1
10
69.9658830609212
20
-0.465624567198063
30
0
0
SPLINE
5
D9
100
AcDbEntity
8
1
62
256
6
ByLayer
370
-1
48
1
60
0
100
AcDbSpline
70
4
71
3
72
18
73
14
40
0
40
0
40
0
40
0
40
0.0074698584964997
40
0.0074698584964997
40
0.116973966194809
40
0.116973966194809
40
0.258725811908725
40
0.258725811908725
40
0.483357667469371
40
0.483357667469371
40
0.914372095275296
40
0.914372095275296
40
1
40
1
40
1
40
1
41
1
10
6.92320508075693
20
-5.85988980456943
30
0
41
1
10
6.92208468721896
20
-5.85988980456943
30
0
41
1
10
6.92096421381791
20
-5.85990260585547
30
0
41
1
10
6.90362587375569
20
-5.86029870927993
30
0
41
1
10
6.88729582850942
20
-5.86347117694424
30
0
41
1
10
6.8524149477613
20
-5.87578180524324
30
0
41
1
10
6.83403826981095
20
-5.88647487106027
30
0
41
1
10
6.7918964493229
20
-5.91885996191019
30
0
41
1
10
6.77017927255531
20
-5.94374247779564
30
0
41
1
10
6.71671845086615
20
-6.02032056207844
30
0
41
1
10
6.69216738458636
20
-6.07738634703685
30
0
41
1
10
6.67004133265903
20
-6.14652276485683
30
0
41
1
10
6.66660535986756
20
-6.15810095961689
30
0
41
1
10
6.66339745962159
20
-6.16973001948574
30
0
0
SPLINE
5
DA
100
AcDbEntity
8
1
62
256
6
ByLayer
370
-1
48
1
60
0
100
AcDbSpline
70
4
71
3
72
13
73
9
40
0
40
0
40
0
40
0
40
0.0201220819320912
40
0.0201220819320912
40
0.73065713093928
40
0.73065713093928
40
0.73065713093928
40
1
40
1
40
1
40
1
41
1
10
61.8477598532471
20
9.96686403023895
30
0
41
1
10
61.859742855173
20
9.9606865768495
30
0
41
1
10
61.8717556621732
20
9.9545667897313
30
0
41
1
10
62.303340109117
20
9.73731193026117
30
0
41
1
10
62.7650831377316
20
9.59550442280192
30
0
41
1
10
63.2315800446761
20
9.53494698880991
30
0
41
1
10
63.4105896726765
20
9.51170918472118
30
0
41
1
10
63.5915757954719
20
9.5
30
0
41
1
10
63.7722587052281
20
9.5
30
0
0
SPLINE
5
DB
100
AcDbEntity
8
1
62
256
6
ByLayer
370
-1
48
1
60
0
100
AcDbSpline
70
4
71
3
72
18
73
14
40
0
40
0
40
0
40
0
40
0.0074698584965012
40
0.0074698584965012
40
0.116973966194809
40
0.116973966194809
40
0.25872581190871
40
0.25872581190871
40
0.483357667469334
40
0.483357667469334
40
0.914372095275209
40
0.914372095275209
40
1
40
1
40
1
40
1
41
1
10
6.92320508075693
20
19.1222825906925
30
0
41
1
10
6.92208468721896
20
19.1222825906925
30
0
41
1
10
6.92096421381791
20
19.122278667842
30
0
41
1
10
6.90362587375569
20
19.1221572838471
30
0
41
1
10
6.88729582850942
20
19.1211855627664
30
0
41
1
10
6.8524149477613
20
19.1174067506415
30
0
41
1
10
6.83403826981095
20
19.1141200721533
30
0
41
1
10
6.7918964493229
20
19.1041233146922
30
0
41
1
10
6.77017927255531
20
19.0964050302576
30
0
41
1
10
6.71671845086621
20
19.072454346092
30
0
41
1
10
6.69216738458636
20
19.054370658815
30
0
41
1
10
6.67004133265903
20
19.0320887998676
30
0
41
1
10
6.66660535986762
20
19.0283457512526
30
0
41
1
10
6.66339745962159
20
19.0245744101322
30
0
0
SPLINE
5
DC
100
AcDbEntity
8
1
62
256
6
ByLayer
370
-1
48
1
60
0
100
AcDbSpline
70
4
71
3
72
16
73
12
40
0
40
0
40
0
40
0
40
0.26737209152346
40
0.26737209152346
40
0.600855844067949
40
0.600855844067949
40
0.762574643716998
40
0.762574643716998
40
0.898037673161785
40
0.898037673161785
40
1
40
1
40
1
40
1
41
1
10
9.33660254037846
20
-6.16973001948571
30
0
41
1
10
9.32665759364994
20
-6.13367828095585
30
0
41
1
10
9.31453185229014
20
-6.0980179296067
30
0
41
1
10
9.28070303055785
20
-6.02025855383846
30
0
41
1
10
9.25716973041017
20
-5.97794802948579
30
0
41
1
10
9.21115368872728
20
-5.92367470492709
30
0
41
1
10
9.19404341926793
20
-5.90709361727357
30
0
41
1
10
9.15864533843364
20
-5.88208699512398
30
0
41
1
10
9.14061920638903
20
-5.87260601127613
30
0
41
1
10
9.10716397282852
20
-5.86230971122512
30
0
41
1
10
9.09190067197864
20
-5.85988980456943
30
0
41
1
10
9.07679491924313
20
-5.85988980456943
30
0
0
SPLINE
5
DD
100
AcDbEntity
8
1
62
256
6
ByLayer
370
-1
48
1
60
0
100
AcDbSpline
70
4
71
3
72
16
73
12
40
0
40
0
40
0
40
0
40
0.26737209152312
40
0.26737209152312
40
0.600855844067793
40
0.600855844067793
40
0.762574643716858
40
0.762574643716858
40
0.898037673161672
40
0.898037673161672
40
1
40
1
40
1
40
1
41
1
10
9.33660254037846
20
19.0245744101322
30
0
41
1
10
9.32665759364994
20
19.036266103658
30
0
41
1
10
9.3145318522902
20
19.0477160699853
30
0
41
1
10
9.2807030305579
20
19.0724552288876
30
0
41
1
10
9.25716973041023
20
19.0857432838256
30
0
41
1
10
9.21115368872734
20
19.1026287554228
30
0
41
1
10
9.19404341926798
20
19.1077588484921
30
0
41
1
10
9.1586453384337
20
19.1154700309996
30
0
41
1
10
9.14061920638903
20
19.1183821582684
30
0
41
1
10
9.10716397282852
20
19.1215414200073
30
0
41
1
10
9.09190067197864
20
19.1222825906925
30
0
41
1
10
9.07679491924313
20
19.1222825906925
30
0
0
SPLINE
5
DE
100
AcDbEntity
8
1
62
256
6
ByLayer
370
-1
48
1
60
0
100
AcDbSpline
70
4
71
3
72
22
73
18
40
0
40
0
40
0
40
0
40
0.125
40
0.125
40
0.25
40
0.25
40
0.375
40
0.375
40
0.5
40
0.5
40
0.625
40
0.625
40
0.75
40
0.75
40
0.875
40
0.875
40
1
40
1
40
1
40
1
41
1
10
61.1797012382482
20
-8.98571223842816
30
0
41
1
10
59.9576660575933
20
-8.66335162146751
30
0
41
1
10
58.8244976333523
20
-8.19087742135261
30
0
41
1
10
56.8295658162145
20
-6.83271720091389
30
0
41
1
10
55.9612869502052
20
-5.93775450293714
30
0
41
1
10
54.4999691999079
20
-3.79161793701562
30
0
41
1
10
53.891412962369
20
-2.52765517428716
30
0
41
1
10
52.9125665602367
20
0.137411345249603
30
0
41
1
10
52.5276943418337
20
1.56345075233889
30
0
41
1
10
52.1049892485153
20
4.26188675695659
30
0
41
1
10
52.0659288830213
20
5.57463441321283
30
0
41
1
10
52.6752712065879
20
7.69457407150236
30
0
41
1
10
53.3360793892754
20
8.45969759669887
30
0
41
1
10
55.2483682726296
20
9.43406140991505
30
0
41
1
10
56.4488556461435
20
9.65779058388628
30
0
41
1
10
59.0342354093348
20
9.91496341024475
30
0
41
1
10
60.4194833176028
20
9.9490210453306
30
0
41
1
10
61.8477598532471
20
9.96686403023895
30
0
0
SPLINE
5
DF
100
AcDbEntity
8
1
62
256
6
ByLayer
370
-1
48
1
60
0
100
AcDbSpline
70
4
71
3
72
16
73
12
40
0
40
0
40
0
40
0
40
0.267372091523256
40
0.267372091523256
40
0.600855844067868
40
0.600855844067868
40
0.762574643716911
40
0.762574643716911
40
0.898037673161716
40
0.898037673161716
40
1
40
1
40
1
40
1
41
1
10
6.66339745962154
20
-19.0245744101322
30
0
41
1
10
6.67334240635006
20
-19.036266103658
30
0
41
1
10
6.68546814770986
20
-19.0477160699853
30
0
41
1
10
6.7192969694421
20
-19.0724552288877
30
0
41
1
10
6.74283026958983
20
-19.0857432838256
30
0
41
1
10
6.78884631127272
20
-19.1026287554228
30
0
41
1
10
6.80595658073201
20
-19.1077588484921
30
0
41
1
10
6.84135466156636
20
-19.1154700309997
30
0
41
1
10
6.85938079361097
20
-19.1183821582684
30
0
41
1
10
6.89283602717148
20
-19.1215414200073
30
0
41
1
10
6.90809932802136
20
-19.1222825906926
30
0
41
1
10
6.92320508075687
20
-19.1222825906926
30
0
0
SPLINE
5
E0
100
AcDbEntity
8
1
62
256
6
ByLayer
370
-1
48
1
60
0
100
AcDbSpline
70
4
71
3
72
18
73
14
40
0
40
0
40
0
40
0
40
0.0074698584964884
40
0.0074698584964884
40
0.116973966194809
40
0.116973966194809
40
0.258725811908718
40
0.258725811908718
40
0.483357667469339
40
0.483357667469339
40
0.914372095275223
40
0.914372095275223
40
1
40
1
40
1
40
1
41
1
10
9.07679491924307
20
5.85988980456929
30
0
41
1
10
9.07791531278104
20
5.85988980456929
30
0
41
1
10
9.07903578618209
20
5.85990260585533
30
0
41
1
10
9.09637412624431
20
5.86029870927979
30
0
41
1
10
9.11270417149058
20
5.8634711769441
30
0
41
1
10
9.1475850522387
20
5.87578180524309
30
0
41
1
10
9.16596173018905
20
5.8864748710601
30
0
41
1
10
9.20810355067709
20
5.91885996191004
30
0
41
1
10
9.22982072744469
20
5.94374247779547
30
0
41
1
10
9.28328154913385
20
6.02032056207824
30
0
41
1
10
9.30783261541364
20
6.07738634703668
30
0
41
1
10
9.32995866734097
20
6.14652276485666
30
0
41
1
10
9.33339464013244
20
6.15810095961672
30
0
41
1
10
9.33660254037841
20
6.16973001948557
30
0
0
SPLINE
5
E1
100
AcDbEntity
8
1
62
256
6
ByLayer
370
-1
48
1
60
0
100
AcDbSpline
70
4
71
3
72
18
73
14
40
0
40
0
40
0
40
0
40
0.0074698584964846
40
0.0074698584964846
40
0.116973966194816
40
0.116973966194816
40
0.258725811908727
40
0.258725811908727
40
0.483357667469355
40
0.483357667469355
40
0.91437209527524
40
0.91437209527524
40
1
40
1
40
1
40
1
41
1
10
9.07679491924307
20
-19.1222825906926
30
0
41
1
10
9.07791531278104
20
-19.1222825906926
30
0
41
1
10
9.07903578618209
20
-19.122278667842
30
0
41
1
10
9.09637412624431
20
-19.1221572838471
30
0
41
1
10
9.11270417149058
20
-19.1211855627664
30
0
41
1
10
9.1475850522387
20
-19.1174067506416
30
0
41
1
10
9.16596173018905
20
-19.1141200721534
30
0
41
1
10
9.20810355067709
20
-19.1041233146922
30
0
41
1
10
9.22982072744469
20
-19.0964050302577
30
0
41
1
10
9.28328154913385
20
-19.0724543460921
30
0
41
1
10
9.30783261541364
20
-19.0543706588151
30
0
41
1
10
9.32995866734097
20
-19.0320887998676
30
0
41
1
10
9.33339464013244
20
-19.0283457512527
30
0
41
1
10
9.33660254037841
20
-19.0245744101322
30
0
0
SPLINE
5
E2
100
AcDbEntity
8
1
62
256
6
ByLayer
370
-1
48
1
60
0
100
AcDbSpline
70
4
71
3
72
16
73
12
40
0
40
0
40
0
40
0
40
0.267372091523283
40
0.267372091523283
40
0.600855844067897
40
0.600855844067897
40
0.762574643716936
40
0.762574643716936
40
0.898037673161731
40
0.898037673161731
40
1
40
1
40
1
40
1
41
1
10
6.66339745962154
20
6.1697300194856
30
0
41
1
10
6.67334240635006
20
6.13367828095576
30
0
41
1
10
6.68546814770986
20
6.09801792960664
30
0
41
1
10
6.7192969694421
20
6.02025855383837
30
0
41
1
10
6.74283026958983
20
5.9779480294857
30
0
41
1
10
6.78884631127272
20
5.92367470492701
30
0
41
1
10
6.80595658073201
20
5.90709361727346
30
0
41
1
10
6.84135466156636
20
5.88208699512387
30
0
41
1
10
6.85938079361097
20
5.87260601127599
30
0
41
1
10
6.89283602717148
20
5.86230971122501
30
0
41
1
10
6.90809932802136
20
5.85988980456929
30
0
41
1
10
6.92320508075687
20
5.85988980456929
30
0
0
SPLINE
5
E3
100
AcDbEntity
8
1
62
256
6
ByLayer
370
-1
48
1
60
0
100
AcDbSpline
70
4
71
3
72
28
73
24
40
-0.124999999999998
40
-0.124999999999998
40
0
40
0
40
0.125000000000002
40
0.125000000000002
40
0.187500000000002
40
0.187500000000002
40
0.250000000000002
40
0.250000000000002
40
0.375000000000003
40
0.375000000000003
40
0.500000000000003
40
0.500000000000003
40
0.625000000000004
40
0.625000000000004
40
0.687500000000004
40
0.687500000000004
40
0.718750000000003
40
0.718750000000003
40
0.750000000000003
40
0.750000000000003
40
0.875000000000002
40
0.875000000000002
40
1
40
1
40
1.125
40
1.125
41
1
10
59.7205916039463
20
3.39243597027289
30
0
41
1
10
58.6752576151623
20
2.87423490693195
30
0
41
1
10
58.1296580197384
20
2.68877690482984
30
0
41
1
10
57.2894985880463
20
2.81429331583502
30
0
41
1
10
57.005532878357
20
2.93750591805247
30
0
41
1
10
56.5919369771427
20
3.43033972880656
30
0
41
1
10
56.5001915757897
20
3.78236747418794
30
0
41
1
10
56.5747177394764
20
4.72747659419895
30
0
41
1
10
56.9639249137544
20
5.18688710461362
30
0
41
1
10
57.8508317021189
20
5.85991658193163
30
0
41
1
10
58.3865418275255
20
6.0904730239555
30
0
41
1
10
59.5205297402622
20
6.41370539757068
30
0
41
1
10
60.1353139240269
20
6.51752838260501
30
0
41
1
10
61.0833325249569
20
6.5183359046689
30
0
41
1
10
61.4138033475836
20
6.5076176679591
30
0
41
1
10
61.8571732939469
20
6.29834108835968
30
0
41
1
10
61.9894820790477
20
6.16698885091853
30
0
41
1
10
62.0300286780561
20
5.83859416006632
30
0
41
1
10
61.9692796491719
20
5.67933087012321
30
0
41
1
10
61.6097373054247
20
4.96026691936848
30
0
41
1
10
61.1328816953918
20
4.5254678858775
30
0
41
1
10
60.2063178055481
20
3.7323902925138
30
0
41
1
10
59.7205916039463
20
3.39243597027289
30
0
41
1
10
58.6752576151623
20
2.87423490693195
30
0
0
SPLINE
5
E4
100
AcDbEntity
8
1
62
256
6
ByLayer
370
-1
48
1
60
0
100
AcDbSpline
70
4
71
3
72
8
73
4
40
0
40
0
40
0
40
0
40
1
40
1
40
1
40
1
41
1
10
61.7842234453475
20
9.99895072845845
30
0
41
1
10
61.7779308265592
20
10.0023968594893
30
0
41
1
10
61.7994423275303
20
9.9917725852784
30
0
41
1
10
61.8477598532471
20
9.96686403023895
30
0
0
SPLINE
5
E5
100
AcDbEntity
8
SK1
62
256
6
ByLayer
370
-1
48
1
60
0
100
AcDbSpline
70
4
71
3
72
8
73
4
40
0
40
0
40
0
40
0
40
1
40
1
40
1
40
1
41
1
10
-1.49999999999989
20
2.55452876952822
30
0
41
1
10
-1.44087207369961
20
2.90701199552916
30
0
41
1
10
-1.37532387973016
20
3.25201982801605
30
0
41
1
10
-1.30710678118652
20
3.58871725126215
30
0
0
SPLINE
5
E6
100
AcDbEntity
8
SK1
62
256
6
ByLayer
370
-1
48
1
60
0
100
AcDbSpline
70
4
71
3
72
30
73
26
40
0
40
0
40
0
40
0
40
0.323683715287821
40
0.323683715287821
40
0.409735865249923
40
0.409735865249923
40
0.452928625832081
40
0.452928625832081
40
0.468145406180671
40
0.468145406180671
40
0.475617260213128
40
0.475617260213128
40
0.481869520397867
40
0.481869520397867
40
0.48817626052579
40
0.48817626052579
40
0.495259728072395
40
0.495259728072395
40
0.507216161807773
40
0.507216161807773
40
0.544450808915845
40
0.544450808915845
40
0.715771905876251
40
0.715771905876251
40
1
40
1
40
1
40
1
41
1
10
-1.69996145737014
20
2.58069190327925
30
0
41
1
10
-1.69957279427672
20
2.45735174741614
30
0
41
1
10
-1.69747943572611
20
2.33275959372483
30
0
41
1
10
-1.68280786661541
20
2.17510563663223
30
0
41
1
10
-1.6790531264358
20
2.14178513841156
30
0
41
1
10
-1.66982584439813
20
2.09257517130857
30
0
41
1
10
-1.66622418704014
20
2.07599882381985
30
0
41
1
10
-1.65853526999024
20
2.05523575475587
30
0
41
1
10
-1.65621727335139
20
2.04990011502019
30
0
41
1
10
-1.65190392784495
20
2.04295844851055
30
0
41
1
10
-1.65031465018177
20
2.04081354663947
30
0
41
1
10
-1.64708474378222
20
2.03758976610058
30
0
41
1
10
-1.64546025470031
20
2.03637666738331
30
0
41
1
10
-1.64208683909158
20
2.03484515225668
30
0
41
1
10
-1.64029350998902
20
2.0345257545506
30
0
41
1
10
-1.63665124005524
20
2.03480200364953
30
0
41
1
10
-1.63476836522864
20
2.03549609263416
30
0
41
1
10
-1.63011332934303
20
2.03820563111981
30
0
41
1
10
-1.62749907113709
20
2.04079535648785
30
0
41
1
10
-1.61785331798274
20
2.05253646839518
30
0
41
1
10
-1.61239259265159
20
2.06415551700681
30
0
41
1
10
-1.58481103440909
20
2.12952424336697
30
0
41
1
10
-1.57120245893441
20
2.19071878810982
30
0
41
1
10
-1.53537272921415
20
2.35076653698448
30
0
41
1
10
-1.51709733996256
20
2.45260526361207
30
0
41
1
10
-1.49999999999989
20
2.55452876952825
30
0
0
SPLINE
5
E7
100
AcDbEntity
8
SK1
62
256
6
ByLayer
370
-1
48
1
60
0
100
AcDbSpline
70
4
71
3
72
32
73
28
40
0
40
0
40
0
40
0
40
0.343889632240037
40
0.343889632240037
40
0.424881203786091
40
0.424881203786091
40
0.45219319517405
40
0.45219319517405
40
0.473746524143709
40
0.473746524143709
40
0.495563509153789
40
0.495563509153789
40
0.504202913264278
40
0.504202913264278
40
0.510236809227349
40
0.510236809227349
40
0.516312447398371
40
0.516312447398371
40
0.523454548652051
40
0.523454548652051
40
0.535565299712341
40
0.535565299712341
40
0.57300444614615
40
0.57300444614615
40
0.744007987780293
40
0.744007987780293
40
1
40
1
40
1
40
1
41
1
10
-1.49999999999989
20
-2.55452633951475
30
0
41
1
10
-1.5208598537892
20
-2.43017154880397
30
0
41
1
10
-1.54277848657125
20
-2.30539150900933
30
0
41
1
10
-1.58054446546703
20
-2.15690281341079
30
0
41
1
10
-1.58828317908854
20
-2.12879825114811
30
0
41
1
10
-1.60072712650162
20
-2.09279395763306
30
0
41
1
10
-1.60406058795388
20
-2.08384105107302
30
0
41
1
10
-1.61062680538259
20
-2.06838289745696
30
0
41
1
10
-1.61373380991563
20
-2.06173130148738
30
0
41
1
10
-1.62074858386092
20
-2.04929690476194
30
0
41
1
10
-1.62469152135657
20
-2.04329967204669
30
0
41
1
10
-1.6314398383696
20
-2.03738508207587
30
0
41
1
10
-1.6335507648601
20
-2.03598317715259
30
0
41
1
10
-1.63737876424597
20
-2.03469617825761
30
0
41
1
10
-1.63905717359933
20
-2.03448731940549
30
0
41
1
10
-1.64239270814323
20
-2.0349385986527
30
0
41
1
10
-1.6440888940507
20
-2.03561765464858
30
0
41
1
10
-1.64749825596726
20
-2.03787010124455
30
0
41
1
10
-1.64921667651578
20
-2.03959185511141
30
0
41
1
10
-1.65333511326014
20
-2.04482054191681
30
0
41
1
10
-1.65549701098456
20
-2.04879885431208
30
0
41
1
10
-1.66311966371092
20
-2.06550748630016
30
0
41
1
10
-1.66673415611746
20
-2.07974527657228
30
0
41
1
10
-1.68385102741172
20
-2.1575921539345
30
0
41
1
10
-1.68804814437192
20
-2.22386329884722
30
0
41
1
10
-1.69782346255602
20
-2.3865563041347
30
0
41
1
10
-1.69965656225776
20
-2.48393126749517
30
0
41
1
10
-1.69996145716266
20
-2.58068890323847
30
0
0
SPLINE
5
E8
100
AcDbEntity
8
SK1
62
256
6
ByLayer
370
-1
48
1
60
0
100
AcDbSpline
70
4
71
3
72
27
73
23
40
0
40
0
40
0
40
0
40
0.0373491017623529
40
0.088422386502302
40
0.139495671242251
40
0.1905689559822
40
0.241642240722149
40
0.292715525462099
40
0.343788810202048
40
0.394862094941997
40
0.445935379681946
40
0.497008664421895
40
0.548081949161844
40
0.599155233901794
40
0.650228518641743
40
0.701301803381692
40
0.752375088121641
40
0.80344837286159
40
0.854521657601539
40
0.905594942341489
40
0.956668227081438
40
1
40
1
40
1
40
1
41
1
10
-0.399999999999977
20
13.7965930683392
30
0
41
1
10
-0.399999999999977
20
13.7852940851148
30
0
41
1
10
-0.400000000000034
20
13.7501746952335
30
0
41
1
10
-0.399999999999977
20
13.6607745146452
30
0
41
1
10
-0.399999999999977
20
13.5152595834079
30
0
41
1
10
-0.399999999999977
20
13.3190171661248
30
0
41
1
10
-0.399999999999977
20
13.0696050793313
30
0
41
1
10
-0.39999999999992
20
12.765695711353
30
0
41
1
10
-0.39999999999992
20
12.4071875173709
30
0
41
1
10
-0.39999999999992
20
11.9952649527342
30
0
41
1
10
-0.39999999999992
20
11.5324121673266
30
0
41
1
10
-0.39999999999992
20
11.0223736645665
30
0
41
1
10
-0.39999999999992
20
10.470066387995
30
0
41
1
10
-0.39999999999992
20
9.88144573908428
30
0
41
1
10
-0.39999999999992
20
9.26332794093628
30
0
41
1
10
-0.39999999999992
20
8.62318069742537
30
0
41
1
10
-0.39999999999992
20
7.96888164701966
30
0
41
1
10
-0.39999999999992
20
7.30846469728445
30
0
41
1
10
-0.39999999999992
20
6.64985041554638
30
0
41
1
10
-0.39999999999992
20
6.00058612356241
30
0
41
1
10
-0.39999999999992
20
5.39957119182188
30
0
41
1
10
-0.39999999999992
20
5.02226907709914
30
0
41
1
10
-0.39999999999992
20
4.85227506835238
30
0
0
SPLINE
5
E9
100
AcDbEntity
8
SK1
62
256
6
ByLayer
370
-1
48
1
60
0
100
AcDbSpline
70
4
71
3
72
24
73
20
40
0
40
0
40
0
40
0
40
0.0008299253360612
40
0.0008299253360612
40
0.374241324444129
40
0.374241324444129
40
0.632344789479538
40
0.632344789479538
40
0.762112395220962
40
0.762112395220962
40
0.806579694985635
40
0.806579694985635
40
0.851786357615311
40
0.851786357615311
40
0.893227000155169
40
0.893227000155169
40
0.936464331680783
40
0.936464331680783
40
1
40
1
40
1
40
1
41
1
10
-0.218267038722615
20
-13.9259778556267
30
0
41
1
10
-0.218280426881961
20
-13.9259543424539
30
0
41
1
10
-0.218293824099817
20
-13.9259308243107
30
0
41
1
10
-0.224346935588187
20
-13.9153098301286
30
0
41
1
10
-0.232233669438131
20
-13.9036655551733
30
0
41
1
10
-0.252765410814618
20
-13.8814084969653
30
0
41
1
10
-0.26298325754334
20
-13.8715421084066
30
0
41
1
10
-0.286616108803798
20
-13.8549361512882
30
0
41
1
10
-0.296048597512936
20
-13.8489546731
30
0
41
1
10
-0.313313649213967
20
-13.8405611977702
30
0
41
1
10
-0.318242626725294
20
-13.8383488525843
30
0
41
1
10
-0.32918712877688
20
-13.8339930106961
30
0
41
1
10
-0.335388564995355
20
-13.83179581462
30
0
41
1
10
-0.347755359286111
20
-13.8280854434499
30
0
41
1
10
-0.354048035137055
20
-13.8264890383489
30
0
41
1
10
-0.366250197629427
20
-13.8239295609977
30
0
41
1
10
-0.372316125402563
20
-13.8229457626001
30
0
41
1
10
-0.386037066972222
20
-13.821215643274
30
0
41
1
10
-0.393386043187945
20
-13.8207370125792
30
0
41
1
10
-0.399999999999977
20
-13.8205593061294
30
0
0
SPLINE
5
EA
100
AcDbEntity
8
SK1
62
256
6
ByLayer
370
-1
48
1
60
0
100
AcDbSpline
70
4
71
3
72
79
73
75
40
0
40
0
40
0
40
0
40
0.0069311075253428
40
0.0210187902978691
40
0.0351064730703953
40
0.0491941558429215
40
0.0632818386154478
40
0.0773695213879741
40
0.0914572041605003
40
0.105544886933026
40
0.119632569705553
40
0.133720252478079
40
0.147807935250605
40
0.161895618023131
40
0.175983300795658
40
0.190070983568184
40
0.20415866634071
40
0.218246349113237
40
0.232334031885763
40
0.246421714658289
40
0.260509397430815
40
0.274597080203341
40
0.288684762975868
40
0.302772445748394
40
0.31686012852092
40
0.330947811293447
40
0.345035494065973
40
0.359123176838499
40
0.373210859611025
40
0.387298542383551
40
0.401386225156078
40
0.415473907928604
40
0.42956159070113
40
0.443649273473656
40
0.457736956246183
40
0.471824639018709
40
0.485912321791235
40
0.500000004563761
40
0.514087687336288
40
0.528175370108814
40
0.54226305288134
40
0.556350735653866
40
0.570438418426393
40
0.584526101198919
40
0.598613783971445
40
0.612701466743971
40
0.626789149516498
40
0.640876832289024
40
0.65496451506155
40
0.669052197834076
40
0.683139880606603
40
0.697227563379129
40
0.711315246151655
40
0.725402928924181
40
0.739490611696708
40
0.753578294469234
40
0.76766597724176
40
0.781753660014286
40
0.795841342786813
40
0.809929025559339
40
0.824016708331865
40
0.838104391104391
40
0.852192073876918
40
0.866279756649444
40
0.88036743942197
40
0.894455122194496
40
0.908542804967023
40
0.922630487739549
40
0.936718170512075
40
0.950805853284601
40
0.964893536057128
40
0.978981218829654
40
0.99306890160218
40
1
40
1
40
1
40
1
41
1
10
-2.5
20
-13.8300380008039
30
0
41
1
10
-2.5
20
-13.8443994546755
30
0
41
1
10
-2.5
20
-13.8858550854485
30
0
41
1
10
-2.5
20
-13.9432745301022
30
0
41
1
10
-2.5
20
-13.9887542441536
30
0
41
1
10
-2.5
20
-14.0056234056246
30
0
41
1
10
-2.5
20
-13.988752133348
30
0
41
1
10
-2.5
20
-13.9330904587156
30
0
41
1
10
-2.5
20
-13.8339177083708
30
0
41
1
10
-2.5
20
-13.6870701821128
30
0
41
1
10
-2.5
20
-13.4891606659135
30
0
41
1
10
-2.5
20
-13.2377634553435
30
0
41
1
10
-2.5
20
-12.9315646731672
30
0
41
1
10
-2.5
20
-12.5704720586786
30
0
41
1
10
-2.49999999999994
20
-12.1556745862519
30
0
41
1
10
-2.49999999999994
20
-11.6896573582757
30
0
41
1
10
-2.49999999999994
20
-11.1761598486008
30
0
41
1
10
-2.49999999999994
20
-10.6200921552756
30
0
41
1
10
-2.49999999999994
20
-10.0273966309962
30
0
41
1
10
-2.49999999999994
20
-9.40487698463008
30
0
41
1
10
-2.49999999999994
20
-8.75998301936997
30
0
41
1
10
-2.49999999999994
20
-8.10057759802723
30
0
41
1
10
-2.49999999999994
20
-7.43467620819112
30
0
41
1
10
-2.49999999999994
20
-6.77018655593477
30
0
41
1
10
-2.49999999999994
20
-6.11464187468977
30
0
41
1
10
-2.49999999999994
20
-5.47495238907831
30
0
41
1
10
-2.49999999999994
20
-4.85717257311447
30
0
41
1
10
-2.49999999999994
20
-4.26630223424849
30
0
41
1
10
-2.49999999999994
20
-3.70612309484702
30
0
41
1
10
-2.49999999999994
20
-3.17908000235968
30
0
41
1
10
-2.49999999999994
20
-2.68621197756718
30
0
41
1
10
-2.49999999999994
20
-2.22713214869714
30
0
41
1
10
-2.49999999999994
20
-1.80006432484655
30
0
41
1
10
-2.49999999999994
20
-1.40192548161284
30
0
41
1
10
-2.49999999999994
20
-1.02846311010666
30
0
41
1
10
-2.49999999999994
20
-0.674428687296569
30
0
41
1
10
-2.49999999999994
20
-0.333795915844576
30
0
41
1
10
-2.49999999999994
20
7.12340693E-08
30
0
41
1
10
-2.49999999999994
20
0.333795630908241
30
0
41
1
10
-2.49999999999994
20
0.674428818459575
30
0
41
1
10
-2.49999999999994
20
1.02846287039082
30
0
41
1
10
-2.49999999999994
20
1.40192558052763
30
0
41
1
10
-2.49999999999994
20
1.80006416890296
30
0
41
1
10
-2.49999999999994
20
2.22713219916599
30
0
41
1
10
-2.49999999999994
20
2.68621193163514
30
0
41
1
10
-2.49999999999994
20
3.17907999530164
30
0
41
1
10
-2.49999999999994
20
3.70612316901105
30
0
41
1
10
-2.49999999999994
20
4.26630216899858
30
0
41
1
10
-2.49999999999994
20
4.85717275994992
30
0
41
1
10
-2.49999999999994
20
5.47495227341935
30
0
41
1
10
-2.49999999999994
20
6.11464215048997
30
0
41
1
10
-2.49999999999994
20
6.7701864048623
30
0
41
1
10
-2.49999999999994
20
7.43467653668063
30
0
41
1
10
-2.49999999999994
20
8.10057743145504
30
0
41
1
10
-2.49999999999994
20
8.75998335716918
30
0
41
1
10
-2.49999999999994
20
9.40487682435958
30
0
41
1
10
-2.49999999999994
20
10.027396934279
30
0
41
1
10
-2.49999999999994
20
10.6200920217111
30
0
41
1
10
-2.49999999999994
20
11.1761600795757
30
0
41
1
10
-2.49999999999994
20
11.6896572673894
30
0
41
1
10
-2.49999999999994
20
12.1556747188218
30
0
41
1
10
-2.5
20
12.5704720196536
30
0
41
1
10
-2.5
20
12.931564696697
30
0
41
1
10
-2.5
20
13.2377634692878
30
0
41
1
10
-2.5
20
13.4891605866066
30
0
41
1
10
-2.5
20
13.6870702420279
30
0
41
1
10
-2.5
20
13.8339175480175
30
0
41
1
10
-2.5
20
13.9330908491367
30
0
41
1
10
-2.5
20
13.9887513430622
30
0
41
1
10
-2.5
20
14.0056234821498
30
0
41
1
10
-2.5
20
13.9887547283385
30
0
41
1
10
-2.5
20
13.9432743681012
30
0
41
1
10
-2.5
20
13.8858549225244
30
0
41
1
10
-2.5
20
13.8443994049363
30
0
41
1
10
-2.5
20
13.8300379990088
30
0
0
SPLINE
5
EB
100
AcDbEntity
8
SK1
62
256
6
ByLayer
370
-1
48
1
60
0
100
AcDbSpline
70
4
71
3
72
22
73
18
40
0
40
0
40
0
40
0
40
0.0595258214859284
40
0.0595258214859284
40
0.105568894829459
40
0.105568894829459
40
0.142277186834084
40
0.142277186834084
40
0.178981358892391
40
0.178981358892391
40
0.229954859327503
40
0.229954859327503
40
0.321691642302811
40
0.321691642302811
40
0.612167812350022
40
0.612167812350022
40
1
40
1
40
1
40
1
41
1
10
-0.399999999999977
20
13.8205590132786
30
0
41
1
10
-0.394013511242747
20
13.8207198641373
30
0
41
1
10
-0.387438377041576
20
13.8211277948213
30
0
41
1
10
-0.374607857819001
20
13.8226095541097
30
0
41
1
10
-0.368494470268672
20
13.8235344490986
30
0
41
1
10
-0.357073302473168
20
13.8258132771122
30
0
41
1
10
-0.351741572367757
20
13.8270713477329
30
0
41
1
10
-0.34140996003066
20
13.8299215021952
30
0
41
1
10
-0.336294849042872
20
13.831543966011
30
0
41
1
10
-0.325054468279177
20
13.8355258548496
30
0
41
1
10
-0.319101901704414
20
13.8379842992552
30
0
41
1
10
-0.304411347490543
20
13.8446767815525
30
0
41
1
10
-0.296779548188397
20
13.8489171706104
30
0
41
1
10
-0.269692663824287
20
13.8655029311592
30
0
41
1
10
-0.257826564745358
20
13.8765532193897
30
0
41
1
10
-0.235124081103947
20
13.8999306105895
30
0
41
1
10
-0.225788536075299
20
13.9118728961634
30
0
41
1
10
-0.219011124100007
20
13.9226732108115
30
0
0
SPLINE
5
EC
100
AcDbEntity
8
SK1
62
256
6
ByLayer
370
-1
48
1
60
0
100
AcDbSpline
70
4
71
3
72
36
73
32
40
0
40
0
40
0
40
0
40
0.0609459679813121
40
0.0609459679813121
40
0.132350572984863
40
0.132350572984863
40
0.203732784324439
40
0.203732784324439
40
0.275101574810982
40
0.275101574810982
40
0.346462424970397
40
0.346462424970397
40
0.417819049793404
40
0.417819049793404
40
0.489174288115054
40
0.489174288115054
40
0.560530863047884
40
0.560530863047884
40
0.631891607752988
40
0.631891607752988
40
0.703260276789057
40
0.703260276789057
40
0.7746421412311
40
0.7746421412311
40
0.846046336364057
40
0.846046336364057
40
0.917489939235097
40
0.917489939235097
40
0.989010298502674
40
0.989010298502674
40
1
40
1
40
1
40
1
41
1
10
-1.69993712518539
20
-14.0200998908196
30
0
41
1
10
-1.69994579429306
20
-14.0197255439058
30
0
41
1
10
-1.69995293797183
20
-13.9984598300086
30
0
41
1
10
-1.699965968995
20
-13.912699878437
30
0
41
1
10
-1.69997144501832
20
-13.8412461697365
30
0
41
1
10
-1.69998026772578
20
-13.6540534429184
30
0
41
1
10
-1.69998362760805
20
-13.5381086536818
30
0
41
1
10
-1.69998893512076
20
-13.2660178923742
30
0
41
1
10
-1.69999089366297
20
-13.1096457528619
30
0
41
1
10
-1.69999393023608
20
-12.759718428774
30
0
41
1
10
-1.69999500206262
20
-12.5659031533754
30
0
41
1
10
-1.69999661222783
20
-12.1434156407086
30
0
41
1
10
-1.69999715099709
20
-11.9144442673658
30
0
41
1
10
-1.69999791606472
20
-11.4234052370848
30
0
41
1
10
-1.69999814136457
20
-11.1610105069826
30
0
41
1
10
-1.69999839419393
20
-10.6045273427662
30
0
41
1
10
-1.69999842180135
20
-10.310058909404
30
0
41
1
10
-1.69999829195729
20
-9.69048832766435
30
0
41
1
10
-1.69999813485146
20
-9.36495240576079
30
0
41
1
10
-1.69999754826785
20
-8.68408754721199
30
0
41
1
10
-1.69999711775762
20
-8.3282356479576
30
0
41
1
10
-1.69999578337627
20
-7.58734438932615
30
0
41
1
10
-1.69999487990981
20
-7.20167717645487
30
0
41
1
10
-1.69999225979791
20
-6.40163925188287
30
0
41
1
10
-1.69999054604449
20
-5.98644558449715
30
0
41
1
10
-1.6999858288633
20
-5.12780487492378
30
0
41
1
10
-1.69998281485044
20
-4.68321714982289
30
0
41
1
10
-1.69997494930925
20
-3.76648812038707
30
0
41
1
10
-1.69997003537304
20
-3.29259296387656
30
0
41
1
10
-1.69996330814757
20
-2.73138446680247
30
0
41
1
10
-1.69996239228777
20
-2.65618850451398
30
0
41
1
10
-1.6999614571626
20
-2.58068890323852
30
0
0
SPLINE
5
ED
100
AcDbEntity
8
SK1
62
256
6
ByLayer
370
-1
48
1
60
0
100
AcDbSpline
70
4
71
3
72
28
73
24
40
0
40
0
40
0
40
0
40
0.0501427564991567
40
0.0501427564991567
40
0.16249976911837
40
0.16249976911837
40
0.274856781737583
40
0.274856781737583
40
0.387213794356797
40
0.387213794356797
40
0.49957080697601
40
0.49957080697601
40
0.555749313285617
40
0.555749313285617
40
0.611927819595224
40
0.611927819595224
40
0.724284832214437
40
0.724284832214437
40
0.83664184483365
40
0.83664184483365
40
0.948998857452864
40
0.948998857452864
40
1
40
1
40
1
40
1
41
1
10
-24
20
12.5805081847721
30
0
41
1
10
-24
20
12.5752826496516
30
0
41
1
10
-24
20
12.5048481056025
30
0
41
1
10
-24
20
12.1268240366655
30
0
41
1
10
-24
20
11.6069824914266
30
0
41
1
10
-24
20
10.2308904791419
30
0
41
1
10
-23.9999999999999
20
9.3350510096983
30
0
41
1
10
-24
20
7.25451337711701
30
0
41
1
10
-24
20
6.03406201720802
30
0
41
1
10
-23.9999999999999
20
3.29058259471469
30
0
41
1
10
-23.9999999999999
20
1.73762162493182
30
0
41
1
10
-23.9999999999999
20
-0.765894734704204
30
0
41
1
10
-23.9999999999999
20
-1.58205517513369
30
0
41
1
10
-24
20
-3.14126978157822
30
0
41
1
10
-23.9999999999999
20
-3.8725832985441
30
0
41
1
10
-24
20
-5.96204061486441
30
0
41
1
10
-24
20
-7.16781782016216
30
0
41
1
10
-24
20
-9.29720085705901
30
0
41
1
10
-24
20
-10.1768487891987
30
0
41
1
10
-24
20
-11.5892073073507
30
0
41
1
10
-24
20
-12.1068779312492
30
0
41
1
10
-24
20
-12.4983591952166
30
0
41
1
10
-24
20
-12.5722980967013
30
0
41
1
10
-24
20
-12.5789068153825
30
0
0
SPLINE
5
EE
100
AcDbEntity
8
SK1
62
256
6
ByLayer
370
-1
48
1
60
0
100
AcDbSpline
70
4
71
3
72
24
73
20
40
0
40
0
40
0
40
0
40
0.0301438054682626
40
0.0301438054682626
40
0.0534484785704926
40
0.0534484785704926
40
0.0720095400082129
40
0.0720095400082129
40
0.0905695383101134
40
0.0905695383101134
40
0.116305960787128
40
0.116305960787128
40
0.162592546214773
40
0.162592546214773
40
0.309069601694218
40
0.309069601694218
40
0.921117608952043
40
0.921117608952043
40
1
40
1
40
1
40
1
41
1
10
-0.39999999999992
20
-4.85227456454996
30
0
41
1
10
-0.394020023648125
20
-4.84686859936412
30
0
41
1
10
-0.38745185957265
20
-4.84195482474243
30
0
41
1
10
-0.374634642632827
20
-4.83535851489759
30
0
41
1
10
-0.36852859233727
20
-4.8331693070069
30
0
41
1
10
-0.357122680087116
20
-4.83148108534394
30
0
41
1
10
-0.351799999816137
20
-4.83153855404609
30
0
41
1
10
-0.341483048247653
20
-4.83346410195867
30
0
41
1
10
-0.336373704588141
20
-4.83534876772512
30
0
41
1
10
-0.325154856426082
20
-4.84135562492241
30
0
41
1
10
-0.319215535802016
20
-4.84610423757906
30
0
41
1
10
-0.304561922415417
20
-4.86072267449359
30
0
41
1
10
-0.296947393086157
20
-4.87187082056749
30
0
41
1
10
-0.269928948964264
20
-4.91910282403435
30
0
41
1
10
-0.258077067230204
20
-4.95889086918967
30
0
41
1
10
-0.207846446885696
20
-5.16015067546422
30
0
41
1
10
-0.202576938682455
20
-5.32517565344045
30
0
41
1
10
-0.200133226173534
20
-5.50577396851835
30
0
41
1
10
-0.199999999999932
20
-5.52643078383124
30
0
41
1
10
-0.199999999999932
20
-5.54704286105715
30
0
0
SPLINE
5
EF
100
AcDbEntity
8
SK1
62
256
6
ByLayer
370
-1
48
1
60
0
100
AcDbSpline
70
4
71
3
72
24
73
20
40
0
40
0
40
0
40
0
40
0.394875644104776
40
0.394875644104776
40
0.580237478202818
40
0.580237478202818
40
0.768024594545524
40
0.768024594545524
40
0.821318184582328
40
0.821318184582328
40
0.86063645050671
40
0.86063645050671
40
0.893544596745066
40
0.893544596745066
40
0.926376480305815
40
0.926376480305815
40
0.975583602956219
40
0.975583602956219
40
1
40
1
40
1
40
1
41
1
10
-1.30710678118703
20
-3.58871727154681
30
0
41
1
10
-1.25970314050051
20
-3.82268545505016
30
0
41
1
10
-1.20268951681544
20
-4.0522990637061
30
0
41
1
10
-1.088442965686
20
-4.37621064451773
30
0
41
1
10
-1.047217807636
20
-4.47806704652851
30
0
41
1
10
-0.946498347972181
20
-4.67402400407769
30
0
41
1
10
-0.887649711538188
20
-4.77181850306434
30
0
41
1
10
-0.778611976213313
20
-4.87193345154523
30
0
41
1
10
-0.751538353604587
20
-4.89265008986257
30
0
41
1
10
-0.69905062310346
20
-4.92098681441374
30
0
41
1
10
-0.674564059132251
20
-4.93073454927372
30
0
41
1
10
-0.627610440444357
20
-4.94089837201273
30
0
41
1
10
-0.604990345651117
20
-4.94257917258165
30
0
41
1
10
-0.561019153025597
20
-4.93928086468458
30
0
41
1
10
-0.539185873337146
20
-4.9343220454893
30
0
41
1
10
-0.488505513252846
20
-4.91611333631423
30
0
41
1
10
-0.460609299544501
20
-4.89990010346509
30
0
41
1
10
-0.423195770996927
20
-4.87233551414784
30
0
41
1
10
-0.411325532072283
20
-4.86251297160928
30
0
41
1
10
-0.39999999999992
20
-4.85227456454996
30
0
0
SPLINE
5
F0
100
AcDbEntity
8
SK1
62
256
6
ByLayer
370
-1
48
1
60
0
100
AcDbSpline
70
4
71
3
72
73
73
69
40
0
40
0
40
0
40
0
40
0.0021269019394747
40
0.0175876598887031
40
0.0330484178379314
40
0.0485091757871598
40
0.0639699337363882
40
0.0794306916856166
40
0.094891449634845
40
0.110352207584073
40
0.125812965533302
40
0.14127372348253
40
0.156734481431759
40
0.172195239380987
40
0.187655997330215
40
0.203116755279444
40
0.218577513228672
40
0.234038271177901
40
0.249499029127129
40
0.264959787076357
40
0.280420545025586
40
0.295881302974814
40
0.311342060924042
40
0.326802818873271
40
0.342263576822499
40
0.357724334771728
40
0.373185092720956
40
0.388645850670184
40
0.404106608619413
40
0.419567366568641
40
0.43502812451787
40
0.450488882467098
40
0.465949640416326
40
0.481410398365555
40
0.496871156314783
40
0.512331914264012
40
0.52779267221324
40
0.543253430162468
40
0.558714188111697
40
0.574174946060925
40
0.589635704010154
40
0.605096461959382
40
0.62055721990861
40
0.636017977857839
40
0.651478735807067
40
0.666939493756295
40
0.682400251705524
40
0.697861009654752
40
0.713321767603981
40
0.728782525553209
40
0.744243283502438
40
0.759704041451666
40
0.775164799400894
40
0.790625557350123
40
0.806086315299351
40
0.821547073248579
40
0.837007831197808
40
0.852468589147036
40
0.867929347096265
40
0.883390105045493
40
0.898850862994721
40
0.91431162094395
40
0.929772378893178
40
0.945233136842407
40
0.960693894791635
40
0.976154652740863
40
0.991615410690092
40
1
40
1
40
1
40
1
41
1
10
-22.5004731679057
20
13.2758819190878
30
0
41
1
10
-22.5004731679057
20
13.2802062554133
30
0
41
1
10
-22.5004731679057
20
13.3155954383733
30
0
41
1
10
-22.5004731679057
20
13.3761852100001
30
0
41
1
10
-22.5004731679057
20
13.4428288363681
30
0
41
1
10
-22.5004731679057
20
13.4866768366259
30
0
41
1
10
-22.5004731679057
20
13.5029401449552
30
0
41
1
10
-22.5004731679057
20
13.4866735728523
30
0
41
1
10
-22.5004731679057
20
13.4330108195395
30
0
41
1
10
-22.5004731679057
20
13.337397000512
30
0
41
1
10
-22.5004731679057
20
13.1958202698685
30
0
41
1
10
-22.5004731679057
20
13.0050138959382
30
0
41
1
10
-22.5004731679057
20
12.7626398072662
30
0
41
1
10
-22.5004731679057
20
12.4674309788965
30
0
41
1
10
-22.5004731679057
20
12.1192984726134
30
0
41
1
10
-22.5004731679057
20
11.7193888839714
30
0
41
1
10
-22.5004731679057
20
11.2700975146
30
0
41
1
10
-22.5004731679057
20
10.7750305295073
30
0
41
1
10
-22.5004731679057
20
10.2389206082719
30
0
41
1
10
-22.5004731679056
20
9.66749825781358
30
0
41
1
10
-22.5004731679056
20
9.06732135073148
30
0
41
1
10
-22.5004731679056
20
8.44557410053281
30
0
41
1
10
-22.5004731679056
20
7.80983526623564
30
0
41
1
10
-22.5004731679056
20
7.16783457729306
30
0
41
1
10
-22.5004731679056
20
6.52719401685732
30
0
41
1
10
-22.5004731679056
20
5.89517825258659
30
0
41
1
10
-22.5004731679056
20
5.27844782766641
30
0
41
1
10
-22.5004731679056
20
4.68284136974694
30
0
41
1
10
-22.5004731679056
20
4.11317803178852
30
0
41
1
10
-22.5004731679056
20
3.57310471645678
30
0
41
1
10
-22.5004731679056
20
3.06497793170669
30
0
41
1
10
-22.5004731679056
20
2.58979965981251
30
0
41
1
10
-22.5004731679056
20
2.14719700401545
30
0
41
1
10
-22.5004731679056
20
1.73545710126746
30
0
41
1
10
-22.5004731679056
20
1.35160831830677
30
0
41
1
10
-22.5004731679056
20
0.99154975841634
30
0
41
1
10
-22.5004731679056
20
0.650222532349147
30
0
41
1
10
-22.5004731679056
20
0.321815193057716
30
0
41
1
10
-22.5004731679056
20
6.8677366E-08
30
0
41
1
10
-22.5004731679056
20
-0.321815467767209
30
0
41
1
10
-22.5004731679056
20
-0.6502224058938
30
0
41
1
10
-22.5004731679056
20
-0.991549989528409
30
0
41
1
10
-22.5004731679056
20
-1.35160822294216
30
0
41
1
10
-22.5004731679056
20
-1.73545725161398
30
0
41
1
10
-22.5004731679056
20
-2.147196955358
30
0
41
1
10
-22.5004731679056
20
-2.58979970409598
30
0
41
1
10
-22.5004731679056
20
-3.06497793851142
30
0
41
1
10
-22.5004731679056
20
-3.57310464495464
30
0
41
1
10
-22.5004731679056
20
-4.11317809469654
30
0
41
1
10
-22.5004731679056
20
-4.68284118961728
30
0
41
1
10
-22.5004731679056
20
-5.27844793917419
30
0
41
1
10
-22.5004731679056
20
-5.8951779866853
30
0
41
1
10
-22.5004731679056
20
-6.52719416250756
30
0
41
1
10
-22.5004731679056
20
-7.16783426059354
30
0
41
1
10
-22.5004731679056
20
-7.80983542682932
30
0
41
1
10
-22.5004731679056
20
-8.44557377485773
30
0
41
1
10
-22.5004731679056
20
-9.06732150524965
30
0
41
1
10
-22.5004731679056
20
-9.66749796541603
30
0
41
1
10
-22.5004731679057
20
-10.2389207370426
30
0
41
1
10
-22.5004731679057
20
-10.7750303068224
30
0
41
1
10
-22.5004731679057
20
-11.2700976022241
30
0
41
1
10
-22.5004731679057
20
-11.7193887561596
30
0
41
1
10
-22.5004731679057
20
-12.1192985102377
30
0
41
1
10
-22.5004731679057
20
-12.4674309562112
30
0
41
1
10
-22.5004731679057
20
-12.7626397938224
30
0
41
1
10
-22.5004731679057
20
-13.0050139723987
30
0
41
1
10
-22.5004731679057
20
-13.1667104462908
30
0
41
1
10
-22.5004731679057
20
-13.2452876128955
30
0
41
1
10
-22.5004731679057
20
-13.2705909223857
30
0
0
SPLINE
5
F1
100
AcDbEntity
8
SK1
62
256
6
ByLayer
370
-1
48
1
60
0
100
AcDbSpline
70
4
71
3
72
10
73
6
40
0
40
0
40
0
40
0
40
0.5
40
0.5
40
1
40
1
40
1
40
1
41
1
10
-1.69996145737099
20
2.58069190327947
30
0
41
1
10
-1.83066345631863
20
1.75993459600485
30
0
41
1
10
-1.92828862479951
20
0.882205733470045
30
0
41
1
10
-1.92884980393791
20
-0.873906280567809
30
0
41
1
10
-1.83183274904314
20
-1.75257870763846
30
0
41
1
10
-1.69996145715965
20
-2.5806889032381
30
0
0
SPLINE
5
F2
100
AcDbEntity
8
SK1
62
256
6
ByLayer
370
-1
48
1
60
0
100
AcDbSpline
70
4
71
3
72
27
73
23
40
0
40
0
40
0
40
0
40
0.0433318476030133
40
0.0944051784802365
40
0.14547850935746
40
0.196551840234683
40
0.247625171111906
40
0.29869850198913
40
0.349771832866353
40
0.400845163743576
40
0.451918494620799
40
0.502991825498022
40
0.554065156375245
40
0.605138487252469
40
0.656211818129692
40
0.707285149006915
40
0.758358479884139
40
0.809431810761362
40
0.860505141638585
40
0.911578472515808
40
0.962651803393031
40
1
40
1
40
1
40
1
41
1
10
-0.39999999999992
20
-4.85227456455002
30
0
41
1
10
-0.39999999999992
20
-5.02226873502778
30
0
41
1
10
-0.39999999999992
20
-5.3995711445526
30
0
41
1
10
-0.39999999999992
20
-6.00058584498379
30
0
41
1
10
-0.39999999999992
20
-6.64985057156352
30
0
41
1
10
-0.39999999999992
20
-7.30846436616247
30
0
41
1
10
-0.39999999999992
20
-7.96888181888042
30
0
41
1
10
-0.39999999999992
20
-8.62318035716163
30
0
41
1
10
-0.39999999999992
20
-9.26332810646636
30
0
41
1
10
-0.39999999999992
20
-9.88144543350359
30
0
41
1
10
-0.39999999999992
20
-10.4700665265398
30
0
41
1
10
-0.39999999999992
20
-11.022373431452
30
0
41
1
10
-0.39999999999992
20
-11.5324122627522
30
0
41
1
10
-0.39999999999992
20
-11.9952648181666
30
0
41
1
10
-0.39999999999992
20
-12.4071875603976
30
0
41
1
10
-0.39999999999992
20
-12.7656956859389
30
0
41
1
10
-0.399999999999977
20
-13.0696050688166
30
0
41
1
10
-0.399999999999977
20
-13.3190172436223
30
0
41
1
10
-0.399999999999977
20
-13.5152595263794
30
0
41
1
10
-0.399999999999977
20
-13.6607746658667
30
0
41
1
10
-0.399999999999977
20
-13.7501737648896
30
0
41
1
10
-0.39999999999992
20
-13.7852935510281
30
0
41
1
10
-0.400000000000034
20
-13.7965925646335
30
0
0
SPLINE
5
F3
100
AcDbEntity
8
SK1
62
256
6
ByLayer
370
-1
48
1
60
0
100
AcDbSpline
70
4
71
3
72
30
73
26
40
0
40
0
40
0
40
0
40
0.124897922391253
40
0.124897922391253
40
0.167561104039798
40
0.167561104039798
40
0.20347710454182
40
0.20347710454182
40
0.240104439326198
40
0.240104439326198
40
0.250944368985475
40
0.250944368985475
40
0.261968600588373
40
0.261968600588373
40
0.27135982723221
40
0.27135982723221
40
0.284980205918402
40
0.284980205918402
40
0.31124172552855
40
0.31124172552855
40
0.406685756993044
40
0.406685756993044
40
0.786544903778671
40
0.786544903778671
40
1
40
1
40
1
40
1
41
1
10
-1.57434200672611
20
13.5697524952529
30
0
41
1
10
-1.58142388217652
20
13.5659826201094
30
0
41
1
10
-1.5890363536472
20
13.5626863620185
30
0
41
1
10
-1.6013072359338
20
13.5605634744677
30
0
41
1
10
-1.60462784617891
20
13.5602351852046
30
0
41
1
10
-1.61136477270867
20
13.5603829527657
30
0
41
1
10
-1.6146830542956
20
13.5607248602462
30
0
41
1
10
-1.62228239094077
20
13.5626439304685
30
0
41
1
10
-1.62665165692869
20
13.5641658144187
30
0
41
1
10
-1.633716248285
20
13.5686250506848
30
0
41
1
10
-1.6354830178696
20
13.5698688039791
30
0
41
1
10
-1.63916555696898
20
13.5728313577292
30
0
41
1
10
-1.64113772385815
20
13.5746110950765
30
0
41
1
10
-1.64462082807188
20
13.5781471549731
30
0
41
1
10
-1.64619573481406
20
13.5799049614575
30
0
41
1
10
-1.64972043997636
20
13.584157849073
30
0
41
1
10
-1.65159006135411
20
13.5866989919877
30
0
41
1
10
-1.65639599432831
20
13.5937562155754
30
0
41
1
10
-1.65888709683196
20
13.598117184021
30
0
41
1
10
-1.66876077054769
20
13.6169304791085
30
0
41
1
10
-1.67291602816357
20
13.6292362105215
30
0
41
1
10
-1.69081671913955
20
13.6869666460463
30
0
41
1
10
-1.69435307535019
20
13.7234530454499
30
0
41
1
10
-1.69876945362603
20
13.7776281868664
30
0
41
1
10
-1.69958314545909
20
13.7961831676943
30
0
41
1
10
-1.69987639962216
20
13.8139891097792
30
0
0
SPLINE
5
F4
100
AcDbEntity
8
SK1
62
256
6
ByLayer
370
-1
48
1
60
0
100
AcDbSpline
70
4
71
3
72
8
73
4
40
0
40
0
40
0
40
0
40
1
40
1
40
1
40
1
41
1
10
-1.30710678118652
20
-3.5887172715492
30
0
41
1
10
-1.37532422566159
20
-3.25201925983745
30
0
41
1
10
-1.44087263133542
20
-2.90701066801501
30
0
41
1
10
-1.49999999999989
20
-2.55452633951475
30
0
0
SPLINE
5
F5
100
AcDbEntity
8
SK1
62
256
6
ByLayer
370
-1
48
1
60
0
100
AcDbSpline
70
4
71
3
72
26
73
22
40
0
40
0
40
0
40
0
40
0.469785788569223
40
0.469785788569223
40
0.668418514928441
40
0.668418514928441
40
0.804692954578532
40
0.804692954578532
40
0.873184756231219
40
0.873184756231219
40
0.896859155065293
40
0.896859155065293
40
0.920924484951571
40
0.920924484951571
40
0.939434470473137
40
0.939434470473137
40
0.957835931594602
40
0.957835931594602
40
0.988578442147356
40
0.988578442147356
40
1
40
1
40
1
40
1
41
1
10
-0.199999999999932
20
5.54704287025544
30
0
41
1
10
-0.199999999999932
20
5.42431718290925
30
0
41
1
10
-0.203964578956231
20
5.29966999710626
30
0
41
1
10
-0.224282767013278
20
5.12103358120197
30
0
41
1
10
-0.232179309049343
20
5.06756976720519
30
0
41
1
10
-0.252704740622107
20
4.978190210186
30
0
41
1
10
-0.262871079026354
20
4.94160900373799
30
0
41
1
10
-0.286311952507617
20
4.88949466422366
30
0
41
1
10
-0.295652382926335
20
4.87213340280371
30
0
41
1
10
-0.312747464259928
20
4.85229180429835
30
0
41
1
10
-0.317656735592436
20
4.84745945050676
30
0
41
1
10
-0.328573296848788
20
4.83925806030632
30
0
41
1
10
-0.334764979883005
20
4.83584014543155
30
0
41
1
10
-0.346232005513514
20
4.8322957525329
30
0
41
1
10
-0.35150620542197
20
4.83157582806544
30
0
41
1
10
-0.361702396533531
20
4.83188756629812
30
0
41
1
10
-0.366737314583702
20
4.83289323712492
30
0
41
1
10
-0.37930147980228
20
4.83714877172162
30
0
41
1
10
-0.386503100688515
20
4.84144785455825
30
0
41
1
10
-0.395398036299696
20
4.84826453743355
30
0
41
1
10
-0.397738018100881
20
4.85023021284434
30
0
41
1
10
-0.39999999999992
20
4.85227506835233
30
0
0
SPLINE
5
F6
100
AcDbEntity
8
SK1
62
256
6
ByLayer
370
-1
48
1
60
0
100
AcDbSpline
70
4
71
3
72
36
73
32
40
0
40
0
40
0
40
0
40
0.0332996421666341
40
0.0332996421666341
40
0.0866295922416619
40
0.0866295922416619
40
0.193745270168884
40
0.193745270168884
40
0.247042319248779
40
0.247042319248779
40
0.300332977592923
40
0.300332977592923
40
0.353619292121433
40
0.353619292121433
40
0.460448184649849
40
0.460448184649849
40
0.513730575825556
40
0.513730575825556
40
0.620535716610854
40
0.620535716610854
40
0.673818292223676
40
0.673818292223676
40
0.7271023236074
40
0.7271023236074
40
0.833958376066595
40
0.833958376066595
40
0.88724878106689
40
0.88724878106689
40
0.994263406442903
40
0.994263406442903
40
1
40
1
40
1
40
1
41
1
10
-1.69996145737019
20
2.58069190327936
30
0
41
1
10
-1.69996429163041
20
2.80951695785709
30
0
41
1
10
-1.69996696089555
20
3.03562557775425
30
0
41
1
10
-1.699973337193
20
3.6157289366447
30
0
41
1
10
-1.69997671926922
20
3.96552379997851
30
0
41
1
10
-1.69998530650679
20
4.99113580073313
30
0
41
1
10
-1.69998901558614
20
5.6451156934246
30
0
41
1
10
-1.69999286236259
20
6.57296958257461
30
0
41
1
10
-1.69999386162709
20
6.87371338526046
30
0
41
1
10
-1.69999546843786
20
7.4583834927808
30
0
41
1
10
-1.69999607823138
20
7.74261790611689
30
0
41
1
10
-1.69999703744656
20
8.29417338948343
30
0
41
1
10
-1.69999738660749
20
8.56175046472268
30
0
41
1
10
-1.69999817831075
20
9.33946452185438
30
0
41
1
10
-1.69999837743336
20
9.82518649337788
30
0
41
1
10
-1.69999839575109
20
10.4996879381028
30
0
41
1
10
-1.69999835090124
20
10.7156644660853
30
0
41
1
10
-1.69999804475918
20
11.336874457689
30
0
41
1
10
-1.69999762619807
20
11.7157820313895
30
0
41
1
10
-1.69999631259481
20
12.2254945281863
30
0
41
1
10
-1.69999575688217
20
12.385732211918
30
0
41
1
10
-1.69999429236037
20
12.686096780789
30
0
41
1
10
-1.69999338656009
20
12.8263310062018
30
0
41
1
10
-1.69998989513294
20
13.2157140959206
30
0
41
1
10
-1.69998657603577
20
13.4338327645562
30
0
41
1
10
-1.69997869923833
20
13.6890552895256
30
0
41
1
10
-1.69997557888934
20
13.7622199088226
30
0
41
1
10
-1.69996421209731
20
13.9433027119529
30
0
41
1
10
-1.69995396430045
20
14.0130768516047
30
0
41
1
10
-1.69993838351945
20
14.0199514281955
30
0
41
1
10
-1.69993757578186
20
14.0201187474209
30
0
41
1
10
-1.69993675425053
20
14.0201000442182
30
0
0
SPLINE
5
F7
100
AcDbEntity
8
SK1
62
256
6
ByLayer
370
-1
48
1
60
0
100
AcDbSpline
70
4
71
3
72
33
73
29
40
0
40
0
40
0
40
0
40
0.0059999172002414
40
0.0460661204192662
40
0.0861323236382909
40
0.126198526857316
40
0.16626473007634
40
0.206330933295365
40
0.24639713651439
40
0.286463339733415
40
0.32652954295244
40
0.366595746171464
40
0.406661949390489
40
0.446728152609514
40
0.486794355828539
40
0.526860559047563
40
0.566926762266588
40
0.606992965485613
40
0.647059168704638
40
0.687125371923662
40
0.727191575142687
40
0.767257778361712
40
0.807323981580737
40
0.847390184799761
40
0.887456388018786
40
0.927522591237811
40
0.967588794456836
40
1
40
1
40
1
40
1
41
1
10
-1.49999999999989
20
-2.55452633951475
30
0
41
1
10
-1.49999999999989
20
-2.57758935777625
30
0
41
1
10
-1.49999999999989
20
-2.75563386385181
30
0
41
1
10
-1.49999999999989
20
-3.10259085919483
30
0
41
1
10
-1.49999999999989
20
-3.62131828040256
30
0
41
1
10
-1.49999999999989
20
-4.17356946094313
30
0
41
1
10
-1.49999999999989
20
-4.75691744833273
30
0
41
1
10
-1.49999999999989
20
-5.36758879010387
30
0
41
1
10
-1.49999999999989
20
-6.00058584498379
30
0
41
1
10
-1.49999999999989
20
-6.64985057156352
30
0
41
1
10
-1.49999999999989
20
-7.30846436616247
30
0
41
1
10
-1.49999999999989
20
-7.96888181888042
30
0
41
1
10
-1.49999999999989
20
-8.62318035716163
30
0
41
1
10
-1.49999999999989
20
-9.26332810646636
30
0
41
1
10
-1.49999999999989
20
-9.88144543350359
30
0
41
1
10
-1.49999999999989
20
-10.4700665265398
30
0
41
1
10
-1.49999999999994
20
-11.022373431452
30
0
41
1
10
-1.49999999999994
20
-11.5324122627522
30
0
41
1
10
-1.49999999999994
20
-11.9952648181666
30
0
41
1
10
-1.49999999999994
20
-12.4071875603976
30
0
41
1
10
-1.49999999999994
20
-12.7656956859389
30
0
41
1
10
-1.49999999999994
20
-13.0696050688166
30
0
41
1
10
-1.49999999999994
20
-13.3190172436223
30
0
41
1
10
-1.49999999999994
20
-13.5152595263794
30
0
41
1
10
-1.49999999999994
20
-13.6607746658667
30
0
41
1
10
-1.49999999999994
20
-13.7589698929487
30
0
41
1
10
-1.49999999999994
20
-13.8105242760186
30
0
41
1
10
-1.5
20
-13.8227877021916
30
0
41
1
10
-1.49999999999994
20
-13.8245323396283
30
0
0
SPLINE
5
F8
100
AcDbEntity
8
SK1
62
256
6
ByLayer
370
-1
48
1
60
0
100
AcDbSpline
70
4
71
3
72
33
73
29
40
0
40
0
40
0
40
0
40
0.0324085626072208
40
0.0724748849410522
40
0.112541207274884
40
0.152607529608715
40
0.192673851942546
40
0.232740174276378
40
0.272806496610209
40
0.312872818944041
40
0.352939141277872
40
0.393005463611704
40
0.433071785945535
40
0.473138108279367
40
0.513204430613198
40
0.553270752947029
40
0.593337075280861
40
0.633403397614692
40
0.673469719948524
40
0.713536042282355
40
0.753602364616187
40
0.793668686950018
40
0.83373500928385
40
0.873801331617681
40
0.913867653951512
40
0.953933976285344
40
0.994000298619175
40
1
40
1
40
1
40
1
41
1
10
-1.49999999999989
20
13.824531769606
30
0
41
1
10
-1.49999999999989
20
13.8227864649787
30
0
41
1
10
-1.49999999999994
20
13.8105223076575
30
0
41
1
10
-1.49999999999994
20
13.7589702687857
30
0
41
1
10
-1.49999999999994
20
13.6607745146452
30
0
41
1
10
-1.49999999999994
20
13.5152595834079
30
0
41
1
10
-1.49999999999994
20
13.3190171661248
30
0
41
1
10
-1.49999999999994
20
13.0696050793313
30
0
41
1
10
-1.49999999999994
20
12.765695711353
30
0
41
1
10
-1.49999999999994
20
12.4071875173709
30
0
41
1
10
-1.49999999999994
20
11.9952649527342
30
0
41
1
10
-1.49999999999994
20
11.5324121673266
30
0
41
1
10
-1.49999999999994
20
11.0223736645665
30
0
41
1
10
-1.49999999999989
20
10.470066387995
30
0
41
1
10
-1.49999999999989
20
9.88144573908428
30
0
41
1
10
-1.49999999999989
20
9.26332794093628
30
0
41
1
10
-1.49999999999989
20
8.62318069742537
30
0
41
1
10
-1.49999999999989
20
7.96888164701966
30
0
41
1
10
-1.49999999999989
20
7.30846469728445
30
0
41
1
10
-1.49999999999989
20
6.64985041554638
30
0
41
1
10
-1.49999999999989
20
6.00058612356241
30
0
41
1
10
-1.49999999999989
20
5.36758867042255
30
0
41
1
10
-1.49999999999989
20
4.75691763797596
30
0
41
1
10
-1.49999999999989
20
4.17356939352865
30
0
41
1
10
-1.49999999999989
20
3.62131845460988
30
0
41
1
10
-1.49999999999989
20
3.10259083011954
30
0
41
1
10
-1.49999999999989
20
2.75563447873756
30
0
41
1
10
-1.49999999999989
20
2.57759088990096
30
0
41
1
10
-1.49999999999989
20
2.55452876952825
30
0
0
SPLINE
5
F9
100
AcDbEntity
8
SK1
62
256
6
ByLayer
370
-1
48
1
60
0
100
AcDbSpline
70
4
71
3
72
22
73
18
40
0
40
0
40
0
40
0
40
0.0453538571579231
40
0.0453538571579231
40
0.0914518524267671
40
0.0914518524267671
40
0.124365048640693
40
0.124365048640693
40
0.157186848928651
40
0.157186848928651
40
0.206991933628443
40
0.206991933628443
40
0.302636793523901
40
0.302636793523901
40
0.633583445149988
40
0.633583445149988
40
1
40
1
40
1
40
1
41
1
10
-0.39999999999992
20
4.85227506835233
30
0
41
1
10
-0.420964880828194
20
4.87122754186862
30
0
41
1
10
-0.443888117925155
20
4.88887456363264
30
0
41
1
10
-0.494495022291232
20
4.91840151431526
30
0
41
1
10
-0.52299513623484
20
4.93045451470871
30
0
41
1
10
-0.574401278620769
20
4.94114219540694
30
0
41
1
10
-0.597076224252874
20
4.9426164760024
30
0
41
1
10
-0.641056311684338
20
4.93891494651641
30
0
41
1
10
-0.662845886446405
20
4.9337627063027
30
0
41
1
10
-0.71376347581031
20
4.91501929832424
30
0
41
1
10
-0.741856008482671
20
4.89837342492686
30
0
41
1
10
-0.814978349041667
20
4.84361103162897
30
0
41
1
10
-0.854317961498339
20
4.79908644376556
30
0
41
1
10
-1.00688542665307
20
4.59427172963152
30
0
41
1
10
-1.0791858799123
20
4.40986442942582
30
0
41
1
10
-1.21067514066448
20
4.01906025534171
30
0
41
1
10
-1.26311821358462
20
3.80583052169118
30
0
41
1
10
-1.30710678118919
20
3.58871725124908
30
0
0
SPLINE
5
FA
100
AcDbEntity
8
1
62
256
6
ByLayer
370
-1
48
1
60
0
100
AcDbSpline
70
4
71
3
72
18
73
14
40
0
40
0
40
0
40
0
40
0.204492908485566
40
0.204492908485566
40
0.381656358939206
40
0.381656358939206
40
0.560562032125474
40
0.560562032125474
40
0.715791949205316
40
0.715791949205316
40
0.920454214055127
40
0.920454214055127
40
1
40
1
40
1
40
1
41
1
10
74.0915907149386
20
7.84504038062792
30
0
41
1
10
74.1180623623785
20
7.81172232512034
30
0
41
1
10
74.1501489629426
20
7.78153178670914
30
0
41
1
10
74.2186083689547
20
7.73564061866028
30
0
41
1
10
74.2546802556549
20
7.71811283721445
30
0
41
1
10
74.3313240779115
20
7.69473725865069
30
0
41
1
10
74.3731188384835
20
7.68878851491868
30
0
41
1
10
74.4493404078965
20
7.69003941018471
30
0
41
1
10
74.4849185922431
20
7.69555798952089
30
0
41
1
10
74.5619221628261
20
7.717644467578
30
0
41
1
10
74.6029644349599
20
7.73738998263858
30
0
41
1
10
74.6532704693416
20
7.77140984807883
30
0
41
1
10
74.666823138016
20
7.78178790985137
30
0
41
1
10
74.6796643805138
20
7.79282439456182
30
0
0
SPLINE
5
FB
100
AcDbEntity
8
1
62
256
6
ByLayer
370
-1
48
1
60
0
100
AcDbSpline
70
4
71
3
72
16
73
12
40
0
40
0
40
0
40
0
40
0.220562695642211
40
0.220562695642211
40
0.445810546790867
40
0.445810546790867
40
0.682196661244563
40
0.682196661244563
40
0.939646544279455
40
0.939646544279455
40
1
40
1
40
1
40
1
41
1
10
75.3433161417721
20
6.87275612566148
30
0
41
1
10
75.3448848949902
20
6.89105151632671
30
0
41
1
10
75.3436063146785
20
6.90971325917607
30
0
41
1
10
75.3356255006521
20
6.94522304555608
30
0
41
1
10
75.328713664132
20
6.96248098827209
30
0
41
1
10
75.3101183635301
20
6.993950490153
30
0
41
1
10
75.2979986964373
20
7.00837423065323
30
0
41
1
10
75.2695202307627
20
7.03326053018134
30
0
41
1
10
75.2525381146277
20
7.04358399460821
30
0
41
1
10
75.2305632326366
20
7.05255350800888
30
0
41
1
10
75.2263034046539
20
7.05410653366411
30
0
41
1
10
75.2220019958003
20
7.05549540889865
30
0
0
SPLINE
5
FC
100
AcDbEntity
8
1
62
256
6
ByLayer
370
-1
48
1
60
0
100
AcDbSpline
70
4
71
3
72
14
73
10
40
0
40
0
40
0
40
0
40
0.0078161817454166
40
0.0078161817454166
40
0.34785986867745
40
0.34785986867745
40
0.784219418157028
40
0.784219418157028
40
1
40
1
40
1
40
1
41
1
10
73.71153460791
20
7.399529472843
30
0
41
1
10
73.7119659954513
20
7.4002432890868
30
0
41
1
10
73.7123952672076
20
7.40095846139255
30
0
41
1
10
73.7311689920146
20
7.43245004283199
30
0
41
1
10
73.7456527158261
20
7.4660729979939
30
0
41
1
10
73.7683962843674
20
7.54319756600796
30
0
41
1
10
73.7742522680016
20
7.58804712475936
30
0
41
1
10
73.773716962048
20
7.65275024354025
30
0
41
1
10
73.772018690532
20
7.67410269058874
30
0
41
1
10
73.7689147636654
20
7.69500717595037
30
0
0
SPLINE
5
FD
100
AcDbEntity
8
1
62
256
6
ByLayer
370
-1
48
1
60
0
100
AcDbSpline
70
4
71
3
72
18
73
14
40
0
40
0
40
0
40
0
40
0.206118183328009
40
0.206118183328009
40
0.382995021669328
40
0.382995021669328
40
0.561595170262908
40
0.561595170262908
40
0.716764566579538
40
0.716764566579538
40
0.921711383013989
40
0.921711383013989
40
1
40
1
40
1
40
1
41
1
10
74.9716805060893
20
7.58886335178437
30
0
41
1
10
74.957252666456
20
7.54765825359209
30
0
41
1
10
74.9483766392028
20
7.50319175909874
30
0
41
1
10
74.945016522678
20
7.41886795587678
30
0
41
1
10
74.9487369415559
20
7.37829227301899
30
0
41
1
10
74.9679544538289
20
7.29976517432354
30
0
41
1
10
74.9839718548205
20
7.26071970504503
30
0
41
1
10
75.023038325397
20
7.19618662066645
30
0
41
1
10
75.0453076132681
20
7.1687870585514
30
0
41
1
10
75.1018946436391
20
7.11498796144767
30
0
41
1
10
75.138652124544
20
7.09067488433044
30
0
41
1
10
75.1916357281925
20
7.06628996500655
30
0
41
1
10
75.2067215076949
20
7.06042930200738
30
0
41
1
10
75.2220019958003
20
7.05549540889862
30
0
0
SPLINE
5
FE
100
AcDbEntity
8
1
62
256
6
ByLayer
370
-1
48
1
60
0
100
AcDbSpline
70
4
71
3
72
14
73
10
40
0
40
0
40
0
40
0
40
0.258396186029096
40
0.258396186029096
40
0.548880466307915
40
0.548880466307915
40
0.811783753551871
40
0.811783753551871
40
1
40
1
40
1
40
1
41
1
10
73.6495338033639
20
6.32533024235588
30
0
41
1
10
73.6434491713243
20
6.30812286977485
30
0
41
1
10
73.6400634947855
20
6.28936886644652
30
0
41
1
10
73.6397606382658
20
6.24881222315929
30
0
41
1
10
73.6437477451063
20
6.22626586556777
30
0
41
1
10
73.6595159060155
20
6.18568877242811
30
0
41
1
10
73.6707964106963
20
6.16683055394816
30
0
41
1
10
73.6951939607375
20
6.1387337338038
30
0
41
1
10
73.7070902948163
20
6.12801834564308
30
0
41
1
10
73.7200184085196
20
6.11898859926569
30
0
0
SPLINE
5
FF
100
AcDbEntity
8
1
62
256
6
ByLayer
370
-1
48
1
60
0
100
AcDbSpline
70
4
71
3
72
16
73
12
40
0
40
0
40
0
40
0
40
0.0597740598589837
40
0.0597740598589837
40
0.284440882233186
40
0.284440882233186
40
0.511687252251939
40
0.511687252251939
40
0.753171143614499
40
0.753171143614499
40
1
40
1
40
1
40
1
41
1
10
73.2815929156188
20
7.05315571183405
30
0
41
1
10
73.2811645245625
20
7.04815965404597
30
0
41
1
10
73.2809381872107
20
7.04313215533969
30
0
41
1
10
73.2808276461665
20
7.01933740644748
30
0
41
1
10
73.2836488177296
20
7.00024577985863
30
0
41
1
10
73.2944724119349
20
6.96423302405734
30
0
41
1
10
73.3026578943808
20
6.94687645205838
30
0
41
1
10
73.3235140636486
20
6.91503865435848
30
0
41
1
10
73.3366785759382
20
6.90039585416002
30
0
41
1
10
73.3658809349093
20
6.87594535677465
30
0
41
1
10
73.3822837710337
20
6.86596104690324
30
0
41
1
10
73.3992123136529
20
6.85869818524165
30
0
0
SPLINE
5
100
100
AcDbEntity
8
1
62
256
6
ByLayer
370
-1
48
1
60
0
100
AcDbSpline
70
4
71
3
72
18
73
14
40
0
40
0
40
0
40
0
40
0.209850305710305
40
0.209850305710305
40
0.38604218154824
40
0.38604218154824
40
0.563913203461432
40
0.563913203461432
40
0.718926947593055
40
0.718926947593055
40
0.924508255845013
40
0.924508255845013
40
1
40
1
40
1
40
1
41
1
10
74.5296235945145
20
6.06915321351235
30
0
41
1
10
74.5012594737673
20
6.0995608331157
30
0
41
1
10
74.4670304965818
20
6.1269051518471
30
0
41
1
10
74.39561900109
20
6.16750132574975
30
0
41
1
10
74.3589292405915
20
6.18269628760129
30
0
41
1
10
74.2817449609811
20
6.20311451702199
30
0
41
1
10
74.2400509621746
20
6.20844875313992
30
0
41
1
10
74.1645106228856
20
6.20795507735826
30
0
41
1
10
74.1294399449901
20
6.20351319334719
30
0
41
1
10
74.0537280629831
20
6.18502303765359
30
0
41
1
10
74.0136435050045
20
6.16812065255479
30
0
41
1
10
73.9656637071672
20
6.13897419076727
30
0
41
1
10
73.9532826754438
20
6.13045041827488
30
0
41
1
10
73.9415499289389
20
6.12136919957831
30
0
0
SPLINE
5
101
100
AcDbEntity
8
1
62
256
6
ByLayer
370
-1
48
1
60
0
100
AcDbSpline
70
4
71
3
72
20
73
16
40
0
40
0
40
0
40
0
40
0.0911549364458739
40
0.0911549364458739
40
0.291252789111574
40
0.291252789111574
40
0.454375591859062
40
0.454375591859062
40
0.61822281166381
40
0.61822281166381
40
0.772983306497232
40
0.772983306497232
40
0.993981652361736
40
0.993981652361736
40
1
40
1
40
1
40
1
41
1
10
73.649533803364
20
6.32533024235585
30
0
41
1
10
73.6554167354535
20
6.34196720637797
30
0
41
1
10
73.6602112916528
20
6.35922127932375
30
0
41
1
10
73.6716560679425
20
6.41574105032953
30
0
41
1
10
73.6737928223836
20
6.45762734412901
30
0
41
1
10
73.6650982021829
20
6.5348889839936
30
0
41
1
10
73.65639833073
20
6.57089487721075
30
0
41
1
10
73.6297544384389
20
6.64001769666837
30
0
41
1
10
73.6113913990113
20
6.6739997501779
30
0
41
1
10
73.569356325481
20
6.73306871859018
30
0
41
1
10
73.545595040936
20
6.75926942778773
30
0
41
1
10
73.484191113237
20
6.81369126693446
30
0
41
1
10
73.4439284590239
20
6.8390805594496
30
0
41
1
10
73.4014936650374
20
6.85771369081067
30
0
41
1
10
73.4003535930013
20
6.85820854155463
30
0
41
1
10
73.3992123136529
20
6.85869818524165
30
0
0
SPLINE
5
102
100
AcDbEntity
8
1
62
256
6
ByLayer
370
-1
48
1
60
0
100
AcDbSpline
70
4
71
3
72
14
73
10
40
0
40
0
40
0
40
0
40
0.0485551936950061
40
0.0485551936950061
40
0.385330318939829
40
0.385330318939829
40
0.83215963285475
40
0.83215963285475
40
1
40
1
40
1
40
1
41
1
10
74.9043652099886
20
6.49780870750533
30
0
41
1
10
74.9017106034013
20
6.49344178779862
30
0
41
1
10
74.8991411502748
20
6.48903632364838
30
0
41
1
10
74.8796015355712
20
6.45409142984937
30
0
41
1
10
74.8666705360085
20
6.42174052416908
30
0
41
1
10
74.8471451491465
20
6.34756634360258
30
0
41
1
10
74.8435117436715
20
6.30483639676669
30
0
41
1
10
74.847439244519
20
6.24903452995153
30
0
41
1
10
74.8494321540018
20
6.23393368000328
30
0
41
1
10
74.8522815307163
20
6.21912928168257
30
0
0
SPLINE
5
103
100
AcDbEntity
8
1
62
256
6
ByLayer
370
-1
48
1
60
0
100
AcDbSpline
70
4
71
3
72
14
73
10
40
0
40
0
40
0
40
0
40
0.272533876151927
40
0.272533876151927
40
0.561248201524441
40
0.561248201524441
40
0.822711786115037
40
0.822711786115037
40
1
40
1
40
1
40
1
41
1
10
74.0915907149386
20
7.84504038062792
30
0
41
1
10
74.0786743719075
20
7.86129729984853
30
0
41
1
10
74.0627672591626
20
7.87576010936004
30
0
41
1
10
74.0258034164984
20
7.89903476244788
30
0
41
1
10
74.0038919052379
20
7.90778547055535
30
0
41
1
10
73.9604168747271
20
7.91570383818899
30
0
41
1
10
73.9383531053222
20
7.91577926397704
30
0
41
1
10
73.9027002880678
20
7.90916437885514
30
0
41
1
10
73.888372681744
20
7.90460753856433
30
0
41
1
10
73.8749092158374
20
7.8983769102847
30
0
0
SPLINE
5
104
100
AcDbEntity
8
1
62
256
6
ByLayer
370
-1
48
1
60
0
100
AcDbSpline
70
4
71
3
72
14
73
10
40
0
40
0
40
0
40
0
40
0.276507675575705
40
0.276507675575705
40
0.564163278927463
40
0.564163278927463
40
0.824692087118879
40
0.824692087118879
40
1
40
1
40
1
40
1
41
1
10
73.4301575003551
20
7.21242340069668
30
0
41
1
10
73.4101825746527
20
7.2096293687417
30
0
41
1
10
73.3902243568432
20
7.20322004998059
30
0
41
1
10
73.3529690639943
20
7.18302618812444
30
0
41
1
10
73.3352511624078
20
7.16860038476528
30
0
41
1
10
73.3079356075503
20
7.13519161991959
30
0
41
1
10
73.2973469198667
20
7.1162379278264
30
0
41
1
10
73.2858790551707
20
7.08230474588572
30
0
41
1
10
73.2828472169935
20
7.06778384671102
30
0
41
1
10
73.2815929156188
20
7.05315571183405
30
0
0
SPLINE
5
105
100
AcDbEntity
8
1
62
256
6
ByLayer
370
-1
48
1
60
0
100
AcDbSpline
70
4
71
3
72
16
73
12
40
0
40
0
40
0
40
0
40
0.167919871521459
40
0.167919871521459
40
0.391641276175254
40
0.391641276175254
40
0.623805580616226
40
0.623805580616226
40
0.874890630032647
40
0.874890630032647
40
1
40
1
40
1
40
1
41
1
10
74.7499998415535
20
6.02753492721084
30
0
41
1
10
74.762755956677
20
6.03343820740466
30
0
41
1
10
74.774896670559
20
6.0408002556716
30
0
41
1
10
74.8004879336273
20
6.06051817231076
30
0
41
1
10
74.8133413747496
20
6.07399434289812
30
0
41
1
10
74.8342150147774
20
6.10361124844468
30
0
41
1
10
74.8423123848592
20
6.12019711517482
30
0
41
1
10
74.8532372337577
20
6.15514823552076
30
0
41
1
10
74.8557389415609
20
6.17397981955222
30
0
41
1
10
74.8549790644492
20
6.20127452936308
30
0
41
1
10
74.8539785857948
20
6.2103119570979
30
0
41
1
10
74.8522815307163
20
6.21912928168257
30
0
0
SPLINE
5
106
100
AcDbEntity
8
1
62
256
6
ByLayer
370
-1
48
1
60
0
100
AcDbSpline
70
4
71
3
72
14
73
10
40
0
40
0
40
0
40
0
40
0.279815820444305
40
0.279815820444305
40
0.575266153291863
40
0.575266153291863
40
0.83535703331562
40
0.83535703331562
40
1
40
1
40
1
40
1
41
1
10
74.9716805060895
20
7.58886335178431
30
0
41
1
10
74.9788331656698
20
7.60929094509254
30
0
41
1
10
74.9828055173969
20
7.63146092151786
30
0
41
1
10
74.9829690039886
20
7.67725640644005
30
0
41
1
10
74.9786376307497
20
7.7016482959236
30
0
41
1
10
74.9619755159234
20
7.74410199779757
30
0
41
1
10
74.950376848384
20
7.76319594175166
30
0
41
1
10
74.9267128660798
20
7.78968541751601
30
0
41
1
10
74.9162214309088
20
7.79900916117228
30
0
41
1
10
74.9048906488713
20
7.80692323822984
30
0
0
SPLINE
5
107
100
AcDbEntity
8
1
62
256
6
ByLayer
370
-1
48
1
60
0
100
AcDbSpline
70
4
71
3
72
12
73
8
40
0
40
0
40
0
40
0
40
0.459052452643354
40
0.459052452643354
40
0.841360686931816
40
0.841360686931816
40
1
40
1
40
1
40
1
41
1
10
75.1910387940168
20
6.70171305693407
30
0
41
1
10
75.1482096941131
20
6.6920673398061
30
0
41
1
10
75.1052206563974
20
6.67574429430746
30
0
41
1
10
75.0313882223413
20
6.63366852042176
30
0
41
1
10
74.9989297913556
20
6.60939374175729
30
0
41
1
10
74.9584819240621
20
6.56940279810382
30
0
41
1
10
74.947172939907
20
6.5568918377445
30
0
41
1
10
74.9366674088658
20
6.5438254834435
30
0
0
SPLINE
5
108
100
AcDbEntity
8
1
62
256
6
ByLayer
370
-1
48
1
60
0
100
AcDbSpline
70
4
71
3
72
16
73
12
40
0
40
0
40
0
40
0
40
0.103829215900357
40
0.103829215900357
40
0.412635223007906
40
0.412635223007906
40
0.692319276675232
40
0.692319276675232
40
0.939773817206991
40
0.939773817206991
40
1
40
1
40
1
40
1
41
1
10
74.5296235945128
20
6.06915321351127
30
0
41
1
10
74.5347866659401
20
6.06361816755134
30
0
41
1
10
74.5403587230907
20
6.05834679351372
30
0
41
1
10
74.5638045300884
20
6.03884220081048
30
0
41
1
10
74.5850130675591
20
6.026904295962
30
0
41
1
10
74.6289922517503
20
6.01247976797114
30
0
41
1
10
74.6521296647726
20
6.00902762304474
30
0
41
1
10
74.6955553572779
20
6.01048035139019
30
0
41
1
10
74.7164975070785
20
6.01451595592889
30
0
41
1
10
74.7406835666703
20
6.02344762731622
30
0
41
1
10
74.7453899479984
20
6.02540155877881
30
0
41
1
10
74.7499998415535
20
6.02753492721084
30
0
0
SPLINE
5
109
100
AcDbEntity
8
1
62
256
6
ByLayer
370
-1
48
1
60
0
100
AcDbSpline
70
4
71
3
72
16
73
12
40
0
40
0
40
0
40
0
40
0.0582338193388019
40
0.0582338193388019
40
0.282288091704324
40
0.282288091704324
40
0.508837238583385
40
0.508837238583385
40
0.749520662420353
40
0.749520662420353
40
1
40
1
40
1
40
1
41
1
10
73.8749092158374
20
7.8983769102847
30
0
41
1
10
73.8704534585796
20
7.89631487311166
30
0
41
1
10
73.866073973631
20
7.89406508383013
30
0
41
1
10
73.8454547741059
20
7.88238125300023
30
0
41
1
10
73.8303665634191
20
7.87034980554978
30
0
41
1
10
73.8048220673147
20
7.84271656740589
30
0
41
1
10
73.7940830282562
20
7.82673467757692
30
0
41
1
10
73.7774871299952
20
7.79216682472469
30
0
41
1
10
73.7717507866072
20
7.77305648754165
30
0
41
1
10
73.7659656229069
20
7.73428295849834
30
0
41
1
10
73.7660666142212
20
7.71418903844969
30
0
41
1
10
73.7689147636654
20
7.69500717595037
30
0
0
SPLINE
5
10A
100
AcDbEntity
8
1
62
256
6
ByLayer
370
-1
48
1
60
0
100
AcDbSpline
70
4
71
3
72
16
73
12
40
0
40
0
40
0
40
0
40
0.183873367295598
40
0.183873367295598
40
0.483004950056822
40
0.483004950056822
40
0.753349574979349
40
0.753349574979349
40
0.99413135221376
40
0.99413135221376
40
1
40
1
40
1
40
1
41
1
10
75.1910387940194
20
6.70171305693256
30
0
41
1
10
75.2047289091286
20
6.70479626386549
30
0
41
1
10
75.2183537894491
20
6.70941240849484
30
0
41
1
10
75.2526104214502
20
6.72540887476453
30
0
41
1
10
75.2728969789328
20
6.73958420058727
30
0
41
1
10
75.3052691326085
20
6.77293048650398
30
0
41
1
10
75.318422465469
20
6.79203314097654
30
0
41
1
10
75.335917372792
20
6.83104911147981
30
0
41
1
10
75.3412965586713
20
6.85121295409962
30
0
41
1
10
75.3432289051491
20
6.87176273328117
30
0
41
1
10
75.343273548337
20
6.87225938498543
30
0
41
1
10
75.3433161417721
20
6.87275612566148
30
0
0
SPLINE
5
10B
100
AcDbEntity
8
1
62
256
6
ByLayer
370
-1
48
1
60
0
100
AcDbSpline
70
4
71
3
72
16
73
12
40
0
40
0
40
0
40
0
40
0.0482723589293148
40
0.0482723589293148
40
0.27314364456728
40
0.27314364456728
40
0.499942899898086
40
0.499942899898086
40
0.740448834464285
40
0.740448834464285
40
1
40
1
40
1
40
1
41
1
10
73.7200184085196
20
6.11898859926569
30
0
41
1
10
73.723354252895
20
6.11665865157519
30
0
41
1
10
73.7267675998709
20
6.11443137292815
30
0
41
1
10
73.7463089726282
20
6.10254014713797
30
0
41
1
10
73.7640348992649
20
6.09505711852876
30
0
41
1
10
73.800018887644
20
6.08562853924528
30
0
41
1
10
73.8187360599368
20
6.0835971143093
30
0
41
1
10
73.8557588520538
20
6.08480783622863
30
0
41
1
10
73.8744366834651
20
6.08837192167002
30
0
41
1
10
73.9099308925042
20
6.10073506211538
30
0
41
1
10
73.9269286805119
20
6.11005226244606
30
0
41
1
10
73.941549928939
20
6.12136919957814
30
0
0
SPLINE
5
10C
100
AcDbEntity
8
1
62
256
6
ByLayer
370
-1
48
1
60
0
100
AcDbSpline
70
4
71
3
72
12
73
8
40
0
40
0
40
0
40
0
40
0.394035322891909
40
0.394035322891909
40
0.787792402798745
40
0.787792402798745
40
1
40
1
40
1
40
1
41
1
10
73.4301575003553
20
7.21242340069475
30
0
41
1
10
73.4659183123657
20
7.21742551449387
30
0
41
1
10
73.5017698244789
20
7.22748307511435
30
0
41
1
10
73.570339833456
20
7.25831710115543
30
0
41
1
10
73.6038362351429
20
7.27956282420462
30
0
41
1
10
73.6499649876611
20
7.32034991638429
30
0
41
1
10
73.6652816546315
20
7.33630257357652
30
0
41
1
10
73.6792324090326
20
7.35351269690469
30
0
0
SPLINE
5
10D
100
AcDbEntity
8
1
62
256
6
ByLayer
370
-1
48
1
60
0
100
AcDbSpline
70
4
71
3
72
16
73
12
40
0
40
0
40
0
40
0
40
0.0699583224964693
40
0.0699583224964693
40
0.294440343453045
40
0.294440343453045
40
0.522073920044304
40
0.522073920044304
40
0.764408756821311
40
0.764408756821311
40
1
40
1
40
1
40
1
41
1
10
74.9048906488713
20
7.80692323822984
30
0
41
1
10
74.9000665236065
20
7.81029268783667
30
0
41
1
10
74.8950707321773
20
7.81342543513992
30
0
41
1
10
74.8735979262736
20
7.82545216484294
30
0
41
1
10
74.8556122020208
20
7.83202659829436
30
0
41
1
10
74.8190712083843
20
7.83926106788999
30
0
41
1
10
74.8000496627228
20
7.83994384861143
30
0
41
1
10
74.7623884058784
20
7.83565061252708
30
0
41
1
10
74.7433791812419
20
7.83027292435227
30
0
41
1
10
74.7091266264712
20
7.81477592633081
30
0
41
1
10
74.6934367886984
20
7.80466117533913
30
0
41
1
10
74.6796643805138
20
7.79282439456185
30
0
0
LINE
5
4A
100
AcDbEntity
8
80
62
256
6
ByLayer
370
-1
48
1
60
0
100
AcDbLine
10
0
20
0
30
0
11
-10
21
0
31
0
39
0
210
0
220
0
230
1
0
LINE
5
4B
100
AcDbEntity
8
81
62
256
6
ByLayer
370
-1
48
1
60
0
100
AcDbLine
10
80
20
14.9
30
0
11
90
21
14.9
31
0
39
0
210
0
220
0
230
1
0
LINE
5
4C
100
AcDbEntity
8
SK4
62
256
6
ByLayer
370
-1
48
0.05
60
0
100
AcDbLine
10
-29
20
0
30
0
11
84.704183
21
0
31
0
39
0
210
0
220
0
230
1
0
LINE
5
4E
100
AcDbEntity
8
4
62
256
6
ByLayer
370
-1
48
0.05
60
0
100
AcDbLine
10
0
20
0
30
0
11
108.704183
21
0
31
0
39
0
210
0
220
0
230
1
0
LINE
5
50
100
AcDbEntity
8
1
62
256
6
ByLayer
370
-1
48
1
60
0
100
AcDbLine
10
19.5
20
20
30
0
11
0.3
21
20
31
0
39
0
210
0
220
0
230
1
0
LINE
5
51
100
AcDbEntity
8
1
62
256
6
ByLayer
370
-1
48
1
60
0
100
AcDbLine
10
0.3
20
-20
30
0
11
19.5
21
-20
31
0
39
0
210
0
220
0
230
1
0
LINE
5
52
100
AcDbEntity
8
1
62
256
6
ByLayer
370
-1
48
1
60
0
100
AcDbLine
10
0.3
20
20
30
0
11
0
21
19.7
31
0
39
0
210
0
220
0
230
1
0
LINE
5
53
100
AcDbEntity
8
1
62
256
6
ByLayer
370
-1
48
1
60
0
100
AcDbLine
10
0
20
-19.7
30
0
11
0.3
21
-20
31
0
39
0
210
0
220
0
230
1
0
LINE
5
54
100
AcDbEntity
8
1
62
256
6
ByLayer
370
-1
48
1
60
0
100
AcDbLine
10
19.5
20
-20
30
0
11
20.932549
21
-14.490197
31
0
39
0
210
0
220
0
230
1
0
LINE
5
55
100
AcDbEntity
8
1
62
256
6
ByLayer
370
-1
48
1
60
0
100
AcDbLine
10
20.932549
20
14.490197
30
0
11
19.5
21
20
31
0
39
0
210
0
220
0
230
1
0
LINE
5
56
100
AcDbEntity
8
1
62
256
6
ByLayer
370
-1
48
1
60
0
100
AcDbLine
10
26.739484
20
-10
30
0
11
58.784798
21
-10
31
0
39
0
210
0
220
0
230
1
0
LINE
5
57
100
AcDbEntity
8
1
62
256
6
ByLayer
370
-1
48
1
60
0
100
AcDbLine
10
61.79689
20
10
30
0
11
26.739484
21
10
31
0
39
0
210
0
220
0
230
1
0
LINE
5
58
100
AcDbEntity
8
1
62
256
6
ByLayer
370
-1
48
1
60
0
100
AcDbLine
10
68.811457
20
-0.893578
30
0
11
68.859821
21
-0.924877
31
0
39
0
210
0
220
0
230
1
0
LINE
5
59
100
AcDbEntity
8
1
62
256
6
ByLayer
370
-1
48
1
60
0
100
AcDbLine
10
68.955863
20
-0.955159
30
0
11
69.013434
21
-0.957261
31
0
39
0
210
0
220
0
230
1
0
LINE
5
5A
100
AcDbEntity
8
1
62
256
6
ByLayer
370
-1
48
1
60
0
100
AcDbLine
10
74.863603
20
6.408258
30
0
11
74.840431
21
6.334767
31
0
39
0
210
0
220
0
230
1
0
LINE
5
5B
100
AcDbEntity
8
1
62
256
6
ByLayer
370
-1
48
1
60
0
100
AcDbLine
10
75.933149
20
6.366639
30
0
11
75.952888
21
6.429242
31
0
39
0
210
0
220
0
230
1
0
LINE
5
5C
100
AcDbEntity
8
1
62
256
6
ByLayer
370
-1
48
1
60
0
100
AcDbLine
10
72.662565
20
7.466677
30
0
11
72.642826
21
7.404074
31
0
39
0
210
0
220
0
230
1
0
LINE
5
5D
100
AcDbEntity
8
1
62
256
6
ByLayer
370
-1
48
1
60
0
100
AcDbLine
10
74.967164
20
7.575289
30
0
11
74.941995
21
7.495462
31
0
39
0
210
0
220
0
230
1
0
LINE
5
5E
100
AcDbEntity
8
1
62
256
6
ByLayer
370
-1
48
1
60
0
100
AcDbLine
10
73.730107
20
7.418702
30
0
11
73.753256
21
7.492121
31
0
39
0
210
0
220
0
230
1
0
LINE
5
5F
100
AcDbEntity
8
1
62
256
6
ByLayer
370
-1
48
1
60
0
100
AcDbLine
10
6.663397
20
-19.024574
30
0
11
6.663397
21
-6.16973
31
0
39
0
210
0
220
0
230
1
0
LINE
5
60
100
AcDbEntity
8
1
62
256
6
ByLayer
370
-1
48
1
60
0
100
AcDbLine
10
61.179701
20
-8.985712
30
0
11
58.784798
21
-10
31
0
39
0
210
0
220
0
230
1
0
LINE
5
61
100
AcDbEntity
8
1
62
256
6
ByLayer
370
-1
48
1
60
0
100
AcDbLine
10
9.076795
20
-19.122283
30
0
11
6.923205
21
-19.122283
31
0
39
0
210
0
220
0
230
1
0
LINE
5
62
100
AcDbEntity
8
1
62
256
6
ByLayer
370
-1
48
1
60
0
100
AcDbLine
10
9.336603
20
6.16973
30
0
11
9.336603
21
19.024574
31
0
39
0
210
0
220
0
230
1
0
LINE
5
63
100
AcDbEntity
8
1
62
256
6
ByLayer
370
-1
48
1
60
0
100
AcDbLine
10
76.42495
20
3.686407
30
0
11
74.163199
21
-3.48695
31
0
39
0
210
0
220
0
230
1
0
LINE
5
64
100
AcDbEntity
8
1
62
256
6
ByLayer
370
-1
48
1
60
0
100
AcDbLine
10
75.889325
20
4.060518
30
0
11
70.115951
21
-0.351877
31
0
39
0
210
0
220
0
230
1
0
LINE
5
65
100
AcDbEntity
8
1
62
256
6
ByLayer
370
-1
48
1
60
0
100
AcDbLine
10
76.455344
20
3.782805
30
0
11
76.632322
21
4.344107
31
0
39
0
210
0
220
0
230
1
0
LINE
5
66
100
AcDbEntity
8
1
62
256
6
ByLayer
370
-1
48
1
60
0
100
AcDbLine
10
71.066438
20
7.429103
30
0
11
71.129653
21
7.426892
31
0
39
0
210
0
220
0
230
1
0
LINE
5
67
100
AcDbEntity
8
1
62
256
6
ByLayer
370
-1
48
1
60
0
100
AcDbLine
10
70.115951
20
-0.351877
30
0
11
70.017361
21
-0.304121
31
0
39
0
210
0
220
0
230
1
0
LINE
5
68
100
AcDbEntity
8
1
62
256
6
ByLayer
370
-1
48
1
60
0
100
AcDbLine
10
6.923205
20
5.85989
30
0
11
6.923205
21
19.122283
31
0
39
0
210
0
220
0
230
1
0
LINE
5
69
100
AcDbEntity
8
1
62
256
6
ByLayer
370
-1
48
1
60
0
100
AcDbLine
10
68.721959
20
1.524868
30
0
11
69.323543
21
1.984638
31
0
39
0
210
0
220
0
230
1
0
LINE
5
6A
100
AcDbEntity
8
1
62
256
6
ByLayer
370
-1
48
1
60
0
100
AcDbLine
10
63.944899
20
9.5
30
0
11
63.772259
21
9.5
31
0
39
0
210
0
220
0
230
1
0
LINE
5
6B
100
AcDbEntity
8
1
62
256
6
ByLayer
370
-1
48
1
60
0
100
AcDbLine
10
6.923205
20
19.122283
30
0
11
9.076795
21
19.122283
31
0
39
0
210
0
220
0
230
1
0
LINE
5
6C
100
AcDbEntity
8
1
62
256
6
ByLayer
370
-1
48
1
60
0
100
AcDbLine
10
67.105585
20
9.429768
30
0
11
67.035117
21
9.5
31
0
39
0
210
0
220
0
230
1
0
LINE
5
6D
100
AcDbEntity
8
1
62
256
6
ByLayer
370
-1
48
1
60
0
100
AcDbLine
10
26.739484
20
10
30
0
11
26.739484
21
-10
31
0
39
0
210
0
220
0
230
1
0
LINE
5
6E
100
AcDbEntity
8
1
62
256
6
ByLayer
370
-1
48
1
60
0
100
AcDbLine
10
68.121739
20
-6.045625
30
0
11
74.163199
21
-3.48695
31
0
39
0
210
0
220
0
230
1
0
LINE
5
6F
100
AcDbEntity
8
1
62
256
6
ByLayer
370
-1
48
1
60
0
100
AcDbLine
10
6.923205
20
-5.85989
30
0
11
9.076795
21
-5.85989
31
0
39
0
210
0
220
0
230
1
0
LINE
5
70
100
AcDbEntity
8
1
62
256
6
ByLayer
370
-1
48
1
60
0
100
AcDbLine
10
76.42495
20
3.686407
30
0
11
75.889325
21
4.060518
31
0
39
0
210
0
220
0
230
1
0
LINE
5
71
100
AcDbEntity
8
1
62
256
6
ByLayer
370
-1
48
1
60
0
100
AcDbLine
10
63.944899
20
9.5
30
0
11
68.121739
21
-6.045625
31
0
39
0
210
0
220
0
230
1
0
LINE
5
72
100
AcDbEntity
8
1
62
256
6
ByLayer
370
-1
48
1
60
0
100
AcDbLine
10
71.066438
20
7.429103
30
0
11
69.959202
21
8.202461
31
0
39
0
210
0
220
0
230
1
0
LINE
5
73
100
AcDbEntity
8
1
62
256
6
ByLayer
370
-1
48
1
60
0
100
AcDbLine
10
67.035117
20
9.5
30
0
11
63.944899
21
9.5
31
0
39
0
210
0
220
0
230
1
0
LINE
5
74
100
AcDbEntity
8
1
62
256
6
ByLayer
370
-1
48
1
60
0
100
AcDbLine
10
69.323543
20
1.984638
30
0
11
71.066438
21
7.429103
31
0
39
0
210
0
220
0
230
1
0
LINE
5
75
100
AcDbEntity
8
1
62
256
6
ByLayer
370
-1
48
1
60
0
100
AcDbLine
10
20.932549
20
-14.490197
30
0
11
20.932549
21
14.490197
31
0
39
0
210
0
220
0
230
1
0
LINE
5
76
100
AcDbEntity
8
1
62
256
6
ByLayer
370
-1
48
1
60
0
100
AcDbLine
10
6.923205
20
-19.122283
30
0
11
6.923205
21
-5.85989
31
0
39
0
210
0
220
0
230
1
0
LINE
5
77
100
AcDbEntity
8
1
62
256
6
ByLayer
370
-1
48
1
60
0
100
AcDbLine
10
61.179701
20
-8.985712
30
0
11
68.121739
21
-6.045625
31
0
39
0
210
0
220
0
230
1
0
LINE
5
78
100
AcDbEntity
8
1
62
256
6
ByLayer
370
-1
48
1
60
0
100
AcDbLine
10
75.885573
20
4.180752
30
0
11
76.455341
21
3.782793
31
0
39
0
210
0
220
0
230
1
0
LINE
5
79
100
AcDbEntity
8
1
62
256
6
ByLayer
370
-1
48
1
60
0
100
AcDbLine
10
0.3
20
-20
30
0
11
0.3
21
20
31
0
39
0
210
0
220
0
230
1
0
LINE
5
7A
100
AcDbEntity
8
1
62
256
6
ByLayer
370
-1
48
1
60
0
100
AcDbLine
10
76.42495
20
3.686407
30
0
11
76.455341
21
3.782793
31
0
39
0
210
0
220
0
230
1
0
LINE
5
7B
100
AcDbEntity
8
1
62
256
6
ByLayer
370
-1
48
1
60
0
100
AcDbLine
10
0
20
-19.7
30
0
11
0
21
19.7
31
0
39
0
210
0
220
0
230
1
0
LINE
5
7C
100
AcDbEntity
8
1
62
256
6
ByLayer
370
-1
48
1
60
0
100
AcDbLine
10
70.22999
20
8.13094
30
0
11
71.149192
21
7.488916
31
0
39
0
210
0
220
0
230
1
0
LINE
5
7D
100
AcDbEntity
8
1
62
256
6
ByLayer
370
-1
48
1
60
0
100
AcDbLine
10
69.330273
20
1.719993
30
0
11
68.922895
21
1.408648
31
0
39
0
210
0
220
0
230
1
0
LINE
5
7E
100
AcDbEntity
8
1
62
256
6
ByLayer
370
-1
48
1
60
0
100
AcDbLine
10
9.076795
20
-19.122283
30
0
11
9.076795
21
-5.85989
31
0
39
0
210
0
220
0
230
1
0
LINE
5
7F
100
AcDbEntity
8
1
62
256
6
ByLayer
370
-1
48
1
60
0
100
AcDbLine
10
69.323543
20
1.984638
30
0
11
69.385699
21
1.89578
31
0
39
0
210
0
220
0
230
1
0
LINE
5
80
100
AcDbEntity
8
1
62
256
6
ByLayer
370
-1
48
1
60
0
100
AcDbLine
10
9.336603
20
-19.024574
30
0
11
9.336603
21
-6.16973
31
0
39
0
210
0
220
0
230
1
0
LINE
5
81
100
AcDbEntity
8
1
62
256
6
ByLayer
370
-1
48
1
60
0
100
AcDbLine
10
19.5
20
-20
30
0
11
19.5
21
20
31
0
39
0
210
0
220
0
230
1
0
LINE
5
82
100
AcDbEntity
8
1
62
256
6
ByLayer
370
-1
48
1
60
0
100
AcDbLine
10
6.663397
20
6.16973
30
0
11
6.663397
21
19.024574
31
0
39
0
210
0
220
0
230
1
0
LINE
5
83
100
AcDbEntity
8
1
62
256
6
ByLayer
370
-1
48
1
60
0
100
AcDbLine
10
9.076795
20
5.85989
30
0
11
6.923205
21
5.85989
31
0
39
0
210
0
220
0
230
1
0
LINE
5
84
100
AcDbEntity
8
1
62
256
6
ByLayer
370
-1
48
1
60
0
100
AcDbLine
10
9.076795
20
5.85989
30
0
11
9.076795
21
19.122283
31
0
39
0
210
0
220
0
230
1
0
LINE
5
85
100
AcDbEntity
8
1
62
256
6
ByLayer
370
-1
48
1
60
0
100
AcDbLine
10
75.889325
20
4.060518
30
0
11
75.867607
21
4.167023
31
0
39
0
210
0
220
0
230
1
0
LINE
5
86
100
AcDbEntity
8
SK1
62
256
6
ByLayer
370
-1
48
1
60
0
100
AcDbLine
10
-1.307107
20
-3.588717
30
0
11
-1.307107
21
3.588717
31
0
39
0
210
0
220
0
230
1
0
LINE
5
88
100
AcDbEntity
8
SK1
62
256
6
ByLayer
370
-1
48
1
60
0
100
AcDbLine
10
-0.2
20
14.083485
30
0
11
-0.2
21
5.547043
31
0
39
0
210
0
220
0
230
1
0
LINE
5
89
100
AcDbEntity
8
SK1
62
256
6
ByLayer
370
-1
48
1
60
0
100
AcDbLine
10
-0.2
20
-14.083485
30
0
11
-0.2
21
-5.547043
31
0
39
0
210
0
220
0
230
1
0
LINE
5
8A
100
AcDbEntity
8
1
62
256
6
ByLayer
370
-1
48
1
60
0
100
AcDbLine
10
74.826952
20
6.138796
30
0
11
74.852282
21
6.219129
31
0
39
0
210
0
220
0
230
1
0
LINE
5
8B
100
AcDbEntity
8
1
62
256
6
ByLayer
370
-1
48
1
60
0
100
AcDbLine
10
75.196664
20
6.975133
30
0
11
75.222002
21
7.055495
31
0
39
0
210
0
220
0
230
1
0
LINE
5
8C
100
AcDbEntity
8
1
62
256
6
ByLayer
370
-1
48
1
60
0
100
AcDbLine
10
74.654326
20
7.712462
30
0
11
74.679664
21
7.792824
31
0
39
0
210
0
220
0
230
1
0
LINE
5
8D
100
AcDbEntity
8
1
62
256
6
ByLayer
370
-1
48
1
60
0
100
AcDbLine
10
74.066253
20
7.764678
30
0
11
74.091591
21
7.84504
31
0
39
0
210
0
220
0
230
1
0
LINE
5
8E
100
AcDbEntity
8
1
62
256
6
ByLayer
370
-1
48
1
60
0
100
AcDbLine
10
73.404828
20
7.13209
30
0
11
73.430158
21
7.212423
31
0
39
0
210
0
220
0
230
1
0
LINE
5
8F
100
AcDbEntity
8
1
62
256
6
ByLayer
370
-1
48
1
60
0
100
AcDbLine
10
68.648404
20
-0.442625
30
0
11
71.54929
21
8.75781
31
0
39
0
210
0
220
0
230
1
0
LINE
5
90
100
AcDbEntity
8
1
62
256
6
ByLayer
370
-1
48
1
60
0
100
AcDbLine
10
76.944106
20
4.989757
30
0
11
69.268988
21
-0.876077
31
0
39
0
210
0
220
0
230
1
0
LINE
5
91
100
AcDbEntity
8
1
62
256
6
ByLayer
370
-1
48
1
60
0
100
AcDbLine
10
79.981659
20
14.384884
30
0
11
77.080773
21
5.184449
31
0
39
0
210
0
220
0
230
1
0
LINE
5
92
100
AcDbEntity
8
1
62
256
6
ByLayer
370
-1
48
1
60
0
100
AcDbLine
10
71.685957
20
8.952502
30
0
11
79.361075
21
14.818336
31
0
39
0
210
0
220
0
230
1
0
LINE
5
93
100
AcDbEntity
8
2
62
256
6
ByLayer
370
-1
48
1
60
1
100
AcDbLine
10
80
20
0
30
0
11
80.001
21
0.001
31
0
39
0
210
0
220
0
230
1
0
MTEXT
5
10E
100
AcDbEntity
8
SK6
62
256
6
ByLayer
370
-1
48
1
60
0
100
AcDbMText
10
-0.872908
20
-30.875
30
0
210
0
220
0
230
1
1
\W00.733;\fsimplex.shx,bigfont.shx;C4-SVQBR-15080-11 
40
3.5
41
0
44
1.084337
50
0
71
7
72
5
7
DEFAULT
0
DIMENSION
5
142
100
AcDbEntity
8
SK2
62
256
6
ByLayer
370
-3
48
1
60
0
100
AcDbDimension
2
DimnDraft3D1
10
-36.75
20
20
30
0
11
-36.75
21
-5.021053
31
0
70
32
71
5
72
1
41
1
210
0
220
0
230
1
3
Standard
100
AcDbAlignedDimension
13
-2
23
-20
33
0
14
-2
24
20
34
0
50
90
100
AcDbRotatedDimension
1001
ACAD
1000
DSTYLE
1002
{
1070
    74
1070
     0
1070
   279
1070
     0
1070
   172
1070
     1
1070
   173
1070
     1
1070
   340
1005
10F
1070
    77
1070
     1
1070
    73
1070
     0
1070
   171
1070
     4
1070
   274
1070
     4
1070
   177
1070
     2
1070
   176
1070
     2
1070
   178
1070
     7
1070
    78
1070
     8
1070
    41
1041
3.175
1070
   147
1041
2.25
1070
    42
1041
2.0
1070
    44
1041
2.0
1070
   140
1041
4.5
1070
   343
1005
143
1070
   344
1005
143
1002
}
0
DIMENSION
5
155
100
AcDbEntity
8
2
62
256
6
ByLayer
370
-3
48
1
60
0
100
AcDbDimension
2
DimnDraft3D2
10
37.35
20
10
30
0
11
37.35
21
0
31
0
70
32
71
5
72
1
41
1
210
0
220
0
230
1
3
Standard
100
AcDbAlignedDimension
13
22.1
23
10
33
0
14
0
24
0
34
0
50
90
100
AcDbRotatedDimension
1001
ACAD
1000
DSTYLE
1002
{
1070
    74
1070
     0
1070
   279
1070
     0
1070
   172
1070
     1
1070
   173
1070
     1
1070
   340
1005
10F
1070
    75
1070
     1
1070
    76
1070
     1
1070
    77
1070
     1
1070
    73
1070
     0
1070
   171
1070
     4
1070
   274
1070
     4
1070
   177
1070
     2
1070
   176
1070
     2
1070
   178
1070
     7
1070
    78
1070
     8
1070
    41
1041
3.175
1070
   147
1041
2.25
1070
    42
1041
2.0
1070
    44
1041
2.0
1070
   140
1041
4.5
1070
   343
1005
143
1070
   344
1005
143
1002
}
0
DIMENSION
5
163
100
AcDbEntity
8
2
62
256
6
ByLayer
370
-3
48
1
60
0
100
AcDbDimension
2
DimnDraft3D3
10
92.25
20
0
30
0
11
92.25
21
2.849342
31
0
70
32
71
5
72
1
41
1
210
0
220
0
230
1
3
Standard
100
AcDbAlignedDimension
13
82
23
14.9
33
0
14
82
24
0
34
0
50
90
100
AcDbRotatedDimension
1001
ACAD
1000
DSTYLE
1002
{
1070
    74
1070
     0
1070
   279
1070
     0
1070
   172
1070
     1
1070
   173
1070
     1
1070
   340
1005
10F
1070
    77
1070
     1
1070
    73
1070
     0
1070
   171
1070
     4
1070
   274
1070
     4
1070
   177
1070
     2
1070
   176
1070
     2
1070
   178
1070
     7
1070
    78
1070
     8
1070
    41
1041
3.175
1070
   147
1041
2.25
1070
    42
1041
2.0
1070
    44
1041
2.0
1070
   140
1041
4.5
1070
   343
1005
143
1070
   344
1005
143
1002
}
0
DIMENSION
5
171
100
AcDbEntity
8
2
62
256
6
ByLayer
370
-3
48
1
60
0
100
AcDbDimension
2
DimnDraft3D4
10
80
20
42.65
30
0
11
34.836842
21
42.65
31
0
70
32
71
5
72
1
41
1
210
0
220
0
230
1
3
Standard
100
AcDbAlignedDimension
13
0
23
22
33
0
14
80
24
16.9
34
0
50
0
100
AcDbRotatedDimension
1001
ACAD
1000
DSTYLE
1002
{
1070
   279
1070
     0
1070
   172
1070
     1
1070
   173
1070
     1
1070
   340
1005
10F
1070
    77
1070
     1
1070
    73
1070
     0
1070
   171
1070
     4
1070
   274
1070
     4
1070
   177
1070
     2
1070
   176
1070
     2
1070
   178
1070
     7
1070
    78
1070
     8
1070
    41
1041
3.175
1070
   147
1041
2.25
1070
    42
1041
2.0
1070
    44
1041
2.0
1070
   140
1041
4.5
1070
   343
1005
143
1070
   344
1005
143
1002
}
0
DIMENSION
5
17F
100
AcDbEntity
8
2
62
256
6
ByLayer
370
-3
48
1
60
0
100
AcDbDimension
2
DimnDraft3D5
10
80
20
27.65
30
0
11
45.886842
21
27.65
31
0
70
32
71
5
72
1
41
1
210
0
220
0
230
1
3
Standard
100
AcDbAlignedDimension
13
22.1
23
12
33
0
14
80
24
16.9
34
0
50
0
100
AcDbRotatedDimension
1001
ACAD
1000
DSTYLE
1002
{
1070
   279
1070
     0
1070
   172
1070
     1
1070
   173
1070
     1
1070
   340
1005
10F
1070
    77
1070
     1
1070
    73
1070
     0
1070
   171
1070
     4
1070
   274
1070
     4
1070
   177
1070
     2
1070
   176
1070
     2
1070
   178
1070
     7
1070
    78
1070
     8
1070
    41
1041
3.175
1070
   147
1041
2.25
1070
    42
1041
2.0
1070
    44
1041
2.0
1070
   140
1041
4.5
1070
   343
1005
143
1070
   344
1005
143
1002
}
0
DIMENSION
5
18D
100
AcDbEntity
8
2
62
256
6
ByLayer
370
-3
48
1
60
0
100
AcDbDimension
2
DimnDraft3D6
10
124.228455
20
0
30
0
11
94.370912
21
-41.417356
31
0
70
34
71
5
72
1
41
1
210
0
220
0
230
1
3
Standard
100
AcDb2LineAngularDimension
13
76.090825
23
2.50168
33
0
14
60.589594
24
-46.661944
34
0
15
82
25
0
35
0
16
100.389192
26
-34.214547
36
0
40
0
0
ENDSEC
0
SECTION
2
OBJECTS
0
DICTIONARY
5
1be
330
0
100
AcDbDictionary
280
0
281
1
3
ACAD_GROUP
350
1bf
3
ACAD_MLINESTYLE
350
1c0
0
DICTIONARY
5
1bf
330
0
100
AcDbDictionary
280
0
281
1
0
DICTIONARY
5
1c0
330
0
100
AcDbDictionary
280
0
281
1
3
Standard
350
18
0
MLINESTYLE
5
18
330
1c0
100
AcDbMlineStyle
2
Standard
70
0
3

62
256
51
90
52
90
71
2
49
-0.5
62
256
6
ByLayer
49
0.5
62
256
6
ByLayer
0
RASTERVARIABLES
5
1ac
330

100
AcDbRasterVariables
90
0
70
1
71
1
72
1
0
ENDSEC
0
EOF
