0
SECTION
2
HEADER
9
$ACADVER
1
AC1015
9
$DWGCODEPAGE
3
ANSI_1252
9
$HANDSEED
5
17d
9
$ANGBASE
50
0
9
$ANGDIR
70
0
9
$ATTMODE
70
1
9
$AUNITS
70
0
9
$AUPREC
70
0
9
$CECOLOR
62
256
9
$CELTSCALE
40
1
9
$CELTYPE
6
ByLayer
9
$CELWEIGHT
370
-1
9
$CLAYER
8
0
9
$CMLJUST
70
0
9
$CMLSCALE
40
1
9
$CMLSTYLE
2
Standard
9
$DIMSTYLE
2
Standard
9
$TEXTSIZE
40
0.2
9
$TEXTSTYLE
7
Standard
9
$LUNITS
70
2
9
$LUPREC
70
4
9
$EXTNAMES
290
1
9
$INSUNITS
70
4
9
$LTSCALE
40
1
9
$LWDISPLAY
290
0
9
$PDMODE
70
0
9
$PDSIZE
40
0
9
$PLINEGEN
70
0
0
ENDSEC
0
SECTION
2
CLASSES
0
CLASS
1
RASTERVARIABLES
2
AcDbRasterVariables
3
ISM
90
0
280
0
281
0
0
ENDSEC
0
SECTION
2
TABLES
0
TABLE
2
VPORT
5
173
100
AcDbSymbolTable
0
VPORT
5
1
100
AcDbSymbolTableRecord
100
AcDbViewportTableRecord
2
*Active
70
0
10
0
20
0
11
1
21
1
12
-1
22
1
13
0
23
0
14
0.5
24
0.5
15
10
25
10
16
0
26
0
36
1
17
0
27
0
37
0
0
ENDTAB
0
TABLE
2
LTYPE
5
174
100
AcDbSymbolTable
0
LTYPE
5
14
100
AcDbSymbolTableRecord
100
AcDbLinetypeTableRecord
70
0
2
ByBlock
3

72
65
73
0
40
0
0
LTYPE
5
15
100
AcDbSymbolTableRecord
100
AcDbLinetypeTableRecord
70
0
2
ByLayer
3

72
65
73
0
40
0
0
LTYPE
5
16
100
AcDbSymbolTableRecord
100
AcDbLinetypeTableRecord
70
0
2
CONTINUOUS
3
Solid line
72
65
73
0
40
0
0
LTYPE
5
3B
100
AcDbSymbolTableRecord
100
AcDbLinetypeTableRecord
70
0
2
DASHED
3
__ __ __ __ __ __ __ __ __
72
65
73
2
40
25.72
49
12.86
74
0
49
-12.86
74
0
0
LTYPE
5
3C
100
AcDbSymbolTableRecord
100
AcDbLinetypeTableRecord
70
0
2
HIDDEN
3
_ _ _ _ _ _ _ _ _ _ _ _ _ _ _
72
65
73
2
40
0.5
49
0.25
74
0
49
-0.25
74
0
0
LTYPE
5
3D
100
AcDbSymbolTableRecord
100
AcDbLinetypeTableRecord
70
0
2
PHANTOM
3
____ _ _ ____ _ _ _____ _ _ ____
72
65
73
6
40
50.5
49
18
74
0
49
-6.5
74
0
49
6.5
74
0
49
-6.5
74
0
49
6.5
74
0
49
-6.5
74
0
0
LTYPE
5
3E
100
AcDbSymbolTableRecord
100
AcDbLinetypeTableRecord
70
0
2
CENTER
3
____ _ ____ _ ____ _ ____
72
65
73
4
40
47.5
49
22
74
0
49
-8.5
74
0
49
8.5
74
0
49
-8.5
74
0
0
LTYPE
5
3F
100
AcDbSymbolTableRecord
100
AcDbLinetypeTableRecord
70
0
2
DOT
3
.........................
72
65
73
2
40
10
49
0
74
0
49
-10
74
0
0
LTYPE
5
40
100
AcDbSymbolTableRecord
100
AcDbLinetypeTableRecord
70
0
2
DASHDOT
3
_._._._._._._._._._._._._._._._.
72
65
73
4
40
70
49
31
74
0
49
-13
74
0
49
13
74
0
49
-13
74
0
0
ENDTAB
0
TABLE
2
LAYER
5
175
100
AcDbSymbolTable
0
LAYER
5
10
100
AcDbSymbolTableRecord
100
AcDbLayerTableRecord
2
0
70
0
62
7
6
CONTINUOUS
290
1
370
-3
390
0
0
LAYER
5
45
100
AcDbSymbolTableRecord
100
AcDbLayerTableRecord
2
81
70
0
62
-3
6
CONTINUOUS
290
1
370
-3
390
0
0
LAYER
5
49
100
AcDbSymbolTableRecord
100
AcDbLayerTableRecord
2
80
70
0
62
-6
6
CONTINUOUS
290
1
370
-3
390
0
0
LAYER
5
4C
100
AcDbSymbolTableRecord
100
AcDbLayerTableRecord
2
2
70
0
62
7
6
CONTINUOUS
290
1
370
-3
390
0
0
LAYER
5
4F
100
AcDbSymbolTableRecord
100
AcDbLayerTableRecord
2
1
70
0
62
4
6
CONTINUOUS
290
1
370
-3
390
0
0
LAYER
5
5B
100
AcDbSymbolTableRecord
100
AcDbLayerTableRecord
2
4
70
0
62
-2
6
CENTER
290
1
370
-3
390
0
0
LAYER
5
15f
100
AcDbSymbolTableRecord
100
AcDbLayerTableRecord
2
SK2
70
0
62
7
6
CONTINUOUS
290
1
370
-3
390
0
0
LAYER
5
160
100
AcDbSymbolTableRecord
100
AcDbLayerTableRecord
2
SK4
70
0
62
2
6
CENTER
290
1
370
-3
390
0
0
LAYER
5
161
100
AcDbSymbolTableRecord
100
AcDbLayerTableRecord
2
SK1
70
0
62
4
6
CONTINUOUS
290
1
370
-3
390
0
0
LAYER
5
162
100
AcDbSymbolTableRecord
100
AcDbLayerTableRecord
2
SK6
70
0
62
5
6
CONTINUOUS
290
1
370
-3
390
0
0
ENDTAB
0
TABLE
2
STYLE
5
176
100
AcDbSymbolTable
0
STYLE
5
11
100
AcDbSymbolTableRecord
100
AcDbTextStyleTableRecord
2
Standard
3
txt
70
0
71
0
40
0
41
1
42
0
50
0
0
STYLE
5
EA
100
AcDbSymbolTableRecord
100
AcDbTextStyleTableRecord
2
DEFAULT
3
simplex.shx
70
0
71
0
40
0
41
1
42
0
50
0
0
STYLE
5
10D
100
AcDbSymbolTableRecord
100
AcDbTextStyleTableRecord
2
DWGDirectTextStyle
3
SIMPLEX
70
0
71
0
40
0
41
1
42
0
50
0
0
ENDTAB
0
TABLE
2
DIMSTYLE
5
177
100
AcDbSymbolTable
100
AcDbDimStyleTable
0
DIMSTYLE
105
27
100
AcDbSymbolTableRecord
100
AcDbDimStyleTableRecord
2
Standard
70
0
3
<>
41
0.18
42
0.0625
44
0.18
140
0.18
147
0.09
73
0
74
0
77
1
271
2
275
0
278
52
280
0
340
11
0
ENDTAB
0
TABLE
2
VIEW
5
178
100
AcDbSymbolTable
0
ENDTAB
0
TABLE
2
UCS
5
179
100
AcDbSymbolTable
0
ENDTAB
0
TABLE
2
APPID
5
17a
100
AcDbSymbolTable
0
APPID
5
12
100
AcDbSymbolTableRecord
100
AcDbRegAppTableRecord
2
ACAD
70
0
0
ENDTAB
0
TABLE
2
BLOCK_RECORD
5
17b
100
AcDbSymbolTable
0
BLOCK_RECORD
5
1F
100
AcDbSymbolTableRecord
100
AcDbBlockTableRecord
2
*Model_Space
340
0
70
0
0
BLOCK_RECORD
5
1B
100
AcDbSymbolTableRecord
100
AcDbBlockTableRecord
2
*Paper_Space
340
0
70
0
0
BLOCK_RECORD
5
23
100
AcDbSymbolTableRecord
100
AcDbBlockTableRecord
2
*Paper_Space0
340
0
70
0
0
BLOCK_RECORD
5
10F
100
AcDbSymbolTableRecord
100
AcDbBlockTableRecord
2
DimnDraft3D1
340
0
70
0
0
BLOCK_RECORD
5
11D
100
AcDbSymbolTableRecord
100
AcDbBlockTableRecord
2
_CLOSED
340
0
70
0
0
BLOCK_RECORD
5
124
100
AcDbSymbolTableRecord
100
AcDbBlockTableRecord
2
DimnDraft3D2
340
0
70
0
0
BLOCK_RECORD
5
132
100
AcDbSymbolTableRecord
100
AcDbBlockTableRecord
2
DimnDraft3D3
340
0
70
0
0
ENDTAB
0
ENDSEC
0
SECTION
2
BLOCKS
0
BLOCK
5
20
100
AcDbEntity
8
0
100
AcDbBlockBegin
2
*Model_Space
70
0
10
0
20
0
30
0
3
*Model_Space
0
ENDBLK
5
21
100
AcDbEntity
8
0
100
AcDbBlockEnd
0
BLOCK
5
1C
100
AcDbEntity
8
0
100
AcDbBlockBegin
2
*Paper_Space
70
0
10
0
20
0
30
0
3
*Paper_Space
0
ENDBLK
5
1D
100
AcDbEntity
8
0
100
AcDbBlockEnd
0
BLOCK
5
24
100
AcDbEntity
8
0
100
AcDbBlockBegin
2
*Paper_Space0
70
0
10
0
20
0
30
0
3
*Paper_Space0
0
ENDBLK
5
25
100
AcDbEntity
8
0
100
AcDbBlockEnd
0
BLOCK
5
11A
100
AcDbEntity
8
0
100
AcDbBlockBegin
2
DimnDraft3D1
70
0
10
0
20
0
30
0
3
DimnDraft3D1
0
MTEXT
5
110
100
AcDbEntity
8
SK2
62
256
6
ByLayer
370
-1
48
1
60
0
100
AcDbMText
10
-34.875
20
-3.896053
30
0
210
0
220
0
230
1
1
\W01.000;\fsimplex.shx,bigfont.shx;%%c40 
40
4.5
41
0
44
1.084337
50
90
71
7
72
5
7
DEFAULT
0
LINE
5
111
100
AcDbEntity
8
SK2
62
256
6
ByLayer
370
-1
48
1
60
0
100
AcDbLine
10
-2
20
-20
30
0
11
-35.75
21
-20
31
0
39
0
210
0
220
0
230
1
0
LINE
5
112
100
AcDbEntity
8
SK2
62
256
6
ByLayer
370
-1
48
1
60
0
100
AcDbLine
10
-2
20
20
30
0
11
-35.75
21
20
31
0
39
0
210
0
220
0
230
1
0
LINE
5
113
100
AcDbEntity
8
SK2
62
256
6
ByLayer
370
-1
48
1
60
0
100
AcDbLine
10
-33.75
20
-20
30
0
11
-33.75
21
20
31
0
39
0
210
0
220
0
230
1
0
LINE
5
114
100
AcDbEntity
8
SK2
62
256
6
ByLayer
370
-1
48
1
60
0
100
AcDbLine
10
-33.75
20
-20
30
0
11
-34.167997
21
-16.825002
31
0
39
0
210
0
220
0
230
1
0
LINE
5
115
100
AcDbEntity
8
SK2
62
256
6
ByLayer
370
-1
48
1
60
0
100
AcDbLine
10
-33.75
20
-20
30
0
11
-33.332003
21
-16.824998
31
0
39
0
210
0
220
0
230
1
0
LINE
5
116
100
AcDbEntity
8
SK2
62
256
6
ByLayer
370
-1
48
1
60
0
100
AcDbLine
10
-34.167997
20
-16.825002
30
0
11
-33.332003
21
-16.824998
31
0
39
0
210
0
220
0
230
1
0
LINE
5
117
100
AcDbEntity
8
SK2
62
256
6
ByLayer
370
-1
48
1
60
0
100
AcDbLine
10
-33.75
20
20
30
0
11
-33.332003
21
16.825002
31
0
39
0
210
0
220
0
230
1
0
LINE
5
118
100
AcDbEntity
8
SK2
62
256
6
ByLayer
370
-1
48
1
60
0
100
AcDbLine
10
-33.75
20
20
30
0
11
-34.167997
21
16.824998
31
0
39
0
210
0
220
0
230
1
0
LINE
5
119
100
AcDbEntity
8
SK2
62
256
6
ByLayer
370
-1
48
1
60
0
100
AcDbLine
10
-33.332003
20
16.825002
30
0
11
-34.167997
21
16.824998
31
0
39
0
210
0
220
0
230
1
0
ENDBLK
5
11B
100
AcDbEntity
8
0
100
AcDbBlockEnd
0
BLOCK
5
11E
100
AcDbEntity
8
0
100
AcDbBlockBegin
2
_CLOSED
70
0
10
0
20
0
30
0
3
_CLOSED
0
LINE
5
120
100
AcDbEntity
8
0
62
256
6
ByLayer
370
-2
48
1
60
0
100
AcDbLine
10
-1
20
0.166667
30
0
11
0
21
0
31
0
39
0
210
0
220
0
230
1
0
LINE
5
121
100
AcDbEntity
8
0
62
256
6
ByLayer
370
-2
48
1
60
0
100
AcDbLine
10
0
20
0
30
0
11
-1
21
-0.166667
31
0
39
0
210
0
220
0
230
1
0
LINE
5
122
100
AcDbEntity
8
0
62
256
6
ByLayer
370
-2
48
1
60
0
100
AcDbLine
10
-1
20
0.166667
30
0
11
-1
21
-0.166667
31
0
39
0
210
0
220
0
230
1
0
LINE
5
123
100
AcDbEntity
8
0
62
256
6
ByLayer
370
-2
48
1
60
0
100
AcDbLine
10
0
20
0
30
0
11
-1
21
0
31
0
39
0
210
0
220
0
230
1
0
ENDBLK
5
11F
100
AcDbEntity
8
0
100
AcDbBlockEnd
0
BLOCK
5
12F
100
AcDbEntity
8
0
100
AcDbBlockBegin
2
DimnDraft3D2
70
0
10
0
20
0
30
0
3
DimnDraft3D2
0
MTEXT
5
125
100
AcDbEntity
8
2
62
256
6
ByLayer
370
-1
48
1
60
0
100
AcDbMText
10
63.125
20
-15.003947
30
0
210
0
220
0
230
1
1
\W01.000;\fsimplex.shx,bigfont.shx;27 
40
4.5
41
0
44
1.084337
50
90
71
7
72
5
7
DEFAULT
0
LINE
5
126
100
AcDbEntity
8
2
62
256
6
ByLayer
370
-1
48
1
60
0
100
AcDbLine
10
52
20
0
30
0
11
66.25
21
0
31
0
39
0
210
0
220
0
230
1
0
LINE
5
127
100
AcDbEntity
8
2
62
256
6
ByLayer
370
-1
48
1
60
0
100
AcDbLine
10
52
20
-27
30
0
11
66.25
21
-27
31
0
39
0
210
0
220
0
230
1
0
LINE
5
128
100
AcDbEntity
8
2
62
256
6
ByLayer
370
-1
48
1
60
0
100
AcDbLine
10
64.25
20
0
30
0
11
64.25
21
-27
31
0
39
0
210
0
220
0
230
1
0
LINE
5
129
100
AcDbEntity
8
2
62
256
6
ByLayer
370
-1
48
1
60
0
100
AcDbLine
10
64.25
20
0
30
0
11
64.667997
21
-3.174998
31
0
39
0
210
0
220
0
230
1
0
LINE
5
12A
100
AcDbEntity
8
2
62
256
6
ByLayer
370
-1
48
1
60
0
100
AcDbLine
10
64.25
20
0
30
0
11
63.832003
21
-3.175002
31
0
39
0
210
0
220
0
230
1
0
LINE
5
12B
100
AcDbEntity
8
2
62
256
6
ByLayer
370
-1
48
1
60
0
100
AcDbLine
10
64.667997
20
-3.174998
30
0
11
63.832003
21
-3.175002
31
0
39
0
210
0
220
0
230
1
0
LINE
5
12C
100
AcDbEntity
8
2
62
256
6
ByLayer
370
-1
48
1
60
0
100
AcDbLine
10
64.25
20
-27
30
0
11
63.832003
21
-23.825002
31
0
39
0
210
0
220
0
230
1
0
LINE
5
12D
100
AcDbEntity
8
2
62
256
6
ByLayer
370
-1
48
1
60
0
100
AcDbLine
10
64.25
20
-27
30
0
11
64.667997
21
-23.824998
31
0
39
0
210
0
220
0
230
1
0
LINE
5
12E
100
AcDbEntity
8
2
62
256
6
ByLayer
370
-1
48
1
60
0
100
AcDbLine
10
63.832003
20
-23.825002
30
0
11
64.667997
21
-23.824998
31
0
39
0
210
0
220
0
230
1
0
ENDBLK
5
130
100
AcDbEntity
8
0
100
AcDbBlockEnd
0
BLOCK
5
13D
100
AcDbEntity
8
0
100
AcDbBlockBegin
2
DimnDraft3D3
70
0
10
0
20
0
30
0
3
DimnDraft3D3
0
MTEXT
5
133
100
AcDbEntity
8
2
62
256
6
ByLayer
370
-1
48
1
60
0
100
AcDbMText
10
23.496053
20
-50.125
30
0
210
0
220
0
230
1
1
\W01.000;\fsimplex.shx,bigfont.shx;50 
40
4.5
41
0
44
1.084337
50
0
71
7
72
5
7
DEFAULT
0
LINE
5
134
100
AcDbEntity
8
2
62
256
6
ByLayer
370
-1
48
1
60
0
100
AcDbLine
10
0
20
-22
30
0
11
0
21
-53.25
31
0
39
0
210
0
220
0
230
1
0
LINE
5
135
100
AcDbEntity
8
2
62
256
6
ByLayer
370
-1
48
1
60
0
100
AcDbLine
10
50
20
-29
30
0
11
50
21
-53.25
31
0
39
0
210
0
220
0
230
1
0
LINE
5
136
100
AcDbEntity
8
2
62
256
6
ByLayer
370
-1
48
1
60
0
100
AcDbLine
10
0
20
-51.25
30
0
11
50
21
-51.25
31
0
39
0
210
0
220
0
230
1
0
LINE
5
137
100
AcDbEntity
8
2
62
256
6
ByLayer
370
-1
48
1
60
0
100
AcDbLine
10
0
20
-51.25
30
0
11
3.174998
21
-50.832003
31
0
39
0
210
0
220
0
230
1
0
LINE
5
138
100
AcDbEntity
8
2
62
256
6
ByLayer
370
-1
48
1
60
0
100
AcDbLine
10
0
20
-51.25
30
0
11
3.175002
21
-51.667997
31
0
39
0
210
0
220
0
230
1
0
LINE
5
139
100
AcDbEntity
8
2
62
256
6
ByLayer
370
-1
48
1
60
0
100
AcDbLine
10
3.174998
20
-50.832003
30
0
11
3.175002
21
-51.667997
31
0
39
0
210
0
220
0
230
1
0
LINE
5
13A
100
AcDbEntity
8
2
62
256
6
ByLayer
370
-1
48
1
60
0
100
AcDbLine
10
50
20
-51.25
30
0
11
46.825002
21
-51.667997
31
0
39
0
210
0
220
0
230
1
0
LINE
5
13B
100
AcDbEntity
8
2
62
256
6
ByLayer
370
-1
48
1
60
0
100
AcDbLine
10
50
20
-51.25
30
0
11
46.824998
21
-50.832003
31
0
39
0
210
0
220
0
230
1
0
LINE
5
13C
100
AcDbEntity
8
2
62
256
6
ByLayer
370
-1
48
1
60
0
100
AcDbLine
10
46.825002
20
-51.667997
30
0
11
46.824998
21
-50.832003
31
0
39
0
210
0
220
0
230
1
0
ENDBLK
5
13E
100
AcDbEntity
8
0
100
AcDbBlockEnd
0
ENDSEC
0
SECTION
2
ENTITIES
0
ARC
5
84
100
AcDbEntity
8
SK1
62
256
6
ByLayer
370
-1
48
1
60
0
100
AcDbCircle
39
0
10
0.6
20
-15
30
0
40
0.999999999999989
210
0
220
0
230
-1
100
AcDbArc
50
113.578178
51
126.869898
0
ARC
5
85
100
AcDbEntity
8
SK1
62
256
6
ByLayer
370
-1
48
1
60
0
100
AcDbCircle
39
0
10
0.6
20
15
30
0
40
0.999999999999989
210
0
220
0
230
-1
100
AcDbArc
50
233.130102
51
246.421822
0
ARC
5
86
100
AcDbEntity
8
1
62
256
6
ByLayer
370
-1
48
1
60
0
100
AcDbCircle
39
0
10
-30.577945
20
-29.8
30
0
40
10.2
210
0
220
0
230
-1
100
AcDbArc
50
87.935088
51
120
0
ARC
5
87
100
AcDbEntity
8
1
62
256
6
ByLayer
370
-1
48
1
60
0
100
AcDbCircle
39
0
10
-53.538728
20
-11.305424
30
0
40
10.2
210
0
220
0
230
-1
100
AcDbArc
50
315
51
325.138371
0
ARC
5
88
100
AcDbEntity
8
1
62
256
6
ByLayer
370
-1
48
1
60
0
100
AcDbCircle
39
0
10
44.090812
20
-21.090812
30
0
40
1.5
210
0
220
0
230
1
100
AcDbArc
50
97.895004
51
172.104956
0
ARC
5
89
100
AcDbEntity
8
1
62
256
6
ByLayer
370
-1
48
1
60
0
100
AcDbCircle
39
0
10
46
20
-23
30
0
40
1
210
0
220
0
230
1
100
AcDbArc
50
272.228335
51
297.771665
0
ARC
5
8C
100
AcDbEntity
8
1
62
256
6
ByLayer
370
-1
48
1
60
0
100
AcDbCircle
39
0
10
46
20
-23
30
0
40
1.25
210
0
220
0
230
1
100
AcDbArc
50
75
51
135
0
ARC
5
8E
100
AcDbEntity
8
1
62
256
6
ByLayer
370
-1
48
1
60
0
100
AcDbCircle
39
0
10
46
20
-23
30
0
40
1
210
0
220
0
230
1
100
AcDbArc
50
152.228335
51
177.771665
0
ARC
5
92
100
AcDbEntity
8
1
62
256
6
ByLayer
370
-1
48
1
60
0
100
AcDbCircle
39
0
10
46
20
-23
30
0
40
1
210
0
220
0
230
1
100
AcDbArc
50
92.228335
51
117.771665
0
ARC
5
93
100
AcDbEntity
8
1
62
256
6
ByLayer
370
-1
48
1
60
0
100
AcDbCircle
39
0
10
46
20
-23
30
0
40
1.25
210
0
220
0
230
1
100
AcDbArc
50
315
51
15
0
ARC
5
94
100
AcDbEntity
8
1
62
256
6
ByLayer
370
-1
48
1
60
0
100
AcDbCircle
39
0
10
46
20
-23
30
0
40
1
210
0
220
0
230
1
100
AcDbArc
50
212.228335
51
237.771665
0
ARC
5
95
100
AcDbEntity
8
1
62
256
6
ByLayer
370
-1
48
1
60
0
100
AcDbCircle
39
0
10
46
20
-23
30
0
40
1
210
0
220
0
230
1
100
AcDbArc
50
332.228335
51
357.771665
0
ARC
5
96
100
AcDbEntity
8
1
62
256
6
ByLayer
370
-1
48
1
60
0
100
AcDbCircle
39
0
10
46
20
-23
30
0
40
1.25
210
0
220
0
230
1
100
AcDbArc
50
15
51
75
0
ARC
5
97
100
AcDbEntity
8
1
62
256
6
ByLayer
370
-1
48
1
60
0
100
AcDbCircle
39
0
10
46
20
-23
30
0
40
1.25
210
0
220
0
230
1
100
AcDbArc
50
135
51
195
0
ARC
5
98
100
AcDbEntity
8
1
62
256
6
ByLayer
370
-1
48
1
60
0
100
AcDbCircle
39
0
10
46
20
-23
30
0
40
1
210
0
220
0
230
1
100
AcDbArc
50
32.228335
51
57.771665
0
ARC
5
99
100
AcDbEntity
8
1
62
256
6
ByLayer
370
-1
48
1
60
0
100
AcDbCircle
39
0
10
46
20
-23
30
0
40
1.25
210
0
220
0
230
1
100
AcDbArc
50
255
51
315
0
ARC
5
9B
100
AcDbEntity
8
1
62
256
6
ByLayer
370
-1
48
1
60
0
100
AcDbCircle
39
0
10
46
20
-23
30
0
40
1.25
210
0
220
0
230
1
100
AcDbArc
50
195
51
255
0
CIRCLE
5
8A
100
AcDbEntity
8
1
62
256
6
ByLayer
370
-1
48
1
60
0
100
AcDbCircle
10
-46
20
-23
30
0
40
2.1
39
0
210
0
220
0
230
-1
0
CIRCLE
5
8B
100
AcDbEntity
8
1
62
256
6
ByLayer
370
-1
48
1
60
0
100
AcDbCircle
10
46
20
-23
30
0
40
4.00000000000001
39
0
210
0
220
0
230
1
0
CIRCLE
5
8D
100
AcDbEntity
8
1
62
256
6
ByLayer
370
-1
48
1
60
0
100
AcDbCircle
10
46
20
-23
30
0
40
2.33136445707911
39
0
210
0
220
0
230
1
0
CIRCLE
5
8F
100
AcDbEntity
8
1
62
256
6
ByLayer
370
-1
48
1
60
0
100
AcDbCircle
10
46
20
-23
30
0
40
2.24999999999999
39
0
210
0
220
0
230
1
0
CIRCLE
5
90
100
AcDbEntity
8
1
62
256
6
ByLayer
370
-1
48
1
60
0
100
AcDbCircle
10
-46
20
-23
30
0
40
1.40000000000001
39
0
210
0
220
0
230
-1
0
CIRCLE
5
91
100
AcDbEntity
8
1
62
256
6
ByLayer
370
-1
48
1
60
0
100
AcDbCircle
10
46
20
-23
30
0
40
2.20103780961134
39
0
210
0
220
0
230
1
0
CIRCLE
5
9A
100
AcDbEntity
8
1
62
256
6
ByLayer
370
-1
48
1
60
0
100
AcDbCircle
10
-46
20
-23
30
0
40
0.833572051764948
39
0
210
0
220
0
230
-1
0
ELLIPSE
5
9C
100
AcDbEntity
8
1
62
256
6
ByLayer
370
-1
48
1
60
0
100
AcDbEllipse
10
16.938163
20
-8.604349
30
0
11
-0.0422211546879559
21
5.07813228656285
31
0
210
0
220
0
230
1
40
0.078828
41
-1.23682194951656
42
0.365362937314644
0
ELLIPSE
5
9D
100
AcDbEntity
8
1
62
256
6
ByLayer
370
-1
48
1
60
0
100
AcDbEllipse
10
16.938163
20
-8.604349
30
0
11
-0.0422211546879559
21
5.07813228656285
31
0
210
0
220
0
230
1
40
0.078828
41
0.365362937314644
42
-1.88310664585823
0
ELLIPSE
5
9E
100
AcDbEntity
8
1
62
256
6
ByLayer
370
-1
48
1
60
0
100
AcDbEllipse
10
17.749773
20
0
30
0
11
1.22460635382238E-15
21
20
31
0
210
0
220
0
230
1
40
0.087489
41
0.161773549363413
42
2.97981910422638
0
ELLIPSE
5
9F
100
AcDbEntity
8
1
62
256
6
ByLayer
370
-1
48
1
60
0
100
AcDbEllipse
10
-0.948929
20
0
30
0
11
-9.36741787978245
21
-19.7417491527508
31
0
210
0
220
0
230
1
40
0.341999
41
2.04527312608992
42
2.98886640869145
0
ELLIPSE
5
A0
100
AcDbEntity
8
1
62
256
6
ByLayer
370
-1
48
1
60
0
100
AcDbEllipse
10
-0.948929
20
0
30
0
11
-9.36741787978168
21
19.7417491527498
31
0
210
0
220
0
230
1
40
0.341999
41
-2.98886640869144
42
-2.04527312608988
0
ELLIPSE
5
A1
100
AcDbEntity
8
1
62
256
6
ByLayer
370
-1
48
1
60
0
100
AcDbEllipse
10
16.948929
20
0
30
0
11
-9.36741787978158
21
19.7417491527496
31
0
210
0
220
0
230
1
40
0.341999
41
0.152726244898349
42
1.09631952749992
0
ELLIPSE
5
A2
100
AcDbEntity
8
1
62
256
6
ByLayer
370
-1
48
1
60
0
100
AcDbEllipse
10
16.948929
20
0
30
0
11
-9.3674178797825
21
-19.7417491527508
31
0
210
0
220
0
230
1
40
0.341999
41
-1.09631952749987
42
-0.152726244898338
0
ELLIPSE
5
A3
100
AcDbEntity
8
1
62
256
6
ByLayer
370
-1
48
1
60
0
100
AcDbEllipse
10
17.65232
20
-8.971806
30
0
11
0.754910953450139
21
1.46717737590279
31
0
210
0
220
0
230
1
40
0.124004
41
-3.14157389477296
42
-1.80729001196913
0
ELLIPSE
5
A4
100
AcDbEntity
8
1
62
256
6
ByLayer
370
-1
48
1
60
0
100
AcDbEllipse
10
17.65232
20
-8.971806
30
0
11
0.754910953450139
21
1.46717737590279
31
0
210
0
220
0
230
1
40
0.124004
41
-1.80729001196913
42
0
0
ELLIPSE
5
A5
100
AcDbEntity
8
1
62
256
6
ByLayer
370
-1
48
1
60
0
100
AcDbEllipse
10
17.784671
20
-9.039905
30
0
11
-0.686282684954672
21
-1.33379761445708
31
0
210
0
220
0
230
1
40
0.124004
41
0.125289091903431
42
3.01634163114261
0
POINT
5
41
100
AcDbEntity
8
SK2
62
256
6
ByLayer
370
-1
48
1
60
0
100
AcDbPoint
10
100
20
77
30
0
39
0
210
0
220
0
230
1
50
360
0
POINT
5
43
100
AcDbEntity
8
SK2
62
256
6
ByLayer
370
-1
48
1
60
0
100
AcDbPoint
10
50
20
27
30
0
39
0
210
0
220
0
230
1
50
360
0
POINT
5
44
100
AcDbEntity
8
81
62
256
6
ByLayer
370
-1
48
1
60
0
100
AcDbPoint
10
50
20
-27
30
0
39
0
210
0
220
0
230
1
50
360
0
POINT
5
46
100
AcDbEntity
8
SK2
62
256
6
ByLayer
370
-1
48
1
60
0
100
AcDbPoint
10
50
20
27
30
0
39
0
210
0
220
0
230
1
50
360
0
POINT
5
47
100
AcDbEntity
8
SK2
62
256
6
ByLayer
370
-1
48
1
60
0
100
AcDbPoint
10
50
20
27
30
0
39
0
210
0
220
0
230
1
50
360
0
POINT
5
48
100
AcDbEntity
8
80
62
256
6
ByLayer
370
-1
48
1
60
0
100
AcDbPoint
10
0
20
0
30
0
39
0
210
0
220
0
230
1
50
360
0
POINT
5
4A
100
AcDbEntity
8
SK2
62
256
6
ByLayer
370
-1
48
1
60
0
100
AcDbPoint
10
100
20
77
30
0
39
0
210
0
220
0
230
1
50
360
0
POINT
5
4B
100
AcDbEntity
8
2
62
256
6
ByLayer
370
-1
48
1
60
0
100
AcDbPoint
10
50
20
27
30
0
39
0
210
0
220
0
230
1
50
360
0
POINT
5
4D
100
AcDbEntity
8
SK2
62
256
6
ByLayer
370
-1
48
1
60
0
100
AcDbPoint
10
50
20
27
30
0
39
0
210
0
220
0
230
1
50
360
0
SPLINE
5
A6
100
AcDbEntity
8
SK1
62
256
6
ByLayer
370
-1
48
1
60
0
100
AcDbSpline
70
4
71
2
72
6
73
3
40
0
40
0
40
0
40
1
40
1
40
1
41
1
10
-22.5
20
-13.493394380475
30
0
41
1
10
-12.099999999963
20
-13.7545958471854
30
0
41
1
10
-1.7
20
-14.0157970602974
30
0
0
SPLINE
5
A7
100
AcDbEntity
8
SK1
62
256
6
ByLayer
370
-1
48
1
60
0
100
AcDbSpline
70
4
71
2
72
6
73
3
40
0
40
0
40
0
40
1
40
1
40
1
41
1
10
-1.7
20
14.0157977997179
30
0
41
1
10
-12.0999999999449
20
13.7545973909208
30
0
41
1
10
-22.5
20
13.4933966698402
30
0
0
SPLINE
5
A8
100
AcDbEntity
8
SK1
62
256
6
ByLayer
370
-1
48
1
60
0
100
AcDbSpline
70
4
71
3
72
13
73
9
40
0
40
0
40
0
40
0
40
0.23945753129759
40
0.368361583423434
40
0.500001014483274
40
0.63164027658283
40
0.76054386300255
40
1
40
1
40
1
40
1
41
1
10
-1.4950399779393
20
13.8251858327438
30
0
41
1
10
-1.52111030874428
20
13.8247841935567
30
0
41
1
10
-1.5588406423667
20
13.830956449625
30
0
41
1
10
-1.60627712752266
20
13.8540002532836
30
0
41
1
10
-1.63886378681673
20
13.8791676243503
30
0
41
1
10
-1.66563592205635
20
13.9104491790265
30
0
41
1
10
-1.69103284110332
20
13.9566683539303
30
0
41
1
10
-1.6990919864528
20
13.9940409390257
30
0
41
1
10
-1.7
20
14.0200984156386
30
0
0
SPLINE
5
A9
100
AcDbEntity
8
SK1
62
256
6
ByLayer
370
-1
48
1
60
0
100
AcDbSpline
70
4
71
3
72
13
73
9
40
0
40
0
40
0
40
0
40
0.239456137017858
40
0.368359723444941
40
0.49999898554771
40
0.631638416605806
40
0.760542468725189
40
1
40
1
40
1
40
1
41
1
10
-1.7
20
-14.0200984122732
30
0
41
1
10
-1.69909198645307
20
-13.9940409356568
30
0
41
1
10
-1.69103284110358
20
-13.9566683505561
30
0
41
1
10
-1.66563592205675
20
-13.9104491756451
30
0
41
1
10
-1.63886378681727
20
-13.8791676209635
30
0
41
1
10
-1.60627712752329
20
-13.8540002498915
30
0
41
1
10
-1.55884064236791
20
-13.8309564462263
30
0
41
1
10
-1.52111030874489
20
-13.8247841901529
30
0
41
1
10
-1.4950399779393
20
-13.8251858293361
30
0
0
SPLINE
5
AA
100
AcDbEntity
8
SK1
62
256
6
ByLayer
370
-1
48
1
60
0
100
AcDbSpline
70
4
71
2
72
6
73
3
40
0
40
0
40
0
40
1
40
1
40
1
41
1
10
-22.5
20
13.4970856697526
30
0
41
1
10
-23.2499999989322
20
13.0640911753538
30
0
41
1
10
-24
20
12.6310964932104
30
0
0
SPLINE
5
AB
100
AcDbEntity
8
SK1
62
256
6
ByLayer
370
-1
48
1
60
0
100
AcDbSpline
70
4
71
2
72
6
73
3
40
0
40
0
40
0
40
1
40
1
40
1
41
1
10
-24
20
-12.6310961283886
30
0
41
1
10
-23.2499999989318
20
-13.0640908004416
30
0
41
1
10
-22.5
20
-13.4970852847173
30
0
0
SPLINE
5
AC
100
AcDbEntity
8
SK1
62
256
6
ByLayer
370
-1
48
1
60
0
100
AcDbSpline
70
4
71
2
72
6
73
3
40
0
40
0
40
0
40
1
40
1
40
1
41
1
10
-0.394976888875291
20
13.7403788260786
30
0
41
1
10
-0.945008433407295
20
13.7266599565288
30
0
41
1
10
-1.4950399779393
20
13.7129410868425
30
0
0
SPLINE
5
AD
100
AcDbEntity
8
SK1
62
256
6
ByLayer
370
-1
48
1
60
0
100
AcDbSpline
70
4
71
2
72
6
73
3
40
0
40
0
40
0
40
1
40
1
40
1
41
1
10
-1.4950399779393
20
-13.7129423752897
30
0
41
1
10
-0.945008433407295
20
-13.7266611372792
30
0
41
1
10
-0.394976888875291
20
-13.740379899128
30
0
0
SPLINE
5
AE
100
AcDbEntity
8
1
62
256
6
ByLayer
370
-1
48
1
60
0
100
AcDbSpline
70
4
71
3
72
16
73
12
40
0
40
0
40
0
40
0
40
0.114691258188362
40
0.114691258188362
40
0.256006982052503
40
0.256006982052503
40
0.47848150969845
40
0.47848150969845
40
0.904237458570186
40
0.904237458570186
40
1
40
1
40
1
40
1
41
1
10
9.07679491924311
20
19.1222825906926
30
0
41
1
10
9.09376079941588
20
19.1222825906926
30
0
41
1
10
9.1109374678759
20
19.1213397893258
30
0
41
1
10
9.14653890153815
20
19.117563257367
30
0
41
1
10
9.16492831263209
20
19.1143205262483
30
0
41
1
10
9.20694798227832
20
19.1044641374228
30
0
41
1
10
9.22859635065213
20
19.0968571256395
30
0
41
1
10
9.28185513895581
20
19.0732678361841
30
0
41
1
10
9.30640600056208
20
19.0554522237109
30
0
41
1
10
9.32912053427442
20
19.0329978954363
30
0
41
1
10
9.33300496589204
20
19.0288038685174
30
0
41
1
10
9.33660254037846
20
19.0245744101322
30
0
0
SPLINE
5
AF
100
AcDbEntity
8
1
62
256
6
ByLayer
370
-1
48
1
60
0
100
AcDbSpline
70
4
71
3
72
16
73
12
40
0
40
0
40
0
40
0
40
0.114691258188368
40
0.114691258188368
40
0.256006982052502
40
0.256006982052502
40
0.47848150969846
40
0.47848150969846
40
0.904237458570168
40
0.904237458570168
40
1
40
1
40
1
40
1
41
1
10
6.92320508075689
20
5.85988980456938
30
0
41
1
10
6.90623920058412
20
5.85988980456938
30
0
41
1
10
6.8890625321241
20
5.8629683550426
30
0
41
1
10
6.85346109846185
20
5.87527238052311
30
0
41
1
10
6.83507168736791
20
5.88582364044447
30
0
41
1
10
6.79305201772168
20
5.91775860341622
30
0
41
1
10
6.77140364934787
20
5.94228809980598
30
0
41
1
10
6.71814486104419
20
6.01773563791645
30
0
41
1
10
6.69359399943792
20
6.07398601286491
30
0
41
1
10
6.67087946572558
20
6.14371014971229
30
0
41
1
10
6.66699503410796
20
6.15668833929709
30
0
41
1
10
6.66339745962154
20
6.16973001948568
30
0
0
SPLINE
5
B0
100
AcDbEntity
8
1
62
256
6
ByLayer
370
-1
48
1
60
0
100
AcDbSpline
70
4
71
3
72
12
73
8
40
0
40
0
40
0
40
0
40
0.266477130355987
40
0.266477130355987
40
0.629657268805254
40
0.629657268805254
40
1
40
1
40
1
40
1
41
1
10
19.3234324851717
20
-19.9991551393742
30
0
41
1
10
19.045970551523
20
-19.9975513957278
30
0
41
1
10
18.7881951221126
20
-19.993316666031
30
0
41
1
10
18.2535136400806
20
-19.9707786931553
30
0
41
1
10
17.9966659763055
20
-19.9472343358467
30
0
41
1
10
17.6246684374118
20
-19.8687770147107
30
0
41
1
10
17.50706201236
20
-19.8118422226337
30
0
41
1
10
17.4679392995373
20
-19.7388634433943
30
0
0
SPLINE
5
B1
100
AcDbEntity
8
1
62
256
6
ByLayer
370
-1
48
1
60
0
100
AcDbSpline
70
4
71
3
72
16
73
12
40
0
40
0
40
0
40
0
40
0.464304267159312
40
0.464304267159312
40
0.64753348514198
40
0.64753348514198
40
0.833383675860513
40
0.833383675860513
40
0.950238074309858
40
0.950238074309858
40
1
40
1
40
1
40
1
41
1
10
9.33660254037845
20
-19.0245744101322
30
0
41
1
10
9.31929643456959
20
-19.0449201888242
30
0
41
1
10
9.29554416795261
20
-19.0647708693882
30
0
41
1
10
9.24667293447288
20
-19.0892734034403
30
0
41
1
10
9.23079711658974
20
-19.0959253431035
30
0
41
1
10
9.19394564855391
20
-19.1078085849622
30
0
41
1
10
9.17240809259957
20
-19.1131587398644
30
0
41
1
10
9.13286934844767
20
-19.1192406569511
30
0
41
1
10
9.1161352553444
20
-19.1209710216544
30
0
41
1
10
9.09170798023393
20
-19.1221075563677
30
0
41
1
10
9.0842403231115
20
-19.1222825906926
30
0
41
1
10
9.07679491924311
20
-19.1222825906926
30
0
0
SPLINE
5
B2
100
AcDbEntity
8
1
62
256
6
ByLayer
370
-1
48
1
60
0
100
AcDbSpline
70
4
71
3
72
12
73
8
40
0
40
0
40
0
40
0
40
0.363720166352872
40
0.363720166352872
40
0.727551477340758
40
0.727551477340758
40
1
40
1
40
1
40
1
41
1
10
17.4679392995373
20
19.7388634433943
30
0
41
1
10
17.5061006390499
20
19.8100488947813
30
0
41
1
10
17.6188091328809
20
19.8659837259111
30
0
41
1
10
17.9782741533214
20
19.944798248619
30
0
41
1
10
18.2299980225834
20
19.9689921999499
30
0
41
1
10
18.7604237633994
20
19.9926800417392
30
0
41
1
10
19.0203022085176
20
19.9972435719464
30
0
41
1
10
19.3006844368736
20
19.9990174773337
30
0
0
SPLINE
5
B3
100
AcDbEntity
8
1
62
256
6
ByLayer
370
-1
48
1
60
0
100
AcDbSpline
70
4
71
3
72
16
73
12
40
0
40
0
40
0
40
0
40
0.114691258188364
40
0.114691258188364
40
0.256006982052499
40
0.256006982052499
40
0.478481509698429
40
0.478481509698429
40
0.904237458570111
40
0.904237458570111
40
1
40
1
40
1
40
1
41
1
10
6.92320508075689
20
-19.1222825906926
30
0
41
1
10
6.90623920058412
20
-19.1222825906926
30
0
41
1
10
6.8890625321241
20
-19.1213397893258
30
0
41
1
10
6.85346109846185
20
-19.117563257367
30
0
41
1
10
6.83507168736791
20
-19.1143205262483
30
0
41
1
10
6.79305201772168
20
-19.1044641374228
30
0
41
1
10
6.77140364934789
20
-19.0968571256395
30
0
41
1
10
6.71814486104421
20
-19.0732678361841
30
0
41
1
10
6.69359399943794
20
-19.0554522237109
30
0
41
1
10
6.67087946572559
20
-19.0329978954364
30
0
41
1
10
6.66699503410796
20
-19.0288038685174
30
0
41
1
10
6.66339745962154
20
-19.0245744101322
30
0
0
SPLINE
5
B4
100
AcDbEntity
8
1
62
256
6
ByLayer
370
-1
48
1
60
0
100
AcDbSpline
70
4
71
3
72
16
73
12
40
0
40
0
40
0
40
0
40
0.114691258188364
40
0.114691258188364
40
0.256006982052491
40
0.256006982052491
40
0.478481509698431
40
0.478481509698431
40
0.904237458570125
40
0.904237458570125
40
1
40
1
40
1
40
1
41
1
10
9.07679491924311
20
-5.85988980456938
30
0
41
1
10
9.09376079941588
20
-5.85988980456938
30
0
41
1
10
9.1109374678759
20
-5.8629683550426
30
0
41
1
10
9.14653890153815
20
-5.87527238052311
30
0
41
1
10
9.16492831263209
20
-5.88582364044447
30
0
41
1
10
9.20694798227832
20
-5.91775860341619
30
0
41
1
10
9.22859635065211
20
-5.94228809980598
30
0
41
1
10
9.28185513895581
20
-6.01773563791645
30
0
41
1
10
9.30640600056208
20
-6.07398601286488
30
0
41
1
10
9.32912053427441
20
-6.14371014971229
30
0
41
1
10
9.33300496589204
20
-6.15668833929709
30
0
41
1
10
9.33660254037846
20
-6.16973001948568
30
0
0
SPLINE
5
B5
100
AcDbEntity
8
1
62
256
6
ByLayer
370
-1
48
1
60
0
100
AcDbSpline
70
4
71
3
72
16
73
12
40
0
40
0
40
0
40
0
40
0.464304267159293
40
0.464304267159293
40
0.647533485141969
40
0.647533485141969
40
0.833383675860506
40
0.833383675860506
40
0.950238074309852
40
0.950238074309852
40
1
40
1
40
1
40
1
41
1
10
6.66339745962155
20
19.0245744101322
30
0
41
1
10
6.68070356543041
20
19.0449201888242
30
0
41
1
10
6.70445583204739
20
19.0647708693882
30
0
41
1
10
6.7533270655271
20
19.0892734034403
30
0
41
1
10
6.76920288341026
20
19.0959253431035
30
0
41
1
10
6.80605435144608
20
19.1078085849622
30
0
41
1
10
6.82759190740043
20
19.1131587398644
30
0
41
1
10
6.86713065155233
20
19.1192406569511
30
0
41
1
10
6.8838647446556
20
19.1209710216544
30
0
41
1
10
6.90829201976607
20
19.1221075563677
30
0
41
1
10
6.9157596768885
20
19.1222825906926
30
0
41
1
10
6.92320508075689
20
19.1222825906926
30
0
0
SPLINE
5
B6
100
AcDbEntity
8
1
62
256
6
ByLayer
370
-1
48
1
60
0
100
AcDbSpline
70
4
71
3
72
16
73
12
40
0
40
0
40
0
40
0
40
0.46430426715929
40
0.46430426715929
40
0.647533485141967
40
0.647533485141967
40
0.833383675860504
40
0.833383675860504
40
0.950238074309844
40
0.950238074309844
40
1
40
1
40
1
40
1
41
1
10
6.66339745962155
20
-6.16973001948568
30
0
41
1
10
6.68070356543041
20
-6.10699311212741
30
0
41
1
10
6.70445583204739
20
-6.04466199750289
30
0
41
1
10
6.7533270655271
20
-5.96658891111872
30
0
41
1
10
6.76920288341026
20
-5.94525308185362
30
0
41
1
10
6.80605435144608
20
-5.90694983484818
30
0
41
1
10
6.82759190740043
20
-5.88959453036586
30
0
41
1
10
6.86713065155233
20
-5.86981268651903
30
0
41
1
10
6.8838647446556
20
-5.8641686994944
30
0
41
1
10
6.90829201976607
20
-5.86046107106307
30
0
41
1
10
6.91575967688848
20
-5.85988980456935
30
0
41
1
10
6.92320508075689
20
-5.85988980456935
30
0
0
SPLINE
5
B7
100
AcDbEntity
8
1
62
256
6
ByLayer
370
-1
48
1
60
0
100
AcDbSpline
70
4
71
3
72
16
73
12
40
0
40
0
40
0
40
0
40
0.464304267159304
40
0.464304267159304
40
0.647533485141974
40
0.647533485141974
40
0.833383675860505
40
0.833383675860505
40
0.950238074309851
40
0.950238074309851
40
1
40
1
40
1
40
1
41
1
10
9.33660254037845
20
6.16973001948568
30
0
41
1
10
9.31929643456959
20
6.10699311212741
30
0
41
1
10
9.29554416795261
20
6.04466199750289
30
0
41
1
10
9.2466729344729
20
5.96658891111872
30
0
41
1
10
9.23079711658974
20
5.94525308185362
30
0
41
1
10
9.19394564855391
20
5.90694983484818
30
0
41
1
10
9.17240809259957
20
5.88959453036583
30
0
41
1
10
9.13286934844767
20
5.86981268651903
30
0
41
1
10
9.1161352553444
20
5.86416869949437
30
0
41
1
10
9.09170798023393
20
5.86046107106307
30
0
41
1
10
9.08424032311152
20
5.85988980456935
30
0
41
1
10
9.07679491924311
20
5.85988980456935
30
0
0
SPLINE
5
B8
100
AcDbEntity
8
SK1
62
256
6
ByLayer
370
-1
48
1
60
0
100
AcDbSpline
70
4
71
3
72
22
73
18
40
0
40
0
40
0
40
0
40
0.0542788415511484
40
0.0542788415511484
40
0.109669437046269
40
0.109669437046269
40
0.147579660274739
40
0.147579660274739
40
0.185286337538712
40
0.185286337538712
40
0.247115732297182
40
0.247115732297182
40
0.369423792215099
40
0.369423792215099
40
0.802518637893911
40
0.802518637893911
40
1
40
1
40
1
40
1
41
1
10
-0.394976888875291
20
13.8446019297682
30
0
41
1
10
-0.389542940031561
20
13.8449158599001
30
0
41
1
10
-0.38361759348102
20
13.8454439659091
30
0
41
1
10
-0.370682577094911
20
13.8471856765741
30
0
41
1
10
-0.363425095790518
20
13.8484584409772
30
0
41
1
10
-0.350979043087179
20
13.8513238322133
30
0
41
1
10
-0.345738104843406
20
13.8527220431424
30
0
41
1
10
-0.335836036111374
20
13.8557300394867
30
0
41
1
10
-0.331061234651429
20
13.8573680363077
30
0
41
1
10
-0.319536857691602
20
13.8617043765564
30
0
41
1
10
-0.313226439154875
20
13.8644842406524
30
0
41
1
10
-0.296825865103983
20
13.8724174982475
30
0
41
1
10
-0.288454852011284
20
13.8774557840676
30
0
41
1
10
-0.256352537857253
20
13.8987262995108
30
0
41
1
10
-0.243999907013645
20
13.9124642192994
30
0
41
1
10
-0.229363924159316
20
13.9303243240481
30
0
41
1
10
-0.225387714743661
20
13.9356346474794
30
0
41
1
10
-0.221937450539556
20
13.9406885005317
30
0
0
SPLINE
5
B9
100
AcDbEntity
8
SK1
62
256
6
ByLayer
370
-1
48
1
60
0
100
AcDbSpline
70
4
71
3
72
24
73
20
40
0
40
0
40
0
40
0
40
0.0014544386986058
40
0.0014544386986058
40
0.361956423059491
40
0.361956423059491
40
0.727731599250037
40
0.727731599250037
40
0.782013304695163
40
0.782013304695163
40
0.837002501937537
40
0.837002501937537
40
0.873144196436307
40
0.873144196436307
40
0.909511909647721
40
0.909511909647721
40
0.952113857168618
40
0.952113857168618
40
1
40
1
40
1
40
1
41
1
10
-0.217773520819861
20
-13.9477771104646
30
0
41
1
10
-0.217796303830525
20
-13.9477385212397
30
0
41
1
10
-0.217819113763127
20
-13.9476999169831
30
0
41
1
10
-0.223510113646839
20
-13.9380759054837
30
0
41
1
10
-0.2308695540152
20
-13.9275300777214
30
0
41
1
10
-0.252993763945881
20
-13.9036085654018
30
0
41
1
10
-0.266169306055218
20
-13.8900912648142
30
0
41
1
10
-0.29931321009893
20
-13.8713678522793
30
0
41
1
10
-0.304168151080077
20
-13.8688119846588
30
0
41
1
10
-0.315233613826862
20
-13.8635902765912
30
0
41
1
10
-0.321588767727192
20
-13.8608655729355
30
0
41
1
10
-0.333434048045547
20
-13.8565368608439
30
0
41
1
10
-0.338587345813778
20
-13.8548370746726
30
0
41
1
10
-0.349158334685953
20
-13.8517865918864
30
0
41
1
10
-0.354704697438692
20
-13.8504050227189
30
0
41
1
10
-0.36619369752195
20
-13.847969712967
30
0
41
1
10
-0.372213730133424
20
-13.8469665678177
30
0
41
1
10
-0.383950527302631
20
-13.8454141457692
30
0
41
1
10
-0.389694590781985
20
-13.8449066720063
30
0
41
1
10
-0.394976888882169
20
-13.8446015176357
30
0
0
SPLINE
5
BA
100
AcDbEntity
8
SK1
62
256
6
ByLayer
370
-1
48
1
60
0
100
AcDbSpline
70
4
71
3
72
120
73
116
40
0
40
0
40
0
40
0
40
0.0053555999425263
40
0.0131272595914057
40
0.020898919240285
40
0.0286705788891644
40
0.0364422385380437
40
0.0442138981869231
40
0.0519855578358024
40
0.0597572174846817
40
0.0675288771335611
40
0.0753005367824404
40
0.0830721964313198
40
0.0908438560801991
40
0.0986155157290785
40
0.106387175377958
40
0.114158835026837
40
0.121930494675716
40
0.129702154324596
40
0.137473813973475
40
0.145245473622354
40
0.153017133271234
40
0.160788792920113
40
0.176332112217872
40
0.191875431515631
40
0.207418750813389
40
0.222962070111148
40
0.230733729760027
40
0.238505389408907
40
0.246277049057786
40
0.254048708706665
40
0.269592028004424
40
0.285135347302183
40
0.292907006951062
40
0.300678666599942
40
0.308450326248821
40
0.3162219858977
40
0.32399364554658
40
0.331765305195459
40
0.347308624493218
40
0.355080284142097
40
0.362851943790976
40
0.378395263088735
40
0.393938582386494
40
0.401710242035373
40
0.409481901684252
40
0.425025220982011
40
0.43279688063089
40
0.43668271045533
40
0.44056854027977
40
0.448340199928649
40
0.456111859577528
40
0.471655178875287
40
0.479426838524166
40
0.487198498173046
40
0.494970157821925
40
0.502741817470804
40
0.510513477119684
40
0.518285136768563
40
0.526056796417442
40
0.533828456066322
40
0.541600115715201
40
0.549371775364081
40
0.564915094661839
40
0.572686754310718
40
0.580458413959598
40
0.588230073608477
40
0.592115903432917
40
0.596001733257357
40
0.603773392906236
40
0.611545052555115
40
0.619316712203995
40
0.627088371852874
40
0.634860031501753
40
0.642631691150633
40
0.658175010448391
40
0.67371832974615
40
0.681489989395029
40
0.689261649043909
40
0.704804968341667
40
0.712576627990547
40
0.720348287639426
40
0.728119947288306
40
0.735891606937185
40
0.743663266586064
40
0.751434926234943
40
0.759206585883823
40
0.766978245532702
40
0.782521564830461
40
0.79029322447934
40
0.79806488412822
40
0.805836543777099
40
0.813608203425978
40
0.821379863074858
40
0.829151522723737
40
0.844694842021496
40
0.852466501670375
40
0.860238161319254
40
0.868009820968134
40
0.875781480617013
40
0.891324799914772
40
0.899096459563651
40
0.90686811921253
40
0.91463977886141
40
0.922411438510289
40
0.930183098159168
40
0.937954757808048
40
0.945726417456927
40
0.953498077105807
40
0.961269736754686
40
0.969041396403565
40
0.976813056052445
40
0.984584715701324
40
0.992356375350203
40
1
40
1
40
1
40
1
41
1
10
-1.7
20
2.5837250319525
30
0
41
1
10
-1.7
20
2.62111400924692
30
0
41
1
10
-1.7
20
2.71257747842986
30
0
41
1
10
-1.7
20
2.85743848960826
30
0
41
1
10
-1.7
20
3.01805529196176
30
0
41
1
10
-1.7
20
3.17766896347746
30
0
41
1
10
-1.7
20
3.33626946559076
30
0
41
1
10
-1.7
20
3.49384788295134
30
0
41
1
10
-1.7
20
3.65039703338328
30
0
41
1
10
-1.7
20
3.80591068333541
30
0
41
1
10
-1.7
20
3.9603838288908
30
0
41
1
10
-1.7
20
4.11381118090259
30
0
41
1
10
-1.7
20
4.26618881241484
30
0
41
1
10
-1.7
20
4.41751369191317
30
0
41
1
10
-1.7
20
4.56778315161375
30
0
41
1
10
-1.7
20
4.7169946256985
30
0
41
1
10
-1.7
20
4.86514572624662
30
0
41
1
10
-1.7
20
5.01223421717728
30
0
41
1
10
-1.7
20
5.15825863689906
30
0
41
1
10
-1.7
20
5.30321731736851
30
0
41
1
10
-1.7
20
5.44710902267545
30
0
41
1
10
-1.7
20
5.58993219435266
30
0
41
1
10
-1.7
20
5.77892152593586
30
0
41
1
10
-1.7
20
6.01251450148573
30
0
41
1
10
-1.7
20
6.28851702131561
30
0
41
1
10
-1.7
20
6.56021849497904
30
0
41
1
10
-1.7
20
6.78305839594086
30
0
41
1
10
-1.7
20
6.95914718913937
30
0
41
1
10
-1.7
20
7.0901422748378
30
0
41
1
10
-1.7
20
7.22005471809891
30
0
41
1
10
-1.7
20
7.391814483107
30
0
41
1
10
-1.7
20
7.60382757721297
30
0
41
1
10
-1.7
20
7.81221412115067
30
0
41
1
10
-1.7
20
7.97672004102665
30
0
41
1
10
-1.7
20
8.09901466976936
30
0
41
1
10
-1.7
20
8.22021382021134
30
0
41
1
10
-1.7
20
8.34031608257325
30
0
41
1
10
-1.7
20
8.45931946186533
30
0
41
1
10
-1.7
20
8.61651163422607
30
0
41
1
10
-1.7
20
8.77152769372714
30
0
41
1
10
-1.7
20
8.92429762219672
30
0
41
1
10
-1.7
20
9.07558728630886
30
0
41
1
10
-1.7
20
9.26193699842017
30
0
41
1
10
-1.7
20
9.44455857133374
30
0
41
1
10
-1.7
20
9.58839009925038
30
0
41
1
10
-1.7
20
9.73071863089592
30
0
41
1
10
-1.7
20
9.87081045044334
30
0
41
1
10
-1.7
20
9.99138145148612
30
0
41
1
10
-1.7
20
10.059706595653
30
0
41
1
10
-1.7
20
10.127650582945
30
0
41
1
10
-1.7
20
10.2118742978003
30
0
41
1
10
-1.7
20
10.3450861597474
30
0
41
1
10
-1.7
20
10.4760157822056
30
0
41
1
10
-1.7
20
10.6046008653873
30
0
41
1
10
-1.7
20
10.6998796625668
30
0
41
1
10
-1.7
20
10.7939888545435
30
0
41
1
10
-1.7
20
10.8869237943964
30
0
41
1
10
-1.7
20
10.9786794570574
30
0
41
1
10
-1.7
20
11.069250952524
30
0
41
1
10
-1.7
20
11.1586337774266
30
0
41
1
10
-1.7
20
11.2468221981049
30
0
41
1
10
-1.7
20
11.3338110691597
30
0
41
1
10
-1.7
20
11.4481829097131
30
0
41
1
10
-1.7
20
11.5601529310588
30
0
41
1
10
-1.7
20
11.6696587897978
30
0
41
1
10
-1.7
20
11.7505641463283
30
0
41
1
10
-1.7
20
11.8169591619061
30
0
41
1
10
-1.7
20
11.869448828233
30
0
41
1
10
-1.7
20
11.9215236271769
30
0
41
1
10
-1.7
20
11.9858436943514
30
0
41
1
10
-1.7
20
12.0617686735772
30
0
41
1
10
-1.7
20
12.1364317035572
30
0
41
1
10
-1.7
20
12.2098248313331
30
0
41
1
10
-1.7
20
12.2819407102379
30
0
41
1
10
-1.7
20
12.3763763795169
30
0
41
1
10
-1.7
20
12.4912006631364
30
0
41
1
10
-1.7
20
12.6016599065257
30
0
41
1
10
-1.7
20
12.687362440577
30
0
41
1
10
-1.7
20
12.7712834981639
30
0
41
1
10
-1.7
20
12.8525264302737
30
0
41
1
10
-1.7
20
12.9310230820619
30
0
41
1
10
-1.7
20
12.9885221046098
30
0
41
1
10
-1.7
20
13.0446338377524
30
0
41
1
10
-1.7
20
13.0993474417035
30
0
41
1
10
-1.7
20
13.1526505331688
30
0
41
1
10
-1.7
20
13.2045321176789
30
0
41
1
10
-1.7
20
13.2549799687684
30
0
41
1
10
-1.7
20
13.3203101272292
30
0
41
1
10
-1.7
20
13.3827344481881
30
0
41
1
10
-1.7
20
13.4421723383994
30
0
41
1
10
-1.7
20
13.4852529409442
30
0
41
1
10
-1.7
20
13.5268172136993
30
0
41
1
10
-1.7
20
13.5668499598694
30
0
41
1
10
-1.7
20
13.6053356175566
30
0
41
1
10
-1.7
20
13.6545611570253
30
0
41
1
10
-1.7
20
13.7006353167884
30
0
41
1
10
-1.7
20
13.7434661079967
30
0
41
1
10
-1.7
20
13.7739560268625
30
0
41
1
10
-1.7
20
13.8027899277569
30
0
41
1
10
-1.7
20
13.8389980176944
30
0
41
1
10
-1.7
20
13.8718187984145
30
0
41
1
10
-1.7
20
13.9011479145568
30
0
41
1
10
-1.7
20
13.9213794981548
30
0
41
1
10
-1.7
20
13.9398197437578
30
0
41
1
10
-1.7
20
13.9564420504847
30
0
41
1
10
-1.7
20
13.9712195410175
30
0
41
1
10
-1.7
20
13.9841238377961
30
0
41
1
10
-1.7
20
13.9951249982352
30
0
41
1
10
-1.7
20
14.0041924220526
30
0
41
1
10
-1.7
20
14.0112932507837
30
0
41
1
10
-1.7
20
14.0163938901866
30
0
41
1
10
-1.7
20
14.019458382701
30
0
41
1
10
-1.7
20
14.0204497516689
30
0
41
1
10
-1.7
20
14.0193347369066
30
0
41
1
10
-1.7
20
14.0171811880759
30
0
41
1
10
-1.7
20
14.0157592855722
30
0
0
SPLINE
5
BB
100
AcDbEntity
8
SK1
62
256
6
ByLayer
370
-1
48
1
60
0
100
AcDbSpline
70
4
71
3
72
118
73
114
40
0
40
0
40
0
40
0
40
0.0076461652116469
40
0.0154178049969164
40
0.0231894447821859
40
0.0309610845674554
40
0.0387327243527249
40
0.0465043641379943
40
0.0542760039232638
40
0.0620476437085333
40
0.0698192834938028
40
0.0775909232790723
40
0.0931342028496112
40
0.10867748242015
40
0.124220761990689
40
0.131992401775959
40
0.139764041561228
40
0.147535681346498
40
0.155307321131767
40
0.170850600702306
40
0.178622240487575
40
0.186393880272845
40
0.194165520058114
40
0.201937159843384
40
0.209708799628653
40
0.217480439413923
40
0.233023718984462
40
0.240795358769731
40
0.248566998555001
40
0.25633863834027
40
0.26411027812554
40
0.271881917910809
40
0.279653557696079
40
0.287425197481348
40
0.295196837266618
40
0.310740116837157
40
0.318511756622426
40
0.326283396407696
40
0.341826675978235
40
0.357369955548773
40
0.365141595334043
40
0.372913235119313
40
0.380684874904582
40
0.388456514689851
40
0.396228154475121
40
0.40399979426039
40
0.407885614153025
40
0.41177143404566
40
0.419543073830929
40
0.427314713616199
40
0.435086353401468
40
0.450629632972007
40
0.458401272757277
40
0.466172912542546
40
0.473944552327816
40
0.481716192113085
40
0.489487831898355
40
0.497259471683624
40
0.505031111468894
40
0.512802751254163
40
0.520574391039433
40
0.528346030824702
40
0.543889310395241
40
0.55166095018051
40
0.55943258996578
40
0.563318409858415
40
0.567204229751049
40
0.574975869536319
40
0.590519149106858
40
0.598290788892127
40
0.606062428677397
40
0.621605708247936
40
0.637148987818475
40
0.644920627603744
40
0.652692267389014
40
0.668235546959553
40
0.676007186744822
40
0.683778826530092
40
0.691550466315361
40
0.699322106100631
40
0.7070937458859
40
0.71486538567117
40
0.730408665241708
40
0.745951944812247
40
0.753723584597517
40
0.761495224382786
40
0.769266864168056
40
0.777038503953325
40
0.792581783523864
40
0.808125063094403
40
0.823668342664942
40
0.839211622235481
40
0.846983262020751
40
0.85475490180602
40
0.86252654159129
40
0.870298181376559
40
0.878069821161829
40
0.885841460947098
40
0.893613100732368
40
0.901384740517637
40
0.909156380302906
40
0.916928020088176
40
0.924699659873445
40
0.932471299658715
40
0.940242939443985
40
0.948014579229254
40
0.955786219014523
40
0.963557858799793
40
0.971329498585062
40
0.979101138370332
40
0.986872778155601
40
0.994644417940871
40
1
40
1
40
1
40
1
41
1
10
-1.7
20
-14.0157582204887
30
0
41
1
10
-1.7
20
-14.0171808694037
30
0
41
1
10
-1.7
20
-14.0193350221709
30
0
41
1
10
-1.7
20
-14.0204498319149
30
0
41
1
10
-1.7
20
-14.0194577493028
30
0
41
1
10
-1.7
20
-14.0163929237538
30
0
41
1
10
-1.7
20
-14.0112928179987
30
0
41
1
10
-1.7
20
-14.0041925984504
30
0
41
1
10
-1.7
20
-13.9951252442004
30
0
41
1
10
-1.7
20
-13.9841239086368
30
0
41
1
10
-1.7
20
-13.9712195253815
30
0
41
1
10
-1.7
20
-13.9515178138587
30
0
41
1
10
-1.7
20
-13.9222750232465
30
0
41
1
10
-1.7
20
-13.8800204120324
30
0
41
1
10
-1.7
20
-13.838998019961
30
0
41
1
10
-1.7
20
-13.8027899045868
30
0
41
1
10
-1.7
20
-13.773955994413
30
0
41
1
10
-1.7
20
-13.7434660879001
30
0
41
1
10
-1.7
20
-13.7006353174901
30
0
41
1
10
-1.7
20
-13.6545611373555
30
0
41
1
10
-1.7
20
-13.6053355893185
30
0
41
1
10
-1.7
20
-13.5668499361124
30
0
41
1
10
-1.7
20
-13.5268172028035
30
0
41
1
10
-1.7
20
-13.485252935173
30
0
41
1
10
-1.7
20
-13.4421723218484
30
0
41
1
10
-1.7
20
-13.3827344162836
30
0
41
1
10
-1.7
20
-13.3203101073726
30
0
41
1
10
-1.7
20
-13.254979960848
30
0
41
1
10
-1.7
20
-13.2045321061977
30
0
41
1
10
-1.7
20
-13.1526505121852
30
0
41
1
10
-1.7
20
-13.099347414251
30
0
41
1
10
-1.7
20
-13.0446338149516
30
0
41
1
10
-1.7
20
-12.9885220902628
30
0
41
1
10
-1.7
20
-12.9310230723471
30
0
41
1
10
-1.7
20
-12.8525264142953
30
0
41
1
10
-1.7
20
-12.7712834714132
30
0
41
1
10
-1.7
20
-12.6873624197502
30
0
41
1
10
-1.7
20
-12.6016598943421
30
0
41
1
10
-1.7
20
-12.4912006491746
30
0
41
1
10
-1.7
20
-12.3763763558488
30
0
41
1
10
-1.7
20
-12.2819406900945
30
0
41
1
10
-1.7
20
-12.209824815618
30
0
41
1
10
-1.7
20
-12.1364316894724
30
0
41
1
10
-1.7
20
-12.0617686582407
30
0
41
1
10
-1.7
20
-11.9858436758677
30
0
41
1
10
-1.7
20
-11.9215236068653
30
0
41
1
10
-1.7
20
-11.8694488081267
30
0
41
1
10
-1.7
20
-11.8169591426362
30
0
41
1
10
-1.7
20
-11.7505641289662
30
0
41
1
10
-1.7
20
-11.6696587742526
30
0
41
1
10
-1.7
20
-11.5601529159528
30
0
41
1
10
-1.7
20
-11.448182891669
30
0
41
1
10
-1.7
20
-11.3338110499831
30
0
41
1
10
-1.7
20
-11.2468221792499
30
0
41
1
10
-1.7
20
-11.1586337603462
30
0
41
1
10
-1.7
20
-11.0692509372408
30
0
41
1
10
-1.7
20
-10.9786794422307
30
0
41
1
10
-1.7
20
-10.8869237783616
30
0
41
1
10
-1.7
20
-10.7939888359847
30
0
41
1
10
-1.7
20
-10.6998796425436
30
0
41
1
10
-1.7
20
-10.6046008465563
30
0
41
1
10
-1.7
20
-10.4760157679139
30
0
41
1
10
-1.7
20
-10.3450861470912
30
0
41
1
10
-1.7
20
-10.2118742799613
30
0
41
1
10
-1.7
20
-10.1276505623382
30
0
41
1
10
-1.7
20
-10.0597065749413
30
0
41
1
10
-1.7
20
-9.9913814320609
30
0
41
1
10
-1.7
20
-9.87081043657869
30
0
41
1
10
-1.7
20
-9.73071862052217
30
0
41
1
10
-1.7
20
-9.58839008121353
30
0
41
1
10
-1.7
20
-9.44455854729449
30
0
41
1
10
-1.7
20
-9.26193698423123
30
0
41
1
10
-1.7
20
-9.07558727703642
30
0
41
1
10
-1.7
20
-8.92429760284432
30
0
41
1
10
-1.7
20
-8.77152766795061
30
0
41
1
10
-1.7
20
-8.61651162008161
30
0
41
1
10
-1.7
20
-8.45931945344486
30
0
41
1
10
-1.7
20
-8.34031606829598
30
0
41
1
10
-1.7
20
-8.22021379775831
30
0
41
1
10
-1.7
20
-8.09901464495698
30
0
41
1
10
-1.7
20
-7.9767200242907
30
0
41
1
10
-1.7
20
-7.81221411547432
30
0
41
1
10
-1.7
20
-7.60382755625838
30
0
41
1
10
-1.7
20
-7.39181445781463
30
0
41
1
10
-1.7
20
-7.22005470774221
30
0
41
1
10
-1.7
20
-7.09014226669851
30
0
41
1
10
-1.7
20
-6.95914717066265
30
0
41
1
10
-1.7
20
-6.7830583657493
30
0
41
1
10
-1.7
20
-6.56021848903171
30
0
41
1
10
-1.7
20
-6.28851700104784
30
0
41
1
10
-1.7
20
-6.01251447744062
30
0
41
1
10
-1.7
20
-5.77892152059965
30
0
41
1
10
-1.7
20
-5.58993216915877
30
0
41
1
10
-1.7
20
-5.44710899667646
30
0
41
1
10
-1.7
20
-5.30321729486519
30
0
41
1
10
-1.7
20
-5.15825857839869
30
0
41
1
10
-1.7
20
-5.01223405348068
30
0
41
1
10
-1.7
20
-4.86514556778678
30
0
41
1
10
-1.7
20
-4.71699468615466
30
0
41
1
10
-1.7
20
-4.56778337246482
30
0
41
1
10
-1.7
20
-4.41751381174834
30
0
41
1
10
-1.7
20
-4.26618872973953
30
0
41
1
10
-1.7
20
-4.11381092681606
30
0
41
1
10
-1.7
20
-3.96038358832212
30
0
41
1
10
-1.7
20
-3.80591077742719
30
0
41
1
10
-1.7
20
-3.65039714326571
30
0
41
1
10
-1.7
20
-3.49384789900154
30
0
41
1
10
-1.7
20
-3.33626943234705
30
0
41
1
10
-1.7
20
-3.17766893265431
30
0
41
1
10
-1.7
20
-3.01805527431182
30
0
41
1
10
-1.7
20
-2.85743846779499
30
0
41
1
10
-1.7
20
-2.71257747642741
30
0
41
1
10
-1.7
20
-2.62111404232408
30
0
41
1
10
-1.7
20
-2.58372509632827
30
0
0
SPLINE
5
BC
100
AcDbEntity
8
SK1
62
256
6
ByLayer
370
-1
48
1
60
0
100
AcDbSpline
70
4
71
3
72
287
73
283
40
0
40
0
40
0
40
0
40
0.0011530167617402
40
0.0046414605575151
40
0.00812990435329
40
0.011618348149065
40
0.0151067919448399
40
0.0185952357406149
40
0.0220836795363898
40
0.0255721233321648
40
0.0290605671279397
40
0.0325490109237146
40
0.0395258985152645
40
0.0465027861068143
40
0.0534796736983642
40
0.0569681174941392
40
0.0604565612899141
40
0.063945005085689
40
0.067433448881464
40
0.0744103364730138
40
0.0778987802687888
40
0.0813872240645637
40
0.0848756678603387
40
0.0883641116561136
40
0.0918525554518886
40
0.0953409992476635
40
0.102317886839213
40
0.105806330634988
40
0.109294774430763
40
0.112783218226538
40
0.116271662022313
40
0.119760105818088
40
0.123248549613863
40
0.126736993409638
40
0.130225437205413
40
0.137202324796963
40
0.140690768592738
40
0.144179212388513
40
0.151156099980062
40
0.158132987571612
40
0.161621431367387
40
0.165109875163162
40
0.168598318958937
40
0.172086762754712
40
0.175575206550487
40
0.179063650346262
40
0.180807872244149
40
0.182552094142037
40
0.186040537937812
40
0.189528981733587
40
0.193017425529362
40
0.199994313120912
40
0.203482756916686
40
0.206971200712462
40
0.210459644508236
40
0.213948088304011
40
0.217436532099786
40
0.220924975895561
40
0.224413419691336
40
0.227901863487111
40
0.231390307282886
40
0.234878751078661
40
0.241855638670211
40
0.245344082465986
40
0.248832526261761
40
0.250576748159648
40
0.252320970057536
40
0.255809413853311
40
0.26278630144486
40
0.266274745240635
40
0.26976318903641
40
0.27674007662796
40
0.28371696421951
40
0.287205408015285
40
0.29069385181106
40
0.29767073940261
40
0.301159183198385
40
0.30464762699416
40
0.308136070789935
40
0.31162451458571
40
0.315112958381485
40
0.31860140217726
40
0.325578289768809
40
0.332555177360359
40
0.336043621156134
40
0.339532064951909
40
0.343020508747684
40
0.346508952543459
40
0.353485840135009
40
0.360462727726559
40
0.367439615318108
40
0.374416502909658
40
0.377904946705433
40
0.381393390501208
40
0.384881834296983
40
0.388370278092758
40
0.391858721888533
40
0.395347165684308
40
0.398835609480083
40
0.402324053275858
40
0.405812497071633
40
0.409300940867408
40
0.412789384663183
40
0.416277828458958
40
0.419766272254733
40
0.423254716050508
40
0.426743159846283
40
0.430231603642057
40
0.433720047437832
40
0.437208491233607
40
0.440696935029382
40
0.444185378825157
40
0.447673822620932
40
0.44941804451882
40
0.451162266416707
40
0.454650710212482
40
0.45639493211037
40
0.458139154008257
40
0.459883375906144
40
0.461627597804032
40
0.463371819701919
40
0.465116041599807
40
0.466860263497694
40
0.468604485395582
40
0.472092929191357
40
0.473837151089244
40
0.475581372987132
40
0.477325594885019
40
0.479069816782907
40
0.480814038680794
40
0.482558260578682
40
0.484302482476569
40
0.486046704374456
40
0.487790926272344
40
0.489535148170231
40
0.491279370068119
40
0.493023591966006
40
0.494767813863894
40
0.496512035761781
40
0.498256257659669
40
0.500000479557556
40
0.501744701455444
40
0.503488923353331
40
0.505233145251218
40
0.506977367149106
40
0.508721589046993
40
0.510465810944881
40
0.512210032842768
40
0.513954254740656
40
0.515698476638543
40
0.517442698536431
40
0.519186920434318
40
0.520931142332206
40
0.522675364230093
40
0.524419586127981
40
0.526163808025868
40
0.527908029923756
40
0.531396473719531
40
0.533140695617418
40
0.534884917515306
40
0.536629139413193
40
0.53837336131108
40
0.540117583208968
40
0.541861805106855
40
0.543606027004743
40
0.54535024890263
40
0.548838692698405
40
0.550582914596293
40
0.55232713649418
40
0.555815580289955
40
0.55930402408573
40
0.562792467881505
40
0.56628091167728
40
0.569769355473055
40
0.57325779926883
40
0.576746243064605
40
0.58023468686038
40
0.583723130656154
40
0.58721157445193
40
0.590700018247704
40
0.594188462043479
40
0.597676905839254
40
0.601165349635029
40
0.604653793430804
40
0.608142237226579
40
0.611630681022354
40
0.615119124818129
40
0.618607568613904
40
0.622096012409679
40
0.625584456205454
40
0.632561343797004
40
0.639538231388553
40
0.646515118980103
40
0.653492006571653
40
0.656980450367428
40
0.660468894163203
40
0.663957337958978
40
0.667445781754753
40
0.674422669346303
40
0.681399556937853
40
0.684888000733628
40
0.688376444529403
40
0.691864888325178
40
0.695353332120953
40
0.698841775916727
40
0.702330219712503
40
0.709307107304052
40
0.712795551099827
40
0.716283994895602
40
0.723260882487152
40
0.730237770078702
40
0.733726213874477
40
0.737214657670252
40
0.744191545261802
40
0.747679989057576
40
0.749424210955464
40
0.751168432853352
40
0.754656876649127
40
0.758145320444901
40
0.765122208036451
40
0.768610651832226
40
0.772099095628001
40
0.775587539423776
40
0.779075983219551
40
0.782564427015326
40
0.786052870811101
40
0.789541314606876
40
0.793029758402651
40
0.796518202198426
40
0.8000066459942
40
0.80698353358575
40
0.810471977381525
40
0.8139604211773
40
0.817448864973075
40
0.819193086870963
40
0.82093730876885
40
0.824425752564625
40
0.8279141963604
40
0.831402640156175
40
0.83489108395195
40
0.838379527747725
40
0.8418679715435
40
0.84884485913505
40
0.8558217467266
40
0.859310190522375
40
0.86279863431815
40
0.8697755219097
40
0.873263965705474
40
0.876752409501249
40
0.880240853297024
40
0.883729297092799
40
0.887217740888574
40
0.890706184684349
40
0.894194628480124
40
0.897683072275899
40
0.904659959867449
40
0.908148403663223
40
0.911636847458999
40
0.915125291254773
40
0.918613735050549
40
0.922102178846323
40
0.925590622642098
40
0.932567510233648
40
0.936055954029423
40
0.939544397825198
40
0.943032841620973
40
0.946521285416748
40
0.953498173008298
40
0.956986616804073
40
0.960475060599848
40
0.963963504395623
40
0.967451948191398
40
0.970940391987172
40
0.974428835782947
40
0.977917279578722
40
0.981405723374498
40
0.984894167170272
40
0.988382610966047
40
0.991871054761822
40
0.995359498557597
40
0.998847942353372
40
1
40
1
40
1
40
1
41
1
10
-22.5
20
-13.4956358900706
30
0
41
1
10
-22.5
20
-13.4959444131532
30
0
41
1
10
-22.5
20
-13.4970336948696
30
0
41
1
10
-22.5
20
-13.4978716184631
30
0
41
1
10
-22.5
20
-13.4969161903089
30
0
41
1
10
-22.5
20
-13.4939625245411
30
0
41
1
10
-22.5
20
-13.4890441905268
30
0
41
1
10
-22.5
20
-13.4821928739338
30
0
41
1
10
-22.5
20
-13.4734382711797
30
0
41
1
10
-22.5
20
-13.4628104278487
30
0
41
1
10
-22.5
20
-13.4503375493538
30
0
41
1
10
-22.5
20
-13.4312436783152
30
0
41
1
10
-22.5
20
-13.402990048048
30
0
41
1
10
-22.5
20
-13.3620642251226
30
0
41
1
10
-22.5
20
-13.3223661774289
30
0
41
1
10
-22.5
20
-13.2871835761246
30
0
41
1
10
-22.5
20
-13.2592104836088
30
0
41
1
10
-22.5
20
-13.2296213566399
30
0
41
1
10
-22.5
20
-13.1879639126742
30
0
41
1
10
-22.5
20
-13.1433841284413
30
0
41
1
10
-22.5
20
-13.0954724183383
30
0
41
1
10
-22.5
20
-13.0580720783436
30
0
41
1
10
-22.5
20
-13.0191589474766
30
0
41
1
10
-22.5
20
-12.9787481075024
30
0
41
1
10
-22.5
20
-12.9368537004399
30
0
41
1
10
-22.5
20
-12.8789379874313
30
0
41
1
10
-22.5
20
-12.8184132188765
30
0
41
1
10
-22.5
20
-12.7547247883428
30
0
41
1
10
-22.5
20
-12.7056201369325
30
0
41
1
10
-22.5
20
-12.6551113810006
30
0
41
1
10
-22.5
20
-12.6032111684974
30
0
41
1
10
-22.5
20
-12.5499297998313
30
0
41
1
10
-22.5
20
-12.4952790326449
30
0
41
1
10
-22.5
20
-12.4392702770472
30
0
41
1
10
-22.5
20
-12.3626709718699
30
0
41
1
10
-22.5
20
-12.2837700633604
30
0
41
1
10
-22.5
20
-12.2018541666219
30
0
41
1
10
-22.5
20
-12.1181901660327
30
0
41
1
10
-22.5
20
-12.0106580823312
30
0
41
1
10
-22.5
20
-11.8988607853737
30
0
41
1
10
-22.5
20
-11.8066390784571
30
0
41
1
10
-22.5
20
-11.7363216027856
30
0
41
1
10
-22.5
20
-11.6647550005754
30
0
41
1
10
-22.5
20
-11.59194615036
30
0
41
1
10
-22.5
20
-11.5179033392113
30
0
41
1
10
-22.5
20
-11.4552554262223
30
0
41
1
10
-22.5
20
-11.4043880916922
30
0
41
1
10
-22.5
20
-11.3531143221947
30
0
41
1
10
-22.5
20
-11.2884404549429
30
0
41
1
10
-22.5
20
-11.2095312020912
30
0
41
1
10
-22.5
20
-11.1025558247745
30
0
41
1
10
-22.5
20
-10.9936883814227
30
0
41
1
10
-22.5
20
-10.881957392112
30
0
41
1
10
-22.5
20
-10.7971107518715
30
0
41
1
10
-22.5
20
-10.7110949831286
30
0
41
1
10
-22.5
20
-10.6239149454148
30
0
41
1
10
-22.5
20
-10.5355769819029
30
0
41
1
10
-22.5
20
-10.4460865275718
30
0
41
1
10
-22.5
20
-10.3554481215356
30
0
41
1
10
-22.5
20
-10.2636670923514
30
0
41
1
10
-22.5
20
-10.1707494549495
30
0
41
1
10
-22.5
20
-10.0451570413025
30
0
41
1
10
-22.5
20
-9.9178935930201
30
0
41
1
10
-22.5
20
-9.78780083934149
30
0
41
1
10
-22.5
20
-9.70579078784203
30
0
41
1
10
-22.5
20
-9.63944489130404
30
0
41
1
10
-22.5
20
-9.57273011219269
30
0
41
1
10
-22.5
20
-9.45508832781687
30
0
41
1
10
-22.5
20
-9.31898450356377
30
0
41
1
10
-22.5
20
-9.18004983919923
30
0
41
1
10
-22.5
20
-9.03966368952015
30
0
41
1
10
-22.5
20
-8.86197296792949
30
0
41
1
10
-22.5
20
-8.68069429175796
30
0
41
1
10
-22.5
20
-8.53310893756458
30
0
41
1
10
-22.5
20
-8.38410353449396
30
0
41
1
10
-22.5
20
-8.23370690743869
30
0
41
1
10
-22.5
20
-8.08045168982594
30
0
41
1
10
-22.5
20
-7.96465014223952
30
0
41
1
10
-22.5
20
-7.84779993569691
30
0
41
1
10
-22.5
20
-7.72990617143802
30
0
41
1
10
-22.5
20
-7.61097083499584
30
0
41
1
10
-22.5
20
-7.45073654157579
30
0
41
1
10
-22.5
20
-7.24848505186407
30
0
41
1
10
-22.5
20
-7.04280518235291
30
0
41
1
10
-22.5
20
-6.87569112826711
30
0
41
1
10
-22.5
20
-6.74956632065386
30
0
41
1
10
-22.5
20
-6.62242827644155
30
0
41
1
10
-22.5
20
-6.4512555331213
30
0
41
1
10
-22.5
20
-6.23550102644131
30
0
41
1
10
-22.5
20
-5.97220551217549
30
0
41
1
10
-22.5
20
-5.70495651005669
30
0
41
1
10
-22.5
20
-5.47933703035866
30
0
41
1
10
-22.5
20
-5.29623480232564
30
0
41
1
10
-22.5
20
-5.15823567759486
30
0
41
1
10
-22.5
20
-5.01927995326392
30
0
41
1
10
-22.5
20
-4.87937450907222
30
0
41
1
10
-22.5
20
-4.73852599905979
30
0
41
1
10
-22.5
20
-4.59674211262629
30
0
41
1
10
-22.5
20
-4.45403157575558
30
0
41
1
10
-22.5
20
-4.31040309161111
30
0
41
1
10
-22.5
20
-4.16586580001649
30
0
41
1
10
-22.5
20
-4.02043049501106
30
0
41
1
10
-22.5
20
-3.87410976932693
30
0
41
1
10
-22.5
20
-3.72691565105669
30
0
41
1
10
-22.5
20
-3.57886126909131
30
0
41
1
10
-22.5
20
-3.4299627769704
30
0
41
1
10
-22.5
20
-3.28023687778401
30
0
41
1
10
-22.5
20
-3.12970257053468
30
0
41
1
10
-22.5
20
-2.97838003358396
30
0
41
1
10
-22.5
20
-2.8262921676581
30
0
41
1
10
-22.5
20
-2.67346525953189
30
0
41
1
10
-22.5
20
-2.51992549648591
30
0
41
1
10
-22.5
20
-2.39172828921559
30
0
41
1
10
-22.5
20
-2.2882368400623
30
0
41
1
10
-22.5
20
-2.18454587114542
30
0
41
1
10
-22.5
20
-2.08161602870015
30
0
41
1
10
-22.5
20
-1.97729727415896
30
0
41
1
10
-22.5
20
-1.89920682890118
30
0
41
1
10
-22.5
20
-1.82098464012651
30
0
41
1
10
-22.5
20
-1.74263823347056
30
0
41
1
10
-22.5
20
-1.66417084854152
30
0
41
1
10
-22.5
20
-1.58559123041411
30
0
41
1
10
-22.5
20
-1.50690426712365
30
0
41
1
10
-22.5
20
-1.40144074045128
30
0
41
1
10
-22.5
20
-1.29707563275716
30
0
41
1
10
-22.5
20
-1.1912185842138
30
0
41
1
10
-22.5
20
-1.11209553564783
30
0
41
1
10
-22.5
20
-1.03290644237791
30
0
41
1
10
-22.5
20
-0.95365606681014
30
0
41
1
10
-22.5
20
-0.874352168955852
30
0
41
1
10
-22.5
20
-0.795000198505278
30
0
41
1
10
-22.5
20
-0.71560660892132
30
0
41
1
10
-22.5
20
-0.63617666680787
30
0
41
1
10
-22.5
20
-0.556715993884097
30
0
41
1
10
-22.5
20
-0.477229338262958
30
0
41
1
10
-22.5
20
-0.397721593521055
30
0
41
1
10
-22.5
20
-0.318196568076161
30
0
41
1
10
-22.5
20
-0.238658582119825
30
0
41
1
10
-22.5
20
-0.159110826532412
30
0
41
1
10
-22.5
20
-0.0795570008675952
30
0
41
1
10
-22.5
20
4.3520458E-09
30
0
41
1
10
-22.5
20
0.0795570195282949
30
0
41
1
10
-22.5
20
0.159110863620981
30
0
41
1
10
-22.5
20
0.238658616598514
30
0
41
1
10
-22.5
20
0.318196574925025
30
0
41
1
10
-22.5
20
0.397721596430074
30
0
41
1
10
-22.5
20
0.477229377934975
30
0
41
1
10
-22.5
20
0.556716044364009
30
0
41
1
10
-22.5
20
0.63617667254502
30
0
41
1
10
-22.5
20
0.715606595157226
30
0
41
1
10
-22.5
20
0.795000235128668
30
0
41
1
10
-22.5
20
0.874352236673616
30
0
41
1
10
-22.5
20
0.953656082911976
30
0
41
1
10
-22.5
20
1.03290641330761
30
0
41
1
10
-22.5
20
1.11209555133374
30
0
41
1
10
-22.5
20
1.19121866112906
30
0
41
1
10
-22.5
20
1.29707565327635
30
0
41
1
10
-22.5
20
1.40144071039387
30
0
41
1
10
-22.5
20
1.50690430877853
30
0
41
1
10
-22.5
20
1.58559131690836
30
0
41
1
10
-22.5
20
1.66417088377818
30
0
41
1
10
-22.5
20
1.74263820265685
30
0
41
1
10
-22.5
20
1.82098461234611
30
0
41
1
10
-22.5
20
1.89920687090043
30
0
41
1
10
-22.5
20
1.97729736527978
30
0
41
1
10
-22.5
20
2.08161605220536
30
0
41
1
10
-22.5
20
2.18454583019772
30
0
41
1
10
-22.5
20
2.28823685042076
30
0
41
1
10
-22.5
20
2.39172837491469
30
0
41
1
10
-22.5
20
2.51992552331163
30
0
41
1
10
-22.5
20
2.67346522993279
30
0
41
1
10
-22.5
20
2.82629223006825
30
0
41
1
10
-22.5
20
2.9783800820847
30
0
41
1
10
-22.5
20
3.12970236953149
30
0
41
1
10
-22.5
20
3.2802363758513
30
0
41
1
10
-22.5
20
3.42996282061054
30
0
41
1
10
-22.5
20
3.57886234252629
30
0
41
1
10
-22.5
20
3.72691655621918
30
0
41
1
10
-22.5
20
3.87410940415094
30
0
41
1
10
-22.5
20
4.02042950258553
30
0
41
1
10
-22.5
20
4.1658649918152
30
0
41
1
10
-22.5
20
4.31040320562681
30
0
41
1
10
-22.5
20
4.45403251641869
30
0
41
1
10
-22.5
20
4.59674271442694
30
0
41
1
10
-22.5
20
4.73852585442467
30
0
41
1
10
-22.5
20
4.87937424460151
30
0
41
1
10
-22.5
20
5.01927991936705
30
0
41
1
10
-22.5
20
5.15823571506778
30
0
41
1
10
-22.5
20
5.29623478947158
30
0
41
1
10
-22.5
20
5.47933703089231
30
0
41
1
10
-22.5
20
5.70495655337433
30
0
41
1
10
-22.5
20
5.97220551419213
30
0
41
1
10
-22.5
20
6.23550104742759
30
0
41
1
10
-22.5
20
6.451255571394
30
0
41
1
10
-22.5
20
6.6224282598192
30
0
41
1
10
-22.5
20
6.74956631857708
30
0
41
1
10
-22.5
20
6.87569116366484
30
0
41
1
10
-22.5
20
7.04280522024894
30
0
41
1
10
-22.5
20
7.24848505302427
30
0
41
1
10
-22.5
20
7.4507365478344
30
0
41
1
10
-22.5
20
7.6109708771202
30
0
41
1
10
-22.5
20
7.72990620240671
30
0
41
1
10
-22.5
20
7.84779994085653
30
0
41
1
10
-22.5
20
7.96465013686171
30
0
41
1
10
-22.5
20
8.08045169790759
30
0
41
1
10
-22.5
20
8.23370694014301
30
0
41
1
10
-22.5
20
8.38410356414289
30
0
41
1
10
-22.5
20
8.53310893988203
30
0
41
1
10
-22.5
20
8.68069429599308
30
0
41
1
10
-22.5
20
8.8619729936481
30
0
41
1
10
-22.5
20
9.0396637144479
30
0
41
1
10
-22.5
20
9.18004984465043
30
0
41
1
10
-22.5
20
9.31898451102214
30
0
41
1
10
-22.5
20
9.45508835059124
30
0
41
1
10
-22.5
20
9.57273013875857
30
0
41
1
10
-22.5
20
9.63944491324963
30
0
41
1
10
-22.5
20
9.70579080403837
30
0
41
1
10
-22.5
20
9.7878008492857
30
0
41
1
10
-22.5
20
9.91789360326428
30
0
41
1
10
-22.5
20
10.0451570606616
30
0
41
1
10
-22.5
20
10.1707494782419
30
0
41
1
10
-22.5
20
10.2636671117607
30
0
41
1
10
-22.5
20
10.3554481360506
30
0
41
1
10
-22.5
20
10.4460865401309
30
0
41
1
10
-22.5
20
10.5355769962349
30
0
41
1
10
-22.5
20
10.6239149629423
30
0
41
1
10
-22.5
20
10.7110950034658
30
0
41
1
10
-22.5
20
10.7971107724731
30
0
41
1
10
-22.5
20
10.881957410682
30
0
41
1
10
-22.5
20
10.9936883968037
30
0
41
1
10
-22.5
20
11.1025558384385
30
0
41
1
10
-22.5
20
11.2095312195267
30
0
41
1
10
-22.5
20
11.2884404756242
30
0
41
1
10
-22.5
20
11.3531143441571
30
0
41
1
10
-22.5
20
11.4043881128182
30
0
41
1
10
-22.5
20
11.4552554448703
30
0
41
1
10
-22.5
20
11.5179033535968
30
0
41
1
10
-22.5
20
11.5919461625789
30
0
41
1
10
-22.5
20
11.664755015164
30
0
41
1
10
-22.5
20
11.7363216229303
30
0
41
1
10
-22.5
20
11.8066391033683
30
0
41
1
10
-22.5
20
11.8988608066557
30
0
41
1
10
-22.5
20
12.0106580919609
30
0
41
1
10
-22.5
20
12.1181901818312
30
0
41
1
10
-22.5
20
12.2018541939414
30
0
41
1
10
-22.5
20
12.2837700876339
30
0
41
1
10
-22.5
20
12.3626709807027
30
0
41
1
10
-22.5
20
12.4392702870471
30
0
41
1
10
-22.5
20
12.4952790541085
30
0
41
1
10
-22.5
20
12.5499298292215
30
0
41
1
10
-22.5
20
12.6032111946844
30
0
41
1
10
-22.5
20
12.6551113940766
30
0
41
1
10
-22.5
20
12.7056201424592
30
0
41
1
10
-22.5
20
12.7547247990428
30
0
41
1
10
-22.5
20
12.8184132466048
30
0
41
1
10
-22.5
20
12.8789380178894
30
0
41
1
10
-22.5
20
12.9368537080862
30
0
41
1
10
-22.5
20
12.9787481114295
30
0
41
1
10
-22.5
20
13.0191589652135
30
0
41
1
10
-22.5
20
13.0580721081213
30
0
41
1
10
-22.5
20
13.0954724456838
30
0
41
1
10
-22.5
20
13.143384141029
30
0
41
1
10
-22.5
20
13.1879639125281
30
0
41
1
10
-22.5
20
13.2296213845592
30
0
41
1
10
-22.5
20
13.2592105165633
30
0
41
1
10
-22.5
20
13.2871835921006
30
0
41
1
10
-22.5
20
13.3223661764574
30
0
41
1
10
-22.5
20
13.3540536969874
30
0
41
1
10
-22.5
20
13.3825245595672
30
0
41
1
10
-22.5
20
13.4021158939438
30
0
41
1
10
-22.5
20
13.4199649415155
30
0
41
1
10
-22.5
20
13.4360470510206
30
0
41
1
10
-22.5
20
13.4503375548199
30
0
41
1
10
-22.5
20
13.4628103286331
30
0
41
1
10
-22.5
20
13.4734380181859
30
0
41
1
10
-22.5
20
13.4821927509398
30
0
41
1
10
-22.5
20
13.4890446841776
30
0
41
1
10
-22.5
20
13.4939634903146
30
0
41
1
10
-22.5
20
13.4969168014739
30
0
41
1
10
-22.5
20
13.4978715423881
30
0
41
1
10
-22.5
20
13.4970334654148
30
0
41
1
10
-22.5
20
13.4959444882175
30
0
41
1
10
-22.5
20
13.4956362781581
30
0
0
SPLINE
5
BD
100
AcDbEntity
8
SK1
62
256
6
ByLayer
370
-1
48
1
60
0
100
AcDbSpline
70
4
71
3
72
119
73
115
40
0
40
0
40
0
40
0
40
0.001765412310675
40
0.0096870350618182
40
0.0176086578129614
40
0.0255302805641046
40
0.0334519033152478
40
0.041373526066391
40
0.0492951488175343
40
0.0572167715686775
40
0.0651383943198207
40
0.0730600170709639
40
0.0809816398221071
40
0.0889032625732503
40
0.0968248853243935
40
0.104746508075537
40
0.11266813082668
40
0.120589753577823
40
0.128511376328966
40
0.13643299908011
40
0.144354621831253
40
0.152276244582396
40
0.160197867333539
40
0.176041112835826
40
0.191884358338112
40
0.207727603840399
40
0.223570849342685
40
0.231492472093828
40
0.239414094844971
40
0.247335717596115
40
0.255257340347258
40
0.271100585849544
40
0.286943831351831
40
0.294865454102974
40
0.302787076854117
40
0.31070869960526
40
0.318630322356403
40
0.326551945107547
40
0.33447356785869
40
0.350316813360976
40
0.358238436112119
40
0.366160058863263
40
0.382003304365549
40
0.397846549867836
40
0.405768172618979
40
0.413689795370122
40
0.429533040872408
40
0.437454663623552
40
0.441415474999123
40
0.445376286374695
40
0.453297909125838
40
0.461219531876981
40
0.477062777379268
40
0.484984400130411
40
0.492906022881554
40
0.500827645632697
40
0.50874926838384
40
0.516670891134984
40
0.524592513886127
40
0.53251413663727
40
0.540435759388413
40
0.548357382139556
40
0.5562790048907
40
0.572122250392986
40
0.580043873144129
40
0.587965495895272
40
0.595887118646416
40
0.599847930021987
40
0.603808741397559
40
0.611730364148702
40
0.619651986899845
40
0.627573609650989
40
0.635495232402132
40
0.643416855153275
40
0.651338477904418
40
0.667181723406705
40
0.683024968908991
40
0.690946591660134
40
0.698868214411278
40
0.714711459913564
40
0.722633082664707
40
0.73055470541585
40
0.738476328166993
40
0.746397950918137
40
0.75431957366928
40
0.762241196420423
40
0.770162819171566
40
0.77808444192271
40
0.793927687424996
40
0.801849310176139
40
0.809770932927283
40
0.817692555678426
40
0.825614178429569
40
0.833535801180712
40
0.841457423931855
40
0.857300669434142
40
0.865222292185285
40
0.873143914936428
40
0.881065537687571
40
0.888987160438715
40
0.904830405941001
40
0.912752028692144
40
0.920673651443287
40
0.928595274194431
40
0.936516896945574
40
0.944438519696717
40
0.95236014244786
40
0.960281765199003
40
0.968203387950147
40
0.97612501070129
40
0.984046633452433
40
0.991968256203576
40
0.999889878954719
40
1
40
1
40
1
40
1
41
1
10
-1.4950399779393
20
2.59465115086957
30
0
41
1
10
-1.4950399779393
20
2.606473243442
30
0
41
1
10
-1.4950399779393
20
2.67130382016646
30
0
41
1
10
-1.4950399779393
20
2.78881794693001
30
0
41
1
10
-1.4950399779393
20
2.94652921585708
30
0
41
1
10
-1.4950399779393
20
3.10333581737226
30
0
41
1
10
-1.4950399779393
20
3.25922160409144
30
0
41
1
10
-1.4950399779393
20
3.4141725129254
30
0
41
1
10
-1.4950399779393
20
3.56817684914566
30
0
41
1
10
-1.4950399779393
20
3.72122348266291
30
0
41
1
10
-1.4950399779393
20
3.87330241838259
30
0
41
1
10
-1.4950399779393
20
4.02440435063471
30
0
41
1
10
-1.4950399779393
20
4.17452257114442
30
0
41
1
10
-1.4950399779393
20
4.32365075555242
30
0
41
1
10
-1.4950399779393
20
4.47178250674139
30
0
41
1
10
-1.4950399779393
20
4.61891187892093
30
0
41
1
10
-1.4950399779393
20
4.7650335666859
30
0
41
1
10
-1.4950399779393
20
4.91014320448997
30
0
41
1
10
-1.4950399779393
20
5.05423700692032
30
0
41
1
10
-1.4950399779393
20
5.19731095699922
30
0
41
1
10
-1.4950399779393
20
5.33936160781602
30
0
41
1
10
-1.4950399779393
20
5.48038543010182
30
0
41
1
10
-1.4950399779393
20
5.66717892451575
30
0
41
1
10
-1.4950399779393
20
5.89779786635279
30
0
41
1
10
-1.4950399779393
20
6.17053537924178
30
0
41
1
10
-1.4950399779393
20
6.43910150489376
30
0
41
1
10
-1.4950399779393
20
6.65929861735816
30
0
41
1
10
-1.4950399779393
20
6.83355374310952
30
0
41
1
10
-1.4950399779393
20
6.96311018885424
30
0
41
1
10
-1.4950399779393
20
7.09160988853208
30
0
41
1
10
-1.4950399779393
20
7.26163684175143
30
0
41
1
10
-1.4950399779393
20
7.47128768043942
30
0
41
1
10
-1.4950399779393
20
7.67738590051292
30
0
41
1
10
-1.4950399779393
20
7.84029855153605
30
0
41
1
10
-1.4950399779393
20
7.96134018717205
30
0
41
1
10
-1.4950399779393
20
8.08130644558901
30
0
41
1
10
-1.4950399779393
20
8.2001957134178
30
0
41
1
10
-1.4950399779393
20
8.31800484031689
30
0
41
1
10
-1.4950399779393
20
8.47372856948019
30
0
41
1
10
-1.4950399779393
20
8.62702161678089
30
0
41
1
10
-1.4950399779393
20
8.7783873974316
30
0
41
1
10
-1.4950399779393
20
8.92829538452324
30
0
41
1
10
-1.4950399779393
20
9.11275364912453
30
0
41
1
10
-1.4950399779393
20
9.2935360539519
30
0
41
1
10
-1.4950399779393
20
9.43608247629777
30
0
41
1
10
-1.4950399779393
20
9.57714512355727
30
0
41
1
10
-1.4950399779393
20
9.71574945872365
30
0
41
1
10
-1.4950399779393
20
9.835227886979
30
0
41
1
10
-1.4950399779393
20
9.90295237623948
30
0
41
1
10
-1.4950399779393
20
9.97030028641953
30
0
41
1
10
-1.4950399779393
20
10.0536983203575
30
0
41
1
10
-1.4950399779393
20
10.1857467801784
30
0
41
1
10
-1.4950399779393
20
10.3153089526253
30
0
41
1
10
-1.4950399779393
20
10.4427777956644
30
0
41
1
10
-1.4950399779393
20
10.537175897834
30
0
41
1
10
-1.4950399779393
20
10.630416702033
30
0
41
1
10
-1.4950399779393
20
10.7224950525573
30
0
41
1
10
-1.4950399779393
20
10.8134058114344
30
0
41
1
10
-1.4950399779393
20
10.9031442186804
30
0
41
1
10
-1.4950399779393
20
10.9917054227684
30
0
41
1
10
-1.4950399779393
20
11.0790834618892
30
0
41
1
10
-1.4950399779393
20
11.165273297363
30
0
41
1
10
-1.4950399779393
20
11.2786601205037
30
0
41
1
10
-1.4950399779393
20
11.3894729046301
30
0
41
1
10
-1.4950399779393
20
11.4980349156059
30
0
41
1
10
-1.4950399779393
20
11.5781957427673
30
0
41
1
10
-1.4950399779393
20
11.6439487843731
30
0
41
1
10
-1.4950399779393
20
11.6959849306732
30
0
41
1
10
-1.4950399779393
20
11.747609354201
30
0
41
1
10
-1.4950399779393
20
11.8113057197552
30
0
41
1
10
-1.4950399779393
20
11.886528664654
30
0
41
1
10
-1.4950399779393
20
11.960500101414
30
0
41
1
10
-1.4950399779393
20
12.0332119519516
30
0
41
1
10
-1.4950399779393
20
12.1046570427268
30
0
41
1
10
-1.4950399779393
20
12.1982669205398
30
0
41
1
10
-1.4950399779393
20
12.3119621581916
30
0
41
1
10
-1.4950399779393
20
12.4213295969168
30
0
41
1
10
-1.4950399779393
20
12.5062717787185
30
0
41
1
10
-1.4950399779393
20
12.5894449263383
30
0
41
1
10
-1.4950399779393
20
12.6698142967672
30
0
41
1
10
-1.4950399779393
20
12.7476032540011
30
0
41
1
10
-1.4950399779393
20
12.8045464232669
30
0
41
1
10
-1.4950399779393
20
12.8601132308426
30
0
41
1
10
-1.4950399779393
20
12.9142926213842
30
0
41
1
10
-1.4950399779393
20
12.9670724454163
30
0
41
1
10
-1.4950399779393
20
13.0184419731185
30
0
41
1
10
-1.4950399779393
20
13.0683888234861
30
0
41
1
10
-1.4950399779393
20
13.133106637017
30
0
41
1
10
-1.4950399779393
20
13.1948224412614
30
0
41
1
10
-1.4950399779393
20
13.2536925631392
30
0
41
1
10
-1.4950399779393
20
13.296330722945
30
0
41
1
10
-1.4950399779393
20
13.3374647797226
30
0
41
1
10
-1.4950399779393
20
13.3770799229021
30
0
41
1
10
-1.4950399779393
20
13.4151607649325
30
0
41
1
10
-1.4950399779393
20
13.4638962511352
30
0
41
1
10
-1.4950399779393
20
13.5094130161235
30
0
41
1
10
-1.4950399779393
20
13.551806168738
30
0
41
1
10
-1.4950399779393
20
13.5819601013665
30
0
41
1
10
-1.4950399779393
20
13.6104729213425
30
0
41
1
10
-1.4950399779393
20
13.646298505966
30
0
41
1
10
-1.4950399779393
20
13.6786965897716
30
0
41
1
10
-1.4950399779393
20
13.7077055842542
30
0
41
1
10
-1.4950399779393
20
13.7276983600542
30
0
41
1
10
-1.4950399779393
20
13.7459180935577
30
0
41
1
10
-1.4950399779393
20
13.7623389110759
30
0
41
1
10
-1.4950399779393
20
13.7769347594832
30
0
41
1
10
-1.4950399779393
20
13.7896781016746
30
0
41
1
10
-1.4950399779393
20
13.800539960484
30
0
41
1
10
-1.4950399779393
20
13.8094907530557
30
0
41
1
10
-1.4950399779393
20
13.8164987457743
30
0
41
1
10
-1.4950399779393
20
13.821531562835
30
0
41
1
10
-1.4950399779393
20
13.8245545856003
30
0
41
1
10
-1.4950399779393
20
13.8252109207403
30
0
41
1
10
-1.4950399779393
20
13.825184730081
30
0
41
1
10
-1.4950399779393
20
13.825183729981
30
0
0
SPLINE
5
BE
100
AcDbEntity
8
SK1
62
256
6
ByLayer
370
-1
48
1
60
0
100
AcDbSpline
70
4
71
3
72
117
73
113
40
0
40
0
40
0
40
0
40
0.0001127208090183
40
0.0080343229795923
40
0.0159559251501663
40
0.0238775273207404
40
0.0317991294913144
40
0.0397207316618884
40
0.0476423338324624
40
0.0555639360030365
40
0.0634855381736105
40
0.0793287425147586
40
0.0951719468559066
40
0.111015151197055
40
0.118936753367629
40
0.126858355538203
40
0.134779957708777
40
0.142701559879351
40
0.158544764220499
40
0.166466366391073
40
0.174387968561647
40
0.182309570732221
40
0.190231172902795
40
0.198152775073369
40
0.206074377243943
40
0.221917581585091
40
0.229839183755665
40
0.237760785926239
40
0.245682388096813
40
0.253603990267387
40
0.261525592437961
40
0.269447194608535
40
0.277368796779109
40
0.285290398949683
40
0.301133603290831
40
0.309055205461406
40
0.31697680763198
40
0.332820011973127
40
0.348663216314276
40
0.35658481848485
40
0.364506420655424
40
0.372428022825998
40
0.380349624996572
40
0.388271227167146
40
0.39619282933772
40
0.400153630423007
40
0.404114431508294
40
0.412036033678868
40
0.419957635849442
40
0.427879238020016
40
0.443722442361164
40
0.451644044531738
40
0.459565646702312
40
0.467487248872886
40
0.47540885104346
40
0.483330453214034
40
0.491252055384608
40
0.499173657555182
40
0.507095259725756
40
0.51501686189633
40
0.522938464066904
40
0.538781668408052
40
0.546703270578626
40
0.5546248727492
40
0.558585673834487
40
0.562546474919774
40
0.570468077090349
40
0.586311281431496
40
0.594232883602071
40
0.602154485772645
40
0.617997690113793
40
0.633840894454941
40
0.641762496625515
40
0.649684098796089
40
0.665527303137237
40
0.673448905307811
40
0.681370507478385
40
0.689292109648959
40
0.697213711819533
40
0.705135313990107
40
0.713056916160681
40
0.728900120501829
40
0.744743324842977
40
0.752664927013551
40
0.760586529184125
40
0.768508131354699
40
0.776429733525273
40
0.792272937866421
40
0.808116142207569
40
0.823959346548717
40
0.839802550889866
40
0.847724153060439
40
0.855645755231013
40
0.863567357401587
40
0.871488959572162
40
0.879410561742736
40
0.88733216391331
40
0.895253766083884
40
0.903175368254458
40
0.911096970425032
40
0.919018572595606
40
0.92694017476618
40
0.934861776936754
40
0.942783379107328
40
0.950704981277902
40
0.958626583448476
40
0.96654818561905
40
0.974469787789624
40
0.982391389960198
40
0.990312992130772
40
0.998234594301346
40
1
40
1
40
1
40
1
41
1
10
-1.4950399779393
20
-13.8251837282477
30
0
41
1
10
-1.4950399779393
20
-13.8251847283477
30
0
41
1
10
-1.4950399779393
20
-13.8252108751388
30
0
41
1
10
-1.4950399779393
20
-13.8245539604948
30
0
41
1
10
-1.4950399779393
20
-13.8215305966481
30
0
41
1
10
-1.4950399779393
20
-13.8164982902869
30
0
41
1
10
-1.4950399779393
20
-13.8094909095343
30
0
41
1
10
-1.4950399779393
20
-13.8005402090708
30
0
41
1
10
-1.4950399779393
20
-13.7896781830989
30
0
41
1
10
-1.4950399779393
20
-13.7769347476405
30
0
41
1
10
-1.4950399779393
20
-13.7574597557179
30
0
41
1
10
-1.4950399779393
20
-13.7285859139399
30
0
41
1
10
-1.4950399779393
20
-13.6868269300449
30
0
41
1
10
-1.4950399779393
20
-13.6462985077496
30
0
41
1
10
-1.4950399779393
20
-13.6104729008558
30
0
41
1
10
-1.4950399779393
20
-13.5819600687286
30
0
41
1
10
-1.4950399779393
20
-13.5518061457236
30
0
41
1
10
-1.4950399779393
20
-13.509413016618
30
0
41
1
10
-1.4950399779393
20
-13.4638962341071
30
0
41
1
10
-1.4950399779393
20
-13.4151607370273
30
0
41
1
10
-1.4950399779393
20
-13.3770798968994
30
0
41
1
10
-1.4950399779393
20
-13.3374647662751
30
0
41
1
10
-1.4950399779393
20
-13.2963307178616
30
0
41
1
10
-1.4950399779393
20
-13.2536925499096
30
0
41
1
10
-1.4950399779393
20
-13.1948224098965
30
0
41
1
10
-1.4950399779393
20
-13.1331066142243
30
0
41
1
10
-1.4950399779393
20
-13.0683888145289
30
0
41
1
10
-1.4950399779393
20
-13.0184419638584
30
0
41
1
10
-1.4950399779393
20
-12.9670724273821
30
0
41
1
10
-1.4950399779393
20
-12.9142925944038
30
0
41
1
10
-1.4950399779393
20
-12.860113205584
30
0
41
1
10
-1.4950399779393
20
-12.8045464062654
30
0
41
1
10
-1.4950399779393
20
-12.74760324418
30
0
41
1
10
-1.4950399779393
20
-12.6698142834541
30
0
41
1
10
-1.4950399779393
20
-12.5894449005116
30
0
41
1
10
-1.4950399779393
20
-12.50627175547
30
0
41
1
10
-1.4950399779393
20
-12.4213295833849
30
0
41
1
10
-1.4950399779393
20
-12.3119621458456
30
0
41
1
10
-1.4950399779393
20
-12.1982668977617
30
0
41
1
10
-1.4950399779393
20
-12.1046570208051
30
0
41
1
10
-1.4950399779393
20
-12.0332119345842
30
0
41
1
10
-1.4950399779393
20
-11.9605000871413
30
0
41
1
10
-1.4950399779393
20
-11.8865286504803
30
0
41
1
10
-1.4950399779393
20
-11.8113057028001
30
0
41
1
10
-1.4950399779393
20
-11.7476093345099
30
0
41
1
10
-1.4950399779393
20
-11.6959849101866
30
0
41
1
10
-1.4950399779393
20
-11.643948764099
30
0
41
1
10
-1.4950399779393
20
-11.5781957241672
30
0
41
1
10
-1.4950399779393
20
-11.4980348993556
30
0
41
1
10
-1.4950399779393
20
-11.3894728900619
30
0
41
1
10
-1.4950399779393
20
-11.278660103453
30
0
41
1
10
-1.4950399779393
20
-11.1652732784127
30
0
41
1
10
-1.4950399779393
20
-11.0790834423827
30
0
41
1
10
-1.4950399779393
20
-10.9917054044732
30
0
41
1
10
-1.4950399779393
20
-10.9031442025602
30
0
41
1
10
-1.4950399779393
20
-10.8134057967923
30
0
41
1
10
-1.4950399779393
20
-10.7224950378189
30
0
41
1
10
-1.4950399779393
20
-10.6304166849825
30
0
41
1
10
-1.4950399779393
20
-10.5371758780398
30
0
41
1
10
-1.4950399779393
20
-10.4427777751693
30
0
41
1
10
-1.4950399779393
20
-10.3153089364435
30
0
41
1
10
-1.4950399779393
20
-10.1857467684219
30
0
41
1
10
-1.4950399779393
20
-10.0536983054632
30
0
41
1
10
-1.4950399779393
20
-9.97030026745779
30
0
41
1
10
-1.4950399779393
20
-9.90295235506755
30
0
41
1
10
-1.4950399779393
20
-9.83522786489038
30
0
41
1
10
-1.4950399779393
20
-9.71574944153573
30
0
41
1
10
-1.4950399779393
20
-9.57714511427093
30
0
41
1
10
-1.4950399779393
20
-9.43608246295526
30
0
41
1
10
-1.4950399779393
20
-9.29353602958125
30
0
41
1
10
-1.4950399779393
20
-9.11275363063515
30
0
41
1
10
-1.4950399779393
20
-8.92829537712967
30
0
41
1
10
-1.4950399779393
20
-8.77838738443313
30
0
41
1
10
-1.4950399779393
20
-8.62702158956
30
0
41
1
10
-1.4950399779393
20
-8.47372854841302
30
0
41
1
10
-1.4950399779393
20
-8.31800483202281
30
0
41
1
10
-1.4950399779393
20
-8.20019570647173
30
0
41
1
10
-1.4950399779393
20
-8.08130642958628
30
0
41
1
10
-1.4950399779393
20
-7.96134016006346
30
0
41
1
10
-1.4950399779393
20
-7.84029852533041
30
0
41
1
10
-1.4950399779393
20
-7.67738589461936
30
0
41
1
10
-1.4950399779393
20
-7.47128766686797
30
0
41
1
10
-1.4950399779393
20
-7.261636811758
30
0
41
1
10
-1.4950399779393
20
-7.09160986883526
30
0
41
1
10
-1.4950399779393
20
-6.96311018452545
30
0
41
1
10
-1.4950399779393
20
-6.83355373772449
30
0
41
1
10
-1.4950399779393
20
-6.6592985841524
30
0
41
1
10
-1.4950399779393
20
-6.43910149333703
30
0
41
1
10
-1.4950399779393
20
-6.17053536578155
30
0
41
1
10
-1.4950399779393
20
-5.89779783511918
30
0
41
1
10
-1.4950399779393
20
-5.66717892097088
30
0
41
1
10
-1.4950399779393
20
-5.48038541909952
30
0
41
1
10
-1.4950399779393
20
-5.33936157753735
30
0
41
1
10
-1.4950399779393
20
-5.19731095553271
30
0
41
1
10
-1.4950399779393
20
-5.05423706888553
30
0
41
1
10
-1.4950399779393
20
-4.91014315579861
30
0
41
1
10
-1.4950399779393
20
-4.7650332428635
30
0
41
1
10
-1.4950399779393
20
-4.61891156596767
30
0
41
1
10
-1.4950399779393
20
-4.47178260268984
30
0
41
1
10
-1.4950399779393
20
-4.32365113214263
30
0
41
1
10
-1.4950399779393
20
-4.17452288947305
30
0
41
1
10
-1.4950399779393
20
-4.02440432752809
30
0
41
1
10
-1.4950399779393
20
-3.87330192992579
30
0
41
1
10
-1.4950399779393
20
-3.7212231412766
30
0
41
1
10
-1.4950399779393
20
-3.56817690176541
30
0
41
1
10
-1.4950399779393
20
-3.41417271020586
30
0
41
1
10
-1.4950399779393
20
-3.25922165821993
30
0
41
1
10
-1.4950399779393
20
-3.1033357799555
30
0
41
1
10
-1.4950399779393
20
-2.94652918151195
30
0
41
1
10
-1.4950399779393
20
-2.78881794429316
30
0
41
1
10
-1.4950399779393
20
-2.67130381064959
30
0
41
1
10
-1.4950399779393
20
-2.60647323876154
30
0
41
1
10
-1.4950399779393
20
-2.59465115838313
30
0
0
SPLINE
5
BF
100
AcDbEntity
8
SK1
62
256
6
ByLayer
370
-1
48
1
60
0
100
AcDbSpline
70
4
71
3
72
287
73
283
40
0
40
0
40
0
40
0
40
0.0005770438586566
40
0.0040695090799228
40
0.0075619743011891
40
0.0110544395224553
40
0.0145469047437215
40
0.0180393699649877
40
0.021531835186254
40
0.0250243004075202
40
0.0285167656287864
40
0.0320092308500526
40
0.0389941612925851
40
0.0459790917351175
40
0.05296402217765
40
0.0564564873989163
40
0.0599489526201825
40
0.0634414178414487
40
0.0669338830627149
40
0.0739188135052474
40
0.0774112787265136
40
0.0809037439477798
40
0.084396209169046
40
0.0878886743903123
40
0.0913811396115785
40
0.0948736048328448
40
0.101858535275377
40
0.105351000496643
40
0.10884346571791
40
0.112335930939176
40
0.115828396160442
40
0.119320861381708
40
0.122813326602975
40
0.126305791824241
40
0.129798257045507
40
0.136783187488039
40
0.140275652709306
40
0.143768117930572
40
0.150753048373104
40
0.157737978815637
40
0.161230444036903
40
0.164722909258169
40
0.168215374479435
40
0.171707839700702
40
0.175200304921968
40
0.178692770143234
40
0.180439002753867
40
0.1821852353645
40
0.185677700585766
40
0.189170165807033
40
0.192662631028299
40
0.199647561470832
40
0.203140026692098
40
0.206632491913364
40
0.21012495713463
40
0.213617422355896
40
0.217109887577163
40
0.220602352798429
40
0.224094818019695
40
0.227587283240961
40
0.231079748462228
40
0.234572213683494
40
0.241557144126026
40
0.245049609347292
40
0.248542074568559
40
0.250288307179192
40
0.252034539789825
40
0.255527005011091
40
0.262511935453624
40
0.26600440067489
40
0.269496865896156
40
0.276481796338689
40
0.283466726781221
40
0.286959192002487
40
0.290451657223753
40
0.297436587666286
40
0.300929052887552
40
0.304421518108818
40
0.307913983330085
40
0.311406448551351
40
0.314898913772617
40
0.318391378993883
40
0.325376309436416
40
0.332361239878948
40
0.335853705100215
40
0.339346170321481
40
0.342838635542747
40
0.346331100764013
40
0.353316031206545
40
0.360300961649078
40
0.36728589209161
40
0.374270822534143
40
0.377763287755409
40
0.381255752976675
40
0.384748218197941
40
0.388240683419208
40
0.391733148640474
40
0.39522561386174
40
0.398718079083006
40
0.402210544304273
40
0.405703009525539
40
0.409195474746805
40
0.412687939968071
40
0.416180405189338
40
0.419672870410604
40
0.42316533563187
40
0.426657800853136
40
0.430150266074402
40
0.433642731295669
40
0.437135196516935
40
0.440627661738201
40
0.444120126959467
40
0.447612592180734
40
0.449358824791367
40
0.451105057402
40
0.454597522623266
40
0.456343755233899
40
0.458089987844532
40
0.459836220455165
40
0.461582453065798
40
0.463328685676432
40
0.465074918287065
40
0.466821150897698
40
0.468567383508331
40
0.472059848729597
40
0.47380608134023
40
0.475552313950863
40
0.477298546561497
40
0.47904477917213
40
0.480791011782763
40
0.482537244393396
40
0.484283477004029
40
0.486029709614662
40
0.487775942225295
40
0.489522174835928
40
0.491268407446561
40
0.493014640057195
40
0.494760872667828
40
0.496507105278461
40
0.498253337889094
40
0.499999570499727
40
0.50174580311036
40
0.503492035720993
40
0.505238268331626
40
0.50698450094226
40
0.508730733552893
40
0.510476966163526
40
0.512223198774159
40
0.513969431384792
40
0.515715663995425
40
0.517461896606058
40
0.519208129216691
40
0.520954361827324
40
0.522700594437957
40
0.524446827048591
40
0.526193059659224
40
0.527939292269857
40
0.531431757491123
40
0.533177990101756
40
0.534924222712389
40
0.536670455323022
40
0.538416687933655
40
0.540162920544289
40
0.541909153154922
40
0.543655385765555
40
0.545401618376188
40
0.548894083597454
40
0.550640316208087
40
0.55238654881872
40
0.555879014039987
40
0.559371479261253
40
0.562863944482519
40
0.566356409703785
40
0.569848874925051
40
0.573341340146318
40
0.576833805367584
40
0.58032627058885
40
0.583818735810116
40
0.587311201031383
40
0.590803666252649
40
0.594296131473915
40
0.597788596695181
40
0.601281061916448
40
0.604773527137714
40
0.60826599235898
40
0.611758457580246
40
0.615250922801513
40
0.618743388022779
40
0.622235853244045
40
0.625728318465311
40
0.632713248907844
40
0.639698179350376
40
0.646683109792908
40
0.653668040235441
40
0.657160505456707
40
0.660652970677973
40
0.664145435899239
40
0.667637901120506
40
0.674622831563038
40
0.681607762005571
40
0.685100227226837
40
0.688592692448103
40
0.69208515766937
40
0.695577622890636
40
0.699070088111902
40
0.702562553333168
40
0.709547483775701
40
0.713039948996967
40
0.716532414218233
40
0.723517344660765
40
0.730502275103298
40
0.733994740324564
40
0.737487205545831
40
0.744472135988363
40
0.747964601209629
40
0.749710833820262
40
0.751457066430895
40
0.754949531652162
40
0.758441996873428
40
0.76542692731596
40
0.768919392537226
40
0.772411857758493
40
0.775904322979759
40
0.779396788201025
40
0.782889253422291
40
0.786381718643557
40
0.789874183864824
40
0.79336664908609
40
0.796859114307356
40
0.800351579528622
40
0.807336509971155
40
0.810828975192421
40
0.814321440413687
40
0.817813905634954
40
0.819560138245587
40
0.82130637085622
40
0.824798836077486
40
0.828291301298752
40
0.831783766520019
40
0.835276231741285
40
0.838768696962551
40
0.842261162183817
40
0.84924609262635
40
0.856231023068882
40
0.859723488290148
40
0.863215953511415
40
0.870200883953947
40
0.873693349175213
40
0.877185814396479
40
0.880678279617746
40
0.884170744839012
40
0.887663210060278
40
0.891155675281544
40
0.894648140502811
40
0.898140605724077
40
0.905125536166609
40
0.908618001387876
40
0.912110466609142
40
0.915602931830408
40
0.919095397051674
40
0.92258786227294
40
0.926080327494207
40
0.933065257936739
40
0.936557723158005
40
0.940050188379272
40
0.943542653600538
40
0.947035118821804
40
0.954020049264336
40
0.957512514485603
40
0.961004979706869
40
0.964497444928135
40
0.967989910149401
40
0.971482375370668
40
0.974974840591934
40
0.9784673058132
40
0.981959771034466
40
0.985452236255733
40
0.988944701476999
40
0.992437166698265
40
0.995929631919531
40
0.999422097140797
40
1
40
1
40
1
40
1
41
1
10
-24
20
-12.6301466160404
30
0
41
1
10
-24
20
-12.6302729746382
30
0
41
1
10
-24
20
-12.6311019491701
30
0
41
1
10
-24
20
-12.6318299492432
30
0
41
1
10
-24
20
-12.6309352666138
30
0
41
1
10
-24
20
-12.6281658201647
30
0
41
1
10
-24
20
-12.623548726994
30
0
41
1
10
-24
20
-12.6171099043118
30
0
41
1
10
-24
20
-12.6088736083307
30
0
41
1
10
-24
20
-12.5988647342338
30
0
41
1
10
-24
20
-12.5871069661155
30
0
41
1
10
-24
20
-12.569020437469
30
0
41
1
10
-24
20
-12.5424060911485
30
0
41
1
10
-24
20
-12.5036823998811
30
0
41
1
10
-24
20
-12.466179119183
30
0
41
1
10
-24
20
-12.4326960489613
30
0
41
1
10
-24
20
-12.4061495447384
30
0
41
1
10
-24
20
-12.3780532328159
30
0
41
1
10
-24
20
-12.3383402816863
30
0
41
1
10
-24
20
-12.2962370819873
30
0
41
1
10
-24
20
-12.2505027270978
30
0
41
1
10
-24
20
-12.2149010201899
30
0
41
1
10
-24
20
-12.1778433481664
30
0
41
1
10
-24
20
-12.139344023803
30
0
41
1
10
-24
20
-12.0994154546281
30
0
41
1
10
-24
20
-12.0440223921018
30
0
41
1
10
-24
20
-11.9866456328948
30
0
41
1
10
-24
20
-11.9256779328098
30
0
41
1
10
-24
20
-11.8787993022056
30
0
41
1
10
-24
20
-11.8305656793587
30
0
41
1
10
-24
20
-11.78099039585
30
0
41
1
10
-24
20
-11.7300825884547
30
0
41
1
10
-24
20
-11.6778529900837
30
0
41
1
10
-24
20
-11.6243139686469
30
0
41
1
10
-24
20
-11.5508590476175
30
0
41
1
10
-24
20
-11.4758394707542
30
0
41
1
10
-24
20
-11.3972466128896
30
0
41
1
10
-24
20
-11.3169609533628
30
0
41
1
10
-24
20
-11.2142799019792
30
0
41
1
10
-24
20
-11.1074990885262
30
0
41
1
10
-24
20
-11.0189464603389
30
0
41
1
10
-24
20
-10.9516093773873
30
0
41
1
10
-24
20
-10.8830697782116
30
0
41
1
10
-24
20
-10.8133337656712
30
0
41
1
10
-24
20
-10.7424101789121
30
0
41
1
10
-24
20
-10.6825334430363
30
0
41
1
10
-24
20
-10.6336671760819
30
0
41
1
10
-24
20
-10.5844084477176
30
0
41
1
10
-24
20
-10.5225869468266
30
0
41
1
10
-24
20
-10.4469857296791
30
0
41
1
10
-24
20
-10.3442039867663
30
0
41
1
10
-24
20
-10.2404782892815
30
0
41
1
10
-24
20
-10.133123847137
30
0
41
1
10
-24
20
-10.0518274139735
30
0
41
1
10
-24
20
-9.96941226524035
30
0
41
1
10
-24
20
-9.8858827890852
30
0
41
1
10
-24
20
-9.80124634105394
30
0
41
1
10
-24
20
-9.71550990056983
30
0
41
1
10
-24
20
-9.62867742465991
30
0
41
1
10
-24
20
-9.54075474090101
30
0
41
1
10
-24
20
-9.45175012870757
30
0
41
1
10
-24
20
-9.33111730296773
30
0
41
1
10
-24
20
-9.20992961158598
30
0
41
1
10
-24
20
-9.08500600225796
30
0
41
1
10
-24
20
-9.00666454438806
30
0
41
1
10
-24
20
-8.94296708063843
30
0
41
1
10
-24
20
-8.87892107357061
30
0
41
1
10
-24
20
-8.76613371827506
30
0
41
1
10
-24
20
-8.63663898523424
30
0
41
1
10
-24
20
-8.50332881313912
30
0
41
1
10
-24
20
-8.36865251940401
30
0
41
1
10
-24
20
-8.19913342470036
30
0
41
1
10
-24
20
-8.02625870426021
30
0
41
1
10
-24
20
-7.88481232676438
30
0
41
1
10
-24
20
-7.74204568631339
30
0
41
1
10
-24
20
-7.59930458489882
30
0
41
1
10
-24
20
-7.45257386795717
30
0
41
1
10
-24
20
-7.34207855908448
30
0
41
1
10
-24
20
-7.23061782890775
30
0
41
1
10
-24
20
-7.11820191301106
30
0
41
1
10
-24
20
-7.00483374343872
30
0
41
1
10
-24
20
-6.8516785758469
30
0
41
1
10
-24
20
-6.65959441745028
30
0
41
1
10
-24
20
-6.46441027855923
30
0
41
1
10
-24
20
-6.30499529459033
30
0
41
1
10
-24
20
-6.18514753468796
30
0
41
1
10
-24
20
-6.06440158167572
30
0
41
1
10
-24
20
-5.90137597131746
30
0
41
1
10
-24
20
-5.69736367955667
30
0
41
1
10
-24
20
-5.44799894794272
30
0
41
1
10
-24
20
-5.19525670130326
30
0
41
1
10
-24
20
-4.98285125019774
30
0
41
1
10
-24
20
-4.80950544532163
30
0
41
1
10
-24
20
-4.67950096380329
30
0
41
1
10
-24
20
-4.54872537799758
30
0
41
1
10
-24
20
-4.41719445888799
30
0
41
1
10
-24
20
-4.28492388892991
30
0
41
1
10
-24
20
-4.15193103870837
30
0
41
1
10
-24
20
-4.01823650200188
30
0
41
1
10
-24
20
-3.88386015063671
30
0
41
1
10
-24
20
-3.74882265025218
30
0
41
1
10
-24
20
-3.61314816606938
30
0
41
1
10
-24
20
-3.47686551917991
30
0
41
1
10
-24
20
-3.34000139230267
30
0
41
1
10
-24
20
-3.20258393847712
30
0
41
1
10
-24
20
-3.06464837689458
30
0
41
1
10
-24
20
-2.9262304523017
30
0
41
1
10
-24
20
-2.78737006373561
30
0
41
1
10
-24
20
-2.64810891556724
30
0
41
1
10
-24
20
-2.50849315364215
30
0
41
1
10
-24
20
-2.36857603859875
30
0
41
1
10
-24
20
-2.22840727338092
30
0
41
1
10
-24
20
-2.11231267734073
30
0
41
1
10
-24
20
-2.01771125590744
30
0
41
1
10
-24
20
-1.92310511773127
30
0
41
1
10
-24
20
-1.8313714962141
30
0
41
1
10
-24
20
-1.73663368976398
30
0
41
1
10
-24
20
-1.66636839269287
30
0
41
1
10
-24
20
-1.59612143913762
30
0
41
1
10
-24
20
-1.52590617425699
30
0
41
1
10
-24
20
-1.45572440081648
30
0
41
1
10
-24
20
-1.38559146347788
30
0
41
1
10
-24
20
-1.31551245865842
30
0
41
1
10
-24
20
-1.22103102890804
30
0
41
1
10
-24
20
-1.13019491172781
30
0
41
1
10
-24
20
-1.03590357373665
30
0
41
1
10
-24
20
-0.966211278320685
30
0
41
1
10
-24
20
-0.896616942008535
30
0
41
1
10
-24
20
-0.827119549474418
30
0
41
1
10
-24
20
-0.757724503129253
30
0
41
1
10
-24
20
-0.688430802184314
30
0
41
1
10
-24
20
-0.619238394305086
30
0
41
1
10
-24
20
-0.550143822342449
30
0
41
1
10
-24
20
-0.481142957404018
30
0
41
1
10
-24
20
-0.412229055265982
30
0
41
1
10
-24
20
-0.343394373554958
30
0
41
1
10
-24
20
-0.274627961865065
30
0
41
1
10
-24
20
-0.205919183520024
30
0
41
1
10
-24
20
-0.137254128872428
30
0
41
1
10
-24
20
-0.068619580615092
30
0
41
1
10
-24
20
-1.20069785E-08
30
0
41
1
10
-24
20
0.0686195837654395
30
0
41
1
10
-24
20
0.1372541822264
30
0
41
1
10
-24
20
0.205919229600312
30
0
41
1
10
-24
20
0.274627932715674
30
0
41
1
10
-24
20
0.343394334295567
30
0
41
1
10
-24
20
0.412229116407673
30
0
41
1
10
-24
20
0.48114304712405
30
0
41
1
10
-24
20
0.55014378989776
30
0
41
1
10
-24
20
0.619238310392802
30
0
41
1
10
-24
20
0.688430856535206
30
0
41
1
10
-24
20
0.757724640342815
30
0
41
1
10
-24
20
0.827119544713668
30
0
41
1
10
-24
20
0.896616816711344
30
0
41
1
10
-24
20
0.966211277672699
30
0
41
1
10
-24
20
1.03590373801057
30
0
41
1
10
-24
20
1.13019491751669
30
0
41
1
10
-24
20
1.22103090337816
30
0
41
1
10
-24
20
1.31551253110209
30
0
41
1
10
-24
20
1.38559165365194
30
0
41
1
10
-24
20
1.45572444737027
30
0
41
1
10
-24
20
1.52590604398472
30
0
41
1
10
-24
20
1.59612132289769
30
0
41
1
10
-24
20
1.66636846888792
30
0
41
1
10
-24
20
1.73663389391052
30
0
41
1
10
-24
20
1.83137150908334
30
0
41
1
10
-24
20
1.923104963833
30
0
41
1
10
-24
20
2.01771124909399
30
0
41
1
10
-24
20
2.11231287096447
30
0
41
1
10
-24
20
2.22840729138045
30
0
41
1
10
-24
20
2.36857592379664
30
0
41
1
10
-24
20
2.50849329023109
30
0
41
1
10
-24
20
2.64810899336408
30
0
41
1
10
-24
20
2.7873694745272
30
0
41
1
10
-24
20
2.92622914514115
30
0
41
1
10
-24
20
3.06464867495961
30
0
41
1
10
-24
20
3.20258694679339
30
0
41
1
10
-24
20
3.34000339886188
30
0
41
1
10
-24
20
3.47686412773234
30
0
41
1
10
-24
20
3.61314539193521
30
0
41
1
10
-24
20
3.74882070125759
30
0
41
1
10
-24
20
3.88386081960974
30
0
41
1
10
-24
20
4.01823910176785
30
0
41
1
10
-24
20
4.15193237523465
30
0
41
1
10
-24
20
4.28492323331267
30
0
41
1
10
-24
20
4.41719365917407
30
0
41
1
10
-24
20
4.54872525063163
30
0
41
1
10
-24
20
4.67950102029136
30
0
41
1
10
-24
20
4.8095053694127
30
0
41
1
10
-24
20
4.98285124277228
30
0
41
1
10
-24
20
5.19525677656026
30
0
41
1
10
-24
20
5.44799891971269
30
0
41
1
10
-24
20
5.69736372546626
30
0
41
1
10
-24
20
5.90137602298265
30
0
41
1
10
-24
20
6.0644015068855
30
0
41
1
10
-24
20
6.1851475156806
30
0
41
1
10
-24
20
6.30499537148731
30
0
41
1
10
-24
20
6.46441033734266
30
0
41
1
10
-24
20
6.65959438580623
30
0
41
1
10
-24
20
6.85167858307042
30
0
41
1
10
-24
20
7.00483382763792
30
0
41
1
10
-24
20
7.11820195418233
30
0
41
1
10
-24
20
7.2306178054078
30
0
41
1
10
-24
20
7.34207852113332
30
0
41
1
10
-24
20
7.45257387547733
30
0
41
1
10
-24
20
7.59930464836137
30
0
41
1
10
-24
20
7.74204572237986
30
0
41
1
10
-24
20
7.88481230085068
30
0
41
1
10
-24
20
8.02625870014725
30
0
41
1
10
-24
20
8.19913346952643
30
0
41
1
10
-24
20
8.36865254580422
30
0
41
1
10
-24
20
8.50332879773273
30
0
41
1
10
-24
20
8.63663898786112
30
0
41
1
10
-24
20
8.76613375581505
30
0
41
1
10
-24
20
8.87892111197036
30
0
41
1
10
-24
20
8.94296710462893
30
0
41
1
10
-24
20
9.00666455327519
30
0
41
1
10
-24
20
9.08500599911847
30
0
41
1
10
-24
20
9.20992961783276
30
0
41
1
10
-24
20
9.33111733072479
30
0
41
1
10
-24
20
9.45175015939358
30
0
41
1
10
-24
20
9.54075475929304
30
0
41
1
10
-24
20
9.62867743247332
30
0
41
1
10
-24
20
9.71550990736878
30
0
41
1
10
-24
20
9.80124635456619
30
0
41
1
10
-24
20
9.88588281033205
30
0
41
1
10
-24
20
9.9694122909747
30
0
41
1
10
-24
20
10.0518274374696
30
0
41
1
10
-24
20
10.1331238647016
30
0
41
1
10
-24
20
10.240478300249
30
0
41
1
10
-24
20
10.3442039980406
30
0
41
1
10
-24
20
10.4469857502475
30
0
41
1
10
-24
20
10.5225869730086
30
0
41
1
10
-24
20
10.5844084741421
30
0
41
1
10
-24
20
10.6336671988976
30
0
41
1
10
-24
20
10.6825334589273
30
0
41
1
10
-24
20
10.7424101865055
30
0
41
1
10
-24
20
10.8133337727233
30
0
41
1
10
-24
20
10.8830697936353
30
0
41
1
10
-24
20
10.951609404873
30
0
41
1
10
-24
20
11.0189464931514
30
0
41
1
10
-24
20
11.1074991058536
30
0
41
1
10
-24
20
11.2142799044294
30
0
41
1
10
-24
20
11.3169609751522
30
0
41
1
10
-24
20
11.3972466509688
30
0
41
1
10
-24
20
11.4758394909226
30
0
41
1
10
-24
20
11.5508590446085
30
0
41
1
10
-24
20
11.6243139791192
30
0
41
1
10
-24
20
11.6778530233414
30
0
41
1
10
-24
20
11.7300826287653
30
0
41
1
10
-24
20
11.7809904199399
30
0
41
1
10
-24
20
11.8305656793297
30
0
41
1
10
-24
20
11.8787992978642
30
0
41
1
10
-24
20
11.9256779481161
30
0
41
1
10
-24
20
11.9866456736684
30
0
41
1
10
-24
20
12.0440224201629
30
0
41
1
10
-24
20
12.099415447517
30
0
41
1
10
-24
20
12.1393440246738
30
0
41
1
10
-24
20
12.1778433772408
30
0
41
1
10
-24
20
12.2149010599454
30
0
41
1
10
-24
20
12.250502752964
30
0
41
1
10
-24
20
12.2962370828382
30
0
41
1
10
-24
20
12.3383402824608
30
0
41
1
10
-24
20
12.3780532736994
30
0
41
1
10
-24
20
12.4061495785297
30
0
41
1
10
-24
20
12.4326960530149
30
0
41
1
10
-24
20
12.4661791203578
30
0
41
1
10
-24
20
12.4959885477691
30
0
41
1
10
-24
20
12.523037071398
30
0
41
1
10
-24
20
12.5415673540695
30
0
41
1
10
-24
20
12.55843663992
30
0
41
1
10
-24
20
12.5736235086905
30
0
41
1
10
-24
20
12.5871069547276
30
0
41
1
10
-24
20
12.5988645879939
30
0
41
1
10
-24
20
12.6088733436887
30
0
41
1
10
-24
20
12.617109869821
30
0
41
1
10
-24
20
12.6235493215145
30
0
41
1
10
-24
20
12.6281667848456
30
0
41
1
10
-24
20
12.630935840933
30
0
41
1
10
-24
20
12.6318298800803
30
0
41
1
10
-24
20
12.6311015691054
30
0
41
1
10
-24
20
12.6302722712676
30
0
41
1
10
-24
20
12.6301456915712
30
0
0
SPLINE
5
C0
100
AcDbEntity
8
1
62
256
6
ByLayer
370
-1
48
1
60
0
100
AcDbSpline
70
4
71
3
72
8
73
4
40
0
40
0
40
0
40
0
40
1
40
1
40
1
40
1
41
1
10
45.0007561899772
20
-22.9611180230543
30
0
41
1
10
44.9878232681312
20
-22.9687144038933
30
0
41
1
10
44.9748078161133
20
-22.9751263398593
30
0
41
1
10
44.9617484555408
20
-22.9805348222094
30
0
0
SPLINE
5
C1
100
AcDbEntity
8
1
62
256
6
ByLayer
370
-1
48
1
60
0
100
AcDbSpline
70
4
71
3
72
16
73
12
40
0
40
0
40
0
40
0
40
0.418046526482173
40
0.418046526482173
40
0.619795331632971
40
0.619795331632971
40
0.788831489102747
40
0.788831489102747
40
0.906604502049001
40
0.906604502049001
40
1
40
1
40
1
40
1
41
1
10
47.0382515444592
20
-23.0194651777906
30
0
41
1
10
47.0775233405533
20
-23.0032009193034
30
0
41
1
10
47.1164930210792
20
-22.9772629341097
30
0
41
1
10
47.1656574360908
20
-22.9185904561888
30
0
41
1
10
47.180519548505
20
-22.8958604270917
30
0
41
1
10
47.202298757268
20
-22.8467582148823
30
0
41
1
10
47.2102857531743
20
-22.8210555334217
30
0
41
1
10
47.2171940877721
20
-22.77288208979
30
0
41
1
10
47.2181228785845
20
-22.7513255937307
30
0
41
1
10
47.2151040206839
20
-22.7119260672503
30
0
41
1
10
47.2120724300816
20
-22.6938867600727
30
0
41
1
10
47.2074072828613
20
-22.6764761936218
30
0
0
SPLINE
5
C2
100
AcDbEntity
8
1
62
256
6
ByLayer
370
-1
48
1
60
0
100
AcDbSpline
70
4
71
3
72
8
73
4
40
0
40
0
40
0
40
0
40
1
40
1
40
1
40
1
41
1
10
46.0194651777906
20
-24.0382515444593
30
0
41
1
10
46.0248736601407
20
-24.0251921838866
30
0
41
1
10
46.0312855961067
20
-24.0121767318688
30
0
41
1
10
46.0388819769457
20
-23.9992438100228
30
0
0
SPLINE
5
C3
100
AcDbEntity
8
1
62
256
6
ByLayer
370
-1
48
1
60
0
100
AcDbSpline
70
4
71
3
72
16
73
12
40
0
40
0
40
0
40
0
40
0.418075446933737
40
0.418075446933737
40
0.619816003669607
40
0.619816003669607
40
0.788845215600298
40
0.788845215600298
40
0.906615968007947
40
0.906615968007947
40
1
40
1
40
1
40
1
41
1
10
46.8894196241248
20
-22.4640168893145
30
0
41
1
10
46.931565033219
20
-22.4584658694357
30
0
41
1
10
46.978286412925
20
-22.4614447152631
30
0
41
1
10
47.0502030406336
20
-22.4876784076633
30
0
41
1
10
47.0744380672695
20
-22.499932709718
30
0
41
1
10
47.1178485418125
20
-22.5315674919144
30
0
41
1
10
47.1376158134686
20
-22.5498332948577
30
0
41
1
10
47.1676838165374
20
-22.5880985303896
30
0
41
1
10
47.1792658879632
20
-22.6063027290504
30
0
41
1
10
47.1963494740577
20
-22.641931474998
30
0
41
1
10
47.2027426977863
20
-22.6590677251257
30
0
41
1
10
47.2074072828613
20
-22.6764761936218
30
0
0
SPLINE
5
C4
100
AcDbEntity
8
1
62
256
6
ByLayer
370
-1
48
1
60
0
100
AcDbSpline
70
4
71
3
72
8
73
4
40
0
40
0
40
0
40
0
40
1
40
1
40
1
40
1
41
1
10
46.465949125227
20
-23.8848115125269
30
0
41
1
10
46.4789942449334
20
-23.8922135609713
30
0
41
1
10
46.4910548703764
20
-23.9002793050774
30
0
41
1
10
46.5022684337738
20
-23.9088848019154
30
0
0
SPLINE
5
C5
100
AcDbEntity
8
1
62
256
6
ByLayer
370
-1
48
1
60
0
100
AcDbSpline
70
4
71
3
72
8
73
4
40
0
40
0
40
0
40
0
40
1
40
1
40
1
40
1
41
1
10
46.9088848019154
20
-23.5022684337738
30
0
41
1
10
46.9002793050774
20
-23.4910548703764
30
0
41
1
10
46.8922135609713
20
-23.4789942449334
30
0
41
1
10
46.8848115125269
20
-23.465949125227
30
0
0
SPLINE
5
C6
100
AcDbEntity
8
1
62
256
6
ByLayer
370
-1
48
1
60
0
100
AcDbSpline
70
4
71
3
72
8
73
4
40
0
40
0
40
0
40
0
40
1
40
1
40
1
40
1
41
1
10
45.9611180230543
20
-22.0007561899772
30
0
41
1
10
45.9687144038932
20
-21.9878232681311
30
0
41
1
10
45.9751263398593
20
-21.9748078161133
30
0
41
1
10
45.9805348222094
20
-21.9617484555407
30
0
0
SPLINE
5
C7
100
AcDbEntity
8
1
62
256
6
ByLayer
370
-1
48
1
60
0
100
AcDbSpline
70
4
71
3
72
8
73
4
40
0
40
0
40
0
40
0
40
1
40
1
40
1
40
1
41
1
10
46.5359831106855
20
-22.1105803758752
30
0
41
1
10
46.5341373135103
20
-22.1245943550633
30
0
41
1
10
46.5331824869354
20
-22.1390720351355
30
0
41
1
10
46.5332946847957
20
-22.1540704644188
30
0
0
SPLINE
5
C8
100
AcDbEntity
8
1
62
256
6
ByLayer
370
-1
48
1
60
0
100
AcDbSpline
70
4
71
3
72
16
73
12
40
0
40
0
40
0
40
0
40
0.417201362882377
40
0.417201362882377
40
0.619006372424541
40
0.619006372424541
40
0.788090355899017
40
0.788090355899017
40
0.905842791388497
40
0.905842791388497
40
1
40
1
40
1
40
1
41
1
10
45.9805348222094
20
-21.9617484555407
30
0
41
1
10
45.9967756233936
20
-21.9225332996202
30
0
41
1
10
46.022662175052
20
-21.883622119544
30
0
41
1
10
46.0812326840621
20
-21.8344653913462
30
0
41
1
10
46.1039622645605
20
-21.8195799704285
30
0
41
1
10
46.1530738722032
20
-21.7977583935682
30
0
41
1
10
46.1787848348663
20
-21.7897517832046
30
0
41
1
10
46.2269745008404
20
-21.7828163106893
30
0
41
1
10
46.2485343785136
20
-21.7818766065004
30
0
41
1
10
46.2879826856509
20
-21.7848809039573
30
0
41
1
10
46.306069389807
20
-21.7879158203141
30
0
41
1
10
46.3235238063781
20
-21.7925927171387
30
0
0
SPLINE
5
C9
100
AcDbEntity
8
1
62
256
6
ByLayer
370
-1
48
1
60
0
100
AcDbSpline
70
4
71
3
72
18
73
14
40
0
40
0
40
0
40
0
40
0.20888648323963
40
0.20888648323963
40
0.421198226784317
40
0.421198226784317
40
0.600960032344653
40
0.600960032344653
40
0.761871479604318
40
0.761871479604318
40
0.937780558809789
40
0.937780558809789
40
1
40
1
40
1
40
1
41
1
10
46.8848115125269
20
-23.465949125227
30
0
41
1
10
46.8691304332082
20
-23.4383133216551
30
0
41
1
10
46.8571149733088
20
-23.4072098757417
30
0
41
1
10
46.8434207787497
20
-23.340983410557
30
0
41
1
10
46.841805356915
20
-23.3046443316768
30
0
41
1
10
46.8505001274313
20
-23.2389776384179
30
0
41
1
10
46.8591995787852
20
-23.2085276013145
30
0
41
1
10
46.8829192001357
20
-23.155991388222
30
0
41
1
10
46.8974281503152
20
-23.1327062514126
30
0
41
1
10
46.9319931559957
20
-23.0900025560961
30
0
41
1
10
46.9528088771268
20
-23.0706079422544
30
0
41
1
10
46.9828698520697
20
-23.0490074895354
30
0
41
1
10
46.9909789638667
20
-23.0437364808021
30
0
41
1
10
46.9992438100227
20
-23.0388819769457
30
0
0
SPLINE
5
CA
100
AcDbEntity
8
1
62
256
6
ByLayer
370
-1
48
1
60
0
100
AcDbSpline
70
4
71
3
72
18
73
14
40
0
40
0
40
0
40
0
40
0.025076910175056
40
0.025076910175056
40
0.128624737623516
40
0.128624737623516
40
0.261847935796701
40
0.261847935796701
40
0.456578419523351
40
0.456578419523351
40
0.778076657921679
40
0.778076657921679
40
1
40
1
40
1
40
1
41
1
10
46.8838834764832
20
-23.8838834764832
30
0
41
1
10
46.8873204493136
20
-23.8804465036527
30
0
41
1
10
46.8906737397585
20
-23.8769199024007
30
0
41
1
10
46.9072714001966
20
-23.8585640159739
30
0
41
1
10
46.9190586282475
20
-23.8423591375474
30
0
41
1
10
46.9409843220464
20
-23.8051566488586
30
0
41
1
10
46.9501100224833
20
-23.7835478457694
30
0
41
1
10
46.9654696331864
20
-23.7328620458505
30
0
41
1
10
46.9689374516764
20
-23.7039269556548
30
0
41
1
10
46.9686257890372
20
-23.6341017894453
30
0
41
1
10
46.958989873264
20
-23.5959266338296
30
0
41
1
10
46.9349682598453
20
-23.5406168640986
30
0
41
1
10
46.9227296554449
20
-23.5203092448626
30
0
41
1
10
46.9088848019154
20
-23.5022684337738
30
0
0
SPLINE
5
CB
100
AcDbEntity
8
SK1
62
256
6
ByLayer
370
-1
48
1
60
0
100
AcDbSpline
70
4
71
3
72
24
73
20
40
0
40
0
40
0
40
0
40
0.408002420194574
40
0.408002420194574
40
0.586477084363329
40
0.586477084363329
40
0.763728221544513
40
0.763728221544513
40
0.83464833042642
40
0.83464833042642
40
0.871680147904128
40
0.871680147904128
40
0.909315863704638
40
0.909315863704638
40
0.941446160303592
40
0.941446160303592
40
0.988233002766673
40
0.988233002766673
40
1
40
1
40
1
40
1
41
1
10
-1.30710678118655
20
-3.62781725664615
30
0
41
1
10
-1.25754709276271
20
-3.87919081380429
30
0
41
1
10
-1.1977179392694
20
-4.12580048883993
30
0
41
1
10
-1.07980138365164
20
-4.46640123366592
30
0
41
1
10
-1.03947389583291
20
-4.56855181342542
30
0
41
1
10
-0.943165684412477
20
-4.76452984977917
30
0
41
1
10
-0.887972849225292
20
-4.86076144162979
30
0
41
1
10
-0.781589632759719
20
-4.97623115222154
30
0
41
1
10
-0.746942513659562
20
-5.00751721259149
30
0
41
1
10
-0.685298347589722
20
-5.04425501792002
30
0
41
1
10
-0.662073057062727
20
-5.05499571071985
30
0
41
1
10
-0.612858105189787
20
-5.06918922724967
30
0
41
1
10
-0.586087478285805
20
-5.07253385323432
30
0
41
1
10
-0.537899014579082
20
-5.06994558199364
30
0
41
1
10
-0.515734678473706
20
-5.06532466911642
30
0
41
1
10
-0.465255653618996
20
-5.04798484569733
30
0
41
1
10
-0.437776087568892
20
-5.03248974169182
30
0
41
1
10
-0.406986543980821
20
-5.01034621255963
30
0
41
1
10
-0.400907252385935
20
-5.00570060770795
30
0
41
1
10
-0.394976888875291
20
-5.00092441402839
30
0
0
SPLINE
5
CC
100
AcDbEntity
8
1
62
256
6
ByLayer
370
-1
48
1
60
0
100
AcDbSpline
70
4
71
3
72
16
73
12
40
0
40
0
40
0
40
0
40
0.121507324260823
40
0.121507324260823
40
0.241946643683962
40
0.241946643683962
40
0.425791670243958
40
0.425791670243958
40
0.72538746392138
40
0.72538746392138
40
1
40
1
40
1
40
1
41
1
10
45.6764761936219
20
-24.2074072828613
30
0
41
1
10
45.6989603777523
20
-24.2134319018416
30
0
41
1
10
45.7225549945907
20
-24.2166898235112
30
0
41
1
10
45.7668531306864
20
-24.2177269048227
30
0
41
1
10
45.7882228384545
20
-24.2156462814266
30
0
41
1
10
45.8374331268421
20
-24.205922742137
30
0
41
1
10
45.8637962913103
20
-24.1958989197033
30
0
41
1
10
45.9232097345616
20
-24.1646762882478
30
0
41
1
10
45.951646641333
20
-24.1399240387188
30
0
41
1
10
45.9937255637368
20
-24.089851728772
30
0
41
1
10
46.0087092208935
20
-24.0642229557223
30
0
41
1
10
46.0194651777906
20
-24.0382515444593
30
0
0
SPLINE
5
CD
100
AcDbEntity
8
1
62
256
6
ByLayer
370
-1
48
1
60
0
100
AcDbSpline
70
4
71
3
72
16
73
12
40
0
40
0
40
0
40
0
40
0.418075446933746
40
0.418075446933746
40
0.619816003669627
40
0.619816003669627
40
0.788845215600334
40
0.788845215600334
40
0.906615968007972
40
0.906615968007972
40
1
40
1
40
1
40
1
41
1
10
45.4640168893145
20
-23.8894196241249
30
0
41
1
10
45.4584658694358
20
-23.931565033219
30
0
41
1
10
45.4614447152631
20
-23.9782864129251
30
0
41
1
10
45.4876784076633
20
-24.0502030406337
30
0
41
1
10
45.499932709718
20
-24.0744380672695
30
0
41
1
10
45.5315674919144
20
-24.1178485418126
30
0
41
1
10
45.5498332948577
20
-24.1376158134686
30
0
41
1
10
45.5880985303896
20
-24.1676838165375
30
0
41
1
10
45.6063027290504
20
-24.1792658879633
30
0
41
1
10
45.6419314749981
20
-24.1963494740578
30
0
41
1
10
45.6590677251257
20
-24.2027426977863
30
0
41
1
10
45.6764761936219
20
-24.2074072828614
30
0
0
SPLINE
5
CE
100
AcDbEntity
8
1
62
256
6
ByLayer
370
-1
48
1
60
0
100
AcDbSpline
70
4
71
3
72
16
73
12
40
0
40
0
40
0
40
0
40
0.121350081786275
40
0.121350081786275
40
0.241763696829081
40
0.241763696829081
40
0.425508922315873
40
0.425508922315873
40
0.724907099405374
40
0.724907099405374
40
1
40
1
40
1
40
1
41
1
10
45.1161165235168
20
-22.1161165235168
30
0
41
1
10
45.099678143893
20
-22.1325549031406
30
0
41
1
10
45.0850757482411
20
-22.1513318719236
30
0
41
1
10
45.0620318444086
20
-22.1891456018013
30
0
41
1
10
45.0531431163995
20
-22.2086889201966
30
0
41
1
10
45.0369476522203
20
-22.2561519275048
30
0
41
1
10
45.0324378559016
20
-22.2839845465531
30
0
41
1
10
45.0297443654017
20
-22.3510233052805
30
0
41
1
10
45.0369404321619
20
-22.3880152139951
30
0
41
1
10
45.0592465448507
20
-22.4495506708028
30
0
41
1
10
45.0739716232862
20
-22.4753922909376
30
0
41
1
10
45.0911151980846
20
-22.4977315662262
30
0
0
SPLINE
5
CF
100
AcDbEntity
8
1
62
256
6
ByLayer
370
-1
48
1
60
0
100
AcDbSpline
70
4
71
3
72
8
73
4
40
0
40
0
40
0
40
0
40
1
40
1
40
1
40
1
41
1
10
46.8459295355812
20
-22.4667053152043
30
0
41
1
10
46.8609279648645
20
-22.4668175130646
30
0
41
1
10
46.8754056449367
20
-22.4658626864897
30
0
41
1
10
46.8894196241248
20
-22.4640168893145
30
0
0
SPLINE
5
D0
100
AcDbEntity
8
1
62
256
6
ByLayer
370
-1
48
1
60
0
100
AcDbSpline
70
4
71
3
72
8
73
4
40
0
40
0
40
0
40
0
40
1
40
1
40
1
40
1
41
1
10
46.9992438100227
20
-23.0388819769457
30
0
41
1
10
47.0121767318688
20
-23.0312855961067
30
0
41
1
10
47.0251921838866
20
-23.0248736601407
30
0
41
1
10
47.0382515444592
20
-23.0194651777906
30
0
0
SPLINE
5
D1
100
AcDbEntity
8
1
62
256
6
ByLayer
370
-1
48
1
60
0
100
AcDbSpline
70
4
71
3
72
18
73
14
40
0
40
0
40
0
40
0
40
0.0249114799478522
40
0.0249114799478522
40
0.128474521404094
40
0.128474521404094
40
0.2616454226389
40
0.2616454226389
40
0.456262139315816
40
0.456262139315816
40
0.777536934736941
40
0.777536934736941
40
1
40
1
40
1
40
1
41
1
10
44.7925927171387
20
-23.3235238063782
30
0
41
1
10
44.7938424858694
20
-23.3281880067791
30
0
41
1
10
44.7952101432721
20
-23.3328248873809
30
0
41
1
10
44.8027915232867
20
-23.3563523374997
30
0
41
1
10
44.810927917762
20
-23.3746697280088
30
0
41
1
10
44.8321716233828
20
-23.4122634424737
30
0
41
1
10
44.8463132883617
20
-23.4309713766025
30
0
41
1
10
44.8825042304229
20
-23.4696164234889
30
0
41
1
10
44.90581367301
20
-23.4870908117169
30
0
41
1
10
44.9664002492508
20
-23.5217467341865
30
0
41
1
10
45.0042565181797
20
-23.5325055707024
30
0
41
1
10
45.0642128149136
20
-23.5394001202285
30
0
41
1
10
45.0879795381167
20
-23.5389598927923
30
0
41
1
10
45.1105803758751
20
-23.5359831106855
30
0
0
SPLINE
5
D2
100
AcDbEntity
8
1
62
256
6
ByLayer
370
-1
48
1
60
0
100
AcDbSpline
70
4
71
3
72
18
73
14
40
0
40
0
40
0
40
0
40
0.208886483239648
40
0.208886483239648
40
0.421198226784317
40
0.421198226784317
40
0.600960032344635
40
0.600960032344635
40
0.761871479604288
40
0.761871479604288
40
0.93778055880973
40
0.93778055880973
40
1
40
1
40
1
40
1
41
1
10
45.1540704644188
20
-23.5332946847957
30
0
41
1
10
45.1858443120254
20
-23.5335323735329
30
0
41
1
10
45.2187884162814
20
-23.5386784029786
30
0
41
1
10
45.2829893148137
20
-23.5599321151984
30
0
41
1
10
45.3152675911914
20
-23.5767026582918
30
0
41
1
10
45.367789230478
20
-23.6170658970685
30
0
41
1
10
45.3898100104787
20
-23.6398248614916
30
0
41
1
10
45.4234478949602
20
-23.6866347626955
30
0
41
1
10
45.4363589398781
20
-23.7108424505379
30
0
41
1
10
45.4560589220174
20
-23.7621284711974
30
0
41
1
10
45.4624472897353
20
-23.7898527214159
30
0
41
1
10
45.4661233430518
20
-23.8266865157386
30
0
41
1
10
45.4666336146199
20
-23.8363447169235
30
0
41
1
10
45.4667053152043
20
-23.8459295355812
30
0
0
SPLINE
5
D3
100
AcDbEntity
8
1
62
256
6
ByLayer
370
-1
48
1
60
0
100
AcDbSpline
70
4
71
3
72
8
73
4
40
0
40
0
40
0
40
0
40
1
40
1
40
1
40
1
41
1
10
45.1105803758752
20
-23.5359831106855
30
0
41
1
10
45.1245943550633
20
-23.5341373135103
30
0
41
1
10
45.1390720351355
20
-23.5331824869354
30
0
41
1
10
45.1540704644188
20
-23.5332946847957
30
0
0
SPLINE
5
D4
100
AcDbEntity
8
1
62
256
6
ByLayer
370
-1
48
1
60
0
100
AcDbSpline
70
4
71
3
72
18
73
14
40
0
40
0
40
0
40
0
40
0.208886483235012
40
0.208886483235012
40
0.421198226781058
40
0.421198226781058
40
0.600960032342096
40
0.600960032342096
40
0.761871479601735
40
0.761871479601735
40
0.937780558806785
40
0.937780558806785
40
1
40
1
40
1
40
1
41
1
10
46.0388819769457
20
-23.9992438100227
30
0
41
1
10
46.0549747452332
20
-23.9718456951887
30
0
41
1
10
46.0759033895892
20
-23.9458882787214
30
0
41
1
10
46.1264100935617
20
-23.9009155257566
30
0
41
1
10
46.1570729481047
20
-23.8813469899695
30
0
41
1
10
46.2182893579078
20
-23.8560435354868
30
0
41
1
10
46.2490095892625
20
-23.8483524628064
30
0
41
1
10
46.3063670950946
20
-23.8426261509176
30
0
41
1
10
46.3337870901919
20
-23.8435487019505
30
0
41
1
10
46.3880520780117
20
-23.8521310272932
30
0
41
1
10
46.4152561668608
20
-23.8604606636699
30
0
41
1
10
46.4489931951207
20
-23.8756940052735
30
0
41
1
10
46.4576125784861
20
-23.8800811977254
30
0
41
1
10
46.465949125227
20
-23.8848115125269
30
0
0
SPLINE
5
D5
100
AcDbEntity
8
1
62
256
6
ByLayer
370
-1
48
1
60
0
100
AcDbSpline
70
4
71
3
72
18
73
14
40
0
40
0
40
0
40
0
40
0.208886483239673
40
0.208886483239673
40
0.421198226784354
40
0.421198226784354
40
0.600960032344646
40
0.600960032344646
40
0.76187147960429
40
0.76187147960429
40
0.937780558809754
40
0.937780558809754
40
1
40
1
40
1
40
1
41
1
10
45.5340508747729
20
-22.1151884874731
30
0
41
1
10
45.5616866783448
20
-22.1308695667918
30
0
41
1
10
45.5927901242583
20
-22.1428850266912
30
0
41
1
10
45.659016589443
20
-22.1565792212503
30
0
41
1
10
45.6953556683232
20
-22.158194643085
30
0
41
1
10
45.7610223615821
20
-22.1494998725687
30
0
41
1
10
45.7914723986854
20
-22.1408004212148
30
0
41
1
10
45.844008611778
20
-22.1170807998643
30
0
41
1
10
45.8672937485873
20
-22.1025718496848
30
0
41
1
10
45.9099974439038
20
-22.0680068440043
30
0
41
1
10
45.9293920577456
20
-22.0471911228732
30
0
41
1
10
45.9509925104646
20
-22.0171301479302
30
0
41
1
10
45.9562635191978
20
-22.0090210361333
30
0
41
1
10
45.9611180230543
20
-22.0007561899772
30
0
0
SPLINE
5
D6
100
AcDbEntity
8
1
62
256
6
ByLayer
370
-1
48
1
60
0
100
AcDbSpline
70
4
71
3
72
18
73
14
40
0
40
0
40
0
40
0
40
0.208886483239664
40
0.208886483239664
40
0.421198226784332
40
0.421198226784332
40
0.600960032344635
40
0.600960032344635
40
0.761871479604286
40
0.761871479604286
40
0.937780558809726
40
0.937780558809726
40
1
40
1
40
1
40
1
41
1
10
45.1151884874731
20
-22.534050874773
30
0
41
1
10
45.1308695667918
20
-22.5616866783448
30
0
41
1
10
45.1428850266912
20
-22.5927901242583
30
0
41
1
10
45.1565792212503
20
-22.659016589443
30
0
41
1
10
45.158194643085
20
-22.6953556683232
30
0
41
1
10
45.1494998725687
20
-22.7610223615821
30
0
41
1
10
45.1408004212148
20
-22.7914723986854
30
0
41
1
10
45.1170807998643
20
-22.844008611778
30
0
41
1
10
45.1025718496848
20
-22.8672937485874
30
0
41
1
10
45.0680068440043
20
-22.9099974439039
30
0
41
1
10
45.0471911228732
20
-22.9293920577456
30
0
41
1
10
45.0171301479303
20
-22.9509925104646
30
0
41
1
10
45.0090210361333
20
-22.9562635191979
30
0
41
1
10
45.0007561899773
20
-22.9611180230543
30
0
0
SPLINE
5
D7
100
AcDbEntity
8
1
62
256
6
ByLayer
370
-1
48
1
60
0
100
AcDbSpline
70
4
71
3
72
16
73
12
40
0
40
0
40
0
40
0
40
0.417201362882616
40
0.417201362882616
40
0.619006372424696
40
0.619006372424696
40
0.788090355899121
40
0.788090355899121
40
0.905842791388573
40
0.905842791388573
40
1
40
1
40
1
40
1
41
1
10
44.9617484555408
20
-22.9805348222094
30
0
41
1
10
44.9225332996202
20
-22.9967756233936
30
0
41
1
10
44.883622119544
20
-23.022662175052
30
0
41
1
10
44.8344653913461
20
-23.0812326840621
30
0
41
1
10
44.8195799704285
20
-23.1039622645605
30
0
41
1
10
44.7977583935682
20
-23.1530738722032
30
0
41
1
10
44.7897517832046
20
-23.1787848348663
30
0
41
1
10
44.7828163106893
20
-23.2269745008405
30
0
41
1
10
44.7818766065004
20
-23.2485343785137
30
0
41
1
10
44.7848809039573
20
-23.2879826856509
30
0
41
1
10
44.7879158203141
20
-23.3060693898071
30
0
41
1
10
44.7925927171387
20
-23.3235238063782
30
0
0
SPLINE
5
D8
100
AcDbEntity
8
SK1
62
256
6
ByLayer
370
-1
48
1
60
0
100
AcDbSpline
70
4
71
3
72
100
73
96
40
0
40
0
40
0
40
0
40
0.0043783247532282
40
0.0136712309453665
40
0.0229641371375048
40
0.0322570433296431
40
0.0415499495217814
40
0.0601357619060581
40
0.0787215742903348
40
0.0973073866746114
40
0.115893199058888
40
0.125186105251026
40
0.134479011443165
40
0.143771917635303
40
0.153064823827441
40
0.171650636211718
40
0.190236448595995
40
0.199529354788133
40
0.208822260980271
40
0.21811516717241
40
0.227408073364548
40
0.236700979556686
40
0.245993885748825
40
0.264579698133101
40
0.27387260432524
40
0.283165510517378
40
0.301751322901655
40
0.320337135285931
40
0.32963004147807
40
0.338922947670208
40
0.357508760054485
40
0.366801666246623
40
0.371448119342692
40
0.376094572438761
40
0.385387478630899
40
0.394680384823038
40
0.413266197207314
40
0.422559103399453
40
0.431852009591591
40
0.441144915783729
40
0.450437821975868
40
0.459730728168006
40
0.469023634360144
40
0.478316540552283
40
0.487609446744421
40
0.496902352936559
40
0.506195259128698
40
0.524781071512974
40
0.534073977705113
40
0.543366883897251
40
0.552659790089389
40
0.557306243185458
40
0.561952696281528
40
0.571245602473666
40
0.580538508665804
40
0.589831414857943
40
0.599124321050081
40
0.608417227242219
40
0.617710133434358
40
0.636295945818634
40
0.654881758202911
40
0.664174664395049
40
0.673467570587188
40
0.692053382971464
40
0.701346289163602
40
0.710639195355741
40
0.719932101547879
40
0.729225007740017
40
0.738517913932156
40
0.747810820124294
40
0.757103726316433
40
0.766396632508571
40
0.784982444892847
40
0.794275351084986
40
0.803568257277124
40
0.812861163469262
40
0.822154069661401
40
0.831446975853539
40
0.840739882045677
40
0.859325694429954
40
0.868618600622092
40
0.877911506814231
40
0.887204413006369
40
0.896497319198507
40
0.915083131582784
40
0.924376037774922
40
0.933668943967061
40
0.942961850159199
40
0.952254756351337
40
0.961547662543476
40
0.970840568735614
40
0.980133474927752
40
0.98942638111989
40
0.998719287312029
40
1
40
1
40
1
40
1
41
1
10
-0.394976888875291
20
5.00092508225416
30
0
41
1
10
-0.394976888875291
20
5.02359314607176
30
0
41
1
10
-0.394976888875291
20
5.09425535366776
30
0
41
1
10
-0.394976888875291
20
5.21232773830431
30
0
41
1
10
-0.394976888875291
20
5.35463943777347
30
0
41
1
10
-0.394976888875291
20
5.49591839522026
30
0
41
1
10
-0.394976888875291
20
5.68302324398948
30
0
41
1
10
-0.394976888875291
20
5.91406388300979
30
0
41
1
10
-0.394976888875291
20
6.18726435105106
30
0
41
1
10
-0.394976888875291
20
6.45627504712579
30
0
41
1
10
-0.394976888875291
20
6.6768468885183
30
0
41
1
10
-0.394976888875291
20
6.85136201549099
30
0
41
1
10
-0.394976888875291
20
6.98112245032084
30
0
41
1
10
-0.394976888875291
20
7.10982246715957
30
0
41
1
10
-0.394976888875291
20
7.28009512097313
30
0
41
1
10
-0.394976888875291
20
7.49008091096033
30
0
41
1
10
-0.394976888875291
20
7.69650359935568
30
0
41
1
10
-0.394976888875291
20
7.85964216476054
30
0
41
1
10
-0.394976888875291
20
7.98086146605701
30
0
41
1
10
-0.394976888875291
20
8.10100253994159
30
0
41
1
10
-0.394976888875291
20
8.22006380191277
30
0
41
1
10
-0.394976888875291
20
8.3380422654499
30
0
41
1
10
-0.394976888875291
20
8.49397420958985
30
0
41
1
10
-0.394976888875291
20
8.64751156797169
30
0
41
1
10
-0.394976888875291
20
8.79907644696402
30
0
41
1
10
-0.394976888875291
20
8.94918034619519
30
0
41
1
10
-0.394976888875291
20
9.13390680482667
30
0
41
1
10
-0.394976888875291
20
9.31494999082747
30
0
41
1
10
-0.394976888875291
20
9.45767863215664
30
0
41
1
10
-0.394976888875291
20
9.59892077296985
30
0
41
1
10
-0.394976888875291
20
9.73773602301958
30
0
41
1
10
-0.394976888875291
20
9.85736937045593
30
0
41
1
10
-0.394976888875291
20
9.92517902838179
30
0
41
1
10
-0.394976888875291
20
9.99261145812801
30
0
41
1
10
-0.394976888875291
20
10.0761265678462
30
0
41
1
10
-0.394976888875291
20
10.2083399899529
30
0
41
1
10
-0.394976888875291
20
10.338096057249
30
0
41
1
10
-0.394976888875291
20
10.4657231753345
30
0
41
1
10
-0.394976888875291
20
10.5602461538978
30
0
41
1
10
-0.394976888875291
20
10.6536100894112
30
0
41
1
10
-0.394976888875291
20
10.7458098983122
30
0
41
1
10
-0.394976888875291
20
10.8368404586376
30
0
41
1
10
-0.394976888875291
20
10.9266969919675
30
0
41
1
10
-0.394976888875291
20
11.0153746961414
30
0
41
1
10
-0.394976888875291
20
11.1028676417001
30
0
41
1
10
-0.394976888875291
20
11.1891707748317
30
0
41
1
10
-0.394976888875291
20
11.3026972665534
30
0
41
1
10
-0.394976888875291
20
11.413674138825
30
0
41
1
10
-0.394976888875291
20
11.5223699808134
30
0
41
1
10
-0.394976888875291
20
11.6026363770329
30
0
41
1
10
-0.394976888875291
20
11.6684804460587
30
0
41
1
10
-0.394976888875291
20
11.7205808983271
30
0
41
1
10
-0.394976888875291
20
11.7722691819395
30
0
41
1
10
-0.394976888875291
20
11.836053984022
30
0
41
1
10
-0.394976888875291
20
11.9113764724791
30
0
41
1
10
-0.394976888875291
20
11.9854459723214
30
0
41
1
10
-0.394976888875291
20
12.0582544232072
30
0
41
1
10
-0.394976888875291
20
12.1297946270485
30
0
41
1
10
-0.394976888875291
20
12.2235215963167
30
0
41
1
10
-0.394976888875291
20
12.3373769247913
30
0
41
1
10
-0.394976888875291
20
12.446899173783
30
0
41
1
10
-0.394976888875291
20
12.5319491682166
30
0
41
1
10
-0.394976888875291
20
12.6152283642396
30
0
41
1
10
-0.394976888875291
20
12.6957215996061
30
0
41
1
10
-0.394976888875291
20
12.773610902979
30
0
41
1
10
-0.394976888875291
20
12.8306328883531
30
0
41
1
10
-0.394976888875291
20
12.8862769625636
30
0
41
1
10
-0.394976888875291
20
12.940532100831
30
0
41
1
10
-0.394976888875291
20
12.9933861205259
30
0
41
1
10
-0.394976888875291
20
13.0448282543027
30
0
41
1
10
-0.394976888875291
20
13.0948461430692
30
0
41
1
10
-0.394976888875291
20
13.1596507828291
30
0
41
1
10
-0.394976888875291
20
13.221467049789
30
0
41
1
10
-0.394976888875291
20
13.2804176772461
30
0
41
1
10
-0.394976888875291
20
13.3231185723383
30
0
41
1
10
-0.394976888875291
20
13.3643136307331
30
0
41
1
10
-0.394976888875291
20
13.4039879870964
30
0
41
1
10
-0.394976888875291
20
13.4421262291561
30
0
41
1
10
-0.394976888875291
20
13.490931201485
30
0
41
1
10
-0.394976888875291
20
13.5365270011545
30
0
41
1
10
-0.394976888875291
20
13.5789822078612
30
0
41
1
10
-0.394976888875291
20
13.6091837809887
30
0
41
1
10
-0.394976888875291
20
13.6377421279937
30
0
41
1
10
-0.394976888875291
20
13.6736219491958
30
0
41
1
10
-0.394976888875291
20
13.706079968468
30
0
41
1
10
-0.394976888875291
20
13.7351343539634
30
0
41
1
10
-0.394976888875291
20
13.7551609910392
30
0
41
1
10
-0.394976888875291
20
13.7734119916164
30
0
41
1
10
-0.394976888875291
20
13.7898613788954
30
0
41
1
10
-0.394976888875291
20
13.8044829828858
30
0
41
1
10
-0.394976888875291
20
13.8172491473121
30
0
41
1
10
-0.394976888875291
20
13.8281307581185
30
0
41
1
10
-0.394976888875291
20
13.8370980881852
30
0
41
1
10
-0.394976888875291
20
13.8421014019358
30
0
41
1
10
-0.394976888875291
20
13.8443373794894
30
0
41
1
10
-0.394976888875291
20
13.8446019297682
30
0
0
SPLINE
5
D9
100
AcDbEntity
8
SK1
62
256
6
ByLayer
370
-1
48
1
60
0
100
AcDbSpline
70
4
71
3
72
8
73
4
40
0
40
0
40
0
40
0
40
1
40
1
40
1
40
1
41
1
10
-1.30710678118655
20
-3.62781725664615
30
0
41
1
10
-1.37345758266253
20
-3.29127686428785
30
0
41
1
10
-1.43729556141982
20
-2.946602671997
30
0
41
1
10
-1.4950399779393
20
-2.59465115838313
30
0
0
SPLINE
5
DA
100
AcDbEntity
8
1
62
256
6
ByLayer
370
-1
48
1
60
0
100
AcDbSpline
70
4
71
3
72
8
73
4
40
0
40
0
40
0
40
0
40
1
40
1
40
1
40
1
41
1
10
45.0911151980845
20
-22.4977315662262
30
0
41
1
10
45.0997206949226
20
-22.5089451296236
30
0
41
1
10
45.1077864390287
20
-22.5210057550666
30
0
41
1
10
45.1151884874731
20
-22.534050874773
30
0
0
SPLINE
5
DB
100
AcDbEntity
8
SK1
62
256
6
ByLayer
370
-1
48
1
60
0
100
AcDbSpline
70
4
71
3
72
24
73
20
40
0
40
0
40
0
40
0
40
0.470757791634908
40
0.470757791634908
40
0.661826126045254
40
0.661826126045254
40
0.85568916651581
40
0.85568916651581
40
0.884460546127643
40
0.884460546127643
40
0.91360691814161
40
0.91360691814161
40
0.932763100125268
40
0.932763100125268
40
0.95203909678233
40
0.95203909678233
40
0.974618894615272
40
0.974618894615272
40
1
40
1
40
1
40
1
41
1
10
-0.199999999999989
20
5.70317605472911
30
0
41
1
10
-0.199999999999989
20
5.58107998739831
30
0
41
1
10
-0.203895983734896
20
5.45705658909691
30
0
41
1
10
-0.223509916035724
20
5.28128624620587
30
0
41
1
10
-0.23086916609185
20
5.23019697507434
30
0
41
1
10
-0.252992963272021
20
5.12819212434212
30
0
41
1
10
-0.266168518183207
20
5.0748758166919
30
0
41
1
10
-0.299311339940957
20
5.02202983998879
30
0
41
1
10
-0.304166370278011
20
5.01525404855027
30
0
41
1
10
-0.315232060467949
20
5.00279573504582
30
0
41
1
10
-0.321587352348573
20
4.99699852204864
30
0
41
1
10
-0.333432884234483
20
4.98975078853741
30
0
41
1
10
-0.338586253854444
20
4.98746585289803
30
0
41
1
10
-0.349157439354414
20
4.98479989040243
30
0
41
1
10
-0.354703931885936
20
4.98441392730476
30
0
41
1
10
-0.366193082216242
20
4.98556317954746
30
0
41
1
10
-0.372213152675172
20
4.98741181161262
30
0
41
1
10
-0.383950186909431
20
4.99285513665984
30
0
41
1
10
-0.389694431034414
20
4.99667072159761
30
0
41
1
10
-0.394976888882155
20
5.00092508225598
30
0
0
SPLINE
5
DC
100
AcDbEntity
8
1
62
256
6
ByLayer
370
-1
48
1
60
0
100
AcDbSpline
70
4
71
3
72
18
73
14
40
0
40
0
40
0
40
0
40
0.208886483239658
40
0.208886483239658
40
0.421198226784328
40
0.421198226784328
40
0.600960032344642
40
0.600960032344642
40
0.761871479604279
40
0.761871479604279
40
0.937780558809711
40
0.937780558809711
40
1
40
1
40
1
40
1
41
1
10
46.5332946847957
20
-22.1540704644188
30
0
41
1
10
46.5335323735329
20
-22.1858443120254
30
0
41
1
10
46.5386784029785
20
-22.2187884162814
30
0
41
1
10
46.5599321151984
20
-22.2829893148137
30
0
41
1
10
46.5767026582918
20
-22.3152675911915
30
0
41
1
10
46.6170658970685
20
-22.367789230478
30
0
41
1
10
46.6398248614916
20
-22.3898100104788
30
0
41
1
10
46.6866347626955
20
-22.4234478949603
30
0
41
1
10
46.7108424505379
20
-22.4363589398781
30
0
41
1
10
46.7621284711974
20
-22.4560589220174
30
0
41
1
10
46.7898527214159
20
-22.4624472897353
30
0
41
1
10
46.8266865157386
20
-22.4661233430518
30
0
41
1
10
46.8363447169234
20
-22.4666336146199
30
0
41
1
10
46.8459295355812
20
-22.4667053152043
30
0
0
SPLINE
5
DD
100
AcDbEntity
8
SK1
62
256
6
ByLayer
370
-1
48
1
60
0
100
AcDbSpline
70
4
71
3
72
22
73
18
40
0
40
0
40
0
40
0
40
0.0262442859026881
40
0.0262442859026881
40
0.0530261157854851
40
0.0530261157854851
40
0.0713559655737796
40
0.0713559655737796
40
0.089587401263909
40
0.089587401263909
40
0.119482247898519
40
0.119482247898519
40
0.178618886842945
40
0.178618886842945
40
0.388022338076953
40
0.388022338076953
40
1
40
1
40
1
40
1
41
1
10
-0.394976888875291
20
-5.0009244140283
30
0
41
1
10
-0.389542958903149
20
-4.99654803778401
30
0
41
1
10
-0.383617633691586
20
-4.99263335383438
30
0
41
1
10
-0.370682657201087
20
-4.98677476419829
30
0
41
1
10
-0.363425194676552
20
-4.98483424058901
30
0
41
1
10
-0.350979181144169
20
-4.98462903203949
30
0
41
1
10
-0.345738268039327
20
-4.98542011278013
30
0
41
1
10
-0.335836240990062
20
-4.98861553627458
30
0
41
1
10
-0.331061456711964
20
-4.99102841332402
30
0
41
1
10
-0.319537139874143
20
-4.9986715699325
30
0
41
1
10
-0.313226756018608
20
-5.00478758784652
30
0
41
1
10
-0.296826258261476
20
-5.02421063341325
30
0
41
1
10
-0.288455270980236
20
-5.03906576138257
30
0
41
1
10
-0.256353055935392
20
-5.10678482490906
30
0
41
1
10
-0.244000373144985
20
-5.16381228581221
30
0
41
1
10
-0.204596889637315
20
-5.38213882730372
30
0
41
1
10
-0.200000000000046
20
-5.54465158381666
30
0
41
1
10
-0.200000000000046
20
-5.70317614351262
30
0
0
SPLINE
5
DE
100
AcDbEntity
8
1
62
256
6
ByLayer
370
-1
48
1
60
0
100
AcDbSpline
70
4
71
3
72
16
73
12
40
0
40
0
40
0
40
0
40
0.417734869601137
40
0.417734869601137
40
0.619387231008239
40
0.619387231008239
40
0.788342666875881
40
0.788342666875881
40
0.906053171923083
40
0.906053171923083
40
1
40
1
40
1
40
1
41
1
10
46.5022684337738
20
-23.9088848019154
30
0
41
1
10
46.5359839374092
20
-23.9347587056554
30
0
41
1
10
46.5779231484119
20
-23.9555355456469
30
0
41
1
10
46.6533064929066
20
-23.9687821011535
30
0
41
1
10
46.6804236423866
20
-23.9702904265176
30
0
41
1
10
46.7338404203808
20
-23.9646043880939
30
0
41
1
10
46.7600950681085
20
-23.9586714821238
30
0
41
1
10
46.8052718733124
20
-23.940569343085
30
0
41
1
10
46.8244057173581
20
-23.93059635402
30
0
41
1
10
46.8570230399789
20
-23.908280810329
30
0
41
1
10
46.8711343231939
20
-23.8966326297725
30
0
41
1
10
46.8838834764832
20
-23.8838834764832
30
0
0
SPLINE
5
DF
100
AcDbEntity
8
1
62
256
6
ByLayer
370
-1
48
1
60
0
100
AcDbSpline
70
4
71
3
72
8
73
4
40
0
40
0
40
0
40
0
40
1
40
1
40
1
40
1
41
1
10
45.4667053152043
20
-23.8459295355812
30
0
41
1
10
45.4668175130646
20
-23.8609279648646
30
0
41
1
10
45.4658626864897
20
-23.8754056449367
30
0
41
1
10
45.4640168893145
20
-23.8894196241249
30
0
0
SPLINE
5
E0
100
AcDbEntity
8
SK1
62
256
6
ByLayer
370
-1
48
1
60
0
100
AcDbSpline
70
4
71
3
72
8
73
4
40
0
40
0
40
0
40
0
40
1
40
1
40
1
40
1
41
1
10
-1.4950399779393
20
2.59465115086957
30
0
41
1
10
-1.43729564430089
20
2.94660231507382
30
0
41
1
10
-1.37345704405578
20
3.29127575598179
30
0
41
1
10
-1.30710678118653
20
3.6278161010051
30
0
0
SPLINE
5
E1
100
AcDbEntity
8
SK1
62
256
6
ByLayer
370
-1
48
1
60
0
100
AcDbSpline
70
4
71
3
72
30
73
26
40
0
40
0
40
0
40
0
40
0.337353368376273
40
0.337353368376273
40
0.421572476570396
40
0.421572476570396
40
0.437870507614647
40
0.437870507614647
40
0.454360744150349
40
0.454360744150349
40
0.46102437321649
40
0.46102437321649
40
0.467802724987302
40
0.467802724987302
40
0.473791453396888
40
0.473791453396888
40
0.481264268969724
40
0.481264268969724
40
0.494804301393218
40
0.494804301393218
40
0.541069262252274
40
0.541069262252274
40
0.76221802419653
40
0.76221802419653
40
1
40
1
40
1
40
1
41
1
10
-1.7
20
2.5837250319525
30
0
41
1
10
-1.69946915813009
20
2.45210484593008
30
0
41
1
10
-1.69760670671556
20
2.31884997747196
30
0
41
1
10
-1.67915375522098
20
2.15294187932722
30
0
41
1
10
-1.67485152519237
20
2.11932442567118
30
0
41
1
10
-1.66472347048305
20
2.08095979549279
30
0
41
1
10
-1.66287560510223
20
2.07475454077749
30
0
41
1
10
-1.65846712486042
20
2.06274931231133
30
0
41
1
10
-1.65588139752758
20
2.05680133794195
30
0
41
1
10
-1.65120237663186
20
2.0497680665317
30
0
41
1
10
-1.64969999009789
20
2.04787870491481
30
0
41
1
10
-1.64639510213217
20
2.0447894938039
30
0
41
1
10
-1.644535578477
20
2.04357912964019
30
0
41
1
10
-1.64096575658941
20
2.04240828386776
30
0
41
1
10
-1.63922229186966
20
2.04230771235822
30
0
41
1
10
-1.63551182442282
20
2.04297037181766
30
0
41
1
10
-1.63353448434609
20
2.04393506875687
30
0
41
1
10
-1.62845259442084
20
2.04750201060256
30
0
41
1
10
-1.62558657915471
20
2.0508033417303
30
0
41
1
10
-1.61425491864985
20
2.06649024761731
30
0
41
1
10
-1.60795428020354
20
2.08189579117942
30
0
41
1
10
-1.57473680217674
20
2.17064161742221
30
0
41
1
10
-1.55852136531563
20
2.25243693059593
30
0
41
1
10
-1.5247433730911
20
2.41950302647342
30
0
41
1
10
-1.50941945205861
20
2.5070083929059
30
0
41
1
10
-1.4950399779393
20
2.59465115086951
30
0
0
SPLINE
5
E2
100
AcDbEntity
8
1
62
256
6
ByLayer
370
-1
48
1
60
0
100
AcDbSpline
70
4
71
3
72
16
73
12
40
0
40
0
40
0
40
0
40
0.121350652772496
40
0.121350652772496
40
0.241764360739207
40
0.241764360739207
40
0.425509948111212
40
0.425509948111212
40
0.724908842065022
40
0.724908842065022
40
1
40
1
40
1
40
1
41
1
10
45.1161165235168
20
-22.1161165235168
30
0
41
1
10
45.13255498013
20
-22.0996780669037
30
0
41
1
10
45.1513320492249
20
-22.0850756118011
30
0
41
1
10
45.1891458919085
20
-22.0620316959299
30
0
41
1
10
45.2086892237615
20
-22.0531429888045
30
0
41
1
10
45.2561522896515
20
-22.0369475651412
30
0
41
1
10
45.2839849467179
20
-22.0324378018758
30
0
41
1
10
45.3510238003288
20
-22.0297444071307
30
0
41
1
10
45.3880157501208
20
-22.0369405522004
30
0
41
1
10
45.4495509965469
20
-22.0592467315463
30
0
41
1
10
45.4753924313201
20
-22.0739717310183
30
0
41
1
10
45.4977315662262
20
-22.0911151980846
30
0
0
SPLINE
5
E3
100
AcDbEntity
8
1
62
256
6
ByLayer
370
-1
48
1
60
0
100
AcDbSpline
70
4
71
3
72
8
73
4
40
0
40
0
40
0
40
0
40
1
40
1
40
1
40
1
41
1
10
45.4977315662262
20
-22.0911151980846
30
0
41
1
10
45.5089451296236
20
-22.0997206949226
30
0
41
1
10
45.5210057550665
20
-22.1077864390287
30
0
41
1
10
45.5340508747729
20
-22.1151884874731
30
0
0
SPLINE
5
E4
100
AcDbEntity
8
SK1
62
256
6
ByLayer
370
-1
48
1
60
0
100
AcDbSpline
70
4
71
3
72
22
73
18
40
0
40
0
40
0
40
0
40
0.0408146055975421
40
0.0408146055975421
40
0.0823243808208714
40
0.0823243808208714
40
0.113722137960843
40
0.113722137960843
40
0.144934004837801
40
0.144934004837801
40
0.197663645148653
40
0.197663645148653
40
0.33040493622216
40
0.33040493622216
40
0.796191409884692
40
0.796191409884692
40
1
40
1
40
1
40
1
41
1
10
-0.394976888875291
20
5.00092508226666
30
0
41
1
10
-0.41553010785394
20
5.01747813555136
30
0
41
1
10
-0.438024560131566
20
5.03261131985604
30
0
41
1
10
-0.487324802537927
20
5.05682200266617
30
0
41
1
10
-0.514951385379717
20
5.065973715838
30
0
41
1
10
-0.565001076851487
20
5.07238571210249
30
0
41
1
10
-0.587551462055302
20
5.07198375916977
30
0
41
1
10
-0.630654498772842
20
5.06497384681828
30
0
41
1
10
-0.65169083057323
20
5.05839846240309
30
0
41
1
10
-0.704063404944179
20
5.0354696203506
30
0
41
1
10
-0.733646054998772
20
5.01537181535585
30
0
41
1
10
-0.825717517678285
20
4.93804001611764
30
0
41
1
10
-0.875568215521142
20
4.86927174197922
30
0
41
1
10
-1.06893868726922
20
4.55513362670803
30
0
41
1
10
-1.15213866111816
20
4.27852588598478
30
0
41
1
10
-1.25478905452405
20
3.87761185644086
30
0
41
1
10
-1.28234760083204
20
3.75339907142145
30
0
41
1
10
-1.30710678118763
20
3.62781610099955
30
0
0
SPLINE
5
E5
100
AcDbEntity
8
1
62
256
6
ByLayer
370
-1
48
1
60
0
100
AcDbSpline
70
4
71
3
72
18
73
14
40
0
40
0
40
0
40
0
40
0.0249114799478071
40
0.0249114799478071
40
0.128474521404039
40
0.128474521404039
40
0.2616454226388
40
0.2616454226388
40
0.456262139315667
40
0.456262139315667
40
0.777536934736667
40
0.777536934736667
40
1
40
1
40
1
40
1
41
1
10
46.3235238063781
20
-21.7925927171387
30
0
41
1
10
46.3281880067791
20
-21.7938424858695
30
0
41
1
10
46.3328248873809
20
-21.7952101432721
30
0
41
1
10
46.3563523374996
20
-21.8027915232867
30
0
41
1
10
46.3746697280087
20
-21.810927917762
30
0
41
1
10
46.4122634424736
20
-21.8321716233828
30
0
41
1
10
46.4309713766024
20
-21.8463132883617
30
0
41
1
10
46.4696164234888
20
-21.8825042304229
30
0
41
1
10
46.4870908117168
20
-21.9058136730099
30
0
41
1
10
46.5217467341865
20
-21.9664002492508
30
0
41
1
10
46.5325055707024
20
-22.0042565181796
30
0
41
1
10
46.5394001202285
20
-22.0642128149136
30
0
41
1
10
46.5389598927922
20
-22.0879795381167
30
0
41
1
10
46.5359831106855
20
-22.1105803758752
30
0
0
SPLINE
5
E6
100
AcDbEntity
8
SK1
62
256
6
ByLayer
370
-1
48
1
60
0
100
AcDbSpline
70
4
71
3
72
98
73
94
40
0
40
0
40
0
40
0
40
0.0012808740763045
40
0.0105737783742241
40
0.0198666826721437
40
0.0291595869700633
40
0.0384524912679829
40
0.0477453955659025
40
0.0663312041617417
40
0.0849170127575809
40
0.10350282135342
40
0.11279572565134
40
0.122088629949259
40
0.131381534247179
40
0.140674438545099
40
0.159260247140938
40
0.168553151438857
40
0.177846055736777
40
0.187138960034696
40
0.196431864332616
40
0.205724768630536
40
0.215017672928455
40
0.233603481524295
40
0.242896385822214
40
0.252189290120134
40
0.261482194418053
40
0.270775098715973
40
0.280068003013893
40
0.289360907311812
40
0.298653811609732
40
0.307946715907651
40
0.326532524503491
40
0.33582542880141
40
0.34511833309933
40
0.363704141695169
40
0.382289950291008
40
0.391582854588928
40
0.400875758886847
40
0.410168663184767
40
0.419461567482687
40
0.428754471780606
40
0.438047376078526
40
0.442693828227486
40
0.447340280376445
40
0.456633184674365
40
0.465926088972284
40
0.475218993270204
40
0.493804801866043
40
0.503097706163963
40
0.512390610461883
40
0.521683514759802
40
0.530976419057722
40
0.540269323355641
40
0.549562227653561
40
0.558855131951481
40
0.5681480362494
40
0.57744094054732
40
0.586733844845239
40
0.605319653441079
40
0.614612557738998
40
0.623905462036918
40
0.628551914185878
40
0.633198366334837
40
0.642491270632757
40
0.661077079228596
40
0.670369983526516
40
0.679662887824435
40
0.698248696420275
40
0.716834505016114
40
0.726127409314034
40
0.735420313611953
40
0.754006122207792
40
0.763299026505712
40
0.772591930803632
40
0.781884835101551
40
0.791177739399471
40
0.80047064369739
40
0.80976354799531
40
0.828349356591149
40
0.846935165186988
40
0.856228069484908
40
0.865520973782828
40
0.874813878080747
40
0.884106782378667
40
0.902692590974506
40
0.921278399570345
40
0.939864208166184
40
0.958450016762024
40
0.967742921059943
40
0.977035825357863
40
0.986328729655782
40
0.995621633953702
40
1
40
1
40
1
40
1
41
1
10
-0.394976888875291
20
-13.8446015176322
30
0
41
1
10
-0.394976888875291
20
-13.8443369604552
30
0
41
1
10
-0.394976888875291
20
-13.842101166137
30
0
41
1
10
-0.394976888875291
20
-13.8370982474882
30
0
41
1
10
-0.394976888875291
20
-13.8281310063336
30
0
41
1
10
-0.394976888875291
20
-13.8172492272358
30
0
41
1
10
-0.394976888875291
20
-13.8044829705053
30
0
41
1
10
-0.394976888875291
20
-13.7849758313288
30
0
41
1
10
-0.394976888875291
20
-13.7560496751861
30
0
41
1
10
-0.394976888875291
20
-13.7142204148031
30
0
41
1
10
-0.394976888875291
20
-13.6736219510479
30
0
41
1
10
-0.394976888875291
20
-13.6377421071264
30
0
41
1
10
-0.394976888875291
20
-13.6091837483775
30
0
41
1
10
-0.394976888875291
20
-13.5789821852606
30
0
41
1
10
-0.394976888875291
20
-13.5365270016785
30
0
41
1
10
-0.394976888875291
20
-13.4909311840823
30
0
41
1
10
-0.394976888875291
20
-13.4421262012037
30
0
41
1
10
-0.394976888875291
20
-13.4039879614121
30
0
41
1
10
-0.394976888875291
20
-13.3643136176474
30
0
41
1
10
-0.394976888875291
20
-13.3231185671574
30
0
41
1
10
-0.394976888875291
20
-13.2804176635455
30
0
41
1
10
-0.394976888875291
20
-13.2214670183476
30
0
41
1
10
-0.394976888875291
20
-13.1596507604527
30
0
41
1
10
-0.394976888875291
20
-13.094846134259
30
0
41
1
10
-0.394976888875291
20
-13.0448282447276
30
0
41
1
10
-0.394976888875291
20
-12.9933861020735
30
0
41
1
10
-0.394976888875291
20
-12.9405320737836
30
0
41
1
10
-0.394976888875291
20
-12.8862769376535
30
0
41
1
10
-0.394976888875291
20
-12.8306328717281
30
0
41
1
10
-0.394976888875291
20
-12.7736108931729
30
0
41
1
10
-0.394976888875291
20
-12.6957215859151
30
0
41
1
10
-0.394976888875291
20
-12.6152283382819
30
0
41
1
10
-0.394976888875291
20
-12.5319491453114
30
0
41
1
10
-0.394976888875291
20
-12.4468991604423
30
0
41
1
10
-0.394976888875291
20
-12.3373769122162
30
0
41
1
10
-0.394976888875291
20
-12.2235215734124
30
0
41
1
10
-0.394976888875291
20
-12.1297946053789
30
0
41
1
10
-0.394976888875291
20
-12.0582544060742
30
0
41
1
10
-0.394976888875291
20
-11.9854459580753
30
0
41
1
10
-0.394976888875291
20
-11.9113764581405
30
0
41
1
10
-0.394976888875291
20
-11.8360539668501
30
0
41
1
10
-0.394976888875291
20
-11.7722691621604
30
0
41
1
10
-0.394976888875291
20
-11.7205808778945
30
0
41
1
10
-0.394976888875291
20
-11.6684804259269
30
0
41
1
10
-0.394976888875291
20
-11.6026363586083
30
0
41
1
10
-0.394976888875291
20
-11.5223699646631
30
0
41
1
10
-0.394976888875291
20
-11.4136741241806
30
0
41
1
10
-0.394976888875291
20
-11.3026972493618
30
0
41
1
10
-0.394976888875291
20
-11.1891707558493
30
0
41
1
10
-0.394976888875291
20
-11.102867622286
30
0
41
1
10
-0.394976888875291
20
-11.0153746780185
30
0
41
1
10
-0.394976888875291
20
-10.9266969759659
30
0
41
1
10
-0.394976888875291
20
-10.8368404439692
30
0
41
1
10
-0.394976888875291
20
-10.74580988339
30
0
41
1
10
-0.394976888875291
20
-10.6536100721469
30
0
41
1
10
-0.394976888875291
20
-10.5602461340712
30
0
41
1
10
-0.394976888875291
20
-10.4657231550753
30
0
41
1
10
-0.394976888875291
20
-10.3380960413352
30
0
41
1
10
-0.394976888875291
20
-10.2083399780688
30
0
41
1
10
-0.394976888875291
20
-10.0761265525343
30
0
41
1
10
-0.394976888875291
20
-9.99261143893298
30
0
41
1
10
-0.394976888875291
20
-9.92517900727512
30
0
41
1
10
-0.394976888875291
20
-9.85736934874495
30
0
41
1
10
-0.394976888875291
20
-9.73773600630287
30
0
41
1
10
-0.394976888875291
20
-9.59892076352932
30
0
41
1
10
-0.394976888875291
20
-9.45767861814849
30
0
41
1
10
-0.394976888875291
20
-9.3149499665038
30
0
41
1
10
-0.394976888875291
20
-9.13390678694702
30
0
41
1
10
-0.394976888875291
20
-8.94918033853523
30
0
41
1
10
-0.394976888875291
20
-8.79907643306458
30
0
41
1
10
-0.394976888875291
20
-8.64751154095558
30
0
41
1
10
-0.394976888875291
20
-8.49397418950429
30
0
41
1
10
-0.394976888875291
20
-8.33804225713789
30
0
41
1
10
-0.394976888875291
20
-8.22006379392718
30
0
41
1
10
-0.394976888875291
20
-8.10100252302422
30
0
41
1
10
-0.394976888875291
20
-7.98086143927398
30
0
41
1
10
-0.394976888875291
20
-7.85964213989763
30
0
41
1
10
-0.394976888875291
20
-7.69650359349293
30
0
41
1
10
-0.394976888875291
20
-7.49008089634199
30
0
41
1
10
-0.394976888875291
20
-7.28009509164627
30
0
41
1
10
-0.394976888875291
20
-7.10982244878713
30
0
41
1
10
-0.394976888875291
20
-6.98112244545175
30
0
41
1
10
-0.394976888875291
20
-6.85136200824962
30
0
41
1
10
-0.394976888875291
20
-6.67684685573994
30
0
41
1
10
-0.394976888875291
20
-6.45627503636445
30
0
41
1
10
-0.394976888875291
20
-6.18726433662556
30
0
41
1
10
-0.394976888875291
20
-5.91406385279547
30
0
41
1
10
-0.394976888875291
20
-5.68302324019061
30
0
41
1
10
-0.394976888875291
20
-5.49591838220567
30
0
41
1
10
-0.394976888875291
20
-5.35463940810163
30
0
41
1
10
-0.394976888875291
20
-5.21232773385495
30
0
41
1
10
-0.394976888875291
20
-5.09425517295406
30
0
41
1
10
-0.394976888875291
20
-5.02359271293304
30
0
41
1
10
-0.394976888875291
20
-5.0009244140283
30
0
0
SPLINE
5
E7
100
AcDbEntity
8
SK1
62
256
6
ByLayer
370
-1
48
1
60
0
100
AcDbSpline
70
4
71
3
72
32
73
28
40
0
40
0
40
0
40
0
40
0.335339404831972
40
0.335339404831972
40
0.429287156787091
40
0.429287156787091
40
0.47567705376244
40
0.47567705376244
40
0.494539743197707
40
0.494539743197707
40
0.513645880085614
40
0.513645880085614
40
0.520504273461008
40
0.520504273461008
40
0.527488218290634
40
0.527488218290634
40
0.533551201014328
40
0.533551201014328
40
0.540998152878254
40
0.540998152878254
40
0.554393631774451
40
0.554393631774451
40
0.598967269657032
40
0.598967269657032
40
0.809317334416223
40
0.809317334416223
40
1
40
1
40
1
40
1
41
1
10
-1.4950399779393
20
-2.59465115838304
30
0
41
1
10
-1.51545804662706
20
-2.47020327904033
30
0
41
1
10
-1.53713921924269
20
-2.34554891087819
30
0
41
1
10
-1.57392592094843
20
-2.19043955590803
30
0
41
1
10
-1.58255890853935
20
-2.15670217135892
30
0
41
1
10
-1.59805956936562
20
-2.1081468839686
30
0
41
1
10
-1.60359902440038
20
-2.09231222948606
30
0
41
1
10
-1.61296122457533
20
-2.07152520286885
30
0
41
1
10
-1.61586967413162
20
-2.0656737244498
30
0
41
1
10
-1.62242426172162
20
-2.05481886173052
30
0
41
1
10
-1.62611615645157
20
-2.04963161073078
30
0
41
1
10
-1.63217263701876
20
-2.04479089552191
30
0
41
1
10
-1.63391092603902
20
-2.04372430879368
30
0
41
1
10
-1.63759701012465
20
-2.04243943769597
30
0
41
1
10
-1.63960513001732
20
-2.04224314885471
30
0
41
1
10
-1.64327142014689
20
-2.04303363449088
30
0
41
1
10
-1.64498274878694
20
-2.04388024545895
30
0
41
1
10
-1.64846923771175
20
-2.04652261877811
30
0
41
1
10
-1.65023197368771
20
-2.04850621085967
30
0
41
1
10
-1.6545929794447
20
-2.05462030362457
30
0
41
1
10
-1.65687449353446
20
-2.05928542847226
30
0
41
1
10
-1.66535432668745
20
-2.07982184742582
30
0
41
1
10
-1.66919635898847
20
-2.09736547364699
30
0
41
1
10
-1.6880096715786
20
-2.19569498442294
30
0
41
1
10
-1.6917465712958
20
-2.27904221250569
30
0
41
1
10
-1.69840552504972
20
-2.43548746422863
30
0
41
1
10
-1.69970172620592
20
-2.50976932903754
30
0
41
1
10
-1.7
20
-2.58372509632824
30
0
0
SPLINE
5
E8
100
AcDbEntity
8
SK1
62
256
6
ByLayer
370
-1
48
1
60
0
100
AcDbSpline
70
4
71
3
72
10
73
6
40
0
40
0
40
0
40
0
40
0.5
40
0.5
40
1
40
1
40
1
40
1
41
1
10
-1.7
20
-2.58372509632821
30
0
41
1
10
-1.83222262461143
20
-1.751855044526
30
0
41
1
10
-1.92871617486691
20
-0.884329181036094
30
0
41
1
10
-1.92842303871006
20
0.888588835776119
30
0
41
1
10
-1.83224326233339
20
1.75172436897285
30
0
41
1
10
-1.69999999999999
20
2.58372503195247
30
0
0
LINE
5
4E
100
AcDbEntity
8
1
62
256
6
ByLayer
370
-1
48
1
60
0
100
AcDbLine
10
18.407231
20
-7.504629
30
0
11
16.555058
21
-6.551625
31
0
39
0
210
0
220
0
230
1
0
LINE
5
50
100
AcDbEntity
8
1
62
256
6
ByLayer
370
-1
48
1
60
0
100
AcDbLine
10
16.573807
20
-10.27248
30
0
11
16.897409
21
-10.438984
31
0
39
0
210
0
220
0
230
1
0
LINE
5
51
100
AcDbEntity
8
1
62
256
6
ByLayer
370
-1
48
1
60
0
100
AcDbLine
10
16.926064
20
-10.439181
30
0
11
17.124437
21
-10.373882
31
0
39
0
210
0
220
0
230
1
0
LINE
5
52
100
AcDbEntity
8
1
62
256
6
ByLayer
370
-1
48
1
60
0
100
AcDbLine
10
18.486243
20
-7.727199
30
0
11
18.42405
21
-7.527829
31
0
39
0
210
0
220
0
230
1
0
LINE
5
53
100
AcDbEntity
8
1
62
256
6
ByLayer
370
-1
48
1
60
0
100
AcDbLine
10
0.3
20
-20
30
0
11
19.3
21
-20
31
0
39
0
210
0
220
0
230
1
0
LINE
5
54
100
AcDbEntity
8
1
62
256
6
ByLayer
370
-1
48
1
60
0
100
AcDbLine
10
19.3
20
20
30
0
11
0.3
21
20
31
0
39
0
210
0
220
0
230
1
0
LINE
5
55
100
AcDbEntity
8
1
62
256
6
ByLayer
370
-1
48
1
60
0
100
AcDbLine
10
0.3
20
20
30
0
11
0
21
19.7
31
0
39
0
210
0
220
0
230
1
0
LINE
5
56
100
AcDbEntity
8
1
62
256
6
ByLayer
370
-1
48
1
60
0
100
AcDbLine
10
0
20
-19.7
30
0
11
0.3
21
-20
31
0
39
0
210
0
220
0
230
1
0
LINE
5
57
100
AcDbEntity
8
81
62
256
6
ByLayer
370
-1
48
1
60
0
100
AcDbLine
10
50
20
-27
30
0
11
60
21
-27
31
0
39
0
210
0
220
0
230
1
0
LINE
5
58
100
AcDbEntity
8
SK4
62
256
6
ByLayer
370
-1
48
0.05
60
0
100
AcDbLine
10
-29
20
0
30
0
11
50
21
0
31
0
39
0
210
0
220
0
230
1
0
LINE
5
5A
100
AcDbEntity
8
4
62
256
6
ByLayer
370
-1
48
0.05
60
0
100
AcDbLine
10
0
20
0
30
0
11
50
21
0
31
0
39
0
210
0
220
0
230
1
0
LINE
5
5C
100
AcDbEntity
8
80
62
256
6
ByLayer
370
-1
48
1
60
0
100
AcDbLine
10
0
20
0
30
0
11
-5
21
0
31
0
39
0
210
0
220
0
230
1
0
LINE
5
5D
100
AcDbEntity
8
1
62
256
6
ByLayer
370
-1
48
1
60
0
100
AcDbLine
10
46.177679
20
-19.003945
30
0
11
46.494975
21
-18.686649
31
0
39
0
210
0
220
0
230
1
0
LINE
5
5E
100
AcDbEntity
8
1
62
256
6
ByLayer
370
-1
48
1
60
0
100
AcDbLine
10
9.076795
20
-5.85989
30
0
11
9.076795
21
-19.122283
31
0
39
0
210
0
220
0
230
1
0
LINE
5
5F
100
AcDbEntity
8
1
62
256
6
ByLayer
370
-1
48
1
60
0
100
AcDbLine
10
0
20
0
30
0
11
0
21
-19.7
31
0
39
0
210
0
220
0
230
1
0
LINE
5
60
100
AcDbEntity
8
1
62
256
6
ByLayer
370
-1
48
1
60
0
100
AcDbLine
10
0
20
19.7
30
0
11
0
21
0
31
0
39
0
210
0
220
0
230
1
0
LINE
5
61
100
AcDbEntity
8
1
62
256
6
ByLayer
370
-1
48
1
60
0
100
AcDbLine
10
9.076795
20
5.85989
30
0
11
6.923205
21
5.85989
31
0
39
0
210
0
220
0
230
1
0
LINE
5
62
100
AcDbEntity
8
1
62
256
6
ByLayer
370
-1
48
1
60
0
100
AcDbLine
10
41.999992
20
-23.001123
30
0
11
40.975836
21
-24.025279
31
0
39
0
210
0
220
0
230
1
0
LINE
5
63
100
AcDbEntity
8
1
62
256
6
ByLayer
370
-1
48
1
60
0
100
AcDbLine
10
41.090273
20
-24.09135
30
0
11
40.975836
21
-24.025279
31
0
39
0
210
0
220
0
230
1
0
LINE
5
64
100
AcDbEntity
8
1
62
256
6
ByLayer
370
-1
48
1
60
0
100
AcDbLine
10
9.076795
20
-19.122283
30
0
11
6.923205
21
-19.122283
31
0
39
0
210
0
220
0
230
1
0
LINE
5
65
100
AcDbEntity
8
1
62
256
6
ByLayer
370
-1
48
1
60
0
100
AcDbLine
10
0.3
20
0
30
0
11
0.3
21
-20
31
0
39
0
210
0
220
0
230
1
0
LINE
5
66
100
AcDbEntity
8
1
62
256
6
ByLayer
370
-1
48
1
60
0
100
AcDbLine
10
0.3
20
20
30
0
11
0.3
21
0
31
0
39
0
210
0
220
0
230
1
0
LINE
5
67
100
AcDbEntity
8
1
62
256
6
ByLayer
370
-1
48
1
60
0
100
AcDbLine
10
46.326239
20
-18.517913
30
0
11
46.404721
21
-18.596395
31
0
39
0
210
0
220
0
230
1
0
LINE
5
68
100
AcDbEntity
8
1
62
256
6
ByLayer
370
-1
48
1
60
0
100
AcDbLine
10
40.975836
20
-24.025279
30
0
11
35.677945
21
-20.966541
31
0
39
0
210
0
220
0
230
1
0
LINE
5
69
100
AcDbEntity
8
1
62
256
6
ByLayer
370
-1
48
1
60
0
100
AcDbLine
10
46.404721
20
-18.596395
30
0
11
46.001119
21
-18.999997
31
0
39
0
210
0
220
0
230
1
0
LINE
5
6A
100
AcDbEntity
8
1
62
256
6
ByLayer
370
-1
48
1
60
0
100
AcDbLine
10
6.923205
20
-5.85989
30
0
11
6.923205
21
-19.122283
31
0
39
0
210
0
220
0
230
1
0
LINE
5
6B
100
AcDbEntity
8
1
62
256
6
ByLayer
370
-1
48
1
60
0
100
AcDbLine
10
9.336603
20
19.024574
30
0
11
9.336603
21
6.16973
31
0
39
0
210
0
220
0
230
1
0
LINE
5
6C
100
AcDbEntity
8
1
62
256
6
ByLayer
370
-1
48
1
60
0
100
AcDbLine
10
42.47522
20
-24.890949
30
0
11
41.090273
21
-24.09135
31
0
39
0
210
0
220
0
230
1
0
LINE
5
6D
100
AcDbEntity
8
1
62
256
6
ByLayer
370
-1
48
1
60
0
100
AcDbLine
10
46.494975
20
-18.686649
30
0
11
46.914221
21
-19.105894
31
0
39
0
210
0
220
0
230
1
0
LINE
5
6E
100
AcDbEntity
8
1
62
256
6
ByLayer
370
-1
48
1
60
0
100
AcDbLine
10
6.923205
20
-5.85989
30
0
11
9.076795
21
-5.85989
31
0
39
0
210
0
220
0
230
1
0
LINE
5
6F
100
AcDbEntity
8
1
62
256
6
ByLayer
370
-1
48
1
60
0
100
AcDbLine
10
9.336603
20
-6.16973
30
0
11
9.336603
21
-19.024574
31
0
39
0
210
0
220
0
230
1
0
LINE
5
70
100
AcDbEntity
8
1
62
256
6
ByLayer
370
-1
48
1
60
0
100
AcDbLine
10
46.404721
20
-18.596395
30
0
11
46.494975
21
-18.686649
31
0
39
0
210
0
220
0
230
1
0
LINE
5
71
100
AcDbEntity
8
1
62
256
6
ByLayer
370
-1
48
1
60
0
100
AcDbLine
10
19.300684
20
19.999017
30
0
11
21.452718
21
16.909743
31
0
39
0
210
0
220
0
230
1
0
LINE
5
72
100
AcDbEntity
8
1
62
256
6
ByLayer
370
-1
48
1
60
0
100
AcDbLine
10
19.323432
20
-19.999155
30
0
11
19.3
21
-20
31
0
39
0
210
0
220
0
230
1
0
LINE
5
73
100
AcDbEntity
8
1
62
256
6
ByLayer
370
-1
48
1
60
0
100
AcDbLine
10
6.663397
20
19.024574
30
0
11
6.663397
21
6.16973
31
0
39
0
210
0
220
0
230
1
0
LINE
5
74
100
AcDbEntity
8
1
62
256
6
ByLayer
370
-1
48
1
60
0
100
AcDbLine
10
41.090273
20
-24.09135
30
0
11
42.003931
21
-23.177692
31
0
39
0
210
0
220
0
230
1
0
LINE
5
75
100
AcDbEntity
8
1
62
256
6
ByLayer
370
-1
48
1
60
0
100
AcDbLine
10
6.663397
20
-6.16973
30
0
11
6.663397
21
-19.024574
31
0
39
0
210
0
220
0
230
1
0
LINE
5
76
100
AcDbEntity
8
1
62
256
6
ByLayer
370
-1
48
1
60
0
100
AcDbLine
10
17.467939
20
-19.738863
30
0
11
17.467939
21
-9.965659
31
0
39
0
210
0
220
0
230
1
0
LINE
5
77
100
AcDbEntity
8
1
62
256
6
ByLayer
370
-1
48
1
60
0
100
AcDbLine
10
17.467939
20
-7.020867
30
0
11
17.467939
21
19.738863
31
0
39
0
210
0
220
0
230
1
0
LINE
5
78
100
AcDbEntity
8
1
62
256
6
ByLayer
370
-1
48
1
60
0
100
AcDbLine
10
21.452718
20
-19.922383
30
0
11
19.323432
21
-19.999155
31
0
39
0
210
0
220
0
230
1
0
LINE
5
79
100
AcDbEntity
8
1
62
256
6
ByLayer
370
-1
48
1
60
0
100
AcDbLine
10
6.923205
20
19.122283
30
0
11
9.076795
21
19.122283
31
0
39
0
210
0
220
0
230
1
0
LINE
5
7A
100
AcDbEntity
8
1
62
256
6
ByLayer
370
-1
48
1
60
0
100
AcDbLine
10
30.210422
20
-19.606623
30
0
11
21.452718
21
-19.922383
31
0
39
0
210
0
220
0
230
1
0
LINE
5
7B
100
AcDbEntity
8
1
62
256
6
ByLayer
370
-1
48
1
60
0
100
AcDbLine
10
9.076795
20
19.122283
30
0
11
9.076795
21
5.85989
31
0
39
0
210
0
220
0
230
1
0
LINE
5
7C
100
AcDbEntity
8
1
62
256
6
ByLayer
370
-1
48
1
60
0
100
AcDbLine
10
6.923205
20
19.122283
30
0
11
6.923205
21
5.85989
31
0
39
0
210
0
220
0
230
1
0
LINE
5
7D
100
AcDbEntity
8
1
62
256
6
ByLayer
370
-1
48
1
60
0
100
AcDbLine
10
19.3
20
20
30
0
11
19.300684
21
19.999017
31
0
39
0
210
0
220
0
230
1
0
LINE
5
7E
100
AcDbEntity
8
1
62
256
6
ByLayer
370
-1
48
1
60
0
100
AcDbLine
10
21.452718
20
-19.922383
30
0
11
21.452718
21
16.909743
31
0
39
0
210
0
220
0
230
1
0
LINE
5
7F
100
AcDbEntity
8
1
62
256
6
ByLayer
370
-1
48
1
60
0
100
AcDbLine
10
21.452718
20
16.909743
30
0
11
45.169273
21
-17.135708
31
0
39
0
210
0
220
0
230
1
0
LINE
5
80
100
AcDbEntity
8
SK1
62
256
6
ByLayer
370
-1
48
1
60
0
100
AcDbLine
10
-0.2
20
14.083485
30
0
11
-0.2
21
5.703176
31
0
39
0
210
0
220
0
230
1
0
LINE
5
82
100
AcDbEntity
8
SK1
62
256
6
ByLayer
370
-1
48
1
60
0
100
AcDbLine
10
-0.2
20
-5.703176
30
0
11
-0.2
21
-14.083485
31
0
39
0
210
0
220
0
230
1
0
LINE
5
83
100
AcDbEntity
8
SK1
62
256
6
ByLayer
370
-1
48
1
60
0
100
AcDbLine
10
-1.307107
20
3.627816
30
0
11
-1.307107
21
-3.627817
31
0
39
0
210
0
220
0
230
1
0
MTEXT
5
E9
100
AcDbEntity
8
SK6
62
256
6
ByLayer
370
-1
48
1
60
0
100
AcDbMText
10
17.197134
20
29.362798
30
0
210
0
220
0
230
1
1
\W00.745;\fsimplex.shx,bigfont.shx;C4-SRSCL-27050-08 
40
3.5
41
0
44
1.084337
50
0
71
7
72
5
7
DEFAULT
0
DIMENSION
5
11C
100
AcDbEntity
8
SK2
62
256
6
ByLayer
370
-3
48
1
60
0
100
AcDbDimension
2
DimnDraft3D1
10
-33.75
20
20
30
0
11
-33.75
21
-5.021053
31
0
70
32
71
5
72
1
41
1
210
0
220
0
230
1
3
Standard
100
AcDbAlignedDimension
13
-2
23
-20
33
0
14
-2
24
20
34
0
50
90
100
AcDbRotatedDimension
1001
ACAD
1000
DSTYLE
1002
{
1070
    74
1070
     0
1070
   279
1070
     0
1070
   172
1070
     1
1070
   173
1070
     1
1070
   340
1005
EA
1070
    77
1070
     1
1070
    73
1070
     0
1070
   171
1070
     3
1070
   274
1070
     4
1070
   177
1070
     2
1070
   176
1070
     2
1070
   178
1070
     7
1070
    78
1070
     8
1070
    41
1041
3.175
1070
   147
1041
2.25
1070
    42
1041
2.0
1070
    44
1041
2.0
1070
   140
1041
4.5
1070
   343
1005
11D
1070
   344
1005
11D
1002
}
0
DIMENSION
5
131
100
AcDbEntity
8
2
62
256
6
ByLayer
370
-3
48
1
60
0
100
AcDbDimension
2
DimnDraft3D2
10
64.25
20
-27
30
0
11
64.25
21
-16.128947
31
0
70
32
71
5
72
1
41
1
210
0
220
0
230
1
3
Standard
100
AcDbAlignedDimension
13
52
23
0
33
0
14
52
24
-27
34
0
50
90
100
AcDbRotatedDimension
1001
ACAD
1000
DSTYLE
1002
{
1070
    74
1070
     0
1070
   279
1070
     0
1070
   172
1070
     1
1070
   173
1070
     1
1070
   340
1005
EA
1070
    77
1070
     1
1070
    73
1070
     0
1070
   171
1070
     3
1070
   274
1070
     4
1070
   177
1070
     2
1070
   176
1070
     2
1070
   178
1070
     7
1070
    78
1070
     8
1070
    41
1041
3.175
1070
   147
1041
2.25
1070
    42
1041
2.0
1070
    44
1041
2.0
1070
   140
1041
4.5
1070
   343
1005
11D
1070
   344
1005
11D
1002
}
0
DIMENSION
5
13F
100
AcDbEntity
8
2
62
256
6
ByLayer
370
-3
48
1
60
0
100
AcDbDimension
2
DimnDraft3D3
10
50
20
-51.25
30
0
11
22.371053
21
-51.25
31
0
70
32
71
5
72
1
41
1
210
0
220
0
230
1
3
Standard
100
AcDbAlignedDimension
13
0
23
-22
33
0
14
50
24
-29
34
0
50
0
100
AcDbRotatedDimension
1001
ACAD
1000
DSTYLE
1002
{
1070
   279
1070
     0
1070
   172
1070
     1
1070
   173
1070
     1
1070
   340
1005
EA
1070
    77
1070
     1
1070
    73
1070
     0
1070
   171
1070
     3
1070
   274
1070
     4
1070
   177
1070
     2
1070
   176
1070
     2
1070
   178
1070
     7
1070
    78
1070
     8
1070
    41
1041
3.175
1070
   147
1041
2.25
1070
    42
1041
2.0
1070
    44
1041
2.0
1070
   140
1041
4.5
1070
   343
1005
11D
1070
   344
1005
11D
1002
}
0
ENDSEC
0
SECTION
2
OBJECTS
0
DICTIONARY
5
170
330
0
100
AcDbDictionary
280
0
281
1
3
ACAD_GROUP
350
171
3
ACAD_MLINESTYLE
350
172
0
DICTIONARY
5
171
330
0
100
AcDbDictionary
280
0
281
1
0
DICTIONARY
5
172
330
0
100
AcDbDictionary
280
0
281
1
3
Standard
350
18
0
MLINESTYLE
5
18
330
172
100
AcDbMlineStyle
2
Standard
70
0
3

62
256
51
90
52
90
71
2
49
-0.5
62
256
6
ByLayer
49
0.5
62
256
6
ByLayer
0
RASTERVARIABLES
5
15e
330

100
AcDbRasterVariables
90
0
70
1
71
1
72
1
0
ENDSEC
0
EOF
