0
SECTION
2
HEADER
9
$ACADVER
1
AC1015
9
$DWGCODEPAGE
3
ANSI_1252
9
$HANDSEED
5
1c4
9
$ANGBASE
50
0
9
$ANGDIR
70
0
9
$ATTMODE
70
1
9
$AUNITS
70
0
9
$AUPREC
70
0
9
$CECOLOR
62
256
9
$CELTSCALE
40
1
9
$CELTYPE
6
ByLayer
9
$CELWEIGHT
370
-1
9
$CLAYER
8
0
9
$CMLJUST
70
0
9
$CMLSCALE
40
1
9
$CMLSTYLE
2
Standard
9
$DIMSTYLE
2
Standard
9
$TEXTSIZE
40
0.2
9
$TEXTSTYLE
7
Standard
9
$LUNITS
70
2
9
$LUPREC
70
4
9
$EXTNAMES
290
1
9
$INSUNITS
70
4
9
$LTSCALE
40
1
9
$LWDISPLAY
290
0
9
$PDMODE
70
0
9
$PDSIZE
40
0
9
$PLINEGEN
70
0
0
ENDSEC
0
SECTION
2
CLASSES
0
CLASS
1
RASTERVARIABLES
2
AcDbRasterVariables
3
ISM
90
0
280
0
281
0
0
ENDSEC
0
SECTION
2
TABLES
0
TABLE
2
VPORT
5
1ba
100
AcDbSymbolTable
0
VPORT
5
1
100
AcDbSymbolTableRecord
100
AcDbViewportTableRecord
2
*Active
70
0
10
0
20
0
11
1
21
1
12
-1
22
1
13
0
23
0
14
0.5
24
0.5
15
10
25
10
16
0
26
0
36
1
17
0
27
0
37
0
0
ENDTAB
0
TABLE
2
LTYPE
5
1bb
100
AcDbSymbolTable
0
LTYPE
5
14
100
AcDbSymbolTableRecord
100
AcDbLinetypeTableRecord
70
0
2
ByBlock
3

72
65
73
0
40
0
0
LTYPE
5
15
100
AcDbSymbolTableRecord
100
AcDbLinetypeTableRecord
70
0
2
ByLayer
3

72
65
73
0
40
0
0
LTYPE
5
16
100
AcDbSymbolTableRecord
100
AcDbLinetypeTableRecord
70
0
2
CONTINUOUS
3
Solid line
72
65
73
0
40
0
0
LTYPE
5
3B
100
AcDbSymbolTableRecord
100
AcDbLinetypeTableRecord
70
0
2
DASHED
3
__ __ __ __ __ __ __ __ __
72
65
73
2
40
25.72
49
12.86
74
0
49
-12.86
74
0
0
LTYPE
5
3C
100
AcDbSymbolTableRecord
100
AcDbLinetypeTableRecord
70
0
2
HIDDEN
3
_ _ _ _ _ _ _ _ _ _ _ _ _ _ _
72
65
73
2
40
0.5
49
0.25
74
0
49
-0.25
74
0
0
LTYPE
5
3D
100
AcDbSymbolTableRecord
100
AcDbLinetypeTableRecord
70
0
2
PHANTOM
3
____ _ _ ____ _ _ _____ _ _ ____
72
65
73
6
40
50.5
49
18
74
0
49
-6.5
74
0
49
6.5
74
0
49
-6.5
74
0
49
6.5
74
0
49
-6.5
74
0
0
LTYPE
5
3E
100
AcDbSymbolTableRecord
100
AcDbLinetypeTableRecord
70
0
2
CENTER
3
____ _ ____ _ ____ _ ____
72
65
73
4
40
47.5
49
22
74
0
49
-8.5
74
0
49
8.5
74
0
49
-8.5
74
0
0
LTYPE
5
3F
100
AcDbSymbolTableRecord
100
AcDbLinetypeTableRecord
70
0
2
DOT
3
.........................
72
65
73
2
40
10
49
0
74
0
49
-10
74
0
0
LTYPE
5
40
100
AcDbSymbolTableRecord
100
AcDbLinetypeTableRecord
70
0
2
DASHDOT
3
_._._._._._._._._._._._._._._._.
72
65
73
4
40
70
49
31
74
0
49
-13
74
0
49
13
74
0
49
-13
74
0
0
ENDTAB
0
TABLE
2
LAYER
5
1bc
100
AcDbSymbolTable
0
LAYER
5
10
100
AcDbSymbolTableRecord
100
AcDbLayerTableRecord
2
0
70
0
62
7
6
CONTINUOUS
290
1
370
-3
390
0
0
LAYER
5
42
100
AcDbSymbolTableRecord
100
AcDbLayerTableRecord
2
80
70
0
62
-6
6
CONTINUOUS
290
1
370
-3
390
0
0
LAYER
5
44
100
AcDbSymbolTableRecord
100
AcDbLayerTableRecord
2
81
70
0
62
-3
6
CONTINUOUS
290
1
370
-3
390
0
0
LAYER
5
46
100
AcDbSymbolTableRecord
100
AcDbLayerTableRecord
2
1
70
0
62
4
6
CONTINUOUS
290
1
370
-3
390
0
0
LAYER
5
48
100
AcDbSymbolTableRecord
100
AcDbLayerTableRecord
2
2
70
0
62
7
6
CONTINUOUS
290
1
370
-3
390
0
0
LAYER
5
4F
100
AcDbSymbolTableRecord
100
AcDbLayerTableRecord
2
4
70
0
62
-2
6
CENTER
290
1
370
-3
390
0
0
LAYER
5
1a6
100
AcDbSymbolTableRecord
100
AcDbLayerTableRecord
2
SK4
70
0
62
2
6
CENTER
290
1
370
-3
390
0
0
LAYER
5
1a7
100
AcDbSymbolTableRecord
100
AcDbLayerTableRecord
2
SK1
70
0
62
4
6
CONTINUOUS
290
1
370
-3
390
0
0
LAYER
5
1a8
100
AcDbSymbolTableRecord
100
AcDbLayerTableRecord
2
SK6
70
0
62
5
6
CONTINUOUS
290
1
370
-3
390
0
0
LAYER
5
1a9
100
AcDbSymbolTableRecord
100
AcDbLayerTableRecord
2
SK2
70
0
62
7
6
CONTINUOUS
290
1
370
-3
390
0
0
ENDTAB
0
TABLE
2
STYLE
5
1bd
100
AcDbSymbolTable
0
STYLE
5
11
100
AcDbSymbolTableRecord
100
AcDbTextStyleTableRecord
2
Standard
3
txt
70
0
71
0
40
0
41
1
42
0
50
0
0
STYLE
5
108
100
AcDbSymbolTableRecord
100
AcDbTextStyleTableRecord
2
DEFAULT
3
simplex.shx
70
0
71
0
40
0
41
1
42
0
50
0
0
STYLE
5
12B
100
AcDbSymbolTableRecord
100
AcDbTextStyleTableRecord
2
DWGDirectTextStyle
3
SIMPLEX
70
0
71
0
40
0
41
1
42
0
50
0
0
ENDTAB
0
TABLE
2
DIMSTYLE
5
1be
100
AcDbSymbolTable
100
AcDbDimStyleTable
0
DIMSTYLE
105
27
100
AcDbSymbolTableRecord
100
AcDbDimStyleTableRecord
2
Standard
70
0
3
<>
41
0.18
42
0.0625
44
0.18
140
0.18
147
0.09
73
0
74
0
77
1
271
2
275
0
278
52
280
0
340
11
0
ENDTAB
0
TABLE
2
VIEW
5
1bf
100
AcDbSymbolTable
0
ENDTAB
0
TABLE
2
UCS
5
1c0
100
AcDbSymbolTable
0
ENDTAB
0
TABLE
2
APPID
5
1c1
100
AcDbSymbolTable
0
APPID
5
12
100
AcDbSymbolTableRecord
100
AcDbRegAppTableRecord
2
ACAD
70
0
0
ENDTAB
0
TABLE
2
BLOCK_RECORD
5
1c2
100
AcDbSymbolTable
0
BLOCK_RECORD
5
1F
100
AcDbSymbolTableRecord
100
AcDbBlockTableRecord
2
*Model_Space
340
0
70
0
0
BLOCK_RECORD
5
1B
100
AcDbSymbolTableRecord
100
AcDbBlockTableRecord
2
*Paper_Space
340
0
70
0
0
BLOCK_RECORD
5
23
100
AcDbSymbolTableRecord
100
AcDbBlockTableRecord
2
*Paper_Space0
340
0
70
0
0
BLOCK_RECORD
5
12D
100
AcDbSymbolTableRecord
100
AcDbBlockTableRecord
2
DimnDraft3D1
340
0
70
0
0
BLOCK_RECORD
5
13C
100
AcDbSymbolTableRecord
100
AcDbBlockTableRecord
2
_CLOSED
340
0
70
0
0
BLOCK_RECORD
5
143
100
AcDbSymbolTableRecord
100
AcDbBlockTableRecord
2
DimnDraft3D2
340
0
70
0
0
BLOCK_RECORD
5
14F
100
AcDbSymbolTableRecord
100
AcDbBlockTableRecord
2
DimnDraft3D3
340
0
70
0
0
BLOCK_RECORD
5
15D
100
AcDbSymbolTableRecord
100
AcDbBlockTableRecord
2
DimnDraft3D4
340
0
70
0
0
BLOCK_RECORD
5
16B
100
AcDbSymbolTableRecord
100
AcDbBlockTableRecord
2
DimnDraft3D5
340
0
70
0
0
BLOCK_RECORD
5
179
100
AcDbSymbolTableRecord
100
AcDbBlockTableRecord
2
DimnDraft3D6
340
0
70
0
0
ENDTAB
0
ENDSEC
0
SECTION
2
BLOCKS
0
BLOCK
5
20
100
AcDbEntity
8
0
100
AcDbBlockBegin
2
*Model_Space
70
0
10
0
20
0
30
0
3
*Model_Space
0
ENDBLK
5
21
100
AcDbEntity
8
0
100
AcDbBlockEnd
0
BLOCK
5
1C
100
AcDbEntity
8
0
100
AcDbBlockBegin
2
*Paper_Space
70
0
10
0
20
0
30
0
3
*Paper_Space
0
ENDBLK
5
1D
100
AcDbEntity
8
0
100
AcDbBlockEnd
0
BLOCK
5
24
100
AcDbEntity
8
0
100
AcDbBlockBegin
2
*Paper_Space0
70
0
10
0
20
0
30
0
3
*Paper_Space0
0
ENDBLK
5
25
100
AcDbEntity
8
0
100
AcDbBlockEnd
0
BLOCK
5
139
100
AcDbEntity
8
0
100
AcDbBlockBegin
2
DimnDraft3D1
70
0
10
0
20
0
30
0
3
DimnDraft3D1
0
MTEXT
5
12E
100
AcDbEntity
8
SK2
62
256
6
ByLayer
370
-1
48
1
60
0
100
AcDbMText
10
-37.875
20
-3.896053
30
0
210
0
220
0
230
1
1
\W01.000;\fsimplex.shx,bigfont.shx;%%c40 
40
4.5
41
0
44
1.084337
50
90
71
7
72
5
7
DEFAULT
0
LINE
5
130
100
AcDbEntity
8
SK2
62
256
6
ByLayer
370
-1
48
1
60
0
100
AcDbLine
10
-2
20
-20
30
0
11
-38.75
21
-20
31
0
39
0
210
0
220
0
230
1
0
LINE
5
131
100
AcDbEntity
8
SK2
62
256
6
ByLayer
370
-1
48
1
60
0
100
AcDbLine
10
-2
20
20
30
0
11
-38.75
21
20
31
0
39
0
210
0
220
0
230
1
0
LINE
5
132
100
AcDbEntity
8
SK2
62
256
6
ByLayer
370
-1
48
1
60
0
100
AcDbLine
10
-36.75
20
-20
30
0
11
-36.75
21
20
31
0
39
0
210
0
220
0
230
1
0
LINE
5
133
100
AcDbEntity
8
SK2
62
256
6
ByLayer
370
-1
48
1
60
0
100
AcDbLine
10
-36.75
20
-20
30
0
11
-37.167997
21
-16.825002
31
0
39
0
210
0
220
0
230
1
0
LINE
5
134
100
AcDbEntity
8
SK2
62
256
6
ByLayer
370
-1
48
1
60
0
100
AcDbLine
10
-36.75
20
-20
30
0
11
-36.332003
21
-16.824998
31
0
39
0
210
0
220
0
230
1
0
LINE
5
135
100
AcDbEntity
8
SK2
62
256
6
ByLayer
370
-1
48
1
60
0
100
AcDbLine
10
-37.167997
20
-16.825002
30
0
11
-36.332003
21
-16.824998
31
0
39
0
210
0
220
0
230
1
0
LINE
5
136
100
AcDbEntity
8
SK2
62
256
6
ByLayer
370
-1
48
1
60
0
100
AcDbLine
10
-36.75
20
20
30
0
11
-36.332003
21
16.825002
31
0
39
0
210
0
220
0
230
1
0
LINE
5
137
100
AcDbEntity
8
SK2
62
256
6
ByLayer
370
-1
48
1
60
0
100
AcDbLine
10
-36.75
20
20
30
0
11
-37.167997
21
16.824998
31
0
39
0
210
0
220
0
230
1
0
LINE
5
138
100
AcDbEntity
8
SK2
62
256
6
ByLayer
370
-1
48
1
60
0
100
AcDbLine
10
-36.332003
20
16.825002
30
0
11
-37.167997
21
16.824998
31
0
39
0
210
0
220
0
230
1
0
ENDBLK
5
13A
100
AcDbEntity
8
0
100
AcDbBlockEnd
0
BLOCK
5
13D
100
AcDbEntity
8
0
100
AcDbBlockBegin
2
_CLOSED
70
0
10
0
20
0
30
0
3
_CLOSED
0
LINE
5
13F
100
AcDbEntity
8
0
62
256
6
ByLayer
370
-2
48
1
60
0
100
AcDbLine
10
-1
20
0.166667
30
0
11
0
21
0
31
0
39
0
210
0
220
0
230
1
0
LINE
5
140
100
AcDbEntity
8
0
62
256
6
ByLayer
370
-2
48
1
60
0
100
AcDbLine
10
0
20
0
30
0
11
-1
21
-0.166667
31
0
39
0
210
0
220
0
230
1
0
LINE
5
141
100
AcDbEntity
8
0
62
256
6
ByLayer
370
-2
48
1
60
0
100
AcDbLine
10
-1
20
0.166667
30
0
11
-1
21
-0.166667
31
0
39
0
210
0
220
0
230
1
0
LINE
5
142
100
AcDbEntity
8
0
62
256
6
ByLayer
370
-2
48
1
60
0
100
AcDbLine
10
0
20
0
30
0
11
-1
21
0
31
0
39
0
210
0
220
0
230
1
0
ENDBLK
5
13E
100
AcDbEntity
8
0
100
AcDbBlockEnd
0
BLOCK
5
14C
100
AcDbEntity
8
0
100
AcDbBlockBegin
2
DimnDraft3D2
70
0
10
0
20
0
30
0
3
DimnDraft3D2
0
MTEXT
5
144
100
AcDbEntity
8
2
62
256
6
ByLayer
370
-1
48
1
60
0
100
AcDbMText
10
36.225
20
-6.193421
30
0
210
0
220
0
230
1
1
\W01.000;\fsimplex.shx,bigfont.shx;%%c20.0 
40
4.5
41
0
44
1.084337
50
90
71
7
72
5
7
DEFAULT
0
LINE
5
145
100
AcDbEntity
8
2
62
256
6
ByLayer
370
-1
48
1
60
0
100
AcDbLine
10
37.35
20
-10
30
0
11
37.35
21
10
31
0
39
0
210
0
220
0
230
1
0
LINE
5
146
100
AcDbEntity
8
2
62
256
6
ByLayer
370
-1
48
1
60
0
100
AcDbLine
10
37.35
20
-10
30
0
11
36.932003
21
-6.825002
31
0
39
0
210
0
220
0
230
1
0
LINE
5
147
100
AcDbEntity
8
2
62
256
6
ByLayer
370
-1
48
1
60
0
100
AcDbLine
10
37.35
20
-10
30
0
11
37.767997
21
-6.824998
31
0
39
0
210
0
220
0
230
1
0
LINE
5
148
100
AcDbEntity
8
2
62
256
6
ByLayer
370
-1
48
1
60
0
100
AcDbLine
10
36.932003
20
-6.825002
30
0
11
37.767997
21
-6.824998
31
0
39
0
210
0
220
0
230
1
0
LINE
5
149
100
AcDbEntity
8
2
62
256
6
ByLayer
370
-1
48
1
60
0
100
AcDbLine
10
37.35
20
10
30
0
11
37.767997
21
6.825002
31
0
39
0
210
0
220
0
230
1
0
LINE
5
14A
100
AcDbEntity
8
2
62
256
6
ByLayer
370
-1
48
1
60
0
100
AcDbLine
10
37.35
20
10
30
0
11
36.932003
21
6.824998
31
0
39
0
210
0
220
0
230
1
0
LINE
5
14B
100
AcDbEntity
8
2
62
256
6
ByLayer
370
-1
48
1
60
0
100
AcDbLine
10
37.767997
20
6.825002
30
0
11
36.932003
21
6.824998
31
0
39
0
210
0
220
0
230
1
0
ENDBLK
5
14D
100
AcDbEntity
8
0
100
AcDbBlockEnd
0
BLOCK
5
15A
100
AcDbEntity
8
0
100
AcDbBlockBegin
2
DimnDraft3D3
70
0
10
0
20
0
30
0
3
DimnDraft3D3
0
MTEXT
5
150
100
AcDbEntity
8
2
62
256
6
ByLayer
370
-1
48
1
60
0
100
AcDbMText
10
101.125
20
3.974342
30
0
210
0
220
0
230
1
1
\W01.000;\fsimplex.shx,bigfont.shx;15.0 
40
4.5
41
0
44
1.084337
50
90
71
7
72
5
7
DEFAULT
0
LINE
5
151
100
AcDbEntity
8
2
62
256
6
ByLayer
370
-1
48
1
60
0
100
AcDbLine
10
82
20
14.9
30
0
11
104.25
21
14.9
31
0
39
0
210
0
220
0
230
1
0
LINE
5
152
100
AcDbEntity
8
2
62
256
6
ByLayer
370
-1
48
1
60
0
100
AcDbLine
10
82
20
0
30
0
11
104.25
21
0
31
0
39
0
210
0
220
0
230
1
0
LINE
5
153
100
AcDbEntity
8
2
62
256
6
ByLayer
370
-1
48
1
60
0
100
AcDbLine
10
102.25
20
26.15
30
0
11
102.25
21
-11.25
31
0
39
0
210
0
220
0
230
1
0
LINE
5
154
100
AcDbEntity
8
2
62
256
6
ByLayer
370
-1
48
1
60
0
100
AcDbLine
10
102.25
20
14.9
30
0
11
101.832003
21
18.074998
31
0
39
0
210
0
220
0
230
1
0
LINE
5
155
100
AcDbEntity
8
2
62
256
6
ByLayer
370
-1
48
1
60
0
100
AcDbLine
10
102.25
20
14.9
30
0
11
102.667997
21
18.075002
31
0
39
0
210
0
220
0
230
1
0
LINE
5
156
100
AcDbEntity
8
2
62
256
6
ByLayer
370
-1
48
1
60
0
100
AcDbLine
10
101.832003
20
18.074998
30
0
11
102.667997
21
18.075002
31
0
39
0
210
0
220
0
230
1
0
LINE
5
157
100
AcDbEntity
8
2
62
256
6
ByLayer
370
-1
48
1
60
0
100
AcDbLine
10
102.25
20
0
30
0
11
102.667997
21
-3.174998
31
0
39
0
210
0
220
0
230
1
0
LINE
5
158
100
AcDbEntity
8
2
62
256
6
ByLayer
370
-1
48
1
60
0
100
AcDbLine
10
102.25
20
0
30
0
11
101.832003
21
-3.175002
31
0
39
0
210
0
220
0
230
1
0
LINE
5
159
100
AcDbEntity
8
2
62
256
6
ByLayer
370
-1
48
1
60
0
100
AcDbLine
10
102.667997
20
-3.174998
30
0
11
101.832003
21
-3.175002
31
0
39
0
210
0
220
0
230
1
0
ENDBLK
5
15B
100
AcDbEntity
8
0
100
AcDbBlockEnd
0
BLOCK
5
168
100
AcDbEntity
8
0
100
AcDbBlockBegin
2
DimnDraft3D4
70
0
10
0
20
0
30
0
3
DimnDraft3D4
0
MTEXT
5
15E
100
AcDbEntity
8
2
62
256
6
ByLayer
370
-1
48
1
60
0
100
AcDbMText
10
35.961842
20
43.775
30
0
210
0
220
0
230
1
1
\W01.000;\fsimplex.shx,bigfont.shx;80.0 
40
4.5
41
0
44
1.084337
50
0
71
7
72
5
7
DEFAULT
0
LINE
5
15F
100
AcDbEntity
8
2
62
256
6
ByLayer
370
-1
48
1
60
0
100
AcDbLine
10
0
20
22
30
0
11
0
21
44.65
31
0
39
0
210
0
220
0
230
1
0
LINE
5
160
100
AcDbEntity
8
2
62
256
6
ByLayer
370
-1
48
1
60
0
100
AcDbLine
10
80
20
16.9
30
0
11
80
21
44.65
31
0
39
0
210
0
220
0
230
1
0
LINE
5
161
100
AcDbEntity
8
2
62
256
6
ByLayer
370
-1
48
1
60
0
100
AcDbLine
10
0
20
42.65
30
0
11
80
21
42.65
31
0
39
0
210
0
220
0
230
1
0
LINE
5
162
100
AcDbEntity
8
2
62
256
6
ByLayer
370
-1
48
1
60
0
100
AcDbLine
10
0
20
42.65
30
0
11
3.174998
21
43.067997
31
0
39
0
210
0
220
0
230
1
0
LINE
5
163
100
AcDbEntity
8
2
62
256
6
ByLayer
370
-1
48
1
60
0
100
AcDbLine
10
0
20
42.65
30
0
11
3.175002
21
42.232003
31
0
39
0
210
0
220
0
230
1
0
LINE
5
164
100
AcDbEntity
8
2
62
256
6
ByLayer
370
-1
48
1
60
0
100
AcDbLine
10
3.174998
20
43.067997
30
0
11
3.175002
21
42.232003
31
0
39
0
210
0
220
0
230
1
0
LINE
5
165
100
AcDbEntity
8
2
62
256
6
ByLayer
370
-1
48
1
60
0
100
AcDbLine
10
80
20
42.65
30
0
11
76.825002
21
42.232003
31
0
39
0
210
0
220
0
230
1
0
LINE
5
166
100
AcDbEntity
8
2
62
256
6
ByLayer
370
-1
48
1
60
0
100
AcDbLine
10
80
20
42.65
30
0
11
76.824998
21
43.067997
31
0
39
0
210
0
220
0
230
1
0
LINE
5
167
100
AcDbEntity
8
2
62
256
6
ByLayer
370
-1
48
1
60
0
100
AcDbLine
10
76.825002
20
42.232003
30
0
11
76.824998
21
43.067997
31
0
39
0
210
0
220
0
230
1
0
ENDBLK
5
169
100
AcDbEntity
8
0
100
AcDbBlockEnd
0
BLOCK
5
176
100
AcDbEntity
8
0
100
AcDbBlockBegin
2
DimnDraft3D5
70
0
10
0
20
0
30
0
3
DimnDraft3D5
0
MTEXT
5
16C
100
AcDbEntity
8
2
62
256
6
ByLayer
370
-1
48
1
60
0
100
AcDbMText
10
47.011842
20
28.775
30
0
210
0
220
0
230
1
1
\W01.000;\fsimplex.shx,bigfont.shx;57.9 
40
4.5
41
0
44
1.084337
50
0
71
7
72
5
7
DEFAULT
0
LINE
5
16D
100
AcDbEntity
8
2
62
256
6
ByLayer
370
-1
48
1
60
0
100
AcDbLine
10
22.1
20
12
30
0
11
22.1
21
29.65
31
0
39
0
210
0
220
0
230
1
0
LINE
5
16E
100
AcDbEntity
8
2
62
256
6
ByLayer
370
-1
48
1
60
0
100
AcDbLine
10
80
20
16.9
30
0
11
80
21
29.65
31
0
39
0
210
0
220
0
230
1
0
LINE
5
16F
100
AcDbEntity
8
2
62
256
6
ByLayer
370
-1
48
1
60
0
100
AcDbLine
10
22.1
20
27.65
30
0
11
80
21
27.65
31
0
39
0
210
0
220
0
230
1
0
LINE
5
170
100
AcDbEntity
8
2
62
256
6
ByLayer
370
-1
48
1
60
0
100
AcDbLine
10
22.1
20
27.65
30
0
11
25.274998
21
28.067997
31
0
39
0
210
0
220
0
230
1
0
LINE
5
171
100
AcDbEntity
8
2
62
256
6
ByLayer
370
-1
48
1
60
0
100
AcDbLine
10
22.1
20
27.65
30
0
11
25.275002
21
27.232003
31
0
39
0
210
0
220
0
230
1
0
LINE
5
172
100
AcDbEntity
8
2
62
256
6
ByLayer
370
-1
48
1
60
0
100
AcDbLine
10
25.274998
20
28.067997
30
0
11
25.275002
21
27.232003
31
0
39
0
210
0
220
0
230
1
0
LINE
5
173
100
AcDbEntity
8
2
62
256
6
ByLayer
370
-1
48
1
60
0
100
AcDbLine
10
80
20
27.65
30
0
11
76.825002
21
27.232003
31
0
39
0
210
0
220
0
230
1
0
LINE
5
174
100
AcDbEntity
8
2
62
256
6
ByLayer
370
-1
48
1
60
0
100
AcDbLine
10
80
20
27.65
30
0
11
76.824998
21
28.067997
31
0
39
0
210
0
220
0
230
1
0
LINE
5
175
100
AcDbEntity
8
2
62
256
6
ByLayer
370
-1
48
1
60
0
100
AcDbLine
10
76.825002
20
27.232003
30
0
11
76.824998
21
28.067997
31
0
39
0
210
0
220
0
230
1
0
ENDBLK
5
177
100
AcDbEntity
8
0
100
AcDbBlockEnd
0
BLOCK
5
184
100
AcDbEntity
8
0
100
AcDbBlockBegin
2
DimnDraft3D6
70
0
10
0
20
0
30
0
3
DimnDraft3D6
0
MTEXT
5
17A
100
AcDbEntity
8
2
62
256
6
ByLayer
370
-1
48
1
60
0
100
AcDbMText
10
99.471304
20
27.316751
30
0
210
0
220
0
230
1
1
\W01.000;\fsimplex.shx,bigfont.shx;93%%d0' 
40
4.5
41
0
44
1.084337
50
316.5
71
7
72
5
7
DEFAULT
0
LINE
5
17B
100
AcDbEntity
8
2
62
256
6
ByLayer
370
-1
48
1
60
0
100
AcDbLine
10
82
20
0
30
0
11
114.336389
21
0
31
0
39
0
210
0
220
0
230
1
0
LINE
5
17C
100
AcDbEntity
8
2
62
256
6
ByLayer
370
-1
48
1
60
0
100
AcDbLine
10
79.895328
20
16.897259
30
0
11
79.024716
21
33.509526
31
0
39
0
210
0
220
0
230
1
0
ARC
5
17D
100
AcDbEntity
8
2
62
256
6
ByLayer
370
-1
48
1
60
0
100
AcDbCircle
39
0
10
80.780876
20
0
30
0
40
31.5555127475399
210
0
220
0
230
1
100
AcDbArc
50
0
51
93
0
LINE
5
17E
100
AcDbEntity
8
2
62
256
6
ByLayer
370
-1
48
1
60
0
100
AcDbLine
10
112.336389
20
0
30
0
11
111.838735
21
3.163491
31
0
39
0
210
0
220
0
230
1
0
LINE
5
17F
100
AcDbEntity
8
2
62
256
6
ByLayer
370
-1
48
1
60
0
100
AcDbLine
10
112.336389
20
0
30
0
11
112.674465
21
3.184503
31
0
39
0
210
0
220
0
230
1
0
LINE
5
180
100
AcDbEntity
8
2
62
256
6
ByLayer
370
-1
48
1
60
0
100
AcDbLine
10
111.838735
20
3.163491
30
0
11
112.674465
21
3.184503
31
0
39
0
210
0
220
0
230
1
0
LINE
5
181
100
AcDbEntity
8
2
62
256
6
ByLayer
370
-1
48
1
60
0
100
AcDbLine
10
79.129388
20
31.512267
30
0
11
82.29183
21
32.016544
31
0
39
0
210
0
220
0
230
1
0
LINE
5
182
100
AcDbEntity
8
2
62
256
6
ByLayer
370
-1
48
1
60
0
100
AcDbLine
10
79.129388
20
31.512267
30
0
11
82.314592
21
31.18086
31
0
39
0
210
0
220
0
230
1
0
LINE
5
183
100
AcDbEntity
8
2
62
256
6
ByLayer
370
-1
48
1
60
0
100
AcDbLine
10
82.29183
20
32.016544
30
0
11
82.314592
21
31.18086
31
0
39
0
210
0
220
0
230
1
0
ENDBLK
5
185
100
AcDbEntity
8
0
100
AcDbBlockEnd
0
ENDSEC
0
SECTION
2
ENTITIES
0
ARC
5
8E
100
AcDbEntity
8
1
62
256
6
ByLayer
370
-1
48
1
60
0
100
AcDbCircle
39
0
10
-26.739484
20
-16
30
0
40
6
210
0
220
0
230
-1
100
AcDbArc
50
14.574216
51
90
0
ARC
5
8F
100
AcDbEntity
8
1
62
256
6
ByLayer
370
-1
48
1
60
0
100
AcDbCircle
39
0
10
-26.739484
20
16
30
0
40
6
210
0
220
0
230
-1
100
AcDbArc
50
270
51
345.425784
0
ARC
5
90
100
AcDbEntity
8
SK1
62
256
6
ByLayer
370
-1
48
1
60
0
100
AcDbCircle
39
0
10
0.6
20
-15
30
0
40
1
210
0
220
0
230
-1
100
AcDbArc
50
113.578178
51
126.869898
0
ARC
5
91
100
AcDbEntity
8
SK1
62
256
6
ByLayer
370
-1
48
1
60
0
100
AcDbCircle
39
0
10
0.6
20
15
30
0
40
1
210
0
220
0
230
-1
100
AcDbArc
50
233.130102
51
246.421822
0
ELLIPSE
5
92
100
AcDbEntity
8
1
62
256
6
ByLayer
370
-1
48
1
60
0
100
AcDbEllipse
10
76.695469
20
8.743931
30
0
11
-4.19424404596922
21
-0.219811016220367
31
0
210
0
220
0
230
1
40
0.999336
41
2.25577314071397
42
2.74959372636468
0
ELLIPSE
5
93
100
AcDbEntity
8
1
62
256
6
ByLayer
370
-1
48
1
60
0
100
AcDbEllipse
10
86.515808
20
4.107853
30
0
11
1.0485610114923
21
0.0549527540550786
31
0
210
0
220
0
230
1
40
0.999336
41
2.89457569340388
42
-0.0787823586313224
0
ELLIPSE
5
94
100
AcDbEntity
8
1
62
256
6
ByLayer
370
-1
48
1
60
0
100
AcDbEllipse
10
86.521051
20
4.019263
30
0
11
-1.0485610114923
21
-0.0549527540550915
31
0
210
0
220
0
230
1
40
0.999336
41
-3.1005810876493
42
-1.94722418737431
0
ELLIPSE
5
95
100
AcDbEntity
8
1
62
256
6
ByLayer
370
-1
48
1
60
0
100
AcDbEllipse
10
86.521051
20
4.019263
30
0
11
-1.0485610114923
21
-0.0549527540550915
31
0
210
0
220
0
230
1
40
0.999336
41
-0.319585056807819
42
-0.0523947469079747
0
ELLIPSE
5
96
100
AcDbEntity
8
1
62
256
6
ByLayer
370
-1
48
1
60
0
100
AcDbEllipse
10
87.182224
20
-6.531925
30
0
11
89.8763328500068
21
-89.8249455633229
31
0
210
0
220
0
230
-1
40
0.006313
41
1.7147754487736
42
1.74839253444845
0
ELLIPSE
5
97
100
AcDbEntity
8
1
62
256
6
ByLayer
370
-1
48
1
60
0
100
AcDbEllipse
10
-0.948929
20
0
30
0
11
9.36741787978168
21
-19.7417491527498
31
0
210
0
220
0
230
-1
40
0.341999
41
-1.09631952749991
42
-0.152726244898338
0
ELLIPSE
5
98
100
AcDbEntity
8
1
62
256
6
ByLayer
370
-1
48
1
60
0
100
AcDbEllipse
10
86.734692
20
5.110005
30
0
11
-1.24828691844322
21
-0.0654199453036807
31
0
210
0
220
0
230
1
40
0.999336
41
2.24352451352418
42
-2.18166156499292
0
ELLIPSE
5
99
100
AcDbEntity
8
1
62
256
6
ByLayer
370
-1
48
1
60
0
100
AcDbEllipse
10
86.732715
20
5.134915
30
0
11
1.34251015364104
21
0.0703579758172452
31
0
210
0
220
0
230
1
40
0.999336
41
-0.955203771086762
42
0.959911595273753
0
ELLIPSE
5
9A
100
AcDbEntity
8
1
62
256
6
ByLayer
370
-1
48
1
60
0
100
AcDbEllipse
10
86.520193
20
4.035634
30
0
11
1.0485610114923
21
0.0549527540550786
31
0
210
0
220
0
230
1
40
0.999336
41
0.0355617114445051
42
1.19434698390597
0
ELLIPSE
5
9B
100
AcDbEntity
8
1
62
256
6
ByLayer
370
-1
48
1
60
0
100
AcDbEllipse
10
16.948929
20
0
30
0
11
9.36741787978175
21
19.7417491527498
31
0
210
0
220
0
230
-1
40
0.341999
41
-2.98886640869145
42
-2.04527312608988
0
ELLIPSE
5
9C
100
AcDbEntity
8
1
62
256
6
ByLayer
370
-1
48
1
60
0
100
AcDbEllipse
10
79.500478
20
0
30
0
11
9.99785628104682
21
-9.99851404264978
31
0
210
0
220
0
230
-1
40
0.017242
41
-3.12435995482345
42
-3.06696001274934
0
ELLIPSE
5
9D
100
AcDbEntity
8
1
62
256
6
ByLayer
370
-1
48
1
60
0
100
AcDbEllipse
10
70.667223
20
8.909009
30
0
11
1.12103232655895
21
-1.12085939520655
31
0
210
0
220
0
230
-1
40
0.023096
41
1.47721869931171
42
1.74531610109635
0
ELLIPSE
5
9E
100
AcDbEntity
8
1
62
256
6
ByLayer
370
-1
48
1
60
0
100
AcDbEllipse
10
-0.948929
20
0
30
0
11
9.36741787978086
21
19.7417491527488
31
0
210
0
220
0
230
-1
40
0.341999
41
0.152726244898353
42
1.09631952749996
0
ELLIPSE
5
9F
100
AcDbEntity
8
1
62
256
6
ByLayer
370
-1
48
1
60
0
100
AcDbEllipse
10
87.181737
20
-6.531467
30
0
11
89.875093454322
21
-89.8237127101324
31
0
210
0
220
0
230
-1
40
0.006312
41
1.75177594129886
42
1.76202069132163
0
ELLIPSE
5
A0
100
AcDbEntity
8
1
62
256
6
ByLayer
370
-1
48
1
60
0
100
AcDbEllipse
10
16.948929
20
0
30
0
11
9.3674178797817
21
-19.7417491527498
31
0
210
0
220
0
230
-1
40
0.341999
41
2.04527312608988
42
2.98886640869144
0
ELLIPSE
5
A1
100
AcDbEntity
8
1
62
256
6
ByLayer
370
-1
48
1
60
0
100
AcDbEllipse
10
86.73717
20
5.062711
30
0
11
-1.24828691844322
21
-0.0654199453036807
31
0
210
0
220
0
230
1
40
0.999336
41
-3.14157925597091
42
-2.18166156499292
0
ELLIPSE
5
A2
100
AcDbEntity
8
1
62
256
6
ByLayer
370
-1
48
1
60
0
100
AcDbEllipse
10
83.451644
20
9.27937
30
0
11
-0.746974891996421
21
-0.0391472952697224
31
0
210
0
220
0
230
1
40
0.999336
41
0.517647700404598
42
1.37062945899049
0
ELLIPSE
5
A3
100
AcDbEntity
8
1
62
256
6
ByLayer
370
-1
48
1
60
0
100
AcDbEllipse
10
83.450051
20
9.309721
30
0
11
0.746974891996425
21
0.0391472952697133
31
0
210
0
220
0
230
1
40
0.999336
41
-2.69941223346304
42
-2.62394495318503
0
ELLIPSE
5
A4
100
AcDbEntity
8
1
62
256
6
ByLayer
370
-1
48
1
60
0
100
AcDbEllipse
10
83.449735
20
9.31575
30
0
11
1.03358156847099
21
0.0541677147114348
31
0
210
0
220
0
230
1
40
0.999336
41
-2.13718713550715
42
-1.09084865881597
0
ELLIPSE
5
A5
100
AcDbEntity
8
1
62
256
6
ByLayer
370
-1
48
1
60
0
100
AcDbEllipse
10
84.470335
20
8.709003
30
0
11
-0.42142166366643
21
-0.0220857735345226
31
0
210
0
220
0
230
1
40
0.999336
41
-1.0628378258273E-05
42
0.20723873112435
0
ELLIPSE
5
A6
100
AcDbEntity
8
1
62
256
6
ByLayer
370
-1
48
1
60
0
100
AcDbEllipse
10
84.45914
20
9.877871
30
0
11
-0.42142166366643
21
-0.0220857735345226
31
0
210
0
220
0
230
1
40
0.999336
41
0.5468788666141
42
1.2570517441903
0
ELLIPSE
5
A7
100
AcDbEntity
8
1
62
256
6
ByLayer
370
-1
48
1
60
0
100
AcDbEllipse
10
83.449735
20
9.31575
30
0
11
1.03358156847099
21
0.0541677147114348
31
0
210
0
220
0
230
1
40
0.999336
41
-1.09084865881597
42
-0.0445606139656991
0
ELLIPSE
5
A8
100
AcDbEntity
8
1
62
256
6
ByLayer
370
-1
48
1
60
0
100
AcDbEllipse
10
83.451644
20
9.27937
30
0
11
-0.746974891996421
21
-0.0391472952697224
31
0
210
0
220
0
230
1
40
0.999336
41
1.65491072764643
42
2.5108933872998
0
ELLIPSE
5
A9
100
AcDbEntity
8
1
62
256
6
ByLayer
370
-1
48
1
60
0
100
AcDbEllipse
10
83.450051
20
9.309721
30
0
11
0.746974891996425
21
0.0391472952697133
31
0
210
0
220
0
230
1
40
0.999336
41
0.442180420127325
42
0.517647700404072
0
ELLIPSE
5
AA
100
AcDbEntity
8
1
62
256
6
ByLayer
370
-1
48
1
60
0
100
AcDbEllipse
10
83.451644
20
9.27937
30
0
11
-0.746974891996421
21
-0.0391472952697224
31
0
210
0
220
0
230
1
40
0.999336
41
-1.6140005740388
42
-0.567713544866659
0
ELLIPSE
5
AB
100
AcDbEntity
8
1
62
256
6
ByLayer
370
-1
48
1
60
0
100
AcDbEllipse
10
83.451644
20
9.27937
30
0
11
-0.746974891996421
21
-0.0391472952697224
31
0
210
0
220
0
230
1
40
0.999336
41
-0.567713544866659
42
0.357398169526401
0
ELLIPSE
5
AC
100
AcDbEntity
8
1
62
256
6
ByLayer
370
-1
48
1
60
0
100
AcDbEllipse
10
83.449735
20
9.31575
30
0
11
1.03358156847099
21
0.0541677147114348
31
0
210
0
220
0
230
1
40
0.999336
41
-0.0445606139656991
42
1.00440551808258
0
ELLIPSE
5
AD
100
AcDbEntity
8
1
62
256
6
ByLayer
370
-1
48
1
60
0
100
AcDbEllipse
10
82.434241
20
9.861313
30
0
11
-0.42142166366643
21
-0.0220857735345226
31
0
210
0
220
0
230
1
40
0.999336
41
2.57393165686169
42
3.1415809249879
0
ELLIPSE
5
AE
100
AcDbEntity
8
1
62
256
6
ByLayer
370
-1
48
1
60
0
100
AcDbEllipse
10
83.449735
20
9.31575
30
0
11
1.03358156847099
21
0.0541677147114348
31
0
210
0
220
0
230
1
40
0.999336
41
3.09703203962409
42
-2.13718713550715
0
ELLIPSE
5
AF
100
AcDbEntity
8
1
62
256
6
ByLayer
370
-1
48
1
60
0
100
AcDbEllipse
10
83.449735
20
9.31575
30
0
11
1.03358156847099
21
0.0541677147114348
31
0
210
0
220
0
230
1
40
0.999336
41
2.05074399477378
42
3.09703203962409
0
ELLIPSE
5
B0
100
AcDbEntity
8
1
62
256
6
ByLayer
370
-1
48
1
60
0
100
AcDbEllipse
10
83.451644
20
9.27937
30
0
11
-0.746974891996418
21
-0.0391472952697223
31
0
210
0
220
0
230
1
40
0.999336
41
2.65719106873818
42
-2.69941223346256
0
ELLIPSE
5
B1
100
AcDbEntity
8
1
62
256
6
ByLayer
370
-1
48
1
60
0
100
AcDbEllipse
10
83.449735
20
9.31575
30
0
11
1.03358156847099
21
0.0541677147114348
31
0
210
0
220
0
230
1
40
0.999336
41
1.00440551808258
42
2.05074399477378
0
ELLIPSE
5
B2
100
AcDbEntity
8
1
62
256
6
ByLayer
370
-1
48
1
60
0
100
AcDbEllipse
10
83.451644
20
9.27937
30
0
11
0.746974891996421
21
0.0391472952697131
31
0
210
0
220
0
230
1
40
0.999336
41
0.442180420127209
42
0.517647700404176
0
ELLIPSE
5
B3
100
AcDbEntity
8
1
62
256
6
ByLayer
370
-1
48
1
60
0
100
AcDbEllipse
10
83.451644
20
9.27937
30
0
11
-0.746974891996421
21
-0.0391472952697224
31
0
210
0
220
0
230
1
40
0.999336
41
-2.62394495318561
42
-1.6140005740388
0
ELLIPSE
5
B4
100
AcDbEntity
8
1
62
256
6
ByLayer
370
-1
48
1
60
0
100
AcDbEllipse
10
83.441616
20
10.454334
30
0
11
-0.42142166366643
21
-0.0220857735345226
31
0
210
0
220
0
230
1
40
0.999336
41
1.52759208532495
42
2.30249181317735
0
ELLIPSE
5
B5
100
AcDbEntity
8
1
62
256
6
ByLayer
370
-1
48
1
60
0
100
AcDbEllipse
10
82.445435
20
8.692445
30
0
11
-0.42142166366643
21
-0.0220857735345226
31
0
210
0
220
0
230
1
40
0.999336
41
2.84447199799628
42
-3.1415833947231
0
ELLIPSE
5
B6
100
AcDbEntity
8
1
62
256
6
ByLayer
370
-1
48
1
60
0
100
AcDbEllipse
10
82.602315
20
9.278445
30
0
11
-0.184746463929596
21
-0.00968215190494471
31
0
210
0
220
0
230
1
40
0.999336
41
-1.34256072458057
42
-0.106690966443455
0
ELLIPSE
5
B7
100
AcDbEntity
8
1
62
256
6
ByLayer
370
-1
48
1
60
0
100
AcDbEllipse
10
82.434241
20
9.861313
30
0
11
-0.42142166366643
21
-0.0220857735345226
31
0
210
0
220
0
230
1
40
0.999336
41
1.79903192900923
42
2.57393165686169
0
ELLIPSE
5
B8
100
AcDbEntity
8
1
62
256
6
ByLayer
370
-1
48
1
60
0
100
AcDbEllipse
10
83.020906
20
10.017043
30
0
11
-0.184746463929596
21
-0.00968215190494471
31
0
210
0
220
0
230
1
40
0.999336
41
-2.38890029611713
42
-0.0735488577941929
0
ELLIPSE
5
B9
100
AcDbEntity
8
1
62
256
6
ByLayer
370
-1
48
1
60
0
100
AcDbEllipse
10
83.441616
20
10.454334
30
0
11
-0.42142166366643
21
-0.0220857735345226
31
0
210
0
220
0
230
1
40
0.999336
41
0.752692357472484
42
1.52759208532495
0
ELLIPSE
5
BA
100
AcDbEntity
8
1
62
256
6
ByLayer
370
-1
48
1
60
0
100
AcDbEllipse
10
83.870238
20
10.024844
30
0
11
-0.184746463929596
21
-0.00968215190494471
31
0
210
0
220
0
230
1
40
0.999336
41
-3.14158644850334
42
-0.83910084041243
0
ELLIPSE
5
BB
100
AcDbEntity
8
1
62
256
6
ByLayer
370
-1
48
1
60
0
100
AcDbEllipse
10
84.45914
20
9.877871
30
0
11
-0.42142166366643
21
-0.0220857735345226
31
0
210
0
220
0
230
1
40
0.999336
41
8.76435332994829E-06
42
0.413052221982665
0
ELLIPSE
5
BC
100
AcDbEntity
8
1
62
256
6
ByLayer
370
-1
48
1
60
0
100
AcDbEllipse
10
84.30226
20
9.291871
30
0
11
-0.184746463929596
21
-0.00968215190494471
31
0
210
0
220
0
230
1
40
0.999336
41
3.14156762654597
42
-1.88454090939933
0
ELLIPSE
5
BD
100
AcDbEntity
8
1
62
256
6
ByLayer
370
-1
48
1
60
0
100
AcDbEllipse
10
83.449735
20
9.31575
30
0
11
1.29821839518095
21
0.0680367431158115
31
0
210
0
220
0
230
1
40
0.999336
41
0
42
6.28318530717959
0
ELLIPSE
5
BE
100
AcDbEntity
8
1
62
256
6
ByLayer
370
-1
48
1
60
0
100
AcDbEllipse
10
83.451453
20
9.283008
30
0
11
1.72263594745164
21
0.0902795245190575
31
0
210
0
220
0
230
1
40
0.999336
41
3.13821874764853
42
-0.0490377417079608
0
ELLIPSE
5
BF
100
AcDbEntity
8
1
62
256
6
ByLayer
370
-1
48
1
60
0
100
AcDbEllipse
10
83.451453
20
9.283008
30
0
11
1.72263594745164
21
0.0902795245190575
31
0
210
0
220
0
230
1
40
0.999336
41
-0.0490383218022357
42
0
0
ELLIPSE
5
C0
100
AcDbEntity
8
1
62
256
6
ByLayer
370
-1
48
1
60
0
100
AcDbEllipse
10
83.450067
20
9.309422
30
0
11
1.72263594745164
21
0.0902795245190575
31
0
210
0
220
0
230
1
40
0.999336
41
0
42
6.28318530717959
0
ELLIPSE
5
C1
100
AcDbEntity
8
1
62
256
6
ByLayer
370
-1
48
1
60
0
100
AcDbEllipse
10
83.451145
20
9.288874
30
0
11
1.82225885974138
21
0.0955005401178711
31
0
210
0
220
0
230
1
40
0.999336
41
0
42
6.28318530717959
0
ELLIPSE
5
C2
100
AcDbEntity
8
1
62
256
6
ByLayer
370
-1
48
1
60
0
100
AcDbEllipse
10
83.450865
20
9.294199
30
0
11
1.87243037766485
21
0.0981299179554989
31
0
210
0
220
0
230
1
40
0.999336
41
0
42
6.28318530717959
0
ELLIPSE
5
C3
100
AcDbEntity
8
1
62
256
6
ByLayer
370
-1
48
1
60
0
100
AcDbEllipse
10
83.449663
20
9.317118
30
0
11
1.91642389486197
21
0.100435520494649
31
0
210
0
220
0
230
1
40
0.999336
41
0
42
6.28318530717959
0
ELLIPSE
5
C4
100
AcDbEntity
8
1
62
256
6
ByLayer
370
-1
48
1
60
0
100
AcDbEllipse
10
80.395868
20
14.497811
30
0
11
0.396331096605793
21
0.0207708326339173
31
0
210
0
220
0
230
1
40
0.999336
41
0.959911595273965
42
3.14152343596978
0
ELLIPSE
5
C5
100
AcDbEntity
8
1
62
256
6
ByLayer
370
-1
48
1
60
0
100
AcDbEllipse
10
86.503457
20
4.136425
30
0
11
0.396331096605793
21
0.0207708326339173
31
0
210
0
220
0
230
1
40
0.999336
41
-2.18168105831631
42
-6.92176204640909E-05
0
ELLIPSE
5
C6
100
AcDbEntity
8
1
62
256
6
ByLayer
370
-1
48
1
60
0
100
AcDbEllipse
10
80.751093
20
7.72865
30
0
11
0.396331096605733
21
0.0207708326339142
31
0
210
0
220
0
230
1
40
0.999336
41
3.14152343596959
42
-2.18168105831611
0
ELLIPSE
5
C7
100
AcDbEntity
8
1
62
256
6
ByLayer
370
-1
48
1
60
0
100
AcDbEllipse
10
86.148232
20
10.905587
30
0
11
0.396331096605733
21
0.0207708326339142
31
0
210
0
220
0
230
1
40
0.999336
41
0
42
0.959911595273728
0
POINT
5
41
100
AcDbEntity
8
80
62
256
6
ByLayer
370
-1
48
1
60
0
100
AcDbPoint
10
0
20
0
30
0
39
0
210
0
220
0
230
1
50
360
0
POINT
5
43
100
AcDbEntity
8
81
62
256
6
ByLayer
370
-1
48
1
60
0
100
AcDbPoint
10
80
20
14.9
30
0
39
0
210
0
220
0
230
1
50
360
0
POINT
5
45
100
AcDbEntity
8
1
62
256
6
ByLayer
370
-1
48
1
60
0
100
AcDbPoint
10
0
20
0
30
0
39
0
210
0
220
0
230
1
50
360
0
POINT
5
47
100
AcDbEntity
8
2
62
256
6
ByLayer
370
-1
48
1
60
0
100
AcDbPoint
10
80
20
14.9
30
0
39
0
210
0
220
0
230
1
50
360
0
POINT
5
49
100
AcDbEntity
8
2
62
256
6
ByLayer
370
-1
48
1
60
0
100
AcDbPoint
10
91.611269
20
0
30
0
39
0
210
0
220
0
230
1
50
360
0
SPLINE
5
C8
100
AcDbEntity
8
SK1
62
256
6
ByLayer
370
-1
48
1
60
0
100
AcDbSpline
70
4
71
2
72
6
73
3
40
0
40
0
40
0
40
1
40
1
40
1
41
1
10
-2.5
20
14.0000000000425
30
0
41
1
10
-12.5002365839528
20
13.7487592491499
30
0
41
1
10
-22.5004731679057
20
13.4975184982574
30
0
0
SPLINE
5
C9
100
AcDbEntity
8
SK1
62
256
6
ByLayer
370
-1
48
1
60
0
100
AcDbSpline
70
4
71
2
72
6
73
3
40
0
40
0
40
0
40
1
40
1
40
1
41
1
10
-22.5004731679057
20
-13.4975184982324
30
0
41
1
10
-12.5002365839528
20
-13.7487592491245
30
0
41
1
10
-2.5
20
-14.0000000000165
30
0
0
SPLINE
5
CA
100
AcDbEntity
8
SK1
62
256
6
ByLayer
370
-1
48
1
60
0
100
AcDbSpline
70
4
71
2
72
6
73
3
40
0
40
0
40
0
40
1
40
1
40
1
41
1
10
-1.69501459340779
20
14.0202240353752
30
0
41
1
10
-2.0975072967039
20
14.0101120177088
30
0
41
1
10
-2.5
20
14.0000000000425
30
0
0
SPLINE
5
CB
100
AcDbEntity
8
SK1
62
256
6
ByLayer
370
-1
48
1
60
0
100
AcDbSpline
70
4
71
2
72
6
73
3
40
0
40
0
40
0
40
1
40
1
40
1
41
1
10
-2.5
20
-14.0000000000165
30
0
41
1
10
-2.0975072967039
20
-14.0101120176829
30
0
41
1
10
-1.69501459340779
20
-14.0202240353492
30
0
0
SPLINE
5
CC
100
AcDbEntity
8
SK1
62
256
6
ByLayer
370
-1
48
1
60
0
100
AcDbSpline
70
4
71
2
72
6
73
3
40
0
40
0
40
0
40
1
40
1
40
1
41
1
10
-22.5003908339782
20
13.4978821831766
30
0
41
1
10
-23.250195418368
20
13.0391711292673
30
0
41
1
10
-24
20
12.580456895609
30
0
0
SPLINE
5
CD
100
AcDbEntity
8
SK1
62
256
6
ByLayer
370
-1
48
1
60
0
100
AcDbSpline
70
4
71
2
72
6
73
3
40
0
40
0
40
0
40
1
40
1
40
1
41
1
10
-24
20
-12.579249793836
30
0
41
1
10
-23.2502022102608
20
-13.0377782396013
30
0
41
1
10
-22.5004044652863
20
-13.4963063088843
30
0
0
SPLINE
5
CE
100
AcDbEntity
8
SK1
62
256
6
ByLayer
370
-1
48
1
60
0
100
AcDbSpline
70
4
71
2
72
6
73
3
40
0
40
0
40
0
40
1
40
1
40
1
41
1
10
-1.5307338908475
20
13.6252614478748
30
0
41
1
10
-1.53145146754065
20
13.6187560658346
30
0
41
1
10
-1.53248549198287
20
13.6035488735101
30
0
0
SPLINE
5
CF
100
AcDbEntity
8
SK1
62
256
6
ByLayer
370
-1
48
1
60
0
100
AcDbSpline
70
4
71
3
72
17
73
13
40
0
40
0
40
0
40
0
40
0.0145833558077114
40
0.112130151763803
40
0.219032510386727
40
0.33389777224674
40
0.454856455681662
40
0.579671973306757
40
0.705875321170092
40
0.830911232223804
40
0.952290521297557
40
1
40
1
40
1
40
1
41
1
10
-1.68701305435195
20
-5.32942014223536
30
0
41
1
10
-1.68666930224578
20
-5.38550449046915
30
0
41
1
10
-1.68397445401342
20
-5.81410306988334
30
0
41
1
10
-1.67747795392955
20
-6.59498365509117
30
0
41
1
10
-1.66733035148536
20
-7.67989781062096
30
0
41
1
10
-1.65521296658039
20
-8.75231679586201
30
0
41
1
10
-1.64144529409293
20
-9.78469838326623
30
0
41
1
10
-1.62617518540907
20
-10.7406546133084
30
0
41
1
10
-1.60969228283148
20
-11.593520022169
30
0
41
1
10
-1.59218937142668
20
-12.3124383508891
30
0
41
1
10
-1.57763786243373
20
-12.7998189050261
30
0
41
1
10
-1.56854622455614
20
-13.0112709401583
30
0
41
1
10
-1.56593765313892
20
-13.0666967750816
30
0
0
SPLINE
5
D0
100
AcDbEntity
8
SK1
62
256
6
ByLayer
370
-1
48
1
60
0
100
AcDbSpline
70
4
71
2
72
6
73
3
40
0
40
0
40
0
40
1
40
1
40
1
41
1
10
-1.49999999999994
20
-13.7870504860687
30
0
41
1
10
-0.949999999999932
20
-13.7870504860687
30
0
41
1
10
-0.399999999999977
20
-13.7870504860687
30
0
0
SPLINE
5
D1
100
AcDbEntity
8
SK1
62
256
6
ByLayer
370
-1
48
1
60
0
100
AcDbSpline
70
4
71
2
72
6
73
3
40
0
40
0
40
0
40
1
40
1
40
1
41
1
10
-0.399999999999977
20
13.787050293933
30
0
41
1
10
-0.949999999999932
20
13.787050293933
30
0
41
1
10
-1.49999999999994
20
13.787050293933
30
0
0
SPLINE
5
D2
100
AcDbEntity
8
1
62
256
6
ByLayer
370
-1
48
1
60
0
100
AcDbSpline
70
4
71
3
72
24
73
20
40
0
40
0
40
0
40
0
40
0.25
40
0.25
40
0.375
40
0.375
40
0.5
40
0.5
40
0.5625
40
0.5625
40
0.625
40
0.625
40
0.687500000000001
40
0.687500000000001
40
0.75
40
0.75
40
0.875
40
0.875
40
1
40
1
40
1
40
1
41
1
10
77.9890087008749
20
-9.80925553502169
30
0
41
1
10
73.8684060265326
20
-9.61369081575273
30
0
41
1
10
69.9377873070751
20
-9.18419028538736
30
0
41
1
10
64.3804103949237
20
-7.20641106597978
30
0
41
1
10
62.608909700599
20
-6.32594702593121
30
0
41
1
10
59.3164366757055
20
-4.00020469666424
30
0
41
1
10
57.8007899661752
20
-2.57465080129802
30
0
41
1
10
55.9296811166573
20
0.0431945713528989
30
0
41
1
10
55.381733790872
20
0.993901157400018
30
0
41
1
10
54.6150330754054
20
2.9558456488997
30
0
41
1
10
54.396876283893
20
3.98590654260593
30
0
41
1
10
54.5503785947912
20
5.86954823143518
30
0
41
1
10
54.927527832077
20
6.67557742283844
30
0
41
1
10
56.1048531810759
20
7.91614975944736
30
0
41
1
10
56.8712791553023
20
8.35142675457496
30
0
41
1
10
59.4190119022204
20
9.34595097634045
30
0
41
1
10
61.371891162732
20
9.60063387877591
30
0
41
1
10
65.3838790983502
20
9.91993547283516
30
0
41
1
10
67.4435314778733
20
9.96252839286601
30
0
41
1
10
69.543307279515
20
9.983534631932
30
0
0
SPLINE
5
D3
100
AcDbEntity
8
1
62
256
6
ByLayer
370
-1
48
1
60
0
100
AcDbSpline
70
4
71
3
72
17
73
13
40
0
40
0
40
0
40
0
40
0.221428148175494
40
0.221428148175494
40
0.442752821555148
40
0.442752821555148
40
0.665433681832851
40
0.665433681832851
40
0.887577440527945
40
0.887577440527945
40
0.887577440527945
40
1
40
1
40
1
40
1
41
1
10
73.7254161220366
20
5.79487936754651
30
0
41
1
10
74.0577837362553
20
5.46209320887104
30
0
41
1
10
74.4517798420394
20
5.18198433714826
30
0
41
1
10
75.2971102563246
20
4.77307029927911
30
0
41
1
10
75.7600647587411
20
4.63849004196354
30
0
41
1
10
76.6943012972488
20
4.53060326310214
30
0
41
1
10
77.1786328922059
20
4.5568231791996
30
0
41
1
10
78.0977051203661
20
4.76631598867812
30
0
41
1
10
78.5453304880684
20
4.9522087702361
30
0
41
1
10
78.9438177873743
20
5.204143518998
30
0
41
1
10
79.1476730332188
20
5.33302647269585
30
0
41
1
10
79.3411219745596
20
5.48021365128341
30
0
41
1
10
79.5197990509426
20
5.64239549587512
30
0
0
SPLINE
5
D4
100
AcDbEntity
8
1
62
256
6
ByLayer
370
-1
48
1
60
0
100
AcDbSpline
70
4
71
3
72
32
73
28
40
0
40
0
40
0
40
0
40
0.0312500000000014
40
0.0312500000000014
40
0.0625000000000027
40
0.0625000000000027
40
0.125000000000004
40
0.125000000000004
40
0.250000000000005
40
0.250000000000005
40
0.375000000000006
40
0.375000000000006
40
0.437500000000006
40
0.437500000000006
40
0.500000000000005
40
0.500000000000005
40
0.562500000000005
40
0.562500000000005
40
0.625000000000005
40
0.625000000000005
40
0.750000000000004
40
0.750000000000004
40
0.875000000000003
40
0.875000000000003
40
0.937500000000001
40
0.937500000000001
40
1
40
1
40
1
40
1
41
1
10
70.7461990275799
20
8.77849616353862
30
0
41
1
10
70.7891484284962
20
8.58511795368912
30
0
41
1
10
70.6944152029027
20
8.39249861109079
30
0
41
1
10
70.4972355273659
20
8.06165120157652
30
0
41
1
10
70.3766485785454
20
7.91024805014004
30
0
41
1
10
69.9993677405839
20
7.48253469187122
30
0
41
1
10
69.7200483001502
20
7.22694998078026
30
0
41
1
10
68.8469211224631
20
6.50200385937262
30
0
41
1
10
68.2292760798502
20
6.08762796432569
30
0
41
1
10
66.9331459568996
20
5.38300069227503
30
0
41
1
10
66.2541502838488
20
5.09094219260007
30
0
41
1
10
65.1825130094545
20
4.85619227699482
30
0
41
1
10
64.8177530944504
20
4.8112790548725
30
0
41
1
10
64.0767928299639
20
4.87148641424372
30
0
41
1
10
63.6707836692849
20
4.97705849992798
30
0
41
1
10
63.1852465538313
20
5.60760956602988
30
0
41
1
10
63.2553391177155
20
6.05190145622561
30
0
41
1
10
63.5990807470927
20
6.69161611951591
30
0
41
1
10
63.8546360287282
20
6.95508433729284
30
0
41
1
10
64.6830569433976
20
7.64922496886592
30
0
41
1
10
65.3370297300123
20
7.99356281189333
30
0
41
1
10
66.6977662252049
20
8.5668853694298
30
0
41
1
10
67.420713851847
20
8.796620314742
30
0
41
1
10
68.5318826827634
20
9.04435924669403
30
0
41
1
10
68.9085374360312
20
9.11164684333184
30
0
41
1
10
69.6776081821737
20
9.18490960245097
30
0
41
1
10
70.0831968525337
20
9.21969432829727
30
0
41
1
10
70.4470777814724
20
9.07813119817621
30
0
0
SPLINE
5
D5
100
AcDbEntity
8
1
62
256
6
ByLayer
370
-1
48
1
60
0
100
AcDbSpline
70
4
71
3
72
16
73
12
40
0
40
0
40
0
40
0
40
0.267372091523256
40
0.267372091523256
40
0.600855844067868
40
0.600855844067868
40
0.762574643716911
40
0.762574643716911
40
0.898037673161716
40
0.898037673161716
40
1
40
1
40
1
40
1
41
1
10
6.66339745962154
20
-19.0245744101322
30
0
41
1
10
6.67334240635006
20
-19.036266103658
30
0
41
1
10
6.68546814770986
20
-19.0477160699853
30
0
41
1
10
6.7192969694421
20
-19.0724552288877
30
0
41
1
10
6.74283026958983
20
-19.0857432838256
30
0
41
1
10
6.78884631127272
20
-19.1026287554228
30
0
41
1
10
6.80595658073201
20
-19.1077588484921
30
0
41
1
10
6.84135466156636
20
-19.1154700309997
30
0
41
1
10
6.85938079361097
20
-19.1183821582684
30
0
41
1
10
6.89283602717148
20
-19.1215414200073
30
0
41
1
10
6.90809932802136
20
-19.1222825906926
30
0
41
1
10
6.92320508075687
20
-19.1222825906926
30
0
0
SPLINE
5
D6
100
AcDbEntity
8
1
62
256
6
ByLayer
370
-1
48
1
60
0
100
AcDbSpline
70
4
71
3
72
16
73
12
40
0
40
0
40
0
40
0
40
0.26737209152312
40
0.26737209152312
40
0.600855844067793
40
0.600855844067793
40
0.762574643716858
40
0.762574643716858
40
0.898037673161672
40
0.898037673161672
40
1
40
1
40
1
40
1
41
1
10
9.33660254037846
20
19.0245744101322
30
0
41
1
10
9.32665759364994
20
19.036266103658
30
0
41
1
10
9.3145318522902
20
19.0477160699853
30
0
41
1
10
9.2807030305579
20
19.0724552288876
30
0
41
1
10
9.25716973041023
20
19.0857432838256
30
0
41
1
10
9.21115368872734
20
19.1026287554228
30
0
41
1
10
9.19404341926798
20
19.1077588484921
30
0
41
1
10
9.1586453384337
20
19.1154700309996
30
0
41
1
10
9.14061920638903
20
19.1183821582684
30
0
41
1
10
9.10716397282852
20
19.1215414200073
30
0
41
1
10
9.09190067197864
20
19.1222825906925
30
0
41
1
10
9.07679491924313
20
19.1222825906925
30
0
0
SPLINE
5
D7
100
AcDbEntity
8
1
62
256
6
ByLayer
370
-1
48
1
60
0
100
AcDbSpline
70
4
71
3
72
18
73
14
40
0
40
0
40
0
40
0
40
0.0074698584964846
40
0.0074698584964846
40
0.116973966194816
40
0.116973966194816
40
0.258725811908727
40
0.258725811908727
40
0.483357667469355
40
0.483357667469355
40
0.91437209527524
40
0.91437209527524
40
1
40
1
40
1
40
1
41
1
10
9.07679491924307
20
-19.1222825906926
30
0
41
1
10
9.07791531278104
20
-19.1222825906926
30
0
41
1
10
9.07903578618209
20
-19.122278667842
30
0
41
1
10
9.09637412624431
20
-19.1221572838471
30
0
41
1
10
9.11270417149058
20
-19.1211855627664
30
0
41
1
10
9.1475850522387
20
-19.1174067506416
30
0
41
1
10
9.16596173018905
20
-19.1141200721534
30
0
41
1
10
9.20810355067709
20
-19.1041233146922
30
0
41
1
10
9.22982072744469
20
-19.0964050302577
30
0
41
1
10
9.28328154913385
20
-19.0724543460921
30
0
41
1
10
9.30783261541364
20
-19.0543706588151
30
0
41
1
10
9.32995866734097
20
-19.0320887998676
30
0
41
1
10
9.33339464013244
20
-19.0283457512527
30
0
41
1
10
9.33660254037841
20
-19.0245744101322
30
0
0
SPLINE
5
D8
100
AcDbEntity
8
1
62
256
6
ByLayer
370
-1
48
1
60
0
100
AcDbSpline
70
4
71
3
72
18
73
14
40
0
40
0
40
0
40
0
40
0.0074698584964884
40
0.0074698584964884
40
0.116973966194809
40
0.116973966194809
40
0.258725811908718
40
0.258725811908718
40
0.483357667469339
40
0.483357667469339
40
0.914372095275223
40
0.914372095275223
40
1
40
1
40
1
40
1
41
1
10
9.07679491924307
20
5.85988980456929
30
0
41
1
10
9.07791531278104
20
5.85988980456929
30
0
41
1
10
9.07903578618209
20
5.85990260585533
30
0
41
1
10
9.09637412624431
20
5.86029870927979
30
0
41
1
10
9.11270417149058
20
5.8634711769441
30
0
41
1
10
9.1475850522387
20
5.87578180524309
30
0
41
1
10
9.16596173018905
20
5.8864748710601
30
0
41
1
10
9.20810355067709
20
5.91885996191004
30
0
41
1
10
9.22982072744469
20
5.94374247779547
30
0
41
1
10
9.28328154913385
20
6.02032056207824
30
0
41
1
10
9.30783261541364
20
6.07738634703668
30
0
41
1
10
9.32995866734097
20
6.14652276485666
30
0
41
1
10
9.33339464013244
20
6.15810095961672
30
0
41
1
10
9.33660254037841
20
6.16973001948557
30
0
0
SPLINE
5
D9
100
AcDbEntity
8
1
62
256
6
ByLayer
370
-1
48
1
60
0
100
AcDbSpline
70
4
71
3
72
16
73
12
40
0
40
0
40
0
40
0
40
0.267372091523283
40
0.267372091523283
40
0.600855844067897
40
0.600855844067897
40
0.762574643716936
40
0.762574643716936
40
0.898037673161731
40
0.898037673161731
40
1
40
1
40
1
40
1
41
1
10
6.66339745962154
20
6.1697300194856
30
0
41
1
10
6.67334240635006
20
6.13367828095576
30
0
41
1
10
6.68546814770986
20
6.09801792960664
30
0
41
1
10
6.7192969694421
20
6.02025855383837
30
0
41
1
10
6.74283026958983
20
5.9779480294857
30
0
41
1
10
6.78884631127272
20
5.92367470492701
30
0
41
1
10
6.80595658073201
20
5.90709361727346
30
0
41
1
10
6.84135466156636
20
5.88208699512387
30
0
41
1
10
6.85938079361097
20
5.87260601127599
30
0
41
1
10
6.89283602717148
20
5.86230971122501
30
0
41
1
10
6.90809932802136
20
5.85988980456929
30
0
41
1
10
6.92320508075687
20
5.85988980456929
30
0
0
SPLINE
5
DA
100
AcDbEntity
8
1
62
256
6
ByLayer
370
-1
48
1
60
0
100
AcDbSpline
70
4
71
3
72
8
73
4
40
0
40
0
40
0
40
0
40
1
40
1
40
1
40
1
41
1
10
87.5636596027531
20
4.17510153820041
30
0
41
1
10
87.5665549696589
20
4.14644726279283
30
0
41
1
10
87.5673451314659
20
4.11680267232174
30
0
41
1
10
87.5657258099986
20
4.08624112887108
30
0
0
SPLINE
5
DB
100
AcDbEntity
8
1
62
256
6
ByLayer
370
-1
48
1
60
0
100
AcDbSpline
70
4
71
3
72
18
73
14
40
0
40
0
40
0
40
0
40
0.0074698584964997
40
0.0074698584964997
40
0.116973966194809
40
0.116973966194809
40
0.258725811908725
40
0.258725811908725
40
0.483357667469371
40
0.483357667469371
40
0.914372095275296
40
0.914372095275296
40
1
40
1
40
1
40
1
41
1
10
6.92320508075693
20
-5.85988980456943
30
0
41
1
10
6.92208468721896
20
-5.85988980456943
30
0
41
1
10
6.92096421381791
20
-5.85990260585547
30
0
41
1
10
6.90362587375569
20
-5.86029870927993
30
0
41
1
10
6.88729582850942
20
-5.86347117694424
30
0
41
1
10
6.8524149477613
20
-5.87578180524324
30
0
41
1
10
6.83403826981095
20
-5.88647487106027
30
0
41
1
10
6.7918964493229
20
-5.91885996191019
30
0
41
1
10
6.77017927255531
20
-5.94374247779564
30
0
41
1
10
6.71671845086615
20
-6.02032056207844
30
0
41
1
10
6.69216738458636
20
-6.07738634703685
30
0
41
1
10
6.67004133265903
20
-6.14652276485683
30
0
41
1
10
6.66660535986756
20
-6.15810095961689
30
0
41
1
10
6.66339745962159
20
-6.16973001948574
30
0
0
SPLINE
5
DC
100
AcDbEntity
8
1
62
256
6
ByLayer
370
-1
48
1
60
0
100
AcDbSpline
70
4
71
3
72
18
73
14
40
0
40
0
40
0
40
0
40
0.0074698584965012
40
0.0074698584965012
40
0.116973966194809
40
0.116973966194809
40
0.25872581190871
40
0.25872581190871
40
0.483357667469334
40
0.483357667469334
40
0.914372095275209
40
0.914372095275209
40
1
40
1
40
1
40
1
41
1
10
6.92320508075693
20
19.1222825906925
30
0
41
1
10
6.92208468721896
20
19.1222825906925
30
0
41
1
10
6.92096421381791
20
19.122278667842
30
0
41
1
10
6.90362587375569
20
19.1221572838471
30
0
41
1
10
6.88729582850942
20
19.1211855627664
30
0
41
1
10
6.8524149477613
20
19.1174067506415
30
0
41
1
10
6.83403826981095
20
19.1141200721533
30
0
41
1
10
6.7918964493229
20
19.1041233146922
30
0
41
1
10
6.77017927255531
20
19.0964050302576
30
0
41
1
10
6.71671845086621
20
19.072454346092
30
0
41
1
10
6.69216738458636
20
19.054370658815
30
0
41
1
10
6.67004133265903
20
19.0320887998676
30
0
41
1
10
6.66660535986762
20
19.0283457512526
30
0
41
1
10
6.66339745962159
20
19.0245744101322
30
0
0
SPLINE
5
DD
100
AcDbEntity
8
1
62
256
6
ByLayer
370
-1
48
1
60
0
100
AcDbSpline
70
4
71
3
72
16
73
12
40
0
40
0
40
0
40
0
40
0.26737209152346
40
0.26737209152346
40
0.600855844067949
40
0.600855844067949
40
0.762574643716998
40
0.762574643716998
40
0.898037673161785
40
0.898037673161785
40
1
40
1
40
1
40
1
41
1
10
9.33660254037846
20
-6.16973001948571
30
0
41
1
10
9.32665759364994
20
-6.13367828095585
30
0
41
1
10
9.31453185229014
20
-6.0980179296067
30
0
41
1
10
9.28070303055785
20
-6.02025855383846
30
0
41
1
10
9.25716973041017
20
-5.97794802948579
30
0
41
1
10
9.21115368872728
20
-5.92367470492709
30
0
41
1
10
9.19404341926793
20
-5.90709361727357
30
0
41
1
10
9.15864533843364
20
-5.88208699512398
30
0
41
1
10
9.14061920638903
20
-5.87260601127613
30
0
41
1
10
9.10716397282852
20
-5.86230971122512
30
0
41
1
10
9.09190067197864
20
-5.85988980456943
30
0
41
1
10
9.07679491924313
20
-5.85988980456943
30
0
0
SPLINE
5
DE
100
AcDbEntity
8
SK1
62
256
6
ByLayer
370
-1
48
1
60
0
100
AcDbSpline
70
4
71
3
72
8
73
4
40
0
40
0
40
0
40
0
40
1
40
1
40
1
40
1
41
1
10
-1.49999999999989
20
2.55452876952822
30
0
41
1
10
-1.44087207369961
20
2.90701199552916
30
0
41
1
10
-1.37532387973016
20
3.25201982801605
30
0
41
1
10
-1.30710678118652
20
3.58871725126215
30
0
0
SPLINE
5
DF
100
AcDbEntity
8
SK1
62
256
6
ByLayer
370
-1
48
1
60
0
100
AcDbSpline
70
4
71
3
72
30
73
26
40
0
40
0
40
0
40
0
40
0.323683715287821
40
0.323683715287821
40
0.409735865249923
40
0.409735865249923
40
0.452928625832081
40
0.452928625832081
40
0.468145406180671
40
0.468145406180671
40
0.475617260213128
40
0.475617260213128
40
0.481869520397867
40
0.481869520397867
40
0.48817626052579
40
0.48817626052579
40
0.495259728072395
40
0.495259728072395
40
0.507216161807773
40
0.507216161807773
40
0.544450808915845
40
0.544450808915845
40
0.715771905876251
40
0.715771905876251
40
1
40
1
40
1
40
1
41
1
10
-1.69996145737014
20
2.58069190327925
30
0
41
1
10
-1.69957279427672
20
2.45735174741614
30
0
41
1
10
-1.69747943572611
20
2.33275959372483
30
0
41
1
10
-1.68280786661541
20
2.17510563663223
30
0
41
1
10
-1.6790531264358
20
2.14178513841156
30
0
41
1
10
-1.66982584439813
20
2.09257517130857
30
0
41
1
10
-1.66622418704014
20
2.07599882381985
30
0
41
1
10
-1.65853526999024
20
2.05523575475587
30
0
41
1
10
-1.65621727335139
20
2.04990011502019
30
0
41
1
10
-1.65190392784495
20
2.04295844851055
30
0
41
1
10
-1.65031465018177
20
2.04081354663947
30
0
41
1
10
-1.64708474378222
20
2.03758976610058
30
0
41
1
10
-1.64546025470031
20
2.03637666738331
30
0
41
1
10
-1.64208683909158
20
2.03484515225668
30
0
41
1
10
-1.64029350998902
20
2.0345257545506
30
0
41
1
10
-1.63665124005524
20
2.03480200364953
30
0
41
1
10
-1.63476836522864
20
2.03549609263416
30
0
41
1
10
-1.63011332934303
20
2.03820563111981
30
0
41
1
10
-1.62749907113709
20
2.04079535648785
30
0
41
1
10
-1.61785331798274
20
2.05253646839518
30
0
41
1
10
-1.61239259265159
20
2.06415551700681
30
0
41
1
10
-1.58481103440909
20
2.12952424336697
30
0
41
1
10
-1.57120245893441
20
2.19071878810982
30
0
41
1
10
-1.53537272921415
20
2.35076653698448
30
0
41
1
10
-1.51709733996256
20
2.45260526361207
30
0
41
1
10
-1.49999999999989
20
2.55452876952825
30
0
0
SPLINE
5
E0
100
AcDbEntity
8
SK1
62
256
6
ByLayer
370
-1
48
1
60
0
100
AcDbSpline
70
4
71
3
72
8
73
4
40
0
40
0
40
0
40
0
40
1
40
1
40
1
40
1
41
1
10
-1.30710678118652
20
-3.5887172715492
30
0
41
1
10
-1.37532422566159
20
-3.25201925983745
30
0
41
1
10
-1.44087263133542
20
-2.90701066801501
30
0
41
1
10
-1.49999999999989
20
-2.55452633951475
30
0
0
SPLINE
5
E1
100
AcDbEntity
8
SK1
62
256
6
ByLayer
370
-1
48
1
60
0
100
AcDbSpline
70
4
71
3
72
22
73
18
40
0
40
0
40
0
40
0
40
0.0595258214859284
40
0.0595258214859284
40
0.105568894829459
40
0.105568894829459
40
0.142277186834084
40
0.142277186834084
40
0.178981358892391
40
0.178981358892391
40
0.229954859327503
40
0.229954859327503
40
0.321691642302811
40
0.321691642302811
40
0.612167812350022
40
0.612167812350022
40
1
40
1
40
1
40
1
41
1
10
-0.399999999999977
20
13.8205590132786
30
0
41
1
10
-0.394013511242747
20
13.8207198641373
30
0
41
1
10
-0.387438377041576
20
13.8211277948213
30
0
41
1
10
-0.374607857819001
20
13.8226095541097
30
0
41
1
10
-0.368494470268672
20
13.8235344490986
30
0
41
1
10
-0.357073302473168
20
13.8258132771122
30
0
41
1
10
-0.351741572367757
20
13.8270713477329
30
0
41
1
10
-0.34140996003066
20
13.8299215021952
30
0
41
1
10
-0.336294849042872
20
13.831543966011
30
0
41
1
10
-0.325054468279177
20
13.8355258548496
30
0
41
1
10
-0.319101901704414
20
13.8379842992552
30
0
41
1
10
-0.304411347490543
20
13.8446767815525
30
0
41
1
10
-0.296779548188397
20
13.8489171706104
30
0
41
1
10
-0.269692663824287
20
13.8655029311592
30
0
41
1
10
-0.257826564745358
20
13.8765532193897
30
0
41
1
10
-0.235124081103891
20
13.8999306105895
30
0
41
1
10
-0.225788536075299
20
13.9118728961634
30
0
41
1
10
-0.219011124100007
20
13.9226732108115
30
0
0
SPLINE
5
E2
100
AcDbEntity
8
SK1
62
256
6
ByLayer
370
-1
48
1
60
0
100
AcDbSpline
70
4
71
3
72
24
73
20
40
0
40
0
40
0
40
0
40
0.0301438054682626
40
0.0301438054682626
40
0.0534484785704926
40
0.0534484785704926
40
0.0720095400082129
40
0.0720095400082129
40
0.0905695383101134
40
0.0905695383101134
40
0.116305960787128
40
0.116305960787128
40
0.162592546214773
40
0.162592546214773
40
0.309069601694218
40
0.309069601694218
40
0.921117608952043
40
0.921117608952043
40
1
40
1
40
1
40
1
41
1
10
-0.39999999999992
20
-4.85227456454996
30
0
41
1
10
-0.394020023648125
20
-4.84686859936412
30
0
41
1
10
-0.38745185957265
20
-4.84195482474243
30
0
41
1
10
-0.374634642632827
20
-4.83535851489759
30
0
41
1
10
-0.36852859233727
20
-4.8331693070069
30
0
41
1
10
-0.357122680087116
20
-4.83148108534394
30
0
41
1
10
-0.351799999816137
20
-4.83153855404609
30
0
41
1
10
-0.341483048247653
20
-4.83346410195867
30
0
41
1
10
-0.336373704588141
20
-4.83534876772512
30
0
41
1
10
-0.325154856426082
20
-4.84135562492241
30
0
41
1
10
-0.319215535802016
20
-4.84610423757906
30
0
41
1
10
-0.304561922415417
20
-4.86072267449359
30
0
41
1
10
-0.296947393086157
20
-4.87187082056749
30
0
41
1
10
-0.269928948964264
20
-4.91910282403435
30
0
41
1
10
-0.258077067230204
20
-4.95889086918967
30
0
41
1
10
-0.207846446885696
20
-5.16015067546422
30
0
41
1
10
-0.202576938682455
20
-5.32517565344045
30
0
41
1
10
-0.200133226173534
20
-5.50577396851835
30
0
41
1
10
-0.199999999999932
20
-5.52643078383124
30
0
41
1
10
-0.199999999999932
20
-5.54704286105715
30
0
0
SPLINE
5
E3
100
AcDbEntity
8
SK1
62
256
6
ByLayer
370
-1
48
1
60
0
100
AcDbSpline
70
4
71
3
72
24
73
20
40
0
40
0
40
0
40
0
40
0.394875644104776
40
0.394875644104776
40
0.580237478202818
40
0.580237478202818
40
0.768024594545524
40
0.768024594545524
40
0.821318184582328
40
0.821318184582328
40
0.86063645050671
40
0.86063645050671
40
0.893544596745066
40
0.893544596745066
40
0.926376480305815
40
0.926376480305815
40
0.975583602956219
40
0.975583602956219
40
1
40
1
40
1
40
1
41
1
10
-1.30710678118703
20
-3.58871727154681
30
0
41
1
10
-1.25970314050051
20
-3.82268545505016
30
0
41
1
10
-1.20268951681544
20
-4.0522990637061
30
0
41
1
10
-1.088442965686
20
-4.37621064451773
30
0
41
1
10
-1.047217807636
20
-4.47806704652851
30
0
41
1
10
-0.946498347972181
20
-4.67402400407769
30
0
41
1
10
-0.887649711538188
20
-4.77181850306434
30
0
41
1
10
-0.778611976213313
20
-4.87193345154523
30
0
41
1
10
-0.751538353604587
20
-4.89265008986257
30
0
41
1
10
-0.69905062310346
20
-4.92098681441374
30
0
41
1
10
-0.674564059132251
20
-4.93073454927372
30
0
41
1
10
-0.627610440444357
20
-4.94089837201273
30
0
41
1
10
-0.604990345651117
20
-4.94257917258165
30
0
41
1
10
-0.561019153025597
20
-4.93928086468458
30
0
41
1
10
-0.539185873337146
20
-4.9343220454893
30
0
41
1
10
-0.488505513252846
20
-4.91611333631423
30
0
41
1
10
-0.460609299544501
20
-4.89990010346509
30
0
41
1
10
-0.423195770996927
20
-4.87233551414784
30
0
41
1
10
-0.411325532072283
20
-4.86251297160928
30
0
41
1
10
-0.39999999999992
20
-4.85227456454996
30
0
0
SPLINE
5
E4
100
AcDbEntity
8
SK1
62
256
6
ByLayer
370
-1
48
1
60
0
100
AcDbSpline
70
4
71
3
72
30
73
26
40
0
40
0
40
0
40
0
40
0.124897922391279
40
0.124897922391279
40
0.167561104039823
40
0.167561104039823
40
0.203477104541845
40
0.203477104541845
40
0.240104439326221
40
0.240104439326221
40
0.250944368985498
40
0.250944368985498
40
0.261968600588396
40
0.261968600588396
40
0.271359827232232
40
0.271359827232232
40
0.284980205918424
40
0.284980205918424
40
0.31124172552857
40
0.31124172552857
40
0.406685756993062
40
0.406685756993062
40
0.786544903778678
40
0.786544903778678
40
1
40
1
40
1
40
1
41
1
10
-1.57434200672611
20
13.5697524952529
30
0
41
1
10
-1.58142388217658
20
13.5659826201094
30
0
41
1
10
-1.5890363536472
20
13.5626863620185
30
0
41
1
10
-1.6013072359338
20
13.5605634744677
30
0
41
1
10
-1.60462784617891
20
13.5602351852046
30
0
41
1
10
-1.61136477270867
20
13.5603829527657
30
0
41
1
10
-1.6146830542956
20
13.5607248602462
30
0
41
1
10
-1.62228239094077
20
13.5626439304685
30
0
41
1
10
-1.62665165692869
20
13.5641658144187
30
0
41
1
10
-1.633716248285
20
13.5686250506848
30
0
41
1
10
-1.6354830178696
20
13.5698688039791
30
0
41
1
10
-1.63916555696898
20
13.5728313577292
30
0
41
1
10
-1.64113772385815
20
13.5746110950765
30
0
41
1
10
-1.64462082807188
20
13.5781471549731
30
0
41
1
10
-1.64619573481406
20
13.5799049614575
30
0
41
1
10
-1.64972043997636
20
13.584157849073
30
0
41
1
10
-1.65159006135411
20
13.5866989919877
30
0
41
1
10
-1.65639599432831
20
13.5937562155754
30
0
41
1
10
-1.65888709683196
20
13.598117184021
30
0
41
1
10
-1.66876077054769
20
13.6169304791085
30
0
41
1
10
-1.67291602816357
20
13.6292362105215
30
0
41
1
10
-1.69081671913955
20
13.6869666460463
30
0
41
1
10
-1.69435307535019
20
13.7234530454499
30
0
41
1
10
-1.69876945362603
20
13.7776281868664
30
0
41
1
10
-1.69958314545909
20
13.7961831676943
30
0
41
1
10
-1.69987639962216
20
13.8139891097792
30
0
0
SPLINE
5
E5
100
AcDbEntity
8
SK1
62
256
6
ByLayer
370
-1
48
1
60
0
100
AcDbSpline
70
4
71
3
72
33
73
29
40
0
40
0
40
0
40
0
40
0.0059999172002414
40
0.0460661204192662
40
0.0861323236382909
40
0.126198526857316
40
0.16626473007634
40
0.206330933295365
40
0.24639713651439
40
0.286463339733415
40
0.32652954295244
40
0.366595746171464
40
0.406661949390489
40
0.446728152609514
40
0.486794355828539
40
0.526860559047563
40
0.566926762266588
40
0.606992965485613
40
0.647059168704638
40
0.687125371923662
40
0.727191575142687
40
0.767257778361712
40
0.807323981580737
40
0.847390184799761
40
0.887456388018786
40
0.927522591237811
40
0.967588794456836
40
1
40
1
40
1
40
1
41
1
10
-1.49999999999989
20
-2.55452633951475
30
0
41
1
10
-1.49999999999989
20
-2.57758935777625
30
0
41
1
10
-1.49999999999989
20
-2.75563386385181
30
0
41
1
10
-1.49999999999989
20
-3.10259085919483
30
0
41
1
10
-1.49999999999989
20
-3.62131828040256
30
0
41
1
10
-1.49999999999989
20
-4.17356946094313
30
0
41
1
10
-1.49999999999989
20
-4.75691744833273
30
0
41
1
10
-1.49999999999989
20
-5.36758879010387
30
0
41
1
10
-1.49999999999989
20
-6.00058584498379
30
0
41
1
10
-1.49999999999989
20
-6.64985057156352
30
0
41
1
10
-1.49999999999989
20
-7.30846436616247
30
0
41
1
10
-1.49999999999989
20
-7.96888181888042
30
0
41
1
10
-1.49999999999989
20
-8.62318035716163
30
0
41
1
10
-1.49999999999989
20
-9.26332810646636
30
0
41
1
10
-1.49999999999989
20
-9.88144543350359
30
0
41
1
10
-1.49999999999989
20
-10.4700665265398
30
0
41
1
10
-1.49999999999994
20
-11.022373431452
30
0
41
1
10
-1.49999999999994
20
-11.5324122627522
30
0
41
1
10
-1.49999999999994
20
-11.9952648181666
30
0
41
1
10
-1.49999999999994
20
-12.4071875603976
30
0
41
1
10
-1.49999999999994
20
-12.7656956859389
30
0
41
1
10
-1.49999999999994
20
-13.0696050688166
30
0
41
1
10
-1.49999999999994
20
-13.3190172436223
30
0
41
1
10
-1.49999999999994
20
-13.5152595263794
30
0
41
1
10
-1.49999999999994
20
-13.6607746658667
30
0
41
1
10
-1.49999999999994
20
-13.7589698929487
30
0
41
1
10
-1.49999999999994
20
-13.8105242760186
30
0
41
1
10
-1.49999999999994
20
-13.8227877021916
30
0
41
1
10
-1.49999999999994
20
-13.8245323396283
30
0
0
SPLINE
5
E6
100
AcDbEntity
8
SK1
62
256
6
ByLayer
370
-1
48
1
60
0
100
AcDbSpline
70
4
71
3
72
73
73
69
40
0
40
0
40
0
40
0
40
0.0021269019394747
40
0.0175876598887031
40
0.0330484178379314
40
0.0485091757871598
40
0.0639699337363882
40
0.0794306916856166
40
0.094891449634845
40
0.110352207584073
40
0.125812965533302
40
0.14127372348253
40
0.156734481431759
40
0.172195239380987
40
0.187655997330215
40
0.203116755279444
40
0.218577513228672
40
0.234038271177901
40
0.249499029127129
40
0.264959787076357
40
0.280420545025586
40
0.295881302974814
40
0.311342060924042
40
0.326802818873271
40
0.342263576822499
40
0.357724334771728
40
0.373185092720956
40
0.388645850670184
40
0.404106608619413
40
0.419567366568641
40
0.43502812451787
40
0.450488882467098
40
0.465949640416326
40
0.481410398365555
40
0.496871156314783
40
0.512331914264012
40
0.52779267221324
40
0.543253430162468
40
0.558714188111697
40
0.574174946060925
40
0.589635704010154
40
0.605096461959382
40
0.62055721990861
40
0.636017977857839
40
0.651478735807067
40
0.666939493756295
40
0.682400251705524
40
0.697861009654752
40
0.713321767603981
40
0.728782525553209
40
0.744243283502438
40
0.759704041451666
40
0.775164799400894
40
0.790625557350123
40
0.806086315299351
40
0.821547073248579
40
0.837007831197808
40
0.852468589147036
40
0.867929347096265
40
0.883390105045493
40
0.898850862994721
40
0.91431162094395
40
0.929772378893178
40
0.945233136842407
40
0.960693894791635
40
0.976154652740863
40
0.991615410690092
40
1
40
1
40
1
40
1
41
1
10
-22.5004731679057
20
13.2758819190878
30
0
41
1
10
-22.5004731679057
20
13.2802062554133
30
0
41
1
10
-22.5004731679057
20
13.3155954383733
30
0
41
1
10
-22.5004731679057
20
13.3761852100001
30
0
41
1
10
-22.5004731679057
20
13.4428288363681
30
0
41
1
10
-22.5004731679057
20
13.4866768366259
30
0
41
1
10
-22.5004731679057
20
13.5029401449552
30
0
41
1
10
-22.5004731679057
20
13.4866735728523
30
0
41
1
10
-22.5004731679057
20
13.4330108195395
30
0
41
1
10
-22.5004731679057
20
13.337397000512
30
0
41
1
10
-22.5004731679057
20
13.1958202698685
30
0
41
1
10
-22.5004731679057
20
13.0050138959382
30
0
41
1
10
-22.5004731679057
20
12.7626398072662
30
0
41
1
10
-22.5004731679057
20
12.4674309788965
30
0
41
1
10
-22.5004731679057
20
12.1192984726134
30
0
41
1
10
-22.5004731679057
20
11.7193888839714
30
0
41
1
10
-22.5004731679057
20
11.2700975146
30
0
41
1
10
-22.5004731679057
20
10.7750305295073
30
0
41
1
10
-22.5004731679057
20
10.2389206082719
30
0
41
1
10
-22.5004731679056
20
9.66749825781358
30
0
41
1
10
-22.5004731679056
20
9.06732135073148
30
0
41
1
10
-22.5004731679056
20
8.44557410053281
30
0
41
1
10
-22.5004731679056
20
7.80983526623564
30
0
41
1
10
-22.5004731679056
20
7.16783457729306
30
0
41
1
10
-22.5004731679056
20
6.52719401685732
30
0
41
1
10
-22.5004731679056
20
5.89517825258659
30
0
41
1
10
-22.5004731679056
20
5.27844782766641
30
0
41
1
10
-22.5004731679056
20
4.68284136974694
30
0
41
1
10
-22.5004731679056
20
4.11317803178852
30
0
41
1
10
-22.5004731679056
20
3.57310471645678
30
0
41
1
10
-22.5004731679056
20
3.06497793170669
30
0
41
1
10
-22.5004731679056
20
2.58979965981251
30
0
41
1
10
-22.5004731679056
20
2.14719700401545
30
0
41
1
10
-22.5004731679056
20
1.73545710126746
30
0
41
1
10
-22.5004731679056
20
1.35160831830677
30
0
41
1
10
-22.5004731679056
20
0.99154975841634
30
0
41
1
10
-22.5004731679056
20
0.650222532349147
30
0
41
1
10
-22.5004731679056
20
0.321815193057716
30
0
41
1
10
-22.5004731679056
20
6.8677366E-08
30
0
41
1
10
-22.5004731679056
20
-0.321815467767209
30
0
41
1
10
-22.5004731679056
20
-0.6502224058938
30
0
41
1
10
-22.5004731679056
20
-0.991549989528409
30
0
41
1
10
-22.5004731679056
20
-1.35160822294216
30
0
41
1
10
-22.5004731679056
20
-1.73545725161398
30
0
41
1
10
-22.5004731679056
20
-2.147196955358
30
0
41
1
10
-22.5004731679056
20
-2.58979970409598
30
0
41
1
10
-22.5004731679056
20
-3.06497793851142
30
0
41
1
10
-22.5004731679056
20
-3.57310464495464
30
0
41
1
10
-22.5004731679056
20
-4.11317809469654
30
0
41
1
10
-22.5004731679056
20
-4.68284118961728
30
0
41
1
10
-22.5004731679056
20
-5.27844793917419
30
0
41
1
10
-22.5004731679056
20
-5.8951779866853
30
0
41
1
10
-22.5004731679056
20
-6.52719416250756
30
0
41
1
10
-22.5004731679056
20
-7.16783426059354
30
0
41
1
10
-22.5004731679056
20
-7.80983542682932
30
0
41
1
10
-22.5004731679056
20
-8.44557377485773
30
0
41
1
10
-22.5004731679056
20
-9.06732150524965
30
0
41
1
10
-22.5004731679056
20
-9.66749796541603
30
0
41
1
10
-22.5004731679057
20
-10.2389207370426
30
0
41
1
10
-22.5004731679057
20
-10.7750303068224
30
0
41
1
10
-22.5004731679057
20
-11.2700976022241
30
0
41
1
10
-22.5004731679057
20
-11.7193887561596
30
0
41
1
10
-22.5004731679057
20
-12.1192985102377
30
0
41
1
10
-22.5004731679057
20
-12.4674309562112
30
0
41
1
10
-22.5004731679057
20
-12.7626397938224
30
0
41
1
10
-22.5004731679057
20
-13.0050139723987
30
0
41
1
10
-22.5004731679057
20
-13.1667104462908
30
0
41
1
10
-22.5004731679057
20
-13.2452876128955
30
0
41
1
10
-22.5004731679057
20
-13.2705909223857
30
0
0
SPLINE
5
E7
100
AcDbEntity
8
SK1
62
256
6
ByLayer
370
-1
48
1
60
0
100
AcDbSpline
70
4
71
3
72
79
73
75
40
0
40
0
40
0
40
0
40
0.0069311075253428
40
0.0210187902978691
40
0.0351064730703953
40
0.0491941558429215
40
0.0632818386154478
40
0.0773695213879741
40
0.0914572041605003
40
0.105544886933026
40
0.119632569705553
40
0.133720252478079
40
0.147807935250605
40
0.161895618023131
40
0.175983300795658
40
0.190070983568184
40
0.20415866634071
40
0.218246349113237
40
0.232334031885763
40
0.246421714658289
40
0.260509397430815
40
0.274597080203341
40
0.288684762975868
40
0.302772445748394
40
0.31686012852092
40
0.330947811293447
40
0.345035494065973
40
0.359123176838499
40
0.373210859611025
40
0.387298542383551
40
0.401386225156078
40
0.415473907928604
40
0.42956159070113
40
0.443649273473656
40
0.457736956246183
40
0.471824639018709
40
0.485912321791235
40
0.500000004563761
40
0.514087687336288
40
0.528175370108814
40
0.54226305288134
40
0.556350735653866
40
0.570438418426393
40
0.584526101198919
40
0.598613783971445
40
0.612701466743971
40
0.626789149516498
40
0.640876832289024
40
0.65496451506155
40
0.669052197834076
40
0.683139880606603
40
0.697227563379129
40
0.711315246151655
40
0.725402928924181
40
0.739490611696708
40
0.753578294469234
40
0.76766597724176
40
0.781753660014286
40
0.795841342786813
40
0.809929025559339
40
0.824016708331865
40
0.838104391104391
40
0.852192073876918
40
0.866279756649444
40
0.88036743942197
40
0.894455122194496
40
0.908542804967023
40
0.922630487739549
40
0.936718170512075
40
0.950805853284601
40
0.964893536057128
40
0.978981218829654
40
0.99306890160218
40
1
40
1
40
1
40
1
41
1
10
-2.5
20
-13.8300380008039
30
0
41
1
10
-2.5
20
-13.8443994546755
30
0
41
1
10
-2.5
20
-13.8858550854485
30
0
41
1
10
-2.5
20
-13.9432745301022
30
0
41
1
10
-2.5
20
-13.9887542441536
30
0
41
1
10
-2.5
20
-14.0056234056246
30
0
41
1
10
-2.5
20
-13.988752133348
30
0
41
1
10
-2.5
20
-13.9330904587156
30
0
41
1
10
-2.5
20
-13.8339177083708
30
0
41
1
10
-2.5
20
-13.6870701821128
30
0
41
1
10
-2.5
20
-13.4891606659135
30
0
41
1
10
-2.5
20
-13.2377634553435
30
0
41
1
10
-2.5
20
-12.9315646731672
30
0
41
1
10
-2.5
20
-12.5704720586786
30
0
41
1
10
-2.49999999999994
20
-12.1556745862519
30
0
41
1
10
-2.49999999999994
20
-11.6896573582757
30
0
41
1
10
-2.49999999999994
20
-11.1761598486008
30
0
41
1
10
-2.49999999999994
20
-10.6200921552756
30
0
41
1
10
-2.49999999999994
20
-10.0273966309962
30
0
41
1
10
-2.49999999999994
20
-9.40487698463008
30
0
41
1
10
-2.49999999999994
20
-8.75998301936997
30
0
41
1
10
-2.49999999999994
20
-8.10057759802723
30
0
41
1
10
-2.49999999999994
20
-7.43467620819112
30
0
41
1
10
-2.49999999999994
20
-6.77018655593477
30
0
41
1
10
-2.49999999999994
20
-6.11464187468977
30
0
41
1
10
-2.49999999999994
20
-5.47495238907831
30
0
41
1
10
-2.49999999999994
20
-4.85717257311447
30
0
41
1
10
-2.49999999999994
20
-4.26630223424849
30
0
41
1
10
-2.49999999999994
20
-3.70612309484702
30
0
41
1
10
-2.49999999999994
20
-3.17908000235968
30
0
41
1
10
-2.49999999999994
20
-2.68621197756718
30
0
41
1
10
-2.49999999999994
20
-2.22713214869714
30
0
41
1
10
-2.49999999999994
20
-1.80006432484655
30
0
41
1
10
-2.49999999999994
20
-1.40192548161284
30
0
41
1
10
-2.49999999999994
20
-1.02846311010666
30
0
41
1
10
-2.49999999999994
20
-0.674428687296569
30
0
41
1
10
-2.49999999999994
20
-0.333795915844576
30
0
41
1
10
-2.49999999999994
20
7.12340693E-08
30
0
41
1
10
-2.49999999999994
20
0.333795630908241
30
0
41
1
10
-2.49999999999994
20
0.674428818459575
30
0
41
1
10
-2.49999999999994
20
1.02846287039082
30
0
41
1
10
-2.49999999999994
20
1.40192558052763
30
0
41
1
10
-2.49999999999994
20
1.80006416890296
30
0
41
1
10
-2.49999999999994
20
2.22713219916599
30
0
41
1
10
-2.49999999999994
20
2.68621193163514
30
0
41
1
10
-2.49999999999994
20
3.17907999530164
30
0
41
1
10
-2.49999999999994
20
3.70612316901105
30
0
41
1
10
-2.49999999999994
20
4.26630216899858
30
0
41
1
10
-2.49999999999994
20
4.85717275994992
30
0
41
1
10
-2.49999999999994
20
5.47495227341935
30
0
41
1
10
-2.49999999999994
20
6.11464215048997
30
0
41
1
10
-2.49999999999994
20
6.7701864048623
30
0
41
1
10
-2.49999999999994
20
7.43467653668063
30
0
41
1
10
-2.49999999999994
20
8.10057743145504
30
0
41
1
10
-2.49999999999994
20
8.75998335716918
30
0
41
1
10
-2.49999999999994
20
9.40487682435958
30
0
41
1
10
-2.49999999999994
20
10.027396934279
30
0
41
1
10
-2.49999999999994
20
10.6200920217111
30
0
41
1
10
-2.49999999999994
20
11.1761600795757
30
0
41
1
10
-2.49999999999994
20
11.6896572673894
30
0
41
1
10
-2.49999999999994
20
12.1556747188218
30
0
41
1
10
-2.5
20
12.5704720196536
30
0
41
1
10
-2.5
20
12.931564696697
30
0
41
1
10
-2.5
20
13.2377634692878
30
0
41
1
10
-2.5
20
13.4891605866066
30
0
41
1
10
-2.5
20
13.6870702420279
30
0
41
1
10
-2.5
20
13.8339175480175
30
0
41
1
10
-2.5
20
13.9330908491367
30
0
41
1
10
-2.5
20
13.9887513430622
30
0
41
1
10
-2.5
20
14.0056234821498
30
0
41
1
10
-2.5
20
13.9887547283385
30
0
41
1
10
-2.5
20
13.9432743681012
30
0
41
1
10
-2.5
20
13.8858549225244
30
0
41
1
10
-2.5
20
13.8443994049363
30
0
41
1
10
-2.5
20
13.8300379990088
30
0
0
SPLINE
5
E8
100
AcDbEntity
8
SK1
62
256
6
ByLayer
370
-1
48
1
60
0
100
AcDbSpline
70
4
71
3
72
36
73
32
40
0
40
0
40
0
40
0
40
0.0332996421666341
40
0.0332996421666341
40
0.0866295922416619
40
0.0866295922416619
40
0.193745270168884
40
0.193745270168884
40
0.247042319248779
40
0.247042319248779
40
0.300332977592923
40
0.300332977592923
40
0.353619292121433
40
0.353619292121433
40
0.460448184649849
40
0.460448184649849
40
0.513730575825556
40
0.513730575825556
40
0.620535716610854
40
0.620535716610854
40
0.673818292223676
40
0.673818292223676
40
0.7271023236074
40
0.7271023236074
40
0.833958376066595
40
0.833958376066595
40
0.88724878106689
40
0.88724878106689
40
0.994263406442903
40
0.994263406442903
40
1
40
1
40
1
40
1
41
1
10
-1.69996145737019
20
2.58069190327936
30
0
41
1
10
-1.69996429163041
20
2.80951695785709
30
0
41
1
10
-1.69996696089555
20
3.03562557775425
30
0
41
1
10
-1.699973337193
20
3.6157289366447
30
0
41
1
10
-1.69997671926922
20
3.96552379997851
30
0
41
1
10
-1.69998530650679
20
4.99113580073313
30
0
41
1
10
-1.69998901558614
20
5.6451156934246
30
0
41
1
10
-1.69999286236259
20
6.57296958257461
30
0
41
1
10
-1.69999386162709
20
6.87371338526046
30
0
41
1
10
-1.69999546843786
20
7.4583834927808
30
0
41
1
10
-1.69999607823138
20
7.74261790611689
30
0
41
1
10
-1.69999703744656
20
8.29417338948343
30
0
41
1
10
-1.69999738660749
20
8.56175046472268
30
0
41
1
10
-1.69999817831075
20
9.33946452185438
30
0
41
1
10
-1.69999837743336
20
9.82518649337788
30
0
41
1
10
-1.69999839575109
20
10.4996879381028
30
0
41
1
10
-1.69999835090124
20
10.7156644660853
30
0
41
1
10
-1.69999804475918
20
11.336874457689
30
0
41
1
10
-1.69999762619807
20
11.7157820313895
30
0
41
1
10
-1.69999631259481
20
12.2254945281863
30
0
41
1
10
-1.69999575688217
20
12.385732211918
30
0
41
1
10
-1.69999429236037
20
12.686096780789
30
0
41
1
10
-1.69999338656009
20
12.8263310062018
30
0
41
1
10
-1.69998989513294
20
13.2157140959206
30
0
41
1
10
-1.69998657603577
20
13.4338327645562
30
0
41
1
10
-1.69997869923833
20
13.6890552895256
30
0
41
1
10
-1.69997557888934
20
13.7622199088226
30
0
41
1
10
-1.69996421209731
20
13.9433027119529
30
0
41
1
10
-1.69995396430045
20
14.0130768516047
30
0
41
1
10
-1.69993838351945
20
14.0199514281955
30
0
41
1
10
-1.69993757578192
20
14.0201187474209
30
0
41
1
10
-1.69993675425064
20
14.0201000442182
30
0
0
SPLINE
5
E9
100
AcDbEntity
8
SK1
62
256
6
ByLayer
370
-1
48
1
60
0
100
AcDbSpline
70
4
71
3
72
26
73
22
40
0
40
0
40
0
40
0
40
0.469785788569223
40
0.469785788569223
40
0.668418514928441
40
0.668418514928441
40
0.804692954578532
40
0.804692954578532
40
0.873184756231219
40
0.873184756231219
40
0.896859155065293
40
0.896859155065293
40
0.920924484951571
40
0.920924484951571
40
0.939434470473137
40
0.939434470473137
40
0.957835931594602
40
0.957835931594602
40
0.988578442147356
40
0.988578442147356
40
1
40
1
40
1
40
1
41
1
10
-0.199999999999932
20
5.54704287025544
30
0
41
1
10
-0.199999999999932
20
5.42431718290925
30
0
41
1
10
-0.203964578956231
20
5.29966999710626
30
0
41
1
10
-0.224282767013278
20
5.12103358120197
30
0
41
1
10
-0.232179309049343
20
5.06756976720519
30
0
41
1
10
-0.252704740622107
20
4.978190210186
30
0
41
1
10
-0.262871079026354
20
4.94160900373799
30
0
41
1
10
-0.286311952507617
20
4.88949466422366
30
0
41
1
10
-0.295652382926335
20
4.87213340280371
30
0
41
1
10
-0.312747464259928
20
4.85229180429835
30
0
41
1
10
-0.317656735592436
20
4.84745945050676
30
0
41
1
10
-0.328573296848788
20
4.83925806030632
30
0
41
1
10
-0.334764979883005
20
4.83584014543155
30
0
41
1
10
-0.346232005513514
20
4.8322957525329
30
0
41
1
10
-0.35150620542197
20
4.83157582806544
30
0
41
1
10
-0.361702396533531
20
4.83188756629812
30
0
41
1
10
-0.366737314583702
20
4.83289323712492
30
0
41
1
10
-0.37930147980228
20
4.83714877172162
30
0
41
1
10
-0.386503100688515
20
4.84144785455825
30
0
41
1
10
-0.395398036299696
20
4.84826453743355
30
0
41
1
10
-0.397738018100881
20
4.85023021284434
30
0
41
1
10
-0.39999999999992
20
4.85227506835233
30
0
0
SPLINE
5
EA
100
AcDbEntity
8
SK1
62
256
6
ByLayer
370
-1
48
1
60
0
100
AcDbSpline
70
4
71
3
72
10
73
6
40
0
40
0
40
0
40
0
40
0.5
40
0.5
40
1
40
1
40
1
40
1
41
1
10
-1.69996145737099
20
2.58069190327947
30
0
41
1
10
-1.83066345631863
20
1.75993459600485
30
0
41
1
10
-1.92828862479951
20
0.882205733470045
30
0
41
1
10
-1.92884980393791
20
-0.873906280567809
30
0
41
1
10
-1.83183274904314
20
-1.75257870763846
30
0
41
1
10
-1.69996145715965
20
-2.5806889032381
30
0
0
SPLINE
5
EB
100
AcDbEntity
8
SK1
62
256
6
ByLayer
370
-1
48
1
60
0
100
AcDbSpline
70
4
71
3
72
27
73
23
40
0
40
0
40
0
40
0
40
0.0433318476030133
40
0.0944051784802365
40
0.14547850935746
40
0.196551840234683
40
0.247625171111906
40
0.29869850198913
40
0.349771832866353
40
0.400845163743576
40
0.451918494620799
40
0.502991825498022
40
0.554065156375245
40
0.605138487252469
40
0.656211818129692
40
0.707285149006915
40
0.758358479884139
40
0.809431810761362
40
0.860505141638585
40
0.911578472515808
40
0.962651803393031
40
1
40
1
40
1
40
1
41
1
10
-0.39999999999992
20
-4.85227456455002
30
0
41
1
10
-0.39999999999992
20
-5.02226873502778
30
0
41
1
10
-0.39999999999992
20
-5.3995711445526
30
0
41
1
10
-0.39999999999992
20
-6.00058584498379
30
0
41
1
10
-0.39999999999992
20
-6.64985057156352
30
0
41
1
10
-0.39999999999992
20
-7.30846436616247
30
0
41
1
10
-0.39999999999992
20
-7.96888181888042
30
0
41
1
10
-0.39999999999992
20
-8.62318035716163
30
0
41
1
10
-0.39999999999992
20
-9.26332810646636
30
0
41
1
10
-0.39999999999992
20
-9.88144543350359
30
0
41
1
10
-0.39999999999992
20
-10.4700665265398
30
0
41
1
10
-0.39999999999992
20
-11.022373431452
30
0
41
1
10
-0.39999999999992
20
-11.5324122627522
30
0
41
1
10
-0.39999999999992
20
-11.9952648181666
30
0
41
1
10
-0.39999999999992
20
-12.4071875603976
30
0
41
1
10
-0.39999999999992
20
-12.7656956859389
30
0
41
1
10
-0.399999999999977
20
-13.0696050688166
30
0
41
1
10
-0.399999999999977
20
-13.3190172436223
30
0
41
1
10
-0.399999999999977
20
-13.5152595263794
30
0
41
1
10
-0.399999999999977
20
-13.6607746658667
30
0
41
1
10
-0.399999999999977
20
-13.7501737648896
30
0
41
1
10
-0.399999999999977
20
-13.7852935510281
30
0
41
1
10
-0.399999999999977
20
-13.7965925646335
30
0
0
SPLINE
5
EC
100
AcDbEntity
8
SK1
62
256
6
ByLayer
370
-1
48
1
60
0
100
AcDbSpline
70
4
71
3
72
24
73
20
40
0
40
0
40
0
40
0
40
0.0008299253361348
40
0.0008299253361348
40
0.374241324444176
40
0.374241324444176
40
0.632344789479565
40
0.632344789479565
40
0.76211239522098
40
0.76211239522098
40
0.806579694985649
40
0.806579694985649
40
0.851786357615322
40
0.851786357615322
40
0.893227000155177
40
0.893227000155177
40
0.936464331680788
40
0.936464331680788
40
1
40
1
40
1
40
1
41
1
10
-0.218267038722615
20
-13.9259778556267
30
0
41
1
10
-0.218280426881961
20
-13.9259543424539
30
0
41
1
10
-0.218293824099817
20
-13.9259308243107
30
0
41
1
10
-0.224346935588187
20
-13.9153098301286
30
0
41
1
10
-0.232233669438131
20
-13.9036655551733
30
0
41
1
10
-0.252765410814618
20
-13.8814084969653
30
0
41
1
10
-0.26298325754334
20
-13.8715421084066
30
0
41
1
10
-0.286616108803798
20
-13.8549361512882
30
0
41
1
10
-0.296048597512936
20
-13.8489546731
30
0
41
1
10
-0.313313649213967
20
-13.8405611977702
30
0
41
1
10
-0.318242626725294
20
-13.8383488525843
30
0
41
1
10
-0.32918712877688
20
-13.8339930106961
30
0
41
1
10
-0.335388564995355
20
-13.83179581462
30
0
41
1
10
-0.347755359286111
20
-13.8280854434499
30
0
41
1
10
-0.354048035137055
20
-13.8264890383489
30
0
41
1
10
-0.366250197629427
20
-13.8239295609977
30
0
41
1
10
-0.372316125402563
20
-13.8229457626001
30
0
41
1
10
-0.386037066972222
20
-13.821215643274
30
0
41
1
10
-0.393386043187945
20
-13.8207370125792
30
0
41
1
10
-0.399999999999977
20
-13.8205593061294
30
0
0
SPLINE
5
ED
100
AcDbEntity
8
SK1
62
256
6
ByLayer
370
-1
48
1
60
0
100
AcDbSpline
70
4
71
3
72
27
73
23
40
0
40
0
40
0
40
0
40
0.0373491017623529
40
0.088422386502302
40
0.139495671242251
40
0.1905689559822
40
0.241642240722149
40
0.292715525462099
40
0.343788810202048
40
0.394862094941997
40
0.445935379681946
40
0.497008664421895
40
0.548081949161844
40
0.599155233901794
40
0.650228518641743
40
0.701301803381692
40
0.752375088121641
40
0.80344837286159
40
0.854521657601539
40
0.905594942341489
40
0.956668227081438
40
1
40
1
40
1
40
1
41
1
10
-0.399999999999977
20
13.7965930683392
30
0
41
1
10
-0.399999999999977
20
13.7852940851148
30
0
41
1
10
-0.399999999999977
20
13.7501746952335
30
0
41
1
10
-0.399999999999977
20
13.6607745146452
30
0
41
1
10
-0.399999999999977
20
13.5152595834079
30
0
41
1
10
-0.399999999999977
20
13.3190171661248
30
0
41
1
10
-0.399999999999977
20
13.0696050793313
30
0
41
1
10
-0.39999999999992
20
12.765695711353
30
0
41
1
10
-0.39999999999992
20
12.4071875173709
30
0
41
1
10
-0.39999999999992
20
11.9952649527342
30
0
41
1
10
-0.39999999999992
20
11.5324121673266
30
0
41
1
10
-0.39999999999992
20
11.0223736645665
30
0
41
1
10
-0.39999999999992
20
10.470066387995
30
0
41
1
10
-0.39999999999992
20
9.88144573908428
30
0
41
1
10
-0.39999999999992
20
9.26332794093628
30
0
41
1
10
-0.39999999999992
20
8.62318069742537
30
0
41
1
10
-0.39999999999992
20
7.96888164701966
30
0
41
1
10
-0.39999999999992
20
7.30846469728445
30
0
41
1
10
-0.39999999999992
20
6.64985041554638
30
0
41
1
10
-0.39999999999992
20
6.00058612356241
30
0
41
1
10
-0.39999999999992
20
5.39957119182188
30
0
41
1
10
-0.39999999999992
20
5.02226907709914
30
0
41
1
10
-0.39999999999992
20
4.85227506835238
30
0
0
SPLINE
5
EE
100
AcDbEntity
8
SK1
62
256
6
ByLayer
370
-1
48
1
60
0
100
AcDbSpline
70
4
71
3
72
32
73
28
40
0
40
0
40
0
40
0
40
0.343889632240037
40
0.343889632240037
40
0.424881203786091
40
0.424881203786091
40
0.45219319517405
40
0.45219319517405
40
0.473746524143709
40
0.473746524143709
40
0.495563509153789
40
0.495563509153789
40
0.504202913264278
40
0.504202913264278
40
0.510236809227349
40
0.510236809227349
40
0.516312447398371
40
0.516312447398371
40
0.523454548652051
40
0.523454548652051
40
0.535565299712341
40
0.535565299712341
40
0.57300444614615
40
0.57300444614615
40
0.744007987780293
40
0.744007987780293
40
1
40
1
40
1
40
1
41
1
10
-1.49999999999989
20
-2.55452633951475
30
0
41
1
10
-1.5208598537892
20
-2.43017154880397
30
0
41
1
10
-1.54277848657125
20
-2.30539150900933
30
0
41
1
10
-1.58054446546703
20
-2.15690281341079
30
0
41
1
10
-1.58828317908854
20
-2.12879825114811
30
0
41
1
10
-1.60072712650162
20
-2.09279395763306
30
0
41
1
10
-1.60406058795388
20
-2.08384105107302
30
0
41
1
10
-1.61062680538259
20
-2.06838289745696
30
0
41
1
10
-1.61373380991563
20
-2.06173130148738
30
0
41
1
10
-1.62074858386092
20
-2.04929690476194
30
0
41
1
10
-1.62469152135657
20
-2.04329967204669
30
0
41
1
10
-1.6314398383696
20
-2.03738508207587
30
0
41
1
10
-1.6335507648601
20
-2.03598317715259
30
0
41
1
10
-1.63737876424597
20
-2.03469617825761
30
0
41
1
10
-1.63905717359933
20
-2.03448731940549
30
0
41
1
10
-1.64239270814323
20
-2.0349385986527
30
0
41
1
10
-1.6440888940507
20
-2.03561765464858
30
0
41
1
10
-1.64749825596726
20
-2.03787010124455
30
0
41
1
10
-1.64921667651578
20
-2.03959185511141
30
0
41
1
10
-1.65333511326014
20
-2.04482054191681
30
0
41
1
10
-1.65549701098456
20
-2.04879885431208
30
0
41
1
10
-1.66311966371092
20
-2.06550748630016
30
0
41
1
10
-1.66673415611746
20
-2.07974527657228
30
0
41
1
10
-1.68385102741172
20
-2.1575921539345
30
0
41
1
10
-1.68804814437192
20
-2.22386329884722
30
0
41
1
10
-1.69782346255602
20
-2.3865563041347
30
0
41
1
10
-1.69965656225776
20
-2.48393126749517
30
0
41
1
10
-1.69996145716266
20
-2.58068890323847
30
0
0
SPLINE
5
EF
100
AcDbEntity
8
SK1
62
256
6
ByLayer
370
-1
48
1
60
0
100
AcDbSpline
70
4
71
3
72
33
73
29
40
0
40
0
40
0
40
0
40
0.0324085626072208
40
0.0724748849410522
40
0.112541207274884
40
0.152607529608715
40
0.192673851942546
40
0.232740174276378
40
0.272806496610209
40
0.312872818944041
40
0.352939141277872
40
0.393005463611704
40
0.433071785945535
40
0.473138108279367
40
0.513204430613198
40
0.553270752947029
40
0.593337075280861
40
0.633403397614692
40
0.673469719948524
40
0.713536042282355
40
0.753602364616187
40
0.793668686950018
40
0.83373500928385
40
0.873801331617681
40
0.913867653951512
40
0.953933976285344
40
0.994000298619175
40
1
40
1
40
1
40
1
41
1
10
-1.49999999999994
20
13.824531769606
30
0
41
1
10
-1.49999999999994
20
13.8227864649787
30
0
41
1
10
-1.49999999999994
20
13.8105223076575
30
0
41
1
10
-1.49999999999994
20
13.7589702687857
30
0
41
1
10
-1.49999999999994
20
13.6607745146452
30
0
41
1
10
-1.49999999999994
20
13.5152595834079
30
0
41
1
10
-1.49999999999994
20
13.3190171661248
30
0
41
1
10
-1.49999999999994
20
13.0696050793313
30
0
41
1
10
-1.49999999999994
20
12.765695711353
30
0
41
1
10
-1.49999999999994
20
12.4071875173709
30
0
41
1
10
-1.49999999999994
20
11.9952649527342
30
0
41
1
10
-1.49999999999994
20
11.5324121673266
30
0
41
1
10
-1.49999999999994
20
11.0223736645665
30
0
41
1
10
-1.49999999999989
20
10.470066387995
30
0
41
1
10
-1.49999999999989
20
9.88144573908428
30
0
41
1
10
-1.49999999999989
20
9.26332794093628
30
0
41
1
10
-1.49999999999989
20
8.62318069742537
30
0
41
1
10
-1.49999999999989
20
7.96888164701966
30
0
41
1
10
-1.49999999999989
20
7.30846469728445
30
0
41
1
10
-1.49999999999989
20
6.64985041554638
30
0
41
1
10
-1.49999999999989
20
6.00058612356241
30
0
41
1
10
-1.49999999999989
20
5.36758867042255
30
0
41
1
10
-1.49999999999989
20
4.75691763797596
30
0
41
1
10
-1.49999999999989
20
4.17356939352865
30
0
41
1
10
-1.49999999999989
20
3.62131845460988
30
0
41
1
10
-1.49999999999989
20
3.10259083011954
30
0
41
1
10
-1.49999999999989
20
2.75563447873756
30
0
41
1
10
-1.49999999999989
20
2.57759088990096
30
0
41
1
10
-1.49999999999989
20
2.55452876952825
30
0
0
SPLINE
5
F0
100
AcDbEntity
8
SK1
62
256
6
ByLayer
370
-1
48
1
60
0
100
AcDbSpline
70
4
71
3
72
22
73
18
40
0
40
0
40
0
40
0
40
0.0453538571579231
40
0.0453538571579231
40
0.0914518524267671
40
0.0914518524267671
40
0.124365048640693
40
0.124365048640693
40
0.157186848928651
40
0.157186848928651
40
0.206991933628443
40
0.206991933628443
40
0.302636793523901
40
0.302636793523901
40
0.633583445149988
40
0.633583445149988
40
1
40
1
40
1
40
1
41
1
10
-0.39999999999992
20
4.85227506835233
30
0
41
1
10
-0.420964880828194
20
4.87122754186862
30
0
41
1
10
-0.443888117925155
20
4.88887456363264
30
0
41
1
10
-0.494495022291232
20
4.91840151431526
30
0
41
1
10
-0.52299513623484
20
4.93045451470871
30
0
41
1
10
-0.574401278620769
20
4.94114219540694
30
0
41
1
10
-0.597076224252874
20
4.9426164760024
30
0
41
1
10
-0.641056311684338
20
4.93891494651641
30
0
41
1
10
-0.662845886446405
20
4.9337627063027
30
0
41
1
10
-0.71376347581031
20
4.91501929832424
30
0
41
1
10
-0.741856008482671
20
4.89837342492686
30
0
41
1
10
-0.814978349041667
20
4.84361103162897
30
0
41
1
10
-0.854317961498339
20
4.79908644376556
30
0
41
1
10
-1.00688542665307
20
4.59427172963152
30
0
41
1
10
-1.0791858799123
20
4.40986442942582
30
0
41
1
10
-1.21067514066448
20
4.01906025534171
30
0
41
1
10
-1.26311821358462
20
3.80583052169118
30
0
41
1
10
-1.30710678118919
20
3.58871725124908
30
0
0
SPLINE
5
F1
100
AcDbEntity
8
SK1
62
256
6
ByLayer
370
-1
48
1
60
0
100
AcDbSpline
70
4
71
3
72
36
73
32
40
0
40
0
40
0
40
0
40
0.0609459679812531
40
0.0609459679812531
40
0.132350572984809
40
0.132350572984809
40
0.203732784324389
40
0.203732784324389
40
0.275101574810937
40
0.275101574810937
40
0.346462424970356
40
0.346462424970356
40
0.417819049793368
40
0.417819049793368
40
0.489174288115022
40
0.489174288115022
40
0.560530863047856
40
0.560530863047856
40
0.631891607752965
40
0.631891607752965
40
0.703260276789038
40
0.703260276789038
40
0.774642141231086
40
0.774642141231086
40
0.846046336364047
40
0.846046336364047
40
0.917489939235092
40
0.917489939235092
40
0.989010298502673
40
0.989010298502673
40
1
40
1
40
1
40
1
41
1
10
-1.6999371251855
20
-14.0200998908196
30
0
41
1
10
-1.69994579429311
20
-14.0197255439057
30
0
41
1
10
-1.69995293797183
20
-13.9984598300086
30
0
41
1
10
-1.699965968995
20
-13.912699878437
30
0
41
1
10
-1.69997144501832
20
-13.8412461697365
30
0
41
1
10
-1.69998026772578
20
-13.6540534429184
30
0
41
1
10
-1.69998362760805
20
-13.5381086536818
30
0
41
1
10
-1.69998893512076
20
-13.2660178923742
30
0
41
1
10
-1.69999089366297
20
-13.1096457528619
30
0
41
1
10
-1.69999393023608
20
-12.759718428774
30
0
41
1
10
-1.69999500206262
20
-12.5659031533754
30
0
41
1
10
-1.69999661222783
20
-12.1434156407086
30
0
41
1
10
-1.69999715099709
20
-11.9144442673658
30
0
41
1
10
-1.69999791606472
20
-11.4234052370848
30
0
41
1
10
-1.69999814136457
20
-11.1610105069826
30
0
41
1
10
-1.69999839419393
20
-10.6045273427662
30
0
41
1
10
-1.69999842180135
20
-10.310058909404
30
0
41
1
10
-1.69999829195729
20
-9.69048832766435
30
0
41
1
10
-1.69999813485146
20
-9.36495240576079
30
0
41
1
10
-1.69999754826785
20
-8.68408754721199
30
0
41
1
10
-1.69999711775762
20
-8.3282356479576
30
0
41
1
10
-1.69999578337627
20
-7.58734438932615
30
0
41
1
10
-1.69999487990981
20
-7.20167717645487
30
0
41
1
10
-1.69999225979791
20
-6.40163925188287
30
0
41
1
10
-1.69999054604449
20
-5.98644558449715
30
0
41
1
10
-1.6999858288633
20
-5.12780487492378
30
0
41
1
10
-1.69998281485044
20
-4.68321714982289
30
0
41
1
10
-1.69997494930925
20
-3.76648812038707
30
0
41
1
10
-1.69997003537304
20
-3.29259296387656
30
0
41
1
10
-1.69996330814757
20
-2.73138446680247
30
0
41
1
10
-1.69996239228777
20
-2.65618850451398
30
0
41
1
10
-1.6999614571626
20
-2.58068890323852
30
0
0
SPLINE
5
F2
100
AcDbEntity
8
SK1
62
256
6
ByLayer
370
-1
48
1
60
0
100
AcDbSpline
70
4
71
3
72
28
73
24
40
0
40
0
40
0
40
0
40
0.0501427564991567
40
0.0501427564991567
40
0.16249976911837
40
0.16249976911837
40
0.274856781737583
40
0.274856781737583
40
0.387213794356797
40
0.387213794356797
40
0.49957080697601
40
0.49957080697601
40
0.555749313285617
40
0.555749313285617
40
0.611927819595224
40
0.611927819595224
40
0.724284832214437
40
0.724284832214437
40
0.83664184483365
40
0.83664184483365
40
0.948998857452864
40
0.948998857452864
40
1
40
1
40
1
40
1
41
1
10
-24
20
12.5805081847721
30
0
41
1
10
-24
20
12.5752826496516
30
0
41
1
10
-24
20
12.5048481056025
30
0
41
1
10
-24
20
12.1268240366655
30
0
41
1
10
-24
20
11.6069824914266
30
0
41
1
10
-24
20
10.2308904791419
30
0
41
1
10
-23.9999999999999
20
9.3350510096983
30
0
41
1
10
-24
20
7.25451337711701
30
0
41
1
10
-24
20
6.03406201720802
30
0
41
1
10
-23.9999999999999
20
3.29058259471469
30
0
41
1
10
-23.9999999999999
20
1.73762162493182
30
0
41
1
10
-23.9999999999999
20
-0.765894734704204
30
0
41
1
10
-23.9999999999999
20
-1.58205517513369
30
0
41
1
10
-24
20
-3.14126978157822
30
0
41
1
10
-23.9999999999999
20
-3.8725832985441
30
0
41
1
10
-24
20
-5.96204061486441
30
0
41
1
10
-24
20
-7.16781782016216
30
0
41
1
10
-24
20
-9.29720085705901
30
0
41
1
10
-24
20
-10.1768487891987
30
0
41
1
10
-24
20
-11.5892073073507
30
0
41
1
10
-24
20
-12.1068779312492
30
0
41
1
10
-24
20
-12.4983591952166
30
0
41
1
10
-24
20
-12.5722980967013
30
0
41
1
10
-24.0000000000001
20
-12.5789068153825
30
0
0
SPLINE
5
F3
100
AcDbEntity
8
1
62
256
6
ByLayer
370
-1
48
1
60
0
100
AcDbSpline
70
4
71
3
72
18
73
14
40
0
40
0
40
0
40
0
40
0.213207373358542
40
0.213207373358542
40
0.388847290990781
40
0.388847290990781
40
0.566127623963492
40
0.566127623963492
40
0.721054832251277
40
0.721054832251277
40
0.927260359476961
40
0.927260359476961
40
1
40
1
40
1
40
1
41
1
10
82.5493128618849
20
9.48999762845304
30
0
41
1
10
82.5909830948473
20
9.50117609371651
30
0
41
1
10
82.632193892851
20
9.51931626241921
30
0
41
1
10
82.7012498054805
20
9.56514272803963
30
0
41
1
10
82.730894166905
20
9.59118771347008
30
0
41
1
10
82.7819662775825
20
9.65172835396976
30
0
41
1
10
82.8039787512318
20
9.6872682932192
30
0
41
1
10
82.8339807798195
20
9.75685942268692
30
0
41
1
10
82.8437967997147
20
9.79133713600856
30
0
41
1
10
82.8563807290038
20
9.87033385464181
30
0
41
1
10
82.8561093287809
20
9.91574118415514
30
0
41
1
10
82.8472884752391
20
9.97375166937655
30
0
41
1
10
82.844176124884
20
9.98877688560492
30
0
41
1
10
82.8403266733748
20
10.0034877600998
30
0
0
SPLINE
5
F4
100
AcDbEntity
8
1
62
256
6
ByLayer
370
-1
48
1
60
0
100
AcDbSpline
70
4
71
3
72
16
73
12
40
0
40
0
40
0
40
0
40
0.192746978482252
40
0.192746978482252
40
0.417455585892702
40
0.417455585892702
40
0.651889863641631
40
0.651889863641631
40
0.906291071842531
40
0.906291071842531
40
1
40
1
40
1
40
1
41
1
10
83.9592967274949
20
10.2222139721651
30
0
41
1
10
83.9452694183344
20
10.2301288017382
30
0
41
1
10
83.930044918003
20
10.2362097962698
30
0
41
1
10
83.8965087696153
20
10.2447037605586
30
0
41
1
10
83.8776731544962
20
10.2464349349087
30
0
41
1
10
83.840544898427
20
10.2443043195575
30
0
41
1
10
83.8218428008673
20
10.240188771276
30
0
41
1
10
83.785999085415
20
10.2264991757073
30
0
41
1
10
83.7686695207508
20
10.2163392583349
30
0
41
1
10
83.7480957529244
20
10.1995923890064
30
0
41
1
10
83.7428016919241
20
10.1947477843945
30
0
41
1
10
83.7378264914703
20
10.1896504319876
30
0
0
SPLINE
5
F5
100
AcDbEntity
8
1
62
256
6
ByLayer
370
-1
48
1
60
0
100
AcDbSpline
70
4
71
3
72
12
73
8
40
0
40
0
40
0
40
0
40
0.333251230524808
40
0.333251230524808
40
0.686589152893907
40
0.686589152893907
40
1
40
1
40
1
40
1
41
1
10
82.7923250949161
20
8.96066545013255
30
0
41
1
10
82.7725793180044
20
8.98962757787507
30
0
41
1
10
82.7490532360425
20
9.0163012260534
30
0
41
1
10
82.6967168306001
20
9.06329043297168
30
0
41
1
10
82.6671104872019
20
9.08371647715472
30
0
41
1
10
82.609464817264
20
9.11429459650373
30
0
41
1
10
82.581224901708
20
9.12557742312146
30
0
41
1
10
82.5527253627399
20
9.13374077268517
30
0
0
SPLINE
5
F6
100
AcDbEntity
8
1
62
256
6
ByLayer
370
-1
48
1
60
0
100
AcDbSpline
70
4
71
3
72
18
73
14
40
0
40
0
40
0
40
0
40
0.213037805542623
40
0.213037805542623
40
0.388706899569754
40
0.388706899569754
40
0.566018396063443
40
0.566018396063443
40
0.720950857831213
40
0.720950857831213
40
0.927125818482326
40
0.927125818482326
40
1
40
1
40
1
40
1
41
1
10
83.1473522234389
20
10.1842271992714
30
0
41
1
10
83.1785979035781
20
10.153435621445
30
0
41
1
10
83.2155916271964
20
10.1265434543919
30
0
41
1
10
83.2908144082872
20
10.0892476201123
30
0
41
1
10
83.3285811460748
20
10.0764517858973
30
0
41
1
10
83.407012635937
20
10.0623609101868
30
0
41
1
10
83.4488725547723
20
10.0610843552915
30
0
41
1
10
83.5239470947546
20
10.0700901947975
30
0
41
1
10
83.5584872319844
20
10.0789831424615
30
0
41
1
10
83.6324478922066
20
10.1080357878564
30
0
41
1
10
83.6710443971275
20
10.1313050839915
30
0
41
1
10
83.7160080965726
20
10.1684471192333
30
0
41
1
10
83.7272421922374
20
10.1788062652708
30
0
41
1
10
83.7378264914703
20
10.1896504319876
30
0
0
SPLINE
5
F7
100
AcDbEntity
8
1
62
256
6
ByLayer
370
-1
48
1
60
0
100
AcDbSpline
70
4
71
3
72
16
73
12
40
0
40
0
40
0
40
0
40
0.0662654815065405
40
0.0662654815065405
40
0.290868239084503
40
0.290868239084503
40
0.518415635011648
40
0.518415635011648
40
0.760499541562594
40
0.760499541562594
40
1
40
1
40
1
40
1
41
1
10
83.9756513853891
20
8.4303602001975
30
0
41
1
10
83.9804560292651
20
8.43318859229512
30
0
41
1
10
83.985138556294
20
8.43623386007752
30
0
41
1
10
84.0049063986216
20
8.45038040985793
30
0
41
1
10
84.0185809516632
20
8.46373247210909
30
0
41
1
10
84.0409358957717
20
8.49320199822654
30
0
41
1
10
84.0498450473718
20
8.50971982458913
30
0
41
1
10
84.0625023370777
20
8.54456351293248
30
0
41
1
10
84.0660619577313
20
8.56336739533302
30
0
41
1
10
84.067389076828
20
8.59977081932186
30
0
41
1
10
84.0652523681033
20
8.61776020830806
30
0
41
1
10
84.0606945938957
20
8.63464355414095
30
0
0
SPLINE
5
F8
100
AcDbEntity
8
1
62
256
6
ByLayer
370
-1
48
1
60
0
100
AcDbSpline
70
4
71
3
72
16
73
12
40
0
40
0
40
0
40
0
40
0.0577300422316442
40
0.0577300422316442
40
0.282451604529861
40
0.282451604529861
40
0.509637266309239
40
0.509637266309239
40
0.750967583550611
40
0.750967583550611
40
1
40
1
40
1
40
1
41
1
10
82.9414654179527
20
8.42086168099536
30
0
41
1
10
82.9456994731253
20
8.41847263939729
30
0
41
1
10
82.9500321894308
20
8.41624522189997
30
0
41
1
10
82.9714676823381
20
8.40625616856727
30
0
41
1
10
82.9899150299137
20
8.4008625605768
30
0
41
1
10
83.0268198480209
20
8.39576148733812
30
0
41
1
10
83.0457436582108
20
8.396037594761
30
0
41
1
10
83.0826830508402
20
8.40192752611043
30
0
41
1
10
83.101035024789
20
8.40792686898979
30
0
41
1
10
83.1345891554443
20
8.42468467516252
30
0
41
1
10
83.1500612690738
20
8.43575655282342
30
0
41
1
10
83.1631947758
20
8.44848088225382
30
0
0
SPLINE
5
F9
100
AcDbEntity
8
1
62
256
6
ByLayer
370
-1
48
1
60
0
100
AcDbSpline
70
4
71
3
72
18
73
14
40
0
40
0
40
0
40
0
40
0.211088677939265
40
0.211088677939265
40
0.387064491086096
40
0.387064491086096
40
0.564704947834808
40
0.564704947834808
40
0.719676784147947
40
0.719676784147947
40
0.92547821387615
40
0.92547821387615
40
1
40
1
40
1
40
1
41
1
10
84.3517084053855
20
9.14813368578839
30
0
41
1
10
84.3105310832617
20
9.13545676522497
30
0
41
1
10
84.269806973054
20
9.11605165958775
30
0
41
1
10
84.2010683350807
20
9.06845568954483
30
0
41
1
10
84.1713428912605
20
9.04164462523897
30
0
41
1
10
84.1200599091968
20
8.98020624800111
30
0
41
1
10
84.0979128864074
20
8.94453488190277
30
0
41
1
10
84.0676839010723
20
8.87542746375749
30
0
41
1
10
84.0577575912293
20
8.84148136288979
30
0
41
1
10
84.0449310685133
20
8.76425669326156
30
0
41
1
10
84.0450316357165
20
8.72024540805779
30
0
41
1
10
84.053651513633
20
8.66392899014315
30
0
41
1
10
84.056788046381
20
8.64911456338638
30
0
41
1
10
84.0606945938954
20
8.63464355414092
30
0
0
SPLINE
5
FA
100
AcDbEntity
8
1
62
256
6
ByLayer
370
-1
48
1
60
0
100
AcDbSpline
70
4
71
3
72
18
73
14
40
0
40
0
40
0
40
0
40
0.210241189576259
40
0.210241189576259
40
0.386397327985462
40
0.386397327985462
40
0.564228669195986
40
0.564228669195986
40
0.719253853430872
40
0.719253853430872
40
0.924930274640251
40
0.924930274640251
40
1
40
1
40
1
40
1
41
1
10
83.7536690438316
20
8.4539041149699
30
0
41
1
10
83.7229182872234
20
8.48268930246928
30
0
41
1
10
83.6865756372903
20
8.50776355965269
30
0
41
1
10
83.6121385092247
20
8.54290503667389
30
0
41
1
10
83.5743930486863
20
8.55505922106877
30
0
41
1
10
83.49588127328
20
8.56853725380347
30
0
41
1
10
83.4539096798424
20
8.56984993968479
30
0
41
1
10
83.3786285988415
20
8.56156942895689
30
0
41
1
10
83.3439949159419
20
8.55330486025946
30
0
41
1
10
83.2699103382084
20
8.52617936363899
30
0
41
1
10
83.2312445488332
20
8.50440183860351
30
0
41
1
10
83.1857532914938
20
8.46916868790638
30
0
41
1
10
83.1741292983971
20
8.45907473739004
30
0
41
1
10
83.1631947758
20
8.44848088225382
30
0
0
SPLINE
5
FB
100
AcDbEntity
8
1
62
256
6
ByLayer
370
-1
48
1
60
0
100
AcDbSpline
70
4
71
3
72
14
73
10
40
0
40
0
40
0
40
0
40
0.0474236947568624
40
0.0474236947568624
40
0.384554169198115
40
0.384554169198115
40
0.831450666353851
40
0.831450666353851
40
1
40
1
40
1
40
1
41
1
10
84.1090688908078
20
9.67035397234503
30
0
41
1
10
84.1119072471953
20
9.66621120120675
30
0
41
1
10
84.1148179429626
20
9.66212500973248
30
0
41
1
10
84.138782673428
20
9.62974538524145
30
0
41
1
10
84.1634335871195
20
9.6042748028207
30
0
41
1
10
84.2245495354707
20
9.55495932499994
30
0
41
1
10
84.2632120044327
20
9.53336444702381
30
0
41
1
10
84.3176833932361
20
9.51290021008333
30
0
41
1
10
84.3329409321871
20
9.50817654580786
30
0
41
1
10
84.3482971679722
20
9.5043664336547
30
0
0
SPLINE
5
FC
100
AcDbEntity
8
1
62
256
6
ByLayer
370
-1
48
1
60
0
100
AcDbSpline
70
4
71
3
72
14
73
10
40
0
40
0
40
0
40
0
40
0.263287375616196
40
0.263287375616196
40
0.553159463929558
40
0.553159463929558
40
0.81556183117711
40
0.81556183117711
40
1
40
1
40
1
40
1
41
1
10
82.5493128618849
20
9.48999762845307
30
0
41
1
10
82.5304718289515
20
9.4849433290839
30
0
41
1
10
82.5119824012827
20
9.47666869626667
30
0
41
1
10
82.4768926778661
20
9.45309023252921
30
0
41
1
10
82.460141038814
20
9.43674196957366
30
0
41
1
10
82.4352490317349
20
9.40035302318356
30
0
41
1
10
82.4260986416347
20
9.38023636435679
30
0
41
1
10
82.4171543234046
20
9.34438516506592
30
0
41
1
10
82.4152936025494
20
9.32881246827807
30
0
41
1
10
82.4154147132241
20
9.31336332651628
30
0
0
SPLINE
5
FD
100
AcDbEntity
8
1
62
256
6
ByLayer
370
-1
48
1
60
0
100
AcDbSpline
70
4
71
3
72
14
73
10
40
0
40
0
40
0
40
0
40
0.273664343774484
40
0.273664343774484
40
0.561675708889463
40
0.561675708889463
40
0.822491072558595
40
0.822491072558595
40
1
40
1
40
1
40
1
41
1
10
82.8530769577166
20
8.62416196147561
30
0
41
1
10
82.8481107345002
20
8.60475783483437
30
0
41
1
10
82.8463503900364
20
8.58390782757942
30
0
41
1
10
82.8503797857377
20
8.54132996558934
30
0
41
1
10
82.8566789351149
20
8.51894884538092
30
0
41
1
10
82.8765433977547
20
8.47976744832778
30
0
41
1
10
82.889700670069
20
8.46206477161019
30
0
41
1
10
82.9162720894735
20
8.43716174709908
30
0
41
1
10
82.9284705295821
20
8.42819397299789
30
0
41
1
10
82.9414654179527
20
8.42086168099536
30
0
0
SPLINE
5
FE
100
AcDbEntity
8
1
62
256
6
ByLayer
370
-1
48
1
60
0
100
AcDbSpline
70
4
71
3
72
16
73
12
40
0
40
0
40
0
40
0
40
0.0564219140845703
40
0.0564219140845703
40
0.280560211135027
40
0.280560211135027
40
0.507090821596433
40
0.507090821596433
40
0.747675068673599
40
0.747675068673599
40
1
40
1
40
1
40
1
41
1
10
84.4853474322235
20
9.32971232664423
30
0
41
1
10
84.4853100984943
20
9.33447469855446
30
0
41
1
10
84.4850883570913
20
9.33923676609754
30
0
41
1
10
84.4830884395721
20
9.36264713484707
30
0
41
1
10
84.4785399042741
20
9.38121035928623
30
0
41
1
10
84.4644295829832
20
9.41537497326954
30
0
41
1
10
84.4546484806021
20
9.43138383457355
30
0
41
1
10
84.4308407745545
20
9.45983037348026
30
0
41
1
10
84.4163054708192
20
9.47235426104677
30
0
41
1
10
84.3843485643704
20
9.4923819690141
30
0
41
1
10
84.3664613526723
20
9.49985962730923
30
0
41
1
10
84.3482971679722
20
9.5043664336547
30
0
0
SPLINE
5
FF
100
AcDbEntity
8
1
62
256
6
ByLayer
370
-1
48
1
60
0
100
AcDbSpline
70
4
71
3
72
16
73
12
40
0
40
0
40
0
40
0
40
0.0597238120501043
40
0.0597238120501043
40
0.284391621755034
40
0.284391621755034
40
0.511636144445799
40
0.511636144445799
40
0.753115890102122
40
0.753115890102122
40
1
40
1
40
1
40
1
41
1
10
82.9251107600585
20
10.212715452963
30
0
41
1
10
82.9207768392975
20
10.2101641655943
30
0
41
1
10
82.9165430656572
20
10.2074296975842
30
0
41
1
10
82.8970897911578
20
10.193694280779
30
0
41
1
10
82.8832919913863
20
10.1802922376132
30
0
41
1
10
82.8607007801221
20
10.1505121039075
30
0
41
1
10
82.8516669898026
20
10.1337312565736
30
0
41
1
10
82.8387584845527
20
10.0981710074927
30
0
41
1
10
82.8350618195443
20
10.0788937099048
30
0
41
1
10
82.8334372844123
20
10.0407910544003
30
0
41
1
10
82.835596493108
20
10.0215643842831
30
0
41
1
10
82.8403266733749
20
10.0034877600998
30
0
0
SPLINE
5
100
100
AcDbEntity
8
1
62
256
6
ByLayer
370
-1
48
1
60
0
100
AcDbSpline
70
4
71
3
72
12
73
8
40
0
40
0
40
0
40
0
40
0.457232493227089
40
0.457232493227089
40
0.839846419486504
40
0.839846419486504
40
1
40
1
40
1
40
1
41
1
10
84.0479455729942
20
10.0139452448592
30
0
41
1
10
84.0376152735937
20
9.9716465185131
30
0
41
1
10
84.0333489976817
20
9.92641383706635
30
0
41
1
10
84.0390691235191
20
9.84257535350892
30
0
41
1
10
84.0470085477983
20
9.80315159145923
30
0
41
1
10
84.0661733580021
20
9.74968920696946
30
0
41
1
10
84.0728432635874
20
9.73407339072509
30
0
41
1
10
84.0804288644386
20
9.71894485993923
30
0
0
SPLINE
5
101
100
AcDbEntity
8
1
62
256
6
ByLayer
370
-1
48
1
60
0
100
AcDbSpline
70
4
71
3
72
14
73
10
40
0
40
0
40
0
40
0
40
0.269984246366601
40
0.269984246366601
40
0.559017840598711
40
0.559017840598711
40
0.820739201276124
40
0.820739201276124
40
1
40
1
40
1
40
1
41
1
10
84.3517084053855
20
9.14813368578839
30
0
41
1
10
84.3709875515685
20
9.1540689965878
30
0
41
1
10
84.3899055662667
20
9.16336005294281
30
0
41
1
10
84.4251249121095
20
9.18882394167696
30
0
41
1
10
84.4416760839172
20
9.20587711704229
30
0
41
1
10
84.4661883805474
20
9.2432701131267
30
0
41
1
10
84.4751518339705
20
9.26373294923937
30
0
41
1
10
84.4837158742088
20
9.29950010678647
30
0
41
1
10
84.4854651571825
20
9.3146950741606
30
0
41
1
10
84.4853474322235
20
9.32971232664423
30
0
0
SPLINE
5
102
100
AcDbEntity
8
1
62
256
6
ByLayer
370
-1
48
1
60
0
100
AcDbSpline
70
4
71
3
72
16
73
12
40
0
40
0
40
0
40
0
40
0.0516243864681823
40
0.0516243864681823
40
0.275800130517291
40
0.275800130517291
40
0.502096607514597
40
0.502096607514597
40
0.742222905875967
40
0.742222905875967
40
1
40
1
40
1
40
1
41
1
10
82.4154147132241
20
9.31336332651628
30
0
41
1
10
82.4154488975421
20
9.30900270036318
30
0
41
1
10
82.4156379126218
20
9.3046372974564
30
0
41
1
10
82.4174571733695
20
9.28154528455704
30
0
41
1
10
82.4218962408206
20
9.26278878767897
30
0
41
1
10
82.435818262509
20
9.22804684337564
30
0
41
1
10
82.4455126549178
20
9.21164089181795
30
0
41
1
10
82.4691684373018
20
9.18221957306042
30
0
41
1
10
82.4836354599074
20
9.1690915042096
30
0
41
1
10
82.5158549700107
20
9.14744980303635
30
0
41
1
10
82.5341474215405
20
9.13906220010733
30
0
41
1
10
82.5527253627399
20
9.1337407726852
30
0
0
SPLINE
5
103
100
AcDbEntity
8
1
62
256
6
ByLayer
370
-1
48
1
60
0
100
AcDbSpline
70
4
71
3
72
16
73
12
40
0
40
0
40
0
40
0
40
0.142561701955538
40
0.142561701955538
40
0.446528160975322
40
0.446528160975322
40
0.721427730135676
40
0.721427730135676
40
0.965316534572713
40
0.965316534572713
40
1
40
1
40
1
40
1
41
1
10
84.0479455729973
20
10.0139452448593
30
0
41
1
10
84.050519550181
20
10.0244847222042
30
0
41
1
10
84.0522245768087
20
10.0353645356859
30
0
41
1
10
84.0545678006399
20
10.0697150661822
30
0
41
1
10
84.0517923506454
20
10.0942756986794
30
0
41
1
10
84.0375720916063
20
10.1384968128639
30
0
41
1
10
84.0267165202116
20
10.1590723776433
30
0
41
1
10
83.9998780496119
20
10.1926821240162
30
0
41
1
10
83.9842041756997
20
10.2067759486099
30
0
41
1
10
83.9643956601358
20
10.2192548545915
30
0
41
1
10
83.9618630431524
20
10.2207659431221
30
0
41
1
10
83.9592967274949
20
10.2222139721651
30
0
0
SPLINE
5
104
100
AcDbEntity
8
1
62
256
6
ByLayer
370
-1
48
1
60
0
100
AcDbSpline
70
4
71
3
72
14
73
10
40
0
40
0
40
0
40
0
40
0.283446082539502
40
0.283446082539502
40
0.570794204241053
40
0.570794204241053
40
0.831164093465328
40
0.831164093465328
40
1
40
1
40
1
40
1
41
1
10
83.7536690438316
20
8.4539041149699
30
0
41
1
10
83.7688453670486
20
8.43969785283082
30
0
41
1
10
83.787062401368
20
8.42767305820422
30
0
41
1
10
83.8273826436242
20
8.41052949558517
30
0
41
1
10
83.8501760666038
20
8.40527912298214
30
0
41
1
10
83.8943083955588
20
8.40368605893238
30
0
41
1
10
83.9162494597641
20
8.40656629231395
30
0
41
1
10
83.9503210377418
20
8.4173395671354
30
0
41
1
10
83.9634529494762
20
8.42317923931265
30
0
41
1
10
83.9756513853891
20
8.4303602001975
30
0
0
SPLINE
5
105
100
AcDbEntity
8
1
62
256
6
ByLayer
370
-1
48
1
60
0
100
AcDbSpline
70
4
71
3
72
12
73
8
40
0
40
0
40
0
40
0
40
0.366288022982305
40
0.366288022982305
40
0.765248162295208
40
0.765248162295208
40
1
40
1
40
1
40
1
41
1
10
82.8530769577219
20
8.62416196147387
30
0
41
1
10
82.8614314301828
20
8.65680472330504
30
0
41
1
10
82.8658824139258
20
8.69129252952843
30
0
41
1
10
82.8656003404438
20
8.76487365645195
30
0
41
1
10
82.8598978439505
20
8.80500641036315
30
0
41
1
10
82.8411644087425
20
8.86712880655952
30
0
41
1
10
82.8320468162637
20
8.8900705639054
30
0
41
1
10
82.8209651212858
20
8.91207456253758
30
0
0
SPLINE
5
106
100
AcDbEntity
8
1
62
256
6
ByLayer
370
-1
48
1
60
0
100
AcDbSpline
70
4
71
3
72
14
73
10
40
0
40
0
40
0
40
0
40
0.274377594478275
40
0.274377594478275
40
0.562861047818558
40
0.562861047818558
40
0.824138747746894
40
0.824138747746894
40
1
40
1
40
1
40
1
41
1
10
83.1473522234389
20
10.1842271992714
30
0
41
1
10
83.1326198493552
20
10.1987454635929
30
0
41
1
10
83.1150519927129
20
10.2111788058959
30
0
41
1
10
83.075481762284
20
10.2298222792812
30
0
41
1
10
83.0526581939076
20
10.2359304240551
30
0
41
1
10
83.0083864825922
20
10.238855064613
30
0
41
1
10
82.9863412301125
20
10.2364993536837
30
0
41
1
10
82.9515396701847
20
10.2261558383307
30
0
41
1
10
82.9378147154637
20
10.2201940024671
30
0
41
1
10
82.9251107600585
20
10.212715452963
30
0
0
LINE
5
4A
100
AcDbEntity
8
80
62
256
6
ByLayer
370
-1
48
1
60
0
100
AcDbLine
10
0
20
0
30
0
11
-10
21
0
31
0
39
0
210
0
220
0
230
1
0
LINE
5
4B
100
AcDbEntity
8
81
62
256
6
ByLayer
370
-1
48
1
60
0
100
AcDbLine
10
80
20
14.9
30
0
11
90
21
14.9
31
0
39
0
210
0
220
0
230
1
0
LINE
5
4C
100
AcDbEntity
8
SK4
62
256
6
ByLayer
370
-1
48
0.05
60
0
100
AcDbLine
10
-29
20
0
30
0
11
96.611269
21
0
31
0
39
0
210
0
220
0
230
1
0
LINE
5
4E
100
AcDbEntity
8
4
62
256
6
ByLayer
370
-1
48
0.05
60
0
100
AcDbLine
10
0
20
0
30
0
11
120.611269
21
0
31
0
39
0
210
0
220
0
230
1
0
LINE
5
50
100
AcDbEntity
8
1
62
256
6
ByLayer
370
-1
48
1
60
0
100
AcDbLine
10
19.5
20
-20
30
0
11
20.932549
21
-14.490197
31
0
39
0
210
0
220
0
230
1
0
LINE
5
51
100
AcDbEntity
8
1
62
256
6
ByLayer
370
-1
48
1
60
0
100
AcDbLine
10
20.932549
20
14.490197
30
0
11
19.5
21
20
31
0
39
0
210
0
220
0
230
1
0
LINE
5
52
100
AcDbEntity
8
1
62
256
6
ByLayer
370
-1
48
1
60
0
100
AcDbLine
10
19.5
20
20
30
0
11
0.3
21
20
31
0
39
0
210
0
220
0
230
1
0
LINE
5
53
100
AcDbEntity
8
1
62
256
6
ByLayer
370
-1
48
1
60
0
100
AcDbLine
10
0.3
20
-20
30
0
11
19.5
21
-20
31
0
39
0
210
0
220
0
230
1
0
LINE
5
54
100
AcDbEntity
8
1
62
256
6
ByLayer
370
-1
48
1
60
0
100
AcDbLine
10
0.3
20
20
30
0
11
0
21
19.7
31
0
39
0
210
0
220
0
230
1
0
LINE
5
55
100
AcDbEntity
8
1
62
256
6
ByLayer
370
-1
48
1
60
0
100
AcDbLine
10
0
20
-19.7
30
0
11
0.3
21
-20
31
0
39
0
210
0
220
0
230
1
0
LINE
5
56
100
AcDbEntity
8
1
62
256
6
ByLayer
370
-1
48
1
60
0
100
AcDbLine
10
26.739484
20
-10
30
0
11
77.724119
21
-10
31
0
39
0
210
0
220
0
230
1
0
LINE
5
57
100
AcDbEntity
8
1
62
256
6
ByLayer
370
-1
48
1
60
0
100
AcDbLine
10
69.507079
20
10
30
0
11
26.739484
21
10
31
0
39
0
210
0
220
0
230
1
0
LINE
5
58
100
AcDbEntity
8
1
62
256
6
ByLayer
370
-1
48
1
60
0
100
AcDbLine
10
84.047211
20
8.719401
30
0
11
84.048913
21
8.686917
31
0
39
0
210
0
220
0
230
1
0
LINE
5
59
100
AcDbEntity
8
1
62
256
6
ByLayer
370
-1
48
1
60
0
100
AcDbLine
10
82.866857
20
8.714531
30
0
11
82.865186
21
8.746407
31
0
39
0
210
0
220
0
230
1
0
LINE
5
5A
100
AcDbEntity
8
1
62
256
6
ByLayer
370
-1
48
1
60
0
100
AcDbLine
10
82.855662
20
9.883399
30
0
11
82.85396
21
9.915884
31
0
39
0
210
0
220
0
230
1
0
LINE
5
5B
100
AcDbEntity
8
1
62
256
6
ByLayer
370
-1
48
1
60
0
100
AcDbLine
10
84.03605
20
9.88762
30
0
11
84.037718
21
9.855785
31
0
39
0
210
0
220
0
230
1
0
LINE
5
5C
100
AcDbEntity
8
1
62
256
6
ByLayer
370
-1
48
1
60
0
100
AcDbLine
10
85.174733
20
9.379076
30
0
11
85.173349
21
9.40549
31
0
39
0
210
0
220
0
230
1
0
LINE
5
5D
100
AcDbEntity
8
1
62
256
6
ByLayer
370
-1
48
1
60
0
100
AcDbLine
10
81.728077
20
9.224931
30
0
11
81.729461
21
9.198516
31
0
39
0
210
0
220
0
230
1
0
LINE
5
5E
100
AcDbEntity
8
1
62
256
6
ByLayer
370
-1
48
1
60
0
100
AcDbLine
10
6.923205
20
5.85989
30
0
11
6.923205
21
19.122283
31
0
39
0
210
0
220
0
230
1
0
LINE
5
5F
100
AcDbEntity
8
1
62
256
6
ByLayer
370
-1
48
1
60
0
100
AcDbLine
10
87.56366
20
4.175102
30
0
11
87.566138
21
4.127808
31
0
39
0
210
0
220
0
230
1
0
LINE
5
60
100
AcDbEntity
8
1
62
256
6
ByLayer
370
-1
48
1
60
0
100
AcDbLine
10
26.739484
20
10
30
0
11
26.739484
21
-10
31
0
39
0
210
0
220
0
230
1
0
LINE
5
61
100
AcDbEntity
8
1
62
256
6
ByLayer
370
-1
48
1
60
0
100
AcDbLine
10
87.399605
20
6.122092
30
0
11
86.77705
21
6.510838
31
0
39
0
210
0
220
0
230
1
0
LINE
5
62
100
AcDbEntity
8
1
62
256
6
ByLayer
370
-1
48
1
60
0
100
AcDbLine
10
86.567869
20
10.79825
30
0
11
91.611269
21
7.648971
31
0
39
0
210
0
220
0
230
1
0
LINE
5
63
100
AcDbEntity
8
1
62
256
6
ByLayer
370
-1
48
1
60
0
100
AcDbLine
10
77.989009
20
-9.809256
30
0
11
77.724119
21
-10
31
0
39
0
210
0
220
0
230
1
0
LINE
5
64
100
AcDbEntity
8
1
62
256
6
ByLayer
370
-1
48
1
60
0
100
AcDbLine
10
0
20
-19.7
30
0
11
0
21
19.7
31
0
39
0
210
0
220
0
230
1
0
LINE
5
65
100
AcDbEntity
8
1
62
256
6
ByLayer
370
-1
48
1
60
0
100
AcDbLine
10
0.3
20
-20
30
0
11
0.3
21
20
31
0
39
0
210
0
220
0
230
1
0
LINE
5
66
100
AcDbEntity
8
1
62
256
6
ByLayer
370
-1
48
1
60
0
100
AcDbLine
10
85.471052
20
4.019263
30
0
11
85.47108
21
4.011596
31
0
39
0
210
0
220
0
230
1
0
LINE
5
67
100
AcDbEntity
8
1
62
256
6
ByLayer
370
-1
48
1
60
0
100
AcDbLine
10
86.766927
20
6.704007
30
0
11
87.445508
21
6.280277
31
0
39
0
210
0
220
0
230
1
0
LINE
5
68
100
AcDbEntity
8
1
62
256
6
ByLayer
370
-1
48
1
60
0
100
AcDbLine
10
9.076795
20
-19.122283
30
0
11
9.076795
21
-5.85989
31
0
39
0
210
0
220
0
230
1
0
LINE
5
69
100
AcDbEntity
8
1
62
256
6
ByLayer
370
-1
48
1
60
0
100
AcDbLine
10
6.923205
20
-5.85989
30
0
11
9.076795
21
-5.85989
31
0
39
0
210
0
220
0
230
1
0
LINE
5
6A
100
AcDbEntity
8
1
62
256
6
ByLayer
370
-1
48
1
60
0
100
AcDbLine
10
87.397127
20
6.169386
30
0
11
86.774571
21
6.558132
31
0
39
0
210
0
220
0
230
1
0
LINE
5
6B
100
AcDbEntity
8
1
62
256
6
ByLayer
370
-1
48
1
60
0
100
AcDbLine
10
91.611269
20
7.648971
30
0
11
91.611269
21
0
31
0
39
0
210
0
220
0
230
1
0
LINE
5
6C
100
AcDbEntity
8
1
62
256
6
ByLayer
370
-1
48
1
60
0
100
AcDbLine
10
9.076795
20
5.85989
30
0
11
9.076795
21
19.122283
31
0
39
0
210
0
220
0
230
1
0
LINE
5
6D
100
AcDbEntity
8
1
62
256
6
ByLayer
370
-1
48
1
60
0
100
AcDbLine
10
6.663397
20
6.16973
30
0
11
6.663397
21
19.024574
31
0
39
0
210
0
220
0
230
1
0
LINE
5
6E
100
AcDbEntity
8
1
62
256
6
ByLayer
370
-1
48
1
60
0
100
AcDbLine
10
20.932549
20
-14.490197
30
0
11
20.932549
21
14.490197
31
0
39
0
210
0
220
0
230
1
0
LINE
5
6F
100
AcDbEntity
8
1
62
256
6
ByLayer
370
-1
48
1
60
0
100
AcDbLine
10
85.374456
20
-4.491068
30
0
11
91.611269
21
0
31
0
39
0
210
0
220
0
230
1
0
LINE
5
70
100
AcDbEntity
8
1
62
256
6
ByLayer
370
-1
48
1
60
0
100
AcDbLine
10
87.399605
20
6.122092
30
0
11
87.397127
21
6.169386
31
0
39
0
210
0
220
0
230
1
0
LINE
5
71
100
AcDbEntity
8
1
62
256
6
ByLayer
370
-1
48
1
60
0
100
AcDbLine
10
79.519799
20
5.642395
30
0
11
85.374456
21
-4.491068
31
0
39
0
210
0
220
0
230
1
0
LINE
5
72
100
AcDbEntity
8
1
62
256
6
ByLayer
370
-1
48
1
60
0
100
AcDbLine
10
6.923205
20
19.122283
30
0
11
9.076795
21
19.122283
31
0
39
0
210
0
220
0
230
1
0
LINE
5
73
100
AcDbEntity
8
1
62
256
6
ByLayer
370
-1
48
1
60
0
100
AcDbLine
10
9.336603
20
6.16973
30
0
11
9.336603
21
19.024574
31
0
39
0
210
0
220
0
230
1
0
LINE
5
74
100
AcDbEntity
8
1
62
256
6
ByLayer
370
-1
48
1
60
0
100
AcDbLine
10
9.336603
20
-19.024574
30
0
11
9.336603
21
-6.16973
31
0
39
0
210
0
220
0
230
1
0
LINE
5
75
100
AcDbEntity
8
1
62
256
6
ByLayer
370
-1
48
1
60
0
100
AcDbLine
10
6.663397
20
-19.024574
30
0
11
6.663397
21
-6.16973
31
0
39
0
210
0
220
0
230
1
0
LINE
5
76
100
AcDbEntity
8
1
62
256
6
ByLayer
370
-1
48
1
60
0
100
AcDbLine
10
77.989009
20
-9.809256
30
0
11
85.374456
21
-4.491068
31
0
39
0
210
0
220
0
230
1
0
LINE
5
77
100
AcDbEntity
8
1
62
256
6
ByLayer
370
-1
48
1
60
0
100
AcDbLine
10
9.076795
20
5.85989
30
0
11
6.923205
21
5.85989
31
0
39
0
210
0
220
0
230
1
0
LINE
5
78
100
AcDbEntity
8
1
62
256
6
ByLayer
370
-1
48
1
60
0
100
AcDbLine
10
19.5
20
-20
30
0
11
19.5
21
20
31
0
39
0
210
0
220
0
230
1
0
LINE
5
79
100
AcDbEntity
8
1
62
256
6
ByLayer
370
-1
48
1
60
0
100
AcDbLine
10
6.923205
20
-19.122283
30
0
11
6.923205
21
-5.85989
31
0
39
0
210
0
220
0
230
1
0
LINE
5
7A
100
AcDbEntity
8
1
62
256
6
ByLayer
370
-1
48
1
60
0
100
AcDbLine
10
9.076795
20
-19.122283
30
0
11
6.923205
21
-19.122283
31
0
39
0
210
0
220
0
230
1
0
LINE
5
7B
100
AcDbEntity
8
1
62
256
6
ByLayer
370
-1
48
1
60
0
100
AcDbLine
10
87.445508
20
6.280277
30
0
11
87.397127
21
6.169386
31
0
39
0
210
0
220
0
230
1
0
LINE
5
7C
100
AcDbEntity
8
SK1
62
256
6
ByLayer
370
-1
48
1
60
0
100
AcDbLine
10
-1.307107
20
-3.588717
30
0
11
-1.307107
21
3.588717
31
0
39
0
210
0
220
0
230
1
0
LINE
5
7E
100
AcDbEntity
8
SK1
62
256
6
ByLayer
370
-1
48
1
60
0
100
AcDbLine
10
-0.2
20
14.083485
30
0
11
-0.2
21
5.547043
31
0
39
0
210
0
220
0
230
1
0
LINE
5
7F
100
AcDbEntity
8
SK1
62
256
6
ByLayer
370
-1
48
1
60
0
100
AcDbLine
10
-0.2
20
-14.083485
30
0
11
-0.2
21
-5.547043
31
0
39
0
210
0
220
0
230
1
0
LINE
5
80
100
AcDbEntity
8
1
62
256
6
ByLayer
370
-1
48
1
60
0
100
AcDbLine
10
84.080429
20
9.718945
30
0
11
84.08202
21
9.688593
31
0
39
0
210
0
220
0
230
1
0
LINE
5
81
100
AcDbEntity
8
1
62
256
6
ByLayer
370
-1
48
1
60
0
100
AcDbLine
10
84.11066
20
9.640002
30
0
11
84.109069
21
9.670354
31
0
39
0
210
0
220
0
230
1
0
LINE
5
82
100
AcDbEntity
8
1
62
256
6
ByLayer
370
-1
48
1
60
0
100
AcDbLine
10
84.350074
20
9.470471
30
0
11
84.348297
21
9.504366
31
0
39
0
210
0
220
0
230
1
0
LINE
5
83
100
AcDbEntity
8
1
62
256
6
ByLayer
370
-1
48
1
60
0
100
AcDbLine
10
83.739604
20
10.155743
30
0
11
83.737826
21
10.18965
31
0
39
0
210
0
220
0
230
1
0
LINE
5
84
100
AcDbEntity
8
1
62
256
6
ByLayer
370
-1
48
1
60
0
100
AcDbLine
10
83.149129
20
10.15032
30
0
11
83.147352
21
10.184227
31
0
39
0
210
0
220
0
230
1
0
LINE
5
85
100
AcDbEntity
8
1
62
256
6
ByLayer
370
-1
48
1
60
0
100
AcDbLine
10
82.55109
20
9.45609
30
0
11
82.549313
21
9.489998
31
0
39
0
210
0
220
0
230
1
0
LINE
5
86
100
AcDbEntity
8
1
62
256
6
ByLayer
370
-1
48
1
60
0
100
AcDbLine
10
82.854853
20
8.590266
30
0
11
82.853077
21
8.624162
31
0
39
0
210
0
220
0
230
1
0
LINE
5
87
100
AcDbEntity
8
1
62
256
6
ByLayer
370
-1
48
1
60
0
100
AcDbLine
10
84.062472
20
8.600736
30
0
11
84.060695
21
8.634644
31
0
39
0
210
0
220
0
230
1
0
LINE
5
88
100
AcDbEntity
8
1
62
256
6
ByLayer
370
-1
48
1
60
0
100
AcDbLine
10
85.174089
20
9.373287
30
0
11
85.173773
21
9.379125
31
0
39
0
210
0
220
0
230
1
0
LINE
5
89
100
AcDbEntity
8
1
62
256
6
ByLayer
370
-1
48
1
60
0
100
AcDbLine
10
80.541307
20
7.397897
30
0
11
86.293421
21
3.806072
31
0
39
0
210
0
220
0
230
1
0
LINE
5
8A
100
AcDbEntity
8
1
62
256
6
ByLayer
370
-1
48
1
60
0
100
AcDbLine
10
80.000543
20
14.482617
30
0
11
80.355299
21
7.71348
31
0
39
0
210
0
220
0
230
1
0
LINE
5
8B
100
AcDbEntity
8
1
62
256
6
ByLayer
370
-1
48
1
60
0
100
AcDbLine
10
86.359312
20
11.247916
30
0
11
80.607197
21
14.839741
31
0
39
0
210
0
220
0
230
1
0
LINE
5
8C
100
AcDbEntity
8
1
62
256
6
ByLayer
370
-1
48
1
60
0
100
AcDbLine
10
86.900076
20
4.163196
30
0
11
86.54532
21
10.932333
31
0
39
0
210
0
220
0
230
1
0
LINE
5
8D
100
AcDbEntity
8
2
62
256
6
ByLayer
370
-1
48
1
60
1
100
AcDbLine
10
80
20
0
30
0
11
80.001
21
0.001
31
0
39
0
210
0
220
0
230
1
0
MTEXT
5
107
100
AcDbEntity
8
SK6
62
256
6
ByLayer
370
-1
48
1
60
0
100
AcDbMText
10
5.080635
20
-30.875
30
0
210
0
220
0
230
1
1
\W00.739;\fsimplex.shx,bigfont.shx;C4-SDUCR-15080-07X 
40
3.5
41
0
44
1.084337
50
0
71
7
72
5
7
DEFAULT
0
DIMENSION
5
13B
100
AcDbEntity
8
SK2
62
256
6
ByLayer
370
-3
48
1
60
0
100
AcDbDimension
2
DimnDraft3D1
10
-36.75
20
20
30
0
11
-36.75
21
-5.021053
31
0
70
32
71
5
72
1
41
1
210
0
220
0
230
1
3
Standard
100
AcDbAlignedDimension
13
-2
23
-20
33
0
14
-2
24
20
34
0
50
90
100
AcDbRotatedDimension
1001
ACAD
1000
DSTYLE
1002
{
1070
    74
1070
     0
1070
   279
1070
     0
1070
   172
1070
     1
1070
   173
1070
     1
1070
   340
1005
108
1070
    77
1070
     1
1070
    73
1070
     0
1070
   171
1070
     4
1070
   274
1070
     4
1070
   177
1070
     2
1070
   176
1070
     2
1070
   178
1070
     7
1070
    78
1070
     8
1070
    41
1041
3.175
1070
   147
1041
2.25
1070
    42
1041
2.0
1070
    44
1041
2.0
1070
   140
1041
4.5
1070
   343
1005
13C
1070
   344
1005
13C
1002
}
0
DIMENSION
5
14E
100
AcDbEntity
8
2
62
256
6
ByLayer
370
-3
48
1
60
0
100
AcDbDimension
2
DimnDraft3D2
10
37.35
20
10
30
0
11
37.35
21
0
31
0
70
32
71
5
72
1
41
1
210
0
220
0
230
1
3
Standard
100
AcDbAlignedDimension
13
22.1
23
10
33
0
14
0
24
0
34
0
50
90
100
AcDbRotatedDimension
1001
ACAD
1000
DSTYLE
1002
{
1070
    74
1070
     0
1070
   279
1070
     0
1070
   172
1070
     1
1070
   173
1070
     1
1070
   340
1005
108
1070
    75
1070
     1
1070
    76
1070
     1
1070
    77
1070
     1
1070
    73
1070
     0
1070
   171
1070
     4
1070
   274
1070
     4
1070
   177
1070
     2
1070
   176
1070
     2
1070
   178
1070
     7
1070
    78
1070
     8
1070
    41
1041
3.175
1070
   147
1041
2.25
1070
    42
1041
2.0
1070
    44
1041
2.0
1070
   140
1041
4.5
1070
   343
1005
13C
1070
   344
1005
13C
1002
}
0
DIMENSION
5
15C
100
AcDbEntity
8
2
62
256
6
ByLayer
370
-3
48
1
60
0
100
AcDbDimension
2
DimnDraft3D3
10
102.25
20
0
30
0
11
102.25
21
2.849342
31
0
70
32
71
5
72
1
41
1
210
0
220
0
230
1
3
Standard
100
AcDbAlignedDimension
13
82
23
14.9
33
0
14
82
24
0
34
0
50
90
100
AcDbRotatedDimension
1001
ACAD
1000
DSTYLE
1002
{
1070
    74
1070
     0
1070
   279
1070
     0
1070
   172
1070
     1
1070
   173
1070
     1
1070
   340
1005
108
1070
    77
1070
     1
1070
    73
1070
     0
1070
   171
1070
     4
1070
   274
1070
     4
1070
   177
1070
     2
1070
   176
1070
     2
1070
   178
1070
     7
1070
    78
1070
     8
1070
    41
1041
3.175
1070
   147
1041
2.25
1070
    42
1041
2.0
1070
    44
1041
2.0
1070
   140
1041
4.5
1070
   343
1005
13C
1070
   344
1005
13C
1002
}
0
DIMENSION
5
16A
100
AcDbEntity
8
2
62
256
6
ByLayer
370
-3
48
1
60
0
100
AcDbDimension
2
DimnDraft3D4
10
80
20
42.65
30
0
11
34.836842
21
42.65
31
0
70
32
71
5
72
1
41
1
210
0
220
0
230
1
3
Standard
100
AcDbAlignedDimension
13
0
23
22
33
0
14
80
24
16.9
34
0
50
0
100
AcDbRotatedDimension
1001
ACAD
1000
DSTYLE
1002
{
1070
   279
1070
     0
1070
   172
1070
     1
1070
   173
1070
     1
1070
   340
1005
108
1070
    77
1070
     1
1070
    73
1070
     0
1070
   171
1070
     4
1070
   274
1070
     4
1070
   177
1070
     2
1070
   176
1070
     2
1070
   178
1070
     7
1070
    78
1070
     8
1070
    41
1041
3.175
1070
   147
1041
2.25
1070
    42
1041
2.0
1070
    44
1041
2.0
1070
   140
1041
4.5
1070
   343
1005
13C
1070
   344
1005
13C
1002
}
0
DIMENSION
5
178
100
AcDbEntity
8
2
62
256
6
ByLayer
370
-3
48
1
60
0
100
AcDbDimension
2
DimnDraft3D5
10
80
20
27.65
30
0
11
45.886842
21
27.65
31
0
70
32
71
5
72
1
41
1
210
0
220
0
230
1
3
Standard
100
AcDbAlignedDimension
13
22.1
23
12
33
0
14
80
24
16.9
34
0
50
0
100
AcDbRotatedDimension
1001
ACAD
1000
DSTYLE
1002
{
1070
   279
1070
     0
1070
   172
1070
     1
1070
   173
1070
     1
1070
   340
1005
108
1070
    77
1070
     1
1070
    73
1070
     0
1070
   171
1070
     4
1070
   274
1070
     4
1070
   177
1070
     2
1070
   176
1070
     2
1070
   178
1070
     7
1070
    78
1070
     8
1070
    41
1041
3.175
1070
   147
1041
2.25
1070
    42
1041
2.0
1070
    44
1041
2.0
1070
   140
1041
4.5
1070
   343
1005
13C
1070
   344
1005
13C
1002
}
0
DIMENSION
5
186
100
AcDbEntity
8
2
62
256
6
ByLayer
370
-3
48
1
60
0
100
AcDbDimension
2
DimnDraft3D6
10
79.024716
20
33.509526
30
0
11
99.429657
21
28.907196
31
0
70
34
71
5
72
1
41
1
210
0
220
0
230
1
3
Standard
100
AcDb2LineAngularDimension
13
82
23
0
33
0
14
114.336389
24
0
34
0
15
79.895328
25
16.897259
35
0
16
105.599853
26
26.153745
36
0
40
0
0
ENDSEC
0
SECTION
2
OBJECTS
0
DICTIONARY
5
1b7
330
0
100
AcDbDictionary
280
0
281
1
3
ACAD_GROUP
350
1b8
3
ACAD_MLINESTYLE
350
1b9
0
DICTIONARY
5
1b8
330
0
100
AcDbDictionary
280
0
281
1
0
DICTIONARY
5
1b9
330
0
100
AcDbDictionary
280
0
281
1
3
Standard
350
18
0
MLINESTYLE
5
18
330
1b9
100
AcDbMlineStyle
2
Standard
70
0
3

62
256
51
90
52
90
71
2
49
-0.5
62
256
6
ByLayer
49
0.5
62
256
6
ByLayer
0
RASTERVARIABLES
5
1a5
330

100
AcDbRasterVariables
90
0
70
1
71
1
72
1
0
ENDSEC
0
EOF
