0
SECTION
2
HEADER
9
$ACADVER
1
AC1015
9
$DWGCODEPAGE
3
ANSI_1252
9
$HANDSEED
5
1c2
9
$ANGBASE
50
0
9
$ANGDIR
70
0
9
$ATTMODE
70
1
9
$AUNITS
70
0
9
$AUPREC
70
0
9
$CECOLOR
62
256
9
$CELTSCALE
40
1
9
$CELTYPE
6
ByLayer
9
$CELWEIGHT
370
-1
9
$CLAYER
8
0
9
$CMLJUST
70
0
9
$CMLSCALE
40
1
9
$CMLSTYLE
2
Standard
9
$DIMSTYLE
2
Standard
9
$TEXTSIZE
40
0.2
9
$TEXTSTYLE
7
Standard
9
$LUNITS
70
2
9
$LUPREC
70
4
9
$EXTNAMES
290
1
9
$INSUNITS
70
4
9
$LTSCALE
40
1
9
$LWDISPLAY
290
0
9
$PDMODE
70
0
9
$PDSIZE
40
0
9
$PLINEGEN
70
0
0
ENDSEC
0
SECTION
2
CLASSES
0
CLASS
1
RASTERVARIABLES
2
AcDbRasterVariables
3
ISM
90
0
280
0
281
0
0
ENDSEC
0
SECTION
2
TABLES
0
TABLE
2
VPORT
5
1b8
100
AcDbSymbolTable
0
VPORT
5
1
100
AcDbSymbolTableRecord
100
AcDbViewportTableRecord
2
*Active
70
0
10
0
20
0
11
1
21
1
12
-1
22
1
13
0
23
0
14
0.5
24
0.5
15
10
25
10
16
0
26
0
36
1
17
0
27
0
37
0
0
ENDTAB
0
TABLE
2
LTYPE
5
1b9
100
AcDbSymbolTable
0
LTYPE
5
14
100
AcDbSymbolTableRecord
100
AcDbLinetypeTableRecord
70
0
2
ByBlock
3

72
65
73
0
40
0
0
LTYPE
5
15
100
AcDbSymbolTableRecord
100
AcDbLinetypeTableRecord
70
0
2
ByLayer
3

72
65
73
0
40
0
0
LTYPE
5
16
100
AcDbSymbolTableRecord
100
AcDbLinetypeTableRecord
70
0
2
CONTINUOUS
3
Solid line
72
65
73
0
40
0
0
LTYPE
5
3B
100
AcDbSymbolTableRecord
100
AcDbLinetypeTableRecord
70
0
2
DASHED
3
__ __ __ __ __ __ __ __ __
72
65
73
2
40
25.72
49
12.86
74
0
49
-12.86
74
0
0
LTYPE
5
3C
100
AcDbSymbolTableRecord
100
AcDbLinetypeTableRecord
70
0
2
HIDDEN
3
_ _ _ _ _ _ _ _ _ _ _ _ _ _ _
72
65
73
2
40
0.5
49
0.25
74
0
49
-0.25
74
0
0
LTYPE
5
3D
100
AcDbSymbolTableRecord
100
AcDbLinetypeTableRecord
70
0
2
PHANTOM
3
____ _ _ ____ _ _ _____ _ _ ____
72
65
73
6
40
50.5
49
18
74
0
49
-6.5
74
0
49
6.5
74
0
49
-6.5
74
0
49
6.5
74
0
49
-6.5
74
0
0
LTYPE
5
3E
100
AcDbSymbolTableRecord
100
AcDbLinetypeTableRecord
70
0
2
CENTER
3
____ _ ____ _ ____ _ ____
72
65
73
4
40
47.5
49
22
74
0
49
-8.5
74
0
49
8.5
74
0
49
-8.5
74
0
0
LTYPE
5
3F
100
AcDbSymbolTableRecord
100
AcDbLinetypeTableRecord
70
0
2
DOT
3
.........................
72
65
73
2
40
10
49
0
74
0
49
-10
74
0
0
LTYPE
5
40
100
AcDbSymbolTableRecord
100
AcDbLinetypeTableRecord
70
0
2
DASHDOT
3
_._._._._._._._._._._._._._._._.
72
65
73
4
40
70
49
31
74
0
49
-13
74
0
49
13
74
0
49
-13
74
0
0
ENDTAB
0
TABLE
2
LAYER
5
1ba
100
AcDbSymbolTable
0
LAYER
5
10
100
AcDbSymbolTableRecord
100
AcDbLayerTableRecord
2
0
70
0
62
7
6
CONTINUOUS
290
1
370
-3
390
0
0
LAYER
5
42
100
AcDbSymbolTableRecord
100
AcDbLayerTableRecord
2
80
70
0
62
-6
6
CONTINUOUS
290
1
370
-3
390
0
0
LAYER
5
44
100
AcDbSymbolTableRecord
100
AcDbLayerTableRecord
2
81
70
0
62
-3
6
CONTINUOUS
290
1
370
-3
390
0
0
LAYER
5
46
100
AcDbSymbolTableRecord
100
AcDbLayerTableRecord
2
1
70
0
62
4
6
CONTINUOUS
290
1
370
-3
390
0
0
LAYER
5
48
100
AcDbSymbolTableRecord
100
AcDbLayerTableRecord
2
2
70
0
62
7
6
CONTINUOUS
290
1
370
-3
390
0
0
LAYER
5
4F
100
AcDbSymbolTableRecord
100
AcDbLayerTableRecord
2
4
70
0
62
-2
6
CENTER
290
1
370
-3
390
0
0
LAYER
5
1a4
100
AcDbSymbolTableRecord
100
AcDbLayerTableRecord
2
SK4
70
0
62
2
6
CENTER
290
1
370
-3
390
0
0
LAYER
5
1a5
100
AcDbSymbolTableRecord
100
AcDbLayerTableRecord
2
SK1
70
0
62
4
6
CONTINUOUS
290
1
370
-3
390
0
0
LAYER
5
1a6
100
AcDbSymbolTableRecord
100
AcDbLayerTableRecord
2
SK6
70
0
62
5
6
CONTINUOUS
290
1
370
-3
390
0
0
LAYER
5
1a7
100
AcDbSymbolTableRecord
100
AcDbLayerTableRecord
2
SK2
70
0
62
7
6
CONTINUOUS
290
1
370
-3
390
0
0
ENDTAB
0
TABLE
2
STYLE
5
1bb
100
AcDbSymbolTable
0
STYLE
5
11
100
AcDbSymbolTableRecord
100
AcDbTextStyleTableRecord
2
Standard
3
txt
70
0
71
0
40
0
41
1
42
0
50
0
0
STYLE
5
106
100
AcDbSymbolTableRecord
100
AcDbTextStyleTableRecord
2
DEFAULT
3
simplex.shx
70
0
71
0
40
0
41
1
42
0
50
0
0
STYLE
5
129
100
AcDbSymbolTableRecord
100
AcDbTextStyleTableRecord
2
DWGDirectTextStyle
3
SIMPLEX
70
0
71
0
40
0
41
1
42
0
50
0
0
ENDTAB
0
TABLE
2
DIMSTYLE
5
1bc
100
AcDbSymbolTable
100
AcDbDimStyleTable
0
DIMSTYLE
105
27
100
AcDbSymbolTableRecord
100
AcDbDimStyleTableRecord
2
Standard
70
0
3
<>
41
0.18
42
0.0625
44
0.18
140
0.18
147
0.09
73
0
74
0
77
1
271
2
275
0
278
52
280
0
340
11
0
ENDTAB
0
TABLE
2
VIEW
5
1bd
100
AcDbSymbolTable
0
ENDTAB
0
TABLE
2
UCS
5
1be
100
AcDbSymbolTable
0
ENDTAB
0
TABLE
2
APPID
5
1bf
100
AcDbSymbolTable
0
APPID
5
12
100
AcDbSymbolTableRecord
100
AcDbRegAppTableRecord
2
ACAD
70
0
0
ENDTAB
0
TABLE
2
BLOCK_RECORD
5
1c0
100
AcDbSymbolTable
0
BLOCK_RECORD
5
1F
100
AcDbSymbolTableRecord
100
AcDbBlockTableRecord
2
*Model_Space
340
0
70
0
0
BLOCK_RECORD
5
1B
100
AcDbSymbolTableRecord
100
AcDbBlockTableRecord
2
*Paper_Space
340
0
70
0
0
BLOCK_RECORD
5
23
100
AcDbSymbolTableRecord
100
AcDbBlockTableRecord
2
*Paper_Space0
340
0
70
0
0
BLOCK_RECORD
5
12B
100
AcDbSymbolTableRecord
100
AcDbBlockTableRecord
2
DimnDraft3D1
340
0
70
0
0
BLOCK_RECORD
5
13A
100
AcDbSymbolTableRecord
100
AcDbBlockTableRecord
2
_CLOSED
340
0
70
0
0
BLOCK_RECORD
5
141
100
AcDbSymbolTableRecord
100
AcDbBlockTableRecord
2
DimnDraft3D2
340
0
70
0
0
BLOCK_RECORD
5
14D
100
AcDbSymbolTableRecord
100
AcDbBlockTableRecord
2
DimnDraft3D3
340
0
70
0
0
BLOCK_RECORD
5
15B
100
AcDbSymbolTableRecord
100
AcDbBlockTableRecord
2
DimnDraft3D4
340
0
70
0
0
BLOCK_RECORD
5
169
100
AcDbSymbolTableRecord
100
AcDbBlockTableRecord
2
DimnDraft3D5
340
0
70
0
0
BLOCK_RECORD
5
177
100
AcDbSymbolTableRecord
100
AcDbBlockTableRecord
2
DimnDraft3D6
340
0
70
0
0
ENDTAB
0
ENDSEC
0
SECTION
2
BLOCKS
0
BLOCK
5
20
100
AcDbEntity
8
0
100
AcDbBlockBegin
2
*Model_Space
70
0
10
0
20
0
30
0
3
*Model_Space
0
ENDBLK
5
21
100
AcDbEntity
8
0
100
AcDbBlockEnd
0
BLOCK
5
1C
100
AcDbEntity
8
0
100
AcDbBlockBegin
2
*Paper_Space
70
0
10
0
20
0
30
0
3
*Paper_Space
0
ENDBLK
5
1D
100
AcDbEntity
8
0
100
AcDbBlockEnd
0
BLOCK
5
24
100
AcDbEntity
8
0
100
AcDbBlockBegin
2
*Paper_Space0
70
0
10
0
20
0
30
0
3
*Paper_Space0
0
ENDBLK
5
25
100
AcDbEntity
8
0
100
AcDbBlockEnd
0
BLOCK
5
137
100
AcDbEntity
8
0
100
AcDbBlockBegin
2
DimnDraft3D1
70
0
10
0
20
0
30
0
3
DimnDraft3D1
0
MTEXT
5
12C
100
AcDbEntity
8
SK2
62
256
6
ByLayer
370
-1
48
1
60
0
100
AcDbMText
10
-37.875
20
-3.896053
30
0
210
0
220
0
230
1
1
\W01.000;\fsimplex.shx,bigfont.shx;%%c40 
40
4.5
41
0
44
1.084337
50
90
71
7
72
5
7
DEFAULT
0
LINE
5
12E
100
AcDbEntity
8
SK2
62
256
6
ByLayer
370
-1
48
1
60
0
100
AcDbLine
10
-2
20
20
30
0
11
-38.75
21
20
31
0
39
0
210
0
220
0
230
1
0
LINE
5
12F
100
AcDbEntity
8
SK2
62
256
6
ByLayer
370
-1
48
1
60
0
100
AcDbLine
10
-2
20
-20
30
0
11
-38.75
21
-20
31
0
39
0
210
0
220
0
230
1
0
LINE
5
130
100
AcDbEntity
8
SK2
62
256
6
ByLayer
370
-1
48
1
60
0
100
AcDbLine
10
-36.75
20
20
30
0
11
-36.75
21
-20
31
0
39
0
210
0
220
0
230
1
0
LINE
5
131
100
AcDbEntity
8
SK2
62
256
6
ByLayer
370
-1
48
1
60
0
100
AcDbLine
10
-36.75
20
20
30
0
11
-36.332003
21
16.825002
31
0
39
0
210
0
220
0
230
1
0
LINE
5
132
100
AcDbEntity
8
SK2
62
256
6
ByLayer
370
-1
48
1
60
0
100
AcDbLine
10
-36.75
20
20
30
0
11
-37.167997
21
16.824998
31
0
39
0
210
0
220
0
230
1
0
LINE
5
133
100
AcDbEntity
8
SK2
62
256
6
ByLayer
370
-1
48
1
60
0
100
AcDbLine
10
-36.332003
20
16.825002
30
0
11
-37.167997
21
16.824998
31
0
39
0
210
0
220
0
230
1
0
LINE
5
134
100
AcDbEntity
8
SK2
62
256
6
ByLayer
370
-1
48
1
60
0
100
AcDbLine
10
-36.75
20
-20
30
0
11
-37.167997
21
-16.825002
31
0
39
0
210
0
220
0
230
1
0
LINE
5
135
100
AcDbEntity
8
SK2
62
256
6
ByLayer
370
-1
48
1
60
0
100
AcDbLine
10
-36.75
20
-20
30
0
11
-36.332003
21
-16.824998
31
0
39
0
210
0
220
0
230
1
0
LINE
5
136
100
AcDbEntity
8
SK2
62
256
6
ByLayer
370
-1
48
1
60
0
100
AcDbLine
10
-37.167997
20
-16.825002
30
0
11
-36.332003
21
-16.824998
31
0
39
0
210
0
220
0
230
1
0
ENDBLK
5
138
100
AcDbEntity
8
0
100
AcDbBlockEnd
0
BLOCK
5
13B
100
AcDbEntity
8
0
100
AcDbBlockBegin
2
_CLOSED
70
0
10
0
20
0
30
0
3
_CLOSED
0
LINE
5
13D
100
AcDbEntity
8
0
62
256
6
ByLayer
370
-2
48
1
60
0
100
AcDbLine
10
-1
20
0.166667
30
0
11
0
21
0
31
0
39
0
210
0
220
0
230
1
0
LINE
5
13E
100
AcDbEntity
8
0
62
256
6
ByLayer
370
-2
48
1
60
0
100
AcDbLine
10
0
20
0
30
0
11
-1
21
-0.166667
31
0
39
0
210
0
220
0
230
1
0
LINE
5
13F
100
AcDbEntity
8
0
62
256
6
ByLayer
370
-2
48
1
60
0
100
AcDbLine
10
-1
20
0.166667
30
0
11
-1
21
-0.166667
31
0
39
0
210
0
220
0
230
1
0
LINE
5
140
100
AcDbEntity
8
0
62
256
6
ByLayer
370
-2
48
1
60
0
100
AcDbLine
10
0
20
0
30
0
11
-1
21
0
31
0
39
0
210
0
220
0
230
1
0
ENDBLK
5
13C
100
AcDbEntity
8
0
100
AcDbBlockEnd
0
BLOCK
5
14A
100
AcDbEntity
8
0
100
AcDbBlockBegin
2
DimnDraft3D2
70
0
10
0
20
0
30
0
3
DimnDraft3D2
0
MTEXT
5
142
100
AcDbEntity
8
2
62
256
6
ByLayer
370
-1
48
1
60
0
100
AcDbMText
10
35.625
20
-6.193421
30
0
210
0
220
0
230
1
1
\W01.000;\fsimplex.shx,bigfont.shx;%%c25.0 
40
4.5
41
0
44
1.084337
50
90
71
7
72
5
7
DEFAULT
0
LINE
5
143
100
AcDbEntity
8
2
62
256
6
ByLayer
370
-1
48
1
60
0
100
AcDbLine
10
36.75
20
-12.5
30
0
11
36.75
21
12.5
31
0
39
0
210
0
220
0
230
1
0
LINE
5
144
100
AcDbEntity
8
2
62
256
6
ByLayer
370
-1
48
1
60
0
100
AcDbLine
10
36.75
20
-12.5
30
0
11
36.332003
21
-9.325002
31
0
39
0
210
0
220
0
230
1
0
LINE
5
145
100
AcDbEntity
8
2
62
256
6
ByLayer
370
-1
48
1
60
0
100
AcDbLine
10
36.75
20
-12.5
30
0
11
37.167997
21
-9.324998
31
0
39
0
210
0
220
0
230
1
0
LINE
5
146
100
AcDbEntity
8
2
62
256
6
ByLayer
370
-1
48
1
60
0
100
AcDbLine
10
36.332003
20
-9.325002
30
0
11
37.167997
21
-9.324998
31
0
39
0
210
0
220
0
230
1
0
LINE
5
147
100
AcDbEntity
8
2
62
256
6
ByLayer
370
-1
48
1
60
0
100
AcDbLine
10
36.75
20
12.5
30
0
11
37.167997
21
9.325002
31
0
39
0
210
0
220
0
230
1
0
LINE
5
148
100
AcDbEntity
8
2
62
256
6
ByLayer
370
-1
48
1
60
0
100
AcDbLine
10
36.75
20
12.5
30
0
11
36.332003
21
9.324998
31
0
39
0
210
0
220
0
230
1
0
LINE
5
149
100
AcDbEntity
8
2
62
256
6
ByLayer
370
-1
48
1
60
0
100
AcDbLine
10
37.167997
20
9.325002
30
0
11
36.332003
21
9.324998
31
0
39
0
210
0
220
0
230
1
0
ENDBLK
5
14B
100
AcDbEntity
8
0
100
AcDbBlockEnd
0
BLOCK
5
158
100
AcDbEntity
8
0
100
AcDbBlockBegin
2
DimnDraft3D3
70
0
10
0
20
0
30
0
3
DimnDraft3D3
0
MTEXT
5
14E
100
AcDbEntity
8
2
62
256
6
ByLayer
370
-1
48
1
60
0
100
AcDbMText
10
111.125
20
-12.425658
30
0
210
0
220
0
230
1
1
\W01.000;\fsimplex.shx,bigfont.shx;18.0 
40
4.5
41
0
44
1.084337
50
90
71
7
72
5
7
DEFAULT
0
LINE
5
14F
100
AcDbEntity
8
2
62
256
6
ByLayer
370
-1
48
1
60
0
100
AcDbLine
10
92
20
0
30
0
11
114.25
21
0
31
0
39
0
210
0
220
0
230
1
0
LINE
5
150
100
AcDbEntity
8
2
62
256
6
ByLayer
370
-1
48
1
60
0
100
AcDbLine
10
92
20
-17.9
30
0
11
114.25
21
-17.9
31
0
39
0
210
0
220
0
230
1
0
LINE
5
151
100
AcDbEntity
8
2
62
256
6
ByLayer
370
-1
48
1
60
0
100
AcDbLine
10
112.25
20
11.25
30
0
11
112.25
21
-29.15
31
0
39
0
210
0
220
0
230
1
0
LINE
5
152
100
AcDbEntity
8
2
62
256
6
ByLayer
370
-1
48
1
60
0
100
AcDbLine
10
112.25
20
0
30
0
11
111.832003
21
3.174998
31
0
39
0
210
0
220
0
230
1
0
LINE
5
153
100
AcDbEntity
8
2
62
256
6
ByLayer
370
-1
48
1
60
0
100
AcDbLine
10
112.25
20
0
30
0
11
112.667997
21
3.175002
31
0
39
0
210
0
220
0
230
1
0
LINE
5
154
100
AcDbEntity
8
2
62
256
6
ByLayer
370
-1
48
1
60
0
100
AcDbLine
10
111.832003
20
3.174998
30
0
11
112.667997
21
3.175002
31
0
39
0
210
0
220
0
230
1
0
LINE
5
155
100
AcDbEntity
8
2
62
256
6
ByLayer
370
-1
48
1
60
0
100
AcDbLine
10
112.25
20
-17.9
30
0
11
112.667997
21
-21.074998
31
0
39
0
210
0
220
0
230
1
0
LINE
5
156
100
AcDbEntity
8
2
62
256
6
ByLayer
370
-1
48
1
60
0
100
AcDbLine
10
112.25
20
-17.9
30
0
11
111.832003
21
-21.075002
31
0
39
0
210
0
220
0
230
1
0
LINE
5
157
100
AcDbEntity
8
2
62
256
6
ByLayer
370
-1
48
1
60
0
100
AcDbLine
10
112.667997
20
-21.074998
30
0
11
111.832003
21
-21.075002
31
0
39
0
210
0
220
0
230
1
0
ENDBLK
5
159
100
AcDbEntity
8
0
100
AcDbBlockEnd
0
BLOCK
5
166
100
AcDbEntity
8
0
100
AcDbBlockBegin
2
DimnDraft3D4
70
0
10
0
20
0
30
0
3
DimnDraft3D4
0
MTEXT
5
15C
100
AcDbEntity
8
2
62
256
6
ByLayer
370
-1
48
1
60
0
100
AcDbMText
10
40.961842
20
-49.025
30
0
210
0
220
0
230
1
1
\W01.000;\fsimplex.shx,bigfont.shx;90.0 
40
4.5
41
0
44
1.084337
50
0
71
7
72
5
7
DEFAULT
0
LINE
5
15D
100
AcDbEntity
8
2
62
256
6
ByLayer
370
-1
48
1
60
0
100
AcDbLine
10
0
20
-22
30
0
11
0
21
-52.15
31
0
39
0
210
0
220
0
230
1
0
LINE
5
15E
100
AcDbEntity
8
2
62
256
6
ByLayer
370
-1
48
1
60
0
100
AcDbLine
10
90
20
-19.9
30
0
11
90
21
-52.15
31
0
39
0
210
0
220
0
230
1
0
LINE
5
15F
100
AcDbEntity
8
2
62
256
6
ByLayer
370
-1
48
1
60
0
100
AcDbLine
10
0
20
-50.15
30
0
11
90
21
-50.15
31
0
39
0
210
0
220
0
230
1
0
LINE
5
160
100
AcDbEntity
8
2
62
256
6
ByLayer
370
-1
48
1
60
0
100
AcDbLine
10
0
20
-50.15
30
0
11
3.174998
21
-49.732003
31
0
39
0
210
0
220
0
230
1
0
LINE
5
161
100
AcDbEntity
8
2
62
256
6
ByLayer
370
-1
48
1
60
0
100
AcDbLine
10
0
20
-50.15
30
0
11
3.175002
21
-50.567997
31
0
39
0
210
0
220
0
230
1
0
LINE
5
162
100
AcDbEntity
8
2
62
256
6
ByLayer
370
-1
48
1
60
0
100
AcDbLine
10
3.174998
20
-49.732003
30
0
11
3.175002
21
-50.567997
31
0
39
0
210
0
220
0
230
1
0
LINE
5
163
100
AcDbEntity
8
2
62
256
6
ByLayer
370
-1
48
1
60
0
100
AcDbLine
10
90
20
-50.15
30
0
11
86.825002
21
-50.567997
31
0
39
0
210
0
220
0
230
1
0
LINE
5
164
100
AcDbEntity
8
2
62
256
6
ByLayer
370
-1
48
1
60
0
100
AcDbLine
10
90
20
-50.15
30
0
11
86.824998
21
-49.732003
31
0
39
0
210
0
220
0
230
1
0
LINE
5
165
100
AcDbEntity
8
2
62
256
6
ByLayer
370
-1
48
1
60
0
100
AcDbLine
10
86.825002
20
-50.567997
30
0
11
86.824998
21
-49.732003
31
0
39
0
210
0
220
0
230
1
0
ENDBLK
5
167
100
AcDbEntity
8
0
100
AcDbBlockEnd
0
BLOCK
5
174
100
AcDbEntity
8
0
100
AcDbBlockBegin
2
DimnDraft3D5
70
0
10
0
20
0
30
0
3
DimnDraft3D5
0
MTEXT
5
16A
100
AcDbEntity
8
2
62
256
6
ByLayer
370
-1
48
1
60
0
100
AcDbMText
10
51.711842
20
-34.025
30
0
210
0
220
0
230
1
1
\W01.000;\fsimplex.shx,bigfont.shx;68.5 
40
4.5
41
0
44
1.084337
50
0
71
7
72
5
7
DEFAULT
0
LINE
5
16B
100
AcDbEntity
8
2
62
256
6
ByLayer
370
-1
48
1
60
0
100
AcDbLine
10
21.5
20
-14.5
30
0
11
21.5
21
-37.15
31
0
39
0
210
0
220
0
230
1
0
LINE
5
16C
100
AcDbEntity
8
2
62
256
6
ByLayer
370
-1
48
1
60
0
100
AcDbLine
10
90
20
-19.9
30
0
11
90
21
-37.15
31
0
39
0
210
0
220
0
230
1
0
LINE
5
16D
100
AcDbEntity
8
2
62
256
6
ByLayer
370
-1
48
1
60
0
100
AcDbLine
10
21.5
20
-35.15
30
0
11
90
21
-35.15
31
0
39
0
210
0
220
0
230
1
0
LINE
5
16E
100
AcDbEntity
8
2
62
256
6
ByLayer
370
-1
48
1
60
0
100
AcDbLine
10
21.5
20
-35.15
30
0
11
24.674998
21
-34.732003
31
0
39
0
210
0
220
0
230
1
0
LINE
5
16F
100
AcDbEntity
8
2
62
256
6
ByLayer
370
-1
48
1
60
0
100
AcDbLine
10
21.5
20
-35.15
30
0
11
24.675002
21
-35.567997
31
0
39
0
210
0
220
0
230
1
0
LINE
5
170
100
AcDbEntity
8
2
62
256
6
ByLayer
370
-1
48
1
60
0
100
AcDbLine
10
24.674998
20
-34.732003
30
0
11
24.675002
21
-35.567997
31
0
39
0
210
0
220
0
230
1
0
LINE
5
171
100
AcDbEntity
8
2
62
256
6
ByLayer
370
-1
48
1
60
0
100
AcDbLine
10
90
20
-35.15
30
0
11
86.825002
21
-35.567997
31
0
39
0
210
0
220
0
230
1
0
LINE
5
172
100
AcDbEntity
8
2
62
256
6
ByLayer
370
-1
48
1
60
0
100
AcDbLine
10
90
20
-35.15
30
0
11
86.824998
21
-34.732003
31
0
39
0
210
0
220
0
230
1
0
LINE
5
173
100
AcDbEntity
8
2
62
256
6
ByLayer
370
-1
48
1
60
0
100
AcDbLine
10
86.825002
20
-35.567997
30
0
11
86.824998
21
-34.732003
31
0
39
0
210
0
220
0
230
1
0
ENDBLK
5
175
100
AcDbEntity
8
0
100
AcDbBlockEnd
0
BLOCK
5
182
100
AcDbEntity
8
0
100
AcDbBlockBegin
2
DimnDraft3D6
70
0
10
0
20
0
30
0
3
DimnDraft3D6
0
MTEXT
5
178
100
AcDbEntity
8
2
62
256
6
ByLayer
370
-1
48
1
60
0
100
AcDbMText
10
114.274921
20
-32.213028
30
0
210
0
220
0
230
1
1
\W01.000;\fsimplex.shx,bigfont.shx;93%%d0' 
40
4.5
41
0
44
1.084337
50
43.5
71
7
72
5
7
DEFAULT
0
LINE
5
179
100
AcDbEntity
8
2
62
256
6
ByLayer
370
-1
48
1
60
0
100
AcDbLine
10
92
20
0
30
0
11
133.493612
21
0
31
0
39
0
210
0
220
0
230
1
0
LINE
5
17A
100
AcDbEntity
8
2
62
256
6
ByLayer
370
-1
48
1
60
0
100
AcDbLine
10
89.895328
20
-19.897259
30
0
11
88.710916
21
-42.497192
31
0
39
0
210
0
220
0
230
1
0
ARC
5
17B
100
AcDbEntity
8
2
62
256
6
ByLayer
370
-1
48
1
60
0
100
AcDbCircle
39
0
10
90.938099
20
0
30
0
40
40.5555127617399
210
0
220
0
230
1
100
AcDbArc
50
267
51
0
0
LINE
5
17C
100
AcDbEntity
8
2
62
256
6
ByLayer
370
-1
48
1
60
0
100
AcDbLine
10
131.493612
20
0
30
0
11
131.849424
21
-3.182567
31
0
39
0
210
0
220
0
230
1
0
LINE
5
17D
100
AcDbEntity
8
2
62
256
6
ByLayer
370
-1
48
1
60
0
100
AcDbLine
10
131.493612
20
0
30
0
11
131.01359
21
-3.166218
31
0
39
0
210
0
220
0
230
1
0
LINE
5
17E
100
AcDbEntity
8
2
62
256
6
ByLayer
370
-1
48
1
60
0
100
AcDbLine
10
131.849424
20
-3.182567
30
0
11
131.01359
21
-3.166218
31
0
39
0
210
0
220
0
230
1
0
LINE
5
17F
100
AcDbEntity
8
2
62
256
6
ByLayer
370
-1
48
1
60
0
100
AcDbLine
10
88.815588
20
-40.499933
30
0
11
92.002586
21
-40.186276
31
0
39
0
210
0
220
0
230
1
0
LINE
5
180
100
AcDbEntity
8
2
62
256
6
ByLayer
370
-1
48
1
60
0
100
AcDbLine
10
88.815588
20
-40.499933
30
0
11
91.975175
21
-41.02182
31
0
39
0
210
0
220
0
230
1
0
LINE
5
181
100
AcDbEntity
8
2
62
256
6
ByLayer
370
-1
48
1
60
0
100
AcDbLine
10
92.002586
20
-40.186276
30
0
11
91.975175
21
-41.02182
31
0
39
0
210
0
220
0
230
1
0
ENDBLK
5
183
100
AcDbEntity
8
0
100
AcDbBlockEnd
0
ENDSEC
0
SECTION
2
ENTITIES
0
ARC
5
8F
100
AcDbEntity
8
1
62
256
6
ByLayer
370
-1
48
1
60
0
100
AcDbCircle
39
0
10
-26.10967
20
-18.5
30
0
40
6
210
0
220
0
230
-1
100
AcDbArc
50
14.931417
51
90
0
ARC
5
90
100
AcDbEntity
8
1
62
256
6
ByLayer
370
-1
48
1
60
0
100
AcDbCircle
39
0
10
-26.10967
20
18.5
30
0
40
6
210
0
220
0
230
-1
100
AcDbArc
50
270
51
345.068583
0
ARC
5
91
100
AcDbEntity
8
SK1
62
256
6
ByLayer
370
-1
48
1
60
0
100
AcDbCircle
39
0
10
0.6
20
-15
30
0
40
1
210
0
220
0
230
-1
100
AcDbArc
50
113.578178
51
126.869898
0
ARC
5
92
100
AcDbEntity
8
SK1
62
256
6
ByLayer
370
-1
48
1
60
0
100
AcDbCircle
39
0
10
0.6
20
15
30
0
40
1
210
0
220
0
230
-1
100
AcDbArc
50
233.130102
51
246.421822
0
ELLIPSE
5
93
100
AcDbEntity
8
1
62
256
6
ByLayer
370
-1
48
1
60
0
100
AcDbEllipse
10
96.733947
20
-8.124031
30
0
11
-1.24828691844322
21
0.0654199453036804
31
0
210
0
220
0
230
1
40
0.999821
41
2.18166156499292
42
-2.24352451352419
0
ELLIPSE
5
94
100
AcDbEntity
8
1
62
256
6
ByLayer
370
-1
48
1
60
0
100
AcDbEllipse
10
97.219653
20
-17.946643
30
0
11
-4.19424404596918
21
0.219811016220364
31
0
210
0
220
0
230
1
40
0.999821
41
-1.38091305556567
42
-1.35875885018017
0
ELLIPSE
5
95
100
AcDbEntity
8
1
62
256
6
ByLayer
370
-1
48
1
60
0
100
AcDbEllipse
10
96.732955
20
-8.138269
30
0
11
1.34251015364105
21
-0.070357975817088
31
0
210
0
220
0
230
1
40
0.999821
41
-0.959925846218237
42
0.955184307533857
0
ELLIPSE
5
96
100
AcDbEntity
8
1
62
256
6
ByLayer
370
-1
48
1
60
0
100
AcDbEllipse
10
96.735233
20
-8.099498
30
0
11
-1.24828691844322
21
0.0654199453036804
31
0
210
0
220
0
230
1
40
0.999821
41
2.18166156499293
42
3.14157962119621
0
ELLIPSE
5
97
100
AcDbEntity
8
1
62
256
6
ByLayer
370
-1
48
1
60
0
100
AcDbEllipse
10
96.51176
20
3.254491
30
0
11
114.250321879986
21
114.23274884837
31
0
210
0
220
0
230
-1
40
0.003273
41
-1.71239366476743
42
-1.6796691133942
0
ELLIPSE
5
98
100
AcDbEntity
8
1
62
256
6
ByLayer
370
-1
48
1
60
0
100
AcDbEllipse
10
-0.948929
20
0
30
0
11
9.36741787978088
21
-19.7417491527488
31
0
210
0
220
0
230
-1
40
0.341999
41
-1.09631952749996
42
-0.152726244898354
0
ELLIPSE
5
99
100
AcDbEntity
8
1
62
256
6
ByLayer
370
-1
48
1
60
0
100
AcDbEllipse
10
-0.948929
20
0
30
0
11
9.36741787978167
21
19.7417491527498
31
0
210
0
220
0
230
-1
40
0.341999
41
0.152726244898341
42
1.09631952749991
0
ELLIPSE
5
9A
100
AcDbEntity
8
1
62
256
6
ByLayer
370
-1
48
1
60
0
100
AcDbEllipse
10
96.516022
20
-7.110704
30
0
11
1.04856101149231
21
-0.0549527540549556
31
0
210
0
220
0
230
1
40
0.999821
41
0.0787316546351334
42
-2.90190709877451
0
ELLIPSE
5
9B
100
AcDbEntity
8
1
62
256
6
ByLayer
370
-1
48
1
60
0
100
AcDbEllipse
10
16.948929
20
0
30
0
11
9.3674178797817
21
19.7417491527498
31
0
210
0
220
0
230
-1
40
0.341999
41
-2.98886640869144
42
-2.04527312608988
0
ELLIPSE
5
9C
100
AcDbEntity
8
1
62
256
6
ByLayer
370
-1
48
1
60
0
100
AcDbEllipse
10
96.518281
20
-7.071929
30
0
11
1.04856101149231
21
-0.0549527540549556
31
0
210
0
220
0
230
1
40
0.999821
41
-1.19434681174871
42
-0.035561711444516
0
ELLIPSE
5
9D
100
AcDbEntity
8
1
62
256
6
ByLayer
370
-1
48
1
60
0
100
AcDbEllipse
10
16.948929
20
0
30
0
11
9.36741787978175
21
-19.7417491527498
31
0
210
0
220
0
230
-1
40
0.341999
41
2.04527312608988
42
2.98886640869145
0
ELLIPSE
5
9E
100
AcDbEntity
8
1
62
256
6
ByLayer
370
-1
48
1
60
0
100
AcDbEllipse
10
86.695787
20
-11.748777
30
0
11
-4.1942440459692
21
0.219811016220365
31
0
210
0
220
0
230
1
40
0.999821
41
-2.74963883373257
42
-2.19452196691018
0
ELLIPSE
5
9F
100
AcDbEntity
8
1
62
256
6
ByLayer
370
-1
48
1
60
0
100
AcDbEllipse
10
96.518726
20
-7.063437
30
0
11
-1.0485610114923
21
0.0549527540550913
31
0
210
0
220
0
230
1
40
0.999821
41
1.94724002804391
42
3.14153622804896
0
ELLIPSE
5
A0
100
AcDbEntity
8
1
62
256
6
ByLayer
370
-1
48
1
60
0
100
AcDbEllipse
10
96.518726
20
-7.063437
30
0
11
-1.0485610114923
21
0.0549527540550913
31
0
210
0
220
0
230
1
40
0.999821
41
0.0235056515176383
42
0.278858552236103
0
ELLIPSE
5
A1
100
AcDbEntity
8
1
62
256
6
ByLayer
370
-1
48
1
60
0
100
AcDbEllipse
10
90.751602
20
-10.729078
30
0
11
0.396331096605743
21
-0.0207708326338681
31
0
210
0
220
0
230
1
40
0.999821
41
2.18166680737151
42
-3.14157403691912
0
ELLIPSE
5
A2
100
AcDbEntity
8
1
62
256
6
ByLayer
370
-1
48
1
60
0
100
AcDbEllipse
10
90.396548
20
-17.501508
30
0
11
0.396331096605766
21
-0.0207708326338693
31
0
210
0
220
0
230
1
40
0.999821
41
-3.14157403691929
42
-0.959925846218365
0
ELLIPSE
5
A3
100
AcDbEntity
8
1
62
256
6
ByLayer
370
-1
48
1
60
0
100
AcDbEllipse
10
96.148829
20
-13.90769
30
0
11
0.396331096605743
21
-0.0207708326338681
31
0
210
0
220
0
230
1
40
0.999821
41
-0.959925846217932
42
1.86166709511664E-05
0
ELLIPSE
5
A4
100
AcDbEntity
8
1
62
256
6
ByLayer
370
-1
48
1
60
0
100
AcDbEllipse
10
93.450984
20
-12.303733
30
0
11
1.82225885974139
21
-0.0955005401176571
31
0
210
0
220
0
230
1
40
0.999821
41
0
42
6.28318530717959
0
ELLIPSE
5
A5
100
AcDbEntity
8
1
62
256
6
ByLayer
370
-1
48
1
60
0
100
AcDbEllipse
10
96.503883
20
-7.13526
30
0
11
0.396331096605766
21
-0.0207708326338693
31
0
210
0
220
0
230
1
40
0.999821
41
0
42
2.18166680737212
0
ELLIPSE
5
A6
100
AcDbEntity
8
1
62
256
6
ByLayer
370
-1
48
1
60
0
100
AcDbEllipse
10
93.450215
20
-12.318384
30
0
11
1.91642389486199
21
-0.100435520494425
31
0
210
0
220
0
230
1
40
0.999821
41
0
42
6.28318530717959
0
ELLIPSE
5
A7
100
AcDbEntity
8
1
62
256
6
ByLayer
370
-1
48
1
60
0
100
AcDbEllipse
10
93.450839
20
-12.306495
30
0
11
1.87243037766488
21
-0.0981299179552801
31
0
210
0
220
0
230
1
40
0.999821
41
0
42
6.28318530717959
0
ELLIPSE
5
A8
100
AcDbEntity
8
1
62
256
6
ByLayer
370
-1
48
1
60
0
100
AcDbEllipse
10
93.450253
20
-12.317674
30
0
11
1.033581568471
21
-0.0541677147113139
31
0
210
0
220
0
230
1
40
0.999821
41
-2.0507570625582
42
-1.0044177865153
0
ELLIPSE
5
A9
100
AcDbEntity
8
1
62
256
6
ByLayer
370
-1
48
1
60
0
100
AcDbEllipse
10
93.869403
20
-13.04058
30
0
11
-0.184746463929596
21
0.00968215190494468
31
0
210
0
220
0
230
1
40
0.999821
41
0.839100840412112
42
3.1415863557594
0
ELLIPSE
5
AA
100
AcDbEntity
8
1
62
256
6
ByLayer
370
-1
48
1
60
0
100
AcDbEllipse
10
93.451242
20
-12.298803
30
0
11
-0.746974891996426
21
0.0391472952697225
31
0
210
0
220
0
230
1
40
0.999821
41
-2.57391752280208
42
-1.59482966764155
0
ELLIPSE
5
AB
100
AcDbEntity
8
1
62
256
6
ByLayer
370
-1
48
1
60
0
100
AcDbEllipse
10
92.433409
20
-12.877007
30
0
11
-0.42142166366643
21
0.0220857735345225
31
0
210
0
220
0
230
1
40
0.999821
41
-2.57393165686168
42
-1.79903192900923
0
ELLIPSE
5
AC
100
AcDbEntity
8
1
62
256
6
ByLayer
370
-1
48
1
60
0
100
AcDbEllipse
10
93.451242
20
-12.298803
30
0
11
-0.746974891996426
21
0.0391472952697225
31
0
210
0
220
0
230
1
40
0.999821
41
-0.442219730499098
42
0.567675130787706
0
ELLIPSE
5
AD
100
AcDbEntity
8
1
62
256
6
ByLayer
370
-1
48
1
60
0
100
AcDbEllipse
10
93.450417
20
-12.314547
30
0
11
0.746974891996428
21
-0.0391472952696256
31
0
210
0
220
0
230
1
40
0.999821
41
2.62390898834314
42
2.6993729230906
0
ELLIPSE
5
AE
100
AcDbEntity
8
1
62
256
6
ByLayer
370
-1
48
1
60
0
100
AcDbEllipse
10
93.440771
20
-13.470289
30
0
11
-0.42142166366643
21
0.0220857735345225
31
0
210
0
220
0
230
1
40
0.999821
41
-2.30249181317743
42
-1.52759208532498
0
ELLIPSE
5
AF
100
AcDbEntity
8
1
62
256
6
ByLayer
370
-1
48
1
60
0
100
AcDbEllipse
10
92.433409
20
-12.877007
30
0
11
-0.42142166366643
21
0.0220857735345225
31
0
210
0
220
0
230
1
40
0.999821
41
-3.14158205776117
42
-2.57393165686168
0
ELLIPSE
5
B0
100
AcDbEntity
8
1
62
256
6
ByLayer
370
-1
48
1
60
0
100
AcDbEllipse
10
93.03354
20
-11.560514
30
0
11
-0.184746463929596
21
0.00968215190494468
31
0
210
0
220
0
230
1
40
0.999821
41
-6.54524140802655E-06
42
0.297120655593392
0
ELLIPSE
5
B1
100
AcDbEntity
8
1
62
256
6
ByLayer
370
-1
48
1
60
0
100
AcDbEllipse
10
93.450253
20
-12.317674
30
0
11
1.033581568471
21
-0.0541677147113139
31
0
210
0
220
0
230
1
40
0.999821
41
-1.0044177865153
42
0.044509877575677
0
ELLIPSE
5
B2
100
AcDbEntity
8
1
62
256
6
ByLayer
370
-1
48
1
60
0
100
AcDbEllipse
10
93.450253
20
-12.317674
30
0
11
1.033581568471
21
-0.0541677147113139
31
0
210
0
220
0
230
1
40
0.999821
41
1.09083559103156
42
2.13717486707449
0
ELLIPSE
5
B3
100
AcDbEntity
8
1
62
256
6
ByLayer
370
-1
48
1
60
0
100
AcDbEllipse
10
94.301445
20
-12.307242
30
0
11
-0.184746463929596
21
0.00968215190494468
31
0
210
0
220
0
230
1
40
0.999821
41
1.88454090939925
42
-3.14157081226861
0
ELLIPSE
5
B4
100
AcDbEntity
8
1
62
256
6
ByLayer
370
-1
48
1
60
0
100
AcDbEllipse
10
93.440771
20
-13.470289
30
0
11
-0.42142166366643
21
0.0220857735345225
31
0
210
0
220
0
230
1
40
0.999821
41
-1.52759208532498
42
-0.752692357472485
0
ELLIPSE
5
B5
100
AcDbEntity
8
1
62
256
6
ByLayer
370
-1
48
1
60
0
100
AcDbEllipse
10
92.444633
20
-11.707573
30
0
11
-0.42142166366643
21
0.0220857735345225
31
0
210
0
220
0
230
1
40
0.999821
41
3.14158358452143
42
-2.84447199799621
0
ELLIPSE
5
B6
100
AcDbEntity
8
1
62
256
6
ByLayer
370
-1
48
1
60
0
100
AcDbEllipse
10
93.450417
20
-12.314547
30
0
11
0.746974891996428
21
-0.0391472952696256
31
0
210
0
220
0
230
1
40
0.999821
41
-0.517683665246407
42
-0.442219730499495
0
ELLIPSE
5
B7
100
AcDbEntity
8
1
62
256
6
ByLayer
370
-1
48
1
60
0
100
AcDbEllipse
10
93.451242
20
-12.298803
30
0
11
-0.746974891996426
21
0.0391472952697225
31
0
210
0
220
0
230
1
40
0.999821
41
-1.43181935119838
42
-0.517683665246634
0
ELLIPSE
5
B8
100
AcDbEntity
8
1
62
256
6
ByLayer
370
-1
48
1
60
0
100
AcDbEllipse
10
94.45831
20
-12.893521
30
0
11
-0.42142166366643
21
0.0220857735345225
31
0
210
0
220
0
230
1
40
0.999821
41
-1.25705174419037
42
-0.546878866614358
0
ELLIPSE
5
B9
100
AcDbEntity
8
1
62
256
6
ByLayer
370
-1
48
1
60
0
100
AcDbEllipse
10
93.451242
20
-12.298803
30
0
11
-0.746974891996427
21
0.0391472952697226
31
0
210
0
220
0
230
1
40
0.999821
41
2.6993729230904
42
-2.57391752280209
0
ELLIPSE
5
BA
100
AcDbEntity
8
1
62
256
6
ByLayer
370
-1
48
1
60
0
100
AcDbEllipse
10
92.601498
20
-12.293852
30
0
11
-0.184746463929596
21
0.00968215190494468
31
0
210
0
220
0
230
1
40
0.999821
41
2.11798507217784E-05
42
1.34256072458072
0
ELLIPSE
5
BB
100
AcDbEntity
8
1
62
256
6
ByLayer
370
-1
48
1
60
0
100
AcDbEllipse
10
93.451242
20
-12.298803
30
0
11
0.746974891996429
21
-0.0391472952696257
31
0
210
0
220
0
230
1
40
0.999821
41
-0.517683665246447
42
-0.442219730499459
0
ELLIPSE
5
BC
100
AcDbEntity
8
1
62
256
6
ByLayer
370
-1
48
1
60
0
100
AcDbEllipse
10
93.451242
20
-12.298803
30
0
11
-0.746974891996426
21
0.0391472952697225
31
0
210
0
220
0
230
1
40
0.999821
41
0.567675130787706
42
1.61400056982639
0
ELLIPSE
5
BD
100
AcDbEntity
8
1
62
256
6
ByLayer
370
-1
48
1
60
0
100
AcDbEllipse
10
94.469535
20
-11.724087
30
0
11
-0.42142166366643
21
0.0220857735345225
31
0
210
0
220
0
230
1
40
0.999821
41
-0.20723873112444
42
1.10231901476902E-05
0
ELLIPSE
5
BE
100
AcDbEntity
8
1
62
256
6
ByLayer
370
-1
48
1
60
0
100
AcDbEllipse
10
94.45831
20
-12.893521
30
0
11
-0.42142166366643
21
0.0220857735345225
31
0
210
0
220
0
230
1
40
0.999821
41
-0.413052221982554
42
-8.58365262278298E-06
0
ELLIPSE
5
BF
100
AcDbEntity
8
1
62
256
6
ByLayer
370
-1
48
1
60
0
100
AcDbEllipse
10
93.450425
20
-12.314392
30
0
11
1.72263594745165
21
-0.0902795245188556
31
0
210
0
220
0
230
1
40
0.999821
41
0
42
6.28318530717959
0
ELLIPSE
5
C0
100
AcDbEntity
8
1
62
256
6
ByLayer
370
-1
48
1
60
0
100
AcDbEllipse
10
93.451143
20
-12.30069
30
0
11
1.72263594745166
21
-0.0902795245188561
31
0
210
0
220
0
230
1
40
0.999821
41
0
42
-3.14064550998344
0
ELLIPSE
5
C1
100
AcDbEntity
8
1
62
256
6
ByLayer
370
-1
48
1
60
0
100
AcDbEllipse
10
93.450253
20
-12.317674
30
0
11
1.033581568471
21
-0.0541677147113139
31
0
210
0
220
0
230
1
40
0.999821
41
2.13717486707449
42
-3.0970827760141
0
ELLIPSE
5
C2
100
AcDbEntity
8
1
62
256
6
ByLayer
370
-1
48
1
60
0
100
AcDbEllipse
10
93.450253
20
-12.317674
30
0
11
1.033581568471
21
-0.0541677147113139
31
0
210
0
220
0
230
1
40
0.999821
41
-3.0970827760141
42
-2.0507570625582
0
ELLIPSE
5
C3
100
AcDbEntity
8
1
62
256
6
ByLayer
370
-1
48
1
60
0
100
AcDbEllipse
10
93.020071
20
-13.032797
30
0
11
-0.184746463929596
21
0.00968215190494468
31
0
210
0
220
0
230
1
40
0.999821
41
7.22789234599355E-06
42
2.38890029611723
0
ELLIPSE
5
C4
100
AcDbEntity
8
1
62
256
6
ByLayer
370
-1
48
1
60
0
100
AcDbEllipse
10
93.451242
20
-12.298803
30
0
11
-0.746974891996426
21
0.0391472952697225
31
0
210
0
220
0
230
1
40
0.999821
41
1.61400056982639
42
2.62390898834341
0
ELLIPSE
5
C5
100
AcDbEntity
8
1
62
256
6
ByLayer
370
-1
48
1
60
0
100
AcDbEllipse
10
93.450253
20
-12.317674
30
0
11
1.29821839518093
21
-0.068036743115658
31
0
210
0
220
0
230
1
40
0.999821
41
0
42
6.28318530717959
0
ELLIPSE
5
C6
100
AcDbEntity
8
1
62
256
6
ByLayer
370
-1
48
1
60
0
100
AcDbEllipse
10
93.450253
20
-12.317674
30
0
11
1.033581568471
21
-0.0541677147113139
31
0
210
0
220
0
230
1
40
0.999821
41
0.044509877575677
42
1.09083559103156
0
POINT
5
41
100
AcDbEntity
8
80
62
256
6
ByLayer
370
-1
48
1
60
0
100
AcDbPoint
10
0
20
0
30
0
39
0
210
0
220
0
230
1
50
360
0
POINT
5
43
100
AcDbEntity
8
81
62
256
6
ByLayer
370
-1
48
1
60
0
100
AcDbPoint
10
90
20
-17.9
30
0
39
0
210
0
220
0
230
1
50
360
0
POINT
5
45
100
AcDbEntity
8
1
62
256
6
ByLayer
370
-1
48
1
60
0
100
AcDbPoint
10
0
20
0
30
0
39
0
210
0
220
0
230
1
50
360
0
POINT
5
47
100
AcDbEntity
8
2
62
256
6
ByLayer
370
-1
48
1
60
0
100
AcDbPoint
10
90
20
17.9
30
0
39
0
210
0
220
0
230
1
50
360
0
POINT
5
49
100
AcDbEntity
8
2
62
256
6
ByLayer
370
-1
48
1
60
0
100
AcDbPoint
10
101.609272
20
0
30
0
39
0
210
0
220
0
230
1
50
360
0
SPLINE
5
C7
100
AcDbEntity
8
SK1
62
256
6
ByLayer
370
-1
48
1
60
0
100
AcDbSpline
70
4
71
2
72
6
73
3
40
0
40
0
40
0
40
1
40
1
40
1
41
1
10
-1.69501459340779
20
14.0202240353492
30
0
41
1
10
-2.0975072967039
20
14.0101120176829
30
0
41
1
10
-2.5
20
14.0000000000165
30
0
0
SPLINE
5
C8
100
AcDbEntity
8
SK1
62
256
6
ByLayer
370
-1
48
1
60
0
100
AcDbSpline
70
4
71
2
72
6
73
3
40
0
40
0
40
0
40
1
40
1
40
1
41
1
10
-2.5
20
-14.0000000000425
30
0
41
1
10
-2.0975072967039
20
-14.0101120177088
30
0
41
1
10
-1.69501459340779
20
-14.0202240353752
30
0
0
SPLINE
5
C9
100
AcDbEntity
8
SK1
62
256
6
ByLayer
370
-1
48
1
60
0
100
AcDbSpline
70
4
71
2
72
6
73
3
40
0
40
0
40
0
40
1
40
1
40
1
41
1
10
-2.5
20
14.0000000000165
30
0
41
1
10
-12.5002365839528
20
13.7487592491245
30
0
41
1
10
-22.5004731679057
20
13.4975184982324
30
0
0
SPLINE
5
CA
100
AcDbEntity
8
SK1
62
256
6
ByLayer
370
-1
48
1
60
0
100
AcDbSpline
70
4
71
2
72
6
73
3
40
0
40
0
40
0
40
1
40
1
40
1
41
1
10
-22.5004731679057
20
-13.4975184982574
30
0
41
1
10
-12.5002365839528
20
-13.7487592491499
30
0
41
1
10
-2.5
20
-14.0000000000425
30
0
0
SPLINE
5
CB
100
AcDbEntity
8
SK1
62
256
6
ByLayer
370
-1
48
1
60
0
100
AcDbSpline
70
4
71
2
72
6
73
3
40
0
40
0
40
0
40
1
40
1
40
1
41
1
10
-24
20
-12.580456895609
30
0
41
1
10
-23.250195418368
20
-13.0391711292673
30
0
41
1
10
-22.5003908339782
20
-13.4978821831766
30
0
0
SPLINE
5
CC
100
AcDbEntity
8
SK1
62
256
6
ByLayer
370
-1
48
1
60
0
100
AcDbSpline
70
4
71
2
72
6
73
3
40
0
40
0
40
0
40
1
40
1
40
1
41
1
10
-22.5004044652863
20
13.4963063088843
30
0
41
1
10
-23.2502022102608
20
13.0377782396013
30
0
41
1
10
-24
20
12.579249793836
30
0
0
SPLINE
5
CD
100
AcDbEntity
8
SK1
62
256
6
ByLayer
370
-1
48
1
60
0
100
AcDbSpline
70
4
71
3
72
16
73
12
40
0
40
0
40
0
40
0
40
0.0975235696596714
40
0.206184587548306
40
0.322939530015251
40
0.445888146002815
40
0.572757047133487
40
0.701036612331783
40
0.828129536279304
40
0.951505669913255
40
1
40
1
40
1
40
1
41
1
10
-1.68582137026991
20
-5.51385447770335
30
0
41
1
10
-1.68326409282557
20
-5.8709229072758
30
0
41
1
10
-1.67752173697204
20
-6.60382960613754
30
0
41
1
10
-1.66730168260676
20
-7.67886144236513
30
0
41
1
10
-1.65522133826045
20
-8.75261613589726
30
0
41
1
10
-1.64144292141844
20
-9.78461237108897
30
0
41
1
10
-1.62617583775139
20
-10.740678932546
30
0
41
1
10
-1.60969210828654
20
-11.5935156729342
30
0
41
1
10
-1.59218941857006
20
-12.3124426505354
30
0
41
1
10
-1.5776378603409
20
-12.7998215481029
30
0
41
1
10
-1.56854622670536
20
-13.0112736215625
30
0
41
1
10
-1.56593765618805
20
-13.0666993816282
30
0
0
SPLINE
5
CE
100
AcDbEntity
8
SK1
62
256
6
ByLayer
370
-1
48
1
60
0
100
AcDbSpline
70
4
71
2
72
6
73
3
40
0
40
0
40
0
40
1
40
1
40
1
41
1
10
-1.53073406713622
20
13.62526210973
30
0
41
1
10
-1.53157519659041
20
13.6176137915113
30
0
41
1
10
-1.53278671148459
20
13.5997804576484
30
0
0
SPLINE
5
CF
100
AcDbEntity
8
SK1
62
256
6
ByLayer
370
-1
48
1
60
0
100
AcDbSpline
70
4
71
2
72
6
73
3
40
0
40
0
40
0
40
1
40
1
40
1
41
1
10
-0.399999999999949
20
13.7870504860687
30
0
41
1
10
-0.94999999999996
20
13.7870504860687
30
0
41
1
10
-1.49999999999994
20
13.7870504860687
30
0
0
SPLINE
5
D0
100
AcDbEntity
8
SK1
62
256
6
ByLayer
370
-1
48
1
60
0
100
AcDbSpline
70
4
71
2
72
6
73
3
40
0
40
0
40
0
40
1
40
1
40
1
41
1
10
-1.49999999999994
20
-13.787050293933
30
0
41
1
10
-0.94999999999996
20
-13.787050293933
30
0
41
1
10
-0.399999999999949
20
-13.787050293933
30
0
0
SPLINE
5
D1
100
AcDbEntity
8
1
62
256
6
ByLayer
370
-1
48
1
60
0
100
AcDbSpline
70
4
71
3
72
18
73
14
40
0
40
0
40
0
40
0
40
0.0074698584964884
40
0.0074698584964884
40
0.116973966194809
40
0.116973966194809
40
0.258725811908718
40
0.258725811908718
40
0.483357667469339
40
0.483357667469339
40
0.914372095275223
40
0.914372095275223
40
1
40
1
40
1
40
1
41
1
10
9.07679491924307
20
-5.85988980456929
30
0
41
1
10
9.07791531278104
20
-5.85988980456929
30
0
41
1
10
9.07903578618209
20
-5.85990260585533
30
0
41
1
10
9.09637412624431
20
-5.86029870927979
30
0
41
1
10
9.11270417149058
20
-5.8634711769441
30
0
41
1
10
9.1475850522387
20
-5.87578180524309
30
0
41
1
10
9.16596173018905
20
-5.8864748710601
30
0
41
1
10
9.20810355067709
20
-5.91885996191004
30
0
41
1
10
9.22982072744469
20
-5.94374247779547
30
0
41
1
10
9.28328154913385
20
-6.02032056207824
30
0
41
1
10
9.30783261541364
20
-6.07738634703668
30
0
41
1
10
9.32995866734097
20
-6.14652276485666
30
0
41
1
10
9.33339464013244
20
-6.15810095961672
30
0
41
1
10
9.33660254037841
20
-6.16973001948557
30
0
0
SPLINE
5
D2
100
AcDbEntity
8
1
62
256
6
ByLayer
370
-1
48
1
60
0
100
AcDbSpline
70
4
71
3
72
18
73
14
40
0
40
0
40
0
40
0
40
0.0074698584965012
40
0.0074698584965012
40
0.116973966194809
40
0.116973966194809
40
0.25872581190871
40
0.25872581190871
40
0.483357667469334
40
0.483357667469334
40
0.914372095275209
40
0.914372095275209
40
1
40
1
40
1
40
1
41
1
10
6.92320508075693
20
-19.1222825906925
30
0
41
1
10
6.92208468721896
20
-19.1222825906925
30
0
41
1
10
6.92096421381791
20
-19.122278667842
30
0
41
1
10
6.90362587375569
20
-19.1221572838471
30
0
41
1
10
6.88729582850942
20
-19.1211855627664
30
0
41
1
10
6.8524149477613
20
-19.1174067506415
30
0
41
1
10
6.83403826981095
20
-19.1141200721533
30
0
41
1
10
6.7918964493229
20
-19.1041233146922
30
0
41
1
10
6.77017927255531
20
-19.0964050302576
30
0
41
1
10
6.71671845086621
20
-19.072454346092
30
0
41
1
10
6.69216738458636
20
-19.054370658815
30
0
41
1
10
6.67004133265903
20
-19.0320887998676
30
0
41
1
10
6.66660535986762
20
-19.0283457512526
30
0
41
1
10
6.66339745962159
20
-19.0245744101322
30
0
0
SPLINE
5
D3
100
AcDbEntity
8
1
62
256
6
ByLayer
370
-1
48
1
60
0
100
AcDbSpline
70
4
71
3
72
8
73
4
40
0
40
0
40
0
40
0
40
1
40
1
40
1
40
1
41
1
10
97.565265462949
20
-7.15697344879842
30
0
41
1
10
97.5665171222773
20
-7.13338334609799
30
0
41
1
10
97.5667248139466
20
-7.10933488931258
30
0
41
1
10
97.5657890545952
20
-7.08485237082388
30
0
0
SPLINE
5
D4
100
AcDbEntity
8
1
62
256
6
ByLayer
370
-1
48
1
60
0
100
AcDbSpline
70
4
71
3
72
18
73
14
40
0
40
0
40
0
40
0
40
0.0074698584964846
40
0.0074698584964846
40
0.116973966194816
40
0.116973966194816
40
0.258725811908727
40
0.258725811908727
40
0.483357667469355
40
0.483357667469355
40
0.91437209527524
40
0.91437209527524
40
1
40
1
40
1
40
1
41
1
10
9.07679491924307
20
19.1222825906926
30
0
41
1
10
9.07791531278104
20
19.1222825906926
30
0
41
1
10
9.07903578618209
20
19.122278667842
30
0
41
1
10
9.09637412624431
20
19.1221572838471
30
0
41
1
10
9.11270417149058
20
19.1211855627664
30
0
41
1
10
9.1475850522387
20
19.1174067506416
30
0
41
1
10
9.16596173018905
20
19.1141200721534
30
0
41
1
10
9.20810355067709
20
19.1041233146922
30
0
41
1
10
9.22982072744469
20
19.0964050302577
30
0
41
1
10
9.28328154913385
20
19.0724543460921
30
0
41
1
10
9.30783261541364
20
19.0543706588151
30
0
41
1
10
9.32995866734097
20
19.0320887998676
30
0
41
1
10
9.33339464013244
20
19.0283457512527
30
0
41
1
10
9.33660254037841
20
19.0245744101322
30
0
0
SPLINE
5
D5
100
AcDbEntity
8
1
62
256
6
ByLayer
370
-1
48
1
60
0
100
AcDbSpline
70
4
71
3
72
18
73
14
40
0
40
0
40
0
40
0
40
0.0074698584964997
40
0.0074698584964997
40
0.116973966194809
40
0.116973966194809
40
0.258725811908725
40
0.258725811908725
40
0.483357667469371
40
0.483357667469371
40
0.914372095275296
40
0.914372095275296
40
1
40
1
40
1
40
1
41
1
10
6.92320508075693
20
5.85988980456943
30
0
41
1
10
6.92208468721896
20
5.85988980456943
30
0
41
1
10
6.92096421381791
20
5.85990260585547
30
0
41
1
10
6.90362587375569
20
5.86029870927993
30
0
41
1
10
6.88729582850942
20
5.86347117694424
30
0
41
1
10
6.8524149477613
20
5.87578180524324
30
0
41
1
10
6.83403826981095
20
5.88647487106027
30
0
41
1
10
6.7918964493229
20
5.91885996191019
30
0
41
1
10
6.77017927255531
20
5.94374247779564
30
0
41
1
10
6.71671845086615
20
6.02032056207844
30
0
41
1
10
6.69216738458636
20
6.07738634703685
30
0
41
1
10
6.67004133265903
20
6.14652276485683
30
0
41
1
10
6.66660535986762
20
6.15810095961689
30
0
41
1
10
6.66339745962159
20
6.16973001948574
30
0
0
SPLINE
5
D6
100
AcDbEntity
8
1
62
256
6
ByLayer
370
-1
48
1
60
0
100
AcDbSpline
70
4
71
3
72
16
73
12
40
0
40
0
40
0
40
0
40
0.267372091523283
40
0.267372091523283
40
0.600855844067897
40
0.600855844067897
40
0.762574643716936
40
0.762574643716936
40
0.898037673161731
40
0.898037673161731
40
1
40
1
40
1
40
1
41
1
10
6.66339745962154
20
-6.1697300194856
30
0
41
1
10
6.67334240635006
20
-6.13367828095576
30
0
41
1
10
6.68546814770986
20
-6.09801792960664
30
0
41
1
10
6.7192969694421
20
-6.02025855383837
30
0
41
1
10
6.74283026958983
20
-5.9779480294857
30
0
41
1
10
6.78884631127272
20
-5.92367470492701
30
0
41
1
10
6.80595658073201
20
-5.90709361727346
30
0
41
1
10
6.84135466156636
20
-5.88208699512387
30
0
41
1
10
6.85938079361097
20
-5.87260601127599
30
0
41
1
10
6.89283602717148
20
-5.86230971122501
30
0
41
1
10
6.90809932802136
20
-5.85988980456929
30
0
41
1
10
6.92320508075687
20
-5.85988980456929
30
0
0
SPLINE
5
D7
100
AcDbEntity
8
1
62
256
6
ByLayer
370
-1
48
1
60
0
100
AcDbSpline
70
4
71
3
72
16
73
12
40
0
40
0
40
0
40
0
40
0.26737209152312
40
0.26737209152312
40
0.600855844067793
40
0.600855844067793
40
0.762574643716858
40
0.762574643716858
40
0.898037673161672
40
0.898037673161672
40
1
40
1
40
1
40
1
41
1
10
9.33660254037846
20
-19.0245744101322
30
0
41
1
10
9.32665759364994
20
-19.036266103658
30
0
41
1
10
9.3145318522902
20
-19.0477160699853
30
0
41
1
10
9.2807030305579
20
-19.0724552288876
30
0
41
1
10
9.25716973041023
20
-19.0857432838256
30
0
41
1
10
9.21115368872734
20
-19.1026287554228
30
0
41
1
10
9.19404341926798
20
-19.1077588484921
30
0
41
1
10
9.1586453384337
20
-19.1154700309996
30
0
41
1
10
9.14061920638903
20
-19.1183821582684
30
0
41
1
10
9.10716397282852
20
-19.1215414200073
30
0
41
1
10
9.09190067197864
20
-19.1222825906925
30
0
41
1
10
9.07679491924313
20
-19.1222825906925
30
0
0
SPLINE
5
D8
100
AcDbEntity
8
1
62
256
6
ByLayer
370
-1
48
1
60
0
100
AcDbSpline
70
4
71
3
72
16
73
12
40
0
40
0
40
0
40
0
40
0.26737209152346
40
0.26737209152346
40
0.600855844067949
40
0.600855844067949
40
0.762574643716998
40
0.762574643716998
40
0.898037673161785
40
0.898037673161785
40
1
40
1
40
1
40
1
41
1
10
9.33660254037846
20
6.16973001948571
30
0
41
1
10
9.32665759364994
20
6.13367828095585
30
0
41
1
10
9.31453185229014
20
6.0980179296067
30
0
41
1
10
9.28070303055785
20
6.02025855383846
30
0
41
1
10
9.25716973041017
20
5.97794802948579
30
0
41
1
10
9.21115368872728
20
5.92367470492709
30
0
41
1
10
9.19404341926793
20
5.90709361727357
30
0
41
1
10
9.15864533843364
20
5.88208699512398
30
0
41
1
10
9.14061920638903
20
5.87260601127613
30
0
41
1
10
9.10716397282852
20
5.86230971122512
30
0
41
1
10
9.09190067197864
20
5.85988980456943
30
0
41
1
10
9.07679491924313
20
5.85988980456943
30
0
0
SPLINE
5
D9
100
AcDbEntity
8
1
62
256
6
ByLayer
370
-1
48
1
60
0
100
AcDbSpline
70
4
71
3
72
26
73
22
40
0
40
0
40
0
40
0
40
0.250000000000002
40
0.250000000000002
40
0.375000000000002
40
0.375000000000002
40
0.437500000000002
40
0.437500000000002
40
0.500000000000002
40
0.500000000000002
40
0.562500000000002
40
0.562500000000002
40
0.625000000000001
40
0.625000000000001
40
0.687500000000001
40
0.687500000000001
40
0.750000000000001
40
0.750000000000001
40
0.875000000000001
40
0.875000000000001
40
1
40
1
40
1
40
1
41
1
10
87.9002208681896
20
12.3395332961817
30
0
41
1
10
82.471435290004
20
12.1247428272752
30
0
41
1
10
77.306597633506
20
11.6077372565793
30
0
41
1
10
70.0472795493067
20
8.94038874715591
30
0
41
1
10
67.7298178433877
20
7.72945018420052
30
0
41
1
10
64.5581806993671
20
5.32964403700734
30
0
41
1
10
63.5581351813891
20
4.44040588560068
30
0
41
1
10
61.6837771055792
20
2.44007519443772
30
0
41
1
10
60.8010217956819
20
1.31559222777054
30
0
41
1
10
59.3294441419486
20
-1.09972339186433
30
0
41
1
10
58.7277643829712
20
-2.40398623329207
30
0
41
1
10
58.1065010280262
20
-5.06853246238541
30
0
41
1
10
58.1276192509388
20
-6.3761570497322
30
0
41
1
10
58.9792518391685
20
-8.55159789347593
30
0
41
1
10
59.7902175357208
20
-9.39332283007374
30
0
41
1
10
61.7278279783559
20
-10.6219020265949
30
0
41
1
10
62.873282613266
20
-11.0436590281699
30
0
41
1
10
66.4537785713303
20
-11.9771621715847
30
0
41
1
10
69.1100819984654
20
-12.2046124990616
30
0
41
1
10
74.4699916832688
20
-12.4669047058298
30
0
41
1
10
77.217152103823
20
-12.4877869674823
30
0
41
1
10
80.0180542492138
20
-12.4963392962573
30
0
0
SPLINE
5
DA
100
AcDbEntity
8
1
62
256
6
ByLayer
370
-1
48
1
60
0
100
AcDbSpline
70
4
71
3
72
34
73
30
40
-0.124999999999998
40
-0.124999999999998
40
0
40
0
40
0.124999999999997
40
0.124999999999997
40
0.187499999999997
40
0.187499999999997
40
0.218749999999997
40
0.218749999999997
40
0.249999999999998
40
0.249999999999998
40
0.312499999999999
40
0.312499999999999
40
0.375
40
0.375
40
0.500000000000001
40
0.500000000000001
40
0.625000000000003
40
0.625000000000003
40
0.687500000000004
40
0.687500000000004
40
0.718750000000004
40
0.718750000000004
40
0.750000000000004
40
0.750000000000004
40
0.812500000000003
40
0.812500000000003
40
0.875000000000002
40
0.875000000000002
40
1
40
1
40
1.125
40
1.125
41
1
10
73.9732606466882
20
-7.0977669132763
30
0
41
1
10
72.2503833391023
20
-6.17417119429177
30
0
41
1
10
71.3512296572258
20
-5.80386950368592
30
0
41
1
10
69.9204856369911
20
-5.6342047959597
30
0
41
1
10
69.4158631173516
20
-5.6381279441942
30
0
41
1
10
68.7194358062776
20
-5.93051052477969
30
0
41
1
10
68.4981035935635
20
-6.08367925455892
30
0
41
1
10
68.2000874391263
20
-6.52769708281414
30
0
41
1
10
68.1455827789372
20
-6.7988426944043
30
0
41
1
10
68.2025305116047
20
-7.55337350119714
30
0
41
1
10
68.4693555650364
20
-7.98350087952613
30
0
41
1
10
69.0772218066691
20
-8.71840221769531
30
0
41
1
10
69.4366467677579
20
-9.03052862038433
30
0
41
1
10
70.6039242530137
20
-9.88216449988232
30
0
41
1
10
71.4679251097961
20
-10.3152385725666
30
0
41
1
10
73.298765100623
20
-11.0424404988273
30
0
41
1
10
74.2630619607951
20
-11.3369184325279
30
0
41
1
10
75.7654926204598
20
-11.5933762572947
30
0
41
1
10
76.2813224247715
20
-11.6593191778474
30
0
41
1
10
77.048179138456
20
-11.5703194241498
30
0
41
1
10
77.3293507812932
20
-11.5127696952703
30
0
41
1
10
77.6657250466273
20
-11.0970799419902
30
0
41
1
10
77.6099417485968
20
-10.794860711373
30
0
41
1
10
77.3141329281891
20
-10.0832747606082
30
0
41
1
10
76.9731972666631
20
-9.68957910861732
30
0
41
1
10
76.2902911918586
20
-8.95320135721784
30
0
41
1
10
75.9213852932115
20
-8.61234786707337
30
0
41
1
10
74.776228160304
20
-7.65130431141594
30
0
41
1
10
73.9732606466882
20
-7.0977669132763
30
0
41
1
10
72.2503833391023
20
-6.17417119429177
30
0
0
SPLINE
5
DB
100
AcDbEntity
8
1
62
256
6
ByLayer
370
-1
48
1
60
0
100
AcDbSpline
70
4
71
3
72
16
73
12
40
0
40
0
40
0
40
0
40
0.267372091523256
40
0.267372091523256
40
0.600855844067868
40
0.600855844067868
40
0.762574643716911
40
0.762574643716911
40
0.898037673161716
40
0.898037673161716
40
1
40
1
40
1
40
1
41
1
10
6.66339745962154
20
19.0245744101322
30
0
41
1
10
6.67334240635006
20
19.036266103658
30
0
41
1
10
6.68546814770986
20
19.0477160699853
30
0
41
1
10
6.7192969694421
20
19.0724552288877
30
0
41
1
10
6.74283026958983
20
19.0857432838256
30
0
41
1
10
6.78884631127272
20
19.1026287554228
30
0
41
1
10
6.80595658073201
20
19.1077588484921
30
0
41
1
10
6.84135466156636
20
19.1154700309997
30
0
41
1
10
6.85938079361097
20
19.1183821582684
30
0
41
1
10
6.89283602717148
20
19.1215414200073
30
0
41
1
10
6.90809932802136
20
19.1222825906926
30
0
41
1
10
6.92320508075687
20
19.1222825906926
30
0
0
SPLINE
5
DC
100
AcDbEntity
8
1
62
256
6
ByLayer
370
-1
48
1
60
0
100
AcDbSpline
70
4
71
3
72
17
73
13
40
0
40
0
40
0
40
0
40
0.23083440955625
40
0.23083440955625
40
0.4616099765976
40
0.4616099765976
40
0.693144717164911
40
0.693144717164911
40
0.92426534094066
40
0.92426534094066
40
0.92426534094066
40
1
40
1
40
1
40
1
41
1
10
83.7258699813612
20
-8.78603723648186
30
0
41
1
10
84.0582661115355
20
-8.45345433360404
30
0
41
1
10
84.4524465813474
20
-8.17369117960578
30
0
41
1
10
85.2987406712256
20
-7.76585148682346
30
0
41
1
10
85.7625079320679
20
-7.63207311530596
30
0
41
1
10
86.6968877293722
20
-7.52651722323378
30
0
41
1
10
87.1804840291385
20
-7.5538318017546
30
0
41
1
10
88.0980693692197
20
-7.76463362861031
30
0
41
1
10
88.5448499045893
20
-7.95081024691527
30
0
41
1
10
88.9426211695271
20
-8.20249815556861
30
0
41
1
10
89.0746551146416
20
-8.28604201719548
30
0
41
1
10
89.2022237341088
20
-8.37712966662482
30
0
41
1
10
89.3241248529849
20
-8.47490415865943
30
0
0
SPLINE
5
DD
100
AcDbEntity
8
1
62
256
6
ByLayer
370
-1
48
1
60
0
100
AcDbSpline
70
4
71
3
72
16
73
12
40
0
40
0
40
0
40
0
40
0.0540914537316236
40
0.0540914537316236
40
0.278247996033413
40
0.278247996033413
40
0.504665050232173
40
0.504665050232173
40
0.745027181734675
40
0.745027181734675
40
1
40
1
40
1
40
1
41
1
10
92.415515072449
20
-12.311266379172
30
0
41
1
10
92.4155509926345
20
-12.3066968999354
30
0
41
1
10
92.4157567230315
20
-12.3021234114909
30
0
41
1
10
92.417669807509
20
-12.2788382918891
30
0
41
1
10
92.4221678933695
20
-12.2601299549798
30
0
41
1
10
92.4361946650619
20
-12.2255347164846
30
0
41
1
10
92.4459389758803
20
-12.2092316342006
30
0
41
1
10
92.4696858087495
20
-12.1800654770348
30
0
41
1
10
92.4841958298755
20
-12.1670979987898
30
0
41
1
10
92.516298264797
20
-12.1459539585552
30
0
41
1
10
92.5343922509573
20
-12.1378471818589
30
0
41
1
10
92.552767742858
20
-12.1327501326018
30
0
0
SPLINE
5
DE
100
AcDbEntity
8
1
62
256
6
ByLayer
370
-1
48
1
60
0
100
AcDbSpline
70
4
71
3
72
12
73
8
40
0
40
0
40
0
40
0
40
0.460422914284651
40
0.460422914284651
40
0.842501536371028
40
0.842501536371028
40
1
40
1
40
1
40
1
41
1
10
94.0479676056287
20
-13.0133428579174
30
0
41
1
10
94.0375462596838
20
-12.9711199898073
30
0
41
1
10
94.033274980041
20
-12.9258919343747
30
0
41
1
10
94.0391766639059
20
-12.84227015007
30
0
41
1
10
94.0471820532216
20
-12.803085289676
30
0
41
1
10
94.0663354299688
20
-12.7500995169728
30
0
41
1
10
94.0729088702437
20
-12.7347751558813
30
0
41
1
10
94.0803689526601
20
-12.719906065518
30
0
0
SPLINE
5
DF
100
AcDbEntity
8
1
62
256
6
ByLayer
370
-1
48
1
60
0
100
AcDbSpline
70
4
71
3
72
16
73
12
40
0
40
0
40
0
40
0
40
0.0613652963519192
40
0.0613652963519192
40
0.286059172545184
40
0.286059172545184
40
0.513422104905422
40
0.513422104905422
40
0.75509824287307
40
0.75509824287307
40
1
40
1
40
1
40
1
41
1
10
92.9415891247899
20
-11.4183192346718
30
0
41
1
10
92.9460875255401
20
-11.4157797341725
30
0
41
1
10
92.9506974997132
20
-11.413424446675
30
0
41
1
10
92.9724504338993
20
-11.4034263816588
30
0
41
1
10
92.990911384348
20
-11.3981588248118
30
0
41
1
10
93.0278257390821
20
-11.3933463913376
30
0
41
1
10
93.0467448761077
20
-11.3937943214996
30
0
41
1
10
93.083657268657
20
-11.4000678757879
30
0
41
1
10
93.1019832732203
20
-11.4062891999165
30
0
41
1
10
93.1351644801088
20
-11.4233634805833
30
0
41
1
10
93.1503405860392
20
-11.4344454724143
30
0
41
1
10
93.1632556611841
20
-11.447137140663
30
0
0
SPLINE
5
E0
100
AcDbEntity
8
1
62
256
6
ByLayer
370
-1
48
1
60
0
100
AcDbSpline
70
4
71
3
72
18
73
14
40
0
40
0
40
0
40
0
40
0.213143812768255
40
0.213143812768255
40
0.388795676866697
40
0.388795676866697
40
0.566088720916474
40
0.566088720916474
40
0.721018665479838
40
0.721018665479838
40
0.927213532470794
40
0.927213532470794
40
1
40
1
40
1
40
1
41
1
10
93.1473690416522
20
-13.1837243093876
30
0
41
1
10
93.1786104633456
20
-13.1532928924471
30
0
41
1
10
93.2156071177423
20
-13.1267435463504
30
0
41
1
10
93.290827927394
20
-13.0899678062921
30
0
41
1
10
93.3285839194701
20
-13.0773681226579
30
0
41
1
10
93.4069992578127
20
-13.0635048876596
30
0
41
1
10
93.4488534832727
20
-13.0622583825
30
0
41
1
10
93.5239278336504
20
-13.0711476163217
30
0
41
1
10
93.5584721975637
20
-13.0799168312151
30
0
41
1
10
93.63245260976
20
-13.108576366435
30
0
41
1
10
93.6710655008249
20
-13.1315391996966
30
0
41
1
10
93.7160376914345
20
-13.1682125198172
30
0
41
1
10
93.7272648942948
20
-13.1784333954722
30
0
41
1
10
93.7378439573303
20
-13.189135184227
30
0
0
SPLINE
5
E1
100
AcDbEntity
8
1
62
256
6
ByLayer
370
-1
48
1
60
0
100
AcDbSpline
70
4
71
3
72
18
73
14
40
0
40
0
40
0
40
0
40
0.212189364079565
40
0.212189364079565
40
0.387990910241917
40
0.387990910241917
40
0.565444529054743
40
0.565444529054743
40
0.720393145834128
40
0.720393145834128
40
0.926404568279068
40
0.926404568279068
40
1
40
1
40
1
40
1
41
1
10
94.3517531170555
20
-12.1470985570304
30
0
41
1
10
94.3103439032267
20
-12.1347406595693
30
0
41
1
10
94.2693899545445
20
-12.1155566497121
30
0
41
1
10
94.2005200281312
20
-12.06823777046
30
0
41
1
10
94.1708491836386
20
-12.041586258855
30
0
41
1
10
94.1196906685739
20
-11.980328824371
30
0
41
1
10
94.0976159305071
20
-11.9446799309392
30
0
41
1
10
94.067498771102
20
-11.8754367619706
30
0
41
1
10
94.0576226322021
20
-11.8413499714809
30
0
41
1
10
94.0448987860349
20
-11.7636474178678
30
0
41
1
10
94.0450694835341
20
-11.7192636998062
30
0
41
1
10
94.0537661205054
20
-11.6625960831909
30
0
41
1
10
94.056882706834
20
-11.6478155637151
30
0
41
1
10
94.0607519488162
20
-11.6333671778046
30
0
0
SPLINE
5
E2
100
AcDbEntity
8
1
62
256
6
ByLayer
370
-1
48
1
60
0
100
AcDbSpline
70
4
71
3
72
18
73
14
40
0
40
0
40
0
40
0
40
0.0136961007545818
40
0.0136961007545818
40
0.239545000215956
40
0.239545000215956
40
0.465326974619339
40
0.465326974619339
40
0.703193526154999
40
0.703193526154999
40
0.962851237127933
40
0.962851237127933
40
1
40
1
40
1
40
1
41
1
10
93.9593760770281
20
-13.2205179136205
30
0
41
1
10
93.9583667283731
20
-13.2210877253282
30
0
41
1
10
93.9573519730847
20
-13.2216479844253
30
0
41
1
10
93.9397247356811
20
-13.2311635215939
30
0
41
1
10
93.9214909970525
20
-13.2375906557141
30
0
41
1
10
93.8848284999503
20
-13.2444930622015
30
0
41
1
10
93.8659323833071
20
-13.2450716034272
30
0
41
1
10
93.8288728662853
20
-13.2407284328906
30
0
41
1
10
93.8103354459573
20
-13.2354753342584
30
0
41
1
10
93.7750863001436
20
-13.2195502776879
30
0
41
1
10
93.7582460655587
20
-13.2082466584093
30
0
41
1
10
93.7418448763809
20
-13.1930922694741
30
0
41
1
10
93.739819707683
20
-13.1911338548878
30
0
41
1
10
93.7378439573303
20
-13.1891351842269
30
0
0
SPLINE
5
E3
100
AcDbEntity
8
1
62
256
6
ByLayer
370
-1
48
1
60
0
100
AcDbSpline
70
4
71
3
72
18
73
14
40
0
40
0
40
0
40
0
40
0.211697220659186
40
0.211697220659186
40
0.387600428209511
40
0.387600428209511
40
0.565161794344704
40
0.565161794344704
40
0.720138812350003
40
0.720138812350003
40
0.926075076647936
40
0.926075076647936
40
1
40
1
40
1
40
1
41
1
10
93.7537305768644
20
-11.4525480155045
30
0
41
1
10
93.7227454768317
20
-11.4819360062704
30
0
41
1
10
93.6860862951947
20
-11.5075400187914
30
0
41
1
10
93.6112724661097
20
-11.5431989271197
30
0
41
1
10
93.5735274410382
20
-11.5554670477826
30
0
41
1
10
93.4950704358995
20
-11.5690149158506
30
0
41
1
10
93.4531583588358
20
-11.5702813999377
30
0
41
1
10
93.3779771584165
20
-11.5617701533246
30
0
41
1
10
93.3433844263912
20
-11.5533276792693
30
0
41
1
10
93.2693397401072
20
-11.525669665872
30
0
41
1
10
93.2306907718271
20
-11.5034818446854
30
0
41
1
10
93.1854452927917
20
-11.4677973241787
30
0
41
1
10
93.1740162079457
20
-11.4577115498819
30
0
41
1
10
93.1632556611841
20
-11.447137140663
30
0
0
SPLINE
5
E4
100
AcDbEntity
8
1
62
256
6
ByLayer
370
-1
48
1
60
0
100
AcDbSpline
70
4
71
3
72
14
73
10
40
0
40
0
40
0
40
0
40
0.270209815958292
40
0.270209815958292
40
0.559215164250919
40
0.559215164250919
40
0.820913685519656
40
0.820913685519656
40
1
40
1
40
1
40
1
41
1
10
94.3517531170555
20
-12.1470985570304
30
0
41
1
10
94.3710577040042
20
-12.1528596928737
30
0
41
1
10
94.3900002423911
20
-12.1619926752588
30
0
41
1
10
94.4252420521639
20
-12.1871725420646
30
0
41
1
10
94.4417946688328
20
-12.2040926514759
30
0
41
1
10
94.4663059041037
20
-12.2412953091729
30
0
41
1
10
94.4752671251351
20
-12.2616922087914
30
0
41
1
10
94.4838219862347
20
-12.2973890268282
30
0
41
1
10
94.4855681210752
20
-12.3125608061982
30
0
41
1
10
94.4854501293689
20
-12.3275707691203
30
0
0
SPLINE
5
E5
100
AcDbEntity
8
1
62
256
6
ByLayer
370
-1
48
1
60
0
100
AcDbSpline
70
4
71
3
72
16
73
12
40
0
40
0
40
0
40
0
40
0.066520375590369
40
0.066520375590369
40
0.291144205138578
40
0.291144205138578
40
0.518726891955727
40
0.518726891955727
40
0.760858986269972
40
0.760858986269972
40
1
40
1
40
1
40
1
41
1
10
93.9757762265504
20
-11.4277961096783
30
0
41
1
10
93.9805986369412
20
-11.4306362513974
30
0
41
1
10
93.9852979249969
20
-11.4336971244833
30
0
41
1
10
94.0050761229014
20
-11.4478866271415
30
0
41
1
10
94.0187433475647
20
-11.4612873746028
30
0
41
1
10
94.0410813360984
20
-11.4908974590987
30
0
41
1
10
94.0499802879805
20
-11.5075095756686
30
0
41
1
10
94.0626146448715
20
-11.5425814285725
30
0
41
1
10
94.0661608393149
20
-11.5615240985109
30
0
41
1
10
94.0674589968104
20
-11.5982039727686
30
0
41
1
10
94.0653134053229
20
-11.6163339490155
30
0
41
1
10
94.0607519488162
20
-11.6333671778046
30
0
0
SPLINE
5
E6
100
AcDbEntity
8
1
62
256
6
ByLayer
370
-1
48
1
60
0
100
AcDbSpline
70
4
71
3
72
14
73
10
40
0
40
0
40
0
40
0
40
0.279100844993048
40
0.279100844993048
40
0.566992899776387
40
0.566992899776387
40
0.827796418805664
40
0.827796418805664
40
1
40
1
40
1
40
1
41
1
10
93.1473690416523
20
-13.1837243093876
30
0
41
1
10
93.1323933042994
20
-13.1983117667655
30
0
41
1
10
93.1144768476457
20
-13.2107523797357
30
0
41
1
10
93.0744964407031
20
-13.2289970517797
30
0
41
1
10
93.0516793850469
20
-13.2348248396848
30
0
41
1
10
93.0074669949875
20
-13.2372953049612
30
0
41
1
10
92.9854713384196
20
-13.2347500927016
30
0
41
1
10
92.951045972296
20
-13.2242538604349
30
0
41
1
10
92.9376295878124
20
-13.2183678938247
30
0
41
1
10
92.9251889752675
20
-13.211041038614
30
0
0
SPLINE
5
E7
100
AcDbEntity
8
1
62
256
6
ByLayer
370
-1
48
1
60
0
100
AcDbSpline
70
4
71
3
72
14
73
10
40
0
40
0
40
0
40
0
40
0.28378912937566
40
0.28378912937566
40
0.571094316717797
40
0.571094316717797
40
0.831430079258893
40
0.831430079258893
40
1
40
1
40
1
40
1
41
1
10
93.7537305768644
20
-11.4525480155045
30
0
41
1
10
93.7689355818238
20
-11.4381267438329
30
0
41
1
10
93.7871886032625
20
-11.4259024796378
30
0
41
1
10
93.8275570297738
20
-11.4084391091669
30
0
41
1
10
93.8503579697082
20
-11.4030545927423
30
0
41
1
10
93.8944975087037
20
-11.4012715288662
30
0
41
1
10
93.9164390126357
20
-11.4040871597586
30
0
41
1
10
93.9504868547844
20
-11.4148018440797
30
0
41
1
10
93.9635970989284
20
-11.4206232550977
30
0
41
1
10
93.9757762265504
20
-11.4277961096783
30
0
0
SPLINE
5
E8
100
AcDbEntity
8
1
62
256
6
ByLayer
370
-1
48
1
60
0
100
AcDbSpline
70
4
71
3
72
16
73
12
40
0
40
0
40
0
40
0
40
0.0631192699563081
40
0.0631192699563081
40
0.287722001668424
40
0.287722001668424
40
0.515092750647371
40
0.515092750647371
40
0.756853803249145
40
0.756853803249145
40
1
40
1
40
1
40
1
41
1
10
92.9251889752675
20
-13.211041038614
30
0
41
1
10
92.9206101039467
20
-13.2083443283777
30
0
41
1
10
92.9161426867538
20
-13.2054447281665
30
0
41
1
10
92.8965263299341
20
-13.191467656243
30
0
41
1
10
92.8827953328224
20
-13.1780399558796
30
0
41
1
10
92.8603350613551
20
-13.1482668887386
30
0
41
1
10
92.85137158583
20
-13.1315174068316
30
0
41
1
10
92.8386071376233
20
-13.0960720316997
30
0
41
1
10
92.8349899668924
20
-13.0768828380422
30
0
41
1
10
92.8335392120778
20
-13.0393227608627
30
0
41
1
10
92.835697012961
20
-13.0205542805816
30
0
41
1
10
92.840347669701
20
-13.0029051470851
30
0
0
SPLINE
5
E9
100
AcDbEntity
8
1
62
256
6
ByLayer
370
-1
48
1
60
0
100
AcDbSpline
70
4
71
3
72
16
73
12
40
0
40
0
40
0
40
0
40
0.0565837874204023
40
0.0565837874204023
40
0.280721002810032
40
0.280721002810032
40
0.507259677299093
40
0.507259677299093
40
0.747859527215199
40
0.747859527215199
40
1
40
1
40
1
40
1
41
1
10
94.4854501293689
20
-12.3275707691203
30
0
41
1
10
94.4854125682152
20
-12.3323489992368
30
0
41
1
10
94.4851894655205
20
-12.3371284820392
30
0
41
1
10
94.4831818780017
20
-12.3605780216526
30
0
41
1
10
94.4786269988336
20
-12.3791854273461
30
0
41
1
10
94.4645025064092
20
-12.4134799021538
30
0
41
1
10
94.4547131904221
20
-12.4295763336374
30
0
41
1
10
94.4308874980111
20
-12.4582354830345
30
0
41
1
10
94.4163420412749
20
-12.4708888250986
30
0
41
1
10
94.3843765428021
20
-12.491196519144
30
0
41
1
10
94.3664930701761
20
-12.4988332803152
30
0
41
1
10
94.3483325310555
20
-12.503509686572
30
0
0
SPLINE
5
EA
100
AcDbEntity
8
1
62
256
6
ByLayer
370
-1
48
1
60
0
100
AcDbSpline
70
4
71
3
72
14
73
10
40
0
40
0
40
0
40
0
40
0.0204416312840686
40
0.0204416312840686
40
0.359440165757962
40
0.359440165757962
40
0.799161314407621
40
0.799161314407621
40
1
40
1
40
1
40
1
41
1
10
92.7922827121088
20
-11.9612921830189
30
0
41
1
10
92.7910558363574
20
-11.9630904146042
30
0
41
1
10
92.7898155032468
20
-11.9648787930845
30
0
41
1
10
92.7680113940804
20
-11.9958095533265
30
0
41
1
10
92.7436244164329
20
-12.0224057002887
30
0
41
1
10
92.6835663704735
20
-12.0739557717611
30
0
41
1
10
92.6457667704694
20
-12.0970630770546
30
0
41
1
10
92.5892700211814
20
-12.1213048828458
30
0
41
1
10
92.5710858093702
20
-12.1276690121719
30
0
41
1
10
92.552767742858
20
-12.1327501326018
30
0
0
SPLINE
5
EB
100
AcDbEntity
8
1
62
256
6
ByLayer
370
-1
48
1
60
0
100
AcDbSpline
70
4
71
3
72
14
73
10
40
0
40
0
40
0
40
0
40
0.211805333652336
40
0.211805333652336
40
0.507520049559235
40
0.507520049559235
40
0.774810326124451
40
0.774810326124451
40
1
40
1
40
1
40
1
41
1
10
94.0479676056297
20
-13.0133428579172
30
0
41
1
10
94.0517910153783
20
-13.0288336905214
30
0
41
1
10
94.0537001325519
20
-13.0451273840314
30
0
41
1
10
94.0530681699735
20
-13.0843426142825
30
0
41
1
10
94.0483826853457
20
-13.1080181105232
30
0
41
1
10
94.0310599242831
20
-13.1499513483763
30
0
41
1
10
94.0189256855747
20
-13.1691363935199
30
0
41
1
10
93.9910632030847
20
-13.1991630549205
30
0
41
1
10
93.9758448700551
20
-13.2112207188088
30
0
41
1
10
93.9593760770281
20
-13.2205179136205
30
0
0
SPLINE
5
EC
100
AcDbEntity
8
1
62
256
6
ByLayer
370
-1
48
1
60
0
100
AcDbSpline
70
4
71
3
72
14
73
10
40
0
40
0
40
0
40
0
40
0.266733474546931
40
0.266733474546931
40
0.55617411599786
40
0.55617411599786
40
0.818225342670913
40
0.818225342670913
40
1
40
1
40
1
40
1
41
1
10
92.5493465014603
20
-12.4891737678616
30
0
41
1
10
92.5302692169279
20
-12.4838723730047
30
0
41
1
10
92.5115490774614
20
-12.4752699556327
30
0
41
1
10
92.4763735407803
20
-12.4510702132827
30
0
41
1
10
92.4597167626438
20
-12.4345146496301
30
0
41
1
10
92.4350083926895
20
-12.3978307028624
30
0
41
1
10
92.4259501733213
20
-12.3776123412166
30
0
41
1
10
92.4171987977094
20
-12.3418692541589
30
0
41
1
10
92.4153953169176
20
-12.3265007218401
30
0
41
1
10
92.415515072449
20
-12.311266379172
30
0
0
SPLINE
5
ED
100
AcDbEntity
8
1
62
256
6
ByLayer
370
-1
48
1
60
0
100
AcDbSpline
70
4
71
3
72
14
73
10
40
0
40
0
40
0
40
0
40
0.049481700636975
40
0.049481700636975
40
0.386497923607637
40
0.386497923607637
40
0.833951134008557
40
0.833951134008557
40
1
40
1
40
1
40
1
41
1
10
94.1090102501545
20
-12.6712909234128
30
0
41
1
10
94.1119716589669
20
-12.6669614215114
30
0
41
1
10
94.1150119149497
20
-12.6626919360054
30
0
41
1
10
94.1391502662977
20
-12.6301078518766
30
0
41
1
10
94.1638315113183
20
-12.6045491508226
30
0
41
1
10
94.225058347346
20
-12.5548718857606
30
0
41
1
10
94.2638085656442
20
-12.53298640345
30
0
41
1
10
94.3181542231027
20
-12.5121890668159
30
0
41
1
10
94.3331952117825
20
-12.5074076024923
30
0
41
1
10
94.3483325310555
20
-12.503509686572
30
0
0
SPLINE
5
EE
100
AcDbEntity
8
1
62
256
6
ByLayer
370
-1
48
1
60
0
100
AcDbSpline
70
4
71
3
72
12
73
8
40
0
40
0
40
0
40
0
40
0.414557699409839
40
0.414557699409839
40
0.804585908638731
40
0.804585908638731
40
1
40
1
40
1
40
1
41
1
10
92.8531326682852
20
-11.6229169612557
30
0
41
1
10
92.8625612270827
20
-11.6602007020495
30
0
41
1
10
92.8669984189867
20
-11.6998926708656
30
0
41
1
10
92.8640044277568
20
-11.7782950629267
30
0
41
1
10
92.8571161083365
20
-11.817846603271
30
0
41
1
10
92.8380410357568
20
-11.8752656266409
30
0
41
1
10
92.8301639695468
20
-11.8943023553045
30
0
41
1
10
92.8209240096034
20
-11.9126770409133
30
0
0
SPLINE
5
EF
100
AcDbEntity
8
1
62
256
6
ByLayer
370
-1
48
1
60
0
100
AcDbSpline
70
4
71
3
72
14
73
10
40
0
40
0
40
0
40
0
40
0.278693266037838
40
0.278693266037838
40
0.566075421549991
40
0.566075421549991
40
0.826384681701951
40
0.826384681701951
40
1
40
1
40
1
40
1
41
1
10
92.8531326682846
20
-11.6229169612559
30
0
41
1
10
92.8480858188469
20
-11.6029599953716
30
0
41
1
10
92.8463646520331
20
-11.5815048648767
30
0
41
1
10
92.8507251537755
20
-11.5382456533414
30
0
41
1
10
92.8571621983775
20
-11.5157816027922
30
0
41
1
10
92.8772399868692
20
-11.4765422554667
30
0
41
1
10
92.8904816484571
20
-11.4588554179302
30
0
41
1
10
92.9169294101252
20
-11.4342486322864
30
0
41
1
10
92.9288779642728
20
-11.4254951178962
30
0
41
1
10
92.9415891247899
20
-11.4183192346718
30
0
0
SPLINE
5
F0
100
AcDbEntity
8
1
62
256
6
ByLayer
370
-1
48
1
60
0
100
AcDbSpline
70
4
71
3
72
18
73
14
40
0
40
0
40
0
40
0
40
0.21328712300394
40
0.21328712300394
40
0.388914328773419
40
0.388914328773419
40
0.566181034804174
40
0.566181034804174
40
0.721106544661057
40
0.721106544661057
40
0.927327248119453
40
0.927327248119453
40
1
40
1
40
1
40
1
41
1
10
92.5493465014603
20
-12.4891737678616
30
0
41
1
10
92.5910114013376
20
-12.5007520449243
30
0
41
1
10
92.6322178346887
20
-12.5192780068045
30
0
41
1
10
92.7012520519464
20
-12.5656794331362
30
0
41
1
10
92.7308808262824
20
-12.5919346713148
30
0
41
1
10
92.7819299432667
20
-12.6527286083986
30
0
41
1
10
92.803934895146
20
-12.6883103986735
30
0
41
1
10
92.8339343337198
20
-12.7578060129516
30
0
41
1
10
92.8437532454655
20
-12.7921692430668
30
0
41
1
10
92.8563510871602
20
-12.87079246172
30
0
41
1
10
92.8560916354255
20
-12.9159012377664
30
0
41
1
10
92.8472909456057
20
-12.9734465664364
30
0
41
1
10
92.8441871401927
20
-12.9883344464168
30
0
41
1
10
92.840347669701
20
-13.0029051470851
30
0
0
SPLINE
5
F1
100
AcDbEntity
8
SK1
62
256
6
ByLayer
370
-1
48
1
60
0
100
AcDbSpline
70
4
71
3
72
8
73
4
40
0
40
0
40
0
40
0
40
1
40
1
40
1
40
1
41
1
10
-1.30710678118655
20
3.5887172715492
30
0
41
1
10
-1.37532422566159
20
3.25201925983745
30
0
41
1
10
-1.44087263133542
20
2.90701066801501
30
0
41
1
10
-1.49999999999989
20
2.55452633951475
30
0
0
SPLINE
5
F2
100
AcDbEntity
8
SK1
62
256
6
ByLayer
370
-1
48
1
60
0
100
AcDbSpline
70
4
71
3
72
24
73
20
40
0
40
0
40
0
40
0
40
0.394875644104776
40
0.394875644104776
40
0.580237478202818
40
0.580237478202818
40
0.768024594545524
40
0.768024594545524
40
0.821318184582328
40
0.821318184582328
40
0.86063645050671
40
0.86063645050671
40
0.893544596745066
40
0.893544596745066
40
0.926376480305815
40
0.926376480305815
40
0.975583602956219
40
0.975583602956219
40
1
40
1
40
1
40
1
41
1
10
-1.30710678118703
20
3.58871727154681
30
0
41
1
10
-1.25970314050051
20
3.82268545505016
30
0
41
1
10
-1.20268951681544
20
4.0522990637061
30
0
41
1
10
-1.088442965686
20
4.37621064451773
30
0
41
1
10
-1.04721780763597
20
4.47806704652851
30
0
41
1
10
-0.946498347972181
20
4.67402400407769
30
0
41
1
10
-0.887649711538188
20
4.77181850306434
30
0
41
1
10
-0.778611976213341
20
4.87193345154523
30
0
41
1
10
-0.751538353604559
20
4.89265008986257
30
0
41
1
10
-0.699050623103489
20
4.92098681441374
30
0
41
1
10
-0.67456405913228
20
4.93073454927372
30
0
41
1
10
-0.627610440444386
20
4.94089837201273
30
0
41
1
10
-0.604990345651117
20
4.94257917258165
30
0
41
1
10
-0.561019153025597
20
4.93928086468458
30
0
41
1
10
-0.539185873337146
20
4.9343220454893
30
0
41
1
10
-0.488505513252846
20
4.91611333631423
30
0
41
1
10
-0.460609299544473
20
4.89990010346509
30
0
41
1
10
-0.423195770996898
20
4.87233551414784
30
0
41
1
10
-0.411325532072311
20
4.86251297160928
30
0
41
1
10
-0.39999999999992
20
4.85227456454996
30
0
0
SPLINE
5
F3
100
AcDbEntity
8
SK1
62
256
6
ByLayer
370
-1
48
1
60
0
100
AcDbSpline
70
4
71
3
72
8
73
4
40
0
40
0
40
0
40
0
40
1
40
1
40
1
40
1
41
1
10
-1.49999999999989
20
-2.55452876952822
30
0
41
1
10
-1.44087207369964
20
-2.90701199552916
30
0
41
1
10
-1.37532387973016
20
-3.25201982801605
30
0
41
1
10
-1.30710678118652
20
-3.58871725126215
30
0
0
SPLINE
5
F4
100
AcDbEntity
8
SK1
62
256
6
ByLayer
370
-1
48
1
60
0
100
AcDbSpline
70
4
71
3
72
22
73
18
40
0
40
0
40
0
40
0
40
0.0453538571579231
40
0.0453538571579231
40
0.0914518524267671
40
0.0914518524267671
40
0.124365048640693
40
0.124365048640693
40
0.157186848928651
40
0.157186848928651
40
0.206991933628443
40
0.206991933628443
40
0.302636793523901
40
0.302636793523901
40
0.633583445149988
40
0.633583445149988
40
1
40
1
40
1
40
1
41
1
10
-0.39999999999992
20
-4.85227506835233
30
0
41
1
10
-0.420964880828222
20
-4.87122754186862
30
0
41
1
10
-0.443888117925155
20
-4.88887456363264
30
0
41
1
10
-0.494495022291204
20
-4.91840151431526
30
0
41
1
10
-0.52299513623484
20
-4.93045451470871
30
0
41
1
10
-0.574401278620741
20
-4.94114219540694
30
0
41
1
10
-0.597076224252902
20
-4.9426164760024
30
0
41
1
10
-0.641056311684366
20
-4.93891494651641
30
0
41
1
10
-0.662845886446405
20
-4.9337627063027
30
0
41
1
10
-0.71376347581031
20
-4.91501929832424
30
0
41
1
10
-0.741856008482671
20
-4.89837342492686
30
0
41
1
10
-0.814978349041638
20
-4.84361103162897
30
0
41
1
10
-0.854317961498367
20
-4.79908644376556
30
0
41
1
10
-1.00688542665307
20
-4.59427172963152
30
0
41
1
10
-1.0791858799123
20
-4.40986442942582
30
0
41
1
10
-1.21067514066451
20
-4.01906025534171
30
0
41
1
10
-1.26311821358462
20
-3.80583052169118
30
0
41
1
10
-1.30710678118919
20
-3.58871725124908
30
0
0
SPLINE
5
F5
100
AcDbEntity
8
SK1
62
256
6
ByLayer
370
-1
48
1
60
0
100
AcDbSpline
70
4
71
3
72
32
73
28
40
0
40
0
40
0
40
0
40
0.343889632240037
40
0.343889632240037
40
0.424881203786091
40
0.424881203786091
40
0.45219319517405
40
0.45219319517405
40
0.473746524143709
40
0.473746524143709
40
0.495563509153789
40
0.495563509153789
40
0.504202913264278
40
0.504202913264278
40
0.510236809227349
40
0.510236809227349
40
0.516312447398371
40
0.516312447398371
40
0.523454548652051
40
0.523454548652051
40
0.535565299712341
40
0.535565299712341
40
0.57300444614615
40
0.57300444614615
40
0.744007987780293
40
0.744007987780293
40
1
40
1
40
1
40
1
41
1
10
-1.49999999999989
20
2.55452633951475
30
0
41
1
10
-1.52085985378923
20
2.43017154880397
30
0
41
1
10
-1.54277848657128
20
2.30539150900933
30
0
41
1
10
-1.58054446546703
20
2.15690281341079
30
0
41
1
10
-1.58828317908851
20
2.12879825114811
30
0
41
1
10
-1.60072712650165
20
2.09279395763306
30
0
41
1
10
-1.60406058795391
20
2.08384105107302
30
0
41
1
10
-1.61062680538262
20
2.06838289745696
30
0
41
1
10
-1.6137338099156
20
2.06173130148738
30
0
41
1
10
-1.62074858386092
20
2.04929690476194
30
0
41
1
10
-1.6246915213566
20
2.04329967204669
30
0
41
1
10
-1.63143983836963
20
2.03738508207587
30
0
41
1
10
-1.6335507648601
20
2.03598317715259
30
0
41
1
10
-1.63737876424599
20
2.03469617825761
30
0
41
1
10
-1.63905717359933
20
2.03448731940549
30
0
41
1
10
-1.64239270814321
20
2.0349385986527
30
0
41
1
10
-1.64408889405067
20
2.03561765464858
30
0
41
1
10
-1.64749825596724
20
2.03787010124455
30
0
41
1
10
-1.64921667651578
20
2.03959185511141
30
0
41
1
10
-1.65333511326014
20
2.04482054191681
30
0
41
1
10
-1.65549701098459
20
2.04879885431208
30
0
41
1
10
-1.66311966371092
20
2.06550748630016
30
0
41
1
10
-1.66673415611749
20
2.07974527657228
30
0
41
1
10
-1.68385102741172
20
2.1575921539345
30
0
41
1
10
-1.68804814437192
20
2.22386329884722
30
0
41
1
10
-1.69782346255605
20
2.3865563041347
30
0
41
1
10
-1.69965656225776
20
2.48393126749517
30
0
41
1
10
-1.69996145716266
20
2.58068890323847
30
0
0
SPLINE
5
F6
100
AcDbEntity
8
SK1
62
256
6
ByLayer
370
-1
48
1
60
0
100
AcDbSpline
70
4
71
3
72
30
73
26
40
0
40
0
40
0
40
0
40
0.323683715287821
40
0.323683715287821
40
0.409735865249923
40
0.409735865249923
40
0.452928625832081
40
0.452928625832081
40
0.468145406180671
40
0.468145406180671
40
0.475617260213128
40
0.475617260213128
40
0.481869520397867
40
0.481869520397867
40
0.48817626052579
40
0.48817626052579
40
0.495259728072395
40
0.495259728072395
40
0.507216161807773
40
0.507216161807773
40
0.544450808915845
40
0.544450808915845
40
0.715771905876251
40
0.715771905876251
40
1
40
1
40
1
40
1
41
1
10
-1.69996145737014
20
-2.58069190327925
30
0
41
1
10
-1.69957279427672
20
-2.45735174741614
30
0
41
1
10
-1.69747943572614
20
-2.33275959372483
30
0
41
1
10
-1.68280786661543
20
-2.17510563663223
30
0
41
1
10
-1.67905312643578
20
-2.14178513841156
30
0
41
1
10
-1.66982584439811
20
-2.09257517130857
30
0
41
1
10
-1.66622418704014
20
-2.07599882381985
30
0
41
1
10
-1.65853526999027
20
-2.05523575475587
30
0
41
1
10
-1.65621727335139
20
-2.04990011502019
30
0
41
1
10
-1.65190392784498
20
-2.04295844851055
30
0
41
1
10
-1.65031465018177
20
-2.04081354663947
30
0
41
1
10
-1.64708474378222
20
-2.03758976610058
30
0
41
1
10
-1.64546025470034
20
-2.03637666738331
30
0
41
1
10
-1.64208683909158
20
-2.03484515225668
30
0
41
1
10
-1.64029350998899
20
-2.0345257545506
30
0
41
1
10
-1.63665124005524
20
-2.03480200364953
30
0
41
1
10
-1.63476836522864
20
-2.03549609263416
30
0
41
1
10
-1.63011332934306
20
-2.03820563111981
30
0
41
1
10
-1.62749907113707
20
-2.04079535648785
30
0
41
1
10
-1.61785331798274
20
-2.05253646839518
30
0
41
1
10
-1.61239259265159
20
-2.06415551700681
30
0
41
1
10
-1.58481103440909
20
-2.12952424336697
30
0
41
1
10
-1.57120245893441
20
-2.19071878810982
30
0
41
1
10
-1.53537272921412
20
-2.35076653698448
30
0
41
1
10
-1.51709733996256
20
-2.45260526361207
30
0
41
1
10
-1.49999999999989
20
-2.55452876952825
30
0
0
SPLINE
5
F7
100
AcDbEntity
8
SK1
62
256
6
ByLayer
370
-1
48
1
60
0
100
AcDbSpline
70
4
71
3
72
32
73
28
40
0
40
0
40
0
40
0
40
0.354837962587792
40
0.354837962587792
40
0.435681934263787
40
0.435681934263787
40
0.463193700904597
40
0.463193700904597
40
0.486354482316139
40
0.486354482316139
40
0.509973974541632
40
0.509973974541632
40
0.516964208360703
40
0.516964208360703
40
0.524073291076373
40
0.524073291076373
40
0.53012931469938
40
0.53012931469938
40
0.538912548051755
40
0.538912548051755
40
0.555847543784125
40
0.555847543784125
40
0.617395553553781
40
0.617395553553781
40
0.862351410077428
40
0.862351410077428
40
1
40
1
40
1
40
1
41
1
10
-1.49999999999997
20
-13.6354046322643
30
0
41
1
10
-1.52103408040219
20
-13.6113106077528
30
0
41
1
10
-1.5431136748729
20
-13.5864010885067
30
0
41
1
10
-1.58136675286579
20
-13.5660073910366
30
0
41
1
10
-1.58900202914975
20
-13.5626923002263
30
0
41
1
10
-1.60130723593383
20
-13.5605634744677
30
0
41
1
10
-1.60462784617891
20
-13.5602351852046
30
0
41
1
10
-1.61136477270867
20
-13.5603829527657
30
0
41
1
10
-1.6146830542956
20
-13.5607248602462
30
0
41
1
10
-1.62228239094077
20
-13.5626439304685
30
0
41
1
10
-1.62665165692866
20
-13.5641658144187
30
0
41
1
10
-1.633716248285
20
-13.5686250506848
30
0
41
1
10
-1.63548301786963
20
-13.5698688039791
30
0
41
1
10
-1.639165556969
20
-13.5728313577292
30
0
41
1
10
-1.64113772385812
20
-13.5746110950765
30
0
41
1
10
-1.64462082807191
20
-13.5781471549731
30
0
41
1
10
-1.64619573481406
20
-13.5799049614575
30
0
41
1
10
-1.64972043997636
20
-13.584157849073
30
0
41
1
10
-1.65159006135414
20
-13.5866989919877
30
0
41
1
10
-1.65639599432834
20
-13.5937562155754
30
0
41
1
10
-1.65888709683196
20
-13.598117184021
30
0
41
1
10
-1.66876077054772
20
-13.6169304791085
30
0
41
1
10
-1.67291602816357
20
-13.6292362105215
30
0
41
1
10
-1.69081671913955
20
-13.6869666460463
30
0
41
1
10
-1.69435307535019
20
-13.7234530454499
30
0
41
1
10
-1.69876945362606
20
-13.7776281868664
30
0
41
1
10
-1.69958314545906
20
-13.7961831676943
30
0
41
1
10
-1.69987639962216
20
-13.8139891097792
30
0
0
SPLINE
5
F8
100
AcDbEntity
8
SK1
62
256
6
ByLayer
370
-1
48
1
60
0
100
AcDbSpline
70
4
71
3
72
27
73
23
40
0
40
0
40
0
40
0
40
0.0373491017223203
40
0.0884223864643933
40
0.139495671206466
40
0.19056895594854
40
0.241642240690613
40
0.292715525432686
40
0.343788810174759
40
0.394862094916832
40
0.445935379658905
40
0.497008664400978
40
0.548081949143051
40
0.599155233885124
40
0.650228518627197
40
0.70130180336927
40
0.752375088111343
40
0.803448372853416
40
0.854521657595489
40
0.905594942337563
40
0.956668227079636
40
1
40
1
40
1
40
1
41
1
10
-0.400000000000006
20
-13.7965930683015
30
0
41
1
10
-0.399999999999977
20
-13.7852940850817
30
0
41
1
10
-0.39999999999992
20
-13.7501746952068
30
0
41
1
10
-0.399999999999949
20
-13.6607745146452
30
0
41
1
10
-0.399999999999949
20
-13.5152595834079
30
0
41
1
10
-0.399999999999949
20
-13.3190171661248
30
0
41
1
10
-0.399999999999949
20
-13.0696050793313
30
0
41
1
10
-0.399999999999949
20
-12.765695711353
30
0
41
1
10
-0.399999999999949
20
-12.4071875173709
30
0
41
1
10
-0.399999999999949
20
-11.9952649527342
30
0
41
1
10
-0.399999999999949
20
-11.5324121673266
30
0
41
1
10
-0.39999999999992
20
-11.0223736645665
30
0
41
1
10
-0.39999999999992
20
-10.470066387995
30
0
41
1
10
-0.39999999999992
20
-9.88144573908428
30
0
41
1
10
-0.39999999999992
20
-9.26332794093628
30
0
41
1
10
-0.39999999999992
20
-8.62318069742537
30
0
41
1
10
-0.39999999999992
20
-7.96888164701966
30
0
41
1
10
-0.39999999999992
20
-7.30846469728445
30
0
41
1
10
-0.39999999999992
20
-6.64985041554638
30
0
41
1
10
-0.39999999999992
20
-6.00058612356241
30
0
41
1
10
-0.39999999999992
20
-5.39957119182188
30
0
41
1
10
-0.39999999999992
20
-5.02226907709914
30
0
41
1
10
-0.39999999999992
20
-4.85227506835238
30
0
0
SPLINE
5
F9
100
AcDbEntity
8
SK1
62
256
6
ByLayer
370
-1
48
1
60
0
100
AcDbSpline
70
4
71
3
72
27
73
23
40
0
40
0
40
0
40
0
40
0.0433318476035857
40
0.0944051784814836
40
0.145478509359382
40
0.19655184023728
40
0.247625171115177
40
0.298698501993075
40
0.349771832870973
40
0.400845163748871
40
0.451918494626769
40
0.502991825504667
40
0.554065156382565
40
0.605138487260463
40
0.656211818138361
40
0.707285149016259
40
0.758358479894157
40
0.809431810772054
40
0.860505141649952
40
0.91157847252785
40
0.962651803405748
40
1
40
1
40
1
40
1
41
1
10
-0.39999999999992
20
4.85227456455002
30
0
41
1
10
-0.39999999999992
20
5.02226873502778
30
0
41
1
10
-0.39999999999992
20
5.3995711445526
30
0
41
1
10
-0.39999999999992
20
6.00058584498379
30
0
41
1
10
-0.39999999999992
20
6.64985057156352
30
0
41
1
10
-0.39999999999992
20
7.30846436616247
30
0
41
1
10
-0.39999999999992
20
7.96888181888042
30
0
41
1
10
-0.39999999999992
20
8.62318035716163
30
0
41
1
10
-0.39999999999992
20
9.26332810646636
30
0
41
1
10
-0.39999999999992
20
9.88144543350359
30
0
41
1
10
-0.39999999999992
20
10.4700665265398
30
0
41
1
10
-0.39999999999992
20
11.022373431452
30
0
41
1
10
-0.399999999999949
20
11.5324122627522
30
0
41
1
10
-0.399999999999949
20
11.9952648181666
30
0
41
1
10
-0.399999999999949
20
12.4071875603976
30
0
41
1
10
-0.399999999999949
20
12.7656956859389
30
0
41
1
10
-0.399999999999949
20
13.0696050688166
30
0
41
1
10
-0.399999999999949
20
13.3190172436223
30
0
41
1
10
-0.399999999999949
20
13.5152595263794
30
0
41
1
10
-0.399999999999949
20
13.6607746658667
30
0
41
1
10
-0.399999999999977
20
13.7501737648812
30
0
41
1
10
-0.399999999999949
20
13.7852935510177
30
0
41
1
10
-0.399999999999949
20
13.7965925646215
30
0
0
SPLINE
5
FA
100
AcDbEntity
8
SK1
62
256
6
ByLayer
370
-1
48
1
60
0
100
AcDbSpline
70
4
71
3
72
33
73
29
40
0
40
0
40
0
40
0
40
0.0324085633292232
40
0.0724748856331577
40
0.112541207937092
40
0.152607530241027
40
0.192673852544961
40
0.232740174848896
40
0.272806497152831
40
0.312872819456765
40
0.3529391417607
40
0.393005464064634
40
0.433071786368569
40
0.473138108672503
40
0.513204430976438
40
0.553270753280372
40
0.593337075584307
40
0.633403397888241
40
0.673469720192176
40
0.71353604249611
40
0.753602364800045
40
0.79366868710398
40
0.833735009407914
40
0.873801331711848
40
0.913867654015783
40
0.953933976319718
40
0.994000298623652
40
1
40
1
40
1
40
1
41
1
10
-1.49999999999991
20
-13.8245317697265
30
0
41
1
10
-1.49999999999991
20
-13.8227864652313
30
0
41
1
10
-1.49999999999994
20
-13.8105223079992
30
0
41
1
10
-1.49999999999994
20
-13.7589702687857
30
0
41
1
10
-1.49999999999994
20
-13.6607745146452
30
0
41
1
10
-1.49999999999994
20
-13.5152595834079
30
0
41
1
10
-1.49999999999994
20
-13.3190171661248
30
0
41
1
10
-1.49999999999994
20
-13.0696050793313
30
0
41
1
10
-1.49999999999994
20
-12.765695711353
30
0
41
1
10
-1.49999999999991
20
-12.4071875173709
30
0
41
1
10
-1.49999999999991
20
-11.9952649527342
30
0
41
1
10
-1.49999999999991
20
-11.5324121673266
30
0
41
1
10
-1.49999999999991
20
-11.0223736645665
30
0
41
1
10
-1.49999999999991
20
-10.470066387995
30
0
41
1
10
-1.49999999999991
20
-9.88144573908428
30
0
41
1
10
-1.49999999999991
20
-9.26332794093628
30
0
41
1
10
-1.49999999999991
20
-8.62318069742537
30
0
41
1
10
-1.49999999999991
20
-7.96888164701966
30
0
41
1
10
-1.49999999999991
20
-7.30846469728445
30
0
41
1
10
-1.49999999999989
20
-6.64985041554638
30
0
41
1
10
-1.49999999999989
20
-6.00058612356241
30
0
41
1
10
-1.49999999999989
20
-5.36758867042255
30
0
41
1
10
-1.49999999999989
20
-4.75691763797596
30
0
41
1
10
-1.49999999999989
20
-4.17356939352865
30
0
41
1
10
-1.49999999999989
20
-3.62131845460988
30
0
41
1
10
-1.49999999999989
20
-3.10259083011954
30
0
41
1
10
-1.49999999999989
20
-2.75563447873756
30
0
41
1
10
-1.49999999999989
20
-2.57759088990096
30
0
41
1
10
-1.49999999999989
20
-2.55452876952825
30
0
0
SPLINE
5
FB
100
AcDbEntity
8
SK1
62
256
6
ByLayer
370
-1
48
1
60
0
100
AcDbSpline
70
4
71
3
72
33
73
29
40
0
40
0
40
0
40
0
40
0.0059999172004973
40
0.0460661204212313
40
0.0861323236419653
40
0.126198526862699
40
0.166264730083433
40
0.206330933304167
40
0.246397136524901
40
0.286463339745635
40
0.326529542966369
40
0.366595746187103
40
0.406661949407837
40
0.446728152628571
40
0.486794355849305
40
0.526860559070039
40
0.566926762290773
40
0.606992965511507
40
0.647059168732241
40
0.687125371952975
40
0.727191575173709
40
0.767257778394443
40
0.807323981615177
40
0.847390184835911
40
0.887456388056645
40
0.927522591277379
40
0.967588794498113
40
1
40
1
40
1
40
1
41
1
10
-1.49999999999989
20
2.55452633951475
30
0
41
1
10
-1.49999999999989
20
2.57758935777625
30
0
41
1
10
-1.49999999999989
20
2.75563386385181
30
0
41
1
10
-1.49999999999989
20
3.10259085919483
30
0
41
1
10
-1.49999999999989
20
3.62131828040256
30
0
41
1
10
-1.49999999999989
20
4.17356946094313
30
0
41
1
10
-1.49999999999989
20
4.75691744833273
30
0
41
1
10
-1.49999999999989
20
5.36758879010387
30
0
41
1
10
-1.49999999999989
20
6.00058584498379
30
0
41
1
10
-1.49999999999989
20
6.64985057156352
30
0
41
1
10
-1.49999999999991
20
7.30846436616247
30
0
41
1
10
-1.49999999999991
20
7.96888181888042
30
0
41
1
10
-1.49999999999991
20
8.62318035716163
30
0
41
1
10
-1.49999999999991
20
9.26332810646636
30
0
41
1
10
-1.49999999999991
20
9.88144543350359
30
0
41
1
10
-1.49999999999991
20
10.4700665265398
30
0
41
1
10
-1.49999999999991
20
11.022373431452
30
0
41
1
10
-1.49999999999991
20
11.5324122627522
30
0
41
1
10
-1.49999999999991
20
11.9952648181666
30
0
41
1
10
-1.49999999999991
20
12.4071875603976
30
0
41
1
10
-1.49999999999994
20
12.7656956859389
30
0
41
1
10
-1.49999999999994
20
13.0696050688166
30
0
41
1
10
-1.49999999999994
20
13.3190172436223
30
0
41
1
10
-1.49999999999994
20
13.5152595263794
30
0
41
1
10
-1.49999999999994
20
13.6607746658667
30
0
41
1
10
-1.49999999999994
20
13.7589698929487
30
0
41
1
10
-1.49999999999991
20
13.8105242759991
30
0
41
1
10
-1.49999999999991
20
13.8227877021772
30
0
41
1
10
-1.49999999999997
20
13.8245323396215
30
0
0
SPLINE
5
FC
100
AcDbEntity
8
SK1
62
256
6
ByLayer
370
-1
48
1
60
0
100
AcDbSpline
70
4
71
3
72
79
73
75
40
0
40
0
40
0
40
0
40
0.0069311072274663
40
0.0210187899999512
40
0.0351064727724361
40
0.049194155544921
40
0.0632818383174059
40
0.0773695210898908
40
0.0914572038623757
40
0.105544886634861
40
0.119632569407345
40
0.13372025217983
40
0.147807934952315
40
0.1618956177248
40
0.175983300497285
40
0.19007098326977
40
0.204158666042255
40
0.21824634881474
40
0.232334031587225
40
0.24642171435971
40
0.260509397132195
40
0.27459707990468
40
0.288684762677164
40
0.302772445449649
40
0.316860128222134
40
0.330947810994619
40
0.345035493767104
40
0.359123176539589
40
0.373210859312074
40
0.387298542084559
40
0.401386224857044
40
0.415473907629529
40
0.429561590402014
40
0.443649273174498
40
0.457736955946983
40
0.471824638719468
40
0.485912321491953
40
0.500000004264438
40
0.514087687036923
40
0.528175369809408
40
0.542263052581893
40
0.556350735354378
40
0.570438418126862
40
0.584526100899347
40
0.598613783671832
40
0.612701466444317
40
0.626789149216802
40
0.640876831989287
40
0.654964514761772
40
0.669052197534257
40
0.683139880306742
40
0.697227563079227
40
0.711315245851711
40
0.725402928624196
40
0.739490611396681
40
0.753578294169166
40
0.767665976941651
40
0.781753659714136
40
0.795841342486621
40
0.809929025259106
40
0.824016708031591
40
0.838104390804076
40
0.852192073576561
40
0.866279756349046
40
0.88036743912153
40
0.894455121894015
40
0.9085428046665
40
0.922630487438985
40
0.93671817021147
40
0.950805852983955
40
0.96489353575644
40
0.978981218528925
40
0.99306890130141
40
1
40
1
40
1
40
1
41
1
10
-2.5
20
13.8300380026554
30
0
41
1
10
-2.5
20
13.8443994558504
30
0
41
1
10
-2.5
20
13.8858550859356
30
0
41
1
10
-2.5
20
13.9432745301022
30
0
41
1
10
-2.5
20
13.9887542441536
30
0
41
1
10
-2.5
20
14.0056234056246
30
0
41
1
10
-2.5
20
13.988752133348
30
0
41
1
10
-2.5
20
13.9330904587156
30
0
41
1
10
-2.5
20
13.8339177083708
30
0
41
1
10
-2.5
20
13.6870701821128
30
0
41
1
10
-2.49999999999997
20
13.4891606659135
30
0
41
1
10
-2.49999999999997
20
13.2377634553435
30
0
41
1
10
-2.49999999999997
20
12.9315646731672
30
0
41
1
10
-2.49999999999997
20
12.5704720586786
30
0
41
1
10
-2.49999999999997
20
12.1556745862519
30
0
41
1
10
-2.49999999999997
20
11.6896573582757
30
0
41
1
10
-2.49999999999997
20
11.1761598486008
30
0
41
1
10
-2.49999999999997
20
10.6200921552756
30
0
41
1
10
-2.49999999999997
20
10.0273966309962
30
0
41
1
10
-2.49999999999994
20
9.40487698463008
30
0
41
1
10
-2.49999999999994
20
8.75998301936997
30
0
41
1
10
-2.49999999999994
20
8.10057759802723
30
0
41
1
10
-2.49999999999994
20
7.43467620819112
30
0
41
1
10
-2.49999999999994
20
6.77018655593477
30
0
41
1
10
-2.49999999999994
20
6.11464187468977
30
0
41
1
10
-2.49999999999994
20
5.47495238907831
30
0
41
1
10
-2.49999999999994
20
4.85717257311447
30
0
41
1
10
-2.49999999999994
20
4.26630223424849
30
0
41
1
10
-2.49999999999994
20
3.70612309484702
30
0
41
1
10
-2.49999999999994
20
3.17908000235968
30
0
41
1
10
-2.49999999999994
20
2.68621197756718
30
0
41
1
10
-2.49999999999994
20
2.22713214869714
30
0
41
1
10
-2.49999999999994
20
1.80006432484655
30
0
41
1
10
-2.49999999999994
20
1.40192548161284
30
0
41
1
10
-2.49999999999994
20
1.02846311010666
30
0
41
1
10
-2.49999999999994
20
0.674428687296569
30
0
41
1
10
-2.49999999999994
20
0.333795915844576
30
0
41
1
10
-2.49999999999994
20
-7.12340693E-08
30
0
41
1
10
-2.49999999999994
20
-0.333795630908241
30
0
41
1
10
-2.49999999999994
20
-0.674428818459575
30
0
41
1
10
-2.49999999999994
20
-1.02846287039082
30
0
41
1
10
-2.49999999999994
20
-1.40192558052763
30
0
41
1
10
-2.49999999999994
20
-1.80006416890296
30
0
41
1
10
-2.49999999999994
20
-2.22713219916599
30
0
41
1
10
-2.49999999999994
20
-2.68621193163514
30
0
41
1
10
-2.49999999999994
20
-3.17907999530164
30
0
41
1
10
-2.49999999999994
20
-3.70612316901105
30
0
41
1
10
-2.49999999999994
20
-4.26630216899858
30
0
41
1
10
-2.49999999999994
20
-4.85717275994992
30
0
41
1
10
-2.49999999999994
20
-5.47495227341935
30
0
41
1
10
-2.49999999999994
20
-6.11464215048997
30
0
41
1
10
-2.49999999999994
20
-6.7701864048623
30
0
41
1
10
-2.49999999999994
20
-7.43467653668063
30
0
41
1
10
-2.49999999999994
20
-8.10057743145504
30
0
41
1
10
-2.49999999999994
20
-8.75998335716918
30
0
41
1
10
-2.49999999999994
20
-9.40487682435958
30
0
41
1
10
-2.49999999999997
20
-10.027396934279
30
0
41
1
10
-2.49999999999997
20
-10.6200920217111
30
0
41
1
10
-2.49999999999997
20
-11.1761600795757
30
0
41
1
10
-2.49999999999997
20
-11.6896572673894
30
0
41
1
10
-2.49999999999997
20
-12.1556747188218
30
0
41
1
10
-2.49999999999997
20
-12.5704720196536
30
0
41
1
10
-2.49999999999997
20
-12.931564696697
30
0
41
1
10
-2.49999999999997
20
-13.2377634692878
30
0
41
1
10
-2.5
20
-13.4891605866066
30
0
41
1
10
-2.5
20
-13.6870702420279
30
0
41
1
10
-2.5
20
-13.8339175480175
30
0
41
1
10
-2.5
20
-13.9330908491367
30
0
41
1
10
-2.5
20
-13.9887513430622
30
0
41
1
10
-2.5
20
-14.0056234821498
30
0
41
1
10
-2.5
20
-13.9887547283385
30
0
41
1
10
-2.5
20
-13.9432743681012
30
0
41
1
10
-2.5
20
-13.8858549220324
30
0
41
1
10
-2.5
20
-13.8443994037498
30
0
41
1
10
-2.5
20
-13.8300379971391
30
0
0
SPLINE
5
FD
100
AcDbEntity
8
SK1
62
256
6
ByLayer
370
-1
48
1
60
0
100
AcDbSpline
70
4
71
3
72
22
73
18
40
0
40
0
40
0
40
0
40
0.0623458245650562
40
0.0623458245650562
40
0.110570163204219
40
0.110570163204219
40
0.149017490368687
40
0.149017490368687
40
0.187460502406645
40
0.187460502406645
40
0.240848844411224
40
0.240848844411224
40
0.336931607063953
40
0.336931607063953
40
0.64116892602937
40
0.64116892602937
40
1
40
1
40
1
40
1
41
1
10
-0.399999999999977
20
-13.8205590132786
30
0
41
1
10
-0.394013511242747
20
-13.8207198641373
30
0
41
1
10
-0.387438377041548
20
-13.8211277948213
30
0
41
1
10
-0.374607857819029
20
-13.8226095541097
30
0
41
1
10
-0.368494470268644
20
-13.8235344490986
30
0
41
1
10
-0.357073302473168
20
-13.8258132771122
30
0
41
1
10
-0.351741572367729
20
-13.8270713477329
30
0
41
1
10
-0.34140996003066
20
-13.8299215021952
30
0
41
1
10
-0.336294849042844
20
-13.831543966011
30
0
41
1
10
-0.325054468279149
20
-13.8355258548496
30
0
41
1
10
-0.319101901704443
20
-13.8379842992552
30
0
41
1
10
-0.304411347490543
20
-13.8446767815525
30
0
41
1
10
-0.296779548188397
20
-13.8489171706104
30
0
41
1
10
-0.269692663824316
20
-13.8655029311592
30
0
41
1
10
-0.257826564745358
20
-13.8765532193897
30
0
41
1
10
-0.236633816443287
20
-13.8983759932977
30
0
41
1
10
-0.228015180847336
20
-13.9090684417276
30
0
41
1
10
-0.22148846120308
20
-13.9188474042006
30
0
0
SPLINE
5
FE
100
AcDbEntity
8
SK1
62
256
6
ByLayer
370
-1
48
1
60
0
100
AcDbSpline
70
4
71
3
72
24
73
20
40
0
40
0
40
0
40
0
40
0.0301438054682626
40
0.0301438054682626
40
0.0534484785704926
40
0.0534484785704926
40
0.0720095400082129
40
0.0720095400082129
40
0.0905695383101134
40
0.0905695383101134
40
0.116305960787128
40
0.116305960787128
40
0.162592546214773
40
0.162592546214773
40
0.309069601694218
40
0.309069601694218
40
0.921117608952043
40
0.921117608952043
40
1
40
1
40
1
40
1
41
1
10
-0.39999999999992
20
4.85227456454996
30
0
41
1
10
-0.394020023648153
20
4.84686859936412
30
0
41
1
10
-0.387451859572622
20
4.84195482474243
30
0
41
1
10
-0.374634642632799
20
4.83535851489759
30
0
41
1
10
-0.36852859233727
20
4.8331693070069
30
0
41
1
10
-0.357122680087087
20
4.83148108534394
30
0
41
1
10
-0.351799999816166
20
4.83153855404609
30
0
41
1
10
-0.341483048247653
20
4.83346410195867
30
0
41
1
10
-0.336373704588141
20
4.83534876772512
30
0
41
1
10
-0.325154856426082
20
4.84135562492241
30
0
41
1
10
-0.319215535801988
20
4.84610423757906
30
0
41
1
10
-0.304561922415417
20
4.86072267449359
30
0
41
1
10
-0.296947393086157
20
4.87187082056749
30
0
41
1
10
-0.269928948964264
20
4.91910282403435
30
0
41
1
10
-0.258077067230175
20
4.95889086918967
30
0
41
1
10
-0.207846446885668
20
5.16015067546422
30
0
41
1
10
-0.202576938682426
20
5.32517565344045
30
0
41
1
10
-0.200133226173534
20
5.50577396851835
30
0
41
1
10
-0.199999999999903
20
5.52643078383124
30
0
41
1
10
-0.199999999999903
20
5.54704286105715
30
0
0
SPLINE
5
FF
100
AcDbEntity
8
SK1
62
256
6
ByLayer
370
-1
48
1
60
0
100
AcDbSpline
70
4
71
3
72
24
73
20
40
0
40
0
40
0
40
0
40
0.0008299253364395
40
0.0008299253364395
40
0.374241324444366
40
0.374241324444366
40
0.632344789479677
40
0.632344789479677
40
0.762112395221052
40
0.762112395221052
40
0.806579694985708
40
0.806579694985708
40
0.851786357615367
40
0.851786357615367
40
0.893227000155209
40
0.893227000155209
40
0.936464331680807
40
0.936464331680807
40
1
40
1
40
1
40
1
41
1
10
-0.218267038722587
20
13.9259778556267
30
0
41
1
10
-0.218280426881961
20
13.9259543424539
30
0
41
1
10
-0.218293824099817
20
13.9259308243107
30
0
41
1
10
-0.224346935588187
20
13.9153098301286
30
0
41
1
10
-0.232233669438102
20
13.9036655551733
30
0
41
1
10
-0.252765410814618
20
13.8814084969653
30
0
41
1
10
-0.262983257543368
20
13.8715421084066
30
0
41
1
10
-0.286616108803798
20
13.8549361512882
30
0
41
1
10
-0.296048597512964
20
13.8489546731
30
0
41
1
10
-0.313313649213939
20
13.8405611977702
30
0
41
1
10
-0.318242626725265
20
13.8383488525843
30
0
41
1
10
-0.329187128776852
20
13.8339930106961
30
0
41
1
10
-0.335388564995384
20
13.83179581462
30
0
41
1
10
-0.347755359286083
20
13.8280854434499
30
0
41
1
10
-0.354048035137083
20
13.8264890383489
30
0
41
1
10
-0.366250197629455
20
13.8239295609977
30
0
41
1
10
-0.372316125402563
20
13.8229457626001
30
0
41
1
10
-0.38603706697225
20
13.821215643274
30
0
41
1
10
-0.393386043187917
20
13.8207370125792
30
0
41
1
10
-0.399999999999977
20
13.8205593061294
30
0
0
SPLINE
5
100
100
AcDbEntity
8
SK1
62
256
6
ByLayer
370
-1
48
1
60
0
100
AcDbSpline
70
4
71
3
72
26
73
22
40
0
40
0
40
0
40
0
40
0.469785788569223
40
0.469785788569223
40
0.668418514928441
40
0.668418514928441
40
0.804692954578532
40
0.804692954578532
40
0.873184756231219
40
0.873184756231219
40
0.896859155065293
40
0.896859155065293
40
0.920924484951571
40
0.920924484951571
40
0.939434470473137
40
0.939434470473137
40
0.957835931594602
40
0.957835931594602
40
0.988578442147356
40
0.988578442147356
40
1
40
1
40
1
40
1
41
1
10
-0.199999999999903
20
-5.54704287025544
30
0
41
1
10
-0.199999999999903
20
-5.42431718290925
30
0
41
1
10
-0.20396457895626
20
-5.29966999710626
30
0
41
1
10
-0.224282767013307
20
-5.12103358120197
30
0
41
1
10
-0.232179309049343
20
-5.06756976720519
30
0
41
1
10
-0.252704740622079
20
-4.978190210186
30
0
41
1
10
-0.262871079026354
20
-4.94160900373799
30
0
41
1
10
-0.286311952507617
20
-4.88949466422366
30
0
41
1
10
-0.295652382926335
20
-4.87213340280371
30
0
41
1
10
-0.312747464259928
20
-4.85229180429835
30
0
41
1
10
-0.317656735592436
20
-4.84745945050676
30
0
41
1
10
-0.328573296848816
20
-4.83925806030632
30
0
41
1
10
-0.334764979883033
20
-4.83584014543155
30
0
41
1
10
-0.346232005513514
20
-4.8322957525329
30
0
41
1
10
-0.35150620542197
20
-4.83157582806544
30
0
41
1
10
-0.361702396533559
20
-4.83188756629812
30
0
41
1
10
-0.366737314583702
20
-4.83289323712492
30
0
41
1
10
-0.379301479802251
20
-4.83714877172162
30
0
41
1
10
-0.386503100688515
20
-4.84144785455825
30
0
41
1
10
-0.395398036299696
20
-4.84826453743355
30
0
41
1
10
-0.397738018100881
20
-4.85023021284434
30
0
41
1
10
-0.39999999999992
20
-4.85227506835233
30
0
0
SPLINE
5
101
100
AcDbEntity
8
SK1
62
256
6
ByLayer
370
-1
48
1
60
0
100
AcDbSpline
70
4
71
3
72
36
73
32
40
0
40
0
40
0
40
0
40
0.0609459679823746
40
0.0609459679823746
40
0.132350572985845
40
0.132350572985845
40
0.20373278432534
40
0.20373278432534
40
0.275101574811802
40
0.275101574811802
40
0.346462424971137
40
0.346462424971137
40
0.417819049794063
40
0.417819049794063
40
0.489174288115632
40
0.489174288115632
40
0.560530863048381
40
0.560530863048381
40
0.631891607753405
40
0.631891607753405
40
0.703260276789393
40
0.703260276789393
40
0.774642141231355
40
0.774642141231355
40
0.846046336364231
40
0.846046336364231
40
0.91748993923519
40
0.91748993923519
40
0.989010298502686
40
0.989010298502686
40
1
40
1
40
1
40
1
41
1
10
-1.69993712518541
20
14.0200998908196
30
0
41
1
10
-1.69994579429309
20
14.0197255439066
30
0
41
1
10
-1.6999529379718
20
13.9984598300094
30
0
41
1
10
-1.699965968995
20
13.912699878437
30
0
41
1
10
-1.69997144501835
20
13.8412461697365
30
0
41
1
10
-1.69998026772575
20
13.6540534429184
30
0
41
1
10
-1.69998362760808
20
13.5381086536818
30
0
41
1
10
-1.69998893512073
20
13.2660178923742
30
0
41
1
10
-1.69999089366294
20
13.1096457528619
30
0
41
1
10
-1.69999393023608
20
12.759718428774
30
0
41
1
10
-1.69999500206259
20
12.5659031533754
30
0
41
1
10
-1.69999661222786
20
12.1434156407086
30
0
41
1
10
-1.69999715099706
20
11.9144442673658
30
0
41
1
10
-1.69999791606469
20
11.4234052370848
30
0
41
1
10
-1.69999814136457
20
11.1610105069826
30
0
41
1
10
-1.69999839419393
20
10.6045273427662
30
0
41
1
10
-1.69999842180135
20
10.310058909404
30
0
41
1
10
-1.69999829195729
20
9.69048832766435
30
0
41
1
10
-1.69999813485148
20
9.36495240576079
30
0
41
1
10
-1.69999754826782
20
8.68408754721199
30
0
41
1
10
-1.69999711775765
20
8.3282356479576
30
0
41
1
10
-1.6999957833763
20
7.58734438932615
30
0
41
1
10
-1.69999487990981
20
7.20167717645487
30
0
41
1
10
-1.69999225979791
20
6.40163925188287
30
0
41
1
10
-1.69999054604449
20
5.98644558449715
30
0
41
1
10
-1.6999858288633
20
5.12780487492378
30
0
41
1
10
-1.69998281485047
20
4.68321714982289
30
0
41
1
10
-1.69997494930925
20
3.76648812038707
30
0
41
1
10
-1.69997003537304
20
3.29259296387656
30
0
41
1
10
-1.69996330814757
20
2.73138446680247
30
0
41
1
10
-1.6999623922878
20
2.65618850451398
30
0
41
1
10
-1.69996145716257
20
2.58068890323852
30
0
0
SPLINE
5
102
100
AcDbEntity
8
SK1
62
256
6
ByLayer
370
-1
48
1
60
0
100
AcDbSpline
70
4
71
3
72
36
73
32
40
0
40
0
40
0
40
0
40
0.0332996421665714
40
0.0332996421665714
40
0.0866295922414987
40
0.0866295922414987
40
0.193745270168519
40
0.193745270168519
40
0.247042319248314
40
0.247042319248314
40
0.300332977592357
40
0.300332977592357
40
0.353619292120767
40
0.353619292120767
40
0.460448184648982
40
0.460448184648982
40
0.513730575824588
40
0.513730575824588
40
0.620535716609685
40
0.620535716609685
40
0.673818292222407
40
0.673818292222407
40
0.72710232360603
40
0.72710232360603
40
0.833958376065024
40
0.833958376065024
40
0.887248781065218
40
0.887248781065218
40
0.99426340644103
40
0.99426340644103
40
1
40
1
40
1
40
1
41
1
10
-1.69996145737016
20
-2.58069190327936
30
0
41
1
10
-1.69996429163038
20
-2.80951695785709
30
0
41
1
10
-1.69996696089558
20
-3.03562557775425
30
0
41
1
10
-1.699973337193
20
-3.6157289366447
30
0
41
1
10
-1.69997671926922
20
-3.96552379997851
30
0
41
1
10
-1.69998530650679
20
-4.99113580073313
30
0
41
1
10
-1.69998901558614
20
-5.6451156934246
30
0
41
1
10
-1.69999286236259
20
-6.57296958257461
30
0
41
1
10
-1.69999386162712
20
-6.87371338526046
30
0
41
1
10
-1.69999546843783
20
-7.4583834927808
30
0
41
1
10
-1.69999607823138
20
-7.74261790611689
30
0
41
1
10
-1.69999703744654
20
-8.29417338948343
30
0
41
1
10
-1.69999738660749
20
-8.56175046472268
30
0
41
1
10
-1.69999817831075
20
-9.33946452185438
30
0
41
1
10
-1.69999837743333
20
-9.82518649337788
30
0
41
1
10
-1.69999839575107
20
-10.4996879381028
30
0
41
1
10
-1.69999835090127
20
-10.7156644660853
30
0
41
1
10
-1.69999804475921
20
-11.336874457689
30
0
41
1
10
-1.69999762619807
20
-11.7157820313895
30
0
41
1
10
-1.69999631259481
20
-12.2254945281863
30
0
41
1
10
-1.69999575688217
20
-12.385732211918
30
0
41
1
10
-1.69999429236034
20
-12.686096780789
30
0
41
1
10
-1.69999338656007
20
-12.8263310062018
30
0
41
1
10
-1.69998989513294
20
-13.2157140959206
30
0
41
1
10
-1.69998657603577
20
-13.4338327645562
30
0
41
1
10
-1.69997869923833
20
-13.6890552895256
30
0
41
1
10
-1.69997557888936
20
-13.7622199088226
30
0
41
1
10
-1.69996421209731
20
-13.9433027119529
30
0
41
1
10
-1.69995396430045
20
-14.0130768516047
30
0
41
1
10
-1.69993838351948
20
-14.0199514281956
30
0
41
1
10
-1.69993757578186
20
-14.020118747421
30
0
41
1
10
-1.69993675425053
20
-14.0201000442183
30
0
0
SPLINE
5
103
100
AcDbEntity
8
SK1
62
256
6
ByLayer
370
-1
48
1
60
0
100
AcDbSpline
70
4
71
3
72
10
73
6
40
0
40
0
40
0
40
0
40
0.5
40
0.5
40
1
40
1
40
1
40
1
41
1
10
-1.69996145737096
20
-2.58069190327947
30
0
41
1
10
-1.83066345631863
20
-1.75993459600485
30
0
41
1
10
-1.92828862479948
20
-0.882205733470045
30
0
41
1
10
-1.92884980393794
20
0.873906280567809
30
0
41
1
10
-1.83183274904312
20
1.75257870763846
30
0
41
1
10
-1.69996145715965
20
2.5806889032381
30
0
0
SPLINE
5
104
100
AcDbEntity
8
SK1
62
256
6
ByLayer
370
-1
48
1
60
0
100
AcDbSpline
70
4
71
3
72
28
73
24
40
0
40
0
40
0
40
0
40
0.0452381029139281
40
0.0452381029139281
40
0.157078049720391
40
0.157078049720391
40
0.268917996526854
40
0.268917996526854
40
0.380757943333317
40
0.380757943333317
40
0.492597890139779
40
0.492597890139779
40
0.548517863543011
40
0.548517863543011
40
0.604437836946242
40
0.604437836946242
40
0.716277783752705
40
0.716277783752705
40
0.828117730559168
40
0.828117730559168
40
0.939957677365631
40
0.939957677365631
40
1
40
1
40
1
40
1
41
1
10
-22.5003041937535
20
-13.4945145491932
30
0
41
1
10
-22.5000150446623
20
-13.4775256715755
30
0
41
1
10
-22.4997682163223
20
-13.4043833195638
30
0
41
1
10
-22.4989937307487
20
-13.0176080569603
30
0
41
1
10
-22.4986249683274
20
-12.4701500968596
30
0
41
1
10
-22.4982069261353
20
-11.0286978987137
30
0
41
1
10
-22.4981455997663
20
-10.0921297310518
30
0
41
1
10
-22.4983230845615
20
-7.90886209346706
30
0
41
1
10
-22.4986082112245
20
-6.62824532897454
30
0
41
1
10
-22.4993679354385
20
-3.70042306094194
30
0
41
1
10
-22.5004322724609
20
-2.03370616903342
30
0
41
1
10
-22.5004923151495
20
0.897251413489357
30
0
41
1
10
-22.5001090878581
20
1.82206258077932
30
0
41
1
10
-22.4995136142361
20
3.53411939692123
30
0
41
1
10
-22.4992189802757
20
4.32121670078146
30
0
41
1
10
-22.4986136957847
20
6.55202595219237
30
0
41
1
10
-22.4983360854145
20
7.81771510109627
30
0
41
1
10
-22.4981435239426
20
10.0525974738792
30
0
41
1
10
-22.4981983886721
20
10.9721166914213
30
0
41
1
10
-22.4986120765797
20
12.4514986628692
30
0
41
1
10
-22.4989713160795
20
12.9965620594741
30
0
41
1
10
-22.4998147913998
20
13.4325241973463
30
0
41
1
10
-22.5001501886382
20
13.5164250913087
30
0
41
1
10
-22.5005713329404
20
13.4923839085441
30
0
0
LINE
5
4A
100
AcDbEntity
8
80
62
256
6
ByLayer
370
-1
48
1
60
0
100
AcDbLine
10
0
20
0
30
0
11
-10
21
0
31
0
39
0
210
0
220
0
230
1
0
LINE
5
4B
100
AcDbEntity
8
81
62
256
6
ByLayer
370
-1
48
1
60
0
100
AcDbLine
10
90
20
-17.9
30
0
11
100
21
-17.9
31
0
39
0
210
0
220
0
230
1
0
LINE
5
4C
100
AcDbEntity
8
SK4
62
256
6
ByLayer
370
-1
48
0.05
60
0
100
AcDbLine
10
-29
20
0
30
0
11
106.609272
21
0
31
0
39
0
210
0
220
0
230
1
0
LINE
5
4E
100
AcDbEntity
8
4
62
256
6
ByLayer
370
-1
48
0.05
60
0
100
AcDbLine
10
0
20
0
30
0
11
130.609272
21
0
31
0
39
0
210
0
220
0
230
1
0
LINE
5
50
100
AcDbEntity
8
1
62
256
6
ByLayer
370
-1
48
1
60
0
100
AcDbLine
10
0.3
20
20
30
0
11
0
21
19.7
31
0
39
0
210
0
220
0
230
1
0
LINE
5
51
100
AcDbEntity
8
1
62
256
6
ByLayer
370
-1
48
1
60
0
100
AcDbLine
10
0
20
-19.7
30
0
11
0.3
21
-20
31
0
39
0
210
0
220
0
230
1
0
LINE
5
52
100
AcDbEntity
8
1
62
256
6
ByLayer
370
-1
48
1
60
0
100
AcDbLine
10
19.5
20
20
30
0
11
0.3
21
20
31
0
39
0
210
0
220
0
230
1
0
LINE
5
53
100
AcDbEntity
8
1
62
256
6
ByLayer
370
-1
48
1
60
0
100
AcDbLine
10
0.3
20
-20
30
0
11
19.5
21
-20
31
0
39
0
210
0
220
0
230
1
0
LINE
5
54
100
AcDbEntity
8
1
62
256
6
ByLayer
370
-1
48
1
60
0
100
AcDbLine
10
19.5
20
-20
30
0
11
20.31226
21
-16.954024
31
0
39
0
210
0
220
0
230
1
0
LINE
5
55
100
AcDbEntity
8
1
62
256
6
ByLayer
370
-1
48
1
60
0
100
AcDbLine
10
20.31226
20
16.954024
30
0
11
19.5
21
20
31
0
39
0
210
0
220
0
230
1
0
LINE
5
56
100
AcDbEntity
8
1
62
256
6
ByLayer
370
-1
48
1
60
0
100
AcDbLine
10
26.10967
20
-12.5
30
0
11
80.008985
21
-12.5
31
0
39
0
210
0
220
0
230
1
0
LINE
5
57
100
AcDbEntity
8
1
62
256
6
ByLayer
370
-1
48
1
60
0
100
AcDbLine
10
87.721945
20
12.5
30
0
11
26.10967
21
12.5
31
0
39
0
210
0
220
0
230
1
0
LINE
5
58
100
AcDbEntity
8
1
62
256
6
ByLayer
370
-1
48
1
60
0
100
AcDbLine
10
94.048113
20
-11.702001
30
0
11
94.04723
21
-11.718852
31
0
39
0
210
0
220
0
230
1
0
LINE
5
59
100
AcDbEntity
8
1
62
256
6
ByLayer
370
-1
48
1
60
0
100
AcDbLine
10
92.865189
20
-11.746174
30
0
11
92.866055
21
-11.729659
31
0
39
0
210
0
220
0
230
1
0
LINE
5
5A
100
AcDbEntity
8
1
62
256
6
ByLayer
370
-1
48
1
60
0
100
AcDbLine
10
92.853947
20
-12.915944
30
0
11
92.85483
21
-12.899093
31
0
39
0
210
0
220
0
230
1
0
LINE
5
5B
100
AcDbEntity
8
1
62
256
6
ByLayer
370
-1
48
1
60
0
100
AcDbLine
10
94.036889
20
-12.871435
30
0
11
94.036023
21
-12.887951
31
0
39
0
210
0
220
0
230
1
0
LINE
5
5C
100
AcDbEntity
8
1
62
256
6
ByLayer
370
-1
48
1
60
0
100
AcDbLine
10
91.728737
20
-12.212155
30
0
11
91.728019
21
-12.225857
31
0
39
0
210
0
220
0
230
1
0
LINE
5
5D
100
AcDbEntity
8
1
62
256
6
ByLayer
370
-1
48
1
60
0
100
AcDbLine
10
95.173291
20
-12.406416
30
0
11
95.174009
21
-12.392714
31
0
39
0
210
0
220
0
230
1
0
LINE
5
5E
100
AcDbEntity
8
1
62
256
6
ByLayer
370
-1
48
1
60
0
100
AcDbLine
10
9.076795
20
19.122283
30
0
11
6.923205
21
19.122283
31
0
39
0
210
0
220
0
230
1
0
LINE
5
5F
100
AcDbEntity
8
1
62
256
6
ByLayer
370
-1
48
1
60
0
100
AcDbLine
10
9.336603
20
-6.16973
30
0
11
9.336603
21
-19.024574
31
0
39
0
210
0
220
0
230
1
0
LINE
5
60
100
AcDbEntity
8
1
62
256
6
ByLayer
370
-1
48
1
60
0
100
AcDbLine
10
6.663397
20
19.024574
30
0
11
6.663397
21
6.16973
31
0
39
0
210
0
220
0
230
1
0
LINE
5
61
100
AcDbEntity
8
1
62
256
6
ByLayer
370
-1
48
1
60
0
100
AcDbLine
10
96.766923
20
-9.703906
30
0
11
97.445515
21
-9.279954
31
0
39
0
210
0
220
0
230
1
0
LINE
5
62
100
AcDbEntity
8
1
62
256
6
ByLayer
370
-1
48
1
60
0
100
AcDbLine
10
97.397642
20
-9.159376
30
0
11
97.396356
21
-9.183909
31
0
39
0
210
0
220
0
230
1
0
LINE
5
63
100
AcDbEntity
8
1
62
256
6
ByLayer
370
-1
48
1
60
0
100
AcDbLine
10
26.10967
20
-12.5
30
0
11
26.10967
21
12.5
31
0
39
0
210
0
220
0
230
1
0
LINE
5
64
100
AcDbEntity
8
1
62
256
6
ByLayer
370
-1
48
1
60
0
100
AcDbLine
10
96.644172
20
-13.788847
30
0
11
101.609272
21
-10.686887
31
0
39
0
210
0
220
0
230
1
0
LINE
5
65
100
AcDbEntity
8
1
62
256
6
ByLayer
370
-1
48
1
60
0
100
AcDbLine
10
101.609272
20
-10.686887
30
0
11
101.609272
21
0
31
0
39
0
210
0
220
0
230
1
0
LINE
5
66
100
AcDbEntity
8
1
62
256
6
ByLayer
370
-1
48
1
60
0
100
AcDbLine
10
97.445515
20
-9.279954
30
0
11
97.396356
21
-9.183909
31
0
39
0
210
0
220
0
230
1
0
LINE
5
67
100
AcDbEntity
8
1
62
256
6
ByLayer
370
-1
48
1
60
0
100
AcDbLine
10
6.923205
20
19.122283
30
0
11
6.923205
21
5.85989
31
0
39
0
210
0
220
0
230
1
0
LINE
5
68
100
AcDbEntity
8
1
62
256
6
ByLayer
370
-1
48
1
60
0
100
AcDbLine
10
87.900221
20
12.339533
30
0
11
87.721945
21
12.5
31
0
39
0
210
0
220
0
230
1
0
LINE
5
69
100
AcDbEntity
8
1
62
256
6
ByLayer
370
-1
48
1
60
0
100
AcDbLine
10
6.923205
20
5.85989
30
0
11
9.076795
21
5.85989
31
0
39
0
210
0
220
0
230
1
0
LINE
5
6A
100
AcDbEntity
8
1
62
256
6
ByLayer
370
-1
48
1
60
0
100
AcDbLine
10
96.745885
20
4.37754
30
0
11
101.609272
21
0
31
0
39
0
210
0
220
0
230
1
0
LINE
5
6B
100
AcDbEntity
8
1
62
256
6
ByLayer
370
-1
48
1
60
0
100
AcDbLine
10
0
20
19.7
30
0
11
0
21
-19.7
31
0
39
0
210
0
220
0
230
1
0
LINE
5
6C
100
AcDbEntity
8
1
62
256
6
ByLayer
370
-1
48
1
60
0
100
AcDbLine
10
9.076795
20
19.122283
30
0
11
9.076795
21
5.85989
31
0
39
0
210
0
220
0
230
1
0
LINE
5
6D
100
AcDbEntity
8
1
62
256
6
ByLayer
370
-1
48
1
60
0
100
AcDbLine
10
0.3
20
20
30
0
11
0.3
21
-20
31
0
39
0
210
0
220
0
230
1
0
LINE
5
6E
100
AcDbEntity
8
1
62
256
6
ByLayer
370
-1
48
1
60
0
100
AcDbLine
10
89.324125
20
-8.474904
30
0
11
96.745885
21
4.37754
31
0
39
0
210
0
220
0
230
1
0
LINE
5
6F
100
AcDbEntity
8
1
62
256
6
ByLayer
370
-1
48
1
60
0
100
AcDbLine
10
6.923205
20
-19.122283
30
0
11
9.076795
21
-19.122283
31
0
39
0
210
0
220
0
230
1
0
LINE
5
70
100
AcDbEntity
8
1
62
256
6
ByLayer
370
-1
48
1
60
0
100
AcDbLine
10
9.336603
20
19.024574
30
0
11
9.336603
21
6.16973
31
0
39
0
210
0
220
0
230
1
0
LINE
5
71
100
AcDbEntity
8
1
62
256
6
ByLayer
370
-1
48
1
60
0
100
AcDbLine
10
97.397642
20
-9.159376
30
0
11
96.775075
21
-9.548326
31
0
39
0
210
0
220
0
230
1
0
LINE
5
72
100
AcDbEntity
8
1
62
256
6
ByLayer
370
-1
48
1
60
0
100
AcDbLine
10
6.663397
20
-6.16973
30
0
11
6.663397
21
-19.024574
31
0
39
0
210
0
220
0
230
1
0
LINE
5
73
100
AcDbEntity
8
1
62
256
6
ByLayer
370
-1
48
1
60
0
100
AcDbLine
10
97.396356
20
-9.183909
30
0
11
96.77379
21
-9.572859
31
0
39
0
210
0
220
0
230
1
0
LINE
5
74
100
AcDbEntity
8
1
62
256
6
ByLayer
370
-1
48
1
60
0
100
AcDbLine
10
80.018054
20
-12.496339
30
0
11
80.008985
21
-12.5
31
0
39
0
210
0
220
0
230
1
0
LINE
5
75
100
AcDbEntity
8
1
62
256
6
ByLayer
370
-1
48
1
60
0
100
AcDbLine
10
20.31226
20
16.954024
30
0
11
20.31226
21
-16.954024
31
0
39
0
210
0
220
0
230
1
0
LINE
5
76
100
AcDbEntity
8
1
62
256
6
ByLayer
370
-1
48
1
60
0
100
AcDbLine
10
6.923205
20
-5.85989
30
0
11
6.923205
21
-19.122283
31
0
39
0
210
0
220
0
230
1
0
LINE
5
77
100
AcDbEntity
8
1
62
256
6
ByLayer
370
-1
48
1
60
0
100
AcDbLine
10
97.56294
20
-7.188655
30
0
11
97.564226
21
-7.164121
31
0
39
0
210
0
220
0
230
1
0
LINE
5
78
100
AcDbEntity
8
1
62
256
6
ByLayer
370
-1
48
1
60
0
100
AcDbLine
10
9.076795
20
-5.85989
30
0
11
6.923205
21
-5.85989
31
0
39
0
210
0
220
0
230
1
0
LINE
5
79
100
AcDbEntity
8
1
62
256
6
ByLayer
370
-1
48
1
60
0
100
AcDbLine
10
19.5
20
20
30
0
11
19.5
21
-20
31
0
39
0
210
0
220
0
230
1
0
LINE
5
7A
100
AcDbEntity
8
1
62
256
6
ByLayer
370
-1
48
1
60
0
100
AcDbLine
10
9.076795
20
-5.85989
30
0
11
9.076795
21
-19.122283
31
0
39
0
210
0
220
0
230
1
0
LINE
5
7B
100
AcDbEntity
8
1
62
256
6
ByLayer
370
-1
48
1
60
0
100
AcDbLine
10
87.900221
20
12.339533
30
0
11
96.745885
21
4.37754
31
0
39
0
210
0
220
0
230
1
0
LINE
5
7C
100
AcDbEntity
8
1
62
256
6
ByLayer
370
-1
48
1
60
0
100
AcDbLine
10
90.000544
20
-17.482425
30
0
11
90.355471
21
-10.710001
31
0
39
0
210
0
220
0
230
1
0
LINE
5
7D
100
AcDbEntity
8
1
62
256
6
ByLayer
370
-1
48
1
60
0
100
AcDbLine
10
96.900347
20
-7.157832
30
0
11
96.545419
21
-13.930256
31
0
39
0
210
0
220
0
230
1
0
LINE
5
7E
100
AcDbEntity
8
1
62
256
6
ByLayer
370
-1
48
1
60
0
100
AcDbLine
10
96.359403
20
-14.245996
30
0
11
90.60719
21
-17.839707
31
0
39
0
210
0
220
0
230
1
0
LINE
5
7F
100
AcDbEntity
8
1
62
256
6
ByLayer
370
-1
48
1
60
0
100
AcDbLine
10
90.541488
20
-10.394261
30
0
11
96.293701
21
-6.80055
31
0
39
0
210
0
220
0
230
1
0
LINE
5
80
100
AcDbEntity
8
1
62
256
6
ByLayer
370
-1
48
1
60
0
100
AcDbLine
10
94.061674
20
-11.615778
30
0
11
94.060752
21
-11.633367
31
0
39
0
210
0
220
0
230
1
0
LINE
5
81
100
AcDbEntity
8
1
62
256
6
ByLayer
370
-1
48
1
60
0
100
AcDbLine
10
93.148291
20
-13.166135
30
0
11
93.147369
21
-13.183724
31
0
39
0
210
0
220
0
230
1
0
LINE
5
82
100
AcDbEntity
8
1
62
256
6
ByLayer
370
-1
48
1
60
0
100
AcDbLine
10
94.349254
20
-12.485927
30
0
11
94.348333
21
-12.50351
31
0
39
0
210
0
220
0
230
1
0
LINE
5
83
100
AcDbEntity
8
1
62
256
6
ByLayer
370
-1
48
1
60
0
100
AcDbLine
10
92.854054
20
-11.605334
30
0
11
92.853133
21
-11.622917
31
0
39
0
210
0
220
0
230
1
0
LINE
5
84
100
AcDbEntity
8
1
62
256
6
ByLayer
370
-1
48
1
60
0
100
AcDbLine
10
93.738766
20
-13.171546
30
0
11
93.737844
21
-13.189135
31
0
39
0
210
0
220
0
230
1
0
LINE
5
85
100
AcDbEntity
8
1
62
256
6
ByLayer
370
-1
48
1
60
0
100
AcDbLine
10
92.550268
20
-12.471585
30
0
11
92.549347
21
-12.489174
31
0
39
0
210
0
220
0
230
1
0
LINE
5
86
100
AcDbEntity
8
1
62
256
6
ByLayer
370
-1
48
1
60
0
100
AcDbLine
10
95.173692
20
-12.392624
30
0
11
95.173779
21
-12.390969
31
0
39
0
210
0
220
0
230
1
0
LINE
5
87
100
AcDbEntity
8
1
62
256
6
ByLayer
370
-1
48
1
60
0
100
AcDbLine
10
94.109835
20
-12.655546
30
0
11
94.10901
21
-12.671291
31
0
39
0
210
0
220
0
230
1
0
LINE
5
88
100
AcDbEntity
8
1
62
256
6
ByLayer
370
-1
48
1
60
0
100
AcDbLine
10
94.080369
20
-12.719906
30
0
11
94.081194
21
-12.704161
31
0
39
0
210
0
220
0
230
1
0
LINE
5
89
100
AcDbEntity
8
SK1
62
256
6
ByLayer
370
-1
48
1
60
0
100
AcDbLine
10
-0.2
20
-14.083485
30
0
11
-0.2
21
-5.547043
31
0
39
0
210
0
220
0
230
1
0
LINE
5
8B
100
AcDbEntity
8
SK1
62
256
6
ByLayer
370
-1
48
1
60
0
100
AcDbLine
10
-0.2
20
14.083485
30
0
11
-0.2
21
5.547043
31
0
39
0
210
0
220
0
230
1
0
LINE
5
8C
100
AcDbEntity
8
SK1
62
256
6
ByLayer
370
-1
48
1
60
0
100
AcDbLine
10
-1.307107
20
3.588717
30
0
11
-1.307107
21
-3.588717
31
0
39
0
210
0
220
0
230
1
0
LINE
5
8D
100
AcDbEntity
8
SK1
62
256
6
ByLayer
370
-1
48
1
60
0
100
AcDbLine
10
-24
20
-12.579031
30
0
11
-24
21
12.578424
31
0
39
0
210
0
220
0
230
1
0
LINE
5
8E
100
AcDbEntity
8
2
62
256
6
ByLayer
370
-1
48
1
60
1
100
AcDbLine
10
90
20
0
30
0
11
90.001
21
0.001
31
0
39
0
210
0
220
0
230
1
0
MTEXT
5
105
100
AcDbEntity
8
SK6
62
256
6
ByLayer
370
-1
48
1
60
0
100
AcDbMText
10
6.079636
20
29.125
30
0
210
0
220
0
230
1
1
\W00.741;\fsimplex.shx,bigfont.shx;C4-SDUCL-18090-07X 
40
3.5
41
0
44
1.084337
50
0
71
7
72
5
7
DEFAULT
0
DIMENSION
5
139
100
AcDbEntity
8
SK2
62
256
6
ByLayer
370
-3
48
1
60
0
100
AcDbDimension
2
DimnDraft3D1
10
-36.75
20
-20
30
0
11
-36.75
21
-5.021053
31
0
70
32
71
5
72
1
41
1
210
0
220
0
230
1
3
Standard
100
AcDbAlignedDimension
13
-2
23
20
33
0
14
-2
24
-20
34
0
50
90
100
AcDbRotatedDimension
1001
ACAD
1000
DSTYLE
1002
{
1070
    74
1070
     0
1070
   279
1070
     0
1070
   172
1070
     1
1070
   173
1070
     1
1070
   340
1005
106
1070
    77
1070
     1
1070
    73
1070
     0
1070
   171
1070
     4
1070
   274
1070
     4
1070
   177
1070
     2
1070
   176
1070
     2
1070
   178
1070
     7
1070
    78
1070
     8
1070
    41
1041
3.175
1070
   147
1041
2.25
1070
    42
1041
2.0
1070
    44
1041
2.0
1070
   140
1041
4.5
1070
   343
1005
13A
1070
   344
1005
13A
1002
}
0
DIMENSION
5
14C
100
AcDbEntity
8
2
62
256
6
ByLayer
370
-3
48
1
60
0
100
AcDbDimension
2
DimnDraft3D2
10
36.75
20
12.5
30
0
11
36.75
21
-7.318421
31
0
70
32
71
5
72
1
41
1
210
0
220
0
230
1
3
Standard
100
AcDbAlignedDimension
13
21.5
23
12.5
33
0
14
0
24
0
34
0
50
90
100
AcDbRotatedDimension
1001
ACAD
1000
DSTYLE
1002
{
1070
    74
1070
     0
1070
   279
1070
     0
1070
   172
1070
     1
1070
   173
1070
     1
1070
   340
1005
106
1070
    75
1070
     1
1070
    76
1070
     1
1070
    77
1070
     1
1070
    73
1070
     0
1070
   171
1070
     4
1070
   274
1070
     4
1070
   177
1070
     2
1070
   176
1070
     2
1070
   178
1070
     7
1070
    78
1070
     8
1070
    41
1041
3.175
1070
   147
1041
2.25
1070
    42
1041
2.0
1070
    44
1041
2.0
1070
   140
1041
4.5
1070
   343
1005
13A
1070
   344
1005
13A
1002
}
0
DIMENSION
5
15A
100
AcDbEntity
8
2
62
256
6
ByLayer
370
-3
48
1
60
0
100
AcDbDimension
2
DimnDraft3D3
10
112.25
20
-17.9
30
0
11
112.25
21
-13.550658
31
0
70
32
71
5
72
1
41
1
210
0
220
0
230
1
3
Standard
100
AcDbAlignedDimension
13
92
23
0
33
0
14
92
24
-17.9
34
0
50
90
100
AcDbRotatedDimension
1001
ACAD
1000
DSTYLE
1002
{
1070
    74
1070
     0
1070
   279
1070
     0
1070
   172
1070
     1
1070
   173
1070
     1
1070
   340
1005
106
1070
    77
1070
     1
1070
    73
1070
     0
1070
   171
1070
     4
1070
   274
1070
     4
1070
   177
1070
     2
1070
   176
1070
     2
1070
   178
1070
     7
1070
    78
1070
     8
1070
    41
1041
3.175
1070
   147
1041
2.25
1070
    42
1041
2.0
1070
    44
1041
2.0
1070
   140
1041
4.5
1070
   343
1005
13A
1070
   344
1005
13A
1002
}
0
DIMENSION
5
168
100
AcDbEntity
8
2
62
256
6
ByLayer
370
-3
48
1
60
0
100
AcDbDimension
2
DimnDraft3D4
10
90
20
-50.15
30
0
11
39.836842
21
-50.15
31
0
70
32
71
5
72
1
41
1
210
0
220
0
230
1
3
Standard
100
AcDbAlignedDimension
13
0
23
-22
33
0
14
90
24
-19.9
34
0
50
0
100
AcDbRotatedDimension
1001
ACAD
1000
DSTYLE
1002
{
1070
   279
1070
     0
1070
   172
1070
     1
1070
   173
1070
     1
1070
   340
1005
106
1070
    77
1070
     1
1070
    73
1070
     0
1070
   171
1070
     4
1070
   274
1070
     4
1070
   177
1070
     2
1070
   176
1070
     2
1070
   178
1070
     7
1070
    78
1070
     8
1070
    41
1041
3.175
1070
   147
1041
2.25
1070
    42
1041
2.0
1070
    44
1041
2.0
1070
   140
1041
4.5
1070
   343
1005
13A
1070
   344
1005
13A
1002
}
0
DIMENSION
5
176
100
AcDbEntity
8
2
62
256
6
ByLayer
370
-3
48
1
60
0
100
AcDbDimension
2
DimnDraft3D5
10
90
20
-35.15
30
0
11
50.586842
21
-35.15
31
0
70
32
71
5
72
1
41
1
210
0
220
0
230
1
3
Standard
100
AcDbAlignedDimension
13
21.5
23
-14.5
33
0
14
90
24
-19.9
34
0
50
0
100
AcDbRotatedDimension
1001
ACAD
1000
DSTYLE
1002
{
1070
   279
1070
     0
1070
   172
1070
     1
1070
   173
1070
     1
1070
   340
1005
106
1070
    77
1070
     1
1070
    73
1070
     0
1070
   171
1070
     4
1070
   274
1070
     4
1070
   177
1070
     2
1070
   176
1070
     2
1070
   178
1070
     7
1070
    78
1070
     8
1070
    41
1041
3.175
1070
   147
1041
2.25
1070
    42
1041
2.0
1070
    44
1041
2.0
1070
   140
1041
4.5
1070
   343
1005
13A
1070
   344
1005
13A
1002
}
0
DIMENSION
5
184
100
AcDbEntity
8
2
62
256
6
ByLayer
370
-3
48
1
60
0
100
AcDbDimension
2
DimnDraft3D6
10
88.710916
20
-42.497192
30
0
11
112.684476
21
-32.17138
31
0
70
34
71
5
72
1
41
1
210
0
220
0
230
1
3
Standard
100
AcDb2LineAngularDimension
13
92
23
0
33
0
14
133.493612
24
0
34
0
15
89.895328
25
-19.897259
35
0
16
115.757076
26
-26.153745
36
0
40
0
0
ENDSEC
0
SECTION
2
OBJECTS
0
DICTIONARY
5
1b5
330
0
100
AcDbDictionary
280
0
281
1
3
ACAD_GROUP
350
1b6
3
ACAD_MLINESTYLE
350
1b7
0
DICTIONARY
5
1b6
330
0
100
AcDbDictionary
280
0
281
1
0
DICTIONARY
5
1b7
330
0
100
AcDbDictionary
280
0
281
1
3
Standard
350
18
0
MLINESTYLE
5
18
330
1b7
100
AcDbMlineStyle
2
Standard
70
0
3

62
256
51
90
52
90
71
2
49
-0.5
62
256
6
ByLayer
49
0.5
62
256
6
ByLayer
0
RASTERVARIABLES
5
1a3
330

100
AcDbRasterVariables
90
0
70
1
71
1
72
1
0
ENDSEC
0
EOF
