  0
SECTION
  2
HEADER
  9
$ACADVER
  1
AC1015
  9
$ACADMAINTVER
 70
    20
  9
$DWGCODEPAGE
  3
ANSI_1252
  9
$INSBASE
 10
0.0
 20
0.0
 30
0.0
  9
$EXTMIN
 10
-35.29301276534443
 20
-26.81320073643372
 30
-1.947189919407758
  9
$EXTMAX
 10
149.005234938121
 20
53.33282546761075
 30
0.0000000099815534
  9
$LIMMIN
 10
-170.0
 20
-170.0
  9
$LIMMAX
 10
519.0
 20
260.0
  9
$ORTHOMODE
 70
     0
  9
$REGENMODE
 70
     1
  9
$FILLMODE
 70
     1
  9
$QTEXTMODE
 70
     0
  9
$MIRRTEXT
 70
     0
  9
$LTSCALE
 40
1.0
  9
$ATTMODE
 70
     1
  9
$TEXTSIZE
 40
3.5
  9
$TRACEWID
 40
1.0
  9
$TEXTSTYLE
  7
SIMPLEX
  9
$CLAYER
  8
1
  9
$CELTYPE
  6
BYLAYER
  9
$CECOLOR
 62
   256
  9
$CELTSCALE
 40
1.0
  9
$DISPSILH
 70
     0
  9
$DIMSCALE
 40
1.0
  9
$DIMASZ
 40
2.5
  9
$DIMEXO
 40
0.0
  9
$DIMDLI
 40
3.75
  9
$DIMRND
 40
0.0
  9
$DIMDLE
 40
0.0
  9
$DIMEXE
 40
1.25
  9
$DIMTP
 40
0.0
  9
$DIMTM
 40
0.0
  9
$DIMTXT
 40
3.5
  9
$DIMCEN
 40
0.0
  9
$DIMTSZ
 40
0.0
  9
$DIMTOL
 70
     0
  9
$DIMLIM
 70
     0
  9
$DIMTIH
 70
     0
  9
$DIMTOH
 70
     0
  9
$DIMSE1
 70
     0
  9
$DIMSE2
 70
     0
  9
$DIMTAD
 70
     1
  9
$DIMZIN
 70
     8
  9
$DIMBLK
  1

  9
$DIMASO
 70
     1
  9
$DIMSHO
 70
     1
  9
$DIMPOST
  1

  9
$DIMAPOST
  1

  9
$DIMALT
 70
     0
  9
$DIMALTD
 70
     3
  9
$DIMALTF
 40
0.039370078
  9
$DIMLFAC
 40
1.0
  9
$DIMTOFL
 70
     0
  9
$DIMTVP
 40
0.0
  9
$DIMTIX
 70
     0
  9
$DIMSOXD
 70
     0
  9
$DIMSAH
 70
     0
  9
$DIMBLK1
  1

  9
$DIMBLK2
  1

  9
$DIMSTYLE
  2
SANDVIK_STYLE
  9
$DIMCLRD
 70
     0
  9
$DIMCLRE
 70
     0
  9
$DIMCLRT
 70
     0
  9
$DIMTFAC
 40
1.0
  9
$DIMGAP
 40
0.625
  9
$DIMJUST
 70
     0
  9
$DIMSD1
 70
     0
  9
$DIMSD2
 70
     0
  9
$DIMTOLJ
 70
     0
  9
$DIMTZIN
 70
     8
  9
$DIMALTZ
 70
     0
  9
$DIMALTTZ
 70
     0
  9
$DIMUPT
 70
     0
  9
$DIMDEC
 70
     2
  9
$DIMTDEC
 70
     2
  9
$DIMALTU
 70
     2
  9
$DIMALTTD
 70
     3
  9
$DIMTXSTY
  7
SIMPLEX
  9
$DIMAUNIT
 70
     0
  9
$DIMADEC
 70
     2
  9
$DIMALTRND
 40
0.0
  9
$DIMAZIN
 70
     2
  9
$DIMDSEP
 70
    46
  9
$DIMATFIT
 70
     3
  9
$DIMFRAC
 70
     0
  9
$DIMLDRBLK
  1

  9
$DIMLUNIT
 70
     2
  9
$DIMLWD
 70
    -2
  9
$DIMLWE
 70
    -2
  9
$DIMTMOVE
 70
     0
  9
$LUNITS
 70
     2
  9
$LUPREC
 70
     4
  9
$SKETCHINC
 40
1.0
  9
$FILLETRAD
 40
0.0
  9
$AUNITS
 70
     0
  9
$AUPREC
 70
     0
  9
$MENU
  1
c:\tdm21\cad\caduti13\tdm13
  9
$ELEVATION
 40
0.0
  9
$PELEVATION
 40
0.0
  9
$THICKNESS
 40
0.0
  9
$LIMCHECK
 70
     0
  9
$CHAMFERA
 40
0.0
  9
$CHAMFERB
 40
0.0
  9
$CHAMFERC
 40
0.0
  9
$CHAMFERD
 40
0.0
  9
$SKPOLY
 70
     0
  9
$TDCREATE
 40
2455883.643486840
  9
$TDUCREATE
 40
2455883.560153508
  9
$TDUPDATE
 40
2456817.855839919
  9
$TDUUPDATE
 40
2456817.772506586
  9
$TDINDWG
 40
0.0012839815
  9
$TDUSRTIMER
 40
0.0012839352
  9
$USRTIMER
 70
     1
  9
$ANGBASE
 50
0.0
  9
$ANGDIR
 70
     0
  9
$PDMODE
 70
     1
  9
$PDSIZE
 40
0.0
  9
$PLINEWID
 40
0.0
  9
$SPLFRAME
 70
     0
  9
$SPLINETYPE
 70
     6
  9
$SPLINESEGS
 70
     8
  9
$HANDSEED
  5
25192
  9
$SURFTAB1
 70
     6
  9
$SURFTAB2
 70
     6
  9
$SURFTYPE
 70
     6
  9
$SURFU
 70
     6
  9
$SURFV
 70
     6
  9
$UCSBASE
  2

  9
$UCSNAME
  2

  9
$UCSORG
 10
0.0
 20
0.0
 30
0.0
  9
$UCSXDIR
 10
1.0
 20
0.0
 30
0.0
  9
$UCSYDIR
 10
0.0
 20
1.0
 30
0.0
  9
$UCSORTHOREF
  2

  9
$UCSORTHOVIEW
 70
     0
  9
$UCSORGTOP
 10
0.0
 20
0.0
 30
0.0
  9
$UCSORGBOTTOM
 10
0.0
 20
0.0
 30
0.0
  9
$UCSORGLEFT
 10
0.0
 20
0.0
 30
0.0
  9
$UCSORGRIGHT
 10
0.0
 20
0.0
 30
0.0
  9
$UCSORGFRONT
 10
0.0
 20
0.0
 30
0.0
  9
$UCSORGBACK
 10
0.0
 20
0.0
 30
0.0
  9
$PUCSBASE
  2

  9
$PUCSNAME
  2

  9
$PUCSORG
 10
0.0
 20
0.0
 30
0.0
  9
$PUCSXDIR
 10
1.0
 20
0.0
 30
0.0
  9
$PUCSYDIR
 10
0.0
 20
1.0
 30
0.0
  9
$PUCSORTHOREF
  2

  9
$PUCSORTHOVIEW
 70
     0
  9
$PUCSORGTOP
 10
0.0
 20
0.0
 30
0.0
  9
$PUCSORGBOTTOM
 10
0.0
 20
0.0
 30
0.0
  9
$PUCSORGLEFT
 10
0.0
 20
0.0
 30
0.0
  9
$PUCSORGRIGHT
 10
0.0
 20
0.0
 30
0.0
  9
$PUCSORGFRONT
 10
0.0
 20
0.0
 30
0.0
  9
$PUCSORGBACK
 10
0.0
 20
0.0
 30
0.0
  9
$USERI1
 70
     0
  9
$USERI2
 70
     0
  9
$USERI3
 70
     0
  9
$USERI4
 70
     0
  9
$USERI5
 70
     0
  9
$USERR1
 40
0.0
  9
$USERR2
 40
0.0
  9
$USERR3
 40
0.0
  9
$USERR4
 40
0.0
  9
$USERR5
 40
0.0
  9
$WORLDVIEW
 70
     1
  9
$SHADEDGE
 70
     3
  9
$SHADEDIF
 70
    70
  9
$TILEMODE
 70
     1
  9
$MAXACTVP
 70
    64
  9
$PINSBASE
 10
0.0
 20
0.0
 30
0.0
  9
$PLIMCHECK
 70
     0
  9
$PEXTMIN
 10
0.0
 20
0.0
 30
0.0
  9
$PEXTMAX
 10
0.0
 20
0.0
 30
0.0
  9
$PLIMMIN
 10
0.0
 20
0.0
  9
$PLIMMAX
 10
12.0
 20
9.0
  9
$UNITMODE
 70
     0
  9
$VISRETAIN
 70
     0
  9
$PLINEGEN
 70
     0
  9
$PSLTSCALE
 70
     1
  9
$TREEDEPTH
 70
  3020
  9
$CMLSTYLE
  2
STANDARD
  9
$CMLJUST
 70
     0
  9
$CMLSCALE
 40
20.0
  9
$PROXYGRAPHICS
 70
     1
  9
$MEASUREMENT
 70
     1
  9
$CELWEIGHT
370
    -1
  9
$ENDCAPS
280
     0
  9
$JOINSTYLE
280
     0
  9
$LWDISPLAY
290
     0
  9
$INSUNITS
 70
     4
  9
$HYPERLINKBASE
  1

  9
$STYLESHEET
  1
MONOCHROME.CTB
  9
$XEDIT
290
     1
  9
$CEPSNTYPE
380
     0
  9
$PSTYLEMODE
290
     1
  9
$FINGERPRINTGUID
  2
{2541ECFD-A15C-4867-AF57-EDFAAE528261}
  9
$VERSIONGUID
  2
{4E15FC61-E74D-4A55-AD1C-3932C66E85E6}
  9
$EXTNAMES
290
     1
  9
$PSVPSCALE
 40
0.0
  9
$OLESTARTUP
290
     0
  0
ENDSEC
  0
SECTION
  2
CLASSES
  0
CLASS
  1
ACDBDICTIONARYWDFLT
  2
AcDbDictionaryWithDefault
  3
ObjectDBX Classes
 90
        0
280
     0
281
     0
  0
CLASS
  1
ACDBPLACEHOLDER
  2
AcDbPlaceHolder
  3
ObjectDBX Classes
 90
        0
280
     0
281
     0
  0
CLASS
  1
LAYOUT
  2
AcDbLayout
  3
ObjectDBX Classes
 90
        0
280
     0
281
     0
  0
CLASS
  1
DICTIONARYVAR
  2
AcDbDictionaryVar
  3
ObjectDBX Classes
 90
        0
280
     0
281
     0
  0
CLASS
  1
TABLESTYLE
  2
AcDbTableStyle
  3
ObjectDBX Classes
 90
     4095
280
     0
281
     0
  0
CLASS
  1
MATERIAL
  2
AcDbMaterial
  3
ObjectDBX Classes
 90
     1153
280
     0
281
     0
  0
CLASS
  1
VISUALSTYLE
  2
AcDbVisualStyle
  3
ObjectDBX Classes
 90
     4095
280
     0
281
     0
  0
CLASS
  1
SCALE
  2
AcDbScale
  3
ObjectDBX Classes
 90
     1153
280
     0
281
     0
  0
CLASS
  1
MLEADERSTYLE
  2
AcDbMLeaderStyle
  3
ACDB_MLEADERSTYLE_CLASS
 90
     4095
280
     0
281
     0
  0
CLASS
  1
CELLSTYLEMAP
  2
AcDbCellStyleMap
  3
ObjectDBX Classes
 90
     1152
280
     0
281
     0
  0
CLASS
  1
SORTENTSTABLE
  2
AcDbSortentsTable
  3
ObjectDBX Classes
 90
        0
280
     0
281
     0
  0
CLASS
  1
ACDBSECTIONVIEWSTYLE
  2
AcDbSectionViewStyle
  3
ObjectDBX Classes
 90
     1025
280
     0
281
     0
  0
CLASS
  1
ACDBDETAILVIEWSTYLE
  2
AcDbDetailViewStyle
  3
ObjectDBX Classes
 90
     1025
280
     0
281
     0
  0
CLASS
  1
EXACXREFPANELOBJECT
  2
ExAcXREFPanelObject
  3
EXAC_ESW
 90
     1025
280
     0
281
     0
  0
CLASS
  1
NPOCOLLECTION
  2
AcDbImpNonPersistentObjectsCollection
  3
ObjectDBX Classes
 90
     1153
280
     0
281
     0
  0
ENDSEC
  0
SECTION
  2
TABLES
  0
TABLE
  2
VPORT
  5
8
330
0
100
AcDbSymbolTable
 70
     1
  0
VPORT
  5
3ED
330
8
100
AcDbSymbolTableRecord
100
AcDbViewportTableRecord
  2
*Active
 70
     0
 10
0.0
 20
0.0
 11
1.0
 21
1.0
 12
56.85611108638831
 22
13.25981236558851
 13
0.0
 23
0.0
 14
5.0
 24
5.0
 15
5.0
 25
5.0
 16
0.0
 26
0.0
 36
1.0
 17
0.0
 27
0.0
 37
0.0
 40
93.3835765941369
 41
2.2
 42
50.0
 43
0.0
 44
0.0
 50
0.0
 51
0.0
 71
     0
 72
  2000
 73
     1
 74
     1
 75
     0
 76
     0
 77
     0
 78
     0
281
     0
 65
     1
110
0.0
120
0.0
130
0.0
111
1.0
121
0.0
131
0.0
112
0.0
122
1.0
132
0.0
 79
     0
146
0.0
1001
ACAD_NAV_VCDISPLAY
1070
     3
  0
ENDTAB
  0
TABLE
  2
LTYPE
  5
5
330
0
100
AcDbSymbolTable
 70
    28
  0
LTYPE
  5
12
330
5
100
AcDbSymbolTableRecord
100
AcDbLinetypeTableRecord
  2
BYBLOCK
 70
     0
  3

 72
    65
 73
     0
 40
0.0
  0
LTYPE
  5
13
330
5
100
AcDbSymbolTableRecord
100
AcDbLinetypeTableRecord
  2
BYLAYER
 70
     0
  3

 72
    65
 73
     0
 40
0.0
  0
LTYPE
  5
14
330
5
100
AcDbSymbolTableRecord
100
AcDbLinetypeTableRecord
  2
CONTINUOUS
 70
     0
  3
Solid line
 72
    65
 73
     0
 40
0.0
  0
LTYPE
  5
24DD1
330
5
100
AcDbSymbolTableRecord
100
AcDbLinetypeTableRecord
  2
BORDER
 70
     0
  3
__ __ . __ __ . __ __ . __ __ . __ __ . __ __ .
 72
    65
 73
     6
 40
44.45
 49
12.7
 74
     0
 49
-6.349999999999997
 74
     0
 49
12.7
 74
     0
 49
-6.349999999999997
 74
     0
 49
0.0
 74
     0
 49
-6.349999999999997
 74
     0
  0
LTYPE
  5
24DD2
330
5
100
AcDbSymbolTableRecord
100
AcDbLinetypeTableRecord
  2
BORDER2
 70
     0
  3
__.__.__.__.__.__.__.__.__.__.__.__.__.__.__.__
 72
    65
 73
     6
 40
22.225
 49
6.349999999999997
 74
     0
 49
-3.174999999999998
 74
     0
 49
6.349999999999997
 74
     0
 49
-3.174999999999998
 74
     0
 49
0.0
 74
     0
 49
-3.174999999999998
 74
     0
  0
LTYPE
  5
24DD3
330
5
100
AcDbSymbolTableRecord
100
AcDbLinetypeTableRecord
  2
BORDERX2
 70
     0
  3
____  ____  .  ____  ____  .  ____  ____  .  __
 72
    65
 73
     6
 40
88.9
 49
25.4
 74
     0
 49
-12.7
 74
     0
 49
25.4
 74
     0
 49
-12.7
 74
     0
 49
0.0
 74
     0
 49
-12.7
 74
     0
  0
LTYPE
  5
24DD4
330
5
100
AcDbSymbolTableRecord
100
AcDbLinetypeTableRecord
  2
CENTER
 70
     0
  3
____ _ ____ _ ____ _ ____ _ ____ _ ____ _ ____ 
 72
    65
 73
     4
 40
50.8
 49
31.75
 74
     0
 49
-6.349999999999997
 74
     0
 49
6.349999999999997
 74
     0
 49
-6.349999999999997
 74
     0
  0
LTYPE
  5
24DD5
330
5
100
AcDbSymbolTableRecord
100
AcDbLinetypeTableRecord
  2
CENTER2
 70
     0
  3
___ _ ___ _ ___ _ ___ _ ___ _ ___ _ ___ _ ___ _
 72
    65
 73
     4
 40
28.57499999999999
 49
19.05
 74
     0
 49
-3.174999999999998
 74
     0
 49
3.174999999999998
 74
     0
 49
-3.174999999999998
 74
     0
  0
LTYPE
  5
24DD6
330
5
100
AcDbSymbolTableRecord
100
AcDbLinetypeTableRecord
  2
CENTERX2
 70
     0
  3
________  __  ________  __  ________  __  _____
 72
    65
 73
     4
 40
101.6
 49
63.5
 74
     0
 49
-12.7
 74
     0
 49
12.7
 74
     0
 49
-12.7
 74
     0
  0
LTYPE
  5
24DD7
330
5
100
AcDbSymbolTableRecord
100
AcDbLinetypeTableRecord
  2
CENTRE
 70
     0
  3
____ _ ____ _ ____ _ ____ _ ____ _ ____ _ ____ 
 72
    65
 73
     4
 40
50.8
 49
31.75
 74
     0
 49
-6.349999999999997
 74
     0
 49
6.349999999999997
 74
     0
 49
-6.349999999999997
 74
     0
  0
LTYPE
  5
24DD8
330
5
100
AcDbSymbolTableRecord
100
AcDbLinetypeTableRecord
  2
CENTRE2
 70
     0
  3
___ _ ___ _ ___ _ ___ _ ___ _ ___ _ ___ _ ___ _
 72
    65
 73
     4
 40
28.57499999999999
 49
19.05
 74
     0
 49
-3.174999999999998
 74
     0
 49
3.174999999999998
 74
     0
 49
-3.174999999999998
 74
     0
  0
LTYPE
  5
24DD9
330
5
100
AcDbSymbolTableRecord
100
AcDbLinetypeTableRecord
  2
CENTREX2
 70
     0
  3
________  __  ________  __  ________  __  _____
 72
    65
 73
     4
 40
101.6
 49
63.5
 74
     0
 49
-12.7
 74
     0
 49
12.7
 74
     0
 49
-12.7
 74
     0
  0
LTYPE
  5
24DDA
330
5
100
AcDbSymbolTableRecord
100
AcDbLinetypeTableRecord
  2
DASHDOT
 70
     0
  3
__ . __ . __ . __ . __ . __ . __ . __ . __ . __
 72
    65
 73
     4
 40
25.4
 49
12.7
 74
     0
 49
-6.349999999999997
 74
     0
 49
0.0
 74
     0
 49
-6.349999999999997
 74
     0
  0
LTYPE
  5
24DDB
330
5
100
AcDbSymbolTableRecord
100
AcDbLinetypeTableRecord
  2
DASHDOT2
 70
     0
  3
_._._._._._._._._._._._._._._._._._._._._._._._
 72
    65
 73
     4
 40
12.7
 49
6.349999999999997
 74
     0
 49
-3.174999999999998
 74
     0
 49
0.0
 74
     0
 49
-3.174999999999998
 74
     0
  0
LTYPE
  5
24DDC
330
5
100
AcDbSymbolTableRecord
100
AcDbLinetypeTableRecord
  2
DASHDOTX2
 70
     0
  3
____  .  ____  .  ____  .  ____  .  ____  .  __
 72
    65
 73
     4
 40
50.8
 49
25.4
 74
     0
 49
-12.7
 74
     0
 49
0.0
 74
     0
 49
-12.7
 74
     0
  0
LTYPE
  5
24DDD
330
5
100
AcDbSymbolTableRecord
100
AcDbLinetypeTableRecord
  2
DASHED
 70
     0
  3
__ __ __ __ __ __ __ __ __ __ __ __ __ __ __ __
 72
    65
 73
     2
 40
19.05
 49
12.7
 74
     0
 49
-6.349999999999997
 74
     0
  0
LTYPE
  5
24DDE
330
5
100
AcDbSymbolTableRecord
100
AcDbLinetypeTableRecord
  2
DASHED2
 70
     0
  3
_ _ _ _ _ _ _ _ _ _ _ _ _ _ _ _ _ _ _ _ _ _ _ _
 72
    65
 73
     2
 40
9.525
 49
6.349999999999997
 74
     0
 49
-3.174999999999998
 74
     0
  0
LTYPE
  5
24DDF
330
5
100
AcDbSymbolTableRecord
100
AcDbLinetypeTableRecord
  2
DASHEDX2
 70
     0
  3
____  ____  ____  ____  ____  ____  ____  ____ 
 72
    65
 73
     2
 40
38.1
 49
25.4
 74
     0
 49
-12.7
 74
     0
  0
LTYPE
  5
24DE0
330
5
100
AcDbSymbolTableRecord
100
AcDbLinetypeTableRecord
  2
DIVIDE
 70
     0
  3
____ . . ____ . . ____ . . ____ . . ____ . . __
 72
    65
 73
     6
 40
31.75
 49
12.7
 74
     0
 49
-6.349999999999997
 74
     0
 49
0.0
 74
     0
 49
-6.349999999999997
 74
     0
 49
0.0
 74
     0
 49
-6.349999999999997
 74
     0
  0
LTYPE
  5
24DE1
330
5
100
AcDbSymbolTableRecord
100
AcDbLinetypeTableRecord
  2
DIVIDE2
 70
     0
  3
__..__..__..__..__..__..__..__..__..__..__..__.
 72
    65
 73
     6
 40
15.875
 49
6.349999999999997
 74
     0
 49
-3.174999999999998
 74
     0
 49
0.0
 74
     0
 49
-3.174999999999998
 74
     0
 49
0.0
 74
     0
 49
-3.174999999999998
 74
     0
  0
LTYPE
  5
24DE2
330
5
100
AcDbSymbolTableRecord
100
AcDbLinetypeTableRecord
  2
DIVIDEX2
 70
     0
  3
________  .  .  ________  .  .  ________  .  . 
 72
    65
 73
     6
 40
63.5
 49
25.4
 74
     0
 49
-12.7
 74
     0
 49
0.0
 74
     0
 49
-12.7
 74
     0
 49
0.0
 74
     0
 49
-12.7
 74
     0
  0
LTYPE
  5
24DE3
330
5
100
AcDbSymbolTableRecord
100
AcDbLinetypeTableRecord
  2
DOT
 70
     0
  3
. . . . . . . . . . . . . . . . . . . . . . . .
 72
    65
 73
     2
 40
6.349999999999997
 49
0.0
 74
     0
 49
-6.349999999999997
 74
     0
  0
LTYPE
  5
24DE4
330
5
100
AcDbSymbolTableRecord
100
AcDbLinetypeTableRecord
  2
DOT2
 70
     0
  3
...............................................
 72
    65
 73
     2
 40
3.174999999999998
 49
0.0
 74
     0
 49
-3.174999999999998
 74
     0
  0
LTYPE
  5
24DE5
330
5
100
AcDbSymbolTableRecord
100
AcDbLinetypeTableRecord
  2
DOTX2
 70
     0
  3
.  .  .  .  .  .  .  .  .  .  .  .  .  .  .  . 
 72
    65
 73
     2
 40
12.7
 49
0.0
 74
     0
 49
-12.7
 74
     0
  0
LTYPE
  5
24DE6
330
5
100
AcDbSymbolTableRecord
100
AcDbLinetypeTableRecord
  2
HIDDEN
 70
     0
  3
__ __ __ __ __ __ __ __ __ __ __ __ __ __ __ __
 72
    65
 73
     2
 40
9.525
 49
6.349999999999997
 74
     0
 49
-3.174999999999998
 74
     0
  0
LTYPE
  5
24DE7
330
5
100
AcDbSymbolTableRecord
100
AcDbLinetypeTableRecord
  2
HIDDEN2
 70
     0
  3
_ _ _ _ _ _ _ _ _ _ _ _ _ _ _ _ _ _ _ _ _ _ _ _
 72
    65
 73
     2
 40
4.7625
 49
3.174999999999998
 74
     0
 49
-1.587499999999999
 74
     0
  0
LTYPE
  5
24DE8
330
5
100
AcDbSymbolTableRecord
100
AcDbLinetypeTableRecord
  2
HIDDENX2
 70
     0
  3
____ ____ ____ ____ ____ ____ ____ ____ ____ __
 72
    65
 73
     2
 40
19.05
 49
12.7
 74
     0
 49
-6.349999999999997
 74
     0
  0
LTYPE
  5
24DE9
330
5
100
AcDbSymbolTableRecord
100
AcDbLinetypeTableRecord
  2
PHANTOM
 70
     0
  3
______  __  __  ______  __  __  ______  __  __ 
 72
    65
 73
     6
 40
63.5
 49
31.75
 74
     0
 49
-6.349999999999997
 74
     0
 49
6.349999999999997
 74
     0
 49
-6.349999999999997
 74
     0
 49
6.349999999999997
 74
     0
 49
-6.349999999999997
 74
     0
  0
LTYPE
  5
24DEA
330
5
100
AcDbSymbolTableRecord
100
AcDbLinetypeTableRecord
  2
PHANTOM2
 70
     0
  3
___ _ _ ___ _ _ ___ _ _ ___ _ _ ___ _ _ ___ _ _
 72
    65
 73
     6
 40
31.75
 49
15.875
 74
     0
 49
-3.174999999999998
 74
     0
 49
3.174999999999998
 74
     0
 49
-3.174999999999998
 74
     0
 49
3.174999999999998
 74
     0
 49
-3.174999999999998
 74
     0
  0
LTYPE
  5
24DEB
330
5
100
AcDbSymbolTableRecord
100
AcDbLinetypeTableRecord
  2
PHANTOMX2
 70
     0
  3
____________    ____    ____    ____________   
 72
    65
 73
     6
 40
127.0
 49
63.5
 74
     0
 49
-12.7
 74
     0
 49
12.7
 74
     0
 49
-12.7
 74
     0
 49
12.7
 74
     0
 49
-12.7
 74
     0
  0
ENDTAB
  0
TABLE
  2
LAYER
  5
2
330
0
100
AcDbSymbolTable
 70
    25
  0
LAYER
  5
F
102
{ACAD_XDICTIONARY
360
2511F
102
}
330
2
100
AcDbSymbolTableRecord
100
AcDbLayerTableRecord
  2
0
 70
     0
 62
     7
  6
CONTINUOUS
370
    -3
390
300
  0
LAYER
  5
23
102
{ACAD_XDICTIONARY
360
25121
102
}
330
2
100
AcDbSymbolTableRecord
100
AcDbLayerTableRecord
  2
1
 70
     0
 62
     4
  6
CONTINUOUS
370
    -3
390
300
  0
LAYER
  5
24DEC
102
{ACAD_XDICTIONARY
360
25123
102
}
330
2
100
AcDbSymbolTableRecord
100
AcDbLayerTableRecord
  2
2
 70
     0
 62
     7
  6
CONTINUOUS
370
    -3
390
300
  0
LAYER
  5
24DED
330
2
100
AcDbSymbolTableRecord
100
AcDbLayerTableRecord
  2
DEFPOINTS
 70
     0
 62
     7
  6
CONTINUOUS
290
     0
370
    -3
390
300
  0
LAYER
  5
24DEE
102
{ACAD_XDICTIONARY
360
25125
102
}
330
2
100
AcDbSymbolTableRecord
100
AcDbLayerTableRecord
  2
IGES_FRZ
 70
     0
 62
     7
  6
CONTINUOUS
370
    -3
390
300
  0
LAYER
  5
24DEF
102
{ACAD_XDICTIONARY
360
25127
102
}
330
2
100
AcDbSymbolTableRecord
100
AcDbLayerTableRecord
  2
95
 70
     0
 62
     7
  6
CONTINUOUS
370
    -3
390
300
  0
LAYER
  5
24DF0
102
{ACAD_XDICTIONARY
360
25129
102
}
330
2
100
AcDbSymbolTableRecord
100
AcDbLayerTableRecord
  2
95_TOP
 70
     0
 62
     7
  6
CONTINUOUS
370
    -3
390
300
  0
LAYER
  5
24DF1
102
{ACAD_XDICTIONARY
360
2512B
102
}
330
2
100
AcDbSymbolTableRecord
100
AcDbLayerTableRecord
  2
90
 70
     0
 62
     7
  6
CONTINUOUS
370
    -3
390
300
  0
LAYER
  5
24DF2
102
{ACAD_XDICTIONARY
360
2512D
102
}
330
2
100
AcDbSymbolTableRecord
100
AcDbLayerTableRecord
  2
90_TOP
 70
     0
 62
     7
  6
CONTINUOUS
370
    -3
390
300
  0
LAYER
  5
24DF3
102
{ACAD_XDICTIONARY
360
2512F
102
}
330
2
100
AcDbSymbolTableRecord
100
AcDbLayerTableRecord
  2
91
 70
     0
 62
     7
  6
CONTINUOUS
370
    -3
390
300
  0
LAYER
  5
24DF4
102
{ACAD_XDICTIONARY
360
25131
102
}
330
2
100
AcDbSymbolTableRecord
100
AcDbLayerTableRecord
  2
91_TOP
 70
     0
 62
     7
  6
CONTINUOUS
370
    -3
390
300
  0
LAYER
  5
24DF5
102
{ACAD_XDICTIONARY
360
25133
102
}
330
2
100
AcDbSymbolTableRecord
100
AcDbLayerTableRecord
  2
IGES
 70
     0
 62
     7
  6
CONTINUOUS
370
    -3
390
300
  0
LAYER
  5
24DF6
102
{ACAD_XDICTIONARY
360
25135
102
}
330
2
100
AcDbSymbolTableRecord
100
AcDbLayerTableRecord
  2
11
 70
     0
 62
     4
  6
CONTINUOUS
370
    -3
390
300
  0
LAYER
  5
24DF7
102
{ACAD_XDICTIONARY
360
25137
102
}
330
2
100
AcDbSymbolTableRecord
100
AcDbLayerTableRecord
  2
20
 70
     0
 62
     7
  6
CONTINUOUS
370
    -3
390
300
  0
LAYER
  5
24DF8
102
{ACAD_XDICTIONARY
360
25139
102
}
330
2
100
AcDbSymbolTableRecord
100
AcDbLayerTableRecord
  2
12
 70
     0
 62
     7
  6
CONTINUOUS
370
    -3
390
300
  0
LAYER
  5
24DF9
102
{ACAD_XDICTIONARY
360
2513B
102
}
330
2
100
AcDbSymbolTableRecord
100
AcDbLayerTableRecord
  2
3
 70
     0
 62
     1
  6
HIDDEN
370
    -3
390
300
  0
LAYER
  5
24DFA
102
{ACAD_XDICTIONARY
360
2513D
102
}
330
2
100
AcDbSymbolTableRecord
100
AcDbLayerTableRecord
  2
13
 70
     0
 62
     1
  6
HIDDEN
370
    -3
390
300
  0
LAYER
  5
24DFB
102
{ACAD_XDICTIONARY
360
2513F
102
}
330
2
100
AcDbSymbolTableRecord
100
AcDbLayerTableRecord
  2
4
 70
     0
 62
     2
  6
CENTER
370
    -3
390
300
  0
LAYER
  5
24DFC
102
{ACAD_XDICTIONARY
360
25141
102
}
330
2
100
AcDbSymbolTableRecord
100
AcDbLayerTableRecord
  2
14
 70
     0
 62
     2
  6
CENTER
370
    -3
390
300
  0
LAYER
  5
24DFD
102
{ACAD_XDICTIONARY
360
25143
102
}
330
2
100
AcDbSymbolTableRecord
100
AcDbLayerTableRecord
  2
5
 70
     0
 62
    -7
  6
CONTINUOUS
370
    -3
390
300
  0
LAYER
  5
24DFE
102
{ACAD_XDICTIONARY
360
25145
102
}
330
2
100
AcDbSymbolTableRecord
100
AcDbLayerTableRecord
  2
6
 70
     0
 62
     5
  6
CONTINUOUS
370
    -3
390
300
  0
LAYER
  5
24DFF
102
{ACAD_XDICTIONARY
360
25147
102
}
330
2
100
AcDbSymbolTableRecord
100
AcDbLayerTableRecord
  2
16
 70
     0
 62
     5
  6
CONTINUOUS
370
    -3
390
300
  0
LAYER
  5
24E00
102
{ACAD_XDICTIONARY
360
25149
102
}
330
2
100
AcDbSymbolTableRecord
100
AcDbLayerTableRecord
  2
80
 70
     0
 62
     2
  6
CENTER
370
    -3
390
300
  0
LAYER
  5
24E01
102
{ACAD_XDICTIONARY
360
2514B
102
}
330
2
100
AcDbSymbolTableRecord
100
AcDbLayerTableRecord
  2
81
 70
     0
 62
     2
  6
CENTER
370
    -3
390
300
  0
LAYER
  5
24E02
102
{ACAD_XDICTIONARY
360
2514D
102
}
330
2
100
AcDbSymbolTableRecord
100
AcDbLayerTableRecord
  2
82
 70
     0
 62
     2
  6
CENTER
370
    -3
390
300
  0
ENDTAB
  0
TABLE
  2
STYLE
  5
3
330
0
100
AcDbSymbolTable
 70
     5
  0
STYLE
  5
10
330
3
100
AcDbSymbolTableRecord
100
AcDbTextStyleTableRecord
  2
STANDARD
 70
     0
 40
0.0
 41
1.0
 50
0.0
 71
     0
 42
5.0
  3
txt
  4

  0
STYLE
  5
1E
330
3
100
AcDbSymbolTableRecord
100
AcDbTextStyleTableRecord
  2
SIMPLEX
 70
     0
 40
0.0
 41
1.0
 50
0.0
 71
     0
 42
3.5
  3
simplex
  4

  0
STYLE
  5
24E03
330
3
100
AcDbSymbolTableRecord
100
AcDbTextStyleTableRecord
  2
Annotative
 70
     0
 40
0.0
 41
1.0
 50
0.0
 71
     0
 42
0.2
  3
txt
  4

1001
AcadAnnotative
1000
AnnotativeData
1002
{
1070
     1
1070
     1
1002
}
  0
STYLE
  5
24E04
330
3
100
AcDbSymbolTableRecord
100
AcDbTextStyleTableRecord
  2
TDM_STYLE
 70
     0
 40
0.0
 41
1.0
 50
0.0
 71
     0
 42
0.2
  3
txt
  4

  0
STYLE
  5
24E05
330
3
100
AcDbSymbolTableRecord
100
AcDbTextStyleTableRecord
  2
SANDVIK_STYLE
 70
     0
 40
4.57
 41
1.0
 50
15.0
 71
     0
 42
4.57
  3
simplex.shx
  4

  0
ENDTAB
  0
TABLE
  2
VIEW
  5
6
330
0
100
AcDbSymbolTable
 70
     0
  0
ENDTAB
  0
TABLE
  2
UCS
  5
7
330
0
100
AcDbSymbolTable
 70
     0
  0
ENDTAB
  0
TABLE
  2
APPID
  5
9
330
0
100
AcDbSymbolTable
 70
    11
  0
APPID
  5
11
330
9
100
AcDbSymbolTableRecord
100
AcDbRegAppTableRecord
  2
ACAD
 70
     0
  0
APPID
  5
3A6
330
9
100
AcDbSymbolTableRecord
100
AcDbRegAppTableRecord
  2
ACAD_PSEXT
 70
     0
  0
APPID
  5
3A8
330
9
100
AcDbSymbolTableRecord
100
AcDbRegAppTableRecord
  2
ACAD_EXEMPT_FROM_CAD_STANDARDS
 70
     0
  0
APPID
  5
43E
330
9
100
AcDbSymbolTableRecord
100
AcDbRegAppTableRecord
  2
ACAD_MLEADERVER
 70
     0
  0
APPID
  5
454
330
9
100
AcDbSymbolTableRecord
100
AcDbRegAppTableRecord
  2
ACAD_DSTYLE_DIMJAG
 70
     0
  0
APPID
  5
455
330
9
100
AcDbSymbolTableRecord
100
AcDbRegAppTableRecord
  2
ACAD_DSTYLE_DIMBREAK
 70
     0
  0
APPID
  5
456
330
9
100
AcDbSymbolTableRecord
100
AcDbRegAppTableRecord
  2
ACAD_DSTYLE_DIMTALN
 70
     0
  0
APPID
  5
58A
330
9
100
AcDbSymbolTableRecord
100
AcDbRegAppTableRecord
  2
AcadAnnotative
 70
     0
  0
APPID
  5
58B
330
9
100
AcDbSymbolTableRecord
100
AcDbRegAppTableRecord
  2
ACADIGES
 70
     0
  0
APPID
  5
58C
330
9
100
AcDbSymbolTableRecord
100
AcDbRegAppTableRecord
  2
ACAD_DSTYLE_DIMJOGGED_JOGANGLE_SYMBOL
 70
     0
  0
APPID
  5
25152
330
9
100
AcDbSymbolTableRecord
100
AcDbRegAppTableRecord
  2
ACAD_NAV_VCDISPLAY
 70
     0
  0
ENDTAB
  0
TABLE
  2
DIMSTYLE
  5
A
330
0
100
AcDbSymbolTable
 70
     5
100
AcDbDimStyleTable
 71
     1
340
457
  0
DIMSTYLE
105
457
102
{ACAD_REACTORS
330
2505D
330
2505C
330
2505B
330
2505A
330
25059
330
25058
102
}
330
A
100
AcDbSymbolTableRecord
100
AcDbDimStyleTableRecord
  2
SANDVIK_STYLE
 70
     0
 41
2.5
 42
0.0
 43
3.75
 44
1.25
 73
     0
 74
     0
 77
     1
 78
     8
 79
     2
140
3.5
141
0.0
143
0.039370078
147
0.625
171
     3
179
     2
271
     2
272
     2
274
     3
283
     0
284
     8
340
1E
1001
ACAD_DSTYLE_DIMBREAK
1070
   391
1040
3.75
1001
ACAD_DSTYLE_DIMJAG
1070
   388
1040
1.5
1001
ACAD_DSTYLE_DIMTALN
1070
   392
1070
     0
  0
DIMSTYLE
105
24E06
330
A
100
AcDbSymbolTableRecord
100
AcDbDimStyleTableRecord
  2
ISO-25
 70
     0
 41
2.5
 42
0.625
 43
3.75
 44
1.25
 73
     0
 74
     0
 77
     1
 78
     8
140
2.5
141
2.5
143
0.03937007874016
147
0.625
171
     3
172
     1
271
     2
272
     2
274
     3
278
    44
283
     0
284
     8
340
10
1001
ACAD_DSTYLE_DIMJOGGED_JOGANGLE_SYMBOL
1070
   384
1040
1.570796326794896
  0
DIMSTYLE
105
24E07
330
A
100
AcDbSymbolTableRecord
100
AcDbDimStyleTableRecord
  2
STANDARD
 70
     0
 41
3.0
 42
2.5
 43
10.0
 44
2.5
 46
1.25
 73
     0
 74
     0
140
3.0
141
-3.0
143
0.039
145
1.5
146
0.75
147
1.5
271
     2
272
     2
279
     2
340
24E04
  0
DIMSTYLE
105
24E08
330
A
100
AcDbSymbolTableRecord
100
AcDbDimStyleTableRecord
  2
Annotative
 70
     0
340
10
1001
AcadAnnotative
1000
AnnotativeData
1002
{
1070
     1
1070
     1
1002
}
  0
DIMSTYLE
105
24E09
330
A
100
AcDbSymbolTableRecord
100
AcDbDimStyleTableRecord
  2
SANDVIK_DIM
 70
     0
 41
3.0
 42
2.5
 43
10.0
 44
2.5
 46
1.25
 73
     0
 74
     0
140
3.0
141
-3.0
143
0.039
145
1.5
146
0.75
147
1.5
176
   256
177
   256
178
   256
271
     2
272
     2
279
     2
340
24E04
  0
ENDTAB
  0
TABLE
  2
BLOCK_RECORD
  5
1
330
0
100
AcDbSymbolTable
 70
    31
  0
BLOCK_RECORD
  5
18
330
1
100
AcDbSymbolTableRecord
100
AcDbBlockTableRecord
  2
*MODEL_SPACE
340
303
  0
BLOCK_RECORD
  5
338
330
1
100
AcDbSymbolTableRecord
100
AcDbBlockTableRecord
  2
*Paper_Space
340
33B
  0
BLOCK_RECORD
  5
24C7F
330
1
100
AcDbSymbolTableRecord
100
AcDbBlockTableRecord
  2
$MODEL_SPACE
340
0
  0
BLOCK_RECORD
  5
24C82
330
1
100
AcDbSymbolTableRecord
100
AcDbBlockTableRecord
  2
$PAPER_SPACE
340
0
  0
BLOCK_RECORD
  5
24C85
330
1
100
AcDbSymbolTableRecord
100
AcDbBlockTableRecord
  2
IGES_214_02
340
0
102
{BLKREFS
331
24C8D
331
24C8F
331
24C97
331
24C99
331
24CA1
331
24CA3
331
24CAB
331
24CAD
331
24CB5
331
24CB7
331
24CBF
331
24CC1
102
}
  0
BLOCK_RECORD
  5
24C8A
330
1
100
AcDbSymbolTableRecord
100
AcDbBlockTableRecord
  2
*U3
340
0
  0
BLOCK_RECORD
  5
24C94
330
1
100
AcDbSymbolTableRecord
100
AcDbBlockTableRecord
  2
*U4
340
0
  0
BLOCK_RECORD
  5
24C9E
330
1
100
AcDbSymbolTableRecord
100
AcDbBlockTableRecord
  2
*U5
340
0
  0
BLOCK_RECORD
  5
24CA8
330
1
100
AcDbSymbolTableRecord
100
AcDbBlockTableRecord
  2
*U6
340
0
  0
BLOCK_RECORD
  5
24CB2
330
1
100
AcDbSymbolTableRecord
100
AcDbBlockTableRecord
  2
*U7
340
0
  0
BLOCK_RECORD
  5
24CBC
330
1
100
AcDbSymbolTableRecord
100
AcDbBlockTableRecord
  2
*U8
340
0
  0
BLOCK_RECORD
  5
24CC6
330
1
100
AcDbSymbolTableRecord
100
AcDbBlockTableRecord
  2
DVIEWBLOCK
340
0
  0
BLOCK_RECORD
  5
24CDC
330
1
100
AcDbSymbolTableRecord
100
AcDbBlockTableRecord
  2
*D10
340
0
  0
BLOCK_RECORD
  5
24CE8
330
1
100
AcDbSymbolTableRecord
100
AcDbBlockTableRecord
  2
*D11
340
0
  0
BLOCK_RECORD
  5
24CF4
330
1
100
AcDbSymbolTableRecord
100
AcDbBlockTableRecord
  2
*D12
340
0
  0
BLOCK_RECORD
  5
24D00
330
1
100
AcDbSymbolTableRecord
100
AcDbBlockTableRecord
  2
*D13
340
0
  0
BLOCK_RECORD
  5
24D0C
330
1
100
AcDbSymbolTableRecord
100
AcDbBlockTableRecord
  2
*D14
340
0
  0
BLOCK_RECORD
  5
24D18
330
1
100
AcDbSymbolTableRecord
100
AcDbBlockTableRecord
  2
*D15
340
0
  0
BLOCK_RECORD
  5
24D27
330
1
100
AcDbSymbolTableRecord
100
AcDbBlockTableRecord
  2
*D16
340
0
  0
BLOCK_RECORD
  5
24D33
330
1
100
AcDbSymbolTableRecord
100
AcDbBlockTableRecord
  2
*D17
340
0
  0
BLOCK_RECORD
  5
24D3F
330
1
100
AcDbSymbolTableRecord
100
AcDbBlockTableRecord
  2
*D18
340
0
  0
BLOCK_RECORD
  5
24D4B
330
1
100
AcDbSymbolTableRecord
100
AcDbBlockTableRecord
  2
*U19
340
0
102
{BLKREFS
331
24D44
102
}
  0
BLOCK_RECORD
  5
24D50
330
1
100
AcDbSymbolTableRecord
100
AcDbBlockTableRecord
  2
*D20
340
0
  0
BLOCK_RECORD
  5
24D5C
330
1
100
AcDbSymbolTableRecord
100
AcDbBlockTableRecord
  2
*D21
340
0
  0
BLOCK_RECORD
  5
24D68
330
1
100
AcDbSymbolTableRecord
100
AcDbBlockTableRecord
  2
*D22
340
0
  0
BLOCK_RECORD
  5
24D77
330
1
100
AcDbSymbolTableRecord
100
AcDbBlockTableRecord
  2
*D23
340
0
  0
BLOCK_RECORD
  5
24D83
330
1
100
AcDbSymbolTableRecord
100
AcDbBlockTableRecord
  2
*D24
340
0
  0
BLOCK_RECORD
  5
24D8F
330
1
100
AcDbSymbolTableRecord
100
AcDbBlockTableRecord
  2
*D25
340
0
  0
BLOCK_RECORD
  5
24D9B
330
1
100
AcDbSymbolTableRecord
100
AcDbBlockTableRecord
  2
*D26
340
0
  0
BLOCK_RECORD
  5
24DA8
330
1
100
AcDbSymbolTableRecord
100
AcDbBlockTableRecord
  2
*D27
340
0
  0
BLOCK_RECORD
  5
24DB5
330
1
100
AcDbSymbolTableRecord
100
AcDbBlockTableRecord
  2
*D28
340
0
  0
BLOCK_RECORD
  5
24DC4
102
{ACAD_XDICTIONARY
360
24DC5
102
}
330
1
100
AcDbSymbolTableRecord
100
AcDbBlockTableRecord
  2
_Zeropoint.dwg
340
0
102
{BLKREFS
331
24DCF
102
}
  0
BLOCK_RECORD
  5
24DCD
330
1
100
AcDbSymbolTableRecord
100
AcDbBlockTableRecord
  2
_nullpunkt
340
0
102
{BLKREFS
331
25060
102
}
1001
ACAD
1000
DesignCenter Data
1002
{
1070
     1
1070
     4
1002
}
  0
ENDTAB
  0
ENDSEC
  0
SECTION
  2
BLOCKS
  0
BLOCK
  5
32
330
18
100
AcDbEntity
  8
0
100
AcDbBlockBegin
  2
*MODEL_SPACE
 70
     0
 10
0.0
 20
0.0
 30
0.0
  3
*MODEL_SPACE
  1

  0
ENDBLK
  5
33
330
18
100
AcDbEntity
  8
0
100
AcDbBlockEnd
  0
BLOCK
  5
339
330
338
100
AcDbEntity
 67
     1
  8
0
100
AcDbBlockBegin
  2
*Paper_Space
 70
     0
 10
0.0
 20
0.0
 30
0.0
  3
*Paper_Space
  1

  0
ENDBLK
  5
33A
330
338
100
AcDbEntity
 67
     1
  8
0
100
AcDbBlockEnd
  0
BLOCK
  5
24C80
330
24C7F
100
AcDbEntity
  8
0
100
AcDbBlockBegin
  2
$MODEL_SPACE
 70
     0
 10
0.0
 20
0.0
 30
0.0
  3
$MODEL_SPACE
  1

  0
ENDBLK
  5
24C81
330
24C7F
100
AcDbEntity
  8
0
100
AcDbBlockEnd
  0
BLOCK
  5
24C83
330
24C82
100
AcDbEntity
  8
0
100
AcDbBlockBegin
  2
$PAPER_SPACE
 70
     0
 10
0.0
 20
0.0
 30
0.0
  3
$PAPER_SPACE
  1

  0
ENDBLK
  5
24C84
330
24C82
100
AcDbEntity
  8
0
100
AcDbBlockEnd
  0
BLOCK
  5
24C86
330
24C85
100
AcDbEntity
  8
0
100
AcDbBlockBegin
  2
IGES_214_02
 70
     0
 10
0.0
 20
0.0
 30
0.0
  3
IGES_214_02
  1

  0
LWPOLYLINE
  5
24C87
330
24C85
100
AcDbEntity
  8
0
100
AcDbPolyline
 90
        3
 70
     1
 43
0.0
 10
-1.0
 20
0.5
 10
0.0
 20
0.0
 10
-1.0
 20
-0.5
  0
LINE
  5
24C88
330
24C85
100
AcDbEntity
  8
0
100
AcDbLine
 10
0.0
 20
0.0
 30
0.0
 11
-1.0
 21
0.0
 31
0.0
  0
ENDBLK
  5
24C89
330
24C85
100
AcDbEntity
  8
0
100
AcDbBlockEnd
  0
BLOCK
  5
24C8B
330
24C8A
100
AcDbEntity
  8
0
100
AcDbBlockBegin
  2
*U3
 70
     1
 10
0.0
 20
0.0
 30
0.0
  3
*U3
  1
*IGES
  0
TEXT
  5
24C8C
330
24C8A
100
AcDbEntity
  8
20
100
AcDbText
 10
-7.850053999999997
 20
-25.852884
 30
0.0
 40
3.0
  1
27
 41
0.7379257941176465
  7
SANDVIK_STYLE
 72
     5
 11
-4.265843
 21
-25.852884
 31
0.0
100
AcDbText
  0
INSERT
  5
24C8D
330
24C8A
100
AcDbEntity
  8
20
100
AcDbBlockReference
  2
IGES_214_02
 10
-19.49544799999999
 20
-27.352884
 30
0.0
 41
3.0
 42
0.7899149999999999
 43
3.0
 50
180.0
  0
LINE
  5
24C8E
330
24C8A
100
AcDbEntity
  8
20
100
AcDbLine
 10
-16.495448
 20
-27.352884
 30
0.0
 11
-6.057947999999997
 21
-27.352884
 31
0.0
  0
INSERT
  5
24C8F
330
24C8A
100
AcDbEntity
  8
20
100
AcDbBlockReference
  2
IGES_214_02
 10
7.379552
 20
-27.352884
 30
0.0
 41
3.0
 42
0.7899149999999999
 43
3.0
  0
LINE
  5
24C90
330
24C8A
100
AcDbEntity
  8
20
100
AcDbLine
 10
4.379551999999998
 20
-27.352884
 30
0.0
 11
-6.057947999999997
 21
-27.352884
 31
0.0
  0
LINE
  5
24C91
330
24C8A
100
AcDbEntity
  8
20
100
AcDbLine
 10
-19.49544799999999
 20
-15.311218
 30
0.0
 11
-19.49544799999999
 21
-30.35288400000001
 31
0.0
  0
LINE
  5
24C92
330
24C8A
100
AcDbEntity
  8
20
100
AcDbLine
 10
7.379552
 20
-6.352883999999997
 30
0.0
 11
7.379552
 21
-30.35288400000001
 31
0.0
  0
ENDBLK
  5
24C93
330
24C8A
100
AcDbEntity
  8
0
100
AcDbBlockEnd
  0
BLOCK
  5
24C95
330
24C94
100
AcDbEntity
  8
0
100
AcDbBlockBegin
  2
*U4
 70
     1
 10
0.0
 20
0.0
 30
0.0
  3
*U4
  1
*IGES
  0
TEXT
  5
24C96
330
24C94
100
AcDbEntity
  8
12
100
AcDbText
 10
-23.845448
 20
146.1471159999999
 30
0.0
 40
3.0
  1
D=40
 41
0.7518518518518518
  7
SANDVIK_STYLE
 72
     5
 11
-15.145448
 21
146.1471159999999
 31
0.0
100
AcDbText
  0
INSERT
  5
24C97
330
24C94
100
AcDbEntity
  8
12
100
AcDbBlockReference
  2
IGES_214_02
 10
-39.49544799999999
 20
144.6471159999999
 30
0.0
 41
3.0
 42
0.7899149999999999
 43
3.0
 50
180.0
  0
LINE
  5
24C98
330
24C94
100
AcDbEntity
  8
12
100
AcDbLine
 10
-36.49544799999999
 20
144.6471159999999
 30
0.0
 11
-19.49544799999999
 21
144.6471159999999
 31
0.0
  0
INSERT
  5
24C99
330
24C94
100
AcDbEntity
  8
12
100
AcDbBlockReference
  2
IGES_214_02
 10
0.504552
 20
144.6471159999999
 30
0.0
 41
3.0
 42
0.7899149999999999
 43
3.0
  0
LINE
  5
24C9A
330
24C94
100
AcDbEntity
  8
12
100
AcDbLine
 10
-2.495448
 20
144.6471159999999
 30
0.0
 11
-19.49544799999999
 21
144.6471159999999
 31
0.0
  0
LINE
  5
24C9B
330
24C94
100
AcDbEntity
  8
12
100
AcDbLine
 10
-39.49544799999999
 20
116.6471159999999
 30
0.0
 11
-39.49544799999999
 21
147.6471159999999
 31
0.0
  0
LINE
  5
24C9C
330
24C94
100
AcDbEntity
  8
12
100
AcDbLine
 10
0.504552
 20
116.6471159999999
 30
0.0
 11
0.504552
 21
147.6471159999999
 31
0.0
  0
ENDBLK
  5
24C9D
330
24C94
100
AcDbEntity
  8
0
100
AcDbBlockEnd
  0
BLOCK
  5
24C9F
330
24C9E
100
AcDbEntity
  8
0
100
AcDbBlockBegin
  2
*U5
 70
     1
 10
0.0
 20
0.0
 30
0.0
  3
*U5
  1
*IGES
  0
TEXT
  5
24CA0
330
24C9E
100
AcDbEntity
  8
12
100
AcDbText
 10
-24.620448
 20
51.448338
 30
0.0
 40
3.0
  1
%%c39.7
 41
0.8396004939759034
  7
SANDVIK_STYLE
 72
     5
 11
-14.665185
 21
51.448338
 31
0.0
100
AcDbText
  0
INSERT
  5
24CA1
330
24C9E
100
AcDbEntity
  8
12
100
AcDbBlockReference
  2
IGES_214_02
 10
-39.34544799999999
 20
49.948338
 30
0.0
 41
3.0
 42
0.7899149999999999
 43
3.0
 50
180.0
  0
LINE
  5
24CA2
330
24C9E
100
AcDbEntity
  8
12
100
AcDbLine
 10
-36.345448
 20
49.948338
 30
0.0
 11
-19.49544799999999
 21
49.948338
 31
0.0
  0
INSERT
  5
24CA3
330
24C9E
100
AcDbEntity
  8
12
100
AcDbBlockReference
  2
IGES_214_02
 10
0.354552
 20
49.948338
 30
0.0
 41
3.0
 42
0.7899149999999999
 43
3.0
  0
LINE
  5
24CA4
330
24C9E
100
AcDbEntity
  8
12
100
AcDbLine
 10
-2.645448
 20
49.948338
 30
0.0
 11
-19.49544799999999
 21
49.948338
 31
0.0
  0
LINE
  5
24CA5
330
24C9E
100
AcDbEntity
  8
12
100
AcDbLine
 10
-39.34544799999999
 20
94.10692299999999
 30
0.0
 11
-39.34544799999999
 21
46.948338
 31
0.0
  0
LINE
  5
24CA6
330
24C9E
100
AcDbEntity
  8
12
100
AcDbLine
 10
0.354552
 20
94.10692299999999
 30
0.0
 11
0.354552
 21
46.948338
 31
0.0
  0
ENDBLK
  5
24CA7
330
24C9E
100
AcDbEntity
  8
0
100
AcDbBlockEnd
  0
BLOCK
  5
24CA9
330
24CA8
100
AcDbEntity
  8
0
100
AcDbBlockBegin
  2
*U6
 70
     1
 10
0.0
 20
0.0
 30
0.0
  3
*U6
  1
*IGES
  0
TEXT
  5
24CAA
330
24CA8
100
AcDbEntity
  8
20
100
AcDbText
 10
27.379552
 20
50.88001
 30
0.0
 40
3.0
  1
120.0
 50
90.0
 41
0.7467434625000001
  7
SANDVIK_STYLE
 72
     5
 11
27.379552
 21
59.414221
 31
0.0
100
AcDbText
  0
INSERT
  5
24CAB
330
24CA8
100
AcDbEntity
  8
20
100
AcDbBlockReference
  2
IGES_214_02
 10
28.879552
 20
115.147116
 30
0.0
 41
3.0
 42
0.7899149999999999
 43
3.0
 50
90.0
  0
LINE
  5
24CAC
330
24CA8
100
AcDbEntity
  8
20
100
AcDbLine
 10
28.879552
 20
112.147116
 30
0.0
 11
28.879552
 21
55.147116
 31
0.0
  0
INSERT
  5
24CAD
330
24CA8
100
AcDbEntity
  8
20
100
AcDbBlockReference
  2
IGES_214_02
 10
28.879552
 20
-4.852883999999998
 30
0.0
 41
3.0
 42
0.7899149999999999
 43
3.0
 50
270.0
  0
LINE
  5
24CAE
330
24CA8
100
AcDbEntity
  8
20
100
AcDbLine
 10
28.879552
 20
-1.852883999999999
 30
0.0
 11
28.879552
 21
55.147116
 31
0.0
  0
LINE
  5
24CAF
330
24CA8
100
AcDbEntity
  8
20
100
AcDbLine
 10
2.004551999999999
 20
115.147116
 30
0.0
 11
31.879552
 21
115.147116
 31
0.0
  0
LINE
  5
24CB0
330
24CA8
100
AcDbEntity
  8
20
100
AcDbLine
 10
8.879552
 20
-4.852883999999998
 30
0.0
 11
31.879552
 21
-4.852883999999998
 31
0.0
  0
ENDBLK
  5
24CB1
330
24CA8
100
AcDbEntity
  8
0
100
AcDbBlockEnd
  0
BLOCK
  5
24CB3
330
24CB2
100
AcDbEntity
  8
0
100
AcDbBlockBegin
  2
*U7
 70
     1
 10
0.0
 20
0.0
 30
0.0
  3
*U7
  1
*IGES
  0
TEXT
  5
24CB4
330
24CB2
100
AcDbEntity
  8
12
100
AcDbText
 10
17.379552
 20
41.109914
 30
0.0
 40
3.0
  1
100.5
 50
90.0
 41
0.7467434624999998
  7
SANDVIK_STYLE
 72
     5
 11
17.379552
 21
49.644125
 31
0.0
100
AcDbText
  0
INSERT
  5
24CB5
330
24CB2
100
AcDbEntity
  8
12
100
AcDbBlockReference
  2
IGES_214_02
 10
18.879552
 20
95.60692299999999
 30
0.0
 41
3.0
 42
0.7899149999999999
 43
3.0
 50
90.0
  0
LINE
  5
24CB6
330
24CB2
100
AcDbEntity
  8
12
100
AcDbLine
 10
18.879552
 20
92.606923
 30
0.0
 11
18.879552
 21
45.377019
 31
0.0
  0
INSERT
  5
24CB7
330
24CB2
100
AcDbEntity
  8
12
100
AcDbBlockReference
  2
IGES_214_02
 10
18.879552
 20
-4.852883999999998
 30
0.0
 41
3.0
 42
0.7899149999999999
 43
3.0
 50
270.0
  0
LINE
  5
24CB8
330
24CB2
100
AcDbEntity
  8
12
100
AcDbLine
 10
18.879552
 20
-1.852883999999999
 30
0.0
 11
18.879552
 21
45.377019
 31
0.0
  0
LINE
  5
24CB9
330
24CB2
100
AcDbEntity
  8
12
100
AcDbLine
 10
1.854551999999999
 20
95.60692299999999
 30
0.0
 11
21.879552
 21
95.60692299999999
 31
0.0
  0
LINE
  5
24CBA
330
24CB2
100
AcDbEntity
  8
12
100
AcDbLine
 10
8.879552
 20
-4.852883999999998
 30
0.0
 11
21.879552
 21
-4.852883999999998
 31
0.0
  0
ENDBLK
  5
24CBB
330
24CB2
100
AcDbEntity
  8
0
100
AcDbBlockEnd
  0
BLOCK
  5
24CBD
330
24CBC
100
AcDbEntity
  8
0
100
AcDbBlockBegin
  2
*U8
 70
     1
 10
0.0
 20
0.0
 30
0.0
  3
*U8
  1
*IGES
  0
TEXT
  5
24CBE
330
24CBC
100
AcDbEntity
  8
20
100
AcDbText
 10
-40.34453099999999
 20
-19.304573
 30
0.0
 40
3.0
  1
91%%d0'
 50
314.4999999313378
 41
0.8423444748790727
  7
SANDVIK_STYLE
 72
     5
 11
-34.777836
 21
-24.96928299999999
 31
0.0
100
AcDbText
  0
INSERT
  5
24CBF
330
24CBC
100
AcDbEntity
  8
20
100
AcDbBlockReference
  2
IGES_214_02
 10
-46.32010199999998
 20
-3.915554
 30
0.0
 41
3.0
 42
0.7899149999999999
 43
3.0
 50
92.20341899999999
  0
ARC
  5
24CC0
330
24CBC
100
AcDbEntity
  8
20
100
AcDbCircle
 10
-19.49544799999999
 20
-4.383779999999998
 30
0.0
 40
26.82874
100
AcDbArc
 50
185.406836
 51
224.5
  0
INSERT
  5
24CC1
330
24CBC
100
AcDbEntity
  8
20
100
AcDbBlockReference
  2
IGES_214_02
 10
-19.49544799999999
 20
-31.212519
 30
0.0
 41
3.0
 42
0.7899149999999999
 43
3.0
 50
356.7965819999998
  0
ARC
  5
24CC2
330
24CBC
100
AcDbEntity
  8
20
100
AcDbCircle
 10
-19.49544799999999
 20
-4.383779999999998
 30
0.0
 40
26.82874
100
AcDbArc
 50
224.5
 51
263.5931639999999
  0
LINE
  5
24CC3
330
24CBC
100
AcDbEntity
  8
20
100
AcDbLine
 10
-21.12022
 20
-4.355419
 30
0.0
 11
-49.319645
 21
-3.863195999999998
 31
0.0
  0
LINE
  5
24CC4
330
24CBC
100
AcDbEntity
  8
20
100
AcDbLine
 10
-19.49544799999999
 20
-15.311218
 30
0.0
 11
-19.49544799999999
 21
-34.212519
 31
0.0
  0
ENDBLK
  5
24CC5
330
24CBC
100
AcDbEntity
  8
0
100
AcDbBlockEnd
  0
BLOCK
  5
24CC7
330
24CC6
100
AcDbEntity
  8
0
100
AcDbBlockBegin
  2
DVIEWBLOCK
 70
     0
 10
0.0
 20
0.0
 30
0.0
  3
DVIEWBLOCK
  1

  0
3DFACE
  5
24CC8
330
24CC6
100
AcDbEntity
  8
IGES
100
AcDbFace
 10
0.1
 20
0.1
 30
0.0
 11
0.9
 21
0.1
 31
0.0
 12
0.9
 22
0.9
 32
0.0
 13
0.1
 23
0.9
 33
0.0
  0
3DFACE
  5
24CC9
330
24CC6
100
AcDbEntity
  8
IGES
100
AcDbFace
 10
0.1
 20
0.1
 30
0.0
 11
0.1
 21
0.1
 31
0.595
 12
0.2
 22
0.1
 32
0.4
 13
0.2
 23
0.1
 33
0.0
 70
    10
  0
3DFACE
  5
24CCA
330
24CC6
100
AcDbEntity
  8
IGES
100
AcDbFace
 10
0.2
 20
0.1
 30
0.4
 11
0.1
 21
0.1
 31
0.595
 12
0.9
 22
0.1
 32
0.595
 13
0.4
 23
0.1
 33
0.4
 70
     5
  0
3DFACE
  5
24CCB
330
24CC6
100
AcDbEntity
  8
IGES
100
AcDbFace
 10
0.4
 20
0.1
 30
0.0
 11
0.4
 21
0.1
 31
0.4
 12
0.9
 22
0.1
 32
0.595
 13
0.9
 23
0.1
 33
0.0
 70
    14
  0
3DFACE
  5
24CCC
330
24CC6
100
AcDbEntity
  8
IGES
100
AcDbFace
 10
0.2
 20
0.1
 30
0.005
 11
0.2
 21
0.1
 31
0.4
 12
0.34
 22
0.24
 32
0.4
 13
0.34
 23
0.24
 33
0.005
 70
     1
  0
3DFACE
  5
24CCD
330
24CC6
100
AcDbEntity
  8
IGES
100
AcDbFace
 10
0.9
 20
0.1
 30
0.0
 11
0.9
 21
0.1
 31
0.595
 12
0.9
 22
0.5
 32
0.9949999999999999
 13
0.9
 23
0.3
 33
0.4
 70
    12
  0
3DFACE
  5
24CCE
330
24CC6
100
AcDbEntity
  8
IGES
100
AcDbFace
 10
0.9
 20
0.3
 30
0.4
 11
0.9
 21
0.5
 31
0.9949999999999999
 12
0.9
 22
0.9
 32
0.595
 13
0.9
 23
0.7
 33
0.4
 70
     5
  0
3DFACE
  5
24CCF
330
24CC6
100
AcDbEntity
  8
IGES
100
AcDbFace
 10
0.9
 20
0.7
 30
0.4
 11
0.9
 21
0.9
 31
0.595
 12
0.9
 22
0.9
 32
0.0
 13
0.9
 23
0.7
 33
0.2
 70
     7
  0
3DFACE
  5
24CD0
330
24CC6
100
AcDbEntity
  8
IGES
100
AcDbFace
 10
0.9
 20
0.7
 30
0.2
 11
0.9
 21
0.9
 31
0.0
 12
0.9
 22
0.1
 32
0.0
 13
0.9
 23
0.3
 33
0.2
 70
     7
  0
3DFACE
  5
24CD1
330
24CC6
100
AcDbEntity
  8
IGES
100
AcDbFace
 10
0.9
 20
0.3
 30
0.2
 11
0.9
 21
0.3
 31
0.2
 12
0.9
 22
0.1
 32
0.0
 13
0.9
 23
0.3
 33
0.4
 70
     7
  0
3DFACE
  5
24CD2
330
24CC6
100
AcDbEntity
  8
IGES
100
AcDbFace
 10
0.9
 20
0.9
 30
0.0
 11
0.9
 21
0.9
 31
0.595
 12
0.1
 22
0.9
 32
0.595
 13
0.1
 23
0.9
 33
0.0
 70
    12
  0
3DFACE
  5
24CD3
330
24CC6
100
AcDbEntity
  8
IGES
100
AcDbFace
 10
0.1
 20
0.9
 30
0.0
 11
0.1
 21
0.9
 31
0.595
 12
0.1
 22
0.5
 32
0.9949999999999999
 13
0.1
 23
0.5
 33
0.0
 70
    12
  0
3DFACE
  5
24CD4
330
24CC6
100
AcDbEntity
  8
IGES
100
AcDbFace
 10
0.1
 20
0.5
 30
0.0
 11
0.1
 21
0.5
 31
0.9949999999999999
 12
0.1
 22
0.1
 32
0.595
 13
0.1
 23
0.1
 33
0.0
 70
    13
  0
3DFACE
  5
24CD5
330
24CC6
100
AcDbEntity
  8
IGES
100
AcDbFace
 10
0.2
 20
0.6
 30
0.9
 11
0.2
 21
0.6
 31
1.0
 12
0.3
 22
0.6
 32
1.0
 13
0.3
 23
0.6
 33
0.9
 70
     4
  0
3DFACE
  5
24CD6
330
24CC6
100
AcDbEntity
  8
IGES
100
AcDbFace
 10
0.3
 20
0.6
 30
0.9
 11
0.3
 21
0.6
 31
1.0
 12
0.3
 22
0.7
 32
1.0
 13
0.3
 23
0.7
 33
0.8
 70
     4
  0
3DFACE
  5
24CD7
330
24CC6
100
AcDbEntity
  8
IGES
100
AcDbFace
 10
0.3
 20
0.7
 30
0.8
 11
0.3
 21
0.7
 31
1.0
 12
0.2
 22
0.7
 32
1.0
 13
0.2
 23
0.7
 33
0.8
 70
     4
  0
3DFACE
  5
24CD8
330
24CC6
100
AcDbEntity
  8
IGES
100
AcDbFace
 10
0.2
 20
0.7
 30
0.8
 11
0.2
 21
0.7
 31
1.0
 12
0.2
 22
0.6
 32
1.0
 13
0.2
 23
0.6
 33
0.9
 70
     4
  0
3DFACE
  5
24CD9
330
24CC6
100
AcDbEntity
  8
IGES
100
AcDbFace
 10
0.0
 20
0.0
 30
0.5
 11
1.0
 21
0.0
 31
0.5
 12
1.0
 22
0.5
 32
1.0
 13
0.0
 23
0.5
 33
1.0
  0
3DFACE
  5
24CDA
330
24CC6
100
AcDbEntity
  8
IGES
100
AcDbFace
 10
0.0
 20
0.5
 30
1.0
 11
1.0
 21
0.5
 31
1.0
 12
1.0
 22
1.0
 32
0.5
 13
0.0
 23
1.0
 33
0.5
 70
     1
  0
ENDBLK
  5
24CDB
330
24CC6
100
AcDbEntity
  8
0
100
AcDbBlockEnd
  0
BLOCK
  5
24CDD
330
24CDC
100
AcDbEntity
  8
0
100
AcDbBlockBegin
  2
*D10
 70
     1
 10
0.0
 20
0.0
 30
0.0
  3
*D10
  1

  0
LINE
  5
24CDE
330
24CDC
100
AcDbEntity
  8
0
100
AcDbLine
 10
-19.49544799999999
 20
-16.311218
 30
0.0
 11
-19.49544799999999
 21
-29.852884
 31
0.0
  0
LINE
  5
24CDF
330
24CDC
100
AcDbEntity
  8
0
100
AcDbLine
 10
7.379552
 20
-7.352883999999997
 30
0.0
 11
7.379552
 21
-29.852884
 31
0.0
  0
LINE
  5
24CE0
330
24CDC
100
AcDbEntity
  8
0
100
AcDbLine
 10
-16.495448
 20
-27.352884
 30
0.0
 11
4.379551999999998
 21
-27.352884
 31
0.0
  0
SOLID
  5
24CE1
330
24CDC
100
AcDbEntity
  8
0
100
AcDbTrace
 10
-16.495448
 20
-26.85288400000001
 30
0.0
 11
-16.495448
 21
-27.85288400000001
 31
0.0
 12
-19.49544799999999
 22
-27.352884
 32
0.0
 13
-19.49544799999999
 23
-27.352884
 33
0.0
  0
SOLID
  5
24CE2
330
24CDC
100
AcDbEntity
  8
0
100
AcDbTrace
 10
4.379551999999998
 20
-26.85288400000001
 30
0.0
 11
4.379551999999998
 21
-27.85288400000001
 31
0.0
 12
7.379552
 22
-27.352884
 32
0.0
 13
7.379552
 23
-27.352884
 33
0.0
  0
TEXT
  5
24CE3
330
24CDC
100
AcDbEntity
  8
0
100
AcDbText
 10
-8.486519428571426
 20
-25.852884
 30
0.0
 40
3.0
  1
27
  7
SANDVIK_STYLE
 72
     1
 11
-6.057947999999997
 21
-24.352884
 31
0.0
100
AcDbText
 73
     2
  0
POINT
  5
24CE4
330
24CDC
100
AcDbEntity
  8
DEFPOINTS
100
AcDbPoint
 10
-19.49544799999999
 20
-13.81121799999999
 30
0.0
  0
POINT
  5
24CE5
330
24CDC
100
AcDbEntity
  8
DEFPOINTS
100
AcDbPoint
 10
7.379552
 20
-4.852883999999998
 30
0.0
  0
POINT
  5
24CE6
330
24CDC
100
AcDbEntity
  8
DEFPOINTS
100
AcDbPoint
 10
7.379552
 20
-27.352884
 30
0.0
  0
ENDBLK
  5
24CE7
330
24CDC
100
AcDbEntity
  8
0
100
AcDbBlockEnd
  0
BLOCK
  5
24CE9
330
24CE8
100
AcDbEntity
  8
0
100
AcDbBlockBegin
  2
*D11
 70
     1
 10
0.0
 20
0.0
 30
0.0
  3
*D11
  1

  0
LINE
  5
24CEA
330
24CE8
100
AcDbEntity
  8
0
100
AcDbLine
 10
-39.49544799999999
 20
117.6471159999999
 30
0.0
 11
-39.49544799999999
 21
147.1471159999999
 31
0.0
  0
LINE
  5
24CEB
330
24CE8
100
AcDbEntity
  8
0
100
AcDbLine
 10
0.504552
 20
117.6471159999999
 30
0.0
 11
0.504552
 21
147.1471159999999
 31
0.0
  0
LINE
  5
24CEC
330
24CE8
100
AcDbEntity
  8
0
100
AcDbLine
 10
-36.49544799999999
 20
144.6471159999999
 30
0.0
 11
-2.495448
 21
144.6471159999999
 31
0.0
  0
SOLID
  5
24CED
330
24CE8
100
AcDbEntity
  8
0
100
AcDbTrace
 10
-36.49544799999999
 20
145.1471159999999
 30
0.0
 11
-36.49544799999999
 21
144.1471159999999
 31
0.0
 12
-39.49544799999999
 22
144.6471159999999
 32
0.0
 13
-39.49544799999999
 23
144.6471159999999
 33
0.0
  0
SOLID
  5
24CEE
330
24CE8
100
AcDbEntity
  8
0
100
AcDbTrace
 10
-2.495448
 20
145.1471159999999
 30
0.0
 11
-2.495448
 21
144.1471159999999
 31
0.0
 12
0.504552
 22
144.6471159999999
 32
0.0
 13
0.504552
 23
144.6471159999999
 33
0.0
  0
TEXT
  5
24CEF
330
24CE8
100
AcDbEntity
  8
0
100
AcDbText
 10
-25.28116228571427
 20
146.1471159999999
 30
0.0
 40
3.0
  1
D=40
  7
SANDVIK_STYLE
 72
     1
 11
-19.49544799999999
 21
147.6471159999999
 31
0.0
100
AcDbText
 73
     2
  0
POINT
  5
24CF0
330
24CE8
100
AcDbEntity
  8
DEFPOINTS
100
AcDbPoint
 10
-39.49544799999999
 20
115.147116
 30
0.0
  0
POINT
  5
24CF1
330
24CE8
100
AcDbEntity
  8
DEFPOINTS
100
AcDbPoint
 10
0.504552
 20
115.147116
 30
0.0
  0
POINT
  5
24CF2
330
24CE8
100
AcDbEntity
  8
DEFPOINTS
100
AcDbPoint
 10
0.504552
 20
144.6471159999999
 30
0.0
  0
ENDBLK
  5
24CF3
330
24CE8
100
AcDbEntity
  8
0
100
AcDbBlockEnd
  0
BLOCK
  5
24CF5
330
24CF4
100
AcDbEntity
  8
0
100
AcDbBlockBegin
  2
*D12
 70
     1
 10
0.0
 20
0.0
 30
0.0
  3
*D12
  1

  0
LINE
  5
24CF6
330
24CF4
100
AcDbEntity
  8
0
100
AcDbLine
 10
-39.34544799999999
 20
93.10692299999999
 30
0.0
 11
-39.34544799999999
 21
47.448338
 31
0.0
  0
LINE
  5
24CF7
330
24CF4
100
AcDbEntity
  8
0
100
AcDbLine
 10
0.354552
 20
93.10692299999999
 30
0.0
 11
0.354552
 21
47.448338
 31
0.0
  0
LINE
  5
24CF8
330
24CF4
100
AcDbEntity
  8
0
100
AcDbLine
 10
-36.345448
 20
49.948338
 30
0.0
 11
-2.645448
 21
49.948338
 31
0.0
  0
SOLID
  5
24CF9
330
24CF4
100
AcDbEntity
  8
0
100
AcDbTrace
 10
-36.345448
 20
50.448338
 30
0.0
 11
-36.345448
 21
49.448338
 31
0.0
 12
-39.34544799999999
 22
49.948338
 32
0.0
 13
-39.34544799999999
 23
49.948338
 33
0.0
  0
SOLID
  5
24CFA
330
24CF4
100
AcDbEntity
  8
0
100
AcDbTrace
 10
-2.645448
 20
50.448338
 30
0.0
 11
-2.645448
 21
49.448338
 31
0.0
 12
0.354552
 22
49.948338
 32
0.0
 13
0.354552
 23
49.948338
 33
0.0
  0
TEXT
  5
24CFB
330
24CF4
100
AcDbEntity
  8
0
100
AcDbText
 10
-25.57138842857143
 20
51.448338
 30
0.0
 40
3.0
  1
%%c39.7
  7
SANDVIK_STYLE
 72
     1
 11
-19.642817
 21
52.948338
 31
0.0
100
AcDbText
 73
     2
  0
POINT
  5
24CFC
330
24CF4
100
AcDbEntity
  8
DEFPOINTS
100
AcDbPoint
 10
-39.34544799999999
 20
95.60692299999999
 30
0.0
  0
POINT
  5
24CFD
330
24CF4
100
AcDbEntity
  8
DEFPOINTS
100
AcDbPoint
 10
0.354552
 20
95.60692299999999
 30
0.0
  0
POINT
  5
24CFE
330
24CF4
100
AcDbEntity
  8
DEFPOINTS
100
AcDbPoint
 10
0.354552
 20
49.948338
 30
0.0
  0
ENDBLK
  5
24CFF
330
24CF4
100
AcDbEntity
  8
0
100
AcDbBlockEnd
  0
BLOCK
  5
24D01
330
24D00
100
AcDbEntity
  8
0
100
AcDbBlockBegin
  2
*D13
 70
     1
 10
0.0
 20
0.0
 30
0.0
  3
*D13
  1

  0
LINE
  5
24D02
330
24D00
100
AcDbEntity
  8
0
100
AcDbLine
 10
3.004551999999999
 20
115.147116
 30
0.0
 11
31.379552
 21
115.147116
 31
0.0
  0
LINE
  5
24D03
330
24D00
100
AcDbEntity
  8
0
100
AcDbLine
 10
9.879552
 20
-4.852883999999998
 30
0.0
 11
31.379552
 21
-4.852883999999998
 31
0.0
  0
LINE
  5
24D04
330
24D00
100
AcDbEntity
  8
0
100
AcDbLine
 10
28.879552
 20
112.147116
 30
0.0
 11
28.879552
 21
-1.852883999999999
 31
0.0
  0
SOLID
  5
24D05
330
24D00
100
AcDbEntity
  8
0
100
AcDbTrace
 10
28.379552
 20
112.147116
 30
0.0
 11
29.379552
 21
112.147116
 31
0.0
 12
28.879552
 22
115.147116
 32
0.0
 13
28.879552
 23
115.147116
 33
0.0
  0
SOLID
  5
24D06
330
24D00
100
AcDbEntity
  8
0
100
AcDbTrace
 10
28.379552
 20
-1.852883999999999
 30
0.0
 11
29.379552
 21
-1.852883999999999
 31
0.0
 12
28.879552
 22
-4.852883999999998
 32
0.0
 13
28.879552
 23
-4.852883999999998
 33
0.0
  0
TEXT
  5
24D07
330
24D00
100
AcDbEntity
  8
0
100
AcDbText
 10
27.3795518005338
 20
49.43283023335442
 30
0.0
 40
3.0
  1
120.0
 50
89.99999800000002
  7
SANDVIK_STYLE
 72
     1
 11
25.879552
 21
55.147116
 31
0.0
100
AcDbText
 73
     2
  0
POINT
  5
24D08
330
24D00
100
AcDbEntity
  8
DEFPOINTS
100
AcDbPoint
 10
0.504552
 20
115.147116
 30
0.0
  0
POINT
  5
24D09
330
24D00
100
AcDbEntity
  8
DEFPOINTS
100
AcDbPoint
 10
7.379552
 20
-4.852883999999998
 30
0.0
  0
POINT
  5
24D0A
330
24D00
100
AcDbEntity
  8
DEFPOINTS
100
AcDbPoint
 10
28.879552
 20
-4.852883999999998
 30
0.0
  0
ENDBLK
  5
24D0B
330
24D00
100
AcDbEntity
  8
0
100
AcDbBlockEnd
  0
BLOCK
  5
24D0D
330
24D0C
100
AcDbEntity
  8
0
100
AcDbBlockBegin
  2
*D14
 70
     1
 10
0.0
 20
0.0
 30
0.0
  3
*D14
  1

  0
LINE
  5
24D0E
330
24D0C
100
AcDbEntity
  8
0
100
AcDbLine
 10
2.854551999999998
 20
95.60692299999999
 30
0.0
 11
21.37955199999999
 21
95.60692299999999
 31
0.0
  0
LINE
  5
24D0F
330
24D0C
100
AcDbEntity
  8
0
100
AcDbLine
 10
9.879552
 20
-4.852883999999998
 30
0.0
 11
21.37955199999999
 21
-4.852883999999998
 31
0.0
  0
LINE
  5
24D10
330
24D0C
100
AcDbEntity
  8
0
100
AcDbLine
 10
18.879552
 20
92.606923
 30
0.0
 11
18.879552
 21
-1.852883999999999
 31
0.0
  0
SOLID
  5
24D11
330
24D0C
100
AcDbEntity
  8
0
100
AcDbTrace
 10
18.379552
 20
92.606923
 30
0.0
 11
19.379552
 21
92.606923
 31
0.0
 12
18.879552
 22
95.60692299999999
 32
0.0
 13
18.879552
 23
95.60692299999999
 33
0.0
  0
SOLID
  5
24D12
330
24D0C
100
AcDbEntity
  8
0
100
AcDbTrace
 10
18.379552
 20
-1.852883999999999
 30
0.0
 11
19.379552
 21
-1.852883999999999
 31
0.0
 12
18.879552
 22
-4.852883999999998
 32
0.0
 13
18.879552
 23
-4.852883999999998
 33
0.0
  0
TEXT
  5
24D13
330
24D0C
100
AcDbEntity
  8
0
100
AcDbText
 10
17.37955180053379
 20
39.66273323335441
 30
0.0
 40
3.0
  1
100.5
 50
89.99999800000002
  7
SANDVIK_STYLE
 72
     1
 11
15.87955199999999
 21
45.377019
 31
0.0
100
AcDbText
 73
     2
  0
POINT
  5
24D14
330
24D0C
100
AcDbEntity
  8
DEFPOINTS
100
AcDbPoint
 10
0.354552
 20
95.60692299999999
 30
0.0
  0
POINT
  5
24D15
330
24D0C
100
AcDbEntity
  8
DEFPOINTS
100
AcDbPoint
 10
7.379552
 20
-4.852883999999998
 30
0.0
  0
POINT
  5
24D16
330
24D0C
100
AcDbEntity
  8
DEFPOINTS
100
AcDbPoint
 10
18.879552
 20
-4.852883999999998
 30
0.0
  0
ENDBLK
  5
24D17
330
24D0C
100
AcDbEntity
  8
0
100
AcDbBlockEnd
  0
BLOCK
  5
24D19
330
24D18
100
AcDbEntity
  8
0
100
AcDbBlockBegin
  2
*D15
 70
     1
 10
0.0
 20
0.0
 30
0.0
  3
*D15
  1

  0
LINE
  5
24D1A
330
24D18
100
AcDbEntity
  8
0
100
AcDbLine
 10
-22.120067
 20
-4.337968
 30
0.0
 11
-48.819721
 21
-3.871941999999997
 31
0.0
  0
LINE
  5
24D1B
330
24D18
100
AcDbEntity
  8
0
100
AcDbLine
 10
-19.49544799999999
 20
-16.311218
 30
0.0
 11
-19.49544799999999
 21
-33.712519
 31
0.0
  0
ARC
  5
24D1C
330
24D18
100
AcDbEntity
  8
0
100
AcDbCircle
 10
-19.49544799999999
 20
-4.383779999999998
 30
0.0
 40
26.82874
100
AcDbArc
 50
185.4102169999999
 51
212.981816
  0
ARC
  5
24D1D
330
24D18
100
AcDbEntity
  8
0
100
AcDbCircle
 10
-19.49544799999999
 20
-4.383779999999998
 30
0.0
 40
26.82874
100
AcDbArc
 50
236.0182229999999
 51
263.5898209999999
  0
SOLID
  5
24D1E
330
24D18
100
AcDbEntity
  8
0
100
AcDbTrace
 10
-46.7043
 20
-6.932588
 30
0.0
 11
-45.70504099999999
 21
-6.894110999999997
 31
0.0
 12
-46.32010199999998
 22
-3.915570999999999
 32
0.0
 13
-46.32010199999998
 23
-3.915570999999999
 33
0.0
  0
SOLID
  5
24D1F
330
24D18
100
AcDbEntity
  8
0
100
AcDbTrace
 10
-22.462801
 20
-30.545571
 30
0.0
 11
-22.518711
 21
-31.544006
 31
0.0
 12
-19.49544799999999
 22
-31.212519
 32
0.0
 13
-19.49544799999999
 23
-31.212519
 33
0.0
  0
TEXT
  5
24D20
330
24D18
100
AcDbEntity
  8
0
100
AcDbText
 10
-43.00521520543057
 20
-20.87719549329435
 30
0.0
 40
3.0
  1
91%%d0'
 50
314.5
  7
SANDVIK_STYLE
 72
     1
 11
-38.631053
 21
-23.188298
 31
0.0
100
AcDbText
 73
     2
  0
POINT
  5
24D21
330
24D18
100
AcDbEntity
  8
DEFPOINTS
100
AcDbPoint
 10
-19.496448
 20
-31.212519
 30
0.0
  0
POINT
  5
24D22
330
24D18
100
AcDbEntity
  8
DEFPOINTS
100
AcDbPoint
 10
-19.49544799999999
 20
-4.383779999999998
 30
-1.947129
  0
POINT
  5
24D23
330
24D18
100
AcDbEntity
  8
DEFPOINTS
100
AcDbPoint
 10
-19.49544799999999
 20
-13.81121799999999
 30
-1.947129
  0
POINT
  5
24D24
330
24D18
100
AcDbEntity
  8
DEFPOINTS
100
AcDbPoint
 10
-19.49544799999999
 20
-4.383779999999998
 30
-1.947129
  0
POINT
  5
24D25
330
24D18
100
AcDbEntity
  8
DEFPOINTS
100
AcDbPoint
 10
-19.620448
 20
-4.381598
 30
-1.947129
  0
ENDBLK
  5
24D26
330
24D18
100
AcDbEntity
  8
0
100
AcDbBlockEnd
  0
BLOCK
  5
24D28
330
24D27
100
AcDbEntity
  8
0
100
AcDbBlockBegin
  2
*D16
 70
     1
 10
0.0
 20
0.0
 30
0.0
  3
*D16
  1

  0
LINE
  5
24D29
330
24D27
100
AcDbEntity
  8
20
100
AcDbLine
 10
-19.49544799999999
 20
-16.31121799999999
 30
0.0
 11
-19.49544799999999
 21
-29.852884
 31
0.0
  0
LINE
  5
24D2A
330
24D27
100
AcDbEntity
  8
20
100
AcDbLine
 10
7.379552
 20
-7.352883999999997
 30
0.0
 11
7.379551999999996
 21
-29.852884
 31
0.0
  0
LINE
  5
24D2B
330
24D27
100
AcDbEntity
  8
20
100
AcDbLine
 10
-16.495448
 20
-27.352884
 30
0.0
 11
4.379551999999995
 21
-27.352884
 31
0.0
  0
TEXT
  5
24D2C
330
24D27
100
AcDbEntity
  8
1
100
AcDbText
 10
-8.486519428571423
 20
-25.852884
 30
0.0
 40
3.0
  1
27
  7
TDM_STYLE
100
AcDbText
  0
SOLID
  5
24D2D
330
24D27
100
AcDbEntity
  8
20
100
AcDbTrace
 10
-16.495448
 20
-26.85288400000001
 30
0.0
 11
-16.495448
 21
-27.85288400000001
 31
0.0
 12
-19.49544799999999
 22
-27.352884
 32
0.0
 13
-19.49544799999999
 23
-27.352884
 33
0.0
  0
SOLID
  5
24D2E
330
24D27
100
AcDbEntity
  8
20
100
AcDbTrace
 10
4.379551999999995
 20
-26.85288400000001
 30
0.0
 11
4.379551999999995
 21
-27.85288400000001
 31
0.0
 12
7.379551999999996
 22
-27.352884
 32
0.0
 13
7.379551999999996
 23
-27.352884
 33
0.0
  0
POINT
  5
24D2F
330
24D27
100
AcDbEntity
  8
DEFPOINTS
 62
     0
100
AcDbPoint
 10
-19.49544799999999
 20
-13.81121799999999
 30
0.0
  0
POINT
  5
24D30
330
24D27
100
AcDbEntity
  8
DEFPOINTS
 62
     0
100
AcDbPoint
 10
7.379552
 20
-4.852883999999998
 30
0.0
  0
POINT
  5
24D31
330
24D27
100
AcDbEntity
  8
DEFPOINTS
 62
     0
100
AcDbPoint
 10
7.379551999999996
 20
-27.352884
 30
0.0
  0
ENDBLK
  5
24D32
330
24D27
100
AcDbEntity
  8
0
100
AcDbBlockEnd
  0
BLOCK
  5
24D34
330
24D33
100
AcDbEntity
  8
0
100
AcDbBlockBegin
  2
*D17
 70
     1
 10
0.0
 20
0.0
 30
0.0
  3
*D17
  1

  0
LINE
  5
24D35
330
24D33
100
AcDbEntity
  8
12
100
AcDbLine
 10
-39.49544799999999
 20
117.6471159999999
 30
0.0
 11
-39.49544799999999
 21
147.1471159999999
 31
0.0
  0
LINE
  5
24D36
330
24D33
100
AcDbEntity
  8
12
100
AcDbLine
 10
0.5045520000000005
 20
117.6471159999999
 30
0.0
 11
0.5045520000000021
 21
147.1471159999999
 31
0.0
  0
LINE
  5
24D37
330
24D33
100
AcDbEntity
  8
12
100
AcDbLine
 10
-36.49544799999999
 20
144.6471159999999
 30
0.0
 11
-2.495447999999997
 21
144.6471159999999
 31
0.0
  0
TEXT
  5
24D38
330
24D33
100
AcDbEntity
  8
1
100
AcDbText
 10
-25.28116228571429
 20
146.1471159999999
 30
0.0
 40
3.0
  1
D=40
  7
TDM_STYLE
100
AcDbText
  0
SOLID
  5
24D39
330
24D33
100
AcDbEntity
  8
12
100
AcDbTrace
 10
-36.49544799999999
 20
145.1471159999999
 30
0.0
 11
-36.49544799999999
 21
144.1471159999999
 31
0.0
 12
-39.49544799999999
 22
144.6471159999999
 32
0.0
 13
-39.49544799999999
 23
144.6471159999999
 33
0.0
  0
SOLID
  5
24D3A
330
24D33
100
AcDbEntity
  8
12
100
AcDbTrace
 10
-2.495447999999997
 20
145.1471159999999
 30
0.0
 11
-2.495447999999997
 21
144.1471159999999
 31
0.0
 12
0.5045520000000018
 22
144.6471159999999
 32
0.0
 13
0.5045520000000018
 23
144.6471159999999
 33
0.0
  0
POINT
  5
24D3B
330
24D33
100
AcDbEntity
  8
DEFPOINTS
 62
     0
100
AcDbPoint
 10
-39.49544799999999
 20
115.147116
 30
0.0
  0
POINT
  5
24D3C
330
24D33
100
AcDbEntity
  8
DEFPOINTS
 62
     0
100
AcDbPoint
 10
0.504552
 20
115.147116
 30
0.0
  0
POINT
  5
24D3D
330
24D33
100
AcDbEntity
  8
DEFPOINTS
 62
     0
100
AcDbPoint
 10
0.5045520000000018
 20
144.6471159999999
 30
0.0
  0
ENDBLK
  5
24D3E
330
24D33
100
AcDbEntity
  8
0
100
AcDbBlockEnd
  0
BLOCK
  5
24D40
330
24D3F
100
AcDbEntity
  8
0
100
AcDbBlockBegin
  2
*D18
 70
     1
 10
0.0
 20
0.0
 30
0.0
  3
*D18
  1

  0
LINE
  5
24D41
330
24D3F
100
AcDbEntity
  8
12
100
AcDbLine
 10
-39.34544799999999
 20
93.10692299999999
 30
0.0
 11
-39.34544799999999
 21
47.448338
 31
0.0
  0
LINE
  5
24D42
330
24D3F
100
AcDbEntity
  8
12
100
AcDbLine
 10
0.3545519999999998
 20
93.10692299999999
 30
0.0
 11
0.354551999999997
 21
47.448338
 31
0.0
  0
LINE
  5
24D43
330
24D3F
100
AcDbEntity
  8
12
100
AcDbLine
 10
-36.345448
 20
49.948338
 30
0.0
 11
-2.645448
 21
49.948338
 31
0.0
  0
INSERT
  5
24D44
330
24D3F
100
AcDbEntity
  8
1
100
AcDbBlockReference
  2
*U19
 10
0.0
 20
0.0
 30
0.0
  0
SOLID
  5
24D45
330
24D3F
100
AcDbEntity
  8
12
100
AcDbTrace
 10
-36.345448
 20
50.448338
 30
0.0
 11
-36.345448
 21
49.448338
 31
0.0
 12
-39.34544799999999
 22
49.948338
 32
0.0
 13
-39.34544799999999
 23
49.948338
 33
0.0
  0
SOLID
  5
24D46
330
24D3F
100
AcDbEntity
  8
12
100
AcDbTrace
 10
-2.645448
 20
50.448338
 30
0.0
 11
-2.645448
 21
49.448338
 31
0.0
 12
0.3545519999999972
 22
49.948338
 32
0.0
 13
0.3545519999999972
 23
49.948338
 33
0.0
  0
POINT
  5
24D47
330
24D3F
100
AcDbEntity
  8
DEFPOINTS
 62
     0
100
AcDbPoint
 10
-39.34544799999999
 20
95.60692299999999
 30
0.0
  0
POINT
  5
24D48
330
24D3F
100
AcDbEntity
  8
DEFPOINTS
 62
     0
100
AcDbPoint
 10
0.354552
 20
95.60692299999999
 30
0.0
  0
POINT
  5
24D49
330
24D3F
100
AcDbEntity
  8
DEFPOINTS
 62
     0
100
AcDbPoint
 10
0.3545519999999972
 20
49.948338
 30
0.0
  0
ENDBLK
  5
24D4A
330
24D3F
100
AcDbEntity
  8
0
100
AcDbBlockEnd
  0
BLOCK
  5
24D4C
330
24D4B
100
AcDbEntity
  8
0
100
AcDbBlockBegin
  2
*U19
 70
     1
 10
0.0
 20
0.0
 30
0.0
  3
*U19
  1

  0
TEXT
  5
24D4D
330
24D4B
100
AcDbEntity
  8
1
100
AcDbText
 10
-25.57138842857142
 20
51.448338
 30
0.0
 40
3.0
  1
\U+2205
  7
TDM_STYLE
100
AcDbText
  0
TEXT
  5
24D4E
330
24D4B
100
AcDbEntity
  8
1
100
AcDbText
 10
-22.85710271428571
 20
51.448338
 30
0.0
 40
3.0
  1
39.7
  7
TDM_STYLE
100
AcDbText
  0
ENDBLK
  5
24D4F
330
24D4B
100
AcDbEntity
  8
0
100
AcDbBlockEnd
  0
BLOCK
  5
24D51
330
24D50
100
AcDbEntity
  8
0
100
AcDbBlockBegin
  2
*D20
 70
     1
 10
0.0
 20
0.0
 30
0.0
  3
*D20
  1

  0
LINE
  5
24D52
330
24D50
100
AcDbEntity
  8
20
100
AcDbLine
 10
3.004551999999999
 20
115.147116
 30
0.0
 11
31.37955200000003
 21
115.147116
 31
0.0
  0
LINE
  5
24D53
330
24D50
100
AcDbEntity
  8
20
100
AcDbLine
 10
9.879551999999996
 20
-4.852883999999998
 30
0.0
 11
31.379552
 21
-4.852884000000003
 31
0.0
  0
LINE
  5
24D54
330
24D50
100
AcDbEntity
  8
20
100
AcDbLine
 10
28.87955200000003
 20
112.147116
 30
0.0
 11
28.879552
 21
-1.852884000000004
 31
0.0
  0
TEXT
  5
24D55
330
24D50
100
AcDbEntity
  8
1
100
AcDbText
 10
27.3795518005338
 20
49.43283023335443
 30
0.0
 40
3.0
  1
120.0
 50
89.99999800000002
  7
TDM_STYLE
100
AcDbText
  0
SOLID
  5
24D56
330
24D50
100
AcDbEntity
  8
20
100
AcDbTrace
 10
28.37955200000003
 20
112.147116
 30
0.0
 11
29.37955200000003
 21
112.147116
 31
0.0
 12
28.87955200000003
 22
115.147116
 32
0.0
 13
28.87955200000003
 23
115.147116
 33
0.0
  0
SOLID
  5
24D57
330
24D50
100
AcDbEntity
  8
20
100
AcDbTrace
 10
28.379552
 20
-1.852884000000004
 30
0.0
 11
29.379552
 21
-1.852884000000004
 31
0.0
 12
28.879552
 22
-4.852884000000003
 32
0.0
 13
28.879552
 23
-4.852884000000003
 33
0.0
  0
POINT
  5
24D58
330
24D50
100
AcDbEntity
  8
DEFPOINTS
 62
     0
100
AcDbPoint
 10
0.504552
 20
115.147116
 30
0.0
  0
POINT
  5
24D59
330
24D50
100
AcDbEntity
  8
DEFPOINTS
 62
     0
100
AcDbPoint
 10
7.379552
 20
-4.852883999999998
 30
0.0
  0
POINT
  5
24D5A
330
24D50
100
AcDbEntity
  8
DEFPOINTS
 62
     0
100
AcDbPoint
 10
28.879552
 20
-4.852884000000003
 30
0.0
  0
ENDBLK
  5
24D5B
330
24D50
100
AcDbEntity
  8
0
100
AcDbBlockEnd
  0
BLOCK
  5
24D5D
330
24D5C
100
AcDbEntity
  8
0
100
AcDbBlockBegin
  2
*D21
 70
     1
 10
0.0
 20
0.0
 30
0.0
  3
*D21
  1

  0
LINE
  5
24D5E
330
24D5C
100
AcDbEntity
  8
12
100
AcDbLine
 10
2.854551999999998
 20
95.60692299999999
 30
0.0
 11
21.37955200000003
 21
95.60692299999999
 31
0.0
  0
LINE
  5
24D5F
330
24D5C
100
AcDbEntity
  8
12
100
AcDbLine
 10
9.879551999999996
 20
-4.852883999999998
 30
0.0
 11
21.37955199999999
 21
-4.852884000000003
 31
0.0
  0
LINE
  5
24D60
330
24D5C
100
AcDbEntity
  8
12
100
AcDbLine
 10
18.87955200000002
 20
92.606923
 30
0.0
 11
18.879552
 21
-1.852884000000002
 31
0.0
  0
TEXT
  5
24D61
330
24D5C
100
AcDbEntity
  8
1
100
AcDbText
 10
17.37955180053379
 20
39.66273323335441
 30
0.0
 40
3.0
  1
100.5
 50
89.99999800000002
  7
TDM_STYLE
100
AcDbText
  0
SOLID
  5
24D62
330
24D5C
100
AcDbEntity
  8
12
100
AcDbTrace
 10
18.37955200000002
 20
92.606923
 30
0.0
 11
19.37955200000002
 21
92.606923
 31
0.0
 12
18.87955200000002
 22
95.60692299999999
 32
0.0
 13
18.87955200000002
 23
95.60692299999999
 33
0.0
  0
SOLID
  5
24D63
330
24D5C
100
AcDbEntity
  8
12
100
AcDbTrace
 10
18.379552
 20
-1.852884000000002
 30
0.0
 11
19.379552
 21
-1.852884000000002
 31
0.0
 12
18.879552
 22
-4.852884000000003
 32
0.0
 13
18.879552
 23
-4.852884000000003
 33
0.0
  0
POINT
  5
24D64
330
24D5C
100
AcDbEntity
  8
DEFPOINTS
 62
     0
100
AcDbPoint
 10
0.354552
 20
95.60692299999999
 30
0.0
  0
POINT
  5
24D65
330
24D5C
100
AcDbEntity
  8
DEFPOINTS
 62
     0
100
AcDbPoint
 10
7.379552
 20
-4.852883999999998
 30
0.0
  0
POINT
  5
24D66
330
24D5C
100
AcDbEntity
  8
DEFPOINTS
 62
     0
100
AcDbPoint
 10
18.879552
 20
-4.852884000000003
 30
0.0
  0
ENDBLK
  5
24D67
330
24D5C
100
AcDbEntity
  8
0
100
AcDbBlockEnd
  0
BLOCK
  5
24D69
330
24D68
100
AcDbEntity
  8
0
100
AcDbBlockBegin
  2
*D22
 70
     1
 10
0.0
 20
0.0
 30
0.0
  3
*D22
  1

  0
LINE
  5
24D6A
330
24D68
100
AcDbEntity
  8
20
100
AcDbLine
 10
-22.12006719710418
 20
-4.337964647295319
 30
0.0
 11
-48.81971963113711
 21
-3.871895514406548
 31
0.0
  0
LINE
  5
24D6B
330
24D68
100
AcDbEntity
  8
20
100
AcDbLine
 10
-19.495448
 20
-16.311218
 30
0.0
 11
-19.49544800000001
 21
-33.71251901863673
 31
0.0
  0
ARC
  5
24D6C
330
24D68
100
AcDbEntity
  8
20
100
AcDbCircle
 10
-19.49544799999999
 20
-4.383779999999998
 30
0.0
 40
26.82873901863673
100
AcDbArc
 50
185.4101253346328
 51
211.1070377719938
  0
ARC
  5
24D6D
330
24D68
100
AcDbEntity
  8
20
100
AcDbCircle
 10
-19.49544799999999
 20
-4.383779999999998
 30
0.0
 40
26.82873901863673
100
AcDbArc
 50
237.8929071713625
 51
263.5898211060191
  0
SOLID
  5
24D6E
330
24D68
100
AcDbEntity
  8
20
100
AcDbTrace
 10
-46.7043032923773
 20
-6.932545301212972
 30
0.0
 11
-45.7050437538392
 21
-6.894069664238078
 31
0.0
 12
-46.32010043403295
 22
-3.915528867111226
 32
0.0
 13
-46.32010043403295
 23
-3.915528867111226
 33
0.0
  0
SOLID
  5
24D6F
330
24D68
100
AcDbEntity
  8
20
100
AcDbTrace
 10
-22.46280030831842
 20
-30.54557053613045
 30
0.0
 11
-22.51871050219514
 21
-31.5440063378827
 31
0.0
 12
-19.49544800000001
 22
-31.21251901863674
 32
0.0
 13
-19.49544800000001
 23
-31.21251901863674
 33
0.0
  0
TEXT
  5
24D70
330
24D68
100
AcDbEntity
  8
20
100
AcDbText
 10
-44.6311
 20
-28.4983
 30
0.0
 40
3.0
  1
91%%d0'
  7
TDM_STYLE
100
AcDbText
  0
POINT
  5
24D71
330
24D68
100
AcDbEntity
  8
DEFPOINTS
 62
     0
100
AcDbPoint
 10
-42.88433270626144
 20
-17.52688882277593
 30
0.0
  0
POINT
  5
24D72
330
24D68
100
AcDbEntity
  8
DEFPOINTS
 62
     0
100
AcDbPoint
 10
-19.49544799999999
 20
-4.383779999999998
 30
-1.947129
  0
POINT
  5
24D73
330
24D68
100
AcDbEntity
  8
DEFPOINTS
 62
     0
100
AcDbPoint
 10
-19.49544799999999
 20
-13.81121799999999
 30
-1.947129
  0
POINT
  5
24D74
330
24D68
100
AcDbEntity
  8
DEFPOINTS
 62
     0
100
AcDbPoint
 10
-19.49544799999999
 20
-4.383779999999998
 30
-1.947129
  0
POINT
  5
24D75
330
24D68
100
AcDbEntity
  8
DEFPOINTS
 62
     0
100
AcDbPoint
 10
-19.620448
 20
-4.381597999999994
 30
-1.947129
  0
ENDBLK
  5
24D76
330
24D68
100
AcDbEntity
  8
0
100
AcDbBlockEnd
  0
BLOCK
  5
24D78
330
24D77
100
AcDbEntity
  8
0
100
AcDbBlockBegin
  2
*D23
 70
     1
 10
0.0
 20
0.0
 30
0.0
  3
*D23
  1

  0
LINE
  5
250CF
330
24D77
100
AcDbEntity
  8
20
 62
     0
370
    -2
100
AcDbLine
 10
130.3206719999999
 20
1.272328999999992
 30
0.0
 11
142.112338
 21
1.272328999999988
 31
0.0
  0
LINE
  5
250D0
330
24D77
100
AcDbEntity
  8
20
 62
     0
370
    -2
100
AcDbLine
 10
121.362338
 20
28.14732899999998
 30
0.0
 11
142.112338
 21
28.14732899999998
 31
0.0
  0
LINE
  5
250D1
330
24D77
100
AcDbEntity
  8
20
 62
     0
370
    -2
100
AcDbLine
 10
140.862338
 20
3.772328999999988
 30
0.0
 11
140.862338
 21
25.64732899999998
 31
0.0
  0
SOLID
  5
250D2
330
24D77
100
AcDbEntity
  8
20
 62
     0
100
AcDbTrace
 10
140.4456713333333
 20
3.772328999999988
 30
0.0
 11
141.2790046666666
 21
3.772328999999988
 31
0.0
 12
140.862338
 22
1.272328999999988
 32
0.0
 13
140.862338
 23
1.272328999999988
 33
0.0
  0
SOLID
  5
250D3
330
24D77
100
AcDbEntity
  8
20
 62
     0
100
AcDbTrace
 10
140.4456713333333
 20
25.64732899999998
 30
0.0
 11
141.2790046666666
 21
25.64732899999998
 31
0.0
 12
140.862338
 22
28.14732899999998
 32
0.0
 13
140.862338
 23
28.14732899999998
 33
0.0
  0
MTEXT
  5
250D4
330
24D77
100
AcDbEntity
  8
20
 62
     0
100
AcDbMText
 10
138.487338
 20
14.70982899999998
 30
0.0
 40
3.5
 41
0.0
 71
     5
 72
     1
  1
27
  7
SIMPLEX
 11
0.0000000000000001
 21
1.0
 31
0.0
 73
     1
 44
1.0
1001
ACAD
1000
MTEXTBEGIN
1070
    73
1070
     1
1070
    44
1040
1.0
1070
    74
1070
     0
1000
MTEXTEND
  0
POINT
  5
250D5
330
24D77
100
AcDbEntity
  8
DEFPOINTS
 62
     0
100
AcDbPoint
 10
130.3206719999999
 20
1.272328999999992
 30
0.0
  0
POINT
  5
250D6
330
24D77
100
AcDbEntity
  8
DEFPOINTS
 62
     0
100
AcDbPoint
 10
121.362338
 20
28.14732899999998
 30
0.0
  0
POINT
  5
250D7
330
24D77
100
AcDbEntity
  8
DEFPOINTS
 62
     0
100
AcDbPoint
 10
140.862338
 20
28.14732899999998
 30
0.0
  0
ENDBLK
  5
24D82
330
24D77
100
AcDbEntity
  8
0
100
AcDbBlockEnd
  0
BLOCK
  5
24D84
330
24D83
100
AcDbEntity
  8
0
100
AcDbBlockBegin
  2
*D24
 70
     1
 10
0.0
 20
0.0
 30
0.0
  3
*D24
  1

  0
LINE
  5
250C6
330
24D83
100
AcDbEntity
  8
12
 62
     0
370
    -2
100
AcDbLine
 10
1.362337999999994
 20
-18.72767099999999
 30
0.0
 11
-32.38766199999992
 21
-18.72767099999997
 31
0.0
  0
LINE
  5
250C7
330
24D83
100
AcDbEntity
  8
12
 62
     0
370
    -2
100
AcDbLine
 10
1.362337999999994
 20
21.27232899999999
 30
0.0
 11
-32.38766199999991
 21
21.272329
 31
0.0
  0
LINE
  5
250C8
330
24D83
100
AcDbEntity
  8
12
 62
     0
370
    -2
100
AcDbLine
 10
-31.13766199999993
 20
-16.22767099999997
 30
0.0
 11
-31.13766199999991
 21
18.772329
 31
0.0
  0
SOLID
  5
250C9
330
24D83
100
AcDbEntity
  8
12
 62
     0
100
AcDbTrace
 10
-31.55432866666658
 20
-16.22767099999997
 30
0.0
 11
-30.72099533333325
 21
-16.22767099999997
 31
0.0
 12
-31.13766199999993
 22
-18.72767099999997
 32
0.0
 13
-31.13766199999993
 23
-18.72767099999997
 33
0.0
  0
SOLID
  5
250CA
330
24D83
100
AcDbEntity
  8
12
 62
     0
100
AcDbTrace
 10
-31.55432866666658
 20
18.772329
 30
0.0
 11
-30.72099533333324
 21
18.772329
 31
0.0
 12
-31.13766199999991
 22
21.272329
 32
0.0
 13
-31.13766199999991
 23
21.272329
 33
0.0
  0
MTEXT
  5
250CB
330
24D83
100
AcDbEntity
  8
12
 62
     0
100
AcDbMText
 10
-33.51266199999991
 20
1.272328999999998
 30
0.0
 40
3.5
 41
0.0
 71
     5
 72
     1
  1
D=40
  7
SIMPLEX
 11
0.0000000000000001
 21
1.0
 31
0.0
 73
     1
 44
1.0
1001
ACAD
1000
MTEXTBEGIN
1070
    73
1070
     1
1070
    44
1040
1.0
1070
    74
1070
     0
1000
MTEXTEND
  0
POINT
  5
250CC
330
24D83
100
AcDbEntity
  8
DEFPOINTS
 62
     0
100
AcDbPoint
 10
1.362337999999994
 20
-18.72767099999999
 30
0.0
  0
POINT
  5
250CD
330
24D83
100
AcDbEntity
  8
DEFPOINTS
 62
     0
100
AcDbPoint
 10
1.362337999999994
 20
21.27232899999999
 30
0.0
  0
POINT
  5
250CE
330
24D83
100
AcDbEntity
  8
DEFPOINTS
 62
     0
100
AcDbPoint
 10
-31.13766199999991
 20
21.272329
 30
0.0
  0
ENDBLK
  5
24D8E
330
24D83
100
AcDbEntity
  8
0
100
AcDbBlockEnd
  0
BLOCK
  5
24D90
330
24D8F
100
AcDbEntity
  8
0
100
AcDbBlockBegin
  2
*D25
 70
     1
 10
0.0
 20
0.0
 30
0.0
  3
*D25
  1

  0
LINE
  5
250BD
330
24D8F
100
AcDbEntity
  8
12
 62
     0
370
    -2
100
AcDbLine
 10
20.90253099999999
 20
-18.57767100000001
 30
0.0
 11
64.811116
 21
-18.57767100000003
 31
0.0
  0
LINE
  5
250BE
330
24D8F
100
AcDbEntity
  8
12
 62
     0
370
    -2
100
AcDbLine
 10
20.90253099999999
 20
21.12232899999999
 30
0.0
 11
64.81111599999998
 21
21.12232899999997
 31
0.0
  0
LINE
  5
250BF
330
24D8F
100
AcDbEntity
  8
12
 62
     0
370
    -2
100
AcDbLine
 10
63.56111599999998
 20
-16.07767100000003
 30
0.0
 11
63.56111600000001
 21
18.62232899999997
 31
0.0
  0
SOLID
  5
250C0
330
24D8F
100
AcDbEntity
  8
12
 62
     0
100
AcDbTrace
 10
63.14444933333332
 20
-16.07767100000003
 30
0.0
 11
63.97778266666665
 21
-16.07767100000003
 31
0.0
 12
63.56111599999998
 22
-18.57767100000003
 32
0.0
 13
63.56111599999998
 23
-18.57767100000003
 33
0.0
  0
SOLID
  5
250C1
330
24D8F
100
AcDbEntity
  8
12
 62
     0
100
AcDbTrace
 10
63.14444933333334
 20
18.62232899999997
 30
0.0
 11
63.97778266666666
 21
18.62232899999997
 31
0.0
 12
63.56111600000001
 22
21.12232899999997
 32
0.0
 13
63.56111600000001
 23
21.12232899999997
 33
0.0
  0
MTEXT
  5
250C2
330
24D8F
100
AcDbEntity
  8
12
 62
     0
100
AcDbMText
 10
61.18611599999999
 20
1.124959999999979
 30
0.0
 40
3.5
 41
0.0
 71
     5
 72
     1
  1
%%c39.7
  7
SIMPLEX
 11
0.0000000000000001
 21
1.0
 31
0.0
 73
     1
 44
1.0
1001
ACAD
1000
MTEXTBEGIN
1070
    73
1070
     1
1070
    44
1040
1.0
1070
    74
1070
     0
1000
MTEXTEND
  0
POINT
  5
250C3
330
24D8F
100
AcDbEntity
  8
DEFPOINTS
 62
     0
100
AcDbPoint
 10
20.90253099999999
 20
-18.57767100000001
 30
0.0
  0
POINT
  5
250C4
330
24D8F
100
AcDbEntity
  8
DEFPOINTS
 62
     0
100
AcDbPoint
 10
20.90253099999999
 20
21.12232899999999
 30
0.0
  0
POINT
  5
250C5
330
24D8F
100
AcDbEntity
  8
DEFPOINTS
 62
     0
100
AcDbPoint
 10
63.56111600000001
 20
21.12232899999997
 30
0.0
  0
ENDBLK
  5
24D9A
330
24D8F
100
AcDbEntity
  8
0
100
AcDbBlockEnd
  0
BLOCK
  5
24D9C
330
24D9B
100
AcDbEntity
  8
0
100
AcDbBlockBegin
  2
*D26
 70
     1
 10
0.0
 20
0.0
 30
0.0
  3
*D26
  1

  0
LINE
  5
250B3
330
24D9B
100
AcDbEntity
  8
20
 62
     0
370
    -2
100
AcDbLine
 10
1.362337999999994
 20
21.27232899999999
 30
0.0
 11
1.362337999999995
 21
47.89732899999999
 31
0.0
  0
LINE
  5
250B4
330
24D9B
100
AcDbEntity
  8
20
 62
     0
370
    -2
100
AcDbLine
 10
121.362338
 20
28.14732899999998
 30
0.0
 11
121.362338
 21
47.89732899999999
 31
0.0
  0
LINE
  5
250B5
330
24D9B
100
AcDbEntity
  8
20
 62
     0
370
    -2
100
AcDbLine
 10
3.862337999999995
 20
46.64732899999999
 30
0.0
 11
58.98733799999998
 21
46.64732899999999
 31
0.0
  0
LINE
  5
250B6
330
24D9B
100
AcDbEntity
  8
20
 62
     0
370
    -2
100
AcDbLine
 10
118.862338
 20
46.64732899999999
 30
0.0
 11
63.73733799999999
 21
46.64732899999999
 31
0.0
  0
SOLID
  5
250B7
330
24D9B
100
AcDbEntity
  8
20
 62
     0
100
AcDbTrace
 10
3.862337999999995
 20
47.06399566666664
 30
0.0
 11
3.862337999999995
 21
46.23066233333331
 31
0.0
 12
1.362337999999995
 22
46.64732899999999
 32
0.0
 13
1.362337999999995
 23
46.64732899999999
 33
0.0
  0
SOLID
  5
250B8
330
24D9B
100
AcDbEntity
  8
20
 62
     0
100
AcDbTrace
 10
118.862338
 20
47.06399566666664
 30
0.0
 11
118.862338
 21
46.23066233333331
 31
0.0
 12
121.362338
 22
46.64732899999999
 32
0.0
 13
121.362338
 23
46.64732899999999
 33
0.0
  0
MTEXT
  5
250B9
330
24D9B
100
AcDbEntity
  8
20
 62
     0
100
AcDbMText
 10
61.36233799999999
 20
46.64732899999999
 30
0.0
 40
3.5
 41
0.0
 71
     5
 72
     1
  1
120.0
  7
SIMPLEX
 11
0.0000000349065848
 21
0.9999999999999994
 31
0.0
 73
     1
 44
1.0
1001
ACAD
1000
MTEXTBEGIN
1070
    73
1070
     1
1070
    44
1040
1.0
1070
    74
1070
     0
1000
MTEXTEND
  0
POINT
  5
250BA
330
24D9B
100
AcDbEntity
  8
DEFPOINTS
 62
     0
100
AcDbPoint
 10
1.362337999999994
 20
21.27232899999999
 30
0.0
  0
POINT
  5
250BB
330
24D9B
100
AcDbEntity
  8
DEFPOINTS
 62
     0
100
AcDbPoint
 10
121.362338
 20
28.14732899999998
 30
0.0
  0
POINT
  5
250BC
330
24D9B
100
AcDbEntity
  8
DEFPOINTS
 62
     0
100
AcDbPoint
 10
121.362338
 20
46.64732899999999
 30
0.0
  0
ENDBLK
  5
24DA7
330
24D9B
100
AcDbEntity
  8
0
100
AcDbBlockEnd
  0
BLOCK
  5
24DA9
330
24DA8
100
AcDbEntity
  8
0
100
AcDbBlockBegin
  2
*D27
 70
     1
 10
0.0
 20
0.0
 30
0.0
  3
*D27
  1

  0
LINE
  5
250A9
330
24DA8
100
AcDbEntity
  8
12
 62
     0
370
    -2
100
AcDbLine
 10
20.90253099999999
 20
21.12232899999999
 30
0.0
 11
20.90253099999999
 21
37.89732899999997
 31
0.0
  0
LINE
  5
250AA
330
24DA8
100
AcDbEntity
  8
12
 62
     0
370
    -2
100
AcDbLine
 10
121.362338
 20
28.14732899999998
 30
0.0
 11
121.362338
 21
37.89732899999997
 31
0.0
  0
LINE
  5
250AB
330
24DA8
100
AcDbEntity
  8
12
 62
     0
370
    -2
100
AcDbLine
 10
23.40253099999999
 20
36.64732899999997
 30
0.0
 11
68.75743499999998
 21
36.64732899999997
 31
0.0
  0
LINE
  5
250AC
330
24DA8
100
AcDbEntity
  8
12
 62
     0
370
    -2
100
AcDbLine
 10
118.862338
 20
36.64732899999997
 30
0.0
 11
73.50743499999999
 21
36.64732899999997
 31
0.0
  0
SOLID
  5
250AD
330
24DA8
100
AcDbEntity
  8
12
 62
     0
100
AcDbTrace
 10
23.40253099999999
 20
37.06399566666664
 30
0.0
 11
23.40253099999999
 21
36.2306623333333
 31
0.0
 12
20.90253099999999
 22
36.64732899999997
 32
0.0
 13
20.90253099999999
 23
36.64732899999997
 33
0.0
  0
SOLID
  5
250AE
330
24DA8
100
AcDbEntity
  8
12
 62
     0
100
AcDbTrace
 10
118.862338
 20
37.06399566666664
 30
0.0
 11
118.862338
 21
36.2306623333333
 31
0.0
 12
121.362338
 22
36.64732899999997
 32
0.0
 13
121.362338
 23
36.64732899999997
 33
0.0
  0
MTEXT
  5
250AF
330
24DA8
100
AcDbEntity
  8
12
 62
     0
100
AcDbMText
 10
71.13243499999999
 20
36.64732899999997
 30
0.0
 40
3.5
 41
0.0
 71
     5
 72
     1
  1
100.5
  7
SIMPLEX
 11
0.0000000349065848
 21
0.9999999999999994
 31
0.0
 73
     1
 44
1.0
1001
ACAD
1000
MTEXTBEGIN
1070
    73
1070
     1
1070
    44
1040
1.0
1070
    74
1070
     0
1000
MTEXTEND
  0
POINT
  5
250B0
330
24DA8
100
AcDbEntity
  8
DEFPOINTS
 62
     0
100
AcDbPoint
 10
20.90253099999999
 20
21.12232899999999
 30
0.0
  0
POINT
  5
250B1
330
24DA8
100
AcDbEntity
  8
DEFPOINTS
 62
     0
100
AcDbPoint
 10
121.362338
 20
28.14732899999998
 30
0.0
  0
POINT
  5
250B2
330
24DA8
100
AcDbEntity
  8
DEFPOINTS
 62
     0
100
AcDbPoint
 10
121.362338
 20
36.64732899999997
 30
0.0
  0
ENDBLK
  5
24DB4
330
24DA8
100
AcDbEntity
  8
0
100
AcDbBlockEnd
  0
BLOCK
  5
24DB6
330
24DB5
100
AcDbEntity
  8
0
100
AcDbBlockBegin
  2
*D28
 70
     1
 10
0.0
 20
0.0
 30
0.0
  3
*D28
  1

  0
LINE
  5
2509D
330
24DB5
100
AcDbEntity
  8
20
 62
     0
370
    -2
100
AcDbLine
 10
120.891052
 20
1.147328999999976
 30
0.0
 11
120.4031661907604
 21
-26.8021330325851
 31
0.0
  0
LINE
  5
2509E
330
24DB5
100
AcDbEntity
  8
20
 62
     0
370
    -2
100
AcDbLine
 10
130.3206719999999
 20
1.272328999999984
 30
0.0
 11
148.9719730186366
 21
1.272328999999956
 31
0.0
  0
ARC
  5
2509F
330
24DB5
100
AcDbEntity
  8
20
 62
     0
370
    -2
100
AcDbCircle
 10
120.893234
 20
1.272328999999976
 30
0.0
 40
26.82873901863675
100
AcDbArc
 50
274.3409102246475
 51
308.7061545948407
  0
ARC
  5
250A0
330
24DB5
100
AcDbEntity
  8
20
 62
     0
370
    -2
100
AcDbCircle
 10
120.893234
 20
1.272328999999976
 30
0.0
 40
26.82873901863675
100
AcDbArc
 50
320.2937915708072
 51
354.6590362160076
  0
SOLID
  5
250A1
330
24DB5
100
AcDbEntity
  8
20
 62
     0
100
AcDbTrace
 10
122.9360664399694
 20
-25.89593717246662
 30
0.0
 11
122.9117744863339
 21
-25.06295797378695
 31
0.0
 12
120.4249828671126
 22
-25.55232343403301
 32
0.0
 13
120.4249828671126
 23
-25.55232343403301
 33
0.0
  0
SOLID
  5
250A2
330
24DB5
100
AcDbEntity
  8
20
 62
     0
100
AcDbTrace
 10
147.1892792767747
 20
-1.205542765950041
 30
0.0
 11
148.0217076193456
 21
-1.244369289475542
 31
0.0
 12
147.7219730186367
 22
1.272328999999969
 32
0.0
 13
147.7219730186367
 23
1.272328999999969
 33
0.0
  0
MTEXT
  5
250A3
330
24DB5
100
AcDbEntity
  8
20
 62
     0
100
AcDbMText
 10
139.6977367837843
 20
-17.86328994438665
 30
0.0
 40
3.5
 41
0.0
 71
     5
 72
     1
  1
91%%d0'
  7
SIMPLEX
 11
0.7009092642998506
 21
-0.7132504491541822
 31
0.0
 73
     1
 44
1.0
1001
ACAD
1000
MTEXTBEGIN
1070
    73
1070
     1
1070
    44
1040
1.0
1070
    74
1070
     0
1000
MTEXTEND
  0
POINT
  5
250A4
330
24DB5
100
AcDbEntity
  8
DEFPOINTS
 62
     0
100
AcDbPoint
 10
134.0363428227768
 20
-22.116555706261
 30
0.0
  0
POINT
  5
250A5
330
24DB5
100
AcDbEntity
  8
DEFPOINTS
 62
     0
100
AcDbPoint
 10
120.893234
 20
1.272328999999984
 30
-1.947129
  0
POINT
  5
250A6
330
24DB5
100
AcDbEntity
  8
DEFPOINTS
 62
     0
100
AcDbPoint
 10
130.3206719999999
 20
1.272328999999984
 30
-1.947129
  0
POINT
  5
250A7
330
24DB5
100
AcDbEntity
  8
DEFPOINTS
 62
     0
100
AcDbPoint
 10
120.893234
 20
1.272328999999984
 30
-1.947129
  0
POINT
  5
250A8
330
24DB5
100
AcDbEntity
  8
DEFPOINTS
 62
     0
100
AcDbPoint
 10
120.891052
 20
1.147328999999976
 30
-1.947129
  0
ENDBLK
  5
24DC3
330
24DB5
100
AcDbEntity
  8
0
100
AcDbBlockEnd
  0
BLOCK
  5
24DC7
330
24DC4
100
AcDbEntity
  8
0
100
AcDbBlockBegin
  2
_Zeropoint.dwg
 70
     0
 10
0.0
 20
0.0
 30
0.0
  3
_Zeropoint.dwg
  1

  0
HATCH
  5
24DC8
330
24DC4
100
AcDbEntity
  8
2
100
AcDbHatch
 10
0.0
 20
0.0
 30
0.0
210
0.0
220
0.0
230
1.0
  2
_USER
 70
     0
 71
     1
 91
        2
 92
        7
 72
     1
 73
     1
 93
        3
 10
-2.5
 20
0.0
 42
0.4142135623730951
 10
0.0
 20
-2.5
 42
0.0
 10
0.0
 20
0.0
 42
0.0
 97
        3
330
24DC9
330
24DCB
330
24DCA
 92
        7
 72
     1
 73
     1
 93
        3
 10
0.0
 20
2.5
 42
0.0
 10
0.0
 20
0.0
 42
0.0
 10
2.5
 20
0.0
 42
0.4142135623730951
 97
        3
330
24DCA
330
24DC9
330
24DCB
 75
     0
 76
     0
 52
45.0
 41
0.5
 77
     0
 78
     1
 53
45.0
 43
0.0
 44
0.0
 45
-0.3535533905932737
 46
0.3535533905932738
 79
     0
 47
0.0807540860238484
 98
        2
 10
-1.081351813010084
 20
-0.6749528531090621
 10
1.100054950607727
 20
1.263145885468702
  0
LINE
  5
24DC9
102
{ACAD_REACTORS
330
24DC8
102
}
330
24DC4
100
AcDbEntity
  8
2
100
AcDbLine
 10
5.0
 20
0.0
 30
0.0
 11
-5.0
 21
0.0
 31
0.0
  0
LINE
  5
24DCA
102
{ACAD_REACTORS
330
24DC8
102
}
330
24DC4
100
AcDbEntity
  8
2
100
AcDbLine
 10
0.0
 20
5.0
 30
0.0
 11
0.0
 21
-5.0
 31
0.0
  0
CIRCLE
  5
24DCB
102
{ACAD_REACTORS
330
24DC8
102
}
330
24DC4
100
AcDbEntity
  8
2
100
AcDbCircle
 10
0.0
 20
0.0
 30
0.0
 40
2.5
  0
ENDBLK
  5
24DCC
330
24DC4
100
AcDbEntity
  8
0
100
AcDbBlockEnd
  0
BLOCK
  5
24DCE
330
24DCD
100
AcDbEntity
  8
0
100
AcDbBlockBegin
  2
_nullpunkt
 70
     0
 10
0.0
 20
0.0
 30
0.0
  3
_nullpunkt
  1

  0
INSERT
  5
24DCF
330
24DCD
100
AcDbEntity
  8
0
100
AcDbBlockReference
  2
_Zeropoint.dwg
 10
0.0
 20
0.0
 30
0.0
  0
ENDBLK
  5
24DD0
330
24DCD
100
AcDbEntity
  8
0
100
AcDbBlockEnd
  0
ENDSEC
  0
SECTION
  2
ENTITIES
  0
POINT
  5
24E0A
330
18
100
AcDbEntity
  8
81
100
AcDbPoint
 10
121.362338
 20
28.14732899999998
 30
-1.947129
 50
90.0
  0
POINT
  5
24E0B
330
18
100
AcDbEntity
  8
80
100
AcDbPoint
 10
1.362337999999994
 20
1.272328999999998
 30
-1.947129
 50
90.0
  0
LINE
  5
24E0C
330
18
100
AcDbEntity
  8
1
100
AcDbLine
 10
120.504649
 20
9.61503799999998
 30
-1.947129
 11
111.332943
 21
-5.281753000000017
 31
-1.947129
  0
LINE
  5
24E0D
330
18
100
AcDbEntity
  8
1
100
AcDbLine
 10
111.332943
 20
-5.281753000000017
 30
-1.947129
 11
99.17856899999998
 21
-12.29908400000001
 31
-1.947129
  0
LINE
  5
24E0E
330
18
100
AcDbEntity
  8
1
100
AcDbLine
 10
107.775509
 20
20.91462199999998
 30
-1.947129
 11
120.82202
 21
27.79723799999998
 31
-1.947129
  0
LINE
  5
24E0F
330
18
100
AcDbEntity
  8
1
100
AcDbLine
 10
115.961283
 20
2.235649999999981
 30
-1.947129
 11
99.796378
 21
12.14799599999998
 31
-1.947129
  0
LINE
  5
24E10
330
18
100
AcDbEntity
  8
1
100
AcDbLine
 10
20.862338
 20
21.27232899999999
 30
-1.947129
 11
20.90253099999999
 21
21.12232899999999
 31
-1.947129
  0
LINE
  5
24E11
330
18
100
AcDbEntity
  8
1
100
AcDbLine
 10
20.90253099999999
 20
21.12232899999999
 30
-1.947129
 11
103.703779
 21
21.12232899999998
 31
-1.947129
  0
LINE
  5
24E12
330
18
100
AcDbEntity
  8
1
100
AcDbLine
 10
20.862338
 20
-18.72767099999999
 30
-1.947129
 11
20.90253099999999
 21
-18.57767100000001
 31
-1.947129
  0
LINE
  5
24E13
330
18
100
AcDbEntity
  8
1
100
AcDbLine
 10
20.90253099999999
 20
-18.57767100000001
 30
-1.947129
 11
88.303738
 21
-18.57767100000001
 31
-1.947129
  0
LINE
  5
24E14
330
18
100
AcDbEntity
  8
1
100
AcDbLine
 10
20.862338
 20
-18.72767099999999
 30
-1.947129
 11
20.862338
 21
21.27232899999999
 31
-1.947129
  0
LINE
  5
24E15
330
18
100
AcDbEntity
  8
1
100
AcDbLine
 10
21.44328599999999
 20
21.12232899999999
 30
-1.947129
 11
103.703779
 21
21.12232899999998
 31
-1.947129
  0
LINE
  5
24E16
330
18
100
AcDbEntity
  8
1
100
AcDbLine
 10
21.44328599999999
 20
-18.57767100000001
 30
-1.947129
 11
88.303738
 21
-18.57767100000001
 31
-1.947129
  0
LINE
  5
24E17
330
18
100
AcDbEntity
  8
1
100
AcDbLine
 10
98.069973
 20
15.78067699999998
 30
-1.947129
 11
98.069973
 21
21.12232899999998
 31
-1.947129
  0
LINE
  5
24E18
330
18
100
AcDbEntity
  8
1
100
AcDbLine
 10
97.02579599999999
 20
17.03842099999998
 30
-1.947129
 11
97.02579599999999
 21
21.12232899999998
 31
-1.947129
  0
LINE
  5
24E19
330
18
100
AcDbEntity
  8
1
100
AcDbLine
 10
20.862338
 20
-18.72767099999999
 30
-1.947129
 11
1.362337999999994
 21
-18.72767099999999
 31
-1.947129
  0
LINE
  5
24E1A
330
18
100
AcDbEntity
  8
1
100
AcDbLine
 10
1.362337999999994
 20
-18.72767099999999
 30
-1.947129
 11
1.362337999999994
 21
21.27232899999999
 31
-1.947129
  0
LINE
  5
24E1B
330
18
100
AcDbEntity
  8
11
100
AcDbLine
 10
-22.63766199999991
 20
-11.901446
 30
-1.947129
 11
-22.63766199999991
 21
14.44610399999999
 31
-1.947129
  0
LINE
  5
24E1C
330
18
100
AcDbEntity
  8
11
100
AcDbLine
 10
-0.237661999999915
 20
-12.790171
 30
-1.947129
 11
-0.237661999999915
 21
15.33482899999999
 31
-1.947129
  0
LINE
  5
24E1D
330
18
100
AcDbEntity
  8
11
100
AcDbLine
 10
1.362337999999994
 20
-12.64012400000001
 30
-1.947129
 11
-0.237661999999915
 21
-12.60012100000001
 31
-1.947129
  0
LINE
  5
24E1E
330
18
100
AcDbEntity
  8
11
100
AcDbLine
 10
-0.237661999999915
 20
15.14477899999999
 30
-1.947129
 11
1.366088000000089
 21
15.18487599999999
 31
-1.947129
  0
LINE
  5
24E1F
330
18
100
AcDbEntity
  8
1
100
AcDbLine
 10
8.025735999999994
 20
7.442134999999987
 30
-1.947129
 11
8.025746999999981
 21
20.29691899999999
 31
-1.947129
  0
LINE
  5
24E20
330
18
100
AcDbEntity
  8
1
100
AcDbLine
 10
8.285542999999975
 20
7.132292999999997
 30
-1.947129
 11
8.285542999999975
 21
20.39458899999999
 31
-1.947129
  0
LINE
  5
24E21
330
18
100
AcDbEntity
  8
1
100
AcDbLine
 10
10.439133
 20
7.132292999999997
 30
-1.947129
 11
10.439133
 21
20.39458899999999
 31
-1.947129
  0
LINE
  5
24E22
330
18
100
AcDbEntity
  8
1
100
AcDbLine
 10
10.69894100000009
 20
7.442134999999987
 30
-1.947129
 11
10.69893000000009
 21
20.29691899999999
 31
-1.947129
  0
LINE
  5
24E23
330
18
100
AcDbEntity
  8
1
100
AcDbLine
 10
8.025735999999994
 20
-4.897478000000009
 30
-1.947129
 11
8.025746999999981
 21
-17.75226200000001
 31
-1.947129
  0
LINE
  5
24E24
330
18
100
AcDbEntity
  8
1
100
AcDbLine
 10
8.285542999999975
 20
-4.587635000000007
 30
-1.947129
 11
8.285542999999975
 21
-17.84993100000002
 31
-1.947129
  0
LINE
  5
24E25
330
18
100
AcDbEntity
  8
1
100
AcDbLine
 10
10.439133
 20
-4.587635000000007
 30
-1.947129
 11
10.439133
 21
-17.84993100000002
 31
-1.947129
  0
LINE
  5
24E26
330
18
100
AcDbEntity
  8
1
100
AcDbLine
 10
10.69894100000009
 20
-4.897478000000009
 30
-1.947129
 11
10.69893000000009
 21
-17.75226200000001
 31
-1.947129
  0
LINE
  5
24E27
330
18
100
AcDbEntity
  8
11
100
AcDbLine
 10
-22.13766199999991
 20
-12.19012100000002
 30
-1.947129
 11
-22.13766199999991
 21
14.73477899999999
 31
-1.947129
  0
LINE
  5
24E28
330
18
100
AcDbEntity
  8
1
100
AcDbLine
 10
20.862338
 20
21.27232899999999
 30
-1.947129
 11
1.362337999999994
 21
21.27232899999999
 31
-1.947129
  0
LINE
  5
24E29
330
18
100
AcDbEntity
  8
11
100
AcDbLine
 10
-0.237661999999915
 20
-12.790171
 30
-1.947129
 11
-22.13766199999991
 21
-12.19012100000002
 31
-1.947129
  0
LINE
  5
24E2A
330
18
100
AcDbEntity
  8
11
100
AcDbLine
 10
-0.237661999999915
 20
15.33482899999999
 30
-1.947129
 11
-22.13766199999991
 21
14.73477899999999
 31
-1.947129
  0
LINE
  5
24E2B
330
18
100
AcDbEntity
  8
11
100
AcDbLine
 10
-22.63766199999991
 20
-11.901446
 30
-1.947129
 11
-22.13766199999991
 21
-12.19012100000002
 31
-1.947129
  0
LINE
  5
24E2C
330
18
100
AcDbEntity
  8
11
100
AcDbLine
 10
-22.63766199999991
 20
14.44610399999999
 30
-1.947129
 11
-22.13766199999991
 21
14.73477899999999
 31
-1.947129
  0
LINE
  5
24E2D
330
18
100
AcDbEntity
  8
1
100
AcDbLine
 10
121.362215
 20
27.33817899999998
 30
-1.947129
 11
121.1267
 21
13.84552399999998
 31
-1.947129
  0
LINE
  5
24E2E
330
18
100
AcDbEntity
  8
1
100
AcDbLine
 10
119.930796
 20
13.21463099999998
 30
-1.947129
 11
108.21179
 21
20.40074499999998
 31
-1.947129
  0
LINE
  5
24E2F
330
18
100
AcDbEntity
  8
1
100
AcDbLine
 10
108.235351
 20
21.75051999999998
 30
-1.947129
 11
120.189872
 21
28.05706199999998
 31
-1.947129
  0
LINE
  5
24E30
330
18
100
AcDbEntity
  8
1
100
AcDbLine
 10
117.193886
 20
3.071503999999977
 30
-1.947129
 11
120.325289
 21
8.148878999999981
 31
-1.947129
  0
LINE
  5
24E31
330
18
100
AcDbEntity
  8
1
100
AcDbLine
 10
120.926559
 20
9.215928999999981
 30
-1.947129
 11
116.904835
 21
2.69957199999999
 31
-1.947129
  0
LINE
  5
24E32
330
18
100
AcDbEntity
  8
1
100
AcDbLine
 10
116.672679
 20
2.313496999999994
 30
-1.947129
 11
116.700992
 21
2.36374199999998
 31
-1.947129
  0
LINE
  5
24E33
330
18
100
AcDbEntity
  8
1
100
AcDbLine
 10
105.156057
 20
18.88642599999998
 30
-1.947129
 11
101.134334
 21
12.37006799999998
 31
-1.947129
  0
LINE
  5
24E34
330
18
100
AcDbEntity
  8
1
100
AcDbLine
 10
100.902178
 20
11.98399399999998
 30
-1.947129
 11
100.930491
 21
12.03423899999998
 31
-1.947129
  0
LINE
  5
24E35
330
18
100
AcDbEntity
  8
1
100
AcDbLine
 10
107.821915
 20
20.24915699999998
 30
-1.947129
 11
112.678431
 21
17.27113399999998
 31
-1.947129
  0
LINE
  5
24E36
330
18
100
AcDbEntity
  8
1
100
AcDbLine
 10
108.21179
 20
20.40074499999998
 30
-1.947129
 11
112.855951
 21
17.55293799999998
 31
-1.947129
  0
LINE
  5
24E37
330
18
100
AcDbEntity
  8
1
100
AcDbLine
 10
116.700992
 20
2.36374199999998
 30
-1.947129
 11
100.930491
 21
12.03423899999998
 31
-1.947129
  0
LINE
  5
24E38
330
18
100
AcDbEntity
  8
1
100
AcDbLine
 10
116.904835
 20
2.69957199999999
 30
-1.947129
 11
101.134334
 21
12.37006799999998
 31
-1.947129
  0
LINE
  5
24E39
330
18
100
AcDbEntity
  8
1
100
AcDbLine
 10
120.926559
 20
9.215928999999981
 30
-1.947129
 11
120.325289
 21
8.148878999999981
 31
-1.947129
  0
LINE
  5
24E3A
330
18
100
AcDbEntity
  8
1
100
AcDbLine
 10
120.926559
 20
9.215928999999981
 30
-1.947129
 11
120.944785
 21
12.20219199999998
 31
-1.947129
  0
LINE
  5
24E3B
330
18
100
AcDbEntity
  8
1
100
AcDbLine
 10
120.909949
 20
12.61421299999998
 30
-1.947129
 11
120.696025
 21
12.63896499999998
 31
-1.947129
  0
LINE
  5
24E3C
330
18
100
AcDbEntity
  8
1
100
AcDbLine
 10
120.62245
 20
12.50839399999998
 30
-1.947129
 11
120.310326
 21
11.40207299999998
 31
-1.947129
  0
LINE
  5
24E3D
330
18
100
AcDbEntity
  8
1
100
AcDbLine
 10
120.33482
 20
9.496117999999981
 30
-1.947129
 11
120.308009
 21
10.44287599999999
 31
-1.947129
  0
LINE
  5
24E3E
330
18
100
AcDbEntity
  8
1
100
AcDbLine
 10
120.336262
 20
9.314473999999981
 30
-1.947129
 11
120.325289
 21
8.148878999999981
 31
-1.947129
  0
LINE
  5
24E3F
330
18
100
AcDbEntity
  8
1
100
AcDbLine
 10
115.506637
 20
10.14428699999999
 30
-1.947129
 11
115.806003
 21
10.62934699999998
 31
-1.947129
  0
LINE
  5
24E40
330
18
100
AcDbEntity
  8
1
100
AcDbLine
 10
108.431223
 20
14.48294299999998
 30
-1.947129
 11
108.730589
 21
14.96800299999998
 31
-1.947129
  0
LINE
  5
24E41
330
18
100
AcDbEntity
  8
1
100
AcDbLine
 10
120.944785
 20
12.20219199999998
 30
-1.947129
 11
116.088269
 21
15.18021599999998
 31
-1.947129
  0
LINE
  5
24E42
330
18
100
AcDbEntity
  8
1
100
AcDbLine
 10
120.909949
 20
12.61421299999998
 30
-1.947129
 11
116.265789
 21
15.46201999999998
 31
-1.947129
  0
LINE
  5
24E43
330
18
100
AcDbEntity
  8
1
100
AcDbLine
 10
115.787419
 20
14.69275199999998
 30
-1.947129
 11
116.088269
 21
15.18021599999998
 31
-1.947129
  0
LINE
  5
24E44
330
18
100
AcDbEntity
  8
1
100
AcDbLine
 10
112.377581
 20
16.78366999999998
 30
-1.947129
 11
112.678431
 21
17.27113399999998
 31
-1.947129
  0
LINE
  5
24E45
330
18
100
AcDbEntity
  8
1
100
AcDbLine
 10
112.833476
 20
17.49355599999998
 30
-1.947129
 11
116.243314
 21
15.40263699999998
 31
-1.947129
  0
LINE
  5
24E46
330
18
100
AcDbEntity
  8
1
100
AcDbLine
 10
105.156057
 20
18.88642599999998
 30
-1.947129
 11
107.821915
 21
20.24915699999998
 31
-1.947129
  0
LINE
  5
24E47
330
18
100
AcDbEntity
  8
1
100
AcDbLine
 10
120.891052
 20
1.14732899999998
 30
-1.947129
 11
120.892797
 21
1.247328999999979
 31
-1.947129
  0
LINE
  5
24E48
330
18
100
AcDbEntity
  8
1
100
AcDbLine
 10
121.362338
 20
28.14732899999998
 30
-1.947129
 11
121.362338
 21
28.24732899999998
 31
-1.947129
  0
LINE
  5
24E49
330
18
100
AcDbEntity
  8
1
100
AcDbLine
 10
88.30372999999999
 20
-18.57767500000002
 30
-1.947129
 11
96.19025299999998
 21
-14.024389
 31
-1.947129
  0
LINE
  5
24E4A
330
18
100
AcDbEntity
  8
1
100
AcDbLine
 10
99.17856899999998
 20
-12.29908400000001
 30
-1.947129
 11
96.19025299999998
 21
-14.024389
 31
-1.947129
  0
ARC
  5
24E4B
330
18
100
AcDbEntity
  8
1
100
AcDbCircle
 10
21.44328599999999
 20
22.32232899999999
 30
-1.947129
 40
1.199999999999999
100
AcDbArc
 50
241.0449760000002
 51
270.0
  0
ARC
  5
24E4C
330
18
100
AcDbEntity
  8
1
100
AcDbCircle
 10
21.44328599999999
 20
-19.77767100000001
 30
-1.947129
 40
1.199999999999999
100
AcDbArc
 50
90.0
 51
118.9550239999997
  0
CIRCLE
  5
24E4D
330
18
100
AcDbEntity
  8
1
100
AcDbCircle
 10
71.05361599999998
 20
1.272328999999998
 30
-1.947129
 40
3.007499999999998
  0
LWPOLYLINE
  5
24E4E
330
18
100
AcDbEntity
  8
1
100
AcDbPolyline
 90
       32
 70
     1
 43
0.0
 38
-1.947129
 10
116.476818
 20
18.89806199999998
 10
116.846946
 20
18.92025999999998
 10
117.204105
 20
19.01345599999998
 10
117.534569
 20
19.17406999999998
 10
117.825638
 20
19.39592999999998
 10
118.066127
 20
19.67050799999998
 10
118.246794
 20
19.98725499999998
 10
118.360696
 20
20.33399599999998
 10
118.403455
 20
20.69740699999998
 10
118.37343
 20
21.06352199999998
 10
118.271772
 20
21.41827199999998
 10
118.10239
 20
21.74802399999998
 10
117.871792
 20
22.04010599999998
 10
117.588841
 20
22.28329299999998
 10
117.264409
 20
22.46823899999998
 10
116.910964
 20
22.58783699999998
 10
116.54209
 20
22.63749199999998
 10
116.171962
 20
22.61529399999998
 10
115.814803
 20
22.52209799999998
 10
115.484339
 20
22.36148399999998
 10
115.19327
 20
22.13962399999998
 10
114.952781
 20
21.86504599999998
 10
114.772114
 20
21.54829899999998
 10
114.658212
 20
21.20155799999998
 10
114.615453
 20
20.83814699999998
 10
114.645478
 20
20.47203199999998
 10
114.747136
 20
20.11728199999998
 10
114.916518
 20
19.78752999999998
 10
115.147116
 20
19.49544799999998
 10
115.430067
 20
19.25226099999998
 10
115.754499
 20
19.06731499999998
 10
116.107944
 20
18.94771699999998
  0
LWPOLYLINE
  5
24E4F
330
18
100
AcDbEntity
  8
1
100
AcDbPolyline
 90
        9
 70
     0
 43
0.0
 38
-1.947129
 10
121.362215
 20
27.33817899999998
 10
121.338837
 20
27.54087499999998
 10
121.263255
 20
27.73175599999998
 10
121.140619
 20
27.89781399999998
 10
120.979288
 20
28.02773199999998
 10
120.790254
 20
28.11265799999998
 10
120.586402
 20
28.14680299999998
 10
120.381623
 20
28.12783999999998
 10
120.189872
 20
28.05706199999998
  0
LINE
  5
24E50
330
18
100
AcDbEntity
  8
1
100
AcDbLine
 10
116.904835
 20
2.69957199999999
 30
-1.947129
 11
116.700992
 21
2.36374199999998
 31
-1.947129
  0
LWPOLYLINE
  5
24E51
330
18
100
AcDbEntity
  8
1
100
AcDbPolyline
 90
        9
 70
     0
 43
0.0
 38
-1.947129
 10
119.930796
 20
13.21463099999998
 10
120.119829
 20
13.12970599999998
 10
120.323682
 20
13.09556099999998
 10
120.528461
 20
13.11452299999998
 10
120.720212
 20
13.18530099999998
 10
120.885867
 20
13.30307099999998
 10
121.014137
 20
13.45980699999998
 10
121.096281
 20
13.64482699999998
 10
121.1267
 20
13.84552399999998
  0
LWPOLYLINE
  5
24E52
330
18
100
AcDbEntity
  8
1
100
AcDbPolyline
 90
        3
 70
     0
 43
0.0
 38
-1.947129
 10
116.672679
 20
2.313496999999994
 10
117.078697
 20
2.894859999999978
 10
117.193886
 20
3.071503999999977
  0
LWPOLYLINE
  5
24E53
330
18
100
AcDbEntity
  8
1
100
AcDbPolyline
 90
        9
 70
     0
 43
0.0
 38
-1.947129
 10
108.235351
 20
21.75051999999998
 10
108.069695
 20
21.63274999999998
 10
107.941425
 20
21.47601499999998
 10
107.859282
 20
21.29099399999998
 10
107.828862
 20
21.09029699999998
 10
107.85224
 20
20.88760199999998
 10
107.927823
 20
20.69672099999998
 10
108.050458
 20
20.53066299999998
 10
108.21179
 20
20.40074499999998
  0
LINE
  5
24E54
330
18
100
AcDbEntity
  8
1
100
AcDbLine
 10
101.134334
 20
12.37006799999998
 30
-1.947129
 11
100.930491
 21
12.03423899999998
 31
-1.947129
  0
LWPOLYLINE
  5
24E55
330
18
100
AcDbEntity
  8
1
100
AcDbPolyline
 90
        9
 70
     0
 43
0.0
 38
-1.947129
 10
103.703779
 20
21.12232899999998
 10
104.17215
 20
20.85920999999999
 10
104.670722
 20
20.65974999999998
 10
105.1905
 20
20.52754799999998
 10
105.722109
 20
20.46498699999999
 10
106.255961
 20
20.47319599999998
 10
106.782424
 20
20.55202799999998
 10
107.292004
 20
20.70005999999998
 10
107.775509
 20
20.91462199999998
  0
LWPOLYLINE
  5
24E56
330
18
100
AcDbEntity
  8
1
100
AcDbPolyline
 90
        9
 70
     0
 43
0.0
 38
-1.947129
 10
98.069973
 20
15.78067699999998
 10
98.102893
 20
15.27571199999998
 10
98.20110499999998
 20
14.77777899999998
 10
98.36298499999999
 20
14.29512099999998
 10
98.585852
 20
13.83572799999998
 10
98.866019
 20
13.40720199999998
 10
99.198847
 20
13.01663799999998
 10
99.578828
 20
12.67050099999998
 10
99.99967099999999
 20
12.37451899999998
  0
LWPOLYLINE
  5
24E57
330
18
100
AcDbEntity
  8
1
100
AcDbPolyline
 90
       17
 70
     0
 43
0.0
 38
-1.947129
 10
97.02579599999999
 20
17.03842099999998
 10
97.03762400000002
 20
16.67540299999998
 10
97.07305900000001
 20
16.31341199999998
 10
97.13195599999998
 20
15.95394899999998
 10
97.21406899999999
 20
15.59850099999998
 10
97.31905799999999
 20
15.24854199999998
 10
97.44648900000001
 20
14.90551999999998
 10
97.595834
 20
14.57085799999998
 10
97.76647400000001
 20
14.24594099999998
 10
97.95770199999999
 20
13.93211599999998
 10
98.16872600000001
 20
13.63068199999998
 10
98.398672
 20
13.34288799999998
 10
98.64658699999999
 20
13.06992599999998
 10
98.91144500000001
 20
12.81292699999998
 10
99.192148
 20
12.57295499999998
 10
99.48753299999999
 20
12.35100499999998
 10
99.796378
 20
12.14799599999998
  0
POLYLINE
  5
24E58
330
18
100
AcDbEntity
  8
1
100
AcDb3dPolyline
 66
     1
 10
0.0
 20
0.0
 30
0.0
 70
    12
 75
     6
  0
VERTEX
  5
24E59
330
24E58
100
AcDbEntity
  8
1
100
AcDbVertex
100
AcDb3dPolylineVertex
 10
10.69894100000009
 20
7.442134999999987
 30
-1.947129
 70
    48
  0
VERTEX
  5
24E5A
330
24E58
100
AcDbEntity
  8
1
100
AcDbVertex
100
AcDb3dPolylineVertex
 10
10.94909499999998
 20
8.348980999999991
 30
-1.947129
 70
    48
  0
VERTEX
  5
24E5B
330
24E58
100
AcDbEntity
  8
1
100
AcDbVertex
100
AcDb3dPolylineVertex
 10
11.17204599999998
 20
9.262975999999991
 30
-1.947129
 70
    48
  0
VERTEX
  5
24E5C
330
24E58
100
AcDbEntity
  8
1
100
AcDbVertex
100
AcDb3dPolylineVertex
 10
11.36086500000009
 20
10.184048
 30
-1.947129
 70
    48
  0
VERTEX
  5
24E5D
330
24E58
100
AcDbEntity
  8
1
100
AcDbVertex
100
AcDb3dPolylineVertex
 10
11.36086500000009
 20
10.184048
 30
-1.947129
 70
    48
  0
VERTEX
  5
24E5E
330
24E58
100
AcDbEntity
  8
1
100
AcDbVertex
100
AcDb3dPolylineVertex
 10
11.71748999999998
 20
11.92368699999999
 30
-1.947129
 70
    48
  0
VERTEX
  5
24E5F
330
24E58
100
AcDbEntity
  8
1
100
AcDbVertex
100
AcDb3dPolylineVertex
 10
11.96448899999998
 20
13.69015899999999
 30
-1.947129
 70
    48
  0
VERTEX
  5
24E60
330
24E58
100
AcDbEntity
  8
1
100
AcDbVertex
100
AcDb3dPolylineVertex
 10
11.95896500000009
 20
15.47781899999998
 30
-1.947129
 70
    48
  0
VERTEX
  5
24E61
330
24E58
100
AcDbEntity
  8
1
100
AcDbVertex
100
AcDb3dPolylineVertex
 10
11.95896500000009
 20
15.47781899999998
 30
-1.947129
 70
    48
  0
VERTEX
  5
24E62
330
24E58
100
AcDbEntity
  8
1
100
AcDbVertex
100
AcDb3dPolylineVertex
 10
11.95697199999999
 20
16.12279399999999
 30
-1.947129
 70
    48
  0
VERTEX
  5
24E63
330
24E58
100
AcDbEntity
  8
1
100
AcDbVertex
100
AcDb3dPolylineVertex
 10
11.9229450000002
 20
16.74743999999998
 30
-1.947129
 70
    48
  0
VERTEX
  5
24E64
330
24E58
100
AcDbEntity
  8
1
100
AcDbVertex
100
AcDb3dPolylineVertex
 10
11.70392199999999
 20
18.22228299999999
 30
-1.947129
 70
    48
  0
VERTEX
  5
24E65
330
24E58
100
AcDbEntity
  8
1
100
AcDbVertex
100
AcDb3dPolylineVertex
 10
11.51626500000009
 20
18.98973799999999
 30
-1.947129
 70
    48
  0
VERTEX
  5
24E66
330
24E58
100
AcDbEntity
  8
1
100
AcDbVertex
100
AcDb3dPolylineVertex
 10
10.97090200000008
 20
19.94310899999999
 30
-1.947129
 70
    48
  0
VERTEX
  5
24E67
330
24E58
100
AcDbEntity
  8
1
100
AcDbVertex
100
AcDb3dPolylineVertex
 10
10.85491999999998
 20
20.11353099999999
 30
-1.947129
 70
    48
  0
VERTEX
  5
24E68
330
24E58
100
AcDbEntity
  8
1
100
AcDbVertex
100
AcDb3dPolylineVertex
 10
10.69893000000009
 20
20.29691899999999
 30
-1.947129
 70
    48
  0
VERTEX
  5
24E69
330
24E58
100
AcDbEntity
  8
1
100
AcDbVertex
100
AcDb3dPolylineVertex
 10
10.69894100000009
 20
7.442134999999987
 30
-1.947129
 70
    40
  0
VERTEX
  5
24E6A
330
24E58
100
AcDbEntity
  8
1
100
AcDbVertex
100
AcDb3dPolylineVertex
 10
10.93976999999998
 20
8.351361999999991
 30
-1.947129
 70
    40
  0
VERTEX
  5
24E6B
330
24E58
100
AcDbEntity
  8
1
100
AcDbVertex
100
AcDb3dPolylineVertex
 10
11.16092499999999
 20
9.26533799999999
 30
-1.947129
 70
    40
  0
VERTEX
  5
24E6C
330
24E58
100
AcDbEntity
  8
1
100
AcDbVertex
100
AcDb3dPolylineVertex
 10
11.36086500000009
 20
10.184048
 30
-1.947129
 70
    40
  0
VERTEX
  5
24E6D
330
24E58
100
AcDbEntity
  8
1
100
AcDbVertex
100
AcDb3dPolylineVertex
 10
11.36086500000009
 20
10.184048
 30
-1.947129
 70
    40
  0
VERTEX
  5
24E6E
330
24E58
100
AcDbEntity
  8
1
100
AcDbVertex
100
AcDb3dPolylineVertex
 10
11.52938099999998
 20
11.05607699999999
 30
-1.947129
 70
    40
  0
VERTEX
  5
24E6F
330
24E58
100
AcDbEntity
  8
1
100
AcDbVertex
100
AcDb3dPolylineVertex
 10
11.67565599999999
 20
11.93242199999999
 30
-1.947129
 70
    40
  0
VERTEX
  5
24E70
330
24E58
100
AcDbEntity
  8
1
100
AcDbVertex
100
AcDb3dPolylineVertex
 10
11.79572100000008
 20
12.81292599999999
 30
-1.947129
 70
    40
  0
VERTEX
  5
24E71
330
24E58
100
AcDbEntity
  8
1
100
AcDbVertex
100
AcDb3dPolylineVertex
 10
11.88560699999999
 20
13.69743099999999
 30
-1.947129
 70
    40
  0
VERTEX
  5
24E72
330
24E58
100
AcDbEntity
  8
1
100
AcDbVertex
100
AcDb3dPolylineVertex
 10
11.9413450000002
 20
14.58578099999999
 30
-1.947129
 70
    40
  0
VERTEX
  5
24E73
330
24E58
100
AcDbEntity
  8
1
100
AcDbVertex
100
AcDb3dPolylineVertex
 10
11.95896500000009
 20
15.47781899999998
 30
-1.947129
 70
    40
  0
VERTEX
  5
24E74
330
24E58
100
AcDbEntity
  8
1
100
AcDbVertex
100
AcDb3dPolylineVertex
 10
11.95896500000009
 20
15.47781899999998
 30
-1.947129
 70
    40
  0
VERTEX
  5
24E75
330
24E58
100
AcDbEntity
  8
1
100
AcDbVertex
100
AcDb3dPolylineVertex
 10
11.94517699999998
 20
16.11763299999999
 30
-1.947129
 70
    40
  0
VERTEX
  5
24E76
330
24E58
100
AcDbEntity
  8
1
100
AcDbVertex
100
AcDb3dPolylineVertex
 10
11.90332999999999
 20
16.75358699999999
 30
-1.947129
 70
    40
  0
VERTEX
  5
24E77
330
24E58
100
AcDbEntity
  8
1
100
AcDbVertex
100
AcDb3dPolylineVertex
 10
11.82672299999999
 20
17.39537299999999
 30
-1.947129
 70
    40
  0
VERTEX
  5
24E78
330
24E58
100
AcDbEntity
  8
1
100
AcDbVertex
100
AcDb3dPolylineVertex
 10
11.67586299999999
 20
18.20384999999999
 30
-1.947129
 70
    40
  0
VERTEX
  5
24E79
330
24E58
100
AcDbEntity
  8
1
100
AcDbVertex
100
AcDb3dPolylineVertex
 10
11.57214399999998
 20
18.59582199999999
 30
-1.947129
 70
    40
  0
VERTEX
  5
24E7A
330
24E58
100
AcDbEntity
  8
1
100
AcDbVertex
100
AcDb3dPolylineVertex
 10
11.44312600000009
 20
18.98100099999999
 30
-1.947129
 70
    40
  0
VERTEX
  5
24E7B
330
24E58
100
AcDbEntity
  8
1
100
AcDbVertex
100
AcDb3dPolylineVertex
 10
11.28397799999999
 20
19.36042599999999
 30
-1.947129
 70
    40
  0
VERTEX
  5
24E7C
330
24E58
100
AcDbEntity
  8
1
100
AcDbVertex
100
AcDb3dPolylineVertex
 10
11.08986999999997
 20
19.73513599999998
 30
-1.947129
 70
    40
  0
VERTEX
  5
24E7D
330
24E58
100
AcDbEntity
  8
1
100
AcDbVertex
100
AcDb3dPolylineVertex
 10
10.84317599999998
 20
20.11598199999999
 30
-1.947129
 70
    40
  0
VERTEX
  5
24E7E
330
24E58
100
AcDbEntity
  8
1
100
AcDbVertex
100
AcDb3dPolylineVertex
 10
10.69893000000009
 20
20.29691899999999
 30
-1.947129
 70
    40
  0
SEQEND
  5
24E7F
330
24E58
100
AcDbEntity
  8
1
  0
POLYLINE
  5
24E80
330
18
100
AcDbEntity
  8
1
100
AcDb3dPolyline
 66
     1
 10
0.0
 20
0.0
 30
0.0
 70
    12
 75
     6
  0
VERTEX
  5
24E81
330
24E80
100
AcDbEntity
  8
1
100
AcDbVertex
100
AcDb3dPolylineVertex
 10
8.025735999999994
 20
7.442134999999987
 30
-1.947129
 70
    48
  0
VERTEX
  5
24E82
330
24E80
100
AcDbEntity
  8
1
100
AcDbVertex
100
AcDb3dPolylineVertex
 10
7.984061000000195
 20
7.59321499999999
 30
-1.947129
 70
    48
  0
VERTEX
  5
24E83
330
24E80
100
AcDbEntity
  8
1
100
AcDbVertex
100
AcDb3dPolylineVertex
 10
7.944760999999997
 20
7.744929999999992
 30
-1.947129
 70
    48
  0
VERTEX
  5
24E84
330
24E80
100
AcDbEntity
  8
1
100
AcDbVertex
100
AcDb3dPolylineVertex
 10
7.445639999999997
 20
9.60916499999999
 30
-1.947129
 70
    48
  0
VERTEX
  5
24E85
330
24E80
100
AcDbEntity
  8
1
100
AcDbVertex
100
AcDb3dPolylineVertex
 10
7.08664299999998
 20
11.35035999999999
 30
-1.947129
 70
    48
  0
VERTEX
  5
24E86
330
24E80
100
AcDbEntity
  8
1
100
AcDbVertex
100
AcDb3dPolylineVertex
 10
6.896738999999996
 20
13.11956999999998
 30
-1.947129
 70
    48
  0
VERTEX
  5
24E87
330
24E80
100
AcDbEntity
  8
1
100
AcDbVertex
100
AcDb3dPolylineVertex
 10
6.896738999999996
 20
13.11956999999998
 30
-1.947129
 70
    48
  0
VERTEX
  5
24E88
330
24E80
100
AcDbEntity
  8
1
100
AcDbVertex
100
AcDb3dPolylineVertex
 10
6.82700099999998
 20
13.76927799999999
 30
-1.947129
 70
    48
  0
VERTEX
  5
24E89
330
24E80
100
AcDbEntity
  8
1
100
AcDbVertex
100
AcDb3dPolylineVertex
 10
6.781862000000089
 20
14.41169999999999
 30
-1.947129
 70
    48
  0
VERTEX
  5
24E8A
330
24E80
100
AcDbEntity
  8
1
100
AcDbVertex
100
AcDb3dPolylineVertex
 10
6.752560000000087
 20
15.92219499999998
 30
-1.947129
 70
    48
  0
VERTEX
  5
24E8B
330
24E80
100
AcDbEntity
  8
1
100
AcDbVertex
100
AcDb3dPolylineVertex
 10
6.787350999999986
 20
16.75589899999999
 30
-1.947129
 70
    48
  0
VERTEX
  5
24E8C
330
24E80
100
AcDbEntity
  8
1
100
AcDbVertex
100
AcDb3dPolylineVertex
 10
7.09476999999998
 20
18.56903199999999
 30
-1.947129
 70
    48
  0
VERTEX
  5
24E8D
330
24E80
100
AcDbEntity
  8
1
100
AcDbVertex
100
AcDb3dPolylineVertex
 10
7.329262999999997
 20
19.47810399999999
 30
-1.947129
 70
    48
  0
VERTEX
  5
24E8E
330
24E80
100
AcDbEntity
  8
1
100
AcDbVertex
100
AcDb3dPolylineVertex
 10
8.025746999999981
 20
20.29691899999999
 30
-1.947129
 70
    48
  0
VERTEX
  5
24E8F
330
24E80
100
AcDbEntity
  8
1
100
AcDbVertex
100
AcDb3dPolylineVertex
 10
8.025735999999994
 20
7.442134999999987
 30
-1.947129
 70
    40
  0
VERTEX
  5
24E90
330
24E80
100
AcDbEntity
  8
1
100
AcDbVertex
100
AcDb3dPolylineVertex
 10
7.904230000000082
 20
7.896315999999987
 30
-1.947129
 70
    40
  0
VERTEX
  5
24E91
330
24E80
100
AcDbEntity
  8
1
100
AcDbVertex
100
AcDb3dPolylineVertex
 10
7.481411999999991
 20
9.618600999999999
 30
-1.947129
 70
    40
  0
VERTEX
  5
24E92
330
24E80
100
AcDbEntity
  8
1
100
AcDbVertex
100
AcDb3dPolylineVertex
 10
7.29972699999999
 20
10.48680799999999
 30
-1.947129
 70
    40
  0
VERTEX
  5
24E93
330
24E80
100
AcDbEntity
  8
1
100
AcDbVertex
100
AcDb3dPolylineVertex
 10
7.140433000000085
 20
11.35971099999999
 30
-1.947129
 70
    40
  0
VERTEX
  5
24E94
330
24E80
100
AcDbEntity
  8
1
100
AcDbVertex
100
AcDb3dPolylineVertex
 10
7.005460000000081
 20
12.23730099999999
 30
-1.947129
 70
    40
  0
VERTEX
  5
24E95
330
24E80
100
AcDbEntity
  8
1
100
AcDbVertex
100
AcDb3dPolylineVertex
 10
6.896738999999996
 20
13.11956999999998
 30
-1.947129
 70
    40
  0
VERTEX
  5
24E96
330
24E80
100
AcDbEntity
  8
1
100
AcDbVertex
100
AcDb3dPolylineVertex
 10
6.896738999999996
 20
13.11956999999998
 30
-1.947129
 70
    40
  0
VERTEX
  5
24E97
330
24E80
100
AcDbEntity
  8
1
100
AcDbVertex
100
AcDb3dPolylineVertex
 10
6.792369999999976
 20
14.41580599999999
 30
-1.947129
 70
    40
  0
VERTEX
  5
24E98
330
24E80
100
AcDbEntity
  8
1
100
AcDbVertex
100
AcDb3dPolylineVertex
 10
6.769113000000089
 20
15.06889199999999
 30
-1.947129
 70
    40
  0
VERTEX
  5
24E99
330
24E80
100
AcDbEntity
  8
1
100
AcDbVertex
100
AcDb3dPolylineVertex
 10
6.771786000000089
 20
15.91677999999999
 30
-1.947129
 70
    40
  0
VERTEX
  5
24E9A
330
24E80
100
AcDbEntity
  8
1
100
AcDbVertex
100
AcDb3dPolylineVertex
 10
6.821357999999986
 20
16.75830699999998
 30
-1.947129
 70
    40
  0
VERTEX
  5
24E9B
330
24E80
100
AcDbEntity
  8
1
100
AcDbVertex
100
AcDb3dPolylineVertex
 10
6.93049999999998
 20
17.60018099999999
 30
-1.947129
 70
    40
  0
VERTEX
  5
24E9C
330
24E80
100
AcDbEntity
  8
1
100
AcDbVertex
100
AcDb3dPolylineVertex
 10
7.020301000000087
 20
18.07948399999999
 30
-1.947129
 70
    40
  0
VERTEX
  5
24E9D
330
24E80
100
AcDbEntity
  8
1
100
AcDbVertex
100
AcDb3dPolylineVertex
 10
7.132688000000086
 20
18.54797699999999
 30
-1.947129
 70
    40
  0
VERTEX
  5
24E9E
330
24E80
100
AcDbEntity
  8
1
100
AcDbVertex
100
AcDb3dPolylineVertex
 10
7.278542999999982
 20
19.00481399999999
 30
-1.947129
 70
    40
  0
VERTEX
  5
24E9F
330
24E80
100
AcDbEntity
  8
1
100
AcDbVertex
100
AcDb3dPolylineVertex
 10
7.468749999999985
 20
19.44914699999999
 30
-1.947129
 70
    40
  0
VERTEX
  5
24EA0
330
24E80
100
AcDbEntity
  8
1
100
AcDbVertex
100
AcDb3dPolylineVertex
 10
7.714191000000082
 20
19.88013099999999
 30
-1.947129
 70
    40
  0
VERTEX
  5
24EA1
330
24E80
100
AcDbEntity
  8
1
100
AcDbVertex
100
AcDb3dPolylineVertex
 10
8.025746999999981
 20
20.29691899999999
 30
-1.947129
 70
    40
  0
SEQEND
  5
24EA2
330
24E80
100
AcDbEntity
  8
1
  0
POLYLINE
  5
24EA3
330
18
100
AcDbEntity
  8
1
100
AcDb3dPolyline
 66
     1
 10
0.0
 20
0.0
 30
0.0
 70
    12
 75
     6
  0
VERTEX
  5
24EA4
330
24EA3
100
AcDbEntity
  8
1
100
AcDbVertex
100
AcDb3dPolylineVertex
 10
97.02579599999999
 20
20.23992299999998
 30
-1.947129
 70
    48
  0
VERTEX
  5
24EA5
330
24EA3
100
AcDbEntity
  8
1
100
AcDbVertex
100
AcDb3dPolylineVertex
 10
96.98181499999998
 20
20.23739999999998
 30
-1.947129
 70
    48
  0
VERTEX
  5
24EA6
330
24EA3
100
AcDbEntity
  8
1
100
AcDbVertex
100
AcDb3dPolylineVertex
 10
96.937837
 20
20.23484099999998
 30
-1.947129
 70
    48
  0
VERTEX
  5
24EA7
330
24EA3
100
AcDbEntity
  8
1
100
AcDbVertex
100
AcDb3dPolylineVertex
 10
94.44438599999999
 20
20.08774399999998
 30
-1.947129
 70
    48
  0
VERTEX
  5
24EA8
330
24EA3
100
AcDbEntity
  8
1
100
AcDbVertex
100
AcDb3dPolylineVertex
 10
91.996449
 20
19.84327999999998
 30
-1.947129
 70
    48
  0
VERTEX
  5
24EA9
330
24EA3
100
AcDbEntity
  8
1
100
AcDbVertex
100
AcDb3dPolylineVertex
 10
88.72664300000002
 20
19.11651199999998
 30
-1.947129
 70
    48
  0
VERTEX
  5
24EAA
330
24EA3
100
AcDbEntity
  8
1
100
AcDbVertex
100
AcDb3dPolylineVertex
 10
87.88710799999998
 20
18.89142399999998
 30
-1.947129
 70
    48
  0
VERTEX
  5
24EAB
330
24EA3
100
AcDbEntity
  8
1
100
AcDbVertex
100
AcDb3dPolylineVertex
 10
85.91211899999995
 20
18.23794399999998
 30
-1.947129
 70
    48
  0
VERTEX
  5
24EAC
330
24EA3
100
AcDbEntity
  8
1
100
AcDbVertex
100
AcDb3dPolylineVertex
 10
84.84616800000003
 20
17.79239099999998
 30
-1.947129
 70
    48
  0
VERTEX
  5
24EAD
330
24EA3
100
AcDbEntity
  8
1
100
AcDbVertex
100
AcDb3dPolylineVertex
 10
82.43746999999997
 20
16.48948599999998
 30
-1.947129
 70
    48
  0
VERTEX
  5
24EAE
330
24EA3
100
AcDbEntity
  8
1
100
AcDbVertex
100
AcDb3dPolylineVertex
 10
81.20125199999998
 20
15.64275599999998
 30
-1.947129
 70
    48
  0
VERTEX
  5
24EAF
330
24EA3
100
AcDbEntity
  8
1
100
AcDbVertex
100
AcDb3dPolylineVertex
 10
79.41878100000002
 20
13.67092399999998
 30
-1.947129
 70
    48
  0
VERTEX
  5
24EB0
330
24EA3
100
AcDbEntity
  8
1
100
AcDbVertex
100
AcDb3dPolylineVertex
 10
78.84973600000002
 20
12.87742699999998
 30
-1.947129
 70
    48
  0
VERTEX
  5
24EB1
330
24EA3
100
AcDbEntity
  8
1
100
AcDbVertex
100
AcDb3dPolylineVertex
 10
77.805815
 20
11.09460899999998
 30
-1.947129
 70
    48
  0
VERTEX
  5
24EB2
330
24EA3
100
AcDbEntity
  8
1
100
AcDbVertex
100
AcDb3dPolylineVertex
 10
77.421963
 20
10.21357099999998
 30
-1.947129
 70
    48
  0
VERTEX
  5
24EB3
330
24EA3
100
AcDbEntity
  8
1
100
AcDbVertex
100
AcDb3dPolylineVertex
 10
76.86552099999999
 20
8.089544999999978
 30
-1.947129
 70
    48
  0
VERTEX
  5
24EB4
330
24EA3
100
AcDbEntity
  8
1
100
AcDbVertex
100
AcDb3dPolylineVertex
 10
76.75636899999997
 20
7.20951399999998
 30
-1.947129
 70
    48
  0
VERTEX
  5
24EB5
330
24EA3
100
AcDbEntity
  8
1
100
AcDbVertex
100
AcDb3dPolylineVertex
 10
76.61094699999998
 20
5.25232099999998
 30
-1.947129
 70
    48
  0
VERTEX
  5
24EB6
330
24EA3
100
AcDbEntity
  8
1
100
AcDbVertex
100
AcDb3dPolylineVertex
 10
76.59775599999997
 20
4.302924999999978
 30
-1.947129
 70
    48
  0
VERTEX
  5
24EB7
330
24EA3
100
AcDbEntity
  8
1
100
AcDbVertex
100
AcDb3dPolylineVertex
 10
76.78973399999998
 20
2.575989999999993
 30
-1.947129
 70
    48
  0
VERTEX
  5
24EB8
330
24EA3
100
AcDbEntity
  8
1
100
AcDbVertex
100
AcDb3dPolylineVertex
 10
76.90982699999998
 20
1.942152
 30
-1.947129
 70
    48
  0
VERTEX
  5
24EB9
330
24EA3
100
AcDbEntity
  8
1
100
AcDbVertex
100
AcDb3dPolylineVertex
 10
77.06111599999998
 20
1.272328999999998
 30
-1.947129
 70
    48
  0
VERTEX
  5
24EBA
330
24EA3
100
AcDbEntity
  8
1
100
AcDbVertex
100
AcDb3dPolylineVertex
 10
97.02579599999999
 20
20.23992299999998
 30
-1.947129
 70
    40
  0
VERTEX
  5
24EBB
330
24EA3
100
AcDbEntity
  8
1
100
AcDbVertex
100
AcDb3dPolylineVertex
 10
95.66943999999999
 20
20.15078499999998
 30
-1.947129
 70
    40
  0
VERTEX
  5
24EBC
330
24EA3
100
AcDbEntity
  8
1
100
AcDbVertex
100
AcDb3dPolylineVertex
 10
94.44640900000001
 20
20.04737699999998
 30
-1.947129
 70
    40
  0
VERTEX
  5
24EBD
330
24EA3
100
AcDbEntity
  8
1
100
AcDbVertex
100
AcDb3dPolylineVertex
 10
93.22590099999999
 20
19.91673899999998
 30
-1.947129
 70
    40
  0
VERTEX
  5
24EBE
330
24EA3
100
AcDbEntity
  8
1
100
AcDbVertex
100
AcDb3dPolylineVertex
 10
92.009047
 20
19.75358599999998
 30
-1.947129
 70
    40
  0
VERTEX
  5
24EBF
330
24EA3
100
AcDbEntity
  8
1
100
AcDbVertex
100
AcDb3dPolylineVertex
 10
90.79698200000001
 20
19.55263299999998
 30
-1.947129
 70
    40
  0
VERTEX
  5
24EC0
330
24EA3
100
AcDbEntity
  8
1
100
AcDbVertex
100
AcDb3dPolylineVertex
 10
89.59083899999995
 20
19.30859399999998
 30
-1.947129
 70
    40
  0
VERTEX
  5
24EC1
330
24EA3
100
AcDbEntity
  8
1
100
AcDbVertex
100
AcDb3dPolylineVertex
 10
88.73367
 20
19.10468799999998
 30
-1.947129
 70
    40
  0
VERTEX
  5
24EC2
330
24EA3
100
AcDbEntity
  8
1
100
AcDbVertex
100
AcDb3dPolylineVertex
 10
87.88578299999995
 20
18.87384699999998
 30
-1.947129
 70
    40
  0
VERTEX
  5
24EC3
330
24EA3
100
AcDbEntity
  8
1
100
AcDbVertex
100
AcDb3dPolylineVertex
 10
87.04001899999999
 20
18.61114099999998
 30
-1.947129
 70
    40
  0
VERTEX
  5
24EC4
330
24EA3
100
AcDbEntity
  8
1
100
AcDbVertex
100
AcDb3dPolylineVertex
 10
85.93128499999997
 20
18.21208999999998
 30
-1.947129
 70
    40
  0
VERTEX
  5
24EC5
330
24EA3
100
AcDbEntity
  8
1
100
AcDbVertex
100
AcDb3dPolylineVertex
 10
84.85494999999998
 20
17.75439499999998
 30
-1.947129
 70
    40
  0
VERTEX
  5
24EC6
330
24EA3
100
AcDbEntity
  8
1
100
AcDbVertex
100
AcDb3dPolylineVertex
 10
83.80211399999998
 20
17.22764499999998
 30
-1.947129
 70
    40
  0
VERTEX
  5
24EC7
330
24EA3
100
AcDbEntity
  8
1
100
AcDbVertex
100
AcDb3dPolylineVertex
 10
83.13065499999998
 20
16.84844499999998
 30
-1.947129
 70
    40
  0
VERTEX
  5
24EC8
330
24EA3
100
AcDbEntity
  8
1
100
AcDbVertex
100
AcDb3dPolylineVertex
 10
82.48156599999999
 20
16.44471299999998
 30
-1.947129
 70
    40
  0
VERTEX
  5
24EC9
330
24EA3
100
AcDbEntity
  8
1
100
AcDbVertex
100
AcDb3dPolylineVertex
 10
81.85581199999999
 20
16.01001199999998
 30
-1.947129
 70
    40
  0
VERTEX
  5
24ECA
330
24EA3
100
AcDbEntity
  8
1
100
AcDbVertex
100
AcDb3dPolylineVertex
 10
81.25435899999997
 20
15.53790599999998
 30
-1.947129
 70
    40
  0
VERTEX
  5
24ECB
330
24EA3
100
AcDbEntity
  8
1
100
AcDbVertex
100
AcDb3dPolylineVertex
 10
80.67817199999998
 20
15.02195599999998
 30
-1.947129
 70
    40
  0
VERTEX
  5
24ECC
330
24EA3
100
AcDbEntity
  8
1
100
AcDbVertex
100
AcDb3dPolylineVertex
 10
80.12821700000001
 20
14.45572799999998
 30
-1.947129
 70
    40
  0
VERTEX
  5
24ECD
330
24EA3
100
AcDbEntity
  8
1
100
AcDbVertex
100
AcDb3dPolylineVertex
 10
79.46237699999997
 20
13.66515599999998
 30
-1.947129
 70
    40
  0
VERTEX
  5
24ECE
330
24EA3
100
AcDbEntity
  8
1
100
AcDbVertex
100
AcDb3dPolylineVertex
 10
78.87091999999999
 20
12.85156699999998
 30
-1.947129
 70
    40
  0
VERTEX
  5
24ECF
330
24EA3
100
AcDbEntity
  8
1
100
AcDbVertex
100
AcDb3dPolylineVertex
 10
78.33463799999998
 20
11.99773799999998
 30
-1.947129
 70
    40
  0
VERTEX
  5
24ED0
330
24EA3
100
AcDbEntity
  8
1
100
AcDbVertex
100
AcDb3dPolylineVertex
 10
78.08207899999998
 20
11.54689999999998
 30
-1.947129
 70
    40
  0
VERTEX
  5
24ED1
330
24EA3
100
AcDbEntity
  8
1
100
AcDbVertex
100
AcDb3dPolylineVertex
 10
77.85231599999999
 20
11.09305599999998
 30
-1.947129
 70
    40
  0
VERTEX
  5
24ED2
330
24EA3
100
AcDbEntity
  8
1
100
AcDbVertex
100
AcDb3dPolylineVertex
 10
77.64397999999999
 20
10.62951699999998
 30
-1.947129
 70
    40
  0
VERTEX
  5
24ED3
330
24EA3
100
AcDbEntity
  8
1
100
AcDbVertex
100
AcDb3dPolylineVertex
 10
77.455704
 20
10.149596
 30
-1.947129
 70
    40
  0
VERTEX
  5
24ED4
330
24EA3
100
AcDbEntity
  8
1
100
AcDbVertex
100
AcDb3dPolylineVertex
 10
77.28612099999998
 20
9.64660499999999
 30
-1.947129
 70
    40
  0
VERTEX
  5
24ED5
330
24EA3
100
AcDbEntity
  8
1
100
AcDbVertex
100
AcDb3dPolylineVertex
 10
77.133865
 20
9.11385599999998
 30
-1.947129
 70
    40
  0
VERTEX
  5
24ED6
330
24EA3
100
AcDbEntity
  8
1
100
AcDbVertex
100
AcDb3dPolylineVertex
 10
76.91406099999998
 20
8.12894699999998
 30
-1.947129
 70
    40
  0
VERTEX
  5
24ED7
330
24EA3
100
AcDbEntity
  8
1
100
AcDbVertex
100
AcDb3dPolylineVertex
 10
76.77324300000002
 20
7.18808199999998
 30
-1.947129
 70
    40
  0
VERTEX
  5
24ED8
330
24EA3
100
AcDbEntity
  8
1
100
AcDbVertex
100
AcDb3dPolylineVertex
 10
76.68426700000002
 20
6.23911599999999
 30
-1.947129
 70
    40
  0
VERTEX
  5
24ED9
330
24EA3
100
AcDbEntity
  8
1
100
AcDbVertex
100
AcDb3dPolylineVertex
 10
76.63346199999998
 20
5.26069299999999
 30
-1.947129
 70
    40
  0
VERTEX
  5
24EDA
330
24EA3
100
AcDbEntity
  8
1
100
AcDbVertex
100
AcDb3dPolylineVertex
 10
76.63757199999998
 20
4.282638999999997
 30
-1.947129
 70
    40
  0
VERTEX
  5
24EDB
330
24EA3
100
AcDbEntity
  8
1
100
AcDbVertex
100
AcDb3dPolylineVertex
 10
76.71142799999998
 20
3.28039
 30
-1.947129
 70
    40
  0
VERTEX
  5
24EDC
330
24EA3
100
AcDbEntity
  8
1
100
AcDbVertex
100
AcDb3dPolylineVertex
 10
76.80327099999998
 20
2.595565
 30
-1.947129
 70
    40
  0
VERTEX
  5
24EDD
330
24EA3
100
AcDbEntity
  8
1
100
AcDbVertex
100
AcDb3dPolylineVertex
 10
76.92061799999997
 20
1.934102999999993
 30
-1.947129
 70
    40
  0
VERTEX
  5
24EDE
330
24EA3
100
AcDbEntity
  8
1
100
AcDbVertex
100
AcDb3dPolylineVertex
 10
77.06111599999998
 20
1.272328999999998
 30
-1.947129
 70
    40
  0
SEQEND
  5
24EDF
330
24EA3
100
AcDbEntity
  8
1
  0
POLYLINE
  5
24EE0
330
18
100
AcDbEntity
  8
1
100
AcDb2dPolyline
 66
     1
 10
0.0
 20
0.0
 30
-1.947129
 70
     4
 75
     5
  0
VERTEX
  5
24EE1
330
24EE0
100
AcDbEntity
  8
1
100
AcDbVertex
100
AcDb2dVertex
 10
10.439133
 20
7.132292999999997
 30
-1.947129
 70
    16
  0
VERTEX
  5
24EE2
330
24EE0
100
AcDbEntity
  8
1
100
AcDbVertex
100
AcDb2dVertex
 10
9.362338000000079
 20
7.132292999999997
 30
-1.947129
 70
    16
  0
VERTEX
  5
24EE3
330
24EE0
100
AcDbEntity
  8
1
100
AcDbVertex
100
AcDb2dVertex
 10
8.285542999999975
 20
7.132292999999997
 30
-1.947129
 70
    16
  0
VERTEX
  5
24EE4
330
24EE0
100
AcDbEntity
  8
1
100
AcDbVertex
100
AcDb2dVertex
 10
10.439133
 20
7.132292999999997
 30
-1.947129
 70
     8
  0
VERTEX
  5
24EE5
330
24EE0
100
AcDbEntity
  8
1
100
AcDbVertex
100
AcDb2dVertex
 10
8.285542999999975
 20
7.132292999999997
 30
-1.947129
 70
     8
  0
SEQEND
  5
24EE6
330
24EE0
100
AcDbEntity
  8
1
  0
POLYLINE
  5
24EE7
330
18
100
AcDbEntity
  8
1
100
AcDb3dPolyline
 66
     1
 10
0.0
 20
0.0
 30
0.0
 70
    12
 75
     6
  0
VERTEX
  5
24EE8
330
24EE7
100
AcDbEntity
  8
1
100
AcDbVertex
100
AcDb3dPolylineVertex
 10
8.285542999999975
 20
-17.84993100000002
 30
-1.947129
 70
    48
  0
VERTEX
  5
24EE9
330
24EE7
100
AcDbEntity
  8
1
100
AcDbVertex
100
AcDb3dPolylineVertex
 10
8.645618999999982
 20
-17.84993100000002
 30
-1.947129
 70
    48
  0
VERTEX
  5
24EEA
330
24EE7
100
AcDbEntity
  8
1
100
AcDbVertex
100
AcDb3dPolylineVertex
 10
9.005695000000088
 20
-17.84993100000002
 30
-1.947129
 70
    48
  0
VERTEX
  5
24EEB
330
24EE7
100
AcDbEntity
  8
1
100
AcDbVertex
100
AcDb3dPolylineVertex
 10
9.723558000000195
 20
-17.84993100000002
 30
-1.947129
 70
    48
  0
VERTEX
  5
24EEC
330
24EE7
100
AcDbEntity
  8
1
100
AcDbVertex
100
AcDb3dPolylineVertex
 10
10.08134599999998
 20
-17.84993100000002
 30
-1.947129
 70
    48
  0
VERTEX
  5
24EED
330
24EE7
100
AcDbEntity
  8
1
100
AcDbVertex
100
AcDb3dPolylineVertex
 10
10.439133
 20
-17.84993100000002
 30
-1.947129
 70
    48
  0
VERTEX
  5
24EEE
330
24EE7
100
AcDbEntity
  8
1
100
AcDbVertex
100
AcDb3dPolylineVertex
 10
8.285542999999975
 20
-17.84993100000002
 30
-1.947129
 70
    40
  0
VERTEX
  5
24EEF
330
24EE7
100
AcDbEntity
  8
1
100
AcDbVertex
100
AcDb3dPolylineVertex
 10
10.439133
 20
-17.84993100000002
 30
-1.947129
 70
    40
  0
SEQEND
  5
24EF0
330
24EE7
100
AcDbEntity
  8
1
  0
POLYLINE
  5
24EF1
330
18
100
AcDbEntity
  8
1
100
AcDb3dPolyline
 66
     1
 10
0.0
 20
0.0
 30
0.0
 70
    12
 75
     6
  0
VERTEX
  5
24EF2
330
24EF1
100
AcDbEntity
  8
1
100
AcDbVertex
100
AcDb3dPolylineVertex
 10
8.025735999999994
 20
-4.897478000000009
 30
-1.947129
 70
    48
  0
VERTEX
  5
24EF3
330
24EF1
100
AcDbEntity
  8
1
100
AcDbVertex
100
AcDb3dPolylineVertex
 10
7.866299999999981
 20
-5.475456000000008
 30
-1.947129
 70
    48
  0
VERTEX
  5
24EF4
330
24EF1
100
AcDbEntity
  8
1
100
AcDbVertex
100
AcDb3dPolylineVertex
 10
7.719677999999986
 20
-6.049327999999999
 30
-1.947129
 70
    48
  0
VERTEX
  5
24EF5
330
24EF1
100
AcDbEntity
  8
1
100
AcDbVertex
100
AcDb3dPolylineVertex
 10
7.17279899999998
 20
-8.402751999999999
 30
-1.947129
 70
    48
  0
VERTEX
  5
24EF6
330
24EF1
100
AcDbEntity
  8
1
100
AcDbVertex
100
AcDb3dPolylineVertex
 10
6.86794299999998
 20
-10.198371
 30
-1.947129
 70
    48
  0
VERTEX
  5
24EF7
330
24EF1
100
AcDbEntity
  8
1
100
AcDbVertex
100
AcDb3dPolylineVertex
 10
6.728290999999997
 20
-13.27961300000001
 30
-1.947129
 70
    48
  0
VERTEX
  5
24EF8
330
24EF1
100
AcDbEntity
  8
1
100
AcDbVertex
100
AcDb3dPolylineVertex
 10
6.764030999999986
 20
-14.56419599999999
 30
-1.947129
 70
    48
  0
VERTEX
  5
24EF9
330
24EF1
100
AcDbEntity
  8
1
100
AcDbVertex
100
AcDb3dPolylineVertex
 10
7.092849999999982
 20
-15.81444400000001
 30
-1.947129
 70
    48
  0
VERTEX
  5
24EFA
330
24EF1
100
AcDbEntity
  8
1
100
AcDbVertex
100
AcDb3dPolylineVertex
 10
7.092849999999982
 20
-15.81444400000001
 30
-1.947129
 70
    48
  0
VERTEX
  5
24EFB
330
24EF1
100
AcDbEntity
  8
1
100
AcDbVertex
100
AcDb3dPolylineVertex
 10
7.21564499999998
 20
-16.28134400000002
 30
-1.947129
 70
    48
  0
VERTEX
  5
24EFC
330
24EF1
100
AcDbEntity
  8
1
100
AcDbVertex
100
AcDb3dPolylineVertex
 10
7.36383099999999
 20
-16.70354699999999
 30
-1.947129
 70
    48
  0
VERTEX
  5
24EFD
330
24EF1
100
AcDbEntity
  8
1
100
AcDbVertex
100
AcDb3dPolylineVertex
 10
7.735212000000089
 20
-17.37183100000002
 30
-1.947129
 70
    48
  0
VERTEX
  5
24EFE
330
24EF1
100
AcDbEntity
  8
1
100
AcDbVertex
100
AcDb3dPolylineVertex
 10
7.861266
 20
-17.55889100000001
 30
-1.947129
 70
    48
  0
VERTEX
  5
24EFF
330
24EF1
100
AcDbEntity
  8
1
100
AcDbVertex
100
AcDb3dPolylineVertex
 10
8.025746999999981
 20
-17.75226200000001
 30
-1.947129
 70
    48
  0
VERTEX
  5
24F00
330
24EF1
100
AcDbEntity
  8
1
100
AcDbVertex
100
AcDb3dPolylineVertex
 10
8.025735999999994
 20
-4.897478000000009
 30
-1.947129
 70
    40
  0
VERTEX
  5
24F01
330
24EF1
100
AcDbEntity
  8
1
100
AcDbVertex
100
AcDb3dPolylineVertex
 10
7.723441000000077
 20
-6.051940000000016
 30
-1.947129
 70
    40
  0
VERTEX
  5
24F02
330
24EF1
100
AcDbEntity
  8
1
100
AcDbVertex
100
AcDb3dPolylineVertex
 10
7.387891000000081
 20
-7.519704000000007
 30
-1.947129
 70
    40
  0
VERTEX
  5
24F03
330
24EF1
100
AcDbEntity
  8
1
100
AcDbVertex
100
AcDb3dPolylineVertex
 10
7.212607999999987
 20
-8.410795
 30
-1.947129
 70
    40
  0
VERTEX
  5
24F04
330
24EF1
100
AcDbEntity
  8
1
100
AcDbVertex
100
AcDb3dPolylineVertex
 10
7.061538000000082
 20
-9.305485000000018
 30
-1.947129
 70
    40
  0
VERTEX
  5
24F05
330
24EF1
100
AcDbEntity
  8
1
100
AcDbVertex
100
AcDb3dPolylineVertex
 10
6.937914000000089
 20
-10.20345600000002
 30
-1.947129
 70
    40
  0
VERTEX
  5
24F06
330
24EF1
100
AcDbEntity
  8
1
100
AcDbVertex
100
AcDb3dPolylineVertex
 10
6.844966000000082
 20
-11.10439300000001
 30
-1.947129
 70
    40
  0
VERTEX
  5
24F07
330
24EF1
100
AcDbEntity
  8
1
100
AcDbVertex
100
AcDb3dPolylineVertex
 10
6.785925999999986
 20
-12.007978
 30
-1.947129
 70
    40
  0
VERTEX
  5
24F08
330
24EF1
100
AcDbEntity
  8
1
100
AcDbVertex
100
AcDb3dPolylineVertex
 10
6.765814000000089
 20
-12.64465600000001
 30
-1.947129
 70
    40
  0
VERTEX
  5
24F09
330
24EF1
100
AcDbEntity
  8
1
100
AcDbVertex
100
AcDb3dPolylineVertex
 10
6.766812000000084
 20
-13.28217800000001
 30
-1.947129
 70
    40
  0
VERTEX
  5
24F0A
330
24EF1
100
AcDbEntity
  8
1
100
AcDbVertex
100
AcDb3dPolylineVertex
 10
6.79446799999998
 20
-13.91923100000001
 30
-1.947129
 70
    40
  0
VERTEX
  5
24F0B
330
24EF1
100
AcDbEntity
  8
1
100
AcDbVertex
100
AcDb3dPolylineVertex
 10
6.85432699999998
 20
-14.55450199999999
 30
-1.947129
 70
    40
  0
VERTEX
  5
24F0C
330
24EF1
100
AcDbEntity
  8
1
100
AcDbVertex
100
AcDb3dPolylineVertex
 10
6.951939000000081
 20
-15.18667700000001
 30
-1.947129
 70
    40
  0
VERTEX
  5
24F0D
330
24EF1
100
AcDbEntity
  8
1
100
AcDbVertex
100
AcDb3dPolylineVertex
 10
7.092849999999982
 20
-15.81444400000001
 30
-1.947129
 70
    40
  0
VERTEX
  5
24F0E
330
24EF1
100
AcDbEntity
  8
1
100
AcDbVertex
100
AcDb3dPolylineVertex
 10
7.092849999999982
 20
-15.81444400000001
 30
-1.947129
 70
    40
  0
VERTEX
  5
24F0F
330
24EF1
100
AcDbEntity
  8
1
100
AcDbVertex
100
AcDb3dPolylineVertex
 10
7.226745999999977
 20
-16.26877699999999
 30
-1.947129
 70
    40
  0
VERTEX
  5
24F10
330
24EF1
100
AcDbEntity
  8
1
100
AcDbVertex
100
AcDb3dPolylineVertex
 10
7.393393999999986
 20
-16.70730800000001
 30
-1.947129
 70
    40
  0
VERTEX
  5
24F11
330
24EF1
100
AcDbEntity
  8
1
100
AcDbVertex
100
AcDb3dPolylineVertex
 10
7.608618999999976
 20
-17.14403299999999
 30
-1.947129
 70
    40
  0
VERTEX
  5
24F12
330
24EF1
100
AcDbEntity
  8
1
100
AcDbVertex
100
AcDb3dPolylineVertex
 10
7.872632000000081
 20
-17.55925199999999
 30
-1.947129
 70
    40
  0
VERTEX
  5
24F13
330
24EF1
100
AcDbEntity
  8
1
100
AcDbVertex
100
AcDb3dPolylineVertex
 10
8.025746999999981
 20
-17.75226200000001
 30
-1.947129
 70
    40
  0
SEQEND
  5
24F14
330
24EF1
100
AcDbEntity
  8
1
  0
POLYLINE
  5
24F15
330
18
100
AcDbEntity
  8
1
100
AcDb2dPolyline
 66
     1
 10
0.0
 20
0.0
 30
-1.947129
 70
     4
 75
     5
  0
VERTEX
  5
24F16
330
24F15
100
AcDbEntity
  8
1
100
AcDbVertex
100
AcDb2dVertex
 10
10.439133
 20
-4.587635000000007
 30
-1.947129
 70
    16
  0
VERTEX
  5
24F17
330
24F15
100
AcDbEntity
  8
1
100
AcDbVertex
100
AcDb2dVertex
 10
9.362338000000079
 20
-4.587635000000007
 30
-1.947129
 70
    16
  0
VERTEX
  5
24F18
330
24F15
100
AcDbEntity
  8
1
100
AcDbVertex
100
AcDb2dVertex
 10
8.285542999999975
 20
-4.587635000000007
 30
-1.947129
 70
    16
  0
VERTEX
  5
24F19
330
24F15
100
AcDbEntity
  8
1
100
AcDbVertex
100
AcDb2dVertex
 10
10.439133
 20
-4.587635000000007
 30
-1.947129
 70
     8
  0
VERTEX
  5
24F1A
330
24F15
100
AcDbEntity
  8
1
100
AcDbVertex
100
AcDb2dVertex
 10
8.285542999999975
 20
-4.587635000000007
 30
-1.947129
 70
     8
  0
SEQEND
  5
24F1B
330
24F15
100
AcDbEntity
  8
1
  0
POLYLINE
  5
24F1C
330
18
100
AcDbEntity
  8
1
100
AcDb3dPolyline
 66
     1
 10
0.0
 20
0.0
 30
0.0
 70
    12
 75
     6
  0
VERTEX
  5
24F1D
330
24F1C
100
AcDbEntity
  8
1
100
AcDbVertex
100
AcDb3dPolylineVertex
 10
8.285542999999975
 20
20.39458899999999
 30
-1.947129
 70
    48
  0
VERTEX
  5
24F1E
330
24F1C
100
AcDbEntity
  8
1
100
AcDbVertex
100
AcDb3dPolylineVertex
 10
8.645618999999982
 20
20.39458899999999
 30
-1.947129
 70
    48
  0
VERTEX
  5
24F1F
330
24F1C
100
AcDbEntity
  8
1
100
AcDbVertex
100
AcDb3dPolylineVertex
 10
9.005695000000088
 20
20.39458899999999
 30
-1.947129
 70
    48
  0
VERTEX
  5
24F20
330
24F1C
100
AcDbEntity
  8
1
100
AcDbVertex
100
AcDb3dPolylineVertex
 10
9.723558000000195
 20
20.39458899999999
 30
-1.947129
 70
    48
  0
VERTEX
  5
24F21
330
24F1C
100
AcDbEntity
  8
1
100
AcDbVertex
100
AcDb3dPolylineVertex
 10
10.08134599999998
 20
20.39458899999999
 30
-1.947129
 70
    48
  0
VERTEX
  5
24F22
330
24F1C
100
AcDbEntity
  8
1
100
AcDbVertex
100
AcDb3dPolylineVertex
 10
10.439133
 20
20.39458899999999
 30
-1.947129
 70
    48
  0
VERTEX
  5
24F23
330
24F1C
100
AcDbEntity
  8
1
100
AcDbVertex
100
AcDb3dPolylineVertex
 10
8.285542999999975
 20
20.39458899999999
 30
-1.947129
 70
    40
  0
VERTEX
  5
24F24
330
24F1C
100
AcDbEntity
  8
1
100
AcDbVertex
100
AcDb3dPolylineVertex
 10
10.439133
 20
20.39458899999999
 30
-1.947129
 70
    40
  0
SEQEND
  5
24F25
330
24F1C
100
AcDbEntity
  8
1
  0
POLYLINE
  5
24F26
330
18
100
AcDbEntity
  8
1
100
AcDb3dPolyline
 66
     1
 10
0.0
 20
0.0
 30
0.0
 70
    12
 75
     6
  0
VERTEX
  5
24F27
330
24F26
100
AcDbEntity
  8
1
100
AcDbVertex
100
AcDb3dPolylineVertex
 10
10.69894100000009
 20
-4.897478000000009
 30
-1.947129
 70
    48
  0
VERTEX
  5
24F28
330
24F26
100
AcDbEntity
  8
1
100
AcDbVertex
100
AcDb3dPolylineVertex
 10
10.90285700000019
 20
-5.636705000000017
 30
-1.947129
 70
    48
  0
VERTEX
  5
24F29
330
24F26
100
AcDbEntity
  8
1
100
AcDbVertex
100
AcDb3dPolylineVertex
 10
11.08806100000008
 20
-6.377949000000008
 30
-1.947129
 70
    48
  0
VERTEX
  5
24F2A
330
24F26
100
AcDbEntity
  8
1
100
AcDbVertex
100
AcDb3dPolylineVertex
 10
11.64216999999998
 20
-8.907040000000016
 30
-1.947129
 70
    48
  0
VERTEX
  5
24F2B
330
24F26
100
AcDbEntity
  8
1
100
AcDbVertex
100
AcDb3dPolylineVertex
 10
11.920232
 20
-10.71017600000001
 30
-1.947129
 70
    48
  0
VERTEX
  5
24F2C
330
24F26
100
AcDbEntity
  8
1
100
AcDbVertex
100
AcDb3dPolylineVertex
 10
11.97327000000008
 20
-13.43334100000001
 30
-1.947129
 70
    48
  0
VERTEX
  5
24F2D
330
24F26
100
AcDbEntity
  8
1
100
AcDbVertex
100
AcDb3dPolylineVertex
 10
11.93130599999999
 20
-14.34725400000002
 30
-1.947129
 70
    48
  0
VERTEX
  5
24F2E
330
24F26
100
AcDbEntity
  8
1
100
AcDbVertex
100
AcDb3dPolylineVertex
 10
11.69102399999998
 20
-15.60721300000001
 30
-1.947129
 70
    48
  0
VERTEX
  5
24F2F
330
24F26
100
AcDbEntity
  8
1
100
AcDbVertex
100
AcDb3dPolylineVertex
 10
11.60509600000009
 20
-15.95163700000002
 30
-1.947129
 70
    48
  0
VERTEX
  5
24F30
330
24F26
100
AcDbEntity
  8
1
100
AcDbVertex
100
AcDb3dPolylineVertex
 10
11.32850600000009
 20
-16.75875100000001
 30
-1.947129
 70
    48
  0
VERTEX
  5
24F31
330
24F26
100
AcDbEntity
  8
1
100
AcDbVertex
100
AcDb3dPolylineVertex
 10
11.13518999999999
 20
-17.17393200000002
 30
-1.947129
 70
    48
  0
VERTEX
  5
24F32
330
24F26
100
AcDbEntity
  8
1
100
AcDbVertex
100
AcDb3dPolylineVertex
 10
10.79733900000009
 20
-17.63240300000001
 30
-1.947129
 70
    48
  0
VERTEX
  5
24F33
330
24F26
100
AcDbEntity
  8
1
100
AcDbVertex
100
AcDb3dPolylineVertex
 10
10.75110299999998
 20
-17.69092400000001
 30
-1.947129
 70
    48
  0
VERTEX
  5
24F34
330
24F26
100
AcDbEntity
  8
1
100
AcDbVertex
100
AcDb3dPolylineVertex
 10
10.69893000000009
 20
-17.75226200000001
 30
-1.947129
 70
    48
  0
VERTEX
  5
24F35
330
24F26
100
AcDbEntity
  8
1
100
AcDbVertex
100
AcDb3dPolylineVertex
 10
10.69894100000009
 20
-4.897478000000009
 30
-1.947129
 70
    40
  0
VERTEX
  5
24F36
330
24F26
100
AcDbEntity
  8
1
100
AcDbVertex
100
AcDb3dPolylineVertex
 10
11.08128400000019
 20
-6.381090000000011
 30
-1.947129
 70
    40
  0
VERTEX
  5
24F37
330
24F26
100
AcDbEntity
  8
1
100
AcDbVertex
100
AcDb3dPolylineVertex
 10
11.43756100000008
 20
-8.020351999999999
 30
-1.947129
 70
    40
  0
VERTEX
  5
24F38
330
24F26
100
AcDbEntity
  8
1
100
AcDbVertex
100
AcDb3dPolylineVertex
 10
11.60017799999998
 20
-8.914987000000008
 30
-1.947129
 70
    40
  0
VERTEX
  5
24F39
330
24F26
100
AcDbEntity
  8
1
100
AcDbVertex
100
AcDb3dPolylineVertex
 10
11.73693400000009
 20
-9.812995999999998
 30
-1.947129
 70
    40
  0
VERTEX
  5
24F3A
330
24F26
100
AcDbEntity
  8
1
100
AcDbVertex
100
AcDb3dPolylineVertex
 10
11.84417899999999
 20
-10.71393000000002
 30
-1.947129
 70
    40
  0
VERTEX
  5
24F3B
330
24F26
100
AcDbEntity
  8
1
100
AcDbVertex
100
AcDb3dPolylineVertex
 10
11.91826200000019
 20
-11.61734000000002
 30
-1.947129
 70
    40
  0
VERTEX
  5
24F3C
330
24F26
100
AcDbEntity
  8
1
100
AcDbVertex
100
AcDb3dPolylineVertex
 10
11.95553500000019
 20
-12.52277800000001
 30
-1.947129
 70
    40
  0
VERTEX
  5
24F3D
330
24F26
100
AcDbEntity
  8
1
100
AcDbVertex
100
AcDb3dPolylineVertex
 10
11.95077399999998
 20
-13.43384400000002
 30
-1.947129
 70
    40
  0
VERTEX
  5
24F3E
330
24F26
100
AcDbEntity
  8
1
100
AcDbVertex
100
AcDb3dPolylineVertex
 10
11.89063500000009
 20
-14.34346100000002
 30
-1.947129
 70
    40
  0
VERTEX
  5
24F3F
330
24F26
100
AcDbEntity
  8
1
100
AcDbVertex
100
AcDb3dPolylineVertex
 10
11.75953900000009
 20
-15.24794700000001
 30
-1.947129
 70
    40
  0
VERTEX
  5
24F40
330
24F26
100
AcDbEntity
  8
1
100
AcDbVertex
100
AcDb3dPolylineVertex
 10
11.59427800000009
 20
-15.95301699999999
 30
-1.947129
 70
    40
  0
VERTEX
  5
24F41
330
24F26
100
AcDbEntity
  8
1
100
AcDbVertex
100
AcDb3dPolylineVertex
 10
11.48483400000009
 20
-16.302575
 30
-1.947129
 70
    40
  0
VERTEX
  5
24F42
330
24F26
100
AcDbEntity
  8
1
100
AcDbVertex
100
AcDb3dPolylineVertex
 10
11.31398300000009
 20
-16.74577900000002
 30
-1.947129
 70
    40
  0
VERTEX
  5
24F43
330
24F26
100
AcDbEntity
  8
1
100
AcDbVertex
100
AcDb3dPolylineVertex
 10
11.10531500000009
 20
-17.16580800000002
 30
-1.947129
 70
    40
  0
VERTEX
  5
24F44
330
24F26
100
AcDbEntity
  8
1
100
AcDbVertex
100
AcDb3dPolylineVertex
 10
10.84566900000008
 20
-17.56681900000001
 30
-1.947129
 70
    40
  0
VERTEX
  5
24F45
330
24F26
100
AcDbEntity
  8
1
100
AcDbVertex
100
AcDb3dPolylineVertex
 10
10.69893000000009
 20
-17.75226200000001
 30
-1.947129
 70
    40
  0
SEQEND
  5
24F46
330
24F26
100
AcDbEntity
  8
1
  0
POLYLINE
  5
24F47
330
18
100
AcDbEntity
  8
1
100
AcDb3dPolyline
 66
     1
 10
0.0
 20
0.0
 30
0.0
 70
    12
 75
     6
  0
VERTEX
  5
24F48
330
24F47
100
AcDbEntity
  8
1
100
AcDbVertex
100
AcDb3dPolylineVertex
 10
116.323242
 20
12.03869099999998
 30
-1.947129
 70
    48
  0
VERTEX
  5
24F49
330
24F47
100
AcDbEntity
  8
1
100
AcDbVertex
100
AcDb3dPolylineVertex
 10
116.285216
 20
11.79019399999998
 30
-1.947129
 70
    48
  0
VERTEX
  5
24F4A
330
24F47
100
AcDbEntity
  8
1
100
AcDbVertex
100
AcDb3dPolylineVertex
 10
116.22345
 20
11.54644699999998
 30
-1.947129
 70
    48
  0
VERTEX
  5
24F4B
330
24F47
100
AcDbEntity
  8
1
100
AcDbVertex
100
AcDb3dPolylineVertex
 10
116.050816
 20
11.07400299999998
 30
-1.947129
 70
    48
  0
VERTEX
  5
24F4C
330
24F47
100
AcDbEntity
  8
1
100
AcDbVertex
100
AcDb3dPolylineVertex
 10
115.93945
 20
10.84556899999998
 30
-1.947129
 70
    48
  0
VERTEX
  5
24F4D
330
24F47
100
AcDbEntity
  8
1
100
AcDbVertex
100
AcDb3dPolylineVertex
 10
115.806003
 20
10.62934699999998
 30
-1.947129
 70
    48
  0
VERTEX
  5
24F4E
330
24F47
100
AcDbEntity
  8
1
100
AcDbVertex
100
AcDb3dPolylineVertex
 10
116.323242
 20
12.03869099999998
 30
-1.947129
 70
    40
  0
VERTEX
  5
24F4F
330
24F47
100
AcDbEntity
  8
1
100
AcDbVertex
100
AcDb3dPolylineVertex
 10
116.21543
 20
11.54921799999998
 30
-1.947129
 70
    40
  0
VERTEX
  5
24F50
330
24F47
100
AcDbEntity
  8
1
100
AcDbVertex
100
AcDb3dPolylineVertex
 10
116.04271
 20
11.07712799999998
 30
-1.947129
 70
    40
  0
VERTEX
  5
24F51
330
24F47
100
AcDbEntity
  8
1
100
AcDbVertex
100
AcDb3dPolylineVertex
 10
115.806003
 20
10.62934699999998
 30
-1.947129
 70
    40
  0
SEQEND
  5
24F52
330
24F47
100
AcDbEntity
  8
1
  0
POLYLINE
  5
24F53
330
18
100
AcDbEntity
  8
1
100
AcDb2dPolyline
 66
     1
 10
0.0
 20
0.0
 30
-1.947129
 70
     4
 75
     6
  0
VERTEX
  5
24F54
330
24F53
100
AcDbEntity
  8
1
100
AcDbVertex
100
AcDb2dVertex
 10
108.730589
 20
14.96800299999998
 30
-1.947129
 70
    16
  0
VERTEX
  5
24F55
330
24F53
100
AcDbEntity
  8
1
100
AcDbVertex
100
AcDb2dVertex
 10
108.742247
 20
14.98689199999998
 30
-1.947129
 70
    16
  0
VERTEX
  5
24F56
330
24F53
100
AcDbEntity
  8
1
100
AcDbVertex
100
AcDb2dVertex
 10
108.754075
 20
15.00567399999998
 30
-1.947129
 70
    16
  0
VERTEX
  5
24F57
330
24F53
100
AcDbEntity
  8
1
100
AcDbVertex
100
AcDb2dVertex
 10
109.025073
 20
15.42754299999998
 30
-1.947129
 70
    16
  0
VERTEX
  5
24F58
330
24F53
100
AcDbEntity
  8
1
100
AcDbVertex
100
AcDb2dVertex
 10
109.361626
 20
15.78113899999998
 30
-1.947129
 70
    16
  0
VERTEX
  5
24F59
330
24F53
100
AcDbEntity
  8
1
100
AcDbVertex
100
AcDb2dVertex
 10
109.759374
 20
16.06366499999998
 30
-1.947129
 70
    16
  0
VERTEX
  5
24F5A
330
24F53
100
AcDbEntity
  8
1
100
AcDbVertex
100
AcDb2dVertex
 10
108.730589
 20
14.96800299999998
 30
-1.947129
 70
     8
  0
VERTEX
  5
24F5B
330
24F53
100
AcDbEntity
  8
1
100
AcDbVertex
100
AcDb2dVertex
 10
108.766072
 20
15.02434899999998
 30
-1.947129
 70
     8
  0
VERTEX
  5
24F5C
330
24F53
100
AcDbEntity
  8
1
100
AcDbVertex
100
AcDb2dVertex
 10
109.050318
 20
15.41021499999998
 30
-1.947129
 70
     8
  0
VERTEX
  5
24F5D
330
24F53
100
AcDbEntity
  8
1
100
AcDbVertex
100
AcDb2dVertex
 10
109.38263
 20
15.75824399999998
 30
-1.947129
 70
     8
  0
VERTEX
  5
24F5E
330
24F53
100
AcDbEntity
  8
1
100
AcDbVertex
100
AcDb2dVertex
 10
109.759374
 20
16.06366499999998
 30
-1.947129
 70
     8
  0
SEQEND
  5
24F5F
330
24F53
100
AcDbEntity
  8
1
  0
POLYLINE
  5
24F60
330
18
100
AcDbEntity
  8
1
100
AcDb3dPolyline
 66
     1
 10
0.0
 20
0.0
 30
0.0
 70
    12
 75
     6
  0
VERTEX
  5
24F61
330
24F60
100
AcDbEntity
  8
1
100
AcDbVertex
100
AcDb3dPolylineVertex
 10
115.506637
 20
10.14428699999999
 30
-1.947129
 70
    48
  0
VERTEX
  5
24F62
330
24F60
100
AcDbEntity
  8
1
100
AcDbVertex
100
AcDb3dPolylineVertex
 10
115.339023
 20
9.872703999999988
 30
-1.947129
 70
    48
  0
VERTEX
  5
24F63
330
24F60
100
AcDbEntity
  8
1
100
AcDbVertex
100
AcDb3dPolylineVertex
 10
115.145079
 20
9.63166899999998
 30
-1.947129
 70
    48
  0
VERTEX
  5
24F64
330
24F60
100
AcDbEntity
  8
1
100
AcDbVertex
100
AcDb3dPolylineVertex
 10
114.752524
 20
9.25506699999998
 30
-1.947129
 70
    48
  0
VERTEX
  5
24F65
330
24F60
100
AcDbEntity
  8
1
100
AcDbVertex
100
AcDb3dPolylineVertex
 10
114.59462
 20
9.127421999999981
 30
-1.947129
 70
    48
  0
VERTEX
  5
24F66
330
24F60
100
AcDbEntity
  8
1
100
AcDbVertex
100
AcDb3dPolylineVertex
 10
114.058237
 20
8.761711999999981
 30
-1.947129
 70
    48
  0
VERTEX
  5
24F67
330
24F60
100
AcDbEntity
  8
1
100
AcDbVertex
100
AcDb3dPolylineVertex
 10
113.662326
 20
8.58094999999998
 30
-1.947129
 70
    48
  0
VERTEX
  5
24F68
330
24F60
100
AcDbEntity
  8
1
100
AcDbVertex
100
AcDb3dPolylineVertex
 10
112.632782
 20
8.29591399999998
 30
-1.947129
 70
    48
  0
VERTEX
  5
24F69
330
24F60
100
AcDbEntity
  8
1
100
AcDbVertex
100
AcDb3dPolylineVertex
 10
111.97647
 20
8.27226099999998
 30
-1.947129
 70
    48
  0
VERTEX
  5
24F6A
330
24F60
100
AcDbEntity
  8
1
100
AcDbVertex
100
AcDb3dPolylineVertex
 10
111.046675
 20
8.454274999999981
 30
-1.947129
 70
    48
  0
VERTEX
  5
24F6B
330
24F60
100
AcDbEntity
  8
1
100
AcDbVertex
100
AcDb3dPolylineVertex
 10
110.792841
 20
8.530481999999981
 30
-1.947129
 70
    48
  0
VERTEX
  5
24F6C
330
24F60
100
AcDbEntity
  8
1
100
AcDbVertex
100
AcDb3dPolylineVertex
 10
110.142412
 20
8.798707999999976
 30
-1.947129
 70
    48
  0
VERTEX
  5
24F6D
330
24F60
100
AcDbEntity
  8
1
100
AcDbVertex
100
AcDb3dPolylineVertex
 10
109.830865
 20
8.97994699999999
 30
-1.947129
 70
    48
  0
VERTEX
  5
24F6E
330
24F60
100
AcDbEntity
  8
1
100
AcDbVertex
100
AcDb3dPolylineVertex
 10
109.121372
 20
9.52699399999998
 30
-1.947129
 70
    48
  0
VERTEX
  5
24F6F
330
24F60
100
AcDbEntity
  8
1
100
AcDbVertex
100
AcDb3dPolylineVertex
 10
108.801657
 20
9.86872699999998
 30
-1.947129
 70
    48
  0
VERTEX
  5
24F70
330
24F60
100
AcDbEntity
  8
1
100
AcDbVertex
100
AcDb3dPolylineVertex
 10
108.164103
 20
10.85861799999998
 30
-1.947129
 70
    48
  0
VERTEX
  5
24F71
330
24F60
100
AcDbEntity
  8
1
100
AcDbVertex
100
AcDb3dPolylineVertex
 10
107.958776
 20
11.41258299999998
 30
-1.947129
 70
    48
  0
VERTEX
  5
24F72
330
24F60
100
AcDbEntity
  8
1
100
AcDbVertex
100
AcDb3dPolylineVertex
 10
107.800827
 20
12.97877799999998
 30
-1.947129
 70
    48
  0
VERTEX
  5
24F73
330
24F60
100
AcDbEntity
  8
1
100
AcDbVertex
100
AcDb3dPolylineVertex
 10
107.934442
 20
13.67801399999998
 30
-1.947129
 70
    48
  0
VERTEX
  5
24F74
330
24F60
100
AcDbEntity
  8
1
100
AcDbVertex
100
AcDb3dPolylineVertex
 10
108.431223
 20
14.48294299999998
 30
-1.947129
 70
    48
  0
VERTEX
  5
24F75
330
24F60
100
AcDbEntity
  8
1
100
AcDbVertex
100
AcDb3dPolylineVertex
 10
115.506637
 20
10.14428699999999
 30
-1.947129
 70
    40
  0
VERTEX
  5
24F76
330
24F60
100
AcDbEntity
  8
1
100
AcDbVertex
100
AcDb3dPolylineVertex
 10
115.32968
 20
9.88231299999998
 30
-1.947129
 70
    40
  0
VERTEX
  5
24F77
330
24F60
100
AcDbEntity
  8
1
100
AcDbVertex
100
AcDb3dPolylineVertex
 10
115.1317719999999
 20
9.637257999999981
 30
-1.947129
 70
    40
  0
VERTEX
  5
24F78
330
24F60
100
AcDbEntity
  8
1
100
AcDbVertex
100
AcDb3dPolylineVertex
 10
114.909515
 20
9.40567799999998
 30
-1.947129
 70
    40
  0
VERTEX
  5
24F79
330
24F60
100
AcDbEntity
  8
1
100
AcDbVertex
100
AcDb3dPolylineVertex
 10
114.589014
 20
9.13039499999998
 30
-1.947129
 70
    40
  0
VERTEX
  5
24F7A
330
24F60
100
AcDbEntity
  8
1
100
AcDbVertex
100
AcDb3dPolylineVertex
 10
114.41791
 20
9.006939999999991
 30
-1.947129
 70
    40
  0
VERTEX
  5
24F7B
330
24F60
100
AcDbEntity
  8
1
100
AcDbVertex
100
AcDb3dPolylineVertex
 10
114.046834
 20
8.783263999999981
 30
-1.947129
 70
    40
  0
VERTEX
  5
24F7C
330
24F60
100
AcDbEntity
  8
1
100
AcDbVertex
100
AcDb3dPolylineVertex
 10
113.655658
 20
8.60294499999998
 30
-1.947129
 70
    40
  0
VERTEX
  5
24F7D
330
24F60
100
AcDbEntity
  8
1
100
AcDbVertex
100
AcDb3dPolylineVertex
 10
113.2484409999999
 20
8.46636299999999
 30
-1.947129
 70
    40
  0
VERTEX
  5
24F7E
330
24F60
100
AcDbEntity
  8
1
100
AcDbVertex
100
AcDb3dPolylineVertex
 10
112.937472
 20
8.393383999999981
 30
-1.947129
 70
    40
  0
VERTEX
  5
24F7F
330
24F60
100
AcDbEntity
  8
1
100
AcDbVertex
100
AcDb3dPolylineVertex
 10
112.62122
 20
8.34494899999999
 30
-1.947129
 70
    40
  0
VERTEX
  5
24F80
330
24F60
100
AcDbEntity
  8
1
100
AcDbVertex
100
AcDb3dPolylineVertex
 10
112.301175
 20
8.321133999999981
 30
-1.947129
 70
    40
  0
VERTEX
  5
24F81
330
24F60
100
AcDbEntity
  8
1
100
AcDbVertex
100
AcDb3dPolylineVertex
 10
111.978828
 20
8.322016999999981
 30
-1.947129
 70
    40
  0
VERTEX
  5
24F82
330
24F60
100
AcDbEntity
  8
1
100
AcDbVertex
100
AcDb3dPolylineVertex
 10
111.655673
 20
8.347674999999981
 30
-1.947129
 70
    40
  0
VERTEX
  5
24F83
330
24F60
100
AcDbEntity
  8
1
100
AcDbVertex
100
AcDb3dPolylineVertex
 10
111.333199
 20
8.39818599999999
 30
-1.947129
 70
    40
  0
VERTEX
  5
24F84
330
24F60
100
AcDbEntity
  8
1
100
AcDbVertex
100
AcDb3dPolylineVertex
 10
110.787217
 20
8.54248099999998
 30
-1.947129
 70
    40
  0
VERTEX
  5
24F85
330
24F60
100
AcDbEntity
  8
1
100
AcDbVertex
100
AcDb3dPolylineVertex
 10
110.515937
 20
8.644672999999981
 30
-1.947129
 70
    40
  0
VERTEX
  5
24F86
330
24F60
100
AcDbEntity
  8
1
100
AcDbVertex
100
AcDb3dPolylineVertex
 10
110.160757
 20
8.80896699999999
 30
-1.947129
 70
    40
  0
VERTEX
  5
24F87
330
24F60
100
AcDbEntity
  8
1
100
AcDbVertex
100
AcDb3dPolylineVertex
 10
109.833009
 20
8.99854499999998
 30
-1.947129
 70
    40
  0
VERTEX
  5
24F88
330
24F60
100
AcDbEntity
  8
1
100
AcDbVertex
100
AcDb3dPolylineVertex
 10
109.518807
 20
9.22055599999998
 30
-1.947129
 70
    40
  0
VERTEX
  5
24F89
330
24F60
100
AcDbEntity
  8
1
100
AcDbVertex
100
AcDb3dPolylineVertex
 10
109.145984
 20
9.54072099999999
 30
-1.947129
 70
    40
  0
VERTEX
  5
24F8A
330
24F60
100
AcDbEntity
  8
1
100
AcDbVertex
100
AcDb3dPolylineVertex
 10
108.817208
 20
9.89618699999999
 30
-1.947129
 70
    40
  0
VERTEX
  5
24F8B
330
24F60
100
AcDbEntity
  8
1
100
AcDbVertex
100
AcDb3dPolylineVertex
 10
108.524711
 20
10.29872499999998
 30
-1.947129
 70
    40
  0
VERTEX
  5
24F8C
330
24F60
100
AcDbEntity
  8
1
100
AcDbVertex
100
AcDb3dPolylineVertex
 10
108.357258
 20
10.57882099999998
 30
-1.947129
 70
    40
  0
VERTEX
  5
24F8D
330
24F60
100
AcDbEntity
  8
1
100
AcDbVertex
100
AcDb3dPolylineVertex
 10
108.215151
 20
10.86178599999998
 30
-1.947129
 70
    40
  0
VERTEX
  5
24F8E
330
24F60
100
AcDbEntity
  8
1
100
AcDbVertex
100
AcDb3dPolylineVertex
 10
108.097856
 20
11.15147999999998
 30
-1.947129
 70
    40
  0
VERTEX
  5
24F8F
330
24F60
100
AcDbEntity
  8
1
100
AcDbVertex
100
AcDb3dPolylineVertex
 10
108.004839
 20
11.45175899999998
 30
-1.947129
 70
    40
  0
VERTEX
  5
24F90
330
24F60
100
AcDbEntity
  8
1
100
AcDbVertex
100
AcDb3dPolylineVertex
 10
107.935565
 20
11.76648199999998
 30
-1.947129
 70
    40
  0
VERTEX
  5
24F91
330
24F60
100
AcDbEntity
  8
1
100
AcDbVertex
100
AcDb3dPolylineVertex
 10
107.8895
 20
12.09950699999998
 30
-1.947129
 70
    40
  0
VERTEX
  5
24F92
330
24F60
100
AcDbEntity
  8
1
100
AcDbVertex
100
AcDb3dPolylineVertex
 10
107.86434
 20
12.52546299999998
 30
-1.947129
 70
    40
  0
VERTEX
  5
24F93
330
24F60
100
AcDbEntity
  8
1
100
AcDbVertex
100
AcDb3dPolylineVertex
 10
107.880141
 20
12.92934899999998
 30
-1.947129
 70
    40
  0
VERTEX
  5
24F94
330
24F60
100
AcDbEntity
  8
1
100
AcDbVertex
100
AcDb3dPolylineVertex
 10
107.940816
 20
13.31910299999998
 30
-1.947129
 70
    40
  0
VERTEX
  5
24F95
330
24F60
100
AcDbEntity
  8
1
100
AcDbVertex
100
AcDb3dPolylineVertex
 10
108.05028
 20
13.70266199999998
 30
-1.947129
 70
    40
  0
VERTEX
  5
24F96
330
24F60
100
AcDbEntity
  8
1
100
AcDbVertex
100
AcDb3dPolylineVertex
 10
108.212444
 20
14.08796299999998
 30
-1.947129
 70
    40
  0
VERTEX
  5
24F97
330
24F60
100
AcDbEntity
  8
1
100
AcDbVertex
100
AcDb3dPolylineVertex
 10
108.431223
 20
14.48294299999998
 30
-1.947129
 70
    40
  0
SEQEND
  5
24F98
330
24F60
100
AcDbEntity
  8
1
  0
POLYLINE
  5
24F99
330
18
100
AcDbEntity
  8
1
100
AcDb3dPolyline
 66
     1
 10
0.0
 20
0.0
 30
0.0
 70
    12
 75
     6
  0
VERTEX
  5
24F9A
330
24F99
100
AcDbEntity
  8
1
100
AcDbVertex
100
AcDb3dPolylineVertex
 10
112.377581
 20
16.78366999999998
 30
-1.947129
 70
    48
  0
VERTEX
  5
24F9B
330
24F99
100
AcDbEntity
  8
1
100
AcDbVertex
100
AcDb3dPolylineVertex
 10
112.247258
 20
16.79266399999998
 30
-1.947129
 70
    48
  0
VERTEX
  5
24F9C
330
24F99
100
AcDbEntity
  8
1
100
AcDbVertex
100
AcDb3dPolylineVertex
 10
112.116658
 20
16.79568299999998
 30
-1.947129
 70
    48
  0
VERTEX
  5
24F9D
330
24F99
100
AcDbEntity
  8
1
100
AcDbVertex
100
AcDb3dPolylineVertex
 10
111.3498129999999
 20
16.77773399999998
 30
-1.947129
 70
    48
  0
VERTEX
  5
24F9E
330
24F99
100
AcDbEntity
  8
1
100
AcDbVertex
100
AcDb3dPolylineVertex
 10
110.715126
 20
16.61651199999998
 30
-1.947129
 70
    48
  0
VERTEX
  5
24F9F
330
24F99
100
AcDbEntity
  8
1
100
AcDbVertex
100
AcDb3dPolylineVertex
 10
109.986449
 20
16.21755299999998
 30
-1.947129
 70
    48
  0
VERTEX
  5
24FA0
330
24F99
100
AcDbEntity
  8
1
100
AcDbVertex
100
AcDb3dPolylineVertex
 10
109.852471
 20
16.13276299999998
 30
-1.947129
 70
    48
  0
VERTEX
  5
24FA1
330
24F99
100
AcDbEntity
  8
1
100
AcDbVertex
100
AcDb3dPolylineVertex
 10
109.708292
 20
16.02674599999998
 30
-1.947129
 70
    48
  0
VERTEX
  5
24FA2
330
24F99
100
AcDbEntity
  8
1
100
AcDbVertex
100
AcDb3dPolylineVertex
 10
112.377581
 20
16.78366999999998
 30
-1.947129
 70
    40
  0
VERTEX
  5
24FA3
330
24F99
100
AcDbEntity
  8
1
100
AcDbVertex
100
AcDb3dPolylineVertex
 10
111.9862
 20
16.79262999999998
 30
-1.947129
 70
    40
  0
VERTEX
  5
24FA4
330
24F99
100
AcDbEntity
  8
1
100
AcDbVertex
100
AcDb3dPolylineVertex
 10
111.668419
 20
16.77295499999998
 30
-1.947129
 70
    40
  0
VERTEX
  5
24FA5
330
24F99
100
AcDbEntity
  8
1
100
AcDbVertex
100
AcDb3dPolylineVertex
 10
111.352546
 20
16.72869899999998
 30
-1.947129
 70
    40
  0
VERTEX
  5
24FA6
330
24F99
100
AcDbEntity
  8
1
100
AcDbVertex
100
AcDb3dPolylineVertex
 10
111.040206
 20
16.65966699999998
 30
-1.947129
 70
    40
  0
VERTEX
  5
24FA7
330
24F99
100
AcDbEntity
  8
1
100
AcDbVertex
100
AcDb3dPolylineVertex
 10
110.733023
 20
16.56566299999998
 30
-1.947129
 70
    40
  0
VERTEX
  5
24FA8
330
24F99
100
AcDbEntity
  8
1
100
AcDbVertex
100
AcDb3dPolylineVertex
 10
110.432622
 20
16.44649499999998
 30
-1.947129
 70
    40
  0
VERTEX
  5
24FA9
330
24F99
100
AcDbEntity
  8
1
100
AcDbVertex
100
AcDb3dPolylineVertex
 10
110.140628
 20
16.30196799999998
 30
-1.947129
 70
    40
  0
VERTEX
  5
24FAA
330
24F99
100
AcDbEntity
  8
1
100
AcDbVertex
100
AcDb3dPolylineVertex
 10
109.850197
 20
16.12645999999998
 30
-1.947129
 70
    40
  0
VERTEX
  5
24FAB
330
24F99
100
AcDbEntity
  8
1
100
AcDbVertex
100
AcDb3dPolylineVertex
 10
109.708292
 20
16.02674599999998
 30
-1.947129
 70
    40
  0
SEQEND
  5
24FAC
330
24F99
100
AcDbEntity
  8
1
  0
POLYLINE
  5
24FAD
330
18
100
AcDbEntity
  8
1
100
AcDb3dPolyline
 66
     1
 10
0.0
 20
0.0
 30
0.0
 70
    12
 75
     6
  0
VERTEX
  5
24FAE
330
24FAD
100
AcDbEntity
  8
1
100
AcDbVertex
100
AcDb3dPolylineVertex
 10
115.787419
 20
14.69275199999998
 30
-1.947129
 70
    48
  0
VERTEX
  5
24FAF
330
24FAD
100
AcDbEntity
  8
1
100
AcDbVertex
100
AcDb3dPolylineVertex
 10
115.969318
 20
14.38814399999998
 30
-1.947129
 70
    48
  0
VERTEX
  5
24FB0
330
24FAD
100
AcDbEntity
  8
1
100
AcDbVertex
100
AcDb3dPolylineVertex
 10
116.111547
 20
14.06298499999998
 30
-1.947129
 70
    48
  0
VERTEX
  5
24FB1
330
24FAD
100
AcDbEntity
  8
1
100
AcDbVertex
100
AcDb3dPolylineVertex
 10
116.372019
 20
13.16421199999998
 30
-1.947129
 70
    48
  0
VERTEX
  5
24FB2
330
24FAD
100
AcDbEntity
  8
1
100
AcDbVertex
100
AcDb3dPolylineVertex
 10
116.413547
 20
12.56699199999998
 30
-1.947129
 70
    48
  0
VERTEX
  5
24FB3
330
24FAD
100
AcDbEntity
  8
1
100
AcDbVertex
100
AcDb3dPolylineVertex
 10
116.313216
 20
11.97659599999998
 30
-1.947129
 70
    48
  0
VERTEX
  5
24FB4
330
24FAD
100
AcDbEntity
  8
1
100
AcDbVertex
100
AcDb3dPolylineVertex
 10
115.787419
 20
14.69275199999998
 30
-1.947129
 70
    40
  0
VERTEX
  5
24FB5
330
24FAD
100
AcDbEntity
  8
1
100
AcDbVertex
100
AcDb3dPolylineVertex
 10
115.955924
 20
14.38157799999998
 30
-1.947129
 70
    40
  0
VERTEX
  5
24FB6
330
24FAD
100
AcDbEntity
  8
1
100
AcDbVertex
100
AcDb3dPolylineVertex
 10
116.096963
 20
14.05840799999998
 30
-1.947129
 70
    40
  0
VERTEX
  5
24FB7
330
24FAD
100
AcDbEntity
  8
1
100
AcDbVertex
100
AcDb3dPolylineVertex
 10
116.209513
 20
13.72494599999998
 30
-1.947129
 70
    40
  0
VERTEX
  5
24FB8
330
24FAD
100
AcDbEntity
  8
1
100
AcDbVertex
100
AcDb3dPolylineVertex
 10
116.280588
 20
13.44173899999998
 30
-1.947129
 70
    40
  0
VERTEX
  5
24FB9
330
24FAD
100
AcDbEntity
  8
1
100
AcDbVertex
100
AcDb3dPolylineVertex
 10
116.33092
 20
13.15365399999998
 30
-1.947129
 70
    40
  0
VERTEX
  5
24FBA
330
24FAD
100
AcDbEntity
  8
1
100
AcDbVertex
100
AcDb3dPolylineVertex
 10
116.359928
 20
12.86189399999998
 30
-1.947129
 70
    40
  0
VERTEX
  5
24FBB
330
24FAD
100
AcDbEntity
  8
1
100
AcDbVertex
100
AcDb3dPolylineVertex
 10
116.367034
 20
12.56766299999998
 30
-1.947129
 70
    40
  0
VERTEX
  5
24FBC
330
24FAD
100
AcDbEntity
  8
1
100
AcDbVertex
100
AcDb3dPolylineVertex
 10
116.351656
 20
12.27216199999998
 30
-1.947129
 70
    40
  0
VERTEX
  5
24FBD
330
24FAD
100
AcDbEntity
  8
1
100
AcDbVertex
100
AcDb3dPolylineVertex
 10
116.313216
 20
11.97659599999998
 30
-1.947129
 70
    40
  0
SEQEND
  5
24FBE
330
24FAD
100
AcDbEntity
  8
1
  0
POLYLINE
  5
24FBF
330
18
100
AcDbEntity
  8
1
100
AcDb3dPolyline
 66
     1
 10
0.0
 20
0.0
 30
0.0
 70
    12
 75
     6
  0
VERTEX
  5
24FC0
330
24FBF
100
AcDbEntity
  8
1
100
AcDbVertex
100
AcDb3dPolylineVertex
 10
77.06111599999998
 20
1.272328999999998
 30
-1.947129
 70
    48
  0
VERTEX
  5
24FC1
330
24FBF
100
AcDbEntity
  8
1
100
AcDbVertex
100
AcDb3dPolylineVertex
 10
77.14909599999998
 20
0.8811429999999802
 30
-1.947129
 70
    48
  0
VERTEX
  5
24FC2
330
24FBF
100
AcDbEntity
  8
1
100
AcDbVertex
100
AcDb3dPolylineVertex
 10
77.24715799999998
 20
0.500257999999981
 30
-1.947129
 70
    48
  0
VERTEX
  5
24FC3
330
24FBF
100
AcDbEntity
  8
1
100
AcDbVertex
100
AcDb3dPolylineVertex
 10
77.615572
 20
-0.7445220000000177
 30
-1.947129
 70
    48
  0
VERTEX
  5
24FC4
330
24FBF
100
AcDbEntity
  8
1
100
AcDbVertex
100
AcDb3dPolylineVertex
 10
77.93291699999997
 20
-1.56643700000002
 30
-1.947129
 70
    48
  0
VERTEX
  5
24FC5
330
24FBF
100
AcDbEntity
  8
1
100
AcDbVertex
100
AcDb3dPolylineVertex
 10
78.59333199999998
 20
-2.989479000000009
 30
-1.947129
 70
    48
  0
VERTEX
  5
24FC6
330
24FBF
100
AcDbEntity
  8
1
100
AcDbVertex
100
AcDb3dPolylineVertex
 10
78.90602699999998
 20
-3.575004000000017
 30
-1.947129
 70
    48
  0
VERTEX
  5
24FC7
330
24FBF
100
AcDbEntity
  8
1
100
AcDbVertex
100
AcDb3dPolylineVertex
 10
79.52868099999998
 20
-4.586153000000016
 30
-1.947129
 70
    48
  0
VERTEX
  5
24FC8
330
24FBF
100
AcDbEntity
  8
1
100
AcDbVertex
100
AcDb3dPolylineVertex
 10
79.807029
 20
-4.995445000000009
 30
-1.947129
 70
    48
  0
VERTEX
  5
24FC9
330
24FBF
100
AcDbEntity
  8
1
100
AcDbVertex
100
AcDb3dPolylineVertex
 10
80.88206099999998
 20
-6.452055000000019
 30
-1.947129
 70
    48
  0
VERTEX
  5
24FCA
330
24FBF
100
AcDbEntity
  8
1
100
AcDbVertex
100
AcDb3dPolylineVertex
 10
81.76357199999998
 20
-7.414699000000019
 30
-1.947129
 70
    48
  0
VERTEX
  5
24FCB
330
24FBF
100
AcDbEntity
  8
1
100
AcDbVertex
100
AcDb3dPolylineVertex
 10
84.077844
 20
-9.466911000000019
 30
-1.947129
 70
    48
  0
VERTEX
  5
24FCC
330
24FBF
100
AcDbEntity
  8
1
100
AcDbVertex
100
AcDb3dPolylineVertex
 10
85.58830799999999
 20
-10.46643900000001
 30
-1.947129
 70
    48
  0
VERTEX
  5
24FCD
330
24FBF
100
AcDbEntity
  8
1
100
AcDbVertex
100
AcDb3dPolylineVertex
 10
87.80885799999998
 20
-11.582133
 30
-1.947129
 70
    48
  0
VERTEX
  5
24FCE
330
24FBF
100
AcDbEntity
  8
1
100
AcDbVertex
100
AcDb3dPolylineVertex
 10
88.40863299999998
 20
-11.85179400000002
 30
-1.947129
 70
    48
  0
VERTEX
  5
24FCF
330
24FBF
100
AcDbEntity
  8
1
100
AcDbVertex
100
AcDb3dPolylineVertex
 10
90.99709399999998
 20
-12.89774600000002
 30
-1.947129
 70
    48
  0
VERTEX
  5
24FD0
330
24FBF
100
AcDbEntity
  8
1
100
AcDbVertex
100
AcDb3dPolylineVertex
 10
92.99372899999999
 20
-13.44280000000002
 30
-1.947129
 70
    48
  0
VERTEX
  5
24FD1
330
24FBF
100
AcDbEntity
  8
1
100
AcDbVertex
100
AcDb3dPolylineVertex
 10
95.43206199999998
 20
-13.90033900000001
 30
-1.947129
 70
    48
  0
VERTEX
  5
24FD2
330
24FBF
100
AcDbEntity
  8
1
100
AcDbVertex
100
AcDb3dPolylineVertex
 10
95.807336
 20
-13.96617200000001
 30
-1.947129
 70
    48
  0
VERTEX
  5
24FD3
330
24FBF
100
AcDbEntity
  8
1
100
AcDbVertex
100
AcDb3dPolylineVertex
 10
96.19025299999998
 20
-14.024389
 30
-1.947129
 70
    48
  0
VERTEX
  5
24FD4
330
24FBF
100
AcDbEntity
  8
1
100
AcDbVertex
100
AcDb3dPolylineVertex
 10
77.06111599999998
 20
1.272328999999998
 30
-1.947129
 70
    40
  0
VERTEX
  5
24FD5
330
24FBF
100
AcDbEntity
  8
1
100
AcDbVertex
100
AcDb3dPolylineVertex
 10
77.25228399999997
 20
0.4992659999999809
 30
-1.947129
 70
    40
  0
VERTEX
  5
24FD6
330
24FBF
100
AcDbEntity
  8
1
100
AcDbVertex
100
AcDb3dPolylineVertex
 10
77.36125999999998
 20
0.1147359999999793
 30
-1.947129
 70
    40
  0
VERTEX
  5
24FD7
330
24FBF
100
AcDbEntity
  8
1
100
AcDbVertex
100
AcDb3dPolylineVertex
 10
77.63641899999997
 20
-0.7330190000000095
 30
-1.947129
 70
    40
  0
VERTEX
  5
24FD8
330
24FBF
100
AcDbEntity
  8
1
100
AcDbVertex
100
AcDb3dPolylineVertex
 10
77.95261399999998
 20
-1.561544000000019
 30
-1.947129
 70
    40
  0
VERTEX
  5
24FD9
330
24FBF
100
AcDbEntity
  8
1
100
AcDbVertex
100
AcDb3dPolylineVertex
 10
78.30885999999998
 20
-2.376507000000017
 30
-1.947129
 70
    40
  0
VERTEX
  5
24FDA
330
24FBF
100
AcDbEntity
  8
1
100
AcDbVertex
100
AcDb3dPolylineVertex
 10
78.603312
 20
-2.981094000000016
 30
-1.947129
 70
    40
  0
VERTEX
  5
24FDB
330
24FBF
100
AcDbEntity
  8
1
100
AcDbVertex
100
AcDb3dPolylineVertex
 10
78.92001299999998
 20
-3.571972000000009
 30
-1.947129
 70
    40
  0
VERTEX
  5
24FDC
330
24FBF
100
AcDbEntity
  8
1
100
AcDbVertex
100
AcDb3dPolylineVertex
 10
79.26239799999997
 20
-4.153727000000021
 30
-1.947129
 70
    40
  0
VERTEX
  5
24FDD
330
24FBF
100
AcDbEntity
  8
1
100
AcDbVertex
100
AcDb3dPolylineVertex
 10
79.813873
 20
-4.993731000000018
 30
-1.947129
 70
    40
  0
VERTEX
  5
24FDE
330
24FBF
100
AcDbEntity
  8
1
100
AcDbVertex
100
AcDb3dPolylineVertex
 10
80.50330499999999
 20
-5.919589000000008
 30
-1.947129
 70
    40
  0
VERTEX
  5
24FDF
330
24FBF
100
AcDbEntity
  8
1
100
AcDbVertex
100
AcDb3dPolylineVertex
 10
80.91691599999998
 20
-6.422355000000019
 30
-1.947129
 70
    40
  0
VERTEX
  5
24FE0
330
24FBF
100
AcDbEntity
  8
1
100
AcDbVertex
100
AcDb3dPolylineVertex
 10
81.34733700000003
 20
-6.909760000000018
 30
-1.947129
 70
    40
  0
VERTEX
  5
24FE1
330
24FBF
100
AcDbEntity
  8
1
100
AcDbVertex
100
AcDb3dPolylineVertex
 10
81.794106
 20
-7.381421000000018
 30
-1.947129
 70
    40
  0
VERTEX
  5
24FE2
330
24FBF
100
AcDbEntity
  8
1
100
AcDbVertex
100
AcDb3dPolylineVertex
 10
82.25675799999997
 20
-7.836954000000019
 30
-1.947129
 70
    40
  0
VERTEX
  5
24FE3
330
24FBF
100
AcDbEntity
  8
1
100
AcDbVertex
100
AcDb3dPolylineVertex
 10
82.73483199999999
 20
-8.275976000000021
 30
-1.947129
 70
    40
  0
VERTEX
  5
24FE4
330
24FBF
100
AcDbEntity
  8
1
100
AcDbVertex
100
AcDb3dPolylineVertex
 10
83.420009
 20
-8.855512000000018
 30
-1.947129
 70
    40
  0
VERTEX
  5
24FE5
330
24FBF
100
AcDbEntity
  8
1
100
AcDbVertex
100
AcDb3dPolylineVertex
 10
84.131391
 20
-9.403262000000019
 30
-1.947129
 70
    40
  0
VERTEX
  5
24FE6
330
24FBF
100
AcDbEntity
  8
1
100
AcDbVertex
100
AcDb3dPolylineVertex
 10
84.86727699999999
 20
-9.919340000000008
 30
-1.947129
 70
    40
  0
VERTEX
  5
24FE7
330
24FBF
100
AcDbEntity
  8
1
100
AcDbVertex
100
AcDb3dPolylineVertex
 10
85.625963
 20
-10.40386100000002
 30
-1.947129
 70
    40
  0
VERTEX
  5
24FE8
330
24FBF
100
AcDbEntity
  8
1
100
AcDbVertex
100
AcDb3dPolylineVertex
 10
86.40574799999996
 20
-10.85694100000002
 30
-1.947129
 70
    40
  0
VERTEX
  5
24FE9
330
24FBF
100
AcDbEntity
  8
1
100
AcDbVertex
100
AcDb3dPolylineVertex
 10
87.20492699999999
 20
-11.27869400000002
 30
-1.947129
 70
    40
  0
VERTEX
  5
24FEA
330
24FBF
100
AcDbEntity
  8
1
100
AcDbVertex
100
AcDb3dPolylineVertex
 10
88.41739499999999
 20
-11.84605600000002
 30
-1.947129
 70
    40
  0
VERTEX
  5
24FEB
330
24FBF
100
AcDbEntity
  8
1
100
AcDbVertex
100
AcDb3dPolylineVertex
 10
89.0385
 20
-12.10631200000001
 30
-1.947129
 70
    40
  0
VERTEX
  5
24FEC
330
24FBF
100
AcDbEntity
  8
1
100
AcDbVertex
100
AcDb3dPolylineVertex
 10
90.02107699999998
 20
-12.48190300000002
 30
-1.947129
 70
    40
  0
VERTEX
  5
24FED
330
24FBF
100
AcDbEntity
  8
1
100
AcDbVertex
100
AcDb3dPolylineVertex
 10
91.01065099999999
 20
-12.81886200000001
 30
-1.947129
 70
    40
  0
VERTEX
  5
24FEE
330
24FBF
100
AcDbEntity
  8
1
100
AcDbVertex
100
AcDb3dPolylineVertex
 10
92.00788000000001
 20
-13.11962300000002
 30
-1.947129
 70
    40
  0
VERTEX
  5
24FEF
330
24FBF
100
AcDbEntity
  8
1
100
AcDbVertex
100
AcDb3dPolylineVertex
 10
93.01342099999999
 20
-13.38661700000002
 30
-1.947129
 70
    40
  0
VERTEX
  5
24FF0
330
24FBF
100
AcDbEntity
  8
1
100
AcDbVertex
100
AcDb3dPolylineVertex
 10
94.02793200000001
 20
-13.62227700000002
 30
-1.947129
 70
    40
  0
VERTEX
  5
24FF1
330
24FBF
100
AcDbEntity
  8
1
100
AcDbVertex
100
AcDb3dPolylineVertex
 10
95.43094700000001
 20
-13.89843600000001
 30
-1.947129
 70
    40
  0
VERTEX
  5
24FF2
330
24FBF
100
AcDbEntity
  8
1
100
AcDbVertex
100
AcDb3dPolylineVertex
 10
96.19025299999998
 20
-14.024389
 30
-1.947129
 70
    40
  0
SEQEND
  5
24FF3
330
24FBF
100
AcDbEntity
  8
1
  0
POLYLINE
  5
24FF4
330
18
100
AcDbEntity
  8
1
100
AcDb3dPolyline
 66
     1
 10
0.0
 20
0.0
 30
0.0
 70
    12
 75
     6
  0
VERTEX
  5
24FF5
330
24FF4
100
AcDbEntity
  8
1
100
AcDbVertex
100
AcDb3dPolylineVertex
 10
95.348947
 20
15.03007499999998
 30
-1.947129
 70
    48
  0
VERTEX
  5
24FF6
330
24FF4
100
AcDbEntity
  8
1
100
AcDbVertex
100
AcDb3dPolylineVertex
 10
95.53464599999999
 20
15.02752499999998
 30
-1.947129
 70
    48
  0
VERTEX
  5
24FF7
330
24FF4
100
AcDbEntity
  8
1
100
AcDbVertex
100
AcDb3dPolylineVertex
 10
95.64284499999999
 20
15.04936099999998
 30
-1.947129
 70
    48
  0
VERTEX
  5
24FF8
330
24FF4
100
AcDbEntity
  8
1
100
AcDbVertex
100
AcDb3dPolylineVertex
 10
96.16767500000001
 20
14.98369499999998
 30
-1.947129
 70
    48
  0
VERTEX
  5
24FF9
330
24FF4
100
AcDbEntity
  8
1
100
AcDbVertex
100
AcDb3dPolylineVertex
 10
96.26452399999999
 20
14.96444299999998
 30
-1.947129
 70
    48
  0
VERTEX
  5
24FFA
330
24FF4
100
AcDbEntity
  8
1
100
AcDbVertex
100
AcDb3dPolylineVertex
 10
96.562824
 20
14.46661299999998
 30
-1.947129
 70
    48
  0
VERTEX
  5
24FFB
330
24FF4
100
AcDbEntity
  8
1
100
AcDbVertex
100
AcDb3dPolylineVertex
 10
96.49725500000002
 20
14.32408699999998
 30
-1.947129
 70
    48
  0
VERTEX
  5
24FFC
330
24FF4
100
AcDbEntity
  8
1
100
AcDbVertex
100
AcDb3dPolylineVertex
 10
96.36005500000001
 20
13.95362099999998
 30
-1.947129
 70
    48
  0
VERTEX
  5
24FFD
330
24FF4
100
AcDbEntity
  8
1
100
AcDbVertex
100
AcDb3dPolylineVertex
 10
96.28104999999999
 20
13.76603299999998
 30
-1.947129
 70
    48
  0
VERTEX
  5
24FFE
330
24FF4
100
AcDbEntity
  8
1
100
AcDbVertex
100
AcDb3dPolylineVertex
 10
95.97608399999998
 20
13.21613999999998
 30
-1.947129
 70
    48
  0
VERTEX
  5
24FFF
330
24FF4
100
AcDbEntity
  8
1
100
AcDbVertex
100
AcDb3dPolylineVertex
 10
95.69243599999998
 20
12.94923799999998
 30
-1.947129
 70
    48
  0
VERTEX
  5
25000
330
24FF4
100
AcDbEntity
  8
1
100
AcDbVertex
100
AcDb3dPolylineVertex
 10
95.15227299999999
 20
12.57195299999998
 30
-1.947129
 70
    48
  0
VERTEX
  5
25001
330
24FF4
100
AcDbEntity
  8
1
100
AcDbVertex
100
AcDb3dPolylineVertex
 10
94.943097
 20
12.40032099999998
 30
-1.947129
 70
    48
  0
VERTEX
  5
25002
330
24FF4
100
AcDbEntity
  8
1
100
AcDbVertex
100
AcDb3dPolylineVertex
 10
94.25015700000001
 20
11.80326499999998
 30
-1.947129
 70
    48
  0
VERTEX
  5
25003
330
24FF4
100
AcDbEntity
  8
1
100
AcDbVertex
100
AcDb3dPolylineVertex
 10
93.74476599999999
 20
11.40424299999998
 30
-1.947129
 70
    48
  0
VERTEX
  5
25004
330
24FF4
100
AcDbEntity
  8
1
100
AcDbVertex
100
AcDb3dPolylineVertex
 10
92.168088
 20
10.27598999999998
 30
-1.947129
 70
    48
  0
VERTEX
  5
25005
330
24FF4
100
AcDbEntity
  8
1
100
AcDbVertex
100
AcDb3dPolylineVertex
 10
91.03562100000001
 20
9.633345999999981
 30
-1.947129
 70
    48
  0
VERTEX
  5
25006
330
24FF4
100
AcDbEntity
  8
1
100
AcDbVertex
100
AcDb3dPolylineVertex
 10
89.39908399999998
 20
8.89241399999998
 30
-1.947129
 70
    48
  0
VERTEX
  5
25007
330
24FF4
100
AcDbEntity
  8
1
100
AcDbVertex
100
AcDb3dPolylineVertex
 10
88.95557399999999
 20
8.70443799999999
 30
-1.947129
 70
    48
  0
VERTEX
  5
25008
330
24FF4
100
AcDbEntity
  8
1
100
AcDbVertex
100
AcDb3dPolylineVertex
 10
88.14975699999996
 20
8.51410399999998
 30
-1.947129
 70
    48
  0
VERTEX
  5
25009
330
24FF4
100
AcDbEntity
  8
1
100
AcDbVertex
100
AcDb3dPolylineVertex
 10
87.84740799999999
 20
8.476571999999981
 30
-1.947129
 70
    48
  0
VERTEX
  5
2500A
330
24FF4
100
AcDbEntity
  8
1
100
AcDbVertex
100
AcDb3dPolylineVertex
 10
87.219394
 20
8.474181999999981
 30
-1.947129
 70
    48
  0
VERTEX
  5
2500B
330
24FF4
100
AcDbEntity
  8
1
100
AcDbVertex
100
AcDb3dPolylineVertex
 10
86.93375299999997
 20
8.435198999999981
 30
-1.947129
 70
    48
  0
VERTEX
  5
2500C
330
24FF4
100
AcDbEntity
  8
1
100
AcDbVertex
100
AcDb3dPolylineVertex
 10
86.41219999999998
 20
8.65184999999999
 30
-1.947129
 70
    48
  0
VERTEX
  5
2500D
330
24FF4
100
AcDbEntity
  8
1
100
AcDbVertex
100
AcDb3dPolylineVertex
 10
86.30480599999998
 20
8.77890099999999
 30
-1.947129
 70
    48
  0
VERTEX
  5
2500E
330
24FF4
100
AcDbEntity
  8
1
100
AcDbVertex
100
AcDb3dPolylineVertex
 10
86.09306399999999
 20
9.11074499999998
 30
-1.947129
 70
    48
  0
VERTEX
  5
2500F
330
24FF4
100
AcDbEntity
  8
1
100
AcDbVertex
100
AcDb3dPolylineVertex
 10
86.01238999999997
 20
9.22484399999999
 30
-1.947129
 70
    48
  0
VERTEX
  5
25010
330
24FF4
100
AcDbEntity
  8
1
100
AcDbVertex
100
AcDb3dPolylineVertex
 10
85.938882
 20
9.81118799999999
 30
-1.947129
 70
    48
  0
VERTEX
  5
25011
330
24FF4
100
AcDbEntity
  8
1
100
AcDbVertex
100
AcDb3dPolylineVertex
 10
86.03627699999998
 20
9.96385599999998
 30
-1.947129
 70
    48
  0
VERTEX
  5
25012
330
24FF4
100
AcDbEntity
  8
1
100
AcDbVertex
100
AcDb3dPolylineVertex
 10
86.177732
 20
10.42022099999999
 30
-1.947129
 70
    48
  0
VERTEX
  5
25013
330
24FF4
100
AcDbEntity
  8
1
100
AcDbVertex
100
AcDb3dPolylineVertex
 10
86.28214900000001
 20
10.61109799999999
 30
-1.947129
 70
    48
  0
VERTEX
  5
25014
330
24FF4
100
AcDbEntity
  8
1
100
AcDbVertex
100
AcDb3dPolylineVertex
 10
86.69756599999997
 20
11.26352099999998
 30
-1.947129
 70
    48
  0
VERTEX
  5
25015
330
24FF4
100
AcDbEntity
  8
1
100
AcDbVertex
100
AcDb3dPolylineVertex
 10
86.94521800000002
 20
11.59602499999998
 30
-1.947129
 70
    48
  0
VERTEX
  5
25016
330
24FF4
100
AcDbEntity
  8
1
100
AcDbVertex
100
AcDb3dPolylineVertex
 10
87.75847599999996
 20
12.35055599999998
 30
-1.947129
 70
    48
  0
VERTEX
  5
25017
330
24FF4
100
AcDbEntity
  8
1
100
AcDbVertex
100
AcDb3dPolylineVertex
 10
88.26620899999998
 20
12.67118199999998
 30
-1.947129
 70
    48
  0
VERTEX
  5
25018
330
24FF4
100
AcDbEntity
  8
1
100
AcDbVertex
100
AcDb3dPolylineVertex
 10
89.53599799999997
 20
13.45088899999998
 30
-1.947129
 70
    48
  0
VERTEX
  5
25019
330
24FF4
100
AcDbEntity
  8
1
100
AcDbVertex
100
AcDb3dPolylineVertex
 10
90.29034499999999
 20
13.79300399999998
 30
-1.947129
 70
    48
  0
VERTEX
  5
2501A
330
24FF4
100
AcDbEntity
  8
1
100
AcDbVertex
100
AcDb3dPolylineVertex
 10
92.11528099999998
 20
14.51748899999998
 30
-1.947129
 70
    48
  0
VERTEX
  5
2501B
330
24FF4
100
AcDbEntity
  8
1
100
AcDbVertex
100
AcDb3dPolylineVertex
 10
93.142404
 20
14.84232699999998
 30
-1.947129
 70
    48
  0
VERTEX
  5
2501C
330
24FF4
100
AcDbEntity
  8
1
100
AcDbVertex
100
AcDb3dPolylineVertex
 10
94.63146199999998
 20
15.01616199999998
 30
-1.947129
 70
    48
  0
VERTEX
  5
2501D
330
24FF4
100
AcDbEntity
  8
1
100
AcDbVertex
100
AcDb3dPolylineVertex
 10
94.97666399999999
 20
15.03518699999998
 30
-1.947129
 70
    48
  0
VERTEX
  5
2501E
330
24FF4
100
AcDbEntity
  8
1
100
AcDbVertex
100
AcDb3dPolylineVertex
 10
95.348947
 20
15.03007499999998
 30
-1.947129
 70
    48
  0
VERTEX
  5
2501F
330
24FF4
100
AcDbEntity
  8
1
100
AcDbVertex
100
AcDb3dPolylineVertex
 10
95.348947
 20
15.03007499999998
 30
-1.947129
 70
    40
  0
VERTEX
  5
25020
330
24FF4
100
AcDbEntity
  8
1
100
AcDbVertex
100
AcDb3dPolylineVertex
 10
95.679432
 20
15.03484599999998
 30
-1.947129
 70
    40
  0
VERTEX
  5
25021
330
24FF4
100
AcDbEntity
  8
1
100
AcDbVertex
100
AcDb3dPolylineVertex
 10
96.01154999999998
 20
15.00155799999998
 30
-1.947129
 70
    40
  0
VERTEX
  5
25022
330
24FF4
100
AcDbEntity
  8
1
100
AcDbVertex
100
AcDb3dPolylineVertex
 10
96.200659
 20
14.94513699999998
 30
-1.947129
 70
    40
  0
VERTEX
  5
25023
330
24FF4
100
AcDbEntity
  8
1
100
AcDbVertex
100
AcDb3dPolylineVertex
 10
96.27630600000001
 20
14.89166099999998
 30
-1.947129
 70
    40
  0
VERTEX
  5
25024
330
24FF4
100
AcDbEntity
  8
1
100
AcDbVertex
100
AcDb3dPolylineVertex
 10
96.34859400000001
 20
14.81156699999998
 30
-1.947129
 70
    40
  0
VERTEX
  5
25025
330
24FF4
100
AcDbEntity
  8
1
100
AcDbVertex
100
AcDb3dPolylineVertex
 10
96.47760400000001
 20
14.58889599999998
 30
-1.947129
 70
    40
  0
VERTEX
  5
25026
330
24FF4
100
AcDbEntity
  8
1
100
AcDbVertex
100
AcDb3dPolylineVertex
 10
96.50249100000001
 20
14.49176899999998
 30
-1.947129
 70
    40
  0
VERTEX
  5
25027
330
24FF4
100
AcDbEntity
  8
1
100
AcDbVertex
100
AcDb3dPolylineVertex
 10
96.490431
 20
14.31909999999998
 30
-1.947129
 70
    40
  0
VERTEX
  5
25028
330
24FF4
100
AcDbEntity
  8
1
100
AcDbVertex
100
AcDb3dPolylineVertex
 10
96.357519
 20
13.95704099999998
 30
-1.947129
 70
    40
  0
VERTEX
  5
25029
330
24FF4
100
AcDbEntity
  8
1
100
AcDbVertex
100
AcDb3dPolylineVertex
 10
96.17287400000002
 20
13.57097799999998
 30
-1.947129
 70
    40
  0
VERTEX
  5
2502A
330
24FF4
100
AcDbEntity
  8
1
100
AcDbVertex
100
AcDb3dPolylineVertex
 10
95.949076
 20
13.24385399999998
 30
-1.947129
 70
    40
  0
VERTEX
  5
2502B
330
24FF4
100
AcDbEntity
  8
1
100
AcDbVertex
100
AcDb3dPolylineVertex
 10
95.67904099999998
 20
12.96576599999998
 30
-1.947129
 70
    40
  0
VERTEX
  5
2502C
330
24FF4
100
AcDbEntity
  8
1
100
AcDbVertex
100
AcDb3dPolylineVertex
 10
94.94477100000001
 20
12.39818999999998
 30
-1.947129
 70
    40
  0
VERTEX
  5
2502D
330
24FF4
100
AcDbEntity
  8
1
100
AcDbVertex
100
AcDb3dPolylineVertex
 10
94.24428500000001
 20
11.81048099999998
 30
-1.947129
 70
    40
  0
VERTEX
  5
2502E
330
24FF4
100
AcDbEntity
  8
1
100
AcDbVertex
100
AcDb3dPolylineVertex
 10
93.221655
 20
11.02990999999998
 30
-1.947129
 70
    40
  0
VERTEX
  5
2502F
330
24FF4
100
AcDbEntity
  8
1
100
AcDbVertex
100
AcDb3dPolylineVertex
 10
92.688416
 20
10.66219799999998
 30
-1.947129
 70
    40
  0
VERTEX
  5
25030
330
24FF4
100
AcDbEntity
  8
1
100
AcDbVertex
100
AcDb3dPolylineVertex
 10
92.14274299999999
 20
10.31288199999998
 30
-1.947129
 70
    40
  0
VERTEX
  5
25031
330
24FF4
100
AcDbEntity
  8
1
100
AcDbVertex
100
AcDb3dPolylineVertex
 10
91.58535200000001
 20
9.98181199999999
 30
-1.947129
 70
    40
  0
VERTEX
  5
25032
330
24FF4
100
AcDbEntity
  8
1
100
AcDbVertex
100
AcDb3dPolylineVertex
 10
91.01695999999998
 20
9.66883899999998
 30
-1.947129
 70
    40
  0
VERTEX
  5
25033
330
24FF4
100
AcDbEntity
  8
1
100
AcDbVertex
100
AcDb3dPolylineVertex
 10
90.43828199999998
 20
9.37381099999998
 30
-1.947129
 70
    40
  0
VERTEX
  5
25034
330
24FF4
100
AcDbEntity
  8
1
100
AcDbVertex
100
AcDb3dPolylineVertex
 10
89.39943599999997
 20
8.899855
 30
-1.947129
 70
    40
  0
VERTEX
  5
25035
330
24FF4
100
AcDbEntity
  8
1
100
AcDbVertex
100
AcDb3dPolylineVertex
 10
88.94101999999998
 20
8.726191999999977
 30
-1.947129
 70
    40
  0
VERTEX
  5
25036
330
24FF4
100
AcDbEntity
  8
1
100
AcDbVertex
100
AcDb3dPolylineVertex
 10
88.46201399999998
 20
8.587858999999982
 30
-1.947129
 70
    40
  0
VERTEX
  5
25037
330
24FF4
100
AcDbEntity
  8
1
100
AcDbVertex
100
AcDb3dPolylineVertex
 10
88.152266
 20
8.52618299999998
 30
-1.947129
 70
    40
  0
VERTEX
  5
25038
330
24FF4
100
AcDbEntity
  8
1
100
AcDbVertex
100
AcDb3dPolylineVertex
 10
87.844359
 20
8.48867999999998
 30
-1.947129
 70
    40
  0
VERTEX
  5
25039
330
24FF4
100
AcDbEntity
  8
1
100
AcDbVertex
100
AcDb3dPolylineVertex
 10
87.22614999999995
 20
8.469524999999981
 30
-1.947129
 70
    40
  0
VERTEX
  5
2503A
330
24FF4
100
AcDbEntity
  8
1
100
AcDbVertex
100
AcDb3dPolylineVertex
 10
86.92131399999999
 20
8.48611199999998
 30
-1.947129
 70
    40
  0
VERTEX
  5
2503B
330
24FF4
100
AcDbEntity
  8
1
100
AcDbVertex
100
AcDb3dPolylineVertex
 10
86.76470799999998
 20
8.51770599999998
 30
-1.947129
 70
    40
  0
VERTEX
  5
2503C
330
24FF4
100
AcDbEntity
  8
1
100
AcDbVertex
100
AcDb3dPolylineVertex
 10
86.60256799999997
 20
8.57277199999998
 30
-1.947129
 70
    40
  0
VERTEX
  5
2503D
330
24FF4
100
AcDbEntity
  8
1
100
AcDbVertex
100
AcDb3dPolylineVertex
 10
86.43706599999999
 20
8.66715199999998
 30
-1.947129
 70
    40
  0
VERTEX
  5
2503E
330
24FF4
100
AcDbEntity
  8
1
100
AcDbVertex
100
AcDb3dPolylineVertex
 10
86.31012899999998
 20
8.78937699999998
 30
-1.947129
 70
    40
  0
VERTEX
  5
2503F
330
24FF4
100
AcDbEntity
  8
1
100
AcDbVertex
100
AcDb3dPolylineVertex
 10
86.10406299999999
 20
9.09834099999999
 30
-1.947129
 70
    40
  0
VERTEX
  5
25040
330
24FF4
100
AcDbEntity
  8
1
100
AcDbVertex
100
AcDb3dPolylineVertex
 10
86.02742699999998
 20
9.26872299999999
 30
-1.947129
 70
    40
  0
VERTEX
  5
25041
330
24FF4
100
AcDbEntity
  8
1
100
AcDbVertex
100
AcDb3dPolylineVertex
 10
85.97855899999997
 20
9.49470199999998
 30
-1.947129
 70
    40
  0
VERTEX
  5
25042
330
24FF4
100
AcDbEntity
  8
1
100
AcDbVertex
100
AcDb3dPolylineVertex
 10
85.97849399999999
 20
9.76539999999998
 30
-1.947129
 70
    40
  0
VERTEX
  5
25043
330
24FF4
100
AcDbEntity
  8
1
100
AcDbVertex
100
AcDb3dPolylineVertex
 10
86.10661599999998
 20
10.19078399999998
 30
-1.947129
 70
    40
  0
VERTEX
  5
25044
330
24FF4
100
AcDbEntity
  8
1
100
AcDbVertex
100
AcDb3dPolylineVertex
 10
86.18895399999997
 20
10.40992799999998
 30
-1.947129
 70
    40
  0
VERTEX
  5
25045
330
24FF4
100
AcDbEntity
  8
1
100
AcDbVertex
100
AcDb3dPolylineVertex
 10
86.42315599999998
 20
10.83255299999998
 30
-1.947129
 70
    40
  0
VERTEX
  5
25046
330
24FF4
100
AcDbEntity
  8
1
100
AcDbVertex
100
AcDb3dPolylineVertex
 10
86.69337499999995
 20
11.23400999999998
 30
-1.947129
 70
    40
  0
VERTEX
  5
25047
330
24FF4
100
AcDbEntity
  8
1
100
AcDbVertex
100
AcDb3dPolylineVertex
 10
86.97412899999998
 20
11.58968099999998
 30
-1.947129
 70
    40
  0
VERTEX
  5
25048
330
24FF4
100
AcDbEntity
  8
1
100
AcDbVertex
100
AcDb3dPolylineVertex
 10
87.29378999999999
 20
11.91942499999998
 30
-1.947129
 70
    40
  0
VERTEX
  5
25049
330
24FF4
100
AcDbEntity
  8
1
100
AcDbVertex
100
AcDb3dPolylineVertex
 10
87.77230199999998
 20
12.31814399999998
 30
-1.947129
 70
    40
  0
VERTEX
  5
2504A
330
24FF4
100
AcDbEntity
  8
1
100
AcDbVertex
100
AcDb3dPolylineVertex
 10
88.276374
 20
12.66972799999998
 30
-1.947129
 70
    40
  0
VERTEX
  5
2504B
330
24FF4
100
AcDbEntity
  8
1
100
AcDbVertex
100
AcDb3dPolylineVertex
 10
88.80286699999997
 20
13.00071399999998
 30
-1.947129
 70
    40
  0
VERTEX
  5
2504C
330
24FF4
100
AcDbEntity
  8
1
100
AcDbVertex
100
AcDb3dPolylineVertex
 10
89.54375499999995
 20
13.41787599999998
 30
-1.947129
 70
    40
  0
VERTEX
  5
2504D
330
24FF4
100
AcDbEntity
  8
1
100
AcDbVertex
100
AcDb3dPolylineVertex
 10
90.302897
 20
13.78103799999998
 30
-1.947129
 70
    40
  0
VERTEX
  5
2504E
330
24FF4
100
AcDbEntity
  8
1
100
AcDbVertex
100
AcDb3dPolylineVertex
 10
91.084405
 20
14.10823899999998
 30
-1.947129
 70
    40
  0
VERTEX
  5
2504F
330
24FF4
100
AcDbEntity
  8
1
100
AcDbVertex
100
AcDb3dPolylineVertex
 10
92.11756900000001
 20
14.48528499999998
 30
-1.947129
 70
    40
  0
VERTEX
  5
25050
330
24FF4
100
AcDbEntity
  8
1
100
AcDbVertex
100
AcDb3dPolylineVertex
 10
92.63984999999999
 20
14.64507999999998
 30
-1.947129
 70
    40
  0
VERTEX
  5
25051
330
24FF4
100
AcDbEntity
  8
1
100
AcDbVertex
100
AcDb3dPolylineVertex
 10
93.169468
 20
14.78165599999998
 30
-1.947129
 70
    40
  0
VERTEX
  5
25052
330
24FF4
100
AcDbEntity
  8
1
100
AcDbVertex
100
AcDb3dPolylineVertex
 10
93.70907899999997
 20
14.89196399999998
 30
-1.947129
 70
    40
  0
VERTEX
  5
25053
330
24FF4
100
AcDbEntity
  8
1
100
AcDbVertex
100
AcDb3dPolylineVertex
 10
94.26133699999999
 20
14.97295299999998
 30
-1.947129
 70
    40
  0
VERTEX
  5
25054
330
24FF4
100
AcDbEntity
  8
1
100
AcDbVertex
100
AcDb3dPolylineVertex
 10
94.983765
 20
15.02713899999998
 30
-1.947129
 70
    40
  0
VERTEX
  5
25055
330
24FF4
100
AcDbEntity
  8
1
100
AcDbVertex
100
AcDb3dPolylineVertex
 10
95.348947
 20
15.03007499999998
 30
-1.947129
 70
    40
  0
SEQEND
  5
25056
330
24FF4
100
AcDbEntity
  8
1
  0
TEXT
  5
25057
330
18
100
AcDbEntity
  8
16
100
AcDbText
 10
5.062338000000082
 20
-17.12319800000001
 30
-1.947129
 40
2.7
  1
C4-PTFNR-27120-16W
 50
90.0
 41
0.771300901467505
  7
SANDVIK_STYLE
 72
     5
 11
5.062338000000082
 21
19.66785499999999
 31
-1.947129
100
AcDbText
  0
DIMENSION
  5
25058
330
18
100
AcDbEntity
  8
20
100
AcDbDimension
  2
*D23
 10
140.862338
 20
28.14732899999998
 30
-1.947129
 11
140.862338
 21
14.70982899999998
 31
-1.947129
 70
   160
  1
27
 71
     5
 42
26.87499999999999
  3
SANDVIK_STYLE
100
AcDbAlignedDimension
 13
130.3206719999999
 23
1.272328999999992
 33
-1.947129
 14
121.362338
 24
28.14732899999998
 34
-1.947129
 50
90.0
100
AcDbRotatedDimension
  0
DIMENSION
  5
25059
330
18
100
AcDbEntity
  8
12
100
AcDbDimension
  2
*D24
 10
-31.13766199999991
 20
21.272329
 30
-1.947129
 11
-31.13766199999991
 21
1.272328999999998
 31
-1.947129
 70
   160
  1
D=40
 71
     5
 42
39.99999999999996
  3
SANDVIK_STYLE
100
AcDbAlignedDimension
 13
1.362337999999994
 23
-18.72767099999999
 33
-1.947129
 14
1.362337999999994
 24
21.27232899999999
 34
-1.947129
 50
90.0
100
AcDbRotatedDimension
  0
DIMENSION
  5
2505A
330
18
100
AcDbEntity
  8
12
100
AcDbDimension
  2
*D25
 10
63.56111600000001
 20
21.12232899999997
 30
-1.947129
 11
63.56111599999999
 21
1.124959999999979
 31
-1.947129
 70
   160
  1
%%c39.7
 71
     5
 42
39.7
  3
SANDVIK_STYLE
100
AcDbAlignedDimension
 13
20.90253099999999
 23
-18.57767100000001
 33
-1.947129
 14
20.90253099999999
 24
21.12232899999999
 34
-1.947129
 50
90.0
100
AcDbRotatedDimension
  0
DIMENSION
  5
2505B
330
18
100
AcDbEntity
  8
20
100
AcDbDimension
  2
*D26
 10
121.362338
 20
46.64732899999999
 30
-1.947129
 11
61.36233799999999
 21
46.64732899999999
 31
-1.947129
 70
   160
  1
120.0
 71
     5
 42
120.0
 53
89.99999800000002
  3
SANDVIK_STYLE
100
AcDbAlignedDimension
 13
1.362337999999994
 23
21.27232899999999
 33
-1.947129
 14
121.362338
 24
28.14732899999998
 34
-1.947129
100
AcDbRotatedDimension
  0
DIMENSION
  5
2505C
330
18
100
AcDbEntity
  8
12
100
AcDbDimension
  2
*D27
 10
121.362338
 20
36.64732899999997
 30
-1.947129
 11
71.13243499999999
 21
36.64732899999997
 31
-1.947129
 70
   160
  1
100.5
 71
     5
 42
100.459807
 53
89.99999800000002
  3
SANDVIK_STYLE
100
AcDbAlignedDimension
 13
20.90253099999999
 23
21.12232899999999
 33
-1.947129
 14
121.362338
 24
28.14732899999998
 34
-1.947129
100
AcDbRotatedDimension
  0
DIMENSION
  5
2505D
330
18
100
AcDbEntity
  8
20
100
AcDbDimension
  2
*D28
 10
120.891052
 20
1.14732899999998
 30
-1.947129
 11
139.6977367837843
 21
-17.86328994438665
 31
0.0
 70
    34
  1
91%%d0'
 71
     5
 42
1.588250554101751
 52
201.7499959999999
 53
314.5
  3
SANDVIK_STYLE
100
AcDb2LineAngularDimension
 13
130.3206719999999
 23
1.272328999999992
 33
-1.947129
 14
120.893234
 24
1.272328999999992
 34
-1.947129
 15
120.893234
 25
1.272328999999992
 35
-1.947129
 16
134.0363428227768
 26
-22.116555706261
 36
0.0
  0
LINE
  5
2505E
330
18
100
AcDbEntity
  8
80
100
AcDbLine
 10
1.362337999999994
 20
1.272328999999998
 30
-1.947129
 11
-24.9766053453307
 21
1.272328999999998
 31
-1.947129
  0
LINE
  5
2505F
330
18
100
AcDbEntity
  8
81
100
AcDbLine
 10
1.362337999999994
 20
1.272328999999998
 30
-1.947129
 11
124.2451275175134
 21
1.272328999999992
 31
-1.947129
  0
INSERT
  5
25060
330
18
100
AcDbEntity
  8
5
100
AcDbBlockReference
  2
_nullpunkt
 10
1.362337999999995
 20
1.272329
 30
-1.947129
  0
TEXT
  5
25061
330
18
100
AcDbEntity
  8
5
100
AcDbText
 10
-1.137662000000001
 20
1.272329
 30
-1.947129
 40
0.1
  1
ISOORIENTED
100
AcDbText
  0
ENDSEC
  0
SECTION
  2
OBJECTS
  0
DICTIONARY
  5
C
330
0
100
AcDbDictionary
281
     1
  3
ACAD_2007HEADERVARS_RT
350
25156
  3
ACAD_CIP_PREVIOUS_PRODUCT_INFO
350
2511C
  3
ACAD_COLOR
350
387
  3
ACAD_DETAILVIEWSTYLE
350
25119
  3
ACAD_GROUP
350
D
  3
ACAD_LAYOUT
350
301
  3
ACAD_MATERIAL
350
386
  3
ACAD_MLEADERSTYLE
350
43C
  3
ACAD_MLINESTYLE
350
E
  3
ACAD_PLOTSETTINGS
350
302
  3
ACAD_PLOTSTYLENAME
350
2FF
  3
ACAD_SCALELIST
350
41A
  3
ACAD_SECTIONVIEWSTYLE
350
25117
  3
ACAD_TABLESTYLE
350
388
  3
ACAD_VISUALSTYLE
350
3F2
  3
ACDB_RECOMPOSE_DATA
350
25154
  3
AcDbVariableDictionary
350
357
  3
DWGPROPS
350
25155
  0
DICTIONARY
  5
2511F
330
F
100
AcDbDictionary
280
     1
281
     1
  3
ADSK_XREC_LAYER_RECONCILED
360
25120
  0
DICTIONARY
  5
25121
330
23
100
AcDbDictionary
280
     1
281
     1
  3
ADSK_XREC_LAYER_RECONCILED
360
25122
  0
DICTIONARY
  5
25123
330
24DEC
100
AcDbDictionary
280
     1
281
     1
  3
ADSK_XREC_LAYER_RECONCILED
360
25124
  0
DICTIONARY
  5
25125
330
24DEE
100
AcDbDictionary
280
     1
281
     1
  3
ADSK_XREC_LAYER_RECONCILED
360
25126
  0
DICTIONARY
  5
25127
330
24DEF
100
AcDbDictionary
280
     1
281
     1
  3
ADSK_XREC_LAYER_RECONCILED
360
25128
  0
DICTIONARY
  5
25129
330
24DF0
100
AcDbDictionary
280
     1
281
     1
  3
ADSK_XREC_LAYER_RECONCILED
360
2512A
  0
DICTIONARY
  5
2512B
330
24DF1
100
AcDbDictionary
280
     1
281
     1
  3
ADSK_XREC_LAYER_RECONCILED
360
2512C
  0
DICTIONARY
  5
2512D
330
24DF2
100
AcDbDictionary
280
     1
281
     1
  3
ADSK_XREC_LAYER_RECONCILED
360
2512E
  0
DICTIONARY
  5
2512F
330
24DF3
100
AcDbDictionary
280
     1
281
     1
  3
ADSK_XREC_LAYER_RECONCILED
360
25130
  0
DICTIONARY
  5
25131
330
24DF4
100
AcDbDictionary
280
     1
281
     1
  3
ADSK_XREC_LAYER_RECONCILED
360
25132
  0
DICTIONARY
  5
25133
330
24DF5
100
AcDbDictionary
280
     1
281
     1
  3
ADSK_XREC_LAYER_RECONCILED
360
25134
  0
DICTIONARY
  5
25135
330
24DF6
100
AcDbDictionary
280
     1
281
     1
  3
ADSK_XREC_LAYER_RECONCILED
360
25136
  0
DICTIONARY
  5
25137
330
24DF7
100
AcDbDictionary
280
     1
281
     1
  3
ADSK_XREC_LAYER_RECONCILED
360
25138
  0
DICTIONARY
  5
25139
330
24DF8
100
AcDbDictionary
280
     1
281
     1
  3
ADSK_XREC_LAYER_RECONCILED
360
2513A
  0
DICTIONARY
  5
2513B
330
24DF9
100
AcDbDictionary
280
     1
281
     1
  3
ADSK_XREC_LAYER_RECONCILED
360
2513C
  0
DICTIONARY
  5
2513D
330
24DFA
100
AcDbDictionary
280
     1
281
     1
  3
ADSK_XREC_LAYER_RECONCILED
360
2513E
  0
DICTIONARY
  5
2513F
330
24DFB
100
AcDbDictionary
280
     1
281
     1
  3
ADSK_XREC_LAYER_RECONCILED
360
25140
  0
DICTIONARY
  5
25141
330
24DFC
100
AcDbDictionary
280
     1
281
     1
  3
ADSK_XREC_LAYER_RECONCILED
360
25142
  0
DICTIONARY
  5
25143
330
24DFD
100
AcDbDictionary
280
     1
281
     1
  3
ADSK_XREC_LAYER_RECONCILED
360
25144
  0
DICTIONARY
  5
25145
330
24DFE
100
AcDbDictionary
280
     1
281
     1
  3
ADSK_XREC_LAYER_RECONCILED
360
25146
  0
DICTIONARY
  5
25147
330
24DFF
100
AcDbDictionary
280
     1
281
     1
  3
ADSK_XREC_LAYER_RECONCILED
360
25148
  0
DICTIONARY
  5
25149
330
24E00
100
AcDbDictionary
280
     1
281
     1
  3
ADSK_XREC_LAYER_RECONCILED
360
2514A
  0
DICTIONARY
  5
2514B
330
24E01
100
AcDbDictionary
280
     1
281
     1
  3
ADSK_XREC_LAYER_RECONCILED
360
2514C
  0
DICTIONARY
  5
2514D
330
24E02
100
AcDbDictionary
280
     1
281
     1
  3
ADSK_XREC_LAYER_RECONCILED
360
2514E
  0
DICTIONARY
  5
24DC5
330
24DC4
100
AcDbDictionary
280
     1
281
     1
  3
ACAD_SORTENTS
360
24DC6
  0
DICTIONARY
  5
25156
102
{ACAD_REACTORS
330
C
102
}
330
C
100
AcDbDictionary
281
     1
  3
DIMJOGANG
350
25157
  0
XRECORD
  5
2511C
102
{ACAD_REACTORS
330
C
102
}
330
C
100
AcDbXrecord
280
     1
300
AMECH_PP
300
2013
300
PDSU_F_S
  0
DICTIONARY
  5
387
102
{ACAD_REACTORS
330
C
102
}
330
C
100
AcDbDictionary
281
     1
  0
DICTIONARY
  5
25119
102
{ACAD_REACTORS
330
C
102
}
330
C
100
AcDbDictionary
281
     1
  3
Metric50
350
2511A
  0
DICTIONARY
  5
D
102
{ACAD_REACTORS
330
C
102
}
330
C
100
AcDbDictionary
281
     1
  0
DICTIONARY
  5
301
102
{ACAD_REACTORS
330
C
102
}
330
C
100
AcDbDictionary
281
     1
  3
Layout1
350
33B
  3
Model
350
303
  0
DICTIONARY
  5
386
102
{ACAD_REACTORS
330
C
102
}
330
C
100
AcDbDictionary
281
     1
  3
ByBlock
350
3F0
  3
ByLayer
350
3EF
  3
Global
350
3F1
  0
DICTIONARY
  5
43C
102
{ACAD_REACTORS
330
C
102
}
330
C
100
AcDbDictionary
281
     1
  3
Standard
350
43D
  0
DICTIONARY
  5
E
102
{ACAD_REACTORS
330
C
102
}
330
C
100
AcDbDictionary
281
     1
  3
STANDARD
350
1B
  0
DICTIONARY
  5
302
102
{ACAD_REACTORS
330
C
102
}
330
C
100
AcDbDictionary
281
     1
  0
ACDBDICTIONARYWDFLT
  5
2FF
102
{ACAD_REACTORS
330
C
102
}
330
C
100
AcDbDictionary
281
     1
  3
Normal
350
300
100
AcDbDictionaryWithDefault
340
300
  0
DICTIONARY
  5
41A
102
{ACAD_REACTORS
330
C
102
}
330
C
100
AcDbDictionary
281
     1
  3
A0
350
41B
  3
A1
350
41C
  3
A2
350
41D
  3
A3
350
41E
  3
A4
350
41F
  3
A5
350
420
  3
A6
350
421
  3
A7
350
422
  3
A8
350
423
  3
A9
350
424
  3
B0
350
425
  3
B1
350
426
  3
B2
350
427
  3
B3
350
428
  3
B4
350
429
  3
B5
350
42A
  3
B6
350
42B
  3
B7
350
42C
  3
B8
350
42D
  3
B9
350
42E
  3
C0
350
42F
  3
C1
350
430
  3
C2
350
431
  3
C3
350
432
  3
C4
350
433
  3
C5
350
434
  3
C6
350
435
  3
C7
350
436
  3
C8
350
437
  3
C9
350
438
  3
D0
350
439
  3
D1
350
43A
  3
D2
350
43B
  0
DICTIONARY
  5
25117
102
{ACAD_REACTORS
330
C
102
}
330
C
100
AcDbDictionary
281
     1
  3
Metric50
350
25118
  0
DICTIONARY
  5
388
102
{ACAD_REACTORS
330
C
102
}
330
C
100
AcDbDictionary
281
     1
  3
Standard
350
389
  0
DICTIONARY
  5
3F2
102
{ACAD_REACTORS
330
C
102
}
330
C
100
AcDbDictionary
281
     1
  3
2dWireframe
350
3F8
  3
3D Hidden
350
3FA
  3
3dWireframe
350
3F9
  3
Basic
350
3F7
  3
Brighten
350
3FE
  3
ColorChange
350
402
  3
Conceptual
350
3FB
  3
Dim
350
3FD
  3
EdgeColorOff
350
44E
  3
Facepattern
350
401
  3
Flat
350
3F3
  3
FlatWithEdges
350
3F4
  3
Gouraud
350
3F5
  3
GouraudWithEdges
350
3F6
  3
Hidden
350
25111
  3
JitterOff
350
44C
  3
Linepattern
350
400
  3
OverhangOff
350
44D
  3
Realistic
350
3FC
  3
Shaded
350
25116
  3
Shaded with edges
350
25115
  3
Shades of Gray
350
25112
  3
Sketchy
350
25113
  3
Thicken
350
3FF
  3
Wireframe
350
25110
  3
X-Ray
350
25114
  0
XRECORD
  5
25154
102
{ACAD_REACTORS
330
C
102
}
330
C
100
AcDbXrecord
280
     1
 90
        1
330
389
  0
DICTIONARY
  5
357
102
{ACAD_REACTORS
330
C
102
}
330
C
100
AcDbDictionary
281
     1
  3
CANNOSCALE
350
449
  3
CMLEADERSTYLE
350
447
  3
CTABLESTYLE
350
38E
  3
CVIEWDETAILSTYLE
350
2514F
  3
CVIEWSECTIONSTYLE
350
25150
  3
DIMASSOC
350
359
  3
HIDETEXT
350
358
  3
INDEXCTL
350
728
  3
LAYEREVAL
350
458
  3
LAYERNOTIFY
350
459
  3
LIGHTINGUNITS
350
44A
  3
MSLTSCALE
350
448
  3
SORTENTS
350
727
  3
XCLIPFRAME
350
25151
  0
XRECORD
  5
25155
102
{ACAD_REACTORS
330
C
102
}
330
C
100
AcDbXrecord
280
     1
  1
DWGPROPS COOKIE
  2

  3

  4

  6

  7

  8
Micke
  9

300
=
301
=
302
=
303
=
304
=
305
=
306
=
307
=
308
=
309
=
 40
0.0012824305555556
 41
2455883.64348684
 42
2456817.855839919
  1

 90
        0
  0
XRECORD
  5
25120
102
{ACAD_REACTORS
330
2511F
102
}
330
2511F
100
AcDbXrecord
280
     1
290
     1
  0
XRECORD
  5
25122
102
{ACAD_REACTORS
330
25121
102
}
330
25121
100
AcDbXrecord
280
     1
290
     1
  0
XRECORD
  5
25124
102
{ACAD_REACTORS
330
25123
102
}
330
25123
100
AcDbXrecord
280
     1
290
     1
  0
XRECORD
  5
25126
102
{ACAD_REACTORS
330
25125
102
}
330
25125
100
AcDbXrecord
280
     1
290
     1
  0
XRECORD
  5
25128
102
{ACAD_REACTORS
330
25127
102
}
330
25127
100
AcDbXrecord
280
     1
290
     1
  0
XRECORD
  5
2512A
102
{ACAD_REACTORS
330
25129
102
}
330
25129
100
AcDbXrecord
280
     1
290
     1
  0
XRECORD
  5
2512C
102
{ACAD_REACTORS
330
2512B
102
}
330
2512B
100
AcDbXrecord
280
     1
290
     1
  0
XRECORD
  5
2512E
102
{ACAD_REACTORS
330
2512D
102
}
330
2512D
100
AcDbXrecord
280
     1
290
     1
  0
XRECORD
  5
25130
102
{ACAD_REACTORS
330
2512F
102
}
330
2512F
100
AcDbXrecord
280
     1
290
     1
  0
XRECORD
  5
25132
102
{ACAD_REACTORS
330
25131
102
}
330
25131
100
AcDbXrecord
280
     1
290
     1
  0
XRECORD
  5
25134
102
{ACAD_REACTORS
330
25133
102
}
330
25133
100
AcDbXrecord
280
     1
290
     1
  0
XRECORD
  5
25136
102
{ACAD_REACTORS
330
25135
102
}
330
25135
100
AcDbXrecord
280
     1
290
     1
  0
XRECORD
  5
25138
102
{ACAD_REACTORS
330
25137
102
}
330
25137
100
AcDbXrecord
280
     1
290
     1
  0
XRECORD
  5
2513A
102
{ACAD_REACTORS
330
25139
102
}
330
25139
100
AcDbXrecord
280
     1
290
     1
  0
XRECORD
  5
2513C
102
{ACAD_REACTORS
330
2513B
102
}
330
2513B
100
AcDbXrecord
280
     1
290
     1
  0
XRECORD
  5
2513E
102
{ACAD_REACTORS
330
2513D
102
}
330
2513D
100
AcDbXrecord
280
     1
290
     1
  0
XRECORD
  5
25140
102
{ACAD_REACTORS
330
2513F
102
}
330
2513F
100
AcDbXrecord
280
     1
290
     1
  0
XRECORD
  5
25142
102
{ACAD_REACTORS
330
25141
102
}
330
25141
100
AcDbXrecord
280
     1
290
     1
  0
XRECORD
  5
25144
102
{ACAD_REACTORS
330
25143
102
}
330
25143
100
AcDbXrecord
280
     1
290
     1
  0
XRECORD
  5
25146
102
{ACAD_REACTORS
330
25145
102
}
330
25145
100
AcDbXrecord
280
     1
290
     1
  0
XRECORD
  5
25148
102
{ACAD_REACTORS
330
25147
102
}
330
25147
100
AcDbXrecord
280
     1
290
     1
  0
XRECORD
  5
2514A
102
{ACAD_REACTORS
330
25149
102
}
330
25149
100
AcDbXrecord
280
     1
290
     1
  0
XRECORD
  5
2514C
102
{ACAD_REACTORS
330
2514B
102
}
330
2514B
100
AcDbXrecord
280
     1
290
     1
  0
XRECORD
  5
2514E
102
{ACAD_REACTORS
330
2514D
102
}
330
2514D
100
AcDbXrecord
280
     1
290
     1
  0
SORTENTSTABLE
  5
24DC6
102
{ACAD_REACTORS
330
24DC5
102
}
330
24DC5
100
AcDbSortentsTable
330
24DC4
  0
XRECORD
  5
25157
102
{ACAD_REACTORS
330
25156
102
}
330
25156
100
AcDbXrecord
280
     1
 40
1.570796326794896
  0
ACDBDETAILVIEWSTYLE
  5
2511A
102
{ACAD_REACTORS
330
25119
102
}
330
25119
100
AcDbModelDocViewStyle
 70
     0
  3
Metric50
290
     0
100
AcDbDetailViewStyle
 70
     0
 71
     0
 90
        3
 71
     1
340
10
 40
5.0
340
0
 40
5.0
300

 40
0.0
280
     1
 71
     2
340
14
 90
       25
 71
     3
340
10
 40
5.0
 90
        0
 40
15.0
 90
        1
300
%<\AcVar ViewDetailId>% (%<\AcVar ViewScale \f "%sn">%)
 71
     4
340
14
 90
       25
340
14
 90
       25
280
     0
  0
LAYOUT
  5
33B
102
{ACAD_XDICTIONARY
360
2515A
102
}
102
{ACAD_REACTORS
330
301
102
}
330
301
100
AcDbPlotSettings
  1

  2
Lexmark Optra PS2
  4

  6

 40
0.0
 41
0.0
 42
0.0
 43
0.0
 44
0.0
 45
0.0
 46
0.0
 47
0.0
 48
0.0
 49
0.0
140
0.0
141
0.0
142
1.0
143
1.0
 70
   688
 72
     0
 73
     0
 74
     5
  7
monochrome.ctb
 75
    16
147
1.0
148
0.0
149
0.0
100
AcDbLayout
  1
Layout1
 70
     1
 71
     1
 10
0.0
 20
0.0
 11
12.0
 21
9.0
 12
0.0
 22
0.0
 32
0.0
 14
0.0
 24
0.0
 34
0.0
 15
0.0
 25
0.0
 35
0.0
146
0.0
 13
0.0
 23
0.0
 33
0.0
 16
1.0
 26
0.0
 36
0.0
 17
0.0
 27
1.0
 37
0.0
 76
     0
330
338
  0
LAYOUT
  5
303
102
{ACAD_XDICTIONARY
360
25158
102
}
102
{ACAD_REACTORS
330
301
102
}
330
301
100
AcDbPlotSettings
  1

  2
Default Windows System Printer.pc3
  4
A4
  6

 40
6.805083274841307
 41
5.535083293914794
 42
6.974411010742187
 43
7.14373779296875
 44
209.9733276367186
 45
296.9259948730469
 46
67.83299579489725
 47
0.0
 48
0.0
 49
0.0
140
0.0
141
0.0
142
1.0
143
0.3604333568168785
 70
  3764
 72
     1
 73
     1
 74
     1
  7
monochrome.ctb
 75
     0
147
2.774437995504559
148
-82.35087775247029
149
-53.69369632994493
100
AcDbLayout
  1
Model
 70
     1
 71
     0
 10
0.0
 20
0.0
 11
12.0
 21
9.0
 12
0.0
 22
0.0
 32
0.0
 14
0.0
 24
0.0
 34
0.0
 15
0.0
 25
0.0
 35
0.0
146
0.0
 13
0.0
 23
0.0
 33
0.0
 16
1.0
 26
0.0
 36
0.0
 17
0.0
 27
1.0
 37
0.0
 76
     0
330
18
331
3ED
1001
ACAD_PSEXT
1000
Default Windows System Printer.pc3
1000
Lexmark Optra Rx
1000
Lexmark Rx
1000
Erstellt von Lexmark Benutzerdefinierte Installation,Nov 13,2005,10:03
1070
     0
  0
MATERIAL
  5
3F0
102
{ACAD_XDICTIONARY
360
250E2
102
}
102
{ACAD_REACTORS
330
386
102
}
330
386
100
AcDbMaterial
  1
ByBlock
 73
     1
 78
     1
172
     1
176
     1
270
     1
274
     1
  0
MATERIAL
  5
3EF
102
{ACAD_XDICTIONARY
360
250E0
102
}
102
{ACAD_REACTORS
330
386
102
}
330
386
100
AcDbMaterial
  1
ByLayer
 73
     1
 78
     1
172
     1
176
     1
270
     1
274
     1
  0
MATERIAL
  5
3F1
102
{ACAD_XDICTIONARY
360
250E4
102
}
102
{ACAD_REACTORS
330
386
102
}
330
386
100
AcDbMaterial
  1
Global
 73
     1
 78
     1
172
     1
176
     1
270
     1
274
     1
  0
MLEADERSTYLE
  5
43D
102
{ACAD_REACTORS
330
43C
102
}
330
43C
100
AcDbMLeaderStyle
170
     2
171
     1
172
     0
 90
        2
 40
0.0
 41
0.0
173
     1
 91
-1056964608
340
12
 92
       -2
290
     1
 42
2.0
291
     1
 43
0.36
  3
Standard
 44
4.0
300

342
10
174
     1
178
     6
175
     1
176
     0
 93
-1056964608
 45
4.0
292
     0
297
     0
 46
4.0
 94
-1056964608
 47
1.0
 49
1.0
140
1.0
293
     1
141
0.0
294
     1
177
     0
142
1.0
295
     0
296
     0
143
0.125
1001
ACAD_MLEADERVER
1070
     2
  0
MLINESTYLE
  5
1B
102
{ACAD_REACTORS
330
E
102
}
330
E
100
AcDbMlineStyle
  2
STANDARD
 70
     0
  3

 62
     0
 51
90.0
 52
90.0
 71
     2
 49
0.5
 62
   256
  6
BYLAYER
 49
-0.5
 62
   256
  6
BYLAYER
  0
ACDBPLACEHOLDER
  5
300
102
{ACAD_REACTORS
330
2FF
102
}
330
2FF
  0
SCALE
  5
41B
102
{ACAD_REACTORS
330
41A
102
}
330
41A
100
AcDbScale
 70
     0
300
1:1
140
1.0
141
1.0
290
     1
  0
SCALE
  5
41C
102
{ACAD_REACTORS
330
41A
102
}
330
41A
100
AcDbScale
 70
     0
300
1:2
140
1.0
141
2.0
290
     0
  0
SCALE
  5
41D
102
{ACAD_REACTORS
330
41A
102
}
330
41A
100
AcDbScale
 70
     0
300
1:4
140
1.0
141
4.0
290
     0
  0
SCALE
  5
41E
102
{ACAD_REACTORS
330
41A
102
}
330
41A
100
AcDbScale
 70
     0
300
1:5
140
1.0
141
5.0
290
     0
  0
SCALE
  5
41F
102
{ACAD_REACTORS
330
41A
102
}
330
41A
100
AcDbScale
 70
     0
300
1:8
140
1.0
141
8.0
290
     0
  0
SCALE
  5
420
102
{ACAD_REACTORS
330
41A
102
}
330
41A
100
AcDbScale
 70
     0
300
1:10
140
1.0
141
10.0
290
     0
  0
SCALE
  5
421
102
{ACAD_REACTORS
330
41A
102
}
330
41A
100
AcDbScale
 70
     0
300
1:16
140
1.0
141
16.0
290
     0
  0
SCALE
  5
422
102
{ACAD_REACTORS
330
41A
102
}
330
41A
100
AcDbScale
 70
     0
300
1:20
140
1.0
141
20.0
290
     0
  0
SCALE
  5
423
102
{ACAD_REACTORS
330
41A
102
}
330
41A
100
AcDbScale
 70
     0
300
1:30
140
1.0
141
30.0
290
     0
  0
SCALE
  5
424
102
{ACAD_REACTORS
330
41A
102
}
330
41A
100
AcDbScale
 70
     0
300
1:40
140
1.0
141
40.0
290
     0
  0
SCALE
  5
425
102
{ACAD_REACTORS
330
41A
102
}
330
41A
100
AcDbScale
 70
     0
300
1:50
140
1.0
141
50.0
290
     0
  0
SCALE
  5
426
102
{ACAD_REACTORS
330
41A
102
}
330
41A
100
AcDbScale
 70
     0
300
1:100
140
1.0
141
100.0
290
     0
  0
SCALE
  5
427
102
{ACAD_REACTORS
330
41A
102
}
330
41A
100
AcDbScale
 70
     0
300
2:1
140
2.0
141
1.0
290
     0
  0
SCALE
  5
428
102
{ACAD_REACTORS
330
41A
102
}
330
41A
100
AcDbScale
 70
     0
300
4:1
140
4.0
141
1.0
290
     0
  0
SCALE
  5
429
102
{ACAD_REACTORS
330
41A
102
}
330
41A
100
AcDbScale
 70
     0
300
8:1
140
8.0
141
1.0
290
     0
  0
SCALE
  5
42A
102
{ACAD_REACTORS
330
41A
102
}
330
41A
100
AcDbScale
 70
     0
300
10:1
140
10.0
141
1.0
290
     0
  0
SCALE
  5
42B
102
{ACAD_REACTORS
330
41A
102
}
330
41A
100
AcDbScale
 70
     0
300
100:1
140
100.0
141
1.0
290
     0
  0
SCALE
  5
42C
102
{ACAD_REACTORS
330
41A
102
}
330
41A
100
AcDbScale
 70
     0
300
1/128" = 1'-0"
140
0.0078125
141
12.0
290
     0
  0
SCALE
  5
42D
102
{ACAD_REACTORS
330
41A
102
}
330
41A
100
AcDbScale
 70
     0
300
1/64" = 1'-0"
140
0.015625
141
12.0
290
     0
  0
SCALE
  5
42E
102
{ACAD_REACTORS
330
41A
102
}
330
41A
100
AcDbScale
 70
     0
300
1/32" = 1'-0"
140
0.03125
141
12.0
290
     0
  0
SCALE
  5
42F
102
{ACAD_REACTORS
330
41A
102
}
330
41A
100
AcDbScale
 70
     0
300
1/16" = 1'-0"
140
0.0625
141
12.0
290
     0
  0
SCALE
  5
430
102
{ACAD_REACTORS
330
41A
102
}
330
41A
100
AcDbScale
 70
     0
300
3/32" = 1'-0"
140
0.09375
141
12.0
290
     0
  0
SCALE
  5
431
102
{ACAD_REACTORS
330
41A
102
}
330
41A
100
AcDbScale
 70
     0
300
1/8" = 1'-0"
140
0.125
141
12.0
290
     0
  0
SCALE
  5
432
102
{ACAD_REACTORS
330
41A
102
}
330
41A
100
AcDbScale
 70
     0
300
3/16" = 1'-0"
140
0.1875
141
12.0
290
     0
  0
SCALE
  5
433
102
{ACAD_REACTORS
330
41A
102
}
330
41A
100
AcDbScale
 70
     0
300
1/4" = 1'-0"
140
0.25
141
12.0
290
     0
  0
SCALE
  5
434
102
{ACAD_REACTORS
330
41A
102
}
330
41A
100
AcDbScale
 70
     0
300
3/8" = 1'-0"
140
0.375
141
12.0
290
     0
  0
SCALE
  5
435
102
{ACAD_REACTORS
330
41A
102
}
330
41A
100
AcDbScale
 70
     0
300
1/2" = 1'-0"
140
0.5
141
12.0
290
     0
  0
SCALE
  5
436
102
{ACAD_REACTORS
330
41A
102
}
330
41A
100
AcDbScale
 70
     0
300
3/4" = 1'-0"
140
0.75
141
12.0
290
     0
  0
SCALE
  5
437
102
{ACAD_REACTORS
330
41A
102
}
330
41A
100
AcDbScale
 70
     0
300
1" = 1'-0"
140
1.0
141
12.0
290
     0
  0
SCALE
  5
438
102
{ACAD_REACTORS
330
41A
102
}
330
41A
100
AcDbScale
 70
     0
300
1-1/2" = 1'-0"
140
1.5
141
12.0
290
     0
  0
SCALE
  5
439
102
{ACAD_REACTORS
330
41A
102
}
330
41A
100
AcDbScale
 70
     0
300
3" = 1'-0"
140
3.0
141
12.0
290
     0
  0
SCALE
  5
43A
102
{ACAD_REACTORS
330
41A
102
}
330
41A
100
AcDbScale
 70
     0
300
6" = 1'-0"
140
6.0
141
12.0
290
     0
  0
SCALE
  5
43B
102
{ACAD_REACTORS
330
41A
102
}
330
41A
100
AcDbScale
 70
     0
300
1'-0" = 1'-0"
140
12.0
141
12.0
290
     0
  0
ACDBSECTIONVIEWSTYLE
  5
25118
102
{ACAD_REACTORS
330
25117
102
}
330
25117
100
AcDbModelDocViewStyle
 70
     0
  3
Metric50
290
     0
100
AcDbSectionViewStyle
 70
     0
 71
     0
 90
      102
 71
     1
340
10
 40
5.0
340
0
340
0
 40
5.0
300
I, O, Q, S, X, Z
 40
10.0
 90
        0
 40
2.5
 90
        0
 71
     2
340
14
 90
       25
340
14
 90
       50
 40
5.0
 40
2.5
 40
5.0
 71
     3
340
10
 40
5.0
 90
        0
 40
15.0
 90
        1
300
%<\AcVar ViewSectionStartId>%-%<\AcVar ViewSectionEndId>% (%<\AcVar ViewScale \f "%sn">%)
 71
     4
300
ANSI31
 40
1.0
 90
        0
290
     0
290
     0
 90
        6
 40
0.0
 40
1.570796326794896
 40
0.2617993877991494
 40
1.308996938995747
 40
-0.2617993877991494
 40
1.832595714594046
  0
TABLESTYLE
  5
389
102
{ACAD_XDICTIONARY
360
444
102
}
102
{ACAD_REACTORS
330
388
102
}
330
388
100
AcDbTableStyle
  3
Standard
 70
     0
 71
     0
 40
1.5
 41
1.5
280
     0
281
     0
  7
STANDARD
140
4.5
170
     2
 62
     0
 63
     7
283
     0
274
    -2
284
     1
 64
     0
275
    -2
285
     1
 65
     0
276
    -2
286
     1
 66
     0
277
    -2
287
     1
 67
     0
278
    -2
288
     1
 68
     0
279
    -2
289
     1
 69
     0
  7
STANDARD
140
6.0
170
     5
 62
     0
 63
     7
283
     0
274
    -2
284
     1
 64
     0
275
    -2
285
     1
 65
     0
276
    -2
286
     1
 66
     0
277
    -2
287
     1
 67
     0
278
    -2
288
     1
 68
     0
279
    -2
289
     1
 69
     0
  7
STANDARD
140
4.5
170
     5
 62
     0
 63
     7
283
     0
274
    -2
284
     1
 64
     0
275
    -2
285
     1
 65
     0
276
    -2
286
     1
 66
     0
277
    -2
287
     1
 67
     0
278
    -2
288
     1
 68
     0
279
    -2
289
     1
 69
     0
  0
VISUALSTYLE
  5
3F8
102
{ACAD_XDICTIONARY
360
25167
102
}
102
{ACAD_REACTORS
330
3F2
102
}
330
3F2
100
AcDbVisualStyle
  2

 70
     4
 71
     0
 72
     2
 73
     0
 90
        0
 40
-0.6
 41
-30.0
 62
     5
 63
     7
 74
     1
 91
        4
 64
     7
 65
   257
 75
     1
175
     1
 42
1.0
 92
        0
 66
   257
 43
1.0
 76
     1
 77
     6
 78
     2
 67
     7
 79
     5
170
     0
171
     0
290
     0
174
     0
 93
        1
 44
0.0
173
     0
291
     0
 45
0.0
1001
ACAD
1000
AcDbSavedByObjectVersion
1070
     0
  0
VISUALSTYLE
  5
3FA
102
{ACAD_XDICTIONARY
360
2516B
102
}
102
{ACAD_REACTORS
330
3F2
102
}
330
3F2
100
AcDbVisualStyle
  2

 70
     6
 71
     1
 72
     2
 73
     2
 90
        0
 40
-0.6
 41
-30.0
 62
     5
 63
     7
 74
     2
 91
        2
 64
     7
 65
   257
 75
     2
175
     1
 42
40.0
 92
        0
 66
   257
 43
1.0
 76
     1
 77
     6
 78
     2
 67
     7
 79
     3
170
     0
171
     0
290
     0
174
     0
 93
        1
 44
0.0
173
     0
291
     0
 45
0.0
1001
ACAD
1000
AcDbSavedByObjectVersion
1070
     0
  0
VISUALSTYLE
  5
3F9
102
{ACAD_XDICTIONARY
360
25169
102
}
102
{ACAD_REACTORS
330
3F2
102
}
330
3F2
100
AcDbVisualStyle
  2

 70
     5
 71
     0
 72
     2
 73
     0
 90
        0
 40
-0.6
 41
-30.0
 62
     5
 63
     7
 74
     1
 91
        4
 64
     7
 65
   257
 75
     1
175
     1
 42
1.0
 92
        0
 66
   257
 43
1.0
 76
     1
 77
     6
 78
     2
 67
     7
 79
     5
170
     0
171
     0
290
     0
174
     0
 93
        1
 44
0.0
173
     0
291
     0
 45
0.0
1001
ACAD
1000
AcDbSavedByObjectVersion
1070
     0
  0
VISUALSTYLE
  5
3F7
102
{ACAD_XDICTIONARY
360
25165
102
}
102
{ACAD_REACTORS
330
3F2
102
}
330
3F2
100
AcDbVisualStyle
  2

 70
     7
 71
     1
 72
     0
 73
     1
 90
        0
 40
-0.6
 41
-30.0
 62
     5
 63
     7
 74
     0
 91
        4
 64
     7
 65
   257
 75
     1
175
     1
 42
1.0
 92
        8
 66
     7
 43
1.0
 76
     1
 77
     6
 78
     2
 67
     7
 79
     5
170
     0
171
     0
290
     0
174
     0
 93
        1
 44
0.0
173
     0
291
     1
 45
0.0
1001
ACAD
1000
AcDbSavedByObjectVersion
1070
     0
  0
VISUALSTYLE
  5
3FE
102
{ACAD_XDICTIONARY
360
25173
102
}
102
{ACAD_REACTORS
330
3F2
102
}
330
3F2
100
AcDbVisualStyle
  2

 70
    12
 71
     2
 72
     2
 73
     0
 90
        0
 40
-0.6
 41
-30.0
 62
     5
 63
     7
 74
     1
 91
        4
 64
     7
 65
   257
 75
     1
175
     1
 42
1.0
 92
        8
 66
     7
 43
1.0
 76
     1
 77
     6
 78
     2
 67
     7
 79
     5
170
     0
171
     0
290
     0
174
     0
 93
        1
 44
50.0
173
     0
291
     1
 45
0.0
1001
ACAD
1000
AcDbSavedByObjectVersion
1070
     0
  0
VISUALSTYLE
  5
402
102
{ACAD_XDICTIONARY
360
2517B
102
}
102
{ACAD_REACTORS
330
3F2
102
}
330
3F2
100
AcDbVisualStyle
  2

 70
    16
 71
     2
 72
     2
 73
     3
 90
        0
 40
-0.6
 41
-30.0
 62
     5
 63
     8
 74
     1
 91
        4
 64
     7
 65
   257
 75
     1
175
     1
 42
1.0
 92
        8
 66
     8
 43
1.0
 76
     1
 77
     6
 78
     2
 67
     7
 79
     5
170
     0
171
     0
290
     0
174
     0
 93
        1
 44
0.0
173
     0
291
     1
 45
0.0
1001
ACAD
1000
AcDbSavedByObjectVersion
1070
     0
  0
VISUALSTYLE
  5
3FB
102
{ACAD_XDICTIONARY
360
2516D
102
}
102
{ACAD_REACTORS
330
3F2
102
}
330
3F2
100
AcDbVisualStyle
  2

 70
     9
 71
     3
 72
     2
 73
     0
 90
        0
 40
-0.6
 41
-30.0
 62
     5
 63
     7
 74
     2
 91
        2
 64
     7
 65
   257
 75
     1
175
     1
 42
40.0
 92
        8
 66
     7
 43
1.0
 76
     1
 77
     6
 78
     2
 67
     7
 79
     3
170
     0
171
     0
290
     0
174
     0
 93
        1
 44
0.0
173
     0
291
     0
 45
0.0
1001
ACAD
1000
AcDbSavedByObjectVersion
1070
     0
  0
VISUALSTYLE
  5
3FD
102
{ACAD_XDICTIONARY
360
25171
102
}
102
{ACAD_REACTORS
330
3F2
102
}
330
3F2
100
AcDbVisualStyle
  2

 70
    11
 71
     2
 72
     2
 73
     0
 90
        0
 40
-0.6
 41
-30.0
 62
     5
 63
     7
 74
     1
 91
        4
 64
     7
 65
   257
 75
     1
175
     1
 42
1.0
 92
        8
 66
     7
 43
1.0
 76
     1
 77
     6
 78
     2
 67
     7
 79
     5
170
     0
171
     0
290
     0
174
     0
 93
        1
 44
-50.0
173
     0
291
     1
 45
0.0
1001
ACAD
1000
AcDbSavedByObjectVersion
1070
     0
  0
VISUALSTYLE
  5
44E
102
{ACAD_XDICTIONARY
360
25181
102
}
102
{ACAD_REACTORS
330
3F2
102
}
330
3F2
100
AcDbVisualStyle
  2

 70
    22
 71
     2
 72
     2
 73
     0
 90
        0
 40
-0.6
 41
-30.0
 62
     5
 63
     7
 74
     1
 91
        4
 64
     7
 65
   257
 75
     1
175
     1
 42
1.0
 92
        8
 66
     7
 43
1.0
 76
     1
 77
     6
 78
     2
 67
     7
 79
     5
170
     0
171
     0
290
     0
174
     0
 93
        1
 44
0.0
173
     0
291
     1
 45
0.0
1001
ACAD
1000
AcDbSavedByObjectVersion
1070
     0
  0
VISUALSTYLE
  5
401
102
{ACAD_XDICTIONARY
360
25179
102
}
102
{ACAD_REACTORS
330
3F2
102
}
330
3F2
100
AcDbVisualStyle
  2

 70
    15
 71
     2
 72
     2
 73
     0
 90
        0
 40
-0.6
 41
-30.0
 62
     5
 63
     7
 74
     1
 91
        4
 64
     7
 65
   257
 75
     1
175
     1
 42
1.0
 92
        8
 66
     7
 43
1.0
 76
     1
 77
     6
 78
     2
 67
     7
 79
     5
170
     0
171
     0
290
     0
174
     0
 93
        1
 44
0.0
173
     0
291
     1
 45
0.0
1001
ACAD
1000
AcDbSavedByObjectVersion
1070
     0
  0
VISUALSTYLE
  5
3F3
102
{ACAD_XDICTIONARY
360
2515D
102
}
102
{ACAD_REACTORS
330
3F2
102
}
330
3F2
100
AcDbVisualStyle
  2

 70
     0
 71
     2
 72
     1
 73
     1
 90
        2
 40
-0.6
 41
30.0
 62
     5
 63
     7
 74
     0
 91
        4
 64
     7
 65
   257
 75
     1
175
     1
 42
1.0
 92
        8
 66
     7
 43
1.0
 76
     1
 77
     6
 78
     2
 67
     7
 79
     5
170
     0
171
     0
290
     0
174
     0
 93
       13
 44
0.0
173
     0
291
     1
 45
0.0
1001
ACAD
1000
AcDbSavedByObjectVersion
1070
     0
  0
VISUALSTYLE
  5
3F4
102
{ACAD_XDICTIONARY
360
2515F
102
}
102
{ACAD_REACTORS
330
3F2
102
}
330
3F2
100
AcDbVisualStyle
  2

 70
     1
 71
     2
 72
     1
 73
     1
 90
        2
 40
-0.6
 41
30.0
 62
     5
 63
     7
 74
     1
 91
        4
 64
     7
 65
   257
 75
     1
175
     1
 42
1.0
 92
        0
 66
   257
 43
1.0
 76
     1
 77
     6
 78
     2
 67
     7
 79
     5
170
     0
171
     0
290
     0
174
     0
 93
       13
 44
0.0
173
     0
291
     1
 45
0.0
1001
ACAD
1000
AcDbSavedByObjectVersion
1070
     0
  0
VISUALSTYLE
  5
3F5
102
{ACAD_XDICTIONARY
360
25161
102
}
102
{ACAD_REACTORS
330
3F2
102
}
330
3F2
100
AcDbVisualStyle
  2

 70
     2
 71
     2
 72
     2
 73
     1
 90
        2
 40
-0.6
 41
30.0
 62
     5
 63
     7
 74
     0
 91
        4
 64
     7
 65
   257
 75
     1
175
     1
 42
1.0
 92
        0
 66
     7
 43
1.0
 76
     1
 77
     6
 78
     2
 67
     7
 79
     5
170
     0
171
     0
290
     0
174
     0
 93
       13
 44
0.0
173
     0
291
     1
 45
0.0
1001
ACAD
1000
AcDbSavedByObjectVersion
1070
     0
  0
VISUALSTYLE
  5
3F6
102
{ACAD_XDICTIONARY
360
25163
102
}
102
{ACAD_REACTORS
330
3F2
102
}
330
3F2
100
AcDbVisualStyle
  2

 70
     3
 71
     2
 72
     2
 73
     1
 90
        2
 40
-0.6
 41
30.0
 62
     5
 63
     7
 74
     1
 91
        4
 64
     7
 65
   257
 75
     1
175
     1
 42
1.0
 92
        0
 66
   257
 43
1.0
 76
     1
 77
     6
 78
     2
 67
     7
 79
     5
170
     0
171
     0
290
     0
174
     0
 93
       13
 44
0.0
173
     0
291
     1
 45
0.0
1001
ACAD
1000
AcDbSavedByObjectVersion
1070
     0
  0
VISUALSTYLE
  5
25111
102
{ACAD_XDICTIONARY
360
25186
102
}
102
{ACAD_REACTORS
330
3F2
102
}
330
3F2
100
AcDbVisualStyle
  2
Hidden
 70
     6
 71
     1
 72
     2
 73
     2
 90
        0
 40
-0.6
 41
-30.0
 62
     5
 63
     7
 74
     2
 91
        2
 64
     7
 65
   257
 75
     2
175
     1
 42
40.0
 92
        0
 66
   257
 43
1.0
 76
     1
 77
     6
 78
     2
 67
     7
 79
     3
170
     0
171
     0
290
     0
174
     0
 93
        1
 44
0.0
173
     0
291
     0
 45
0.0
1001
ACAD
1000
AcDbSavedByObjectVersion
1070
     0
  0
VISUALSTYLE
  5
44C
102
{ACAD_XDICTIONARY
360
2517D
102
}
102
{ACAD_REACTORS
330
3F2
102
}
330
3F2
100
AcDbVisualStyle
  2

 70
    20
 71
     2
 72
     2
 73
     0
 90
        0
 40
-0.6
 41
-30.0
 62
     5
 63
     7
 74
     1
 91
        4
 64
     7
 65
   257
 75
     1
175
     1
 42
1.0
 92
       10
 66
     7
 43
1.0
 76
     1
 77
     6
 78
     2
 67
     7
 79
     5
170
     0
171
     0
290
     0
174
     0
 93
        1
 44
0.0
173
     0
291
     1
 45
0.0
1001
ACAD
1000
AcDbSavedByObjectVersion
1070
     0
  0
VISUALSTYLE
  5
400
102
{ACAD_XDICTIONARY
360
25177
102
}
102
{ACAD_REACTORS
330
3F2
102
}
330
3F2
100
AcDbVisualStyle
  2

 70
    14
 71
     2
 72
     2
 73
     0
 90
        0
 40
-0.6
 41
-30.0
 62
     5
 63
     7
 74
     1
 91
        4
 64
     7
 65
   257
 75
     7
175
     7
 42
1.0
 92
        8
 66
     7
 43
1.0
 76
     1
 77
     6
 78
     2
 67
     7
 79
     5
170
     0
171
     0
290
     0
174
     0
 93
        1
 44
0.0
173
     0
291
     1
 45
0.0
1001
ACAD
1000
AcDbSavedByObjectVersion
1070
     0
  0
VISUALSTYLE
  5
44D
102
{ACAD_XDICTIONARY
360
2517F
102
}
102
{ACAD_REACTORS
330
3F2
102
}
330
3F2
100
AcDbVisualStyle
  2

 70
    21
 71
     2
 72
     2
 73
     0
 90
        0
 40
-0.6
 41
-30.0
 62
     5
 63
     7
 74
     1
 91
        4
 64
     7
 65
   257
 75
     1
175
     1
 42
1.0
 92
        9
 66
     7
 43
1.0
 76
     1
 77
     6
 78
     2
 67
     7
 79
     5
170
     0
171
     0
290
     0
174
     0
 93
        1
 44
0.0
173
     0
291
     1
 45
0.0
1001
ACAD
1000
AcDbSavedByObjectVersion
1070
     0
  0
VISUALSTYLE
  5
3FC
102
{ACAD_XDICTIONARY
360
2516F
102
}
102
{ACAD_REACTORS
330
3F2
102
}
330
3F2
100
AcDbVisualStyle
  2

 70
     8
 71
     2
 72
     2
 73
     0
 90
        0
 40
-0.6
 41
-30.0
 62
     5
 63
     7
 74
     1
 91
        0
 64
     7
 65
   257
 75
     1
175
     1
 42
1.0
 92
        8
 66
     8
 43
1.0
 76
     1
 77
     6
 78
     2
 67
     7
 79
     5
170
     0
171
     0
290
     0
174
     0
 93
       13
 44
0.0
173
     0
291
     0
 45
0.0
1001
ACAD
1000
AcDbSavedByObjectVersion
1070
     0
  0
VISUALSTYLE
  5
25116
102
{ACAD_XDICTIONARY
360
25190
102
}
102
{ACAD_REACTORS
330
3F2
102
}
330
3F2
100
AcDbVisualStyle
  2
Shaded
 70
    27
 71
     2
 72
     2
 73
     1
 90
        2
 40
-0.6
 41
30.0
 62
     5
 63
     7
 74
     0
 91
        4
 64
     7
 65
   257
 75
     1
175
     1
 42
1.0
 92
        8
 66
   257
 43
1.0
 76
     1
 77
     6
 78
     2
 67
     8
 79
     3
170
     0
171
     0
290
     0
174
     0
 93
        5
 44
0.0
173
     0
291
     0
 45
0.0
1001
ACAD
1000
AcDbSavedByObjectVersion
1070
     0
  0
VISUALSTYLE
  5
25115
102
{ACAD_XDICTIONARY
360
2518E
102
}
102
{ACAD_REACTORS
330
3F2
102
}
330
3F2
100
AcDbVisualStyle
  2
Shaded with edges
 70
    26
 71
     2
 72
     2
 73
     1
 90
        2
 40
-0.6
 41
30.0
 62
     5
 63
     7
 74
     1
 91
       10
 64
     7
 65
   257
 75
     2
175
     1
 42
1.0
 92
        8
 66
   257
 43
1.0
 76
     1
 77
     6
 78
     2
 67
     7
 79
     3
170
     0
171
     0
290
     0
174
     0
 93
        5
 44
0.0
173
     0
291
     0
 45
0.0
1001
ACAD
1000
AcDbSavedByObjectVersion
1070
     0
  0
VISUALSTYLE
  5
25112
102
{ACAD_XDICTIONARY
360
25188
102
}
102
{ACAD_REACTORS
330
3F2
102
}
330
3F2
100
AcDbVisualStyle
  2
Shades of Gray
 70
    23
 71
     2
 72
     2
 73
     3
 90
        0
 40
-0.6
 41
-30.0
 62
     5
 63
     7
 74
     2
 91
        2
 64
     7
 65
     7
 75
     1
175
     1
 42
40.0
 92
        8
 66
     7
 43
1.0
 76
     1
 77
     6
 78
     2
 67
     7
 79
     3
170
     0
171
     0
290
     0
174
     0
 93
        1
 44
0.0
173
     0
291
     0
 45
0.0
1001
ACAD
1000
AcDbSavedByObjectVersion
1070
     0
  0
VISUALSTYLE
  5
25113
102
{ACAD_XDICTIONARY
360
2518A
102
}
102
{ACAD_REACTORS
330
3F2
102
}
330
3F2
100
AcDbVisualStyle
  2
Sketchy
 70
    24
 71
     1
 72
     2
 73
     2
 90
        0
 40
-0.6
 41
-30.0
 62
     5
 63
     7
 74
     2
 91
        2
 64
     7
 65
     7
 75
     1
175
     1
 42
40.0
 92
       11
 66
     7
 43
1.0
 76
     1
 77
     6
 78
     2
 67
     7
 79
     6
170
     0
171
     0
290
     0
174
     0
 93
        1
 44
0.0
173
     0
291
     0
 45
0.0
1001
ACAD
1000
AcDbSavedByObjectVersion
1070
     0
  0
VISUALSTYLE
  5
3FF
102
{ACAD_XDICTIONARY
360
25175
102
}
102
{ACAD_REACTORS
330
3F2
102
}
330
3F2
100
AcDbVisualStyle
  2

 70
    13
 71
     2
 72
     2
 73
     0
 90
        0
 40
-0.6
 41
-30.0
 62
     5
 63
     7
 74
     1
 91
        4
 64
     7
 65
   257
 75
     1
175
     1
 42
1.0
 92
       12
 66
     7
 43
1.0
 76
     1
 77
     6
 78
     2
 67
     7
 79
     5
170
     0
171
     0
290
     0
174
     0
 93
        1
 44
0.0
173
     0
291
     1
 45
0.0
1001
ACAD
1000
AcDbSavedByObjectVersion
1070
     0
  0
VISUALSTYLE
  5
25110
102
{ACAD_XDICTIONARY
360
25184
102
}
102
{ACAD_REACTORS
330
3F2
102
}
330
3F2
100
AcDbVisualStyle
  2
Wireframe
 70
     5
 71
     0
 72
     2
 73
     0
 90
        0
 40
-0.6
 41
-30.0
 62
     5
 63
     7
 74
     1
 91
        4
 64
     7
 65
   257
 75
     1
175
     1
 42
1.0
 92
        0
 66
   257
 43
1.0
 76
     1
 77
     6
 78
     2
 67
     7
 79
     3
170
     0
171
     0
290
     0
174
     0
 93
        1
 44
0.0
173
     0
291
     0
 45
0.0
1001
ACAD
1000
AcDbSavedByObjectVersion
1070
     0
  0
VISUALSTYLE
  5
25114
102
{ACAD_XDICTIONARY
360
2518C
102
}
102
{ACAD_REACTORS
330
3F2
102
}
330
3F2
100
AcDbVisualStyle
  2
X-Ray
 70
    25
 71
     2
 72
     2
 73
     1
 90
        1
 40
0.5
 41
-30.0
 62
     5
 63
     7
 74
     1
 91
        0
 64
     7
 65
   257
 75
     1
175
     1
 42
1.0
 92
        8
 66
     7
 43
1.0
 76
     1
 77
     6
 78
     2
 67
     7
 79
     3
170
     0
171
     0
290
     0
174
     0
 93
       13
 44
0.0
173
     0
291
     0
 45
0.0
1001
ACAD
1000
AcDbSavedByObjectVersion
1070
     0
  0
DICTIONARYVAR
  5
449
102
{ACAD_REACTORS
330
357
102
}
330
357
100
DictionaryVariables
280
     0
  1
1:1
  0
DICTIONARYVAR
  5
447
102
{ACAD_REACTORS
330
357
102
}
330
357
100
DictionaryVariables
280
     0
  1
STANDARD
  0
DICTIONARYVAR
  5
38E
102
{ACAD_REACTORS
330
357
102
}
330
357
100
DictionaryVariables
280
     0
  1
STANDARD
  0
DICTIONARYVAR
  5
2514F
102
{ACAD_REACTORS
330
357
102
}
330
357
100
DictionaryVariables
280
     0
  1
Metric50
  0
DICTIONARYVAR
  5
25150
102
{ACAD_REACTORS
330
357
102
}
330
357
100
DictionaryVariables
280
     0
  1
Metric50
  0
DICTIONARYVAR
  5
359
102
{ACAD_REACTORS
330
357
102
}
330
357
100
DictionaryVariables
280
     0
  1
2
  0
DICTIONARYVAR
  5
358
102
{ACAD_REACTORS
330
357
102
}
330
357
100
DictionaryVariables
280
     0
  1
1
  0
DICTIONARYVAR
  5
728
102
{ACAD_REACTORS
330
357
102
}
330
357
100
DictionaryVariables
280
     0
  1
0
  0
DICTIONARYVAR
  5
458
102
{ACAD_REACTORS
330
357
102
}
330
357
100
DictionaryVariables
280
     0
  1
1
  0
DICTIONARYVAR
  5
459
102
{ACAD_REACTORS
330
357
102
}
330
357
100
DictionaryVariables
280
     0
  1
15
  0
DICTIONARYVAR
  5
44A
102
{ACAD_REACTORS
330
357
102
}
330
357
100
DictionaryVariables
280
     0
  1
0
  0
DICTIONARYVAR
  5
448
102
{ACAD_REACTORS
330
357
102
}
330
357
100
DictionaryVariables
280
     0
  1
0
  0
DICTIONARYVAR
  5
727
102
{ACAD_REACTORS
330
357
102
}
330
357
100
DictionaryVariables
280
     0
  1
127
  0
DICTIONARYVAR
  5
25151
102
{ACAD_REACTORS
330
357
102
}
330
357
100
DictionaryVariables
280
     0
  1
2
  0
DICTIONARY
  5
2515A
330
33B
100
AcDbDictionary
280
     1
281
     1
  3
ACAD_XREC_ROUNDTRIP
360
2515B
  0
DICTIONARY
  5
25158
330
303
100
AcDbDictionary
280
     1
281
     1
  3
ACAD_XREC_ROUNDTRIP
360
25159
  0
DICTIONARY
  5
250E2
330
3F0
100
AcDbDictionary
280
     1
281
     1
  3
ACAD_XREC_ROUNDTRIP
360
250E3
  0
DICTIONARY
  5
250E0
330
3EF
100
AcDbDictionary
280
     1
281
     1
  3
ACAD_XREC_ROUNDTRIP
360
250E1
  0
DICTIONARY
  5
250E4
330
3F1
100
AcDbDictionary
280
     1
281
     1
  3
ACAD_XREC_ROUNDTRIP
360
250E5
  0
DICTIONARY
  5
444
330
389
100
AcDbDictionary
280
     1
281
     1
  3
ACAD_ROUNDTRIP_2008_TABLESTYLE_CELLSTYLEMAP
360
25153
  3
ACAD_XREC_ROUNDTRIP
360
2515C
  0
DICTIONARY
  5
25167
330
3F8
100
AcDbDictionary
280
     1
281
     1
  3
ACAD_XREC_ROUNDTRIP
360
25168
  0
DICTIONARY
  5
2516B
330
3FA
100
AcDbDictionary
280
     1
281
     1
  3
ACAD_XREC_ROUNDTRIP
360
2516C
  0
DICTIONARY
  5
25169
330
3F9
100
AcDbDictionary
280
     1
281
     1
  3
ACAD_XREC_ROUNDTRIP
360
2516A
  0
DICTIONARY
  5
25165
330
3F7
100
AcDbDictionary
280
     1
281
     1
  3
ACAD_XREC_ROUNDTRIP
360
25166
  0
DICTIONARY
  5
25173
330
3FE
100
AcDbDictionary
280
     1
281
     1
  3
ACAD_XREC_ROUNDTRIP
360
25174
  0
DICTIONARY
  5
2517B
330
402
100
AcDbDictionary
280
     1
281
     1
  3
ACAD_XREC_ROUNDTRIP
360
2517C
  0
DICTIONARY
  5
2516D
330
3FB
100
AcDbDictionary
280
     1
281
     1
  3
ACAD_XREC_ROUNDTRIP
360
2516E
  0
DICTIONARY
  5
25171
330
3FD
100
AcDbDictionary
280
     1
281
     1
  3
ACAD_XREC_ROUNDTRIP
360
25172
  0
DICTIONARY
  5
25181
330
44E
100
AcDbDictionary
280
     1
281
     1
  3
ACAD_XREC_ROUNDTRIP
360
25182
  0
DICTIONARY
  5
25179
330
401
100
AcDbDictionary
280
     1
281
     1
  3
ACAD_XREC_ROUNDTRIP
360
2517A
  0
DICTIONARY
  5
2515D
330
3F3
100
AcDbDictionary
280
     1
281
     1
  3
ACAD_XREC_ROUNDTRIP
360
2515E
  0
DICTIONARY
  5
2515F
330
3F4
100
AcDbDictionary
280
     1
281
     1
  3
ACAD_XREC_ROUNDTRIP
360
25160
  0
DICTIONARY
  5
25161
330
3F5
100
AcDbDictionary
280
     1
281
     1
  3
ACAD_XREC_ROUNDTRIP
360
25162
  0
DICTIONARY
  5
25163
330
3F6
100
AcDbDictionary
280
     1
281
     1
  3
ACAD_XREC_ROUNDTRIP
360
25164
  0
DICTIONARY
  5
25186
330
25111
100
AcDbDictionary
280
     1
281
     1
  3
ACAD_XREC_ROUNDTRIP
360
25187
  0
DICTIONARY
  5
2517D
330
44C
100
AcDbDictionary
280
     1
281
     1
  3
ACAD_XREC_ROUNDTRIP
360
2517E
  0
DICTIONARY
  5
25177
330
400
100
AcDbDictionary
280
     1
281
     1
  3
ACAD_XREC_ROUNDTRIP
360
25178
  0
DICTIONARY
  5
2517F
330
44D
100
AcDbDictionary
280
     1
281
     1
  3
ACAD_XREC_ROUNDTRIP
360
25180
  0
DICTIONARY
  5
2516F
330
3FC
100
AcDbDictionary
280
     1
281
     1
  3
ACAD_XREC_ROUNDTRIP
360
25170
  0
DICTIONARY
  5
25190
330
25116
100
AcDbDictionary
280
     1
281
     1
  3
ACAD_XREC_ROUNDTRIP
360
25191
  0
DICTIONARY
  5
2518E
330
25115
100
AcDbDictionary
280
     1
281
     1
  3
ACAD_XREC_ROUNDTRIP
360
2518F
  0
DICTIONARY
  5
25188
330
25112
100
AcDbDictionary
280
     1
281
     1
  3
ACAD_XREC_ROUNDTRIP
360
25189
  0
DICTIONARY
  5
2518A
330
25113
100
AcDbDictionary
280
     1
281
     1
  3
ACAD_XREC_ROUNDTRIP
360
2518B
  0
DICTIONARY
  5
25175
330
3FF
100
AcDbDictionary
280
     1
281
     1
  3
ACAD_XREC_ROUNDTRIP
360
25176
  0
DICTIONARY
  5
25184
330
25110
100
AcDbDictionary
280
     1
281
     1
  3
ACAD_XREC_ROUNDTRIP
360
25185
  0
DICTIONARY
  5
2518C
330
25114
100
AcDbDictionary
280
     1
281
     1
  3
ACAD_XREC_ROUNDTRIP
360
2518D
  0
XRECORD
  5
2515B
102
{ACAD_REACTORS
330
2515A
102
}
330
2515A
100
AcDbXrecord
280
     1
102
SHADEPLOT
 70
     0
102
SHADEPLOTRESLEVEL
 70
     2
102
SHADEPLOTCUSTOMDPI
 70
   300
  0
XRECORD
  5
25159
102
{ACAD_REACTORS
330
25158
102
}
330
25158
100
AcDbXrecord
280
     1
102
SHADEPLOT
 70
     1
102
SHADEPLOTRESLEVEL
 70
     2
102
SHADEPLOTCUSTOMDPI
 70
   300
  0
XRECORD
  5
250E3
102
{ACAD_REACTORS
330
250E2
102
}
330
250E2
100
AcDbXrecord
280
     1
102
MATERIAL
148
0.0
149
0.0
149
0.0
 93
        0
 94
      127
282
     0
 72
     1
 77
     1
171
     1
175
     1
179
     1
273
     0
  0
XRECORD
  5
250E1
102
{ACAD_REACTORS
330
250E0
102
}
330
250E0
100
AcDbXrecord
280
     1
102
MATERIAL
148
0.0
149
0.0
149
0.0
 93
        0
 94
      127
282
     0
 72
     1
 77
     1
171
     1
175
     1
179
     1
273
     0
  0
XRECORD
  5
250E5
102
{ACAD_REACTORS
330
250E4
102
}
330
250E4
100
AcDbXrecord
280
     1
102
MATERIAL
148
0.0
149
0.0
149
0.0
 93
        0
 94
      127
282
     0
 72
     1
 77
     1
171
     1
175
     1
179
     1
273
     0
  0
CELLSTYLEMAP
  5
25153
102
{ACAD_REACTORS
330
444
102
}
330
444
100
AcDbCellStyleMap
 90
        3
300
CELLSTYLE
  1
TABLEFORMAT_BEGIN
 90
        5
170
     1
 91
        0
 92
    32768
 62
   257
 93
        1
300
CONTENTFORMAT
  1
CONTENTFORMAT_BEGIN
 90
        0
 91
        0
 92
        4
 93
        0
300

 40
0.0
140
1.0
 94
        5
 62
     0
340
10
144
6.0
309
CONTENTFORMAT_END
171
     1
301
MARGIN
  1
CELLMARGIN_BEGIN
 40
1.5
 40
1.5
 40
1.5
 40
1.5
 40
0.18
 40
0.18
309
CELLMARGIN_END
 94
        6
 95
        1
302
GRIDFORMAT
  1
GRIDFORMAT_BEGIN
 90
        0
 91
        1
 62
     0
 92
       -2
340
0
 93
        0
 40
0.045
309
GRIDFORMAT_END
 95
        2
302
GRIDFORMAT
  1
GRIDFORMAT_BEGIN
 90
        0
 91
        1
 62
     0
 92
       -2
340
0
 93
        0
 40
0.045
309
GRIDFORMAT_END
 95
        4
302
GRIDFORMAT
  1
GRIDFORMAT_BEGIN
 90
        0
 91
        1
 62
     0
 92
       -2
340
0
 93
        0
 40
0.045
309
GRIDFORMAT_END
 95
        8
302
GRIDFORMAT
  1
GRIDFORMAT_BEGIN
 90
        0
 91
        1
 62
     0
 92
       -2
340
0
 93
        0
 40
0.045
309
GRIDFORMAT_END
 95
       16
302
GRIDFORMAT
  1
GRIDFORMAT_BEGIN
 90
        0
 91
        1
 62
     0
 92
       -2
340
0
 93
        0
 40
0.045
309
GRIDFORMAT_END
 95
       32
302
GRIDFORMAT
  1
GRIDFORMAT_BEGIN
 90
        0
 91
        1
 62
     0
 92
       -2
340
0
 93
        0
 40
0.045
309
GRIDFORMAT_END
309
TABLEFORMAT_END
  1
CELLSTYLE_BEGIN
 90
        1
 91
        1
300
_TITLE
309
CELLSTYLE_END
300
CELLSTYLE
  1
TABLEFORMAT_BEGIN
 90
        5
170
     1
 91
        0
 92
        0
 62
   257
 93
        1
300
CONTENTFORMAT
  1
CONTENTFORMAT_BEGIN
 90
        0
 91
        0
 92
        4
 93
        0
300

 40
0.0
140
1.0
 94
        5
 62
     0
340
10
144
4.5
309
CONTENTFORMAT_END
171
     1
301
MARGIN
  1
CELLMARGIN_BEGIN
 40
1.5
 40
1.5
 40
1.5
 40
1.5
 40
0.18
 40
0.18
309
CELLMARGIN_END
 94
        6
 95
        1
302
GRIDFORMAT
  1
GRIDFORMAT_BEGIN
 90
        0
 91
        1
 62
     0
 92
       -2
340
0
 93
        0
 40
0.045
309
GRIDFORMAT_END
 95
        2
302
GRIDFORMAT
  1
GRIDFORMAT_BEGIN
 90
        0
 91
        1
 62
     0
 92
       -2
340
0
 93
        0
 40
0.045
309
GRIDFORMAT_END
 95
        4
302
GRIDFORMAT
  1
GRIDFORMAT_BEGIN
 90
        0
 91
        1
 62
     0
 92
       -2
340
0
 93
        0
 40
0.045
309
GRIDFORMAT_END
 95
        8
302
GRIDFORMAT
  1
GRIDFORMAT_BEGIN
 90
        0
 91
        1
 62
     0
 92
       -2
340
0
 93
        0
 40
0.045
309
GRIDFORMAT_END
 95
       16
302
GRIDFORMAT
  1
GRIDFORMAT_BEGIN
 90
        0
 91
        1
 62
     0
 92
       -2
340
0
 93
        0
 40
0.045
309
GRIDFORMAT_END
 95
       32
302
GRIDFORMAT
  1
GRIDFORMAT_BEGIN
 90
        0
 91
        1
 62
     0
 92
       -2
340
0
 93
        0
 40
0.045
309
GRIDFORMAT_END
309
TABLEFORMAT_END
  1
CELLSTYLE_BEGIN
 90
        2
 91
        1
300
_HEADER
309
CELLSTYLE_END
300
CELLSTYLE
  1
TABLEFORMAT_BEGIN
 90
        5
170
     1
 91
        0
 92
        0
 62
   257
 93
        1
300
CONTENTFORMAT
  1
CONTENTFORMAT_BEGIN
 90
        0
 91
        0
 92
        4
 93
        0
300

 40
0.0
140
1.0
 94
        2
 62
     0
340
10
144
4.5
309
CONTENTFORMAT_END
171
     1
301
MARGIN
  1
CELLMARGIN_BEGIN
 40
1.5
 40
1.5
 40
1.5
 40
1.5
 40
0.18
 40
0.18
309
CELLMARGIN_END
 94
        6
 95
        1
302
GRIDFORMAT
  1
GRIDFORMAT_BEGIN
 90
        0
 91
        1
 62
     0
 92
       -2
340
0
 93
        0
 40
0.045
309
GRIDFORMAT_END
 95
        2
302
GRIDFORMAT
  1
GRIDFORMAT_BEGIN
 90
        0
 91
        1
 62
     0
 92
       -2
340
0
 93
        0
 40
0.045
309
GRIDFORMAT_END
 95
        4
302
GRIDFORMAT
  1
GRIDFORMAT_BEGIN
 90
        0
 91
        1
 62
     0
 92
       -2
340
0
 93
        0
 40
0.045
309
GRIDFORMAT_END
 95
        8
302
GRIDFORMAT
  1
GRIDFORMAT_BEGIN
 90
        0
 91
        1
 62
     0
 92
       -2
340
0
 93
        0
 40
0.045
309
GRIDFORMAT_END
 95
       16
302
GRIDFORMAT
  1
GRIDFORMAT_BEGIN
 90
        0
 91
        1
 62
     0
 92
       -2
340
0
 93
        0
 40
0.045
309
GRIDFORMAT_END
 95
       32
302
GRIDFORMAT
  1
GRIDFORMAT_BEGIN
 90
        0
 91
        1
 62
     0
 92
       -2
340
0
 93
        0
 40
0.045
309
GRIDFORMAT_END
309
TABLEFORMAT_END
  1
CELLSTYLE_BEGIN
 90
        3
 91
        2
300
_DATA
309
CELLSTYLE_END
  0
XRECORD
  5
2515C
102
{ACAD_REACTORS
330
444
102
}
330
444
100
AcDbXrecord
280
     1
102
ACAD_ROUNDTRIP_PRE2007_TABLESTYLE
 90
        4
 91
        0
  1

 92
        4
 93
        0
  2

 94
        4
 95
        0
  3

  0
XRECORD
  5
25168
102
{ACAD_REACTORS
330
25167
102
}
330
25167
100
AcDbXrecord
280
     1
102
RTVSPost2010Prop28
280
     1
102
RTVSPost2010PropOp28
 70
     1
102
RTVSPost2010Prop29
280
     1
102
RTVSPost2010PropOp29
 70
     1
102
RTVSPost2010Prop30
280
     0
102
RTVSPost2010PropOp30
 70
     1
102
RTVSPost2010Prop31
280
     0
102
RTVSPost2010PropOp31
 70
     1
102
RTVSPost2010Prop32
280
     0
102
RTVSPost2010PropOp32
 70
     1
102
RTVSPost2010Prop33
280
     0
102
RTVSPost2010PropOp33
 70
     1
102
RTVSPost2010Prop34
280
     0
102
RTVSPost2010PropOp34
 70
     1
102
RTVSPost2010Prop35
280
     0
102
RTVSPost2010PropOp35
 70
     1
102
RTVSPost2010Prop36
280
     0
102
RTVSPost2010PropOp36
 70
     1
102
RTVSPost2010Prop37
 90
       50
102
RTVSPost2010PropOp37
 70
     1
102
RTVSPost2010Prop38
140
0.0
102
RTVSPost2010PropOp38
 70
     1
102
RTVSPost2010Prop39
140
1.0
102
RTVSPost2010PropOp39
 70
     1
102
RTVSPost2010Prop40
 90
        0
102
RTVSPost2010PropOp40
 70
     1
102
RTVSPost2010Prop41ColorIndex
 90
       18
102
RTVSPost2010Prop41ColorRGB
 90
        0
102
RTVSPost2010PropOp41
 70
     1
102
RTVSPost2010Prop42
 90
       50
102
RTVSPost2010PropOp42
 70
     1
102
RTVSPost2010Prop43
 90
        3
102
RTVSPost2010PropOp43
 70
     1
102
RTVSPost2010Prop44ColorIndex
 90
        5
102
RTVSPost2010Prop44ColorRGB
 90
      255
102
RTVSPost2010PropOp44
 70
     1
102
RTVSPost2010Prop45
280
     0
102
RTVSPost2010PropOp45
 70
     1
102
RTVSPost2010Prop46
 90
       50
102
RTVSPost2010PropOp46
 70
     1
102
RTVSPost2010Prop47
 90
       50
102
RTVSPost2010PropOp47
 70
     1
102
RTVSPost2010Prop48
 90
       50
102
RTVSPost2010PropOp48
 70
     1
102
RTVSPost2010Prop49
280
     0
102
RTVSPost2010PropOp49
 70
     1
102
RTVSPost2010Prop50
 90
       50
102
RTVSPost2010PropOp50
 70
     1
102
RTVSPost2010Prop51ColorIndex
 90
      256
102
RTVSPost2010Prop51ColorRGB
 90
-16777216
102
RTVSPost2010PropOp51
 70
     0
102
RTVSPost2010Prop52
140
1.0
102
RTVSPost2010PropOp52
 70
     0
102
RTVSPost2010Prop53
 90
        2
102
RTVSPost2010PropOp53
 70
     1
102
RTVSPost2010Prop54
  1
strokes_ogs.tif
102
RTVSPost2010PropOp54
 70
     1
102
RTVSPost2010Prop55
280
     0
102
RTVSPost2010PropOp55
 70
     1
102
RTVSPost2010Prop56
140
1.0
102
RTVSPost2010PropOp56
 70
     1
102
RTVSPost2010Prop57
140
1.0
102
RTVSPost2010PropOp57
 70
     1
102
RTVSPropertyOp0
 70
     1
102
RTVSPropertyOp1
 70
     1
102
RTVSPropertyOp2
 70
     1
102
RTVSPropertyOp3
 70
     1
102
RTVSPropertyOp4
 70
     1
102
RTVSPropertyOp5
 70
     1
102
RTVSPropertyOp6
 70
     1
102
RTVSPropertyOp7
 70
     1
102
RTVSPropertyOp8
 70
     1
102
RTVSPropertyOp9
 70
     1
102
RTVSPropertyOp10
 70
     1
102
RTVSPropertyOp11
 70
     1
102
RTVSPropertyOp12
 70
     1
102
RTVSPropertyOp13
 70
     1
102
RTVSPropertyOp14
 70
     1
102
RTVSPropertyOp15
 70
     1
102
RTVSPropertyOp16
 70
     1
102
RTVSPropertyOp17
 70
     1
102
RTVSPropertyOp18
 70
     1
102
RTVSPropertyOp19
 70
     1
102
RTVSPropertyOp20
 70
     1
102
RTVSPropertyOp21
 70
     1
102
RTVSPropertyOp22
 70
     1
102
RTVSPropertyOp23
 70
     1
102
RTVSPropertyOp24
 70
     1
102
RTVSPropertyOp25
 70
     1
102
RTVSPropertyOp26
 70
     1
102
RTVSPropertyOp27
 70
     1
102
RTVSPropertyOp28
 70
     1
102
RTVSPropertyOp29
 70
     1
102
RTVSPropertyOp30
 70
     1
102
RTVSPropertyOp31
 70
     1
102
RTVSPropertyOp32
 70
     1
102
RTVSPropertyOp33
 70
     1
102
RTVSPropertyOp34
 70
     1
102
RTVSPropertyOp35
 70
     1
102
RTVSPropertyOp36
 70
     1
102
RTVSPropertyOp37
 70
     1
102
RTVSPropertyOp38
 70
     1
102
RTVSPropertyOp39
 70
     1
102
RTVSPropertyOp40
 70
     1
102
RTVSPropertyOp41
 70
     1
102
RTVSPropertyOp42
 70
     1
102
RTVSPropertyOp43
 70
     1
102
RTVSPropertyOp44
 70
     1
102
RTVSPropertyOp45
 70
     1
102
RTVSPropertyOp46
 70
     1
102
RTVSPropertyOp47
 70
     1
102
RTVSPropertyOp48
 70
     1
102
RTVSPropertyOp49
 70
     1
102
RTVSPropertyOp50
 70
     1
102
RTVSPropertyOp51
 70
     0
102
RTVSPropertyOp52
 70
     0
102
RTVSPropertyOp53
 70
     1
102
RTVSPropertyOp54
 70
     1
102
RTVSPropertyOp55
 70
     1
102
RTVSPropertyOp56
 70
     1
102
RTVSPropertyOp57
 70
     1
102
RTVSPropertyOp58
 70
     1
102
RTVSPropertyOp59
 70
     1
102
RTVSPropertyOp60
 70
     1
102
RTVSPropertyOp61
 70
     1
102
RTVSPropertyOp62
 70
     1
  0
XRECORD
  5
2516C
102
{ACAD_REACTORS
330
2516B
102
}
330
2516B
100
AcDbXrecord
280
     1
102
RTVSPost2010Prop28
280
     0
102
RTVSPost2010PropOp28
 70
     1
102
RTVSPost2010Prop29
280
     1
102
RTVSPost2010PropOp29
 70
     1
102
RTVSPost2010Prop30
280
     1
102
RTVSPost2010PropOp30
 70
     1
102
RTVSPost2010Prop31
280
     0
102
RTVSPost2010PropOp31
 70
     1
102
RTVSPost2010Prop32
280
     0
102
RTVSPost2010PropOp32
 70
     1
102
RTVSPost2010Prop33
280
     0
102
RTVSPost2010PropOp33
 70
     1
102
RTVSPost2010Prop34
280
     0
102
RTVSPost2010PropOp34
 70
     1
102
RTVSPost2010Prop35
280
     0
102
RTVSPost2010PropOp35
 70
     1
102
RTVSPost2010Prop36
280
     0
102
RTVSPost2010PropOp36
 70
     1
102
RTVSPost2010Prop37
 90
       50
102
RTVSPost2010PropOp37
 70
     1
102
RTVSPost2010Prop38
140
0.0
102
RTVSPost2010PropOp38
 70
     1
102
RTVSPost2010Prop39
140
1.0
102
RTVSPost2010PropOp39
 70
     1
102
RTVSPost2010Prop40
 90
        0
102
RTVSPost2010PropOp40
 70
     1
102
RTVSPost2010Prop41ColorIndex
 90
       18
102
RTVSPost2010Prop41ColorRGB
 90
        0
102
RTVSPost2010PropOp41
 70
     1
102
RTVSPost2010Prop42
 90
       50
102
RTVSPost2010PropOp42
 70
     1
102
RTVSPost2010Prop43
 90
        3
102
RTVSPost2010PropOp43
 70
     1
102
RTVSPost2010Prop44ColorIndex
 90
        5
102
RTVSPost2010Prop44ColorRGB
 90
      255
102
RTVSPost2010PropOp44
 70
     1
102
RTVSPost2010Prop45
280
     0
102
RTVSPost2010PropOp45
 70
     1
102
RTVSPost2010Prop46
 90
       50
102
RTVSPost2010PropOp46
 70
     1
102
RTVSPost2010Prop47
 90
       50
102
RTVSPost2010PropOp47
 70
     1
102
RTVSPost2010Prop48
 90
       50
102
RTVSPost2010PropOp48
 70
     1
102
RTVSPost2010Prop49
280
     0
102
RTVSPost2010PropOp49
 70
     1
102
RTVSPost2010Prop50
 90
       50
102
RTVSPost2010PropOp50
 70
     1
102
RTVSPost2010Prop51ColorIndex
 90
      256
102
RTVSPost2010Prop51ColorRGB
 90
-16777216
102
RTVSPost2010PropOp51
 70
     0
102
RTVSPost2010Prop52
140
1.0
102
RTVSPost2010PropOp52
 70
     0
102
RTVSPost2010Prop53
 90
        2
102
RTVSPost2010PropOp53
 70
     1
102
RTVSPost2010Prop54
  1
strokes_ogs.tif
102
RTVSPost2010PropOp54
 70
     1
102
RTVSPost2010Prop55
280
     0
102
RTVSPost2010PropOp55
 70
     1
102
RTVSPost2010Prop56
140
1.0
102
RTVSPost2010PropOp56
 70
     1
102
RTVSPost2010Prop57
140
1.0
102
RTVSPost2010PropOp57
 70
     1
102
RTVSPropertyOp0
 70
     1
102
RTVSPropertyOp1
 70
     1
102
RTVSPropertyOp2
 70
     1
102
RTVSPropertyOp3
 70
     1
102
RTVSPropertyOp4
 70
     1
102
RTVSPropertyOp5
 70
     1
102
RTVSPropertyOp6
 70
     1
102
RTVSPropertyOp7
 70
     1
102
RTVSPropertyOp8
 70
     1
102
RTVSPropertyOp9
 70
     1
102
RTVSPropertyOp10
 70
     1
102
RTVSPropertyOp11
 70
     1
102
RTVSPropertyOp12
 70
     1
102
RTVSPropertyOp13
 70
     1
102
RTVSPropertyOp14
 70
     1
102
RTVSPropertyOp15
 70
     1
102
RTVSPropertyOp16
 70
     1
102
RTVSPropertyOp17
 70
     1
102
RTVSPropertyOp18
 70
     1
102
RTVSPropertyOp19
 70
     1
102
RTVSPropertyOp20
 70
     1
102
RTVSPropertyOp21
 70
     1
102
RTVSPropertyOp22
 70
     1
102
RTVSPropertyOp23
 70
     1
102
RTVSPropertyOp24
 70
     1
102
RTVSPropertyOp25
 70
     1
102
RTVSPropertyOp26
 70
     1
102
RTVSPropertyOp27
 70
     1
102
RTVSPropertyOp28
 70
     1
102
RTVSPropertyOp29
 70
     1
102
RTVSPropertyOp30
 70
     1
102
RTVSPropertyOp31
 70
     1
102
RTVSPropertyOp32
 70
     1
102
RTVSPropertyOp33
 70
     1
102
RTVSPropertyOp34
 70
     1
102
RTVSPropertyOp35
 70
     1
102
RTVSPropertyOp36
 70
     1
102
RTVSPropertyOp37
 70
     1
102
RTVSPropertyOp38
 70
     1
102
RTVSPropertyOp39
 70
     1
102
RTVSPropertyOp40
 70
     1
102
RTVSPropertyOp41
 70
     1
102
RTVSPropertyOp42
 70
     1
102
RTVSPropertyOp43
 70
     1
102
RTVSPropertyOp44
 70
     1
102
RTVSPropertyOp45
 70
     1
102
RTVSPropertyOp46
 70
     1
102
RTVSPropertyOp47
 70
     1
102
RTVSPropertyOp48
 70
     1
102
RTVSPropertyOp49
 70
     1
102
RTVSPropertyOp50
 70
     1
102
RTVSPropertyOp51
 70
     0
102
RTVSPropertyOp52
 70
     0
102
RTVSPropertyOp53
 70
     1
102
RTVSPropertyOp54
 70
     1
102
RTVSPropertyOp55
 70
     1
102
RTVSPropertyOp56
 70
     1
102
RTVSPropertyOp57
 70
     1
102
RTVSPropertyOp58
 70
     1
102
RTVSPropertyOp59
 70
     1
102
RTVSPropertyOp60
 70
     1
102
RTVSPropertyOp61
 70
     1
102
RTVSPropertyOp62
 70
     1
  0
XRECORD
  5
2516A
102
{ACAD_REACTORS
330
25169
102
}
330
25169
100
AcDbXrecord
280
     1
102
RTVSPost2010Prop28
280
     0
102
RTVSPost2010PropOp28
 70
     1
102
RTVSPost2010Prop29
280
     1
102
RTVSPost2010PropOp29
 70
     1
102
RTVSPost2010Prop30
280
     1
102
RTVSPost2010PropOp30
 70
     1
102
RTVSPost2010Prop31
280
     0
102
RTVSPost2010PropOp31
 70
     1
102
RTVSPost2010Prop32
280
     0
102
RTVSPost2010PropOp32
 70
     1
102
RTVSPost2010Prop33
280
     0
102
RTVSPost2010PropOp33
 70
     1
102
RTVSPost2010Prop34
280
     0
102
RTVSPost2010PropOp34
 70
     1
102
RTVSPost2010Prop35
280
     0
102
RTVSPost2010PropOp35
 70
     1
102
RTVSPost2010Prop36
280
     0
102
RTVSPost2010PropOp36
 70
     1
102
RTVSPost2010Prop37
 90
       50
102
RTVSPost2010PropOp37
 70
     1
102
RTVSPost2010Prop38
140
0.0
102
RTVSPost2010PropOp38
 70
     1
102
RTVSPost2010Prop39
140
1.0
102
RTVSPost2010PropOp39
 70
     1
102
RTVSPost2010Prop40
 90
        0
102
RTVSPost2010PropOp40
 70
     1
102
RTVSPost2010Prop41ColorIndex
 90
       18
102
RTVSPost2010Prop41ColorRGB
 90
        0
102
RTVSPost2010PropOp41
 70
     1
102
RTVSPost2010Prop42
 90
       50
102
RTVSPost2010PropOp42
 70
     1
102
RTVSPost2010Prop43
 90
        3
102
RTVSPost2010PropOp43
 70
     1
102
RTVSPost2010Prop44ColorIndex
 90
        5
102
RTVSPost2010Prop44ColorRGB
 90
      255
102
RTVSPost2010PropOp44
 70
     1
102
RTVSPost2010Prop45
280
     0
102
RTVSPost2010PropOp45
 70
     1
102
RTVSPost2010Prop46
 90
       50
102
RTVSPost2010PropOp46
 70
     1
102
RTVSPost2010Prop47
 90
       50
102
RTVSPost2010PropOp47
 70
     1
102
RTVSPost2010Prop48
 90
       50
102
RTVSPost2010PropOp48
 70
     1
102
RTVSPost2010Prop49
280
     0
102
RTVSPost2010PropOp49
 70
     1
102
RTVSPost2010Prop50
 90
       50
102
RTVSPost2010PropOp50
 70
     1
102
RTVSPost2010Prop51ColorIndex
 90
      256
102
RTVSPost2010Prop51ColorRGB
 90
-16777216
102
RTVSPost2010PropOp51
 70
     0
102
RTVSPost2010Prop52
140
1.0
102
RTVSPost2010PropOp52
 70
     0
102
RTVSPost2010Prop53
 90
        2
102
RTVSPost2010PropOp53
 70
     1
102
RTVSPost2010Prop54
  1
strokes_ogs.tif
102
RTVSPost2010PropOp54
 70
     1
102
RTVSPost2010Prop55
280
     0
102
RTVSPost2010PropOp55
 70
     1
102
RTVSPost2010Prop56
140
1.0
102
RTVSPost2010PropOp56
 70
     1
102
RTVSPost2010Prop57
140
1.0
102
RTVSPost2010PropOp57
 70
     1
102
RTVSPropertyOp0
 70
     1
102
RTVSPropertyOp1
 70
     1
102
RTVSPropertyOp2
 70
     1
102
RTVSPropertyOp3
 70
     1
102
RTVSPropertyOp4
 70
     1
102
RTVSPropertyOp5
 70
     1
102
RTVSPropertyOp6
 70
     1
102
RTVSPropertyOp7
 70
     1
102
RTVSPropertyOp8
 70
     1
102
RTVSPropertyOp9
 70
     1
102
RTVSPropertyOp10
 70
     1
102
RTVSPropertyOp11
 70
     1
102
RTVSPropertyOp12
 70
     1
102
RTVSPropertyOp13
 70
     1
102
RTVSPropertyOp14
 70
     1
102
RTVSPropertyOp15
 70
     1
102
RTVSPropertyOp16
 70
     1
102
RTVSPropertyOp17
 70
     1
102
RTVSPropertyOp18
 70
     1
102
RTVSPropertyOp19
 70
     1
102
RTVSPropertyOp20
 70
     1
102
RTVSPropertyOp21
 70
     1
102
RTVSPropertyOp22
 70
     1
102
RTVSPropertyOp23
 70
     1
102
RTVSPropertyOp24
 70
     1
102
RTVSPropertyOp25
 70
     1
102
RTVSPropertyOp26
 70
     1
102
RTVSPropertyOp27
 70
     1
102
RTVSPropertyOp28
 70
     1
102
RTVSPropertyOp29
 70
     1
102
RTVSPropertyOp30
 70
     1
102
RTVSPropertyOp31
 70
     1
102
RTVSPropertyOp32
 70
     1
102
RTVSPropertyOp33
 70
     1
102
RTVSPropertyOp34
 70
     1
102
RTVSPropertyOp35
 70
     1
102
RTVSPropertyOp36
 70
     1
102
RTVSPropertyOp37
 70
     1
102
RTVSPropertyOp38
 70
     1
102
RTVSPropertyOp39
 70
     1
102
RTVSPropertyOp40
 70
     1
102
RTVSPropertyOp41
 70
     1
102
RTVSPropertyOp42
 70
     1
102
RTVSPropertyOp43
 70
     1
102
RTVSPropertyOp44
 70
     1
102
RTVSPropertyOp45
 70
     1
102
RTVSPropertyOp46
 70
     1
102
RTVSPropertyOp47
 70
     1
102
RTVSPropertyOp48
 70
     1
102
RTVSPropertyOp49
 70
     1
102
RTVSPropertyOp50
 70
     1
102
RTVSPropertyOp51
 70
     0
102
RTVSPropertyOp52
 70
     0
102
RTVSPropertyOp53
 70
     1
102
RTVSPropertyOp54
 70
     1
102
RTVSPropertyOp55
 70
     1
102
RTVSPropertyOp56
 70
     1
102
RTVSPropertyOp57
 70
     1
102
RTVSPropertyOp58
 70
     1
102
RTVSPropertyOp59
 70
     1
102
RTVSPropertyOp60
 70
     1
102
RTVSPropertyOp61
 70
     1
102
RTVSPropertyOp62
 70
     1
  0
XRECORD
  5
25166
102
{ACAD_REACTORS
330
25165
102
}
330
25165
100
AcDbXrecord
280
     1
102
RTVSPost2010Prop28
280
     0
102
RTVSPost2010PropOp28
 70
     1
102
RTVSPost2010Prop29
280
     1
102
RTVSPost2010PropOp29
 70
     1
102
RTVSPost2010Prop30
280
     1
102
RTVSPost2010PropOp30
 70
     1
102
RTVSPost2010Prop31
280
     0
102
RTVSPost2010PropOp31
 70
     1
102
RTVSPost2010Prop32
280
     0
102
RTVSPost2010PropOp32
 70
     1
102
RTVSPost2010Prop33
280
     0
102
RTVSPost2010PropOp33
 70
     1
102
RTVSPost2010Prop34
280
     0
102
RTVSPost2010PropOp34
 70
     1
102
RTVSPost2010Prop35
280
     0
102
RTVSPost2010PropOp35
 70
     1
102
RTVSPost2010Prop36
280
     0
102
RTVSPost2010PropOp36
 70
     1
102
RTVSPost2010Prop37
 90
       50
102
RTVSPost2010PropOp37
 70
     1
102
RTVSPost2010Prop38
140
0.0
102
RTVSPost2010PropOp38
 70
     1
102
RTVSPost2010Prop39
140
1.0
102
RTVSPost2010PropOp39
 70
     1
102
RTVSPost2010Prop40
 90
        0
102
RTVSPost2010PropOp40
 70
     1
102
RTVSPost2010Prop41ColorIndex
 90
       18
102
RTVSPost2010Prop41ColorRGB
 90
        0
102
RTVSPost2010PropOp41
 70
     1
102
RTVSPost2010Prop42
 90
       50
102
RTVSPost2010PropOp42
 70
     1
102
RTVSPost2010Prop43
 90
        3
102
RTVSPost2010PropOp43
 70
     1
102
RTVSPost2010Prop44ColorIndex
 90
        5
102
RTVSPost2010Prop44ColorRGB
 90
      255
102
RTVSPost2010PropOp44
 70
     1
102
RTVSPost2010Prop45
280
     0
102
RTVSPost2010PropOp45
 70
     1
102
RTVSPost2010Prop46
 90
       50
102
RTVSPost2010PropOp46
 70
     1
102
RTVSPost2010Prop47
 90
       50
102
RTVSPost2010PropOp47
 70
     1
102
RTVSPost2010Prop48
 90
       50
102
RTVSPost2010PropOp48
 70
     1
102
RTVSPost2010Prop49
280
     0
102
RTVSPost2010PropOp49
 70
     1
102
RTVSPost2010Prop50
 90
       50
102
RTVSPost2010PropOp50
 70
     1
102
RTVSPost2010Prop51ColorIndex
 90
      256
102
RTVSPost2010Prop51ColorRGB
 90
-16777216
102
RTVSPost2010PropOp51
 70
     0
102
RTVSPost2010Prop52
140
1.0
102
RTVSPost2010PropOp52
 70
     0
102
RTVSPost2010Prop53
 90
        2
102
RTVSPost2010PropOp53
 70
     1
102
RTVSPost2010Prop54
  1
strokes_ogs.tif
102
RTVSPost2010PropOp54
 70
     1
102
RTVSPost2010Prop55
280
     0
102
RTVSPost2010PropOp55
 70
     1
102
RTVSPost2010Prop56
140
1.0
102
RTVSPost2010PropOp56
 70
     1
102
RTVSPost2010Prop57
140
1.0
102
RTVSPost2010PropOp57
 70
     1
102
RTVSPropertyOp0
 70
     1
102
RTVSPropertyOp1
 70
     1
102
RTVSPropertyOp2
 70
     1
102
RTVSPropertyOp3
 70
     1
102
RTVSPropertyOp4
 70
     1
102
RTVSPropertyOp5
 70
     1
102
RTVSPropertyOp6
 70
     1
102
RTVSPropertyOp7
 70
     1
102
RTVSPropertyOp8
 70
     1
102
RTVSPropertyOp9
 70
     1
102
RTVSPropertyOp10
 70
     1
102
RTVSPropertyOp11
 70
     1
102
RTVSPropertyOp12
 70
     1
102
RTVSPropertyOp13
 70
     1
102
RTVSPropertyOp14
 70
     1
102
RTVSPropertyOp15
 70
     1
102
RTVSPropertyOp16
 70
     1
102
RTVSPropertyOp17
 70
     1
102
RTVSPropertyOp18
 70
     1
102
RTVSPropertyOp19
 70
     1
102
RTVSPropertyOp20
 70
     1
102
RTVSPropertyOp21
 70
     1
102
RTVSPropertyOp22
 70
     1
102
RTVSPropertyOp23
 70
     1
102
RTVSPropertyOp24
 70
     1
102
RTVSPropertyOp25
 70
     1
102
RTVSPropertyOp26
 70
     1
102
RTVSPropertyOp27
 70
     1
102
RTVSPropertyOp28
 70
     1
102
RTVSPropertyOp29
 70
     1
102
RTVSPropertyOp30
 70
     1
102
RTVSPropertyOp31
 70
     1
102
RTVSPropertyOp32
 70
     1
102
RTVSPropertyOp33
 70
     1
102
RTVSPropertyOp34
 70
     1
102
RTVSPropertyOp35
 70
     1
102
RTVSPropertyOp36
 70
     1
102
RTVSPropertyOp37
 70
     1
102
RTVSPropertyOp38
 70
     1
102
RTVSPropertyOp39
 70
     1
102
RTVSPropertyOp40
 70
     1
102
RTVSPropertyOp41
 70
     1
102
RTVSPropertyOp42
 70
     1
102
RTVSPropertyOp43
 70
     1
102
RTVSPropertyOp44
 70
     1
102
RTVSPropertyOp45
 70
     1
102
RTVSPropertyOp46
 70
     1
102
RTVSPropertyOp47
 70
     1
102
RTVSPropertyOp48
 70
     1
102
RTVSPropertyOp49
 70
     1
102
RTVSPropertyOp50
 70
     1
102
RTVSPropertyOp51
 70
     0
102
RTVSPropertyOp52
 70
     0
102
RTVSPropertyOp53
 70
     1
102
RTVSPropertyOp54
 70
     1
102
RTVSPropertyOp55
 70
     1
102
RTVSPropertyOp56
 70
     1
102
RTVSPropertyOp57
 70
     1
102
RTVSPropertyOp58
 70
     1
102
RTVSPropertyOp59
 70
     1
102
RTVSPropertyOp60
 70
     1
102
RTVSPropertyOp61
 70
     1
102
RTVSPropertyOp62
 70
     1
  0
XRECORD
  5
25174
102
{ACAD_REACTORS
330
25173
102
}
330
25173
100
AcDbXrecord
280
     1
102
RTVSPost2010Prop28
280
     0
102
RTVSPost2010PropOp28
 70
     1
102
RTVSPost2010Prop29
280
     1
102
RTVSPost2010PropOp29
 70
     1
102
RTVSPost2010Prop30
280
     1
102
RTVSPost2010PropOp30
 70
     1
102
RTVSPost2010Prop31
280
     0
102
RTVSPost2010PropOp31
 70
     1
102
RTVSPost2010Prop32
280
     0
102
RTVSPost2010PropOp32
 70
     1
102
RTVSPost2010Prop33
280
     0
102
RTVSPost2010PropOp33
 70
     1
102
RTVSPost2010Prop34
280
     0
102
RTVSPost2010PropOp34
 70
     1
102
RTVSPost2010Prop35
280
     0
102
RTVSPost2010PropOp35
 70
     1
102
RTVSPost2010Prop36
280
     0
102
RTVSPost2010PropOp36
 70
     1
102
RTVSPost2010Prop37
 90
       50
102
RTVSPost2010PropOp37
 70
     1
102
RTVSPost2010Prop38
140
0.0
102
RTVSPost2010PropOp38
 70
     1
102
RTVSPost2010Prop39
140
1.0
102
RTVSPost2010PropOp39
 70
     1
102
RTVSPost2010Prop40
 90
        0
102
RTVSPost2010PropOp40
 70
     1
102
RTVSPost2010Prop41ColorIndex
 90
       18
102
RTVSPost2010Prop41ColorRGB
 90
        0
102
RTVSPost2010PropOp41
 70
     1
102
RTVSPost2010Prop42
 90
       50
102
RTVSPost2010PropOp42
 70
     1
102
RTVSPost2010Prop43
 90
        3
102
RTVSPost2010PropOp43
 70
     1
102
RTVSPost2010Prop44ColorIndex
 90
        5
102
RTVSPost2010Prop44ColorRGB
 90
      255
102
RTVSPost2010PropOp44
 70
     1
102
RTVSPost2010Prop45
280
     0
102
RTVSPost2010PropOp45
 70
     1
102
RTVSPost2010Prop46
 90
       50
102
RTVSPost2010PropOp46
 70
     1
102
RTVSPost2010Prop47
 90
       50
102
RTVSPost2010PropOp47
 70
     1
102
RTVSPost2010Prop48
 90
       50
102
RTVSPost2010PropOp48
 70
     1
102
RTVSPost2010Prop49
280
     0
102
RTVSPost2010PropOp49
 70
     1
102
RTVSPost2010Prop50
 90
       50
102
RTVSPost2010PropOp50
 70
     1
102
RTVSPost2010Prop51ColorIndex
 90
      256
102
RTVSPost2010Prop51ColorRGB
 90
-16777216
102
RTVSPost2010PropOp51
 70
     0
102
RTVSPost2010Prop52
140
1.0
102
RTVSPost2010PropOp52
 70
     0
102
RTVSPost2010Prop53
 90
        2
102
RTVSPost2010PropOp53
 70
     1
102
RTVSPost2010Prop54
  1
strokes_ogs.tif
102
RTVSPost2010PropOp54
 70
     1
102
RTVSPost2010Prop55
280
     0
102
RTVSPost2010PropOp55
 70
     1
102
RTVSPost2010Prop56
140
1.0
102
RTVSPost2010PropOp56
 70
     1
102
RTVSPost2010Prop57
140
1.0
102
RTVSPost2010PropOp57
 70
     1
102
RTVSPropertyOp0
 70
     1
102
RTVSPropertyOp1
 70
     1
102
RTVSPropertyOp2
 70
     1
102
RTVSPropertyOp3
 70
     1
102
RTVSPropertyOp4
 70
     1
102
RTVSPropertyOp5
 70
     1
102
RTVSPropertyOp6
 70
     1
102
RTVSPropertyOp7
 70
     1
102
RTVSPropertyOp8
 70
     1
102
RTVSPropertyOp9
 70
     1
102
RTVSPropertyOp10
 70
     1
102
RTVSPropertyOp11
 70
     1
102
RTVSPropertyOp12
 70
     1
102
RTVSPropertyOp13
 70
     1
102
RTVSPropertyOp14
 70
     1
102
RTVSPropertyOp15
 70
     1
102
RTVSPropertyOp16
 70
     1
102
RTVSPropertyOp17
 70
     1
102
RTVSPropertyOp18
 70
     1
102
RTVSPropertyOp19
 70
     1
102
RTVSPropertyOp20
 70
     1
102
RTVSPropertyOp21
 70
     1
102
RTVSPropertyOp22
 70
     1
102
RTVSPropertyOp23
 70
     1
102
RTVSPropertyOp24
 70
     1
102
RTVSPropertyOp25
 70
     1
102
RTVSPropertyOp26
 70
     1
102
RTVSPropertyOp27
 70
     1
102
RTVSPropertyOp28
 70
     1
102
RTVSPropertyOp29
 70
     1
102
RTVSPropertyOp30
 70
     1
102
RTVSPropertyOp31
 70
     1
102
RTVSPropertyOp32
 70
     1
102
RTVSPropertyOp33
 70
     1
102
RTVSPropertyOp34
 70
     1
102
RTVSPropertyOp35
 70
     1
102
RTVSPropertyOp36
 70
     1
102
RTVSPropertyOp37
 70
     1
102
RTVSPropertyOp38
 70
     1
102
RTVSPropertyOp39
 70
     1
102
RTVSPropertyOp40
 70
     1
102
RTVSPropertyOp41
 70
     1
102
RTVSPropertyOp42
 70
     1
102
RTVSPropertyOp43
 70
     1
102
RTVSPropertyOp44
 70
     1
102
RTVSPropertyOp45
 70
     1
102
RTVSPropertyOp46
 70
     1
102
RTVSPropertyOp47
 70
     1
102
RTVSPropertyOp48
 70
     1
102
RTVSPropertyOp49
 70
     1
102
RTVSPropertyOp50
 70
     1
102
RTVSPropertyOp51
 70
     0
102
RTVSPropertyOp52
 70
     0
102
RTVSPropertyOp53
 70
     1
102
RTVSPropertyOp54
 70
     1
102
RTVSPropertyOp55
 70
     1
102
RTVSPropertyOp56
 70
     1
102
RTVSPropertyOp57
 70
     1
102
RTVSPropertyOp58
 70
     1
102
RTVSPropertyOp59
 70
     1
102
RTVSPropertyOp60
 70
     1
102
RTVSPropertyOp61
 70
     1
102
RTVSPropertyOp62
 70
     1
  0
XRECORD
  5
2517C
102
{ACAD_REACTORS
330
2517B
102
}
330
2517B
100
AcDbXrecord
280
     1
102
RTVSPost2010Prop28
280
     0
102
RTVSPost2010PropOp28
 70
     1
102
RTVSPost2010Prop29
280
     1
102
RTVSPost2010PropOp29
 70
     1
102
RTVSPost2010Prop30
280
     1
102
RTVSPost2010PropOp30
 70
     1
102
RTVSPost2010Prop31
280
     0
102
RTVSPost2010PropOp31
 70
     1
102
RTVSPost2010Prop32
280
     0
102
RTVSPost2010PropOp32
 70
     1
102
RTVSPost2010Prop33
280
     0
102
RTVSPost2010PropOp33
 70
     1
102
RTVSPost2010Prop34
280
     0
102
RTVSPost2010PropOp34
 70
     1
102
RTVSPost2010Prop35
280
     0
102
RTVSPost2010PropOp35
 70
     1
102
RTVSPost2010Prop36
280
     0
102
RTVSPost2010PropOp36
 70
     1
102
RTVSPost2010Prop37
 90
       50
102
RTVSPost2010PropOp37
 70
     1
102
RTVSPost2010Prop38
140
0.0
102
RTVSPost2010PropOp38
 70
     1
102
RTVSPost2010Prop39
140
1.0
102
RTVSPost2010PropOp39
 70
     1
102
RTVSPost2010Prop40
 90
        0
102
RTVSPost2010PropOp40
 70
     1
102
RTVSPost2010Prop41ColorIndex
 90
       18
102
RTVSPost2010Prop41ColorRGB
 90
        0
102
RTVSPost2010PropOp41
 70
     1
102
RTVSPost2010Prop42
 90
       50
102
RTVSPost2010PropOp42
 70
     1
102
RTVSPost2010Prop43
 90
        3
102
RTVSPost2010PropOp43
 70
     1
102
RTVSPost2010Prop44ColorIndex
 90
        5
102
RTVSPost2010Prop44ColorRGB
 90
      255
102
RTVSPost2010PropOp44
 70
     1
102
RTVSPost2010Prop45
280
     0
102
RTVSPost2010PropOp45
 70
     1
102
RTVSPost2010Prop46
 90
       50
102
RTVSPost2010PropOp46
 70
     1
102
RTVSPost2010Prop47
 90
       50
102
RTVSPost2010PropOp47
 70
     1
102
RTVSPost2010Prop48
 90
       50
102
RTVSPost2010PropOp48
 70
     1
102
RTVSPost2010Prop49
280
     0
102
RTVSPost2010PropOp49
 70
     1
102
RTVSPost2010Prop50
 90
       50
102
RTVSPost2010PropOp50
 70
     1
102
RTVSPost2010Prop51ColorIndex
 90
      256
102
RTVSPost2010Prop51ColorRGB
 90
-16777216
102
RTVSPost2010PropOp51
 70
     0
102
RTVSPost2010Prop52
140
1.0
102
RTVSPost2010PropOp52
 70
     0
102
RTVSPost2010Prop53
 90
        2
102
RTVSPost2010PropOp53
 70
     1
102
RTVSPost2010Prop54
  1
strokes_ogs.tif
102
RTVSPost2010PropOp54
 70
     1
102
RTVSPost2010Prop55
280
     0
102
RTVSPost2010PropOp55
 70
     1
102
RTVSPost2010Prop56
140
1.0
102
RTVSPost2010PropOp56
 70
     1
102
RTVSPost2010Prop57
140
1.0
102
RTVSPost2010PropOp57
 70
     1
102
RTVSPropertyOp0
 70
     1
102
RTVSPropertyOp1
 70
     1
102
RTVSPropertyOp2
 70
     1
102
RTVSPropertyOp3
 70
     1
102
RTVSPropertyOp4
 70
     1
102
RTVSPropertyOp5
 70
     1
102
RTVSPropertyOp6
 70
     1
102
RTVSPropertyOp7
 70
     1
102
RTVSPropertyOp8
 70
     1
102
RTVSPropertyOp9
 70
     1
102
RTVSPropertyOp10
 70
     1
102
RTVSPropertyOp11
 70
     1
102
RTVSPropertyOp12
 70
     1
102
RTVSPropertyOp13
 70
     1
102
RTVSPropertyOp14
 70
     1
102
RTVSPropertyOp15
 70
     1
102
RTVSPropertyOp16
 70
     1
102
RTVSPropertyOp17
 70
     1
102
RTVSPropertyOp18
 70
     1
102
RTVSPropertyOp19
 70
     1
102
RTVSPropertyOp20
 70
     1
102
RTVSPropertyOp21
 70
     1
102
RTVSPropertyOp22
 70
     1
102
RTVSPropertyOp23
 70
     1
102
RTVSPropertyOp24
 70
     1
102
RTVSPropertyOp25
 70
     1
102
RTVSPropertyOp26
 70
     1
102
RTVSPropertyOp27
 70
     1
102
RTVSPropertyOp28
 70
     1
102
RTVSPropertyOp29
 70
     1
102
RTVSPropertyOp30
 70
     1
102
RTVSPropertyOp31
 70
     1
102
RTVSPropertyOp32
 70
     1
102
RTVSPropertyOp33
 70
     1
102
RTVSPropertyOp34
 70
     1
102
RTVSPropertyOp35
 70
     1
102
RTVSPropertyOp36
 70
     1
102
RTVSPropertyOp37
 70
     1
102
RTVSPropertyOp38
 70
     1
102
RTVSPropertyOp39
 70
     1
102
RTVSPropertyOp40
 70
     1
102
RTVSPropertyOp41
 70
     1
102
RTVSPropertyOp42
 70
     1
102
RTVSPropertyOp43
 70
     1
102
RTVSPropertyOp44
 70
     1
102
RTVSPropertyOp45
 70
     1
102
RTVSPropertyOp46
 70
     1
102
RTVSPropertyOp47
 70
     1
102
RTVSPropertyOp48
 70
     1
102
RTVSPropertyOp49
 70
     1
102
RTVSPropertyOp50
 70
     1
102
RTVSPropertyOp51
 70
     0
102
RTVSPropertyOp52
 70
     0
102
RTVSPropertyOp53
 70
     1
102
RTVSPropertyOp54
 70
     1
102
RTVSPropertyOp55
 70
     1
102
RTVSPropertyOp56
 70
     1
102
RTVSPropertyOp57
 70
     1
102
RTVSPropertyOp58
 70
     1
102
RTVSPropertyOp59
 70
     1
102
RTVSPropertyOp60
 70
     1
102
RTVSPropertyOp61
 70
     1
102
RTVSPropertyOp62
 70
     1
  0
XRECORD
  5
2516E
102
{ACAD_REACTORS
330
2516D
102
}
330
2516D
100
AcDbXrecord
280
     1
102
RTVSPost2010Prop28
280
     0
102
RTVSPost2010PropOp28
 70
     1
102
RTVSPost2010Prop29
280
     1
102
RTVSPost2010PropOp29
 70
     1
102
RTVSPost2010Prop30
280
     1
102
RTVSPost2010PropOp30
 70
     1
102
RTVSPost2010Prop31
280
     0
102
RTVSPost2010PropOp31
 70
     1
102
RTVSPost2010Prop32
280
     0
102
RTVSPost2010PropOp32
 70
     1
102
RTVSPost2010Prop33
280
     0
102
RTVSPost2010PropOp33
 70
     1
102
RTVSPost2010Prop34
280
     0
102
RTVSPost2010PropOp34
 70
     1
102
RTVSPost2010Prop35
280
     0
102
RTVSPost2010PropOp35
 70
     1
102
RTVSPost2010Prop36
280
     0
102
RTVSPost2010PropOp36
 70
     1
102
RTVSPost2010Prop37
 90
       50
102
RTVSPost2010PropOp37
 70
     1
102
RTVSPost2010Prop38
140
0.0
102
RTVSPost2010PropOp38
 70
     1
102
RTVSPost2010Prop39
140
1.0
102
RTVSPost2010PropOp39
 70
     1
102
RTVSPost2010Prop40
 90
        0
102
RTVSPost2010PropOp40
 70
     1
102
RTVSPost2010Prop41ColorIndex
 90
       18
102
RTVSPost2010Prop41ColorRGB
 90
        0
102
RTVSPost2010PropOp41
 70
     1
102
RTVSPost2010Prop42
 90
       50
102
RTVSPost2010PropOp42
 70
     1
102
RTVSPost2010Prop43
 90
        3
102
RTVSPost2010PropOp43
 70
     1
102
RTVSPost2010Prop44ColorIndex
 90
        5
102
RTVSPost2010Prop44ColorRGB
 90
      255
102
RTVSPost2010PropOp44
 70
     1
102
RTVSPost2010Prop45
280
     0
102
RTVSPost2010PropOp45
 70
     1
102
RTVSPost2010Prop46
 90
       50
102
RTVSPost2010PropOp46
 70
     1
102
RTVSPost2010Prop47
 90
       50
102
RTVSPost2010PropOp47
 70
     1
102
RTVSPost2010Prop48
 90
       50
102
RTVSPost2010PropOp48
 70
     1
102
RTVSPost2010Prop49
280
     0
102
RTVSPost2010PropOp49
 70
     1
102
RTVSPost2010Prop50
 90
       50
102
RTVSPost2010PropOp50
 70
     1
102
RTVSPost2010Prop51ColorIndex
 90
      256
102
RTVSPost2010Prop51ColorRGB
 90
-16777216
102
RTVSPost2010PropOp51
 70
     0
102
RTVSPost2010Prop52
140
1.0
102
RTVSPost2010PropOp52
 70
     0
102
RTVSPost2010Prop53
 90
        2
102
RTVSPost2010PropOp53
 70
     1
102
RTVSPost2010Prop54
  1
strokes_ogs.tif
102
RTVSPost2010PropOp54
 70
     1
102
RTVSPost2010Prop55
280
     0
102
RTVSPost2010PropOp55
 70
     1
102
RTVSPost2010Prop56
140
1.0
102
RTVSPost2010PropOp56
 70
     1
102
RTVSPost2010Prop57
140
1.0
102
RTVSPost2010PropOp57
 70
     1
102
RTVSPropertyOp0
 70
     1
102
RTVSPropertyOp1
 70
     1
102
RTVSPropertyOp2
 70
     1
102
RTVSPropertyOp3
 70
     1
102
RTVSPropertyOp4
 70
     1
102
RTVSPropertyOp5
 70
     1
102
RTVSPropertyOp6
 70
     1
102
RTVSPropertyOp7
 70
     1
102
RTVSPropertyOp8
 70
     1
102
RTVSPropertyOp9
 70
     1
102
RTVSPropertyOp10
 70
     1
102
RTVSPropertyOp11
 70
     1
102
RTVSPropertyOp12
 70
     1
102
RTVSPropertyOp13
 70
     1
102
RTVSPropertyOp14
 70
     1
102
RTVSPropertyOp15
 70
     1
102
RTVSPropertyOp16
 70
     1
102
RTVSPropertyOp17
 70
     1
102
RTVSPropertyOp18
 70
     1
102
RTVSPropertyOp19
 70
     1
102
RTVSPropertyOp20
 70
     1
102
RTVSPropertyOp21
 70
     1
102
RTVSPropertyOp22
 70
     1
102
RTVSPropertyOp23
 70
     1
102
RTVSPropertyOp24
 70
     1
102
RTVSPropertyOp25
 70
     1
102
RTVSPropertyOp26
 70
     1
102
RTVSPropertyOp27
 70
     1
102
RTVSPropertyOp28
 70
     1
102
RTVSPropertyOp29
 70
     1
102
RTVSPropertyOp30
 70
     1
102
RTVSPropertyOp31
 70
     1
102
RTVSPropertyOp32
 70
     1
102
RTVSPropertyOp33
 70
     1
102
RTVSPropertyOp34
 70
     1
102
RTVSPropertyOp35
 70
     1
102
RTVSPropertyOp36
 70
     1
102
RTVSPropertyOp37
 70
     1
102
RTVSPropertyOp38
 70
     1
102
RTVSPropertyOp39
 70
     1
102
RTVSPropertyOp40
 70
     1
102
RTVSPropertyOp41
 70
     1
102
RTVSPropertyOp42
 70
     1
102
RTVSPropertyOp43
 70
     1
102
RTVSPropertyOp44
 70
     1
102
RTVSPropertyOp45
 70
     1
102
RTVSPropertyOp46
 70
     1
102
RTVSPropertyOp47
 70
     1
102
RTVSPropertyOp48
 70
     1
102
RTVSPropertyOp49
 70
     1
102
RTVSPropertyOp50
 70
     1
102
RTVSPropertyOp51
 70
     0
102
RTVSPropertyOp52
 70
     0
102
RTVSPropertyOp53
 70
     1
102
RTVSPropertyOp54
 70
     1
102
RTVSPropertyOp55
 70
     1
102
RTVSPropertyOp56
 70
     1
102
RTVSPropertyOp57
 70
     1
102
RTVSPropertyOp58
 70
     1
102
RTVSPropertyOp59
 70
     1
102
RTVSPropertyOp60
 70
     1
102
RTVSPropertyOp61
 70
     1
102
RTVSPropertyOp62
 70
     1
  0
XRECORD
  5
25172
102
{ACAD_REACTORS
330
25171
102
}
330
25171
100
AcDbXrecord
280
     1
102
RTVSPost2010Prop28
280
     0
102
RTVSPost2010PropOp28
 70
     1
102
RTVSPost2010Prop29
280
     1
102
RTVSPost2010PropOp29
 70
     1
102
RTVSPost2010Prop30
280
     1
102
RTVSPost2010PropOp30
 70
     1
102
RTVSPost2010Prop31
280
     0
102
RTVSPost2010PropOp31
 70
     1
102
RTVSPost2010Prop32
280
     0
102
RTVSPost2010PropOp32
 70
     1
102
RTVSPost2010Prop33
280
     0
102
RTVSPost2010PropOp33
 70
     1
102
RTVSPost2010Prop34
280
     0
102
RTVSPost2010PropOp34
 70
     1
102
RTVSPost2010Prop35
280
     0
102
RTVSPost2010PropOp35
 70
     1
102
RTVSPost2010Prop36
280
     0
102
RTVSPost2010PropOp36
 70
     1
102
RTVSPost2010Prop37
 90
       50
102
RTVSPost2010PropOp37
 70
     1
102
RTVSPost2010Prop38
140
0.0
102
RTVSPost2010PropOp38
 70
     1
102
RTVSPost2010Prop39
140
1.0
102
RTVSPost2010PropOp39
 70
     1
102
RTVSPost2010Prop40
 90
        0
102
RTVSPost2010PropOp40
 70
     1
102
RTVSPost2010Prop41ColorIndex
 90
       18
102
RTVSPost2010Prop41ColorRGB
 90
        0
102
RTVSPost2010PropOp41
 70
     1
102
RTVSPost2010Prop42
 90
       50
102
RTVSPost2010PropOp42
 70
     1
102
RTVSPost2010Prop43
 90
        3
102
RTVSPost2010PropOp43
 70
     1
102
RTVSPost2010Prop44ColorIndex
 90
        5
102
RTVSPost2010Prop44ColorRGB
 90
      255
102
RTVSPost2010PropOp44
 70
     1
102
RTVSPost2010Prop45
280
     0
102
RTVSPost2010PropOp45
 70
     1
102
RTVSPost2010Prop46
 90
       50
102
RTVSPost2010PropOp46
 70
     1
102
RTVSPost2010Prop47
 90
       50
102
RTVSPost2010PropOp47
 70
     1
102
RTVSPost2010Prop48
 90
       50
102
RTVSPost2010PropOp48
 70
     1
102
RTVSPost2010Prop49
280
     0
102
RTVSPost2010PropOp49
 70
     1
102
RTVSPost2010Prop50
 90
       50
102
RTVSPost2010PropOp50
 70
     1
102
RTVSPost2010Prop51ColorIndex
 90
      256
102
RTVSPost2010Prop51ColorRGB
 90
-16777216
102
RTVSPost2010PropOp51
 70
     0
102
RTVSPost2010Prop52
140
1.0
102
RTVSPost2010PropOp52
 70
     0
102
RTVSPost2010Prop53
 90
        2
102
RTVSPost2010PropOp53
 70
     1
102
RTVSPost2010Prop54
  1
strokes_ogs.tif
102
RTVSPost2010PropOp54
 70
     1
102
RTVSPost2010Prop55
280
     0
102
RTVSPost2010PropOp55
 70
     1
102
RTVSPost2010Prop56
140
1.0
102
RTVSPost2010PropOp56
 70
     1
102
RTVSPost2010Prop57
140
1.0
102
RTVSPost2010PropOp57
 70
     1
102
RTVSPropertyOp0
 70
     1
102
RTVSPropertyOp1
 70
     1
102
RTVSPropertyOp2
 70
     1
102
RTVSPropertyOp3
 70
     1
102
RTVSPropertyOp4
 70
     1
102
RTVSPropertyOp5
 70
     1
102
RTVSPropertyOp6
 70
     1
102
RTVSPropertyOp7
 70
     1
102
RTVSPropertyOp8
 70
     1
102
RTVSPropertyOp9
 70
     1
102
RTVSPropertyOp10
 70
     1
102
RTVSPropertyOp11
 70
     1
102
RTVSPropertyOp12
 70
     1
102
RTVSPropertyOp13
 70
     1
102
RTVSPropertyOp14
 70
     1
102
RTVSPropertyOp15
 70
     1
102
RTVSPropertyOp16
 70
     1
102
RTVSPropertyOp17
 70
     1
102
RTVSPropertyOp18
 70
     1
102
RTVSPropertyOp19
 70
     1
102
RTVSPropertyOp20
 70
     1
102
RTVSPropertyOp21
 70
     1
102
RTVSPropertyOp22
 70
     1
102
RTVSPropertyOp23
 70
     1
102
RTVSPropertyOp24
 70
     1
102
RTVSPropertyOp25
 70
     1
102
RTVSPropertyOp26
 70
     1
102
RTVSPropertyOp27
 70
     1
102
RTVSPropertyOp28
 70
     1
102
RTVSPropertyOp29
 70
     1
102
RTVSPropertyOp30
 70
     1
102
RTVSPropertyOp31
 70
     1
102
RTVSPropertyOp32
 70
     1
102
RTVSPropertyOp33
 70
     1
102
RTVSPropertyOp34
 70
     1
102
RTVSPropertyOp35
 70
     1
102
RTVSPropertyOp36
 70
     1
102
RTVSPropertyOp37
 70
     1
102
RTVSPropertyOp38
 70
     1
102
RTVSPropertyOp39
 70
     1
102
RTVSPropertyOp40
 70
     1
102
RTVSPropertyOp41
 70
     1
102
RTVSPropertyOp42
 70
     1
102
RTVSPropertyOp43
 70
     1
102
RTVSPropertyOp44
 70
     1
102
RTVSPropertyOp45
 70
     1
102
RTVSPropertyOp46
 70
     1
102
RTVSPropertyOp47
 70
     1
102
RTVSPropertyOp48
 70
     1
102
RTVSPropertyOp49
 70
     1
102
RTVSPropertyOp50
 70
     1
102
RTVSPropertyOp51
 70
     0
102
RTVSPropertyOp52
 70
     0
102
RTVSPropertyOp53
 70
     1
102
RTVSPropertyOp54
 70
     1
102
RTVSPropertyOp55
 70
     1
102
RTVSPropertyOp56
 70
     1
102
RTVSPropertyOp57
 70
     1
102
RTVSPropertyOp58
 70
     1
102
RTVSPropertyOp59
 70
     1
102
RTVSPropertyOp60
 70
     1
102
RTVSPropertyOp61
 70
     1
102
RTVSPropertyOp62
 70
     1
  0
XRECORD
  5
25182
102
{ACAD_REACTORS
330
25181
102
}
330
25181
100
AcDbXrecord
280
     1
102
RTVSPost2010Prop28
280
     0
102
RTVSPost2010PropOp28
 70
     1
102
RTVSPost2010Prop29
280
     1
102
RTVSPost2010PropOp29
 70
     1
102
RTVSPost2010Prop30
280
     1
102
RTVSPost2010PropOp30
 70
     1
102
RTVSPost2010Prop31
280
     0
102
RTVSPost2010PropOp31
 70
     1
102
RTVSPost2010Prop32
280
     0
102
RTVSPost2010PropOp32
 70
     1
102
RTVSPost2010Prop33
280
     0
102
RTVSPost2010PropOp33
 70
     1
102
RTVSPost2010Prop34
280
     0
102
RTVSPost2010PropOp34
 70
     1
102
RTVSPost2010Prop35
280
     0
102
RTVSPost2010PropOp35
 70
     1
102
RTVSPost2010Prop36
280
     0
102
RTVSPost2010PropOp36
 70
     1
102
RTVSPost2010Prop37
 90
       50
102
RTVSPost2010PropOp37
 70
     1
102
RTVSPost2010Prop38
140
0.0
102
RTVSPost2010PropOp38
 70
     1
102
RTVSPost2010Prop39
140
1.0
102
RTVSPost2010PropOp39
 70
     1
102
RTVSPost2010Prop40
 90
        0
102
RTVSPost2010PropOp40
 70
     1
102
RTVSPost2010Prop41ColorIndex
 90
       18
102
RTVSPost2010Prop41ColorRGB
 90
        0
102
RTVSPost2010PropOp41
 70
     1
102
RTVSPost2010Prop42
 90
       50
102
RTVSPost2010PropOp42
 70
     1
102
RTVSPost2010Prop43
 90
        3
102
RTVSPost2010PropOp43
 70
     1
102
RTVSPost2010Prop44ColorIndex
 90
        5
102
RTVSPost2010Prop44ColorRGB
 90
      255
102
RTVSPost2010PropOp44
 70
     1
102
RTVSPost2010Prop45
280
     0
102
RTVSPost2010PropOp45
 70
     1
102
RTVSPost2010Prop46
 90
       50
102
RTVSPost2010PropOp46
 70
     1
102
RTVSPost2010Prop47
 90
       50
102
RTVSPost2010PropOp47
 70
     1
102
RTVSPost2010Prop48
 90
       50
102
RTVSPost2010PropOp48
 70
     1
102
RTVSPost2010Prop49
280
     0
102
RTVSPost2010PropOp49
 70
     1
102
RTVSPost2010Prop50
 90
       50
102
RTVSPost2010PropOp50
 70
     1
102
RTVSPost2010Prop51ColorIndex
 90
      256
102
RTVSPost2010Prop51ColorRGB
 90
-16777216
102
RTVSPost2010PropOp51
 70
     0
102
RTVSPost2010Prop52
140
1.0
102
RTVSPost2010PropOp52
 70
     0
102
RTVSPost2010Prop53
 90
        2
102
RTVSPost2010PropOp53
 70
     1
102
RTVSPost2010Prop54
  1
strokes_ogs.tif
102
RTVSPost2010PropOp54
 70
     1
102
RTVSPost2010Prop55
280
     0
102
RTVSPost2010PropOp55
 70
     1
102
RTVSPost2010Prop56
140
1.0
102
RTVSPost2010PropOp56
 70
     1
102
RTVSPost2010Prop57
140
1.0
102
RTVSPost2010PropOp57
 70
     1
102
RTVSPropertyOp0
 70
     0
102
RTVSPropertyOp1
 70
     0
102
RTVSPropertyOp2
 70
     0
102
RTVSPropertyOp3
 70
     0
102
RTVSPropertyOp4
 70
     0
102
RTVSPropertyOp5
 70
     0
102
RTVSPropertyOp6
 70
     0
102
RTVSPropertyOp7
 70
     0
102
RTVSPropertyOp8
 70
     0
102
RTVSPropertyOp9
 70
     0
102
RTVSPropertyOp10
 70
     0
102
RTVSPropertyOp11
 70
     0
102
RTVSPropertyOp12
 70
     0
102
RTVSPropertyOp13
 70
     0
102
RTVSPropertyOp14
 70
     2
102
RTVSPropertyOp15
 70
     0
102
RTVSPropertyOp16
 70
     0
102
RTVSPropertyOp17
 70
     0
102
RTVSPropertyOp18
 70
     0
102
RTVSPropertyOp19
 70
     0
102
RTVSPropertyOp20
 70
     0
102
RTVSPropertyOp21
 70
     0
102
RTVSPropertyOp22
 70
     0
102
RTVSPropertyOp23
 70
     0
102
RTVSPropertyOp24
 70
     0
102
RTVSPropertyOp25
 70
     0
102
RTVSPropertyOp26
 70
     0
102
RTVSPropertyOp27
 70
     0
102
RTVSPropertyOp28
 70
     1
102
RTVSPropertyOp29
 70
     1
102
RTVSPropertyOp30
 70
     1
102
RTVSPropertyOp31
 70
     1
102
RTVSPropertyOp32
 70
     1
102
RTVSPropertyOp33
 70
     1
102
RTVSPropertyOp34
 70
     1
102
RTVSPropertyOp35
 70
     1
102
RTVSPropertyOp36
 70
     1
102
RTVSPropertyOp37
 70
     1
102
RTVSPropertyOp38
 70
     1
102
RTVSPropertyOp39
 70
     1
102
RTVSPropertyOp40
 70
     1
102
RTVSPropertyOp41
 70
     1
102
RTVSPropertyOp42
 70
     1
102
RTVSPropertyOp43
 70
     1
102
RTVSPropertyOp44
 70
     1
102
RTVSPropertyOp45
 70
     1
102
RTVSPropertyOp46
 70
     1
102
RTVSPropertyOp47
 70
     1
102
RTVSPropertyOp48
 70
     1
102
RTVSPropertyOp49
 70
     1
102
RTVSPropertyOp50
 70
     1
102
RTVSPropertyOp51
 70
     0
102
RTVSPropertyOp52
 70
     0
102
RTVSPropertyOp53
 70
     1
102
RTVSPropertyOp54
 70
     1
102
RTVSPropertyOp55
 70
     1
102
RTVSPropertyOp56
 70
     1
102
RTVSPropertyOp57
 70
     1
102
RTVSPropertyOp58
 70
     1
102
RTVSPropertyOp59
 70
     1
102
RTVSPropertyOp60
 70
     1
102
RTVSPropertyOp61
 70
     1
102
RTVSPropertyOp62
 70
     1
  0
XRECORD
  5
2517A
102
{ACAD_REACTORS
330
25179
102
}
330
25179
100
AcDbXrecord
280
     1
102
RTVSPost2010Prop28
280
     0
102
RTVSPost2010PropOp28
 70
     1
102
RTVSPost2010Prop29
280
     1
102
RTVSPost2010PropOp29
 70
     1
102
RTVSPost2010Prop30
280
     1
102
RTVSPost2010PropOp30
 70
     1
102
RTVSPost2010Prop31
280
     0
102
RTVSPost2010PropOp31
 70
     1
102
RTVSPost2010Prop32
280
     0
102
RTVSPost2010PropOp32
 70
     1
102
RTVSPost2010Prop33
280
     0
102
RTVSPost2010PropOp33
 70
     1
102
RTVSPost2010Prop34
280
     0
102
RTVSPost2010PropOp34
 70
     1
102
RTVSPost2010Prop35
280
     0
102
RTVSPost2010PropOp35
 70
     1
102
RTVSPost2010Prop36
280
     0
102
RTVSPost2010PropOp36
 70
     1
102
RTVSPost2010Prop37
 90
       50
102
RTVSPost2010PropOp37
 70
     1
102
RTVSPost2010Prop38
140
0.0
102
RTVSPost2010PropOp38
 70
     1
102
RTVSPost2010Prop39
140
1.0
102
RTVSPost2010PropOp39
 70
     1
102
RTVSPost2010Prop40
 90
        0
102
RTVSPost2010PropOp40
 70
     1
102
RTVSPost2010Prop41ColorIndex
 90
       18
102
RTVSPost2010Prop41ColorRGB
 90
        0
102
RTVSPost2010PropOp41
 70
     1
102
RTVSPost2010Prop42
 90
       50
102
RTVSPost2010PropOp42
 70
     1
102
RTVSPost2010Prop43
 90
        3
102
RTVSPost2010PropOp43
 70
     1
102
RTVSPost2010Prop44ColorIndex
 90
        5
102
RTVSPost2010Prop44ColorRGB
 90
      255
102
RTVSPost2010PropOp44
 70
     1
102
RTVSPost2010Prop45
280
     0
102
RTVSPost2010PropOp45
 70
     1
102
RTVSPost2010Prop46
 90
       50
102
RTVSPost2010PropOp46
 70
     1
102
RTVSPost2010Prop47
 90
       50
102
RTVSPost2010PropOp47
 70
     1
102
RTVSPost2010Prop48
 90
       50
102
RTVSPost2010PropOp48
 70
     1
102
RTVSPost2010Prop49
280
     0
102
RTVSPost2010PropOp49
 70
     1
102
RTVSPost2010Prop50
 90
       50
102
RTVSPost2010PropOp50
 70
     1
102
RTVSPost2010Prop51ColorIndex
 90
      256
102
RTVSPost2010Prop51ColorRGB
 90
-16777216
102
RTVSPost2010PropOp51
 70
     0
102
RTVSPost2010Prop52
140
1.0
102
RTVSPost2010PropOp52
 70
     0
102
RTVSPost2010Prop53
 90
        2
102
RTVSPost2010PropOp53
 70
     1
102
RTVSPost2010Prop54
  1
strokes_ogs.tif
102
RTVSPost2010PropOp54
 70
     1
102
RTVSPost2010Prop55
280
     0
102
RTVSPost2010PropOp55
 70
     1
102
RTVSPost2010Prop56
140
1.0
102
RTVSPost2010PropOp56
 70
     1
102
RTVSPost2010Prop57
140
1.0
102
RTVSPost2010PropOp57
 70
     1
102
RTVSPropertyOp0
 70
     1
102
RTVSPropertyOp1
 70
     1
102
RTVSPropertyOp2
 70
     1
102
RTVSPropertyOp3
 70
     1
102
RTVSPropertyOp4
 70
     1
102
RTVSPropertyOp5
 70
     1
102
RTVSPropertyOp6
 70
     1
102
RTVSPropertyOp7
 70
     1
102
RTVSPropertyOp8
 70
     1
102
RTVSPropertyOp9
 70
     1
102
RTVSPropertyOp10
 70
     1
102
RTVSPropertyOp11
 70
     1
102
RTVSPropertyOp12
 70
     1
102
RTVSPropertyOp13
 70
     1
102
RTVSPropertyOp14
 70
     1
102
RTVSPropertyOp15
 70
     1
102
RTVSPropertyOp16
 70
     1
102
RTVSPropertyOp17
 70
     1
102
RTVSPropertyOp18
 70
     1
102
RTVSPropertyOp19
 70
     1
102
RTVSPropertyOp20
 70
     1
102
RTVSPropertyOp21
 70
     1
102
RTVSPropertyOp22
 70
     1
102
RTVSPropertyOp23
 70
     1
102
RTVSPropertyOp24
 70
     1
102
RTVSPropertyOp25
 70
     1
102
RTVSPropertyOp26
 70
     1
102
RTVSPropertyOp27
 70
     1
102
RTVSPropertyOp28
 70
     1
102
RTVSPropertyOp29
 70
     1
102
RTVSPropertyOp30
 70
     1
102
RTVSPropertyOp31
 70
     1
102
RTVSPropertyOp32
 70
     1
102
RTVSPropertyOp33
 70
     1
102
RTVSPropertyOp34
 70
     1
102
RTVSPropertyOp35
 70
     1
102
RTVSPropertyOp36
 70
     1
102
RTVSPropertyOp37
 70
     1
102
RTVSPropertyOp38
 70
     1
102
RTVSPropertyOp39
 70
     1
102
RTVSPropertyOp40
 70
     1
102
RTVSPropertyOp41
 70
     1
102
RTVSPropertyOp42
 70
     1
102
RTVSPropertyOp43
 70
     1
102
RTVSPropertyOp44
 70
     1
102
RTVSPropertyOp45
 70
     1
102
RTVSPropertyOp46
 70
     1
102
RTVSPropertyOp47
 70
     1
102
RTVSPropertyOp48
 70
     1
102
RTVSPropertyOp49
 70
     1
102
RTVSPropertyOp50
 70
     1
102
RTVSPropertyOp51
 70
     0
102
RTVSPropertyOp52
 70
     0
102
RTVSPropertyOp53
 70
     1
102
RTVSPropertyOp54
 70
     1
102
RTVSPropertyOp55
 70
     1
102
RTVSPropertyOp56
 70
     1
102
RTVSPropertyOp57
 70
     1
102
RTVSPropertyOp58
 70
     1
102
RTVSPropertyOp59
 70
     1
102
RTVSPropertyOp60
 70
     1
102
RTVSPropertyOp61
 70
     1
102
RTVSPropertyOp62
 70
     1
  0
XRECORD
  5
2515E
102
{ACAD_REACTORS
330
2515D
102
}
330
2515D
100
AcDbXrecord
280
     1
102
RTVSPost2010Prop28
280
     0
102
RTVSPost2010PropOp28
 70
     1
102
RTVSPost2010Prop29
280
     1
102
RTVSPost2010PropOp29
 70
     1
102
RTVSPost2010Prop30
280
     1
102
RTVSPost2010PropOp30
 70
     1
102
RTVSPost2010Prop31
280
     0
102
RTVSPost2010PropOp31
 70
     1
102
RTVSPost2010Prop32
280
     0
102
RTVSPost2010PropOp32
 70
     1
102
RTVSPost2010Prop33
280
     0
102
RTVSPost2010PropOp33
 70
     1
102
RTVSPost2010Prop34
280
     0
102
RTVSPost2010PropOp34
 70
     1
102
RTVSPost2010Prop35
280
     0
102
RTVSPost2010PropOp35
 70
     1
102
RTVSPost2010Prop36
280
     0
102
RTVSPost2010PropOp36
 70
     1
102
RTVSPost2010Prop37
 90
       50
102
RTVSPost2010PropOp37
 70
     1
102
RTVSPost2010Prop38
140
0.0
102
RTVSPost2010PropOp38
 70
     1
102
RTVSPost2010Prop39
140
1.0
102
RTVSPost2010PropOp39
 70
     1
102
RTVSPost2010Prop40
 90
        0
102
RTVSPost2010PropOp40
 70
     1
102
RTVSPost2010Prop41ColorIndex
 90
       18
102
RTVSPost2010Prop41ColorRGB
 90
        0
102
RTVSPost2010PropOp41
 70
     1
102
RTVSPost2010Prop42
 90
       50
102
RTVSPost2010PropOp42
 70
     1
102
RTVSPost2010Prop43
 90
        3
102
RTVSPost2010PropOp43
 70
     1
102
RTVSPost2010Prop44ColorIndex
 90
        5
102
RTVSPost2010Prop44ColorRGB
 90
      255
102
RTVSPost2010PropOp44
 70
     1
102
RTVSPost2010Prop45
280
     0
102
RTVSPost2010PropOp45
 70
     1
102
RTVSPost2010Prop46
 90
       50
102
RTVSPost2010PropOp46
 70
     1
102
RTVSPost2010Prop47
 90
       50
102
RTVSPost2010PropOp47
 70
     1
102
RTVSPost2010Prop48
 90
       50
102
RTVSPost2010PropOp48
 70
     1
102
RTVSPost2010Prop49
280
     0
102
RTVSPost2010PropOp49
 70
     1
102
RTVSPost2010Prop50
 90
       50
102
RTVSPost2010PropOp50
 70
     1
102
RTVSPost2010Prop51ColorIndex
 90
      256
102
RTVSPost2010Prop51ColorRGB
 90
-16777216
102
RTVSPost2010PropOp51
 70
     0
102
RTVSPost2010Prop52
140
1.0
102
RTVSPost2010PropOp52
 70
     0
102
RTVSPost2010Prop53
 90
        2
102
RTVSPost2010PropOp53
 70
     1
102
RTVSPost2010Prop54
  1
strokes_ogs.tif
102
RTVSPost2010PropOp54
 70
     1
102
RTVSPost2010Prop55
280
     0
102
RTVSPost2010PropOp55
 70
     1
102
RTVSPost2010Prop56
140
1.0
102
RTVSPost2010PropOp56
 70
     1
102
RTVSPost2010Prop57
140
1.0
102
RTVSPost2010PropOp57
 70
     1
102
RTVSPropertyOp0
 70
     1
102
RTVSPropertyOp1
 70
     1
102
RTVSPropertyOp2
 70
     1
102
RTVSPropertyOp3
 70
     1
102
RTVSPropertyOp4
 70
     1
102
RTVSPropertyOp5
 70
     1
102
RTVSPropertyOp6
 70
     1
102
RTVSPropertyOp7
 70
     1
102
RTVSPropertyOp8
 70
     1
102
RTVSPropertyOp9
 70
     1
102
RTVSPropertyOp10
 70
     1
102
RTVSPropertyOp11
 70
     1
102
RTVSPropertyOp12
 70
     1
102
RTVSPropertyOp13
 70
     1
102
RTVSPropertyOp14
 70
     1
102
RTVSPropertyOp15
 70
     1
102
RTVSPropertyOp16
 70
     1
102
RTVSPropertyOp17
 70
     1
102
RTVSPropertyOp18
 70
     1
102
RTVSPropertyOp19
 70
     1
102
RTVSPropertyOp20
 70
     1
102
RTVSPropertyOp21
 70
     1
102
RTVSPropertyOp22
 70
     1
102
RTVSPropertyOp23
 70
     1
102
RTVSPropertyOp24
 70
     1
102
RTVSPropertyOp25
 70
     1
102
RTVSPropertyOp26
 70
     1
102
RTVSPropertyOp27
 70
     1
102
RTVSPropertyOp28
 70
     1
102
RTVSPropertyOp29
 70
     1
102
RTVSPropertyOp30
 70
     1
102
RTVSPropertyOp31
 70
     1
102
RTVSPropertyOp32
 70
     1
102
RTVSPropertyOp33
 70
     1
102
RTVSPropertyOp34
 70
     1
102
RTVSPropertyOp35
 70
     1
102
RTVSPropertyOp36
 70
     1
102
RTVSPropertyOp37
 70
     1
102
RTVSPropertyOp38
 70
     1
102
RTVSPropertyOp39
 70
     1
102
RTVSPropertyOp40
 70
     1
102
RTVSPropertyOp41
 70
     1
102
RTVSPropertyOp42
 70
     1
102
RTVSPropertyOp43
 70
     1
102
RTVSPropertyOp44
 70
     1
102
RTVSPropertyOp45
 70
     1
102
RTVSPropertyOp46
 70
     1
102
RTVSPropertyOp47
 70
     1
102
RTVSPropertyOp48
 70
     1
102
RTVSPropertyOp49
 70
     1
102
RTVSPropertyOp50
 70
     1
102
RTVSPropertyOp51
 70
     0
102
RTVSPropertyOp52
 70
     0
102
RTVSPropertyOp53
 70
     1
102
RTVSPropertyOp54
 70
     1
102
RTVSPropertyOp55
 70
     1
102
RTVSPropertyOp56
 70
     1
102
RTVSPropertyOp57
 70
     1
102
RTVSPropertyOp58
 70
     1
102
RTVSPropertyOp59
 70
     1
102
RTVSPropertyOp60
 70
     1
102
RTVSPropertyOp61
 70
     1
102
RTVSPropertyOp62
 70
     1
  0
XRECORD
  5
25160
102
{ACAD_REACTORS
330
2515F
102
}
330
2515F
100
AcDbXrecord
280
     1
102
RTVSPost2010Prop28
280
     0
102
RTVSPost2010PropOp28
 70
     1
102
RTVSPost2010Prop29
280
     1
102
RTVSPost2010PropOp29
 70
     1
102
RTVSPost2010Prop30
280
     1
102
RTVSPost2010PropOp30
 70
     1
102
RTVSPost2010Prop31
280
     0
102
RTVSPost2010PropOp31
 70
     1
102
RTVSPost2010Prop32
280
     0
102
RTVSPost2010PropOp32
 70
     1
102
RTVSPost2010Prop33
280
     0
102
RTVSPost2010PropOp33
 70
     1
102
RTVSPost2010Prop34
280
     0
102
RTVSPost2010PropOp34
 70
     1
102
RTVSPost2010Prop35
280
     0
102
RTVSPost2010PropOp35
 70
     1
102
RTVSPost2010Prop36
280
     0
102
RTVSPost2010PropOp36
 70
     1
102
RTVSPost2010Prop37
 90
       50
102
RTVSPost2010PropOp37
 70
     1
102
RTVSPost2010Prop38
140
0.0
102
RTVSPost2010PropOp38
 70
     1
102
RTVSPost2010Prop39
140
1.0
102
RTVSPost2010PropOp39
 70
     1
102
RTVSPost2010Prop40
 90
        0
102
RTVSPost2010PropOp40
 70
     1
102
RTVSPost2010Prop41ColorIndex
 90
       18
102
RTVSPost2010Prop41ColorRGB
 90
        0
102
RTVSPost2010PropOp41
 70
     1
102
RTVSPost2010Prop42
 90
       50
102
RTVSPost2010PropOp42
 70
     1
102
RTVSPost2010Prop43
 90
        3
102
RTVSPost2010PropOp43
 70
     1
102
RTVSPost2010Prop44ColorIndex
 90
        5
102
RTVSPost2010Prop44ColorRGB
 90
      255
102
RTVSPost2010PropOp44
 70
     1
102
RTVSPost2010Prop45
280
     0
102
RTVSPost2010PropOp45
 70
     1
102
RTVSPost2010Prop46
 90
       50
102
RTVSPost2010PropOp46
 70
     1
102
RTVSPost2010Prop47
 90
       50
102
RTVSPost2010PropOp47
 70
     1
102
RTVSPost2010Prop48
 90
       50
102
RTVSPost2010PropOp48
 70
     1
102
RTVSPost2010Prop49
280
     0
102
RTVSPost2010PropOp49
 70
     1
102
RTVSPost2010Prop50
 90
       50
102
RTVSPost2010PropOp50
 70
     1
102
RTVSPost2010Prop51ColorIndex
 90
      256
102
RTVSPost2010Prop51ColorRGB
 90
-16777216
102
RTVSPost2010PropOp51
 70
     0
102
RTVSPost2010Prop52
140
1.0
102
RTVSPost2010PropOp52
 70
     0
102
RTVSPost2010Prop53
 90
        2
102
RTVSPost2010PropOp53
 70
     1
102
RTVSPost2010Prop54
  1
strokes_ogs.tif
102
RTVSPost2010PropOp54
 70
     1
102
RTVSPost2010Prop55
280
     0
102
RTVSPost2010PropOp55
 70
     1
102
RTVSPost2010Prop56
140
1.0
102
RTVSPost2010PropOp56
 70
     1
102
RTVSPost2010Prop57
140
1.0
102
RTVSPost2010PropOp57
 70
     1
102
RTVSPropertyOp0
 70
     1
102
RTVSPropertyOp1
 70
     1
102
RTVSPropertyOp2
 70
     1
102
RTVSPropertyOp3
 70
     1
102
RTVSPropertyOp4
 70
     1
102
RTVSPropertyOp5
 70
     1
102
RTVSPropertyOp6
 70
     1
102
RTVSPropertyOp7
 70
     1
102
RTVSPropertyOp8
 70
     1
102
RTVSPropertyOp9
 70
     1
102
RTVSPropertyOp10
 70
     1
102
RTVSPropertyOp11
 70
     1
102
RTVSPropertyOp12
 70
     1
102
RTVSPropertyOp13
 70
     1
102
RTVSPropertyOp14
 70
     1
102
RTVSPropertyOp15
 70
     1
102
RTVSPropertyOp16
 70
     1
102
RTVSPropertyOp17
 70
     1
102
RTVSPropertyOp18
 70
     1
102
RTVSPropertyOp19
 70
     1
102
RTVSPropertyOp20
 70
     1
102
RTVSPropertyOp21
 70
     1
102
RTVSPropertyOp22
 70
     1
102
RTVSPropertyOp23
 70
     1
102
RTVSPropertyOp24
 70
     1
102
RTVSPropertyOp25
 70
     1
102
RTVSPropertyOp26
 70
     1
102
RTVSPropertyOp27
 70
     1
102
RTVSPropertyOp28
 70
     1
102
RTVSPropertyOp29
 70
     1
102
RTVSPropertyOp30
 70
     1
102
RTVSPropertyOp31
 70
     1
102
RTVSPropertyOp32
 70
     1
102
RTVSPropertyOp33
 70
     1
102
RTVSPropertyOp34
 70
     1
102
RTVSPropertyOp35
 70
     1
102
RTVSPropertyOp36
 70
     1
102
RTVSPropertyOp37
 70
     1
102
RTVSPropertyOp38
 70
     1
102
RTVSPropertyOp39
 70
     1
102
RTVSPropertyOp40
 70
     1
102
RTVSPropertyOp41
 70
     1
102
RTVSPropertyOp42
 70
     1
102
RTVSPropertyOp43
 70
     1
102
RTVSPropertyOp44
 70
     1
102
RTVSPropertyOp45
 70
     1
102
RTVSPropertyOp46
 70
     1
102
RTVSPropertyOp47
 70
     1
102
RTVSPropertyOp48
 70
     1
102
RTVSPropertyOp49
 70
     1
102
RTVSPropertyOp50
 70
     1
102
RTVSPropertyOp51
 70
     0
102
RTVSPropertyOp52
 70
     0
102
RTVSPropertyOp53
 70
     1
102
RTVSPropertyOp54
 70
     1
102
RTVSPropertyOp55
 70
     1
102
RTVSPropertyOp56
 70
     1
102
RTVSPropertyOp57
 70
     1
102
RTVSPropertyOp58
 70
     1
102
RTVSPropertyOp59
 70
     1
102
RTVSPropertyOp60
 70
     1
102
RTVSPropertyOp61
 70
     1
102
RTVSPropertyOp62
 70
     1
  0
XRECORD
  5
25162
102
{ACAD_REACTORS
330
25161
102
}
330
25161
100
AcDbXrecord
280
     1
102
RTVSPost2010Prop28
280
     0
102
RTVSPost2010PropOp28
 70
     1
102
RTVSPost2010Prop29
280
     1
102
RTVSPost2010PropOp29
 70
     1
102
RTVSPost2010Prop30
280
     1
102
RTVSPost2010PropOp30
 70
     1
102
RTVSPost2010Prop31
280
     0
102
RTVSPost2010PropOp31
 70
     1
102
RTVSPost2010Prop32
280
     0
102
RTVSPost2010PropOp32
 70
     1
102
RTVSPost2010Prop33
280
     0
102
RTVSPost2010PropOp33
 70
     1
102
RTVSPost2010Prop34
280
     0
102
RTVSPost2010PropOp34
 70
     1
102
RTVSPost2010Prop35
280
     0
102
RTVSPost2010PropOp35
 70
     1
102
RTVSPost2010Prop36
280
     0
102
RTVSPost2010PropOp36
 70
     1
102
RTVSPost2010Prop37
 90
       50
102
RTVSPost2010PropOp37
 70
     1
102
RTVSPost2010Prop38
140
0.0
102
RTVSPost2010PropOp38
 70
     1
102
RTVSPost2010Prop39
140
1.0
102
RTVSPost2010PropOp39
 70
     1
102
RTVSPost2010Prop40
 90
        0
102
RTVSPost2010PropOp40
 70
     1
102
RTVSPost2010Prop41ColorIndex
 90
       18
102
RTVSPost2010Prop41ColorRGB
 90
        0
102
RTVSPost2010PropOp41
 70
     1
102
RTVSPost2010Prop42
 90
       50
102
RTVSPost2010PropOp42
 70
     1
102
RTVSPost2010Prop43
 90
        3
102
RTVSPost2010PropOp43
 70
     1
102
RTVSPost2010Prop44ColorIndex
 90
        5
102
RTVSPost2010Prop44ColorRGB
 90
      255
102
RTVSPost2010PropOp44
 70
     1
102
RTVSPost2010Prop45
280
     0
102
RTVSPost2010PropOp45
 70
     1
102
RTVSPost2010Prop46
 90
       50
102
RTVSPost2010PropOp46
 70
     1
102
RTVSPost2010Prop47
 90
       50
102
RTVSPost2010PropOp47
 70
     1
102
RTVSPost2010Prop48
 90
       50
102
RTVSPost2010PropOp48
 70
     1
102
RTVSPost2010Prop49
280
     0
102
RTVSPost2010PropOp49
 70
     1
102
RTVSPost2010Prop50
 90
       50
102
RTVSPost2010PropOp50
 70
     1
102
RTVSPost2010Prop51ColorIndex
 90
      256
102
RTVSPost2010Prop51ColorRGB
 90
-16777216
102
RTVSPost2010PropOp51
 70
     0
102
RTVSPost2010Prop52
140
1.0
102
RTVSPost2010PropOp52
 70
     0
102
RTVSPost2010Prop53
 90
        2
102
RTVSPost2010PropOp53
 70
     1
102
RTVSPost2010Prop54
  1
strokes_ogs.tif
102
RTVSPost2010PropOp54
 70
     1
102
RTVSPost2010Prop55
280
     0
102
RTVSPost2010PropOp55
 70
     1
102
RTVSPost2010Prop56
140
1.0
102
RTVSPost2010PropOp56
 70
     1
102
RTVSPost2010Prop57
140
1.0
102
RTVSPost2010PropOp57
 70
     1
102
RTVSPropertyOp0
 70
     1
102
RTVSPropertyOp1
 70
     1
102
RTVSPropertyOp2
 70
     1
102
RTVSPropertyOp3
 70
     1
102
RTVSPropertyOp4
 70
     1
102
RTVSPropertyOp5
 70
     1
102
RTVSPropertyOp6
 70
     1
102
RTVSPropertyOp7
 70
     1
102
RTVSPropertyOp8
 70
     1
102
RTVSPropertyOp9
 70
     1
102
RTVSPropertyOp10
 70
     1
102
RTVSPropertyOp11
 70
     1
102
RTVSPropertyOp12
 70
     1
102
RTVSPropertyOp13
 70
     1
102
RTVSPropertyOp14
 70
     1
102
RTVSPropertyOp15
 70
     1
102
RTVSPropertyOp16
 70
     1
102
RTVSPropertyOp17
 70
     1
102
RTVSPropertyOp18
 70
     1
102
RTVSPropertyOp19
 70
     1
102
RTVSPropertyOp20
 70
     1
102
RTVSPropertyOp21
 70
     1
102
RTVSPropertyOp22
 70
     1
102
RTVSPropertyOp23
 70
     1
102
RTVSPropertyOp24
 70
     1
102
RTVSPropertyOp25
 70
     1
102
RTVSPropertyOp26
 70
     1
102
RTVSPropertyOp27
 70
     1
102
RTVSPropertyOp28
 70
     1
102
RTVSPropertyOp29
 70
     1
102
RTVSPropertyOp30
 70
     1
102
RTVSPropertyOp31
 70
     1
102
RTVSPropertyOp32
 70
     1
102
RTVSPropertyOp33
 70
     1
102
RTVSPropertyOp34
 70
     1
102
RTVSPropertyOp35
 70
     1
102
RTVSPropertyOp36
 70
     1
102
RTVSPropertyOp37
 70
     1
102
RTVSPropertyOp38
 70
     1
102
RTVSPropertyOp39
 70
     1
102
RTVSPropertyOp40
 70
     1
102
RTVSPropertyOp41
 70
     1
102
RTVSPropertyOp42
 70
     1
102
RTVSPropertyOp43
 70
     1
102
RTVSPropertyOp44
 70
     1
102
RTVSPropertyOp45
 70
     1
102
RTVSPropertyOp46
 70
     1
102
RTVSPropertyOp47
 70
     1
102
RTVSPropertyOp48
 70
     1
102
RTVSPropertyOp49
 70
     1
102
RTVSPropertyOp50
 70
     1
102
RTVSPropertyOp51
 70
     0
102
RTVSPropertyOp52
 70
     0
102
RTVSPropertyOp53
 70
     1
102
RTVSPropertyOp54
 70
     1
102
RTVSPropertyOp55
 70
     1
102
RTVSPropertyOp56
 70
     1
102
RTVSPropertyOp57
 70
     1
102
RTVSPropertyOp58
 70
     1
102
RTVSPropertyOp59
 70
     1
102
RTVSPropertyOp60
 70
     1
102
RTVSPropertyOp61
 70
     1
102
RTVSPropertyOp62
 70
     1
  0
XRECORD
  5
25164
102
{ACAD_REACTORS
330
25163
102
}
330
25163
100
AcDbXrecord
280
     1
102
RTVSPost2010Prop28
280
     0
102
RTVSPost2010PropOp28
 70
     1
102
RTVSPost2010Prop29
280
     1
102
RTVSPost2010PropOp29
 70
     1
102
RTVSPost2010Prop30
280
     1
102
RTVSPost2010PropOp30
 70
     1
102
RTVSPost2010Prop31
280
     0
102
RTVSPost2010PropOp31
 70
     1
102
RTVSPost2010Prop32
280
     0
102
RTVSPost2010PropOp32
 70
     1
102
RTVSPost2010Prop33
280
     0
102
RTVSPost2010PropOp33
 70
     1
102
RTVSPost2010Prop34
280
     0
102
RTVSPost2010PropOp34
 70
     1
102
RTVSPost2010Prop35
280
     0
102
RTVSPost2010PropOp35
 70
     1
102
RTVSPost2010Prop36
280
     0
102
RTVSPost2010PropOp36
 70
     1
102
RTVSPost2010Prop37
 90
       50
102
RTVSPost2010PropOp37
 70
     1
102
RTVSPost2010Prop38
140
0.0
102
RTVSPost2010PropOp38
 70
     1
102
RTVSPost2010Prop39
140
1.0
102
RTVSPost2010PropOp39
 70
     1
102
RTVSPost2010Prop40
 90
        0
102
RTVSPost2010PropOp40
 70
     1
102
RTVSPost2010Prop41ColorIndex
 90
       18
102
RTVSPost2010Prop41ColorRGB
 90
        0
102
RTVSPost2010PropOp41
 70
     1
102
RTVSPost2010Prop42
 90
       50
102
RTVSPost2010PropOp42
 70
     1
102
RTVSPost2010Prop43
 90
        3
102
RTVSPost2010PropOp43
 70
     1
102
RTVSPost2010Prop44ColorIndex
 90
        5
102
RTVSPost2010Prop44ColorRGB
 90
      255
102
RTVSPost2010PropOp44
 70
     1
102
RTVSPost2010Prop45
280
     0
102
RTVSPost2010PropOp45
 70
     1
102
RTVSPost2010Prop46
 90
       50
102
RTVSPost2010PropOp46
 70
     1
102
RTVSPost2010Prop47
 90
       50
102
RTVSPost2010PropOp47
 70
     1
102
RTVSPost2010Prop48
 90
       50
102
RTVSPost2010PropOp48
 70
     1
102
RTVSPost2010Prop49
280
     0
102
RTVSPost2010PropOp49
 70
     1
102
RTVSPost2010Prop50
 90
       50
102
RTVSPost2010PropOp50
 70
     1
102
RTVSPost2010Prop51ColorIndex
 90
      256
102
RTVSPost2010Prop51ColorRGB
 90
-16777216
102
RTVSPost2010PropOp51
 70
     0
102
RTVSPost2010Prop52
140
1.0
102
RTVSPost2010PropOp52
 70
     0
102
RTVSPost2010Prop53
 90
        2
102
RTVSPost2010PropOp53
 70
     1
102
RTVSPost2010Prop54
  1
strokes_ogs.tif
102
RTVSPost2010PropOp54
 70
     1
102
RTVSPost2010Prop55
280
     0
102
RTVSPost2010PropOp55
 70
     1
102
RTVSPost2010Prop56
140
1.0
102
RTVSPost2010PropOp56
 70
     1
102
RTVSPost2010Prop57
140
1.0
102
RTVSPost2010PropOp57
 70
     1
102
RTVSPropertyOp0
 70
     1
102
RTVSPropertyOp1
 70
     1
102
RTVSPropertyOp2
 70
     1
102
RTVSPropertyOp3
 70
     1
102
RTVSPropertyOp4
 70
     1
102
RTVSPropertyOp5
 70
     1
102
RTVSPropertyOp6
 70
     1
102
RTVSPropertyOp7
 70
     1
102
RTVSPropertyOp8
 70
     1
102
RTVSPropertyOp9
 70
     1
102
RTVSPropertyOp10
 70
     1
102
RTVSPropertyOp11
 70
     1
102
RTVSPropertyOp12
 70
     1
102
RTVSPropertyOp13
 70
     1
102
RTVSPropertyOp14
 70
     1
102
RTVSPropertyOp15
 70
     1
102
RTVSPropertyOp16
 70
     1
102
RTVSPropertyOp17
 70
     1
102
RTVSPropertyOp18
 70
     1
102
RTVSPropertyOp19
 70
     1
102
RTVSPropertyOp20
 70
     1
102
RTVSPropertyOp21
 70
     1
102
RTVSPropertyOp22
 70
     1
102
RTVSPropertyOp23
 70
     1
102
RTVSPropertyOp24
 70
     1
102
RTVSPropertyOp25
 70
     1
102
RTVSPropertyOp26
 70
     1
102
RTVSPropertyOp27
 70
     1
102
RTVSPropertyOp28
 70
     1
102
RTVSPropertyOp29
 70
     1
102
RTVSPropertyOp30
 70
     1
102
RTVSPropertyOp31
 70
     1
102
RTVSPropertyOp32
 70
     1
102
RTVSPropertyOp33
 70
     1
102
RTVSPropertyOp34
 70
     1
102
RTVSPropertyOp35
 70
     1
102
RTVSPropertyOp36
 70
     1
102
RTVSPropertyOp37
 70
     1
102
RTVSPropertyOp38
 70
     1
102
RTVSPropertyOp39
 70
     1
102
RTVSPropertyOp40
 70
     1
102
RTVSPropertyOp41
 70
     1
102
RTVSPropertyOp42
 70
     1
102
RTVSPropertyOp43
 70
     1
102
RTVSPropertyOp44
 70
     1
102
RTVSPropertyOp45
 70
     1
102
RTVSPropertyOp46
 70
     1
102
RTVSPropertyOp47
 70
     1
102
RTVSPropertyOp48
 70
     1
102
RTVSPropertyOp49
 70
     1
102
RTVSPropertyOp50
 70
     1
102
RTVSPropertyOp51
 70
     0
102
RTVSPropertyOp52
 70
     0
102
RTVSPropertyOp53
 70
     1
102
RTVSPropertyOp54
 70
     1
102
RTVSPropertyOp55
 70
     1
102
RTVSPropertyOp56
 70
     1
102
RTVSPropertyOp57
 70
     1
102
RTVSPropertyOp58
 70
     1
102
RTVSPropertyOp59
 70
     1
102
RTVSPropertyOp60
 70
     1
102
RTVSPropertyOp61
 70
     1
102
RTVSPropertyOp62
 70
     1
  0
XRECORD
  5
25187
102
{ACAD_REACTORS
330
25186
102
}
330
25186
100
AcDbXrecord
280
     1
102
RTVSPost2010Prop28
280
     0
102
RTVSPost2010PropOp28
 70
     1
102
RTVSPost2010Prop29
280
     1
102
RTVSPost2010PropOp29
 70
     1
102
RTVSPost2010Prop30
280
     1
102
RTVSPost2010PropOp30
 70
     1
102
RTVSPost2010Prop31
280
     0
102
RTVSPost2010PropOp31
 70
     1
102
RTVSPost2010Prop32
280
     0
102
RTVSPost2010PropOp32
 70
     1
102
RTVSPost2010Prop33
280
     0
102
RTVSPost2010PropOp33
 70
     1
102
RTVSPost2010Prop34
280
     0
102
RTVSPost2010PropOp34
 70
     1
102
RTVSPost2010Prop35
280
     0
102
RTVSPost2010PropOp35
 70
     1
102
RTVSPost2010Prop36
280
     0
102
RTVSPost2010PropOp36
 70
     1
102
RTVSPost2010Prop37
 90
       50
102
RTVSPost2010PropOp37
 70
     1
102
RTVSPost2010Prop38
140
0.0
102
RTVSPost2010PropOp38
 70
     1
102
RTVSPost2010Prop39
140
1.0
102
RTVSPost2010PropOp39
 70
     1
102
RTVSPost2010Prop40
 90
        0
102
RTVSPost2010PropOp40
 70
     1
102
RTVSPost2010Prop41ColorIndex
 90
       18
102
RTVSPost2010Prop41ColorRGB
 90
        0
102
RTVSPost2010PropOp41
 70
     1
102
RTVSPost2010Prop42
 90
       50
102
RTVSPost2010PropOp42
 70
     1
102
RTVSPost2010Prop43
 90
        3
102
RTVSPost2010PropOp43
 70
     1
102
RTVSPost2010Prop44ColorIndex
 90
        5
102
RTVSPost2010Prop44ColorRGB
 90
      255
102
RTVSPost2010PropOp44
 70
     1
102
RTVSPost2010Prop45
280
     0
102
RTVSPost2010PropOp45
 70
     1
102
RTVSPost2010Prop46
 90
       50
102
RTVSPost2010PropOp46
 70
     1
102
RTVSPost2010Prop47
 90
       50
102
RTVSPost2010PropOp47
 70
     1
102
RTVSPost2010Prop48
 90
       50
102
RTVSPost2010PropOp48
 70
     1
102
RTVSPost2010Prop49
280
     0
102
RTVSPost2010PropOp49
 70
     1
102
RTVSPost2010Prop50
 90
       50
102
RTVSPost2010PropOp50
 70
     1
102
RTVSPost2010Prop51ColorIndex
 90
      256
102
RTVSPost2010Prop51ColorRGB
 90
-16777216
102
RTVSPost2010PropOp51
 70
     0
102
RTVSPost2010Prop52
140
1.0
102
RTVSPost2010PropOp52
 70
     0
102
RTVSPost2010Prop53
 90
        2
102
RTVSPost2010PropOp53
 70
     1
102
RTVSPost2010Prop54
  1
strokes_ogs.tif
102
RTVSPost2010PropOp54
 70
     1
102
RTVSPost2010Prop55
280
     0
102
RTVSPost2010PropOp55
 70
     1
102
RTVSPost2010Prop56
140
1.0
102
RTVSPost2010PropOp56
 70
     1
102
RTVSPost2010Prop57
140
1.0
102
RTVSPost2010PropOp57
 70
     1
102
RTVSPropertyOp0
 70
     1
102
RTVSPropertyOp1
 70
     1
102
RTVSPropertyOp2
 70
     1
102
RTVSPropertyOp3
 70
     1
102
RTVSPropertyOp4
 70
     1
102
RTVSPropertyOp5
 70
     1
102
RTVSPropertyOp6
 70
     1
102
RTVSPropertyOp7
 70
     1
102
RTVSPropertyOp8
 70
     1
102
RTVSPropertyOp9
 70
     1
102
RTVSPropertyOp10
 70
     1
102
RTVSPropertyOp11
 70
     1
102
RTVSPropertyOp12
 70
     1
102
RTVSPropertyOp13
 70
     1
102
RTVSPropertyOp14
 70
     1
102
RTVSPropertyOp15
 70
     1
102
RTVSPropertyOp16
 70
     1
102
RTVSPropertyOp17
 70
     1
102
RTVSPropertyOp18
 70
     1
102
RTVSPropertyOp19
 70
     1
102
RTVSPropertyOp20
 70
     1
102
RTVSPropertyOp21
 70
     1
102
RTVSPropertyOp22
 70
     1
102
RTVSPropertyOp23
 70
     1
102
RTVSPropertyOp24
 70
     1
102
RTVSPropertyOp25
 70
     1
102
RTVSPropertyOp26
 70
     1
102
RTVSPropertyOp27
 70
     1
102
RTVSPropertyOp28
 70
     1
102
RTVSPropertyOp29
 70
     1
102
RTVSPropertyOp30
 70
     1
102
RTVSPropertyOp31
 70
     1
102
RTVSPropertyOp32
 70
     1
102
RTVSPropertyOp33
 70
     1
102
RTVSPropertyOp34
 70
     1
102
RTVSPropertyOp35
 70
     1
102
RTVSPropertyOp36
 70
     1
102
RTVSPropertyOp37
 70
     1
102
RTVSPropertyOp38
 70
     1
102
RTVSPropertyOp39
 70
     1
102
RTVSPropertyOp40
 70
     1
102
RTVSPropertyOp41
 70
     1
102
RTVSPropertyOp42
 70
     1
102
RTVSPropertyOp43
 70
     1
102
RTVSPropertyOp44
 70
     1
102
RTVSPropertyOp45
 70
     1
102
RTVSPropertyOp46
 70
     1
102
RTVSPropertyOp47
 70
     1
102
RTVSPropertyOp48
 70
     1
102
RTVSPropertyOp49
 70
     1
102
RTVSPropertyOp50
 70
     1
102
RTVSPropertyOp51
 70
     0
102
RTVSPropertyOp52
 70
     0
102
RTVSPropertyOp53
 70
     1
102
RTVSPropertyOp54
 70
     1
102
RTVSPropertyOp55
 70
     1
102
RTVSPropertyOp56
 70
     1
102
RTVSPropertyOp57
 70
     1
102
RTVSPropertyOp58
 70
     1
102
RTVSPropertyOp59
 70
     1
102
RTVSPropertyOp60
 70
     1
102
RTVSPropertyOp61
 70
     1
102
RTVSPropertyOp62
 70
     1
  0
XRECORD
  5
2517E
102
{ACAD_REACTORS
330
2517D
102
}
330
2517D
100
AcDbXrecord
280
     1
102
RTVSPost2010Prop28
280
     0
102
RTVSPost2010PropOp28
 70
     1
102
RTVSPost2010Prop29
280
     1
102
RTVSPost2010PropOp29
 70
     1
102
RTVSPost2010Prop30
280
     1
102
RTVSPost2010PropOp30
 70
     1
102
RTVSPost2010Prop31
280
     0
102
RTVSPost2010PropOp31
 70
     1
102
RTVSPost2010Prop32
280
     0
102
RTVSPost2010PropOp32
 70
     1
102
RTVSPost2010Prop33
280
     0
102
RTVSPost2010PropOp33
 70
     1
102
RTVSPost2010Prop34
280
     0
102
RTVSPost2010PropOp34
 70
     1
102
RTVSPost2010Prop35
280
     0
102
RTVSPost2010PropOp35
 70
     1
102
RTVSPost2010Prop36
280
     0
102
RTVSPost2010PropOp36
 70
     1
102
RTVSPost2010Prop37
 90
       50
102
RTVSPost2010PropOp37
 70
     1
102
RTVSPost2010Prop38
140
0.0
102
RTVSPost2010PropOp38
 70
     1
102
RTVSPost2010Prop39
140
1.0
102
RTVSPost2010PropOp39
 70
     1
102
RTVSPost2010Prop40
 90
        0
102
RTVSPost2010PropOp40
 70
     1
102
RTVSPost2010Prop41ColorIndex
 90
       18
102
RTVSPost2010Prop41ColorRGB
 90
        0
102
RTVSPost2010PropOp41
 70
     1
102
RTVSPost2010Prop42
 90
       50
102
RTVSPost2010PropOp42
 70
     1
102
RTVSPost2010Prop43
 90
        3
102
RTVSPost2010PropOp43
 70
     1
102
RTVSPost2010Prop44ColorIndex
 90
        5
102
RTVSPost2010Prop44ColorRGB
 90
      255
102
RTVSPost2010PropOp44
 70
     1
102
RTVSPost2010Prop45
280
     0
102
RTVSPost2010PropOp45
 70
     1
102
RTVSPost2010Prop46
 90
       50
102
RTVSPost2010PropOp46
 70
     1
102
RTVSPost2010Prop47
 90
       50
102
RTVSPost2010PropOp47
 70
     1
102
RTVSPost2010Prop48
 90
       50
102
RTVSPost2010PropOp48
 70
     1
102
RTVSPost2010Prop49
280
     0
102
RTVSPost2010PropOp49
 70
     1
102
RTVSPost2010Prop50
 90
       50
102
RTVSPost2010PropOp50
 70
     1
102
RTVSPost2010Prop51ColorIndex
 90
      256
102
RTVSPost2010Prop51ColorRGB
 90
-16777216
102
RTVSPost2010PropOp51
 70
     0
102
RTVSPost2010Prop52
140
1.0
102
RTVSPost2010PropOp52
 70
     0
102
RTVSPost2010Prop53
 90
        2
102
RTVSPost2010PropOp53
 70
     1
102
RTVSPost2010Prop54
  1
strokes_ogs.tif
102
RTVSPost2010PropOp54
 70
     1
102
RTVSPost2010Prop55
280
     0
102
RTVSPost2010PropOp55
 70
     1
102
RTVSPost2010Prop56
140
1.0
102
RTVSPost2010PropOp56
 70
     1
102
RTVSPost2010Prop57
140
1.0
102
RTVSPost2010PropOp57
 70
     1
102
RTVSPropertyOp0
 70
     0
102
RTVSPropertyOp1
 70
     0
102
RTVSPropertyOp2
 70
     0
102
RTVSPropertyOp3
 70
     0
102
RTVSPropertyOp4
 70
     0
102
RTVSPropertyOp5
 70
     0
102
RTVSPropertyOp6
 70
     0
102
RTVSPropertyOp7
 70
     0
102
RTVSPropertyOp8
 70
     0
102
RTVSPropertyOp9
 70
     0
102
RTVSPropertyOp10
 70
     0
102
RTVSPropertyOp11
 70
     0
102
RTVSPropertyOp12
 70
     0
102
RTVSPropertyOp13
 70
     0
102
RTVSPropertyOp14
 70
     2
102
RTVSPropertyOp15
 70
     0
102
RTVSPropertyOp16
 70
     0
102
RTVSPropertyOp17
 70
     0
102
RTVSPropertyOp18
 70
     0
102
RTVSPropertyOp19
 70
     0
102
RTVSPropertyOp20
 70
     0
102
RTVSPropertyOp21
 70
     0
102
RTVSPropertyOp22
 70
     0
102
RTVSPropertyOp23
 70
     0
102
RTVSPropertyOp24
 70
     0
102
RTVSPropertyOp25
 70
     0
102
RTVSPropertyOp26
 70
     0
102
RTVSPropertyOp27
 70
     0
102
RTVSPropertyOp28
 70
     1
102
RTVSPropertyOp29
 70
     1
102
RTVSPropertyOp30
 70
     1
102
RTVSPropertyOp31
 70
     1
102
RTVSPropertyOp32
 70
     1
102
RTVSPropertyOp33
 70
     1
102
RTVSPropertyOp34
 70
     1
102
RTVSPropertyOp35
 70
     1
102
RTVSPropertyOp36
 70
     1
102
RTVSPropertyOp37
 70
     1
102
RTVSPropertyOp38
 70
     1
102
RTVSPropertyOp39
 70
     1
102
RTVSPropertyOp40
 70
     1
102
RTVSPropertyOp41
 70
     1
102
RTVSPropertyOp42
 70
     1
102
RTVSPropertyOp43
 70
     1
102
RTVSPropertyOp44
 70
     1
102
RTVSPropertyOp45
 70
     1
102
RTVSPropertyOp46
 70
     1
102
RTVSPropertyOp47
 70
     1
102
RTVSPropertyOp48
 70
     1
102
RTVSPropertyOp49
 70
     1
102
RTVSPropertyOp50
 70
     1
102
RTVSPropertyOp51
 70
     0
102
RTVSPropertyOp52
 70
     0
102
RTVSPropertyOp53
 70
     1
102
RTVSPropertyOp54
 70
     1
102
RTVSPropertyOp55
 70
     1
102
RTVSPropertyOp56
 70
     1
102
RTVSPropertyOp57
 70
     1
102
RTVSPropertyOp58
 70
     1
102
RTVSPropertyOp59
 70
     1
102
RTVSPropertyOp60
 70
     1
102
RTVSPropertyOp61
 70
     1
102
RTVSPropertyOp62
 70
     1
  0
XRECORD
  5
25178
102
{ACAD_REACTORS
330
25177
102
}
330
25177
100
AcDbXrecord
280
     1
102
RTVSPost2010Prop28
280
     0
102
RTVSPost2010PropOp28
 70
     1
102
RTVSPost2010Prop29
280
     1
102
RTVSPost2010PropOp29
 70
     1
102
RTVSPost2010Prop30
280
     1
102
RTVSPost2010PropOp30
 70
     1
102
RTVSPost2010Prop31
280
     0
102
RTVSPost2010PropOp31
 70
     1
102
RTVSPost2010Prop32
280
     0
102
RTVSPost2010PropOp32
 70
     1
102
RTVSPost2010Prop33
280
     0
102
RTVSPost2010PropOp33
 70
     1
102
RTVSPost2010Prop34
280
     0
102
RTVSPost2010PropOp34
 70
     1
102
RTVSPost2010Prop35
280
     0
102
RTVSPost2010PropOp35
 70
     1
102
RTVSPost2010Prop36
280
     0
102
RTVSPost2010PropOp36
 70
     1
102
RTVSPost2010Prop37
 90
       50
102
RTVSPost2010PropOp37
 70
     1
102
RTVSPost2010Prop38
140
0.0
102
RTVSPost2010PropOp38
 70
     1
102
RTVSPost2010Prop39
140
1.0
102
RTVSPost2010PropOp39
 70
     1
102
RTVSPost2010Prop40
 90
        0
102
RTVSPost2010PropOp40
 70
     1
102
RTVSPost2010Prop41ColorIndex
 90
       18
102
RTVSPost2010Prop41ColorRGB
 90
        0
102
RTVSPost2010PropOp41
 70
     1
102
RTVSPost2010Prop42
 90
       50
102
RTVSPost2010PropOp42
 70
     1
102
RTVSPost2010Prop43
 90
        3
102
RTVSPost2010PropOp43
 70
     1
102
RTVSPost2010Prop44ColorIndex
 90
        5
102
RTVSPost2010Prop44ColorRGB
 90
      255
102
RTVSPost2010PropOp44
 70
     1
102
RTVSPost2010Prop45
280
     0
102
RTVSPost2010PropOp45
 70
     1
102
RTVSPost2010Prop46
 90
       50
102
RTVSPost2010PropOp46
 70
     1
102
RTVSPost2010Prop47
 90
       50
102
RTVSPost2010PropOp47
 70
     1
102
RTVSPost2010Prop48
 90
       50
102
RTVSPost2010PropOp48
 70
     1
102
RTVSPost2010Prop49
280
     0
102
RTVSPost2010PropOp49
 70
     1
102
RTVSPost2010Prop50
 90
       50
102
RTVSPost2010PropOp50
 70
     1
102
RTVSPost2010Prop51ColorIndex
 90
      256
102
RTVSPost2010Prop51ColorRGB
 90
-16777216
102
RTVSPost2010PropOp51
 70
     0
102
RTVSPost2010Prop52
140
1.0
102
RTVSPost2010PropOp52
 70
     0
102
RTVSPost2010Prop53
 90
        2
102
RTVSPost2010PropOp53
 70
     1
102
RTVSPost2010Prop54
  1
strokes_ogs.tif
102
RTVSPost2010PropOp54
 70
     1
102
RTVSPost2010Prop55
280
     0
102
RTVSPost2010PropOp55
 70
     1
102
RTVSPost2010Prop56
140
1.0
102
RTVSPost2010PropOp56
 70
     1
102
RTVSPost2010Prop57
140
1.0
102
RTVSPost2010PropOp57
 70
     1
102
RTVSPropertyOp0
 70
     1
102
RTVSPropertyOp1
 70
     1
102
RTVSPropertyOp2
 70
     1
102
RTVSPropertyOp3
 70
     1
102
RTVSPropertyOp4
 70
     1
102
RTVSPropertyOp5
 70
     1
102
RTVSPropertyOp6
 70
     1
102
RTVSPropertyOp7
 70
     1
102
RTVSPropertyOp8
 70
     1
102
RTVSPropertyOp9
 70
     1
102
RTVSPropertyOp10
 70
     1
102
RTVSPropertyOp11
 70
     1
102
RTVSPropertyOp12
 70
     1
102
RTVSPropertyOp13
 70
     1
102
RTVSPropertyOp14
 70
     1
102
RTVSPropertyOp15
 70
     1
102
RTVSPropertyOp16
 70
     1
102
RTVSPropertyOp17
 70
     1
102
RTVSPropertyOp18
 70
     1
102
RTVSPropertyOp19
 70
     1
102
RTVSPropertyOp20
 70
     1
102
RTVSPropertyOp21
 70
     1
102
RTVSPropertyOp22
 70
     1
102
RTVSPropertyOp23
 70
     1
102
RTVSPropertyOp24
 70
     1
102
RTVSPropertyOp25
 70
     1
102
RTVSPropertyOp26
 70
     1
102
RTVSPropertyOp27
 70
     1
102
RTVSPropertyOp28
 70
     1
102
RTVSPropertyOp29
 70
     1
102
RTVSPropertyOp30
 70
     1
102
RTVSPropertyOp31
 70
     1
102
RTVSPropertyOp32
 70
     1
102
RTVSPropertyOp33
 70
     1
102
RTVSPropertyOp34
 70
     1
102
RTVSPropertyOp35
 70
     1
102
RTVSPropertyOp36
 70
     1
102
RTVSPropertyOp37
 70
     1
102
RTVSPropertyOp38
 70
     1
102
RTVSPropertyOp39
 70
     1
102
RTVSPropertyOp40
 70
     1
102
RTVSPropertyOp41
 70
     1
102
RTVSPropertyOp42
 70
     1
102
RTVSPropertyOp43
 70
     1
102
RTVSPropertyOp44
 70
     1
102
RTVSPropertyOp45
 70
     1
102
RTVSPropertyOp46
 70
     1
102
RTVSPropertyOp47
 70
     1
102
RTVSPropertyOp48
 70
     1
102
RTVSPropertyOp49
 70
     1
102
RTVSPropertyOp50
 70
     1
102
RTVSPropertyOp51
 70
     0
102
RTVSPropertyOp52
 70
     0
102
RTVSPropertyOp53
 70
     1
102
RTVSPropertyOp54
 70
     1
102
RTVSPropertyOp55
 70
     1
102
RTVSPropertyOp56
 70
     1
102
RTVSPropertyOp57
 70
     1
102
RTVSPropertyOp58
 70
     1
102
RTVSPropertyOp59
 70
     1
102
RTVSPropertyOp60
 70
     1
102
RTVSPropertyOp61
 70
     1
102
RTVSPropertyOp62
 70
     1
  0
XRECORD
  5
25180
102
{ACAD_REACTORS
330
2517F
102
}
330
2517F
100
AcDbXrecord
280
     1
102
RTVSPost2010Prop28
280
     0
102
RTVSPost2010PropOp28
 70
     1
102
RTVSPost2010Prop29
280
     1
102
RTVSPost2010PropOp29
 70
     1
102
RTVSPost2010Prop30
280
     1
102
RTVSPost2010PropOp30
 70
     1
102
RTVSPost2010Prop31
280
     0
102
RTVSPost2010PropOp31
 70
     1
102
RTVSPost2010Prop32
280
     0
102
RTVSPost2010PropOp32
 70
     1
102
RTVSPost2010Prop33
280
     0
102
RTVSPost2010PropOp33
 70
     1
102
RTVSPost2010Prop34
280
     0
102
RTVSPost2010PropOp34
 70
     1
102
RTVSPost2010Prop35
280
     0
102
RTVSPost2010PropOp35
 70
     1
102
RTVSPost2010Prop36
280
     0
102
RTVSPost2010PropOp36
 70
     1
102
RTVSPost2010Prop37
 90
       50
102
RTVSPost2010PropOp37
 70
     1
102
RTVSPost2010Prop38
140
0.0
102
RTVSPost2010PropOp38
 70
     1
102
RTVSPost2010Prop39
140
1.0
102
RTVSPost2010PropOp39
 70
     1
102
RTVSPost2010Prop40
 90
        0
102
RTVSPost2010PropOp40
 70
     1
102
RTVSPost2010Prop41ColorIndex
 90
       18
102
RTVSPost2010Prop41ColorRGB
 90
        0
102
RTVSPost2010PropOp41
 70
     1
102
RTVSPost2010Prop42
 90
       50
102
RTVSPost2010PropOp42
 70
     1
102
RTVSPost2010Prop43
 90
        3
102
RTVSPost2010PropOp43
 70
     1
102
RTVSPost2010Prop44ColorIndex
 90
        5
102
RTVSPost2010Prop44ColorRGB
 90
      255
102
RTVSPost2010PropOp44
 70
     1
102
RTVSPost2010Prop45
280
     0
102
RTVSPost2010PropOp45
 70
     1
102
RTVSPost2010Prop46
 90
       50
102
RTVSPost2010PropOp46
 70
     1
102
RTVSPost2010Prop47
 90
       50
102
RTVSPost2010PropOp47
 70
     1
102
RTVSPost2010Prop48
 90
       50
102
RTVSPost2010PropOp48
 70
     1
102
RTVSPost2010Prop49
280
     0
102
RTVSPost2010PropOp49
 70
     1
102
RTVSPost2010Prop50
 90
       50
102
RTVSPost2010PropOp50
 70
     1
102
RTVSPost2010Prop51ColorIndex
 90
      256
102
RTVSPost2010Prop51ColorRGB
 90
-16777216
102
RTVSPost2010PropOp51
 70
     0
102
RTVSPost2010Prop52
140
1.0
102
RTVSPost2010PropOp52
 70
     0
102
RTVSPost2010Prop53
 90
        2
102
RTVSPost2010PropOp53
 70
     1
102
RTVSPost2010Prop54
  1
strokes_ogs.tif
102
RTVSPost2010PropOp54
 70
     1
102
RTVSPost2010Prop55
280
     0
102
RTVSPost2010PropOp55
 70
     1
102
RTVSPost2010Prop56
140
1.0
102
RTVSPost2010PropOp56
 70
     1
102
RTVSPost2010Prop57
140
1.0
102
RTVSPost2010PropOp57
 70
     1
102
RTVSPropertyOp0
 70
     0
102
RTVSPropertyOp1
 70
     0
102
RTVSPropertyOp2
 70
     0
102
RTVSPropertyOp3
 70
     0
102
RTVSPropertyOp4
 70
     0
102
RTVSPropertyOp5
 70
     0
102
RTVSPropertyOp6
 70
     0
102
RTVSPropertyOp7
 70
     0
102
RTVSPropertyOp8
 70
     0
102
RTVSPropertyOp9
 70
     0
102
RTVSPropertyOp10
 70
     0
102
RTVSPropertyOp11
 70
     0
102
RTVSPropertyOp12
 70
     0
102
RTVSPropertyOp13
 70
     0
102
RTVSPropertyOp14
 70
     2
102
RTVSPropertyOp15
 70
     0
102
RTVSPropertyOp16
 70
     0
102
RTVSPropertyOp17
 70
     0
102
RTVSPropertyOp18
 70
     0
102
RTVSPropertyOp19
 70
     0
102
RTVSPropertyOp20
 70
     0
102
RTVSPropertyOp21
 70
     0
102
RTVSPropertyOp22
 70
     0
102
RTVSPropertyOp23
 70
     0
102
RTVSPropertyOp24
 70
     0
102
RTVSPropertyOp25
 70
     0
102
RTVSPropertyOp26
 70
     0
102
RTVSPropertyOp27
 70
     0
102
RTVSPropertyOp28
 70
     1
102
RTVSPropertyOp29
 70
     1
102
RTVSPropertyOp30
 70
     1
102
RTVSPropertyOp31
 70
     1
102
RTVSPropertyOp32
 70
     1
102
RTVSPropertyOp33
 70
     1
102
RTVSPropertyOp34
 70
     1
102
RTVSPropertyOp35
 70
     1
102
RTVSPropertyOp36
 70
     1
102
RTVSPropertyOp37
 70
     1
102
RTVSPropertyOp38
 70
     1
102
RTVSPropertyOp39
 70
     1
102
RTVSPropertyOp40
 70
     1
102
RTVSPropertyOp41
 70
     1
102
RTVSPropertyOp42
 70
     1
102
RTVSPropertyOp43
 70
     1
102
RTVSPropertyOp44
 70
     1
102
RTVSPropertyOp45
 70
     1
102
RTVSPropertyOp46
 70
     1
102
RTVSPropertyOp47
 70
     1
102
RTVSPropertyOp48
 70
     1
102
RTVSPropertyOp49
 70
     1
102
RTVSPropertyOp50
 70
     1
102
RTVSPropertyOp51
 70
     0
102
RTVSPropertyOp52
 70
     0
102
RTVSPropertyOp53
 70
     1
102
RTVSPropertyOp54
 70
     1
102
RTVSPropertyOp55
 70
     1
102
RTVSPropertyOp56
 70
     1
102
RTVSPropertyOp57
 70
     1
102
RTVSPropertyOp58
 70
     1
102
RTVSPropertyOp59
 70
     1
102
RTVSPropertyOp60
 70
     1
102
RTVSPropertyOp61
 70
     1
102
RTVSPropertyOp62
 70
     1
  0
XRECORD
  5
25170
102
{ACAD_REACTORS
330
2516F
102
}
330
2516F
100
AcDbXrecord
280
     1
102
RTVSPost2010Prop28
280
     0
102
RTVSPost2010PropOp28
 70
     1
102
RTVSPost2010Prop29
280
     1
102
RTVSPost2010PropOp29
 70
     1
102
RTVSPost2010Prop30
280
     1
102
RTVSPost2010PropOp30
 70
     1
102
RTVSPost2010Prop31
280
     0
102
RTVSPost2010PropOp31
 70
     1
102
RTVSPost2010Prop32
280
     0
102
RTVSPost2010PropOp32
 70
     1
102
RTVSPost2010Prop33
280
     0
102
RTVSPost2010PropOp33
 70
     1
102
RTVSPost2010Prop34
280
     0
102
RTVSPost2010PropOp34
 70
     1
102
RTVSPost2010Prop35
280
     0
102
RTVSPost2010PropOp35
 70
     1
102
RTVSPost2010Prop36
280
     0
102
RTVSPost2010PropOp36
 70
     1
102
RTVSPost2010Prop37
 90
       50
102
RTVSPost2010PropOp37
 70
     1
102
RTVSPost2010Prop38
140
0.0
102
RTVSPost2010PropOp38
 70
     1
102
RTVSPost2010Prop39
140
1.0
102
RTVSPost2010PropOp39
 70
     1
102
RTVSPost2010Prop40
 90
        0
102
RTVSPost2010PropOp40
 70
     1
102
RTVSPost2010Prop41ColorIndex
 90
       18
102
RTVSPost2010Prop41ColorRGB
 90
        0
102
RTVSPost2010PropOp41
 70
     1
102
RTVSPost2010Prop42
 90
       50
102
RTVSPost2010PropOp42
 70
     1
102
RTVSPost2010Prop43
 90
        3
102
RTVSPost2010PropOp43
 70
     1
102
RTVSPost2010Prop44ColorIndex
 90
        5
102
RTVSPost2010Prop44ColorRGB
 90
      255
102
RTVSPost2010PropOp44
 70
     1
102
RTVSPost2010Prop45
280
     0
102
RTVSPost2010PropOp45
 70
     1
102
RTVSPost2010Prop46
 90
       50
102
RTVSPost2010PropOp46
 70
     1
102
RTVSPost2010Prop47
 90
       50
102
RTVSPost2010PropOp47
 70
     1
102
RTVSPost2010Prop48
 90
       50
102
RTVSPost2010PropOp48
 70
     1
102
RTVSPost2010Prop49
280
     0
102
RTVSPost2010PropOp49
 70
     1
102
RTVSPost2010Prop50
 90
       50
102
RTVSPost2010PropOp50
 70
     1
102
RTVSPost2010Prop51ColorIndex
 90
      256
102
RTVSPost2010Prop51ColorRGB
 90
-16777216
102
RTVSPost2010PropOp51
 70
     0
102
RTVSPost2010Prop52
140
1.0
102
RTVSPost2010PropOp52
 70
     0
102
RTVSPost2010Prop53
 90
        2
102
RTVSPost2010PropOp53
 70
     1
102
RTVSPost2010Prop54
  1
strokes_ogs.tif
102
RTVSPost2010PropOp54
 70
     1
102
RTVSPost2010Prop55
280
     0
102
RTVSPost2010PropOp55
 70
     1
102
RTVSPost2010Prop56
140
1.0
102
RTVSPost2010PropOp56
 70
     1
102
RTVSPost2010Prop57
140
1.0
102
RTVSPost2010PropOp57
 70
     1
102
RTVSPropertyOp0
 70
     1
102
RTVSPropertyOp1
 70
     1
102
RTVSPropertyOp2
 70
     1
102
RTVSPropertyOp3
 70
     1
102
RTVSPropertyOp4
 70
     1
102
RTVSPropertyOp5
 70
     1
102
RTVSPropertyOp6
 70
     1
102
RTVSPropertyOp7
 70
     1
102
RTVSPropertyOp8
 70
     1
102
RTVSPropertyOp9
 70
     1
102
RTVSPropertyOp10
 70
     1
102
RTVSPropertyOp11
 70
     1
102
RTVSPropertyOp12
 70
     1
102
RTVSPropertyOp13
 70
     1
102
RTVSPropertyOp14
 70
     1
102
RTVSPropertyOp15
 70
     1
102
RTVSPropertyOp16
 70
     1
102
RTVSPropertyOp17
 70
     1
102
RTVSPropertyOp18
 70
     1
102
RTVSPropertyOp19
 70
     1
102
RTVSPropertyOp20
 70
     1
102
RTVSPropertyOp21
 70
     1
102
RTVSPropertyOp22
 70
     1
102
RTVSPropertyOp23
 70
     1
102
RTVSPropertyOp24
 70
     1
102
RTVSPropertyOp25
 70
     1
102
RTVSPropertyOp26
 70
     1
102
RTVSPropertyOp27
 70
     1
102
RTVSPropertyOp28
 70
     1
102
RTVSPropertyOp29
 70
     1
102
RTVSPropertyOp30
 70
     1
102
RTVSPropertyOp31
 70
     1
102
RTVSPropertyOp32
 70
     1
102
RTVSPropertyOp33
 70
     1
102
RTVSPropertyOp34
 70
     1
102
RTVSPropertyOp35
 70
     1
102
RTVSPropertyOp36
 70
     1
102
RTVSPropertyOp37
 70
     1
102
RTVSPropertyOp38
 70
     1
102
RTVSPropertyOp39
 70
     1
102
RTVSPropertyOp40
 70
     1
102
RTVSPropertyOp41
 70
     1
102
RTVSPropertyOp42
 70
     1
102
RTVSPropertyOp43
 70
     1
102
RTVSPropertyOp44
 70
     1
102
RTVSPropertyOp45
 70
     1
102
RTVSPropertyOp46
 70
     1
102
RTVSPropertyOp47
 70
     1
102
RTVSPropertyOp48
 70
     1
102
RTVSPropertyOp49
 70
     1
102
RTVSPropertyOp50
 70
     1
102
RTVSPropertyOp51
 70
     0
102
RTVSPropertyOp52
 70
     0
102
RTVSPropertyOp53
 70
     1
102
RTVSPropertyOp54
 70
     1
102
RTVSPropertyOp55
 70
     1
102
RTVSPropertyOp56
 70
     1
102
RTVSPropertyOp57
 70
     1
102
RTVSPropertyOp58
 70
     1
102
RTVSPropertyOp59
 70
     1
102
RTVSPropertyOp60
 70
     1
102
RTVSPropertyOp61
 70
     1
102
RTVSPropertyOp62
 70
     1
  0
XRECORD
  5
25191
102
{ACAD_REACTORS
330
25190
102
}
330
25190
100
AcDbXrecord
280
     1
102
RTVSPost2010Prop28
280
     0
102
RTVSPost2010PropOp28
 70
     1
102
RTVSPost2010Prop29
280
     1
102
RTVSPost2010PropOp29
 70
     1
102
RTVSPost2010Prop30
280
     1
102
RTVSPost2010PropOp30
 70
     1
102
RTVSPost2010Prop31
280
     0
102
RTVSPost2010PropOp31
 70
     1
102
RTVSPost2010Prop32
280
     0
102
RTVSPost2010PropOp32
 70
     1
102
RTVSPost2010Prop33
280
     0
102
RTVSPost2010PropOp33
 70
     1
102
RTVSPost2010Prop34
280
     0
102
RTVSPost2010PropOp34
 70
     1
102
RTVSPost2010Prop35
280
     0
102
RTVSPost2010PropOp35
 70
     1
102
RTVSPost2010Prop36
280
     0
102
RTVSPost2010PropOp36
 70
     1
102
RTVSPost2010Prop37
 90
       50
102
RTVSPost2010PropOp37
 70
     1
102
RTVSPost2010Prop38
140
0.0
102
RTVSPost2010PropOp38
 70
     1
102
RTVSPost2010Prop39
140
1.0
102
RTVSPost2010PropOp39
 70
     1
102
RTVSPost2010Prop40
 90
        0
102
RTVSPost2010PropOp40
 70
     1
102
RTVSPost2010Prop41ColorIndex
 90
       18
102
RTVSPost2010Prop41ColorRGB
 90
        0
102
RTVSPost2010PropOp41
 70
     1
102
RTVSPost2010Prop42
 90
       50
102
RTVSPost2010PropOp42
 70
     1
102
RTVSPost2010Prop43
 90
        3
102
RTVSPost2010PropOp43
 70
     1
102
RTVSPost2010Prop44ColorIndex
 90
        5
102
RTVSPost2010Prop44ColorRGB
 90
      255
102
RTVSPost2010PropOp44
 70
     1
102
RTVSPost2010Prop45
280
     0
102
RTVSPost2010PropOp45
 70
     1
102
RTVSPost2010Prop46
 90
       50
102
RTVSPost2010PropOp46
 70
     1
102
RTVSPost2010Prop47
 90
       50
102
RTVSPost2010PropOp47
 70
     1
102
RTVSPost2010Prop48
 90
       50
102
RTVSPost2010PropOp48
 70
     1
102
RTVSPost2010Prop49
280
     0
102
RTVSPost2010PropOp49
 70
     1
102
RTVSPost2010Prop50
 90
       50
102
RTVSPost2010PropOp50
 70
     1
102
RTVSPost2010Prop51ColorIndex
 90
      256
102
RTVSPost2010Prop51ColorRGB
 90
-16777216
102
RTVSPost2010PropOp51
 70
     0
102
RTVSPost2010Prop52
140
1.0
102
RTVSPost2010PropOp52
 70
     0
102
RTVSPost2010Prop53
 90
        2
102
RTVSPost2010PropOp53
 70
     1
102
RTVSPost2010Prop54
  1
strokes_ogs.tif
102
RTVSPost2010PropOp54
 70
     1
102
RTVSPost2010Prop55
280
     0
102
RTVSPost2010PropOp55
 70
     1
102
RTVSPost2010Prop56
140
1.0
102
RTVSPost2010PropOp56
 70
     1
102
RTVSPost2010Prop57
140
1.0
102
RTVSPost2010PropOp57
 70
     1
102
RTVSPropertyOp0
 70
     1
102
RTVSPropertyOp1
 70
     1
102
RTVSPropertyOp2
 70
     1
102
RTVSPropertyOp3
 70
     1
102
RTVSPropertyOp4
 70
     1
102
RTVSPropertyOp5
 70
     1
102
RTVSPropertyOp6
 70
     1
102
RTVSPropertyOp7
 70
     1
102
RTVSPropertyOp8
 70
     1
102
RTVSPropertyOp9
 70
     1
102
RTVSPropertyOp10
 70
     1
102
RTVSPropertyOp11
 70
     1
102
RTVSPropertyOp12
 70
     1
102
RTVSPropertyOp13
 70
     1
102
RTVSPropertyOp14
 70
     1
102
RTVSPropertyOp15
 70
     1
102
RTVSPropertyOp16
 70
     1
102
RTVSPropertyOp17
 70
     1
102
RTVSPropertyOp18
 70
     1
102
RTVSPropertyOp19
 70
     1
102
RTVSPropertyOp20
 70
     1
102
RTVSPropertyOp21
 70
     1
102
RTVSPropertyOp22
 70
     1
102
RTVSPropertyOp23
 70
     1
102
RTVSPropertyOp24
 70
     1
102
RTVSPropertyOp25
 70
     1
102
RTVSPropertyOp26
 70
     1
102
RTVSPropertyOp27
 70
     1
102
RTVSPropertyOp28
 70
     1
102
RTVSPropertyOp29
 70
     1
102
RTVSPropertyOp30
 70
     1
102
RTVSPropertyOp31
 70
     1
102
RTVSPropertyOp32
 70
     1
102
RTVSPropertyOp33
 70
     1
102
RTVSPropertyOp34
 70
     1
102
RTVSPropertyOp35
 70
     1
102
RTVSPropertyOp36
 70
     1
102
RTVSPropertyOp37
 70
     1
102
RTVSPropertyOp38
 70
     1
102
RTVSPropertyOp39
 70
     1
102
RTVSPropertyOp40
 70
     1
102
RTVSPropertyOp41
 70
     1
102
RTVSPropertyOp42
 70
     1
102
RTVSPropertyOp43
 70
     1
102
RTVSPropertyOp44
 70
     1
102
RTVSPropertyOp45
 70
     1
102
RTVSPropertyOp46
 70
     1
102
RTVSPropertyOp47
 70
     1
102
RTVSPropertyOp48
 70
     1
102
RTVSPropertyOp49
 70
     1
102
RTVSPropertyOp50
 70
     1
102
RTVSPropertyOp51
 70
     0
102
RTVSPropertyOp52
 70
     0
102
RTVSPropertyOp53
 70
     1
102
RTVSPropertyOp54
 70
     1
102
RTVSPropertyOp55
 70
     1
102
RTVSPropertyOp56
 70
     1
102
RTVSPropertyOp57
 70
     1
102
RTVSPropertyOp58
 70
     1
102
RTVSPropertyOp59
 70
     1
102
RTVSPropertyOp60
 70
     1
102
RTVSPropertyOp61
 70
     1
102
RTVSPropertyOp62
 70
     1
  0
XRECORD
  5
2518F
102
{ACAD_REACTORS
330
2518E
102
}
330
2518E
100
AcDbXrecord
280
     1
102
RTVSPost2010Prop28
280
     0
102
RTVSPost2010PropOp28
 70
     1
102
RTVSPost2010Prop29
280
     1
102
RTVSPost2010PropOp29
 70
     1
102
RTVSPost2010Prop30
280
     1
102
RTVSPost2010PropOp30
 70
     1
102
RTVSPost2010Prop31
280
     0
102
RTVSPost2010PropOp31
 70
     1
102
RTVSPost2010Prop32
280
     0
102
RTVSPost2010PropOp32
 70
     1
102
RTVSPost2010Prop33
280
     0
102
RTVSPost2010PropOp33
 70
     1
102
RTVSPost2010Prop34
280
     0
102
RTVSPost2010PropOp34
 70
     1
102
RTVSPost2010Prop35
280
     0
102
RTVSPost2010PropOp35
 70
     1
102
RTVSPost2010Prop36
280
     0
102
RTVSPost2010PropOp36
 70
     1
102
RTVSPost2010Prop37
 90
       50
102
RTVSPost2010PropOp37
 70
     1
102
RTVSPost2010Prop38
140
0.0
102
RTVSPost2010PropOp38
 70
     1
102
RTVSPost2010Prop39
140
1.0
102
RTVSPost2010PropOp39
 70
     1
102
RTVSPost2010Prop40
 90
        0
102
RTVSPost2010PropOp40
 70
     1
102
RTVSPost2010Prop41ColorIndex
 90
       18
102
RTVSPost2010Prop41ColorRGB
 90
        0
102
RTVSPost2010PropOp41
 70
     1
102
RTVSPost2010Prop42
 90
       50
102
RTVSPost2010PropOp42
 70
     1
102
RTVSPost2010Prop43
 90
        3
102
RTVSPost2010PropOp43
 70
     1
102
RTVSPost2010Prop44ColorIndex
 90
        5
102
RTVSPost2010Prop44ColorRGB
 90
      255
102
RTVSPost2010PropOp44
 70
     1
102
RTVSPost2010Prop45
280
     0
102
RTVSPost2010PropOp45
 70
     1
102
RTVSPost2010Prop46
 90
       50
102
RTVSPost2010PropOp46
 70
     1
102
RTVSPost2010Prop47
 90
       50
102
RTVSPost2010PropOp47
 70
     1
102
RTVSPost2010Prop48
 90
       50
102
RTVSPost2010PropOp48
 70
     1
102
RTVSPost2010Prop49
280
     0
102
RTVSPost2010PropOp49
 70
     1
102
RTVSPost2010Prop50
 90
       50
102
RTVSPost2010PropOp50
 70
     1
102
RTVSPost2010Prop51ColorIndex
 90
      256
102
RTVSPost2010Prop51ColorRGB
 90
-16777216
102
RTVSPost2010PropOp51
 70
     0
102
RTVSPost2010Prop52
140
1.0
102
RTVSPost2010PropOp52
 70
     0
102
RTVSPost2010Prop53
 90
        2
102
RTVSPost2010PropOp53
 70
     1
102
RTVSPost2010Prop54
  1
strokes_ogs.tif
102
RTVSPost2010PropOp54
 70
     1
102
RTVSPost2010Prop55
280
     0
102
RTVSPost2010PropOp55
 70
     1
102
RTVSPost2010Prop56
140
1.0
102
RTVSPost2010PropOp56
 70
     1
102
RTVSPost2010Prop57
140
1.0
102
RTVSPost2010PropOp57
 70
     1
102
RTVSPropertyOp0
 70
     1
102
RTVSPropertyOp1
 70
     1
102
RTVSPropertyOp2
 70
     1
102
RTVSPropertyOp3
 70
     1
102
RTVSPropertyOp4
 70
     1
102
RTVSPropertyOp5
 70
     1
102
RTVSPropertyOp6
 70
     1
102
RTVSPropertyOp7
 70
     1
102
RTVSPropertyOp8
 70
     1
102
RTVSPropertyOp9
 70
     1
102
RTVSPropertyOp10
 70
     1
102
RTVSPropertyOp11
 70
     1
102
RTVSPropertyOp12
 70
     1
102
RTVSPropertyOp13
 70
     1
102
RTVSPropertyOp14
 70
     1
102
RTVSPropertyOp15
 70
     1
102
RTVSPropertyOp16
 70
     1
102
RTVSPropertyOp17
 70
     1
102
RTVSPropertyOp18
 70
     1
102
RTVSPropertyOp19
 70
     1
102
RTVSPropertyOp20
 70
     1
102
RTVSPropertyOp21
 70
     1
102
RTVSPropertyOp22
 70
     1
102
RTVSPropertyOp23
 70
     1
102
RTVSPropertyOp24
 70
     1
102
RTVSPropertyOp25
 70
     1
102
RTVSPropertyOp26
 70
     1
102
RTVSPropertyOp27
 70
     1
102
RTVSPropertyOp28
 70
     1
102
RTVSPropertyOp29
 70
     1
102
RTVSPropertyOp30
 70
     1
102
RTVSPropertyOp31
 70
     1
102
RTVSPropertyOp32
 70
     1
102
RTVSPropertyOp33
 70
     1
102
RTVSPropertyOp34
 70
     1
102
RTVSPropertyOp35
 70
     1
102
RTVSPropertyOp36
 70
     1
102
RTVSPropertyOp37
 70
     1
102
RTVSPropertyOp38
 70
     1
102
RTVSPropertyOp39
 70
     1
102
RTVSPropertyOp40
 70
     1
102
RTVSPropertyOp41
 70
     1
102
RTVSPropertyOp42
 70
     1
102
RTVSPropertyOp43
 70
     1
102
RTVSPropertyOp44
 70
     1
102
RTVSPropertyOp45
 70
     1
102
RTVSPropertyOp46
 70
     1
102
RTVSPropertyOp47
 70
     1
102
RTVSPropertyOp48
 70
     1
102
RTVSPropertyOp49
 70
     1
102
RTVSPropertyOp50
 70
     1
102
RTVSPropertyOp51
 70
     0
102
RTVSPropertyOp52
 70
     0
102
RTVSPropertyOp53
 70
     1
102
RTVSPropertyOp54
 70
     1
102
RTVSPropertyOp55
 70
     1
102
RTVSPropertyOp56
 70
     1
102
RTVSPropertyOp57
 70
     1
102
RTVSPropertyOp58
 70
     1
102
RTVSPropertyOp59
 70
     1
102
RTVSPropertyOp60
 70
     1
102
RTVSPropertyOp61
 70
     1
102
RTVSPropertyOp62
 70
     1
  0
XRECORD
  5
25189
102
{ACAD_REACTORS
330
25188
102
}
330
25188
100
AcDbXrecord
280
     1
102
RTVSPost2010Prop28
280
     0
102
RTVSPost2010PropOp28
 70
     1
102
RTVSPost2010Prop29
280
     1
102
RTVSPost2010PropOp29
 70
     1
102
RTVSPost2010Prop30
280
     1
102
RTVSPost2010PropOp30
 70
     1
102
RTVSPost2010Prop31
280
     0
102
RTVSPost2010PropOp31
 70
     1
102
RTVSPost2010Prop32
280
     0
102
RTVSPost2010PropOp32
 70
     1
102
RTVSPost2010Prop33
280
     0
102
RTVSPost2010PropOp33
 70
     1
102
RTVSPost2010Prop34
280
     0
102
RTVSPost2010PropOp34
 70
     1
102
RTVSPost2010Prop35
280
     0
102
RTVSPost2010PropOp35
 70
     1
102
RTVSPost2010Prop36
280
     0
102
RTVSPost2010PropOp36
 70
     1
102
RTVSPost2010Prop37
 90
       50
102
RTVSPost2010PropOp37
 70
     1
102
RTVSPost2010Prop38
140
0.0
102
RTVSPost2010PropOp38
 70
     1
102
RTVSPost2010Prop39
140
1.0
102
RTVSPost2010PropOp39
 70
     1
102
RTVSPost2010Prop40
 90
        0
102
RTVSPost2010PropOp40
 70
     1
102
RTVSPost2010Prop41ColorIndex
 90
       18
102
RTVSPost2010Prop41ColorRGB
 90
        0
102
RTVSPost2010PropOp41
 70
     1
102
RTVSPost2010Prop42
 90
       50
102
RTVSPost2010PropOp42
 70
     1
102
RTVSPost2010Prop43
 90
        3
102
RTVSPost2010PropOp43
 70
     1
102
RTVSPost2010Prop44ColorIndex
 90
        5
102
RTVSPost2010Prop44ColorRGB
 90
      255
102
RTVSPost2010PropOp44
 70
     1
102
RTVSPost2010Prop45
280
     0
102
RTVSPost2010PropOp45
 70
     1
102
RTVSPost2010Prop46
 90
       50
102
RTVSPost2010PropOp46
 70
     1
102
RTVSPost2010Prop47
 90
       50
102
RTVSPost2010PropOp47
 70
     1
102
RTVSPost2010Prop48
 90
       50
102
RTVSPost2010PropOp48
 70
     1
102
RTVSPost2010Prop49
280
     0
102
RTVSPost2010PropOp49
 70
     1
102
RTVSPost2010Prop50
 90
       50
102
RTVSPost2010PropOp50
 70
     1
102
RTVSPost2010Prop51ColorIndex
 90
      256
102
RTVSPost2010Prop51ColorRGB
 90
-16777216
102
RTVSPost2010PropOp51
 70
     0
102
RTVSPost2010Prop52
140
1.0
102
RTVSPost2010PropOp52
 70
     0
102
RTVSPost2010Prop53
 90
        2
102
RTVSPost2010PropOp53
 70
     1
102
RTVSPost2010Prop54
  1
strokes_ogs.tif
102
RTVSPost2010PropOp54
 70
     1
102
RTVSPost2010Prop55
280
     0
102
RTVSPost2010PropOp55
 70
     1
102
RTVSPost2010Prop56
140
1.0
102
RTVSPost2010PropOp56
 70
     1
102
RTVSPost2010Prop57
140
1.0
102
RTVSPost2010PropOp57
 70
     1
102
RTVSPropertyOp0
 70
     1
102
RTVSPropertyOp1
 70
     1
102
RTVSPropertyOp2
 70
     1
102
RTVSPropertyOp3
 70
     1
102
RTVSPropertyOp4
 70
     1
102
RTVSPropertyOp5
 70
     1
102
RTVSPropertyOp6
 70
     1
102
RTVSPropertyOp7
 70
     1
102
RTVSPropertyOp8
 70
     1
102
RTVSPropertyOp9
 70
     1
102
RTVSPropertyOp10
 70
     1
102
RTVSPropertyOp11
 70
     1
102
RTVSPropertyOp12
 70
     1
102
RTVSPropertyOp13
 70
     1
102
RTVSPropertyOp14
 70
     1
102
RTVSPropertyOp15
 70
     1
102
RTVSPropertyOp16
 70
     1
102
RTVSPropertyOp17
 70
     1
102
RTVSPropertyOp18
 70
     1
102
RTVSPropertyOp19
 70
     1
102
RTVSPropertyOp20
 70
     1
102
RTVSPropertyOp21
 70
     1
102
RTVSPropertyOp22
 70
     1
102
RTVSPropertyOp23
 70
     1
102
RTVSPropertyOp24
 70
     1
102
RTVSPropertyOp25
 70
     1
102
RTVSPropertyOp26
 70
     1
102
RTVSPropertyOp27
 70
     1
102
RTVSPropertyOp28
 70
     1
102
RTVSPropertyOp29
 70
     1
102
RTVSPropertyOp30
 70
     1
102
RTVSPropertyOp31
 70
     1
102
RTVSPropertyOp32
 70
     1
102
RTVSPropertyOp33
 70
     1
102
RTVSPropertyOp34
 70
     1
102
RTVSPropertyOp35
 70
     1
102
RTVSPropertyOp36
 70
     1
102
RTVSPropertyOp37
 70
     1
102
RTVSPropertyOp38
 70
     1
102
RTVSPropertyOp39
 70
     1
102
RTVSPropertyOp40
 70
     1
102
RTVSPropertyOp41
 70
     1
102
RTVSPropertyOp42
 70
     1
102
RTVSPropertyOp43
 70
     1
102
RTVSPropertyOp44
 70
     1
102
RTVSPropertyOp45
 70
     1
102
RTVSPropertyOp46
 70
     1
102
RTVSPropertyOp47
 70
     1
102
RTVSPropertyOp48
 70
     1
102
RTVSPropertyOp49
 70
     1
102
RTVSPropertyOp50
 70
     1
102
RTVSPropertyOp51
 70
     0
102
RTVSPropertyOp52
 70
     0
102
RTVSPropertyOp53
 70
     1
102
RTVSPropertyOp54
 70
     1
102
RTVSPropertyOp55
 70
     1
102
RTVSPropertyOp56
 70
     1
102
RTVSPropertyOp57
 70
     1
102
RTVSPropertyOp58
 70
     1
102
RTVSPropertyOp59
 70
     1
102
RTVSPropertyOp60
 70
     1
102
RTVSPropertyOp61
 70
     1
102
RTVSPropertyOp62
 70
     1
  0
XRECORD
  5
2518B
102
{ACAD_REACTORS
330
2518A
102
}
330
2518A
100
AcDbXrecord
280
     1
102
RTVSPost2010Prop28
280
     0
102
RTVSPost2010PropOp28
 70
     1
102
RTVSPost2010Prop29
280
     1
102
RTVSPost2010PropOp29
 70
     1
102
RTVSPost2010Prop30
280
     1
102
RTVSPost2010PropOp30
 70
     1
102
RTVSPost2010Prop31
280
     0
102
RTVSPost2010PropOp31
 70
     1
102
RTVSPost2010Prop32
280
     0
102
RTVSPost2010PropOp32
 70
     1
102
RTVSPost2010Prop33
280
     0
102
RTVSPost2010PropOp33
 70
     1
102
RTVSPost2010Prop34
280
     0
102
RTVSPost2010PropOp34
 70
     1
102
RTVSPost2010Prop35
280
     0
102
RTVSPost2010PropOp35
 70
     1
102
RTVSPost2010Prop36
280
     0
102
RTVSPost2010PropOp36
 70
     1
102
RTVSPost2010Prop37
 90
       50
102
RTVSPost2010PropOp37
 70
     1
102
RTVSPost2010Prop38
140
0.0
102
RTVSPost2010PropOp38
 70
     1
102
RTVSPost2010Prop39
140
1.0
102
RTVSPost2010PropOp39
 70
     1
102
RTVSPost2010Prop40
 90
        0
102
RTVSPost2010PropOp40
 70
     1
102
RTVSPost2010Prop41ColorIndex
 90
       18
102
RTVSPost2010Prop41ColorRGB
 90
        0
102
RTVSPost2010PropOp41
 70
     1
102
RTVSPost2010Prop42
 90
       50
102
RTVSPost2010PropOp42
 70
     1
102
RTVSPost2010Prop43
 90
        3
102
RTVSPost2010PropOp43
 70
     1
102
RTVSPost2010Prop44ColorIndex
 90
        5
102
RTVSPost2010Prop44ColorRGB
 90
      255
102
RTVSPost2010PropOp44
 70
     1
102
RTVSPost2010Prop45
280
     0
102
RTVSPost2010PropOp45
 70
     1
102
RTVSPost2010Prop46
 90
       50
102
RTVSPost2010PropOp46
 70
     1
102
RTVSPost2010Prop47
 90
       50
102
RTVSPost2010PropOp47
 70
     1
102
RTVSPost2010Prop48
 90
       50
102
RTVSPost2010PropOp48
 70
     1
102
RTVSPost2010Prop49
280
     0
102
RTVSPost2010PropOp49
 70
     1
102
RTVSPost2010Prop50
 90
       50
102
RTVSPost2010PropOp50
 70
     1
102
RTVSPost2010Prop51ColorIndex
 90
      256
102
RTVSPost2010Prop51ColorRGB
 90
-16777216
102
RTVSPost2010PropOp51
 70
     0
102
RTVSPost2010Prop52
140
1.0
102
RTVSPost2010PropOp52
 70
     0
102
RTVSPost2010Prop53
 90
        2
102
RTVSPost2010PropOp53
 70
     1
102
RTVSPost2010Prop54
  1
strokes_ogs.tif
102
RTVSPost2010PropOp54
 70
     1
102
RTVSPost2010Prop55
280
     0
102
RTVSPost2010PropOp55
 70
     1
102
RTVSPost2010Prop56
140
1.0
102
RTVSPost2010PropOp56
 70
     1
102
RTVSPost2010Prop57
140
1.0
102
RTVSPost2010PropOp57
 70
     1
102
RTVSPropertyOp0
 70
     1
102
RTVSPropertyOp1
 70
     1
102
RTVSPropertyOp2
 70
     1
102
RTVSPropertyOp3
 70
     1
102
RTVSPropertyOp4
 70
     1
102
RTVSPropertyOp5
 70
     1
102
RTVSPropertyOp6
 70
     1
102
RTVSPropertyOp7
 70
     1
102
RTVSPropertyOp8
 70
     1
102
RTVSPropertyOp9
 70
     1
102
RTVSPropertyOp10
 70
     1
102
RTVSPropertyOp11
 70
     1
102
RTVSPropertyOp12
 70
     1
102
RTVSPropertyOp13
 70
     1
102
RTVSPropertyOp14
 70
     1
102
RTVSPropertyOp15
 70
     1
102
RTVSPropertyOp16
 70
     1
102
RTVSPropertyOp17
 70
     1
102
RTVSPropertyOp18
 70
     1
102
RTVSPropertyOp19
 70
     1
102
RTVSPropertyOp20
 70
     1
102
RTVSPropertyOp21
 70
     1
102
RTVSPropertyOp22
 70
     1
102
RTVSPropertyOp23
 70
     1
102
RTVSPropertyOp24
 70
     1
102
RTVSPropertyOp25
 70
     1
102
RTVSPropertyOp26
 70
     1
102
RTVSPropertyOp27
 70
     1
102
RTVSPropertyOp28
 70
     1
102
RTVSPropertyOp29
 70
     1
102
RTVSPropertyOp30
 70
     1
102
RTVSPropertyOp31
 70
     1
102
RTVSPropertyOp32
 70
     1
102
RTVSPropertyOp33
 70
     1
102
RTVSPropertyOp34
 70
     1
102
RTVSPropertyOp35
 70
     1
102
RTVSPropertyOp36
 70
     1
102
RTVSPropertyOp37
 70
     1
102
RTVSPropertyOp38
 70
     1
102
RTVSPropertyOp39
 70
     1
102
RTVSPropertyOp40
 70
     1
102
RTVSPropertyOp41
 70
     1
102
RTVSPropertyOp42
 70
     1
102
RTVSPropertyOp43
 70
     1
102
RTVSPropertyOp44
 70
     1
102
RTVSPropertyOp45
 70
     1
102
RTVSPropertyOp46
 70
     1
102
RTVSPropertyOp47
 70
     1
102
RTVSPropertyOp48
 70
     1
102
RTVSPropertyOp49
 70
     1
102
RTVSPropertyOp50
 70
     1
102
RTVSPropertyOp51
 70
     0
102
RTVSPropertyOp52
 70
     0
102
RTVSPropertyOp53
 70
     1
102
RTVSPropertyOp54
 70
     1
102
RTVSPropertyOp55
 70
     1
102
RTVSPropertyOp56
 70
     1
102
RTVSPropertyOp57
 70
     1
102
RTVSPropertyOp58
 70
     1
102
RTVSPropertyOp59
 70
     1
102
RTVSPropertyOp60
 70
     1
102
RTVSPropertyOp61
 70
     1
102
RTVSPropertyOp62
 70
     1
  0
XRECORD
  5
25176
102
{ACAD_REACTORS
330
25175
102
}
330
25175
100
AcDbXrecord
280
     1
102
RTVSPost2010Prop28
280
     0
102
RTVSPost2010PropOp28
 70
     1
102
RTVSPost2010Prop29
280
     1
102
RTVSPost2010PropOp29
 70
     1
102
RTVSPost2010Prop30
280
     1
102
RTVSPost2010PropOp30
 70
     1
102
RTVSPost2010Prop31
280
     0
102
RTVSPost2010PropOp31
 70
     1
102
RTVSPost2010Prop32
280
     0
102
RTVSPost2010PropOp32
 70
     1
102
RTVSPost2010Prop33
280
     0
102
RTVSPost2010PropOp33
 70
     1
102
RTVSPost2010Prop34
280
     0
102
RTVSPost2010PropOp34
 70
     1
102
RTVSPost2010Prop35
280
     0
102
RTVSPost2010PropOp35
 70
     1
102
RTVSPost2010Prop36
280
     0
102
RTVSPost2010PropOp36
 70
     1
102
RTVSPost2010Prop37
 90
       50
102
RTVSPost2010PropOp37
 70
     1
102
RTVSPost2010Prop38
140
0.0
102
RTVSPost2010PropOp38
 70
     1
102
RTVSPost2010Prop39
140
1.0
102
RTVSPost2010PropOp39
 70
     1
102
RTVSPost2010Prop40
 90
        0
102
RTVSPost2010PropOp40
 70
     1
102
RTVSPost2010Prop41ColorIndex
 90
       18
102
RTVSPost2010Prop41ColorRGB
 90
        0
102
RTVSPost2010PropOp41
 70
     1
102
RTVSPost2010Prop42
 90
       50
102
RTVSPost2010PropOp42
 70
     1
102
RTVSPost2010Prop43
 90
        3
102
RTVSPost2010PropOp43
 70
     1
102
RTVSPost2010Prop44ColorIndex
 90
        5
102
RTVSPost2010Prop44ColorRGB
 90
      255
102
RTVSPost2010PropOp44
 70
     1
102
RTVSPost2010Prop45
280
     0
102
RTVSPost2010PropOp45
 70
     1
102
RTVSPost2010Prop46
 90
       50
102
RTVSPost2010PropOp46
 70
     1
102
RTVSPost2010Prop47
 90
       50
102
RTVSPost2010PropOp47
 70
     1
102
RTVSPost2010Prop48
 90
       50
102
RTVSPost2010PropOp48
 70
     1
102
RTVSPost2010Prop49
280
     0
102
RTVSPost2010PropOp49
 70
     1
102
RTVSPost2010Prop50
 90
       50
102
RTVSPost2010PropOp50
 70
     1
102
RTVSPost2010Prop51ColorIndex
 90
      256
102
RTVSPost2010Prop51ColorRGB
 90
-16777216
102
RTVSPost2010PropOp51
 70
     0
102
RTVSPost2010Prop52
140
1.0
102
RTVSPost2010PropOp52
 70
     0
102
RTVSPost2010Prop53
 90
        2
102
RTVSPost2010PropOp53
 70
     1
102
RTVSPost2010Prop54
  1
strokes_ogs.tif
102
RTVSPost2010PropOp54
 70
     1
102
RTVSPost2010Prop55
280
     0
102
RTVSPost2010PropOp55
 70
     1
102
RTVSPost2010Prop56
140
1.0
102
RTVSPost2010PropOp56
 70
     1
102
RTVSPost2010Prop57
140
1.0
102
RTVSPost2010PropOp57
 70
     1
102
RTVSPropertyOp0
 70
     1
102
RTVSPropertyOp1
 70
     1
102
RTVSPropertyOp2
 70
     1
102
RTVSPropertyOp3
 70
     1
102
RTVSPropertyOp4
 70
     1
102
RTVSPropertyOp5
 70
     1
102
RTVSPropertyOp6
 70
     1
102
RTVSPropertyOp7
 70
     1
102
RTVSPropertyOp8
 70
     1
102
RTVSPropertyOp9
 70
     1
102
RTVSPropertyOp10
 70
     1
102
RTVSPropertyOp11
 70
     1
102
RTVSPropertyOp12
 70
     1
102
RTVSPropertyOp13
 70
     1
102
RTVSPropertyOp14
 70
     1
102
RTVSPropertyOp15
 70
     1
102
RTVSPropertyOp16
 70
     1
102
RTVSPropertyOp17
 70
     1
102
RTVSPropertyOp18
 70
     1
102
RTVSPropertyOp19
 70
     1
102
RTVSPropertyOp20
 70
     1
102
RTVSPropertyOp21
 70
     1
102
RTVSPropertyOp22
 70
     1
102
RTVSPropertyOp23
 70
     1
102
RTVSPropertyOp24
 70
     1
102
RTVSPropertyOp25
 70
     1
102
RTVSPropertyOp26
 70
     1
102
RTVSPropertyOp27
 70
     1
102
RTVSPropertyOp28
 70
     1
102
RTVSPropertyOp29
 70
     1
102
RTVSPropertyOp30
 70
     1
102
RTVSPropertyOp31
 70
     1
102
RTVSPropertyOp32
 70
     1
102
RTVSPropertyOp33
 70
     1
102
RTVSPropertyOp34
 70
     1
102
RTVSPropertyOp35
 70
     1
102
RTVSPropertyOp36
 70
     1
102
RTVSPropertyOp37
 70
     1
102
RTVSPropertyOp38
 70
     1
102
RTVSPropertyOp39
 70
     1
102
RTVSPropertyOp40
 70
     1
102
RTVSPropertyOp41
 70
     1
102
RTVSPropertyOp42
 70
     1
102
RTVSPropertyOp43
 70
     1
102
RTVSPropertyOp44
 70
     1
102
RTVSPropertyOp45
 70
     1
102
RTVSPropertyOp46
 70
     1
102
RTVSPropertyOp47
 70
     1
102
RTVSPropertyOp48
 70
     1
102
RTVSPropertyOp49
 70
     1
102
RTVSPropertyOp50
 70
     1
102
RTVSPropertyOp51
 70
     0
102
RTVSPropertyOp52
 70
     0
102
RTVSPropertyOp53
 70
     1
102
RTVSPropertyOp54
 70
     1
102
RTVSPropertyOp55
 70
     1
102
RTVSPropertyOp56
 70
     1
102
RTVSPropertyOp57
 70
     1
102
RTVSPropertyOp58
 70
     1
102
RTVSPropertyOp59
 70
     1
102
RTVSPropertyOp60
 70
     1
102
RTVSPropertyOp61
 70
     1
102
RTVSPropertyOp62
 70
     1
  0
XRECORD
  5
25185
102
{ACAD_REACTORS
330
25184
102
}
330
25184
100
AcDbXrecord
280
     1
102
RTVSPost2010Prop28
280
     0
102
RTVSPost2010PropOp28
 70
     1
102
RTVSPost2010Prop29
280
     1
102
RTVSPost2010PropOp29
 70
     1
102
RTVSPost2010Prop30
280
     1
102
RTVSPost2010PropOp30
 70
     1
102
RTVSPost2010Prop31
280
     0
102
RTVSPost2010PropOp31
 70
     1
102
RTVSPost2010Prop32
280
     0
102
RTVSPost2010PropOp32
 70
     1
102
RTVSPost2010Prop33
280
     0
102
RTVSPost2010PropOp33
 70
     1
102
RTVSPost2010Prop34
280
     0
102
RTVSPost2010PropOp34
 70
     1
102
RTVSPost2010Prop35
280
     0
102
RTVSPost2010PropOp35
 70
     1
102
RTVSPost2010Prop36
280
     0
102
RTVSPost2010PropOp36
 70
     1
102
RTVSPost2010Prop37
 90
       50
102
RTVSPost2010PropOp37
 70
     1
102
RTVSPost2010Prop38
140
0.0
102
RTVSPost2010PropOp38
 70
     1
102
RTVSPost2010Prop39
140
1.0
102
RTVSPost2010PropOp39
 70
     1
102
RTVSPost2010Prop40
 90
        0
102
RTVSPost2010PropOp40
 70
     1
102
RTVSPost2010Prop41ColorIndex
 90
       18
102
RTVSPost2010Prop41ColorRGB
 90
        0
102
RTVSPost2010PropOp41
 70
     1
102
RTVSPost2010Prop42
 90
       50
102
RTVSPost2010PropOp42
 70
     1
102
RTVSPost2010Prop43
 90
        3
102
RTVSPost2010PropOp43
 70
     1
102
RTVSPost2010Prop44ColorIndex
 90
        5
102
RTVSPost2010Prop44ColorRGB
 90
      255
102
RTVSPost2010PropOp44
 70
     1
102
RTVSPost2010Prop45
280
     0
102
RTVSPost2010PropOp45
 70
     1
102
RTVSPost2010Prop46
 90
       50
102
RTVSPost2010PropOp46
 70
     1
102
RTVSPost2010Prop47
 90
       50
102
RTVSPost2010PropOp47
 70
     1
102
RTVSPost2010Prop48
 90
       50
102
RTVSPost2010PropOp48
 70
     1
102
RTVSPost2010Prop49
280
     0
102
RTVSPost2010PropOp49
 70
     1
102
RTVSPost2010Prop50
 90
       50
102
RTVSPost2010PropOp50
 70
     1
102
RTVSPost2010Prop51ColorIndex
 90
      256
102
RTVSPost2010Prop51ColorRGB
 90
-16777216
102
RTVSPost2010PropOp51
 70
     0
102
RTVSPost2010Prop52
140
1.0
102
RTVSPost2010PropOp52
 70
     0
102
RTVSPost2010Prop53
 90
        2
102
RTVSPost2010PropOp53
 70
     1
102
RTVSPost2010Prop54
  1
strokes_ogs.tif
102
RTVSPost2010PropOp54
 70
     1
102
RTVSPost2010Prop55
280
     0
102
RTVSPost2010PropOp55
 70
     1
102
RTVSPost2010Prop56
140
1.0
102
RTVSPost2010PropOp56
 70
     1
102
RTVSPost2010Prop57
140
1.0
102
RTVSPost2010PropOp57
 70
     1
102
RTVSPropertyOp0
 70
     1
102
RTVSPropertyOp1
 70
     1
102
RTVSPropertyOp2
 70
     1
102
RTVSPropertyOp3
 70
     1
102
RTVSPropertyOp4
 70
     1
102
RTVSPropertyOp5
 70
     1
102
RTVSPropertyOp6
 70
     1
102
RTVSPropertyOp7
 70
     1
102
RTVSPropertyOp8
 70
     1
102
RTVSPropertyOp9
 70
     1
102
RTVSPropertyOp10
 70
     1
102
RTVSPropertyOp11
 70
     1
102
RTVSPropertyOp12
 70
     1
102
RTVSPropertyOp13
 70
     1
102
RTVSPropertyOp14
 70
     1
102
RTVSPropertyOp15
 70
     1
102
RTVSPropertyOp16
 70
     1
102
RTVSPropertyOp17
 70
     1
102
RTVSPropertyOp18
 70
     1
102
RTVSPropertyOp19
 70
     1
102
RTVSPropertyOp20
 70
     1
102
RTVSPropertyOp21
 70
     1
102
RTVSPropertyOp22
 70
     1
102
RTVSPropertyOp23
 70
     1
102
RTVSPropertyOp24
 70
     1
102
RTVSPropertyOp25
 70
     1
102
RTVSPropertyOp26
 70
     1
102
RTVSPropertyOp27
 70
     1
102
RTVSPropertyOp28
 70
     1
102
RTVSPropertyOp29
 70
     1
102
RTVSPropertyOp30
 70
     1
102
RTVSPropertyOp31
 70
     1
102
RTVSPropertyOp32
 70
     1
102
RTVSPropertyOp33
 70
     1
102
RTVSPropertyOp34
 70
     1
102
RTVSPropertyOp35
 70
     1
102
RTVSPropertyOp36
 70
     1
102
RTVSPropertyOp37
 70
     1
102
RTVSPropertyOp38
 70
     1
102
RTVSPropertyOp39
 70
     1
102
RTVSPropertyOp40
 70
     1
102
RTVSPropertyOp41
 70
     1
102
RTVSPropertyOp42
 70
     1
102
RTVSPropertyOp43
 70
     1
102
RTVSPropertyOp44
 70
     1
102
RTVSPropertyOp45
 70
     1
102
RTVSPropertyOp46
 70
     1
102
RTVSPropertyOp47
 70
     1
102
RTVSPropertyOp48
 70
     1
102
RTVSPropertyOp49
 70
     1
102
RTVSPropertyOp50
 70
     1
102
RTVSPropertyOp51
 70
     0
102
RTVSPropertyOp52
 70
     0
102
RTVSPropertyOp53
 70
     1
102
RTVSPropertyOp54
 70
     1
102
RTVSPropertyOp55
 70
     1
102
RTVSPropertyOp56
 70
     1
102
RTVSPropertyOp57
 70
     1
102
RTVSPropertyOp58
 70
     1
102
RTVSPropertyOp59
 70
     1
102
RTVSPropertyOp60
 70
     1
102
RTVSPropertyOp61
 70
     1
102
RTVSPropertyOp62
 70
     1
  0
XRECORD
  5
2518D
102
{ACAD_REACTORS
330
2518C
102
}
330
2518C
100
AcDbXrecord
280
     1
102
RTVSPost2010Prop28
280
     0
102
RTVSPost2010PropOp28
 70
     1
102
RTVSPost2010Prop29
280
     1
102
RTVSPost2010PropOp29
 70
     1
102
RTVSPost2010Prop30
280
     1
102
RTVSPost2010PropOp30
 70
     1
102
RTVSPost2010Prop31
280
     0
102
RTVSPost2010PropOp31
 70
     1
102
RTVSPost2010Prop32
280
     0
102
RTVSPost2010PropOp32
 70
     1
102
RTVSPost2010Prop33
280
     0
102
RTVSPost2010PropOp33
 70
     1
102
RTVSPost2010Prop34
280
     0
102
RTVSPost2010PropOp34
 70
     1
102
RTVSPost2010Prop35
280
     0
102
RTVSPost2010PropOp35
 70
     1
102
RTVSPost2010Prop36
280
     0
102
RTVSPost2010PropOp36
 70
     1
102
RTVSPost2010Prop37
 90
       50
102
RTVSPost2010PropOp37
 70
     1
102
RTVSPost2010Prop38
140
0.0
102
RTVSPost2010PropOp38
 70
     1
102
RTVSPost2010Prop39
140
1.0
102
RTVSPost2010PropOp39
 70
     1
102
RTVSPost2010Prop40
 90
        0
102
RTVSPost2010PropOp40
 70
     1
102
RTVSPost2010Prop41ColorIndex
 90
       18
102
RTVSPost2010Prop41ColorRGB
 90
        0
102
RTVSPost2010PropOp41
 70
     1
102
RTVSPost2010Prop42
 90
       50
102
RTVSPost2010PropOp42
 70
     1
102
RTVSPost2010Prop43
 90
        3
102
RTVSPost2010PropOp43
 70
     1
102
RTVSPost2010Prop44ColorIndex
 90
        5
102
RTVSPost2010Prop44ColorRGB
 90
      255
102
RTVSPost2010PropOp44
 70
     1
102
RTVSPost2010Prop45
280
     0
102
RTVSPost2010PropOp45
 70
     1
102
RTVSPost2010Prop46
 90
       50
102
RTVSPost2010PropOp46
 70
     1
102
RTVSPost2010Prop47
 90
       50
102
RTVSPost2010PropOp47
 70
     1
102
RTVSPost2010Prop48
 90
       50
102
RTVSPost2010PropOp48
 70
     1
102
RTVSPost2010Prop49
280
     0
102
RTVSPost2010PropOp49
 70
     1
102
RTVSPost2010Prop50
 90
       50
102
RTVSPost2010PropOp50
 70
     1
102
RTVSPost2010Prop51ColorIndex
 90
      256
102
RTVSPost2010Prop51ColorRGB
 90
-16777216
102
RTVSPost2010PropOp51
 70
     0
102
RTVSPost2010Prop52
140
1.0
102
RTVSPost2010PropOp52
 70
     0
102
RTVSPost2010Prop53
 90
        2
102
RTVSPost2010PropOp53
 70
     1
102
RTVSPost2010Prop54
  1
strokes_ogs.tif
102
RTVSPost2010PropOp54
 70
     1
102
RTVSPost2010Prop55
280
     0
102
RTVSPost2010PropOp55
 70
     1
102
RTVSPost2010Prop56
140
1.0
102
RTVSPost2010PropOp56
 70
     1
102
RTVSPost2010Prop57
140
1.0
102
RTVSPost2010PropOp57
 70
     1
102
RTVSPropertyOp0
 70
     1
102
RTVSPropertyOp1
 70
     1
102
RTVSPropertyOp2
 70
     1
102
RTVSPropertyOp3
 70
     1
102
RTVSPropertyOp4
 70
     1
102
RTVSPropertyOp5
 70
     1
102
RTVSPropertyOp6
 70
     1
102
RTVSPropertyOp7
 70
     1
102
RTVSPropertyOp8
 70
     1
102
RTVSPropertyOp9
 70
     1
102
RTVSPropertyOp10
 70
     1
102
RTVSPropertyOp11
 70
     1
102
RTVSPropertyOp12
 70
     1
102
RTVSPropertyOp13
 70
     1
102
RTVSPropertyOp14
 70
     1
102
RTVSPropertyOp15
 70
     1
102
RTVSPropertyOp16
 70
     1
102
RTVSPropertyOp17
 70
     1
102
RTVSPropertyOp18
 70
     1
102
RTVSPropertyOp19
 70
     1
102
RTVSPropertyOp20
 70
     1
102
RTVSPropertyOp21
 70
     1
102
RTVSPropertyOp22
 70
     1
102
RTVSPropertyOp23
 70
     1
102
RTVSPropertyOp24
 70
     1
102
RTVSPropertyOp25
 70
     1
102
RTVSPropertyOp26
 70
     1
102
RTVSPropertyOp27
 70
     1
102
RTVSPropertyOp28
 70
     1
102
RTVSPropertyOp29
 70
     1
102
RTVSPropertyOp30
 70
     1
102
RTVSPropertyOp31
 70
     1
102
RTVSPropertyOp32
 70
     1
102
RTVSPropertyOp33
 70
     1
102
RTVSPropertyOp34
 70
     1
102
RTVSPropertyOp35
 70
     1
102
RTVSPropertyOp36
 70
     1
102
RTVSPropertyOp37
 70
     1
102
RTVSPropertyOp38
 70
     1
102
RTVSPropertyOp39
 70
     1
102
RTVSPropertyOp40
 70
     1
102
RTVSPropertyOp41
 70
     1
102
RTVSPropertyOp42
 70
     1
102
RTVSPropertyOp43
 70
     1
102
RTVSPropertyOp44
 70
     1
102
RTVSPropertyOp45
 70
     1
102
RTVSPropertyOp46
 70
     1
102
RTVSPropertyOp47
 70
     1
102
RTVSPropertyOp48
 70
     1
102
RTVSPropertyOp49
 70
     1
102
RTVSPropertyOp50
 70
     1
102
RTVSPropertyOp51
 70
     0
102
RTVSPropertyOp52
 70
     0
102
RTVSPropertyOp53
 70
     1
102
RTVSPropertyOp54
 70
     1
102
RTVSPropertyOp55
 70
     1
102
RTVSPropertyOp56
 70
     1
102
RTVSPropertyOp57
 70
     1
102
RTVSPropertyOp58
 70
     1
102
RTVSPropertyOp59
 70
     1
102
RTVSPropertyOp60
 70
     1
102
RTVSPropertyOp61
 70
     1
102
RTVSPropertyOp62
 70
     1
  0
ENDSEC
  0
EOF
