  0
SECTION
  2
HEADER
  9
$ACADVER
  1
AC1015
  9
$ACADMAINTVER
 70
    20
  9
$DWGCODEPAGE
  3
ANSI_1252
  9
$INSBASE
 10
0.0
 20
0.0
 30
0.0
  9
$EXTMIN
 10
-35.29301276534443
 20
-26.78039433991114
 30
-2.075839646425203
  9
$EXTMAX
 10
139.0175945456344
 20
47.98538283443235
 30
0.0000000099815534
  9
$LIMMIN
 10
-170.0
 20
-170.0
  9
$LIMMAX
 10
519.0
 20
260.0
  9
$ORTHOMODE
 70
     0
  9
$REGENMODE
 70
     1
  9
$FILLMODE
 70
     1
  9
$QTEXTMODE
 70
     0
  9
$MIRRTEXT
 70
     0
  9
$LTSCALE
 40
1.0
  9
$ATTMODE
 70
     1
  9
$TEXTSIZE
 40
3.5
  9
$TRACEWID
 40
1.0
  9
$TEXTSTYLE
  7
SIMPLEX
  9
$CLAYER
  8
1
  9
$CELTYPE
  6
BYLAYER
  9
$CECOLOR
 62
   256
  9
$CELTSCALE
 40
1.0
  9
$DISPSILH
 70
     0
  9
$DIMSCALE
 40
1.0
  9
$DIMASZ
 40
2.5
  9
$DIMEXO
 40
0.0
  9
$DIMDLI
 40
3.75
  9
$DIMRND
 40
0.0
  9
$DIMDLE
 40
0.0
  9
$DIMEXE
 40
1.25
  9
$DIMTP
 40
0.0
  9
$DIMTM
 40
0.0
  9
$DIMTXT
 40
3.5
  9
$DIMCEN
 40
0.0
  9
$DIMTSZ
 40
0.0
  9
$DIMTOL
 70
     0
  9
$DIMLIM
 70
     0
  9
$DIMTIH
 70
     0
  9
$DIMTOH
 70
     0
  9
$DIMSE1
 70
     0
  9
$DIMSE2
 70
     0
  9
$DIMTAD
 70
     1
  9
$DIMZIN
 70
     8
  9
$DIMBLK
  1

  9
$DIMASO
 70
     1
  9
$DIMSHO
 70
     1
  9
$DIMPOST
  1

  9
$DIMAPOST
  1

  9
$DIMALT
 70
     0
  9
$DIMALTD
 70
     3
  9
$DIMALTF
 40
0.039370078
  9
$DIMLFAC
 40
1.0
  9
$DIMTOFL
 70
     0
  9
$DIMTVP
 40
0.0
  9
$DIMTIX
 70
     0
  9
$DIMSOXD
 70
     0
  9
$DIMSAH
 70
     0
  9
$DIMBLK1
  1

  9
$DIMBLK2
  1

  9
$DIMSTYLE
  2
SANDVIK_STYLE
  9
$DIMCLRD
 70
     0
  9
$DIMCLRE
 70
     0
  9
$DIMCLRT
 70
     0
  9
$DIMTFAC
 40
1.0
  9
$DIMGAP
 40
0.625
  9
$DIMJUST
 70
     0
  9
$DIMSD1
 70
     0
  9
$DIMSD2
 70
     0
  9
$DIMTOLJ
 70
     0
  9
$DIMTZIN
 70
     8
  9
$DIMALTZ
 70
     0
  9
$DIMALTTZ
 70
     0
  9
$DIMUPT
 70
     0
  9
$DIMDEC
 70
     2
  9
$DIMTDEC
 70
     2
  9
$DIMALTU
 70
     2
  9
$DIMALTTD
 70
     3
  9
$DIMTXSTY
  7
SIMPLEX
  9
$DIMAUNIT
 70
     0
  9
$DIMADEC
 70
     2
  9
$DIMALTRND
 40
0.0
  9
$DIMAZIN
 70
     2
  9
$DIMDSEP
 70
    46
  9
$DIMATFIT
 70
     3
  9
$DIMFRAC
 70
     0
  9
$DIMLDRBLK
  1

  9
$DIMLUNIT
 70
     2
  9
$DIMLWD
 70
    -2
  9
$DIMLWE
 70
    -2
  9
$DIMTMOVE
 70
     0
  9
$LUNITS
 70
     2
  9
$LUPREC
 70
     4
  9
$SKETCHINC
 40
1.0
  9
$FILLETRAD
 40
0.0
  9
$AUNITS
 70
     0
  9
$AUPREC
 70
     0
  9
$MENU
  1
c:\tdm21\cad\caduti13\tdm13
  9
$ELEVATION
 40
0.0
  9
$PELEVATION
 40
0.0
  9
$THICKNESS
 40
0.0
  9
$LIMCHECK
 70
     0
  9
$CHAMFERA
 40
0.0
  9
$CHAMFERB
 40
0.0
  9
$CHAMFERC
 40
0.0
  9
$CHAMFERD
 40
0.0
  9
$SKPOLY
 70
     0
  9
$TDCREATE
 40
2455883.643486840
  9
$TDUCREATE
 40
2455883.560153508
  9
$TDUPDATE
 40
2456817.855828866
  9
$TDUUPDATE
 40
2456817.772495532
  9
$TDINDWG
 40
0.0012787153
  9
$TDUSRTIMER
 40
0.0012786574
  9
$USRTIMER
 70
     1
  9
$ANGBASE
 50
0.0
  9
$ANGDIR
 70
     0
  9
$PDMODE
 70
     1
  9
$PDSIZE
 40
0.0
  9
$PLINEWID
 40
0.0
  9
$SPLFRAME
 70
     0
  9
$SPLINETYPE
 70
     6
  9
$SPLINESEGS
 70
     8
  9
$HANDSEED
  5
24D05
  9
$SURFTAB1
 70
     6
  9
$SURFTAB2
 70
     6
  9
$SURFTYPE
 70
     6
  9
$SURFU
 70
     6
  9
$SURFV
 70
     6
  9
$UCSBASE
  2

  9
$UCSNAME
  2

  9
$UCSORG
 10
0.0
 20
0.0
 30
0.0
  9
$UCSXDIR
 10
1.0
 20
0.0
 30
0.0
  9
$UCSYDIR
 10
0.0
 20
1.0
 30
0.0
  9
$UCSORTHOREF
  2

  9
$UCSORTHOVIEW
 70
     0
  9
$UCSORGTOP
 10
0.0
 20
0.0
 30
0.0
  9
$UCSORGBOTTOM
 10
0.0
 20
0.0
 30
0.0
  9
$UCSORGLEFT
 10
0.0
 20
0.0
 30
0.0
  9
$UCSORGRIGHT
 10
0.0
 20
0.0
 30
0.0
  9
$UCSORGFRONT
 10
0.0
 20
0.0
 30
0.0
  9
$UCSORGBACK
 10
0.0
 20
0.0
 30
0.0
  9
$PUCSBASE
  2

  9
$PUCSNAME
  2

  9
$PUCSORG
 10
0.0
 20
0.0
 30
0.0
  9
$PUCSXDIR
 10
1.0
 20
0.0
 30
0.0
  9
$PUCSYDIR
 10
0.0
 20
1.0
 30
0.0
  9
$PUCSORTHOREF
  2

  9
$PUCSORTHOVIEW
 70
     0
  9
$PUCSORGTOP
 10
0.0
 20
0.0
 30
0.0
  9
$PUCSORGBOTTOM
 10
0.0
 20
0.0
 30
0.0
  9
$PUCSORGLEFT
 10
0.0
 20
0.0
 30
0.0
  9
$PUCSORGRIGHT
 10
0.0
 20
0.0
 30
0.0
  9
$PUCSORGFRONT
 10
0.0
 20
0.0
 30
0.0
  9
$PUCSORGBACK
 10
0.0
 20
0.0
 30
0.0
  9
$USERI1
 70
     0
  9
$USERI2
 70
     0
  9
$USERI3
 70
     0
  9
$USERI4
 70
     0
  9
$USERI5
 70
     0
  9
$USERR1
 40
0.0
  9
$USERR2
 40
0.0
  9
$USERR3
 40
0.0
  9
$USERR4
 40
0.0
  9
$USERR5
 40
0.0
  9
$WORLDVIEW
 70
     1
  9
$SHADEDGE
 70
     3
  9
$SHADEDIF
 70
    70
  9
$TILEMODE
 70
     1
  9
$MAXACTVP
 70
    64
  9
$PINSBASE
 10
0.0
 20
0.0
 30
0.0
  9
$PLIMCHECK
 70
     0
  9
$PEXTMIN
 10
0.0
 20
0.0
 30
0.0
  9
$PEXTMAX
 10
0.0
 20
0.0
 30
0.0
  9
$PLIMMIN
 10
0.0
 20
0.0
  9
$PLIMMAX
 10
12.0
 20
9.0
  9
$UNITMODE
 70
     0
  9
$VISRETAIN
 70
     0
  9
$PLINEGEN
 70
     0
  9
$PSLTSCALE
 70
     1
  9
$TREEDEPTH
 70
  3020
  9
$CMLSTYLE
  2
STANDARD
  9
$CMLJUST
 70
     0
  9
$CMLSCALE
 40
20.0
  9
$PROXYGRAPHICS
 70
     1
  9
$MEASUREMENT
 70
     1
  9
$CELWEIGHT
370
    -1
  9
$ENDCAPS
280
     0
  9
$JOINSTYLE
280
     0
  9
$LWDISPLAY
290
     0
  9
$INSUNITS
 70
     4
  9
$HYPERLINKBASE
  1

  9
$STYLESHEET
  1
MONOCHROME.CTB
  9
$XEDIT
290
     1
  9
$CEPSNTYPE
380
     0
  9
$PSTYLEMODE
290
     1
  9
$FINGERPRINTGUID
  2
{2541ECFD-A15C-4867-AF57-EDFAAE528261}
  9
$VERSIONGUID
  2
{92BDE662-5957-4E3E-939F-FFE756D4BECA}
  9
$EXTNAMES
290
     1
  9
$PSVPSCALE
 40
0.0
  9
$OLESTARTUP
290
     0
  0
ENDSEC
  0
SECTION
  2
CLASSES
  0
CLASS
  1
ACDBDICTIONARYWDFLT
  2
AcDbDictionaryWithDefault
  3
ObjectDBX Classes
 90
        0
280
     0
281
     0
  0
CLASS
  1
ACDBPLACEHOLDER
  2
AcDbPlaceHolder
  3
ObjectDBX Classes
 90
        0
280
     0
281
     0
  0
CLASS
  1
LAYOUT
  2
AcDbLayout
  3
ObjectDBX Classes
 90
        0
280
     0
281
     0
  0
CLASS
  1
DICTIONARYVAR
  2
AcDbDictionaryVar
  3
ObjectDBX Classes
 90
        0
280
     0
281
     0
  0
CLASS
  1
TABLESTYLE
  2
AcDbTableStyle
  3
ObjectDBX Classes
 90
     4095
280
     0
281
     0
  0
CLASS
  1
MATERIAL
  2
AcDbMaterial
  3
ObjectDBX Classes
 90
     1153
280
     0
281
     0
  0
CLASS
  1
VISUALSTYLE
  2
AcDbVisualStyle
  3
ObjectDBX Classes
 90
     4095
280
     0
281
     0
  0
CLASS
  1
SCALE
  2
AcDbScale
  3
ObjectDBX Classes
 90
     1153
280
     0
281
     0
  0
CLASS
  1
MLEADERSTYLE
  2
AcDbMLeaderStyle
  3
ACDB_MLEADERSTYLE_CLASS
 90
     4095
280
     0
281
     0
  0
CLASS
  1
CELLSTYLEMAP
  2
AcDbCellStyleMap
  3
ObjectDBX Classes
 90
     1152
280
     0
281
     0
  0
CLASS
  1
SORTENTSTABLE
  2
AcDbSortentsTable
  3
ObjectDBX Classes
 90
        0
280
     0
281
     0
  0
CLASS
  1
ACDBSECTIONVIEWSTYLE
  2
AcDbSectionViewStyle
  3
ObjectDBX Classes
 90
     1025
280
     0
281
     0
  0
CLASS
  1
ACDBDETAILVIEWSTYLE
  2
AcDbDetailViewStyle
  3
ObjectDBX Classes
 90
     1025
280
     0
281
     0
  0
CLASS
  1
EXACXREFPANELOBJECT
  2
ExAcXREFPanelObject
  3
EXAC_ESW
 90
     1025
280
     0
281
     0
  0
CLASS
  1
NPOCOLLECTION
  2
AcDbImpNonPersistentObjectsCollection
  3
ObjectDBX Classes
 90
     1153
280
     0
281
     0
  0
ENDSEC
  0
SECTION
  2
TABLES
  0
TABLE
  2
VPORT
  5
8
330
0
100
AcDbSymbolTable
 70
     1
  0
VPORT
  5
3ED
330
8
100
AcDbSymbolTableRecord
100
AcDbViewportTableRecord
  2
*Active
 70
     0
 10
0.0
 20
0.0
 11
1.0
 21
1.0
 12
51.862290890145
 22
10.6024942472606
 13
0.0
 23
0.0
 14
5.0
 24
5.0
 15
5.0
 25
5.0
 16
0.0
 26
0.0
 36
1.0
 17
0.0
 27
0.0
 37
0.0
 40
88.32285793181329
 41
2.2
 42
50.0
 43
0.0
 44
0.0
 50
0.0
 51
0.0
 71
     0
 72
  2000
 73
     1
 74
     1
 75
     0
 76
     0
 77
     0
 78
     0
281
     0
 65
     1
110
0.0
120
0.0
130
0.0
111
1.0
121
0.0
131
0.0
112
0.0
122
1.0
132
0.0
 79
     0
146
0.0
1001
ACAD_NAV_VCDISPLAY
1070
     3
  0
ENDTAB
  0
TABLE
  2
LTYPE
  5
5
330
0
100
AcDbSymbolTable
 70
    28
  0
LTYPE
  5
12
330
5
100
AcDbSymbolTableRecord
100
AcDbLinetypeTableRecord
  2
BYBLOCK
 70
     0
  3

 72
    65
 73
     0
 40
0.0
  0
LTYPE
  5
13
330
5
100
AcDbSymbolTableRecord
100
AcDbLinetypeTableRecord
  2
BYLAYER
 70
     0
  3

 72
    65
 73
     0
 40
0.0
  0
LTYPE
  5
14
330
5
100
AcDbSymbolTableRecord
100
AcDbLinetypeTableRecord
  2
CONTINUOUS
 70
     0
  3
Solid line
 72
    65
 73
     0
 40
0.0
  0
LTYPE
  5
2493D
330
5
100
AcDbSymbolTableRecord
100
AcDbLinetypeTableRecord
  2
BORDER
 70
     0
  3
__ __ . __ __ . __ __ . __ __ . __ __ . __ __ .
 72
    65
 73
     6
 40
44.45
 49
12.7
 74
     0
 49
-6.349999999999997
 74
     0
 49
12.7
 74
     0
 49
-6.349999999999997
 74
     0
 49
0.0
 74
     0
 49
-6.349999999999997
 74
     0
  0
LTYPE
  5
2493E
330
5
100
AcDbSymbolTableRecord
100
AcDbLinetypeTableRecord
  2
BORDER2
 70
     0
  3
__.__.__.__.__.__.__.__.__.__.__.__.__.__.__.__
 72
    65
 73
     6
 40
22.225
 49
6.349999999999997
 74
     0
 49
-3.174999999999998
 74
     0
 49
6.349999999999997
 74
     0
 49
-3.174999999999998
 74
     0
 49
0.0
 74
     0
 49
-3.174999999999998
 74
     0
  0
LTYPE
  5
2493F
330
5
100
AcDbSymbolTableRecord
100
AcDbLinetypeTableRecord
  2
BORDERX2
 70
     0
  3
____  ____  .  ____  ____  .  ____  ____  .  __
 72
    65
 73
     6
 40
88.9
 49
25.4
 74
     0
 49
-12.7
 74
     0
 49
25.4
 74
     0
 49
-12.7
 74
     0
 49
0.0
 74
     0
 49
-12.7
 74
     0
  0
LTYPE
  5
24940
330
5
100
AcDbSymbolTableRecord
100
AcDbLinetypeTableRecord
  2
CENTER
 70
     0
  3
____ _ ____ _ ____ _ ____ _ ____ _ ____ _ ____ 
 72
    65
 73
     4
 40
50.8
 49
31.75
 74
     0
 49
-6.349999999999997
 74
     0
 49
6.349999999999997
 74
     0
 49
-6.349999999999997
 74
     0
  0
LTYPE
  5
24941
330
5
100
AcDbSymbolTableRecord
100
AcDbLinetypeTableRecord
  2
CENTER2
 70
     0
  3
___ _ ___ _ ___ _ ___ _ ___ _ ___ _ ___ _ ___ _
 72
    65
 73
     4
 40
28.57499999999999
 49
19.05
 74
     0
 49
-3.174999999999998
 74
     0
 49
3.174999999999998
 74
     0
 49
-3.174999999999998
 74
     0
  0
LTYPE
  5
24942
330
5
100
AcDbSymbolTableRecord
100
AcDbLinetypeTableRecord
  2
CENTERX2
 70
     0
  3
________  __  ________  __  ________  __  _____
 72
    65
 73
     4
 40
101.6
 49
63.5
 74
     0
 49
-12.7
 74
     0
 49
12.7
 74
     0
 49
-12.7
 74
     0
  0
LTYPE
  5
24943
330
5
100
AcDbSymbolTableRecord
100
AcDbLinetypeTableRecord
  2
CENTRE
 70
     0
  3
____ _ ____ _ ____ _ ____ _ ____ _ ____ _ ____ 
 72
    65
 73
     4
 40
50.8
 49
31.75
 74
     0
 49
-6.349999999999997
 74
     0
 49
6.349999999999997
 74
     0
 49
-6.349999999999997
 74
     0
  0
LTYPE
  5
24944
330
5
100
AcDbSymbolTableRecord
100
AcDbLinetypeTableRecord
  2
CENTRE2
 70
     0
  3
___ _ ___ _ ___ _ ___ _ ___ _ ___ _ ___ _ ___ _
 72
    65
 73
     4
 40
28.57499999999999
 49
19.05
 74
     0
 49
-3.174999999999998
 74
     0
 49
3.174999999999998
 74
     0
 49
-3.174999999999998
 74
     0
  0
LTYPE
  5
24945
330
5
100
AcDbSymbolTableRecord
100
AcDbLinetypeTableRecord
  2
CENTREX2
 70
     0
  3
________  __  ________  __  ________  __  _____
 72
    65
 73
     4
 40
101.6
 49
63.5
 74
     0
 49
-12.7
 74
     0
 49
12.7
 74
     0
 49
-12.7
 74
     0
  0
LTYPE
  5
24946
330
5
100
AcDbSymbolTableRecord
100
AcDbLinetypeTableRecord
  2
DASHDOT
 70
     0
  3
__ . __ . __ . __ . __ . __ . __ . __ . __ . __
 72
    65
 73
     4
 40
25.4
 49
12.7
 74
     0
 49
-6.349999999999997
 74
     0
 49
0.0
 74
     0
 49
-6.349999999999997
 74
     0
  0
LTYPE
  5
24947
330
5
100
AcDbSymbolTableRecord
100
AcDbLinetypeTableRecord
  2
DASHDOT2
 70
     0
  3
_._._._._._._._._._._._._._._._._._._._._._._._
 72
    65
 73
     4
 40
12.7
 49
6.349999999999997
 74
     0
 49
-3.174999999999998
 74
     0
 49
0.0
 74
     0
 49
-3.174999999999998
 74
     0
  0
LTYPE
  5
24948
330
5
100
AcDbSymbolTableRecord
100
AcDbLinetypeTableRecord
  2
DASHDOTX2
 70
     0
  3
____  .  ____  .  ____  .  ____  .  ____  .  __
 72
    65
 73
     4
 40
50.8
 49
25.4
 74
     0
 49
-12.7
 74
     0
 49
0.0
 74
     0
 49
-12.7
 74
     0
  0
LTYPE
  5
24949
330
5
100
AcDbSymbolTableRecord
100
AcDbLinetypeTableRecord
  2
DASHED
 70
     0
  3
__ __ __ __ __ __ __ __ __ __ __ __ __ __ __ __
 72
    65
 73
     2
 40
19.05
 49
12.7
 74
     0
 49
-6.349999999999997
 74
     0
  0
LTYPE
  5
2494A
330
5
100
AcDbSymbolTableRecord
100
AcDbLinetypeTableRecord
  2
DASHED2
 70
     0
  3
_ _ _ _ _ _ _ _ _ _ _ _ _ _ _ _ _ _ _ _ _ _ _ _
 72
    65
 73
     2
 40
9.525
 49
6.349999999999997
 74
     0
 49
-3.174999999999998
 74
     0
  0
LTYPE
  5
2494B
330
5
100
AcDbSymbolTableRecord
100
AcDbLinetypeTableRecord
  2
DASHEDX2
 70
     0
  3
____  ____  ____  ____  ____  ____  ____  ____ 
 72
    65
 73
     2
 40
38.1
 49
25.4
 74
     0
 49
-12.7
 74
     0
  0
LTYPE
  5
2494C
330
5
100
AcDbSymbolTableRecord
100
AcDbLinetypeTableRecord
  2
DIVIDE
 70
     0
  3
____ . . ____ . . ____ . . ____ . . ____ . . __
 72
    65
 73
     6
 40
31.75
 49
12.7
 74
     0
 49
-6.349999999999997
 74
     0
 49
0.0
 74
     0
 49
-6.349999999999997
 74
     0
 49
0.0
 74
     0
 49
-6.349999999999997
 74
     0
  0
LTYPE
  5
2494D
330
5
100
AcDbSymbolTableRecord
100
AcDbLinetypeTableRecord
  2
DIVIDE2
 70
     0
  3
__..__..__..__..__..__..__..__..__..__..__..__.
 72
    65
 73
     6
 40
15.875
 49
6.349999999999997
 74
     0
 49
-3.174999999999998
 74
     0
 49
0.0
 74
     0
 49
-3.174999999999998
 74
     0
 49
0.0
 74
     0
 49
-3.174999999999998
 74
     0
  0
LTYPE
  5
2494E
330
5
100
AcDbSymbolTableRecord
100
AcDbLinetypeTableRecord
  2
DIVIDEX2
 70
     0
  3
________  .  .  ________  .  .  ________  .  . 
 72
    65
 73
     6
 40
63.5
 49
25.4
 74
     0
 49
-12.7
 74
     0
 49
0.0
 74
     0
 49
-12.7
 74
     0
 49
0.0
 74
     0
 49
-12.7
 74
     0
  0
LTYPE
  5
2494F
330
5
100
AcDbSymbolTableRecord
100
AcDbLinetypeTableRecord
  2
DOT
 70
     0
  3
. . . . . . . . . . . . . . . . . . . . . . . .
 72
    65
 73
     2
 40
6.349999999999997
 49
0.0
 74
     0
 49
-6.349999999999997
 74
     0
  0
LTYPE
  5
24950
330
5
100
AcDbSymbolTableRecord
100
AcDbLinetypeTableRecord
  2
DOT2
 70
     0
  3
...............................................
 72
    65
 73
     2
 40
3.174999999999998
 49
0.0
 74
     0
 49
-3.174999999999998
 74
     0
  0
LTYPE
  5
24951
330
5
100
AcDbSymbolTableRecord
100
AcDbLinetypeTableRecord
  2
DOTX2
 70
     0
  3
.  .  .  .  .  .  .  .  .  .  .  .  .  .  .  . 
 72
    65
 73
     2
 40
12.7
 49
0.0
 74
     0
 49
-12.7
 74
     0
  0
LTYPE
  5
24952
330
5
100
AcDbSymbolTableRecord
100
AcDbLinetypeTableRecord
  2
HIDDEN
 70
     0
  3
__ __ __ __ __ __ __ __ __ __ __ __ __ __ __ __
 72
    65
 73
     2
 40
9.525
 49
6.349999999999997
 74
     0
 49
-3.174999999999998
 74
     0
  0
LTYPE
  5
24953
330
5
100
AcDbSymbolTableRecord
100
AcDbLinetypeTableRecord
  2
HIDDEN2
 70
     0
  3
_ _ _ _ _ _ _ _ _ _ _ _ _ _ _ _ _ _ _ _ _ _ _ _
 72
    65
 73
     2
 40
4.7625
 49
3.174999999999998
 74
     0
 49
-1.587499999999999
 74
     0
  0
LTYPE
  5
24954
330
5
100
AcDbSymbolTableRecord
100
AcDbLinetypeTableRecord
  2
HIDDENX2
 70
     0
  3
____ ____ ____ ____ ____ ____ ____ ____ ____ __
 72
    65
 73
     2
 40
19.05
 49
12.7
 74
     0
 49
-6.349999999999997
 74
     0
  0
LTYPE
  5
24955
330
5
100
AcDbSymbolTableRecord
100
AcDbLinetypeTableRecord
  2
PHANTOM
 70
     0
  3
______  __  __  ______  __  __  ______  __  __ 
 72
    65
 73
     6
 40
63.5
 49
31.75
 74
     0
 49
-6.349999999999997
 74
     0
 49
6.349999999999997
 74
     0
 49
-6.349999999999997
 74
     0
 49
6.349999999999997
 74
     0
 49
-6.349999999999997
 74
     0
  0
LTYPE
  5
24956
330
5
100
AcDbSymbolTableRecord
100
AcDbLinetypeTableRecord
  2
PHANTOM2
 70
     0
  3
___ _ _ ___ _ _ ___ _ _ ___ _ _ ___ _ _ ___ _ _
 72
    65
 73
     6
 40
31.75
 49
15.875
 74
     0
 49
-3.174999999999998
 74
     0
 49
3.174999999999998
 74
     0
 49
-3.174999999999998
 74
     0
 49
3.174999999999998
 74
     0
 49
-3.174999999999998
 74
     0
  0
LTYPE
  5
24957
330
5
100
AcDbSymbolTableRecord
100
AcDbLinetypeTableRecord
  2
PHANTOMX2
 70
     0
  3
____________    ____    ____    ____________   
 72
    65
 73
     6
 40
127.0
 49
63.5
 74
     0
 49
-12.7
 74
     0
 49
12.7
 74
     0
 49
-12.7
 74
     0
 49
12.7
 74
     0
 49
-12.7
 74
     0
  0
ENDTAB
  0
TABLE
  2
LAYER
  5
2
330
0
100
AcDbSymbolTable
 70
    25
  0
LAYER
  5
F
102
{ACAD_XDICTIONARY
360
24C92
102
}
330
2
100
AcDbSymbolTableRecord
100
AcDbLayerTableRecord
  2
0
 70
     0
 62
     7
  6
CONTINUOUS
370
    -3
390
300
  0
LAYER
  5
23
102
{ACAD_XDICTIONARY
360
24C94
102
}
330
2
100
AcDbSymbolTableRecord
100
AcDbLayerTableRecord
  2
1
 70
     0
 62
     4
  6
CONTINUOUS
370
    -3
390
300
  0
LAYER
  5
24958
102
{ACAD_XDICTIONARY
360
24C96
102
}
330
2
100
AcDbSymbolTableRecord
100
AcDbLayerTableRecord
  2
2
 70
     0
 62
     7
  6
CONTINUOUS
370
    -3
390
300
  0
LAYER
  5
24959
330
2
100
AcDbSymbolTableRecord
100
AcDbLayerTableRecord
  2
DEFPOINTS
 70
     0
 62
     7
  6
CONTINUOUS
290
     0
370
    -3
390
300
  0
LAYER
  5
2495A
102
{ACAD_XDICTIONARY
360
24C98
102
}
330
2
100
AcDbSymbolTableRecord
100
AcDbLayerTableRecord
  2
IGES_FRZ
 70
     0
 62
     7
  6
CONTINUOUS
370
    -3
390
300
  0
LAYER
  5
2495B
102
{ACAD_XDICTIONARY
360
24C9A
102
}
330
2
100
AcDbSymbolTableRecord
100
AcDbLayerTableRecord
  2
95
 70
     0
 62
     7
  6
CONTINUOUS
370
    -3
390
300
  0
LAYER
  5
2495C
102
{ACAD_XDICTIONARY
360
24C9C
102
}
330
2
100
AcDbSymbolTableRecord
100
AcDbLayerTableRecord
  2
95_TOP
 70
     0
 62
     7
  6
CONTINUOUS
370
    -3
390
300
  0
LAYER
  5
2495D
102
{ACAD_XDICTIONARY
360
24C9E
102
}
330
2
100
AcDbSymbolTableRecord
100
AcDbLayerTableRecord
  2
90
 70
     0
 62
     7
  6
CONTINUOUS
370
    -3
390
300
  0
LAYER
  5
2495E
102
{ACAD_XDICTIONARY
360
24CA0
102
}
330
2
100
AcDbSymbolTableRecord
100
AcDbLayerTableRecord
  2
90_TOP
 70
     0
 62
     7
  6
CONTINUOUS
370
    -3
390
300
  0
LAYER
  5
2495F
102
{ACAD_XDICTIONARY
360
24CA2
102
}
330
2
100
AcDbSymbolTableRecord
100
AcDbLayerTableRecord
  2
91
 70
     0
 62
     7
  6
CONTINUOUS
370
    -3
390
300
  0
LAYER
  5
24960
102
{ACAD_XDICTIONARY
360
24CA4
102
}
330
2
100
AcDbSymbolTableRecord
100
AcDbLayerTableRecord
  2
91_TOP
 70
     0
 62
     7
  6
CONTINUOUS
370
    -3
390
300
  0
LAYER
  5
24961
102
{ACAD_XDICTIONARY
360
24CA6
102
}
330
2
100
AcDbSymbolTableRecord
100
AcDbLayerTableRecord
  2
IGES
 70
     0
 62
     7
  6
CONTINUOUS
370
    -3
390
300
  0
LAYER
  5
24962
102
{ACAD_XDICTIONARY
360
24CA8
102
}
330
2
100
AcDbSymbolTableRecord
100
AcDbLayerTableRecord
  2
11
 70
     0
 62
     4
  6
CONTINUOUS
370
    -3
390
300
  0
LAYER
  5
24963
102
{ACAD_XDICTIONARY
360
24CAA
102
}
330
2
100
AcDbSymbolTableRecord
100
AcDbLayerTableRecord
  2
20
 70
     0
 62
     7
  6
CONTINUOUS
370
    -3
390
300
  0
LAYER
  5
24964
102
{ACAD_XDICTIONARY
360
24CAC
102
}
330
2
100
AcDbSymbolTableRecord
100
AcDbLayerTableRecord
  2
12
 70
     0
 62
     7
  6
CONTINUOUS
370
    -3
390
300
  0
LAYER
  5
24965
102
{ACAD_XDICTIONARY
360
24CAE
102
}
330
2
100
AcDbSymbolTableRecord
100
AcDbLayerTableRecord
  2
3
 70
     0
 62
     1
  6
HIDDEN
370
    -3
390
300
  0
LAYER
  5
24966
102
{ACAD_XDICTIONARY
360
24CB0
102
}
330
2
100
AcDbSymbolTableRecord
100
AcDbLayerTableRecord
  2
13
 70
     0
 62
     1
  6
HIDDEN
370
    -3
390
300
  0
LAYER
  5
24967
102
{ACAD_XDICTIONARY
360
24CB2
102
}
330
2
100
AcDbSymbolTableRecord
100
AcDbLayerTableRecord
  2
4
 70
     0
 62
     2
  6
CENTER
370
    -3
390
300
  0
LAYER
  5
24968
102
{ACAD_XDICTIONARY
360
24CB4
102
}
330
2
100
AcDbSymbolTableRecord
100
AcDbLayerTableRecord
  2
14
 70
     0
 62
     2
  6
CENTER
370
    -3
390
300
  0
LAYER
  5
24969
102
{ACAD_XDICTIONARY
360
24CB6
102
}
330
2
100
AcDbSymbolTableRecord
100
AcDbLayerTableRecord
  2
5
 70
     0
 62
    -7
  6
CONTINUOUS
370
    -3
390
300
  0
LAYER
  5
2496A
102
{ACAD_XDICTIONARY
360
24CB8
102
}
330
2
100
AcDbSymbolTableRecord
100
AcDbLayerTableRecord
  2
6
 70
     0
 62
     5
  6
CONTINUOUS
370
    -3
390
300
  0
LAYER
  5
2496B
102
{ACAD_XDICTIONARY
360
24CBA
102
}
330
2
100
AcDbSymbolTableRecord
100
AcDbLayerTableRecord
  2
16
 70
     0
 62
     5
  6
CONTINUOUS
370
    -3
390
300
  0
LAYER
  5
2496C
102
{ACAD_XDICTIONARY
360
24CBC
102
}
330
2
100
AcDbSymbolTableRecord
100
AcDbLayerTableRecord
  2
80
 70
     0
 62
     2
  6
CENTER
370
    -3
390
300
  0
LAYER
  5
2496D
102
{ACAD_XDICTIONARY
360
24CBE
102
}
330
2
100
AcDbSymbolTableRecord
100
AcDbLayerTableRecord
  2
81
 70
     0
 62
     2
  6
CENTER
370
    -3
390
300
  0
LAYER
  5
2496E
102
{ACAD_XDICTIONARY
360
24CC0
102
}
330
2
100
AcDbSymbolTableRecord
100
AcDbLayerTableRecord
  2
82
 70
     0
 62
     2
  6
CENTER
370
    -3
390
300
  0
ENDTAB
  0
TABLE
  2
STYLE
  5
3
330
0
100
AcDbSymbolTable
 70
     5
  0
STYLE
  5
10
330
3
100
AcDbSymbolTableRecord
100
AcDbTextStyleTableRecord
  2
STANDARD
 70
     0
 40
0.0
 41
1.0
 50
0.0
 71
     0
 42
5.0
  3
txt
  4

  0
STYLE
  5
1E
330
3
100
AcDbSymbolTableRecord
100
AcDbTextStyleTableRecord
  2
SIMPLEX
 70
     0
 40
0.0
 41
1.0
 50
0.0
 71
     0
 42
3.5
  3
simplex
  4

  0
STYLE
  5
2496F
330
3
100
AcDbSymbolTableRecord
100
AcDbTextStyleTableRecord
  2
Annotative
 70
     0
 40
0.0
 41
1.0
 50
0.0
 71
     0
 42
0.2
  3
txt
  4

1001
AcadAnnotative
1000
AnnotativeData
1002
{
1070
     1
1070
     1
1002
}
  0
STYLE
  5
24970
330
3
100
AcDbSymbolTableRecord
100
AcDbTextStyleTableRecord
  2
TDM_STYLE
 70
     0
 40
0.0
 41
1.0
 50
0.0
 71
     0
 42
0.2
  3
txt
  4

  0
STYLE
  5
24971
330
3
100
AcDbSymbolTableRecord
100
AcDbTextStyleTableRecord
  2
SANDVIK_STYLE
 70
     0
 40
4.57
 41
1.0
 50
15.0
 71
     0
 42
4.57
  3
simplex.shx
  4

  0
ENDTAB
  0
TABLE
  2
VIEW
  5
6
330
0
100
AcDbSymbolTable
 70
     0
  0
ENDTAB
  0
TABLE
  2
UCS
  5
7
330
0
100
AcDbSymbolTable
 70
     0
  0
ENDTAB
  0
TABLE
  2
APPID
  5
9
330
0
100
AcDbSymbolTable
 70
    11
  0
APPID
  5
11
330
9
100
AcDbSymbolTableRecord
100
AcDbRegAppTableRecord
  2
ACAD
 70
     0
  0
APPID
  5
3A6
330
9
100
AcDbSymbolTableRecord
100
AcDbRegAppTableRecord
  2
ACAD_PSEXT
 70
     0
  0
APPID
  5
3A8
330
9
100
AcDbSymbolTableRecord
100
AcDbRegAppTableRecord
  2
ACAD_EXEMPT_FROM_CAD_STANDARDS
 70
     0
  0
APPID
  5
43E
330
9
100
AcDbSymbolTableRecord
100
AcDbRegAppTableRecord
  2
ACAD_MLEADERVER
 70
     0
  0
APPID
  5
454
330
9
100
AcDbSymbolTableRecord
100
AcDbRegAppTableRecord
  2
ACAD_DSTYLE_DIMJAG
 70
     0
  0
APPID
  5
455
330
9
100
AcDbSymbolTableRecord
100
AcDbRegAppTableRecord
  2
ACAD_DSTYLE_DIMBREAK
 70
     0
  0
APPID
  5
456
330
9
100
AcDbSymbolTableRecord
100
AcDbRegAppTableRecord
  2
ACAD_DSTYLE_DIMTALN
 70
     0
  0
APPID
  5
58A
330
9
100
AcDbSymbolTableRecord
100
AcDbRegAppTableRecord
  2
AcadAnnotative
 70
     0
  0
APPID
  5
58B
330
9
100
AcDbSymbolTableRecord
100
AcDbRegAppTableRecord
  2
ACADIGES
 70
     0
  0
APPID
  5
58C
330
9
100
AcDbSymbolTableRecord
100
AcDbRegAppTableRecord
  2
ACAD_DSTYLE_DIMJOGGED_JOGANGLE_SYMBOL
 70
     0
  0
APPID
  5
24CC5
330
9
100
AcDbSymbolTableRecord
100
AcDbRegAppTableRecord
  2
ACAD_NAV_VCDISPLAY
 70
     0
  0
ENDTAB
  0
TABLE
  2
DIMSTYLE
  5
A
330
0
100
AcDbSymbolTable
 70
     5
100
AcDbDimStyleTable
 71
     1
340
457
  0
DIMSTYLE
105
457
102
{ACAD_REACTORS
330
24BD0
330
24BCF
330
24BCE
330
24BCD
330
24BCC
330
24BCB
102
}
330
A
100
AcDbSymbolTableRecord
100
AcDbDimStyleTableRecord
  2
SANDVIK_STYLE
 70
     0
 41
2.5
 42
0.0
 43
3.75
 44
1.25
 73
     0
 74
     0
 77
     1
 78
     8
 79
     2
140
3.5
141
0.0
143
0.039370078
147
0.625
171
     3
179
     2
271
     2
272
     2
274
     3
283
     0
284
     8
340
1E
1001
ACAD_DSTYLE_DIMBREAK
1070
   391
1040
3.75
1001
ACAD_DSTYLE_DIMJAG
1070
   388
1040
1.5
1001
ACAD_DSTYLE_DIMTALN
1070
   392
1070
     0
  0
DIMSTYLE
105
24972
330
A
100
AcDbSymbolTableRecord
100
AcDbDimStyleTableRecord
  2
ISO-25
 70
     0
 41
2.5
 42
0.625
 43
3.75
 44
1.25
 73
     0
 74
     0
 77
     1
 78
     8
140
2.5
141
2.5
143
0.03937007874016
147
0.625
171
     3
172
     1
271
     2
272
     2
274
     3
278
    44
283
     0
284
     8
340
10
1001
ACAD_DSTYLE_DIMJOGGED_JOGANGLE_SYMBOL
1070
   384
1040
1.570796326794896
  0
DIMSTYLE
105
24973
330
A
100
AcDbSymbolTableRecord
100
AcDbDimStyleTableRecord
  2
STANDARD
 70
     0
 41
3.0
 42
2.5
 43
10.0
 44
2.5
 46
1.25
 73
     0
 74
     0
140
3.0
141
-3.0
143
0.039
145
1.5
146
0.75
147
1.5
271
     2
272
     2
279
     2
340
24970
  0
DIMSTYLE
105
24974
330
A
100
AcDbSymbolTableRecord
100
AcDbDimStyleTableRecord
  2
Annotative
 70
     0
340
10
1001
AcadAnnotative
1000
AnnotativeData
1002
{
1070
     1
1070
     1
1002
}
  0
DIMSTYLE
105
24975
330
A
100
AcDbSymbolTableRecord
100
AcDbDimStyleTableRecord
  2
SANDVIK_DIM
 70
     0
 41
3.0
 42
2.5
 43
10.0
 44
2.5
 46
1.25
 73
     0
 74
     0
140
3.0
141
-3.0
143
0.039
145
1.5
146
0.75
147
1.5
176
   256
177
   256
178
   256
271
     2
272
     2
279
     2
340
24970
  0
ENDTAB
  0
TABLE
  2
BLOCK_RECORD
  5
1
330
0
100
AcDbSymbolTable
 70
    31
  0
BLOCK_RECORD
  5
18
330
1
100
AcDbSymbolTableRecord
100
AcDbBlockTableRecord
  2
*MODEL_SPACE
340
303
  0
BLOCK_RECORD
  5
338
330
1
100
AcDbSymbolTableRecord
100
AcDbBlockTableRecord
  2
*Paper_Space
340
33B
  0
BLOCK_RECORD
  5
247EB
330
1
100
AcDbSymbolTableRecord
100
AcDbBlockTableRecord
  2
$MODEL_SPACE
340
0
  0
BLOCK_RECORD
  5
247EE
330
1
100
AcDbSymbolTableRecord
100
AcDbBlockTableRecord
  2
$PAPER_SPACE
340
0
  0
BLOCK_RECORD
  5
247F1
330
1
100
AcDbSymbolTableRecord
100
AcDbBlockTableRecord
  2
IGES_214_02
340
0
102
{BLKREFS
331
247F9
331
247FB
331
24803
331
24805
331
2480D
331
2480F
331
24817
331
24819
331
24821
331
24823
331
2482B
331
2482D
102
}
  0
BLOCK_RECORD
  5
247F6
330
1
100
AcDbSymbolTableRecord
100
AcDbBlockTableRecord
  2
*U3
340
0
  0
BLOCK_RECORD
  5
24800
330
1
100
AcDbSymbolTableRecord
100
AcDbBlockTableRecord
  2
*U4
340
0
  0
BLOCK_RECORD
  5
2480A
330
1
100
AcDbSymbolTableRecord
100
AcDbBlockTableRecord
  2
*U5
340
0
  0
BLOCK_RECORD
  5
24814
330
1
100
AcDbSymbolTableRecord
100
AcDbBlockTableRecord
  2
*U6
340
0
  0
BLOCK_RECORD
  5
2481E
330
1
100
AcDbSymbolTableRecord
100
AcDbBlockTableRecord
  2
*U7
340
0
  0
BLOCK_RECORD
  5
24828
330
1
100
AcDbSymbolTableRecord
100
AcDbBlockTableRecord
  2
*U8
340
0
  0
BLOCK_RECORD
  5
24832
330
1
100
AcDbSymbolTableRecord
100
AcDbBlockTableRecord
  2
DVIEWBLOCK
340
0
  0
BLOCK_RECORD
  5
24848
330
1
100
AcDbSymbolTableRecord
100
AcDbBlockTableRecord
  2
*D10
340
0
  0
BLOCK_RECORD
  5
24854
330
1
100
AcDbSymbolTableRecord
100
AcDbBlockTableRecord
  2
*D11
340
0
  0
BLOCK_RECORD
  5
24860
330
1
100
AcDbSymbolTableRecord
100
AcDbBlockTableRecord
  2
*D12
340
0
  0
BLOCK_RECORD
  5
2486C
330
1
100
AcDbSymbolTableRecord
100
AcDbBlockTableRecord
  2
*D13
340
0
  0
BLOCK_RECORD
  5
24878
330
1
100
AcDbSymbolTableRecord
100
AcDbBlockTableRecord
  2
*D14
340
0
  0
BLOCK_RECORD
  5
24884
330
1
100
AcDbSymbolTableRecord
100
AcDbBlockTableRecord
  2
*D15
340
0
  0
BLOCK_RECORD
  5
24893
330
1
100
AcDbSymbolTableRecord
100
AcDbBlockTableRecord
  2
*D16
340
0
  0
BLOCK_RECORD
  5
2489F
330
1
100
AcDbSymbolTableRecord
100
AcDbBlockTableRecord
  2
*D17
340
0
  0
BLOCK_RECORD
  5
248AB
330
1
100
AcDbSymbolTableRecord
100
AcDbBlockTableRecord
  2
*D18
340
0
  0
BLOCK_RECORD
  5
248B7
330
1
100
AcDbSymbolTableRecord
100
AcDbBlockTableRecord
  2
*U19
340
0
102
{BLKREFS
331
248B0
102
}
  0
BLOCK_RECORD
  5
248BC
330
1
100
AcDbSymbolTableRecord
100
AcDbBlockTableRecord
  2
*D20
340
0
  0
BLOCK_RECORD
  5
248C8
330
1
100
AcDbSymbolTableRecord
100
AcDbBlockTableRecord
  2
*D21
340
0
  0
BLOCK_RECORD
  5
248D4
330
1
100
AcDbSymbolTableRecord
100
AcDbBlockTableRecord
  2
*D22
340
0
  0
BLOCK_RECORD
  5
248E3
330
1
100
AcDbSymbolTableRecord
100
AcDbBlockTableRecord
  2
*D23
340
0
  0
BLOCK_RECORD
  5
248EF
330
1
100
AcDbSymbolTableRecord
100
AcDbBlockTableRecord
  2
*D24
340
0
  0
BLOCK_RECORD
  5
248FB
330
1
100
AcDbSymbolTableRecord
100
AcDbBlockTableRecord
  2
*D25
340
0
  0
BLOCK_RECORD
  5
24907
330
1
100
AcDbSymbolTableRecord
100
AcDbBlockTableRecord
  2
*D26
340
0
  0
BLOCK_RECORD
  5
24914
330
1
100
AcDbSymbolTableRecord
100
AcDbBlockTableRecord
  2
*D27
340
0
  0
BLOCK_RECORD
  5
24921
330
1
100
AcDbSymbolTableRecord
100
AcDbBlockTableRecord
  2
*D28
340
0
  0
BLOCK_RECORD
  5
24930
102
{ACAD_XDICTIONARY
360
24931
102
}
330
1
100
AcDbSymbolTableRecord
100
AcDbBlockTableRecord
  2
_Zeropoint.dwg
340
0
102
{BLKREFS
331
2493B
102
}
  0
BLOCK_RECORD
  5
24939
330
1
100
AcDbSymbolTableRecord
100
AcDbBlockTableRecord
  2
_nullpunkt
340
0
102
{BLKREFS
331
24BD3
102
}
1001
ACAD
1000
DesignCenter Data
1002
{
1070
     1
1070
     4
1002
}
  0
ENDTAB
  0
ENDSEC
  0
SECTION
  2
BLOCKS
  0
BLOCK
  5
32
330
18
100
AcDbEntity
  8
0
100
AcDbBlockBegin
  2
*MODEL_SPACE
 70
     0
 10
0.0
 20
0.0
 30
0.0
  3
*MODEL_SPACE
  1

  0
ENDBLK
  5
33
330
18
100
AcDbEntity
  8
0
100
AcDbBlockEnd
  0
BLOCK
  5
339
330
338
100
AcDbEntity
 67
     1
  8
0
100
AcDbBlockBegin
  2
*Paper_Space
 70
     0
 10
0.0
 20
0.0
 30
0.0
  3
*Paper_Space
  1

  0
ENDBLK
  5
33A
330
338
100
AcDbEntity
 67
     1
  8
0
100
AcDbBlockEnd
  0
BLOCK
  5
247EC
330
247EB
100
AcDbEntity
  8
0
100
AcDbBlockBegin
  2
$MODEL_SPACE
 70
     0
 10
0.0
 20
0.0
 30
0.0
  3
$MODEL_SPACE
  1

  0
ENDBLK
  5
247ED
330
247EB
100
AcDbEntity
  8
0
100
AcDbBlockEnd
  0
BLOCK
  5
247EF
330
247EE
100
AcDbEntity
  8
0
100
AcDbBlockBegin
  2
$PAPER_SPACE
 70
     0
 10
0.0
 20
0.0
 30
0.0
  3
$PAPER_SPACE
  1

  0
ENDBLK
  5
247F0
330
247EE
100
AcDbEntity
  8
0
100
AcDbBlockEnd
  0
BLOCK
  5
247F2
330
247F1
100
AcDbEntity
  8
0
100
AcDbBlockBegin
  2
IGES_214_02
 70
     0
 10
0.0
 20
0.0
 30
0.0
  3
IGES_214_02
  1

  0
LWPOLYLINE
  5
247F3
330
247F1
100
AcDbEntity
  8
0
100
AcDbPolyline
 90
        3
 70
     1
 43
0.0
 10
-1.0
 20
0.5
 10
0.0
 20
0.0
 10
-1.0
 20
-0.5
  0
LINE
  5
247F4
330
247F1
100
AcDbEntity
  8
0
100
AcDbLine
 10
0.0
 20
0.0
 30
0.0
 11
-1.0
 21
0.0
 31
0.0
  0
ENDBLK
  5
247F5
330
247F1
100
AcDbEntity
  8
0
100
AcDbBlockEnd
  0
BLOCK
  5
247F7
330
247F6
100
AcDbEntity
  8
0
100
AcDbBlockBegin
  2
*U3
 70
     1
 10
0.0
 20
0.0
 30
0.0
  3
*U3
  1
*IGES
  0
TEXT
  5
247F8
330
247F6
100
AcDbEntity
  8
20
100
AcDbText
 10
-5.383377999999997
 20
-25.852503
 30
0.0
 40
3.0
  1
22
 41
0.7379255882352938
  7
SANDVIK_STYLE
 72
     5
 11
-1.799168
 21
-25.852503
 31
0.0
100
AcDbText
  0
INSERT
  5
247F9
330
247F6
100
AcDbEntity
  8
20
100
AcDbBlockReference
  2
IGES_214_02
 10
-14.528773
 20
-27.35250300000001
 30
0.0
 41
3.0
 42
0.7899149999999999
 43
3.0
 50
180.0
  0
LINE
  5
247FA
330
247F6
100
AcDbEntity
  8
20
100
AcDbLine
 10
-11.52877299999999
 20
-27.35250300000001
 30
0.0
 11
-3.591273
 21
-27.35250300000001
 31
0.0
  0
INSERT
  5
247FB
330
247F6
100
AcDbEntity
  8
20
100
AcDbBlockReference
  2
IGES_214_02
 10
7.346226999999997
 20
-27.35250300000001
 30
0.0
 41
3.0
 42
0.7899149999999999
 43
3.0
  0
LINE
  5
247FC
330
247F6
100
AcDbEntity
  8
20
100
AcDbLine
 10
4.346226999999998
 20
-27.35250300000001
 30
0.0
 11
-3.591273
 21
-27.35250300000001
 31
0.0
  0
LINE
  5
247FD
330
247F6
100
AcDbEntity
  8
20
100
AcDbLine
 10
-14.528773
 20
-13.64417
 30
0.0
 11
-14.528773
 21
-30.352503
 31
0.0
  0
LINE
  5
247FE
330
247F6
100
AcDbEntity
  8
20
100
AcDbLine
 10
7.346226999999997
 20
-6.352502999999997
 30
0.0
 11
7.346226999999997
 21
-30.352503
 31
0.0
  0
ENDBLK
  5
247FF
330
247F6
100
AcDbEntity
  8
0
100
AcDbBlockEnd
  0
BLOCK
  5
24801
330
24800
100
AcDbEntity
  8
0
100
AcDbBlockBegin
  2
*U4
 70
     1
 10
0.0
 20
0.0
 30
0.0
  3
*U4
  1
*IGES
  0
TEXT
  5
24802
330
24800
100
AcDbEntity
  8
12
100
AcDbText
 10
-18.878773
 20
136.1474969999999
 30
0.0
 40
3.0
  1
D=40
 41
0.7518518518518521
  7
SANDVIK_STYLE
 72
     5
 11
-10.178773
 21
136.1474969999999
 31
0.0
100
AcDbText
  0
INSERT
  5
24803
330
24800
100
AcDbEntity
  8
12
100
AcDbBlockReference
  2
IGES_214_02
 10
-34.528773
 20
134.6474969999999
 30
0.0
 41
3.0
 42
0.7899149999999999
 43
3.0
 50
180.0
  0
LINE
  5
24804
330
24800
100
AcDbEntity
  8
12
100
AcDbLine
 10
-31.528773
 20
134.6474969999999
 30
0.0
 11
-14.528773
 21
134.6474969999999
 31
0.0
  0
INSERT
  5
24805
330
24800
100
AcDbEntity
  8
12
100
AcDbBlockReference
  2
IGES_214_02
 10
5.471226999999997
 20
134.6474969999999
 30
0.0
 41
3.0
 42
0.7899149999999999
 43
3.0
  0
LINE
  5
24806
330
24800
100
AcDbEntity
  8
12
100
AcDbLine
 10
2.471226999999998
 20
134.6474969999999
 30
0.0
 11
-14.528773
 21
134.6474969999999
 31
0.0
  0
LINE
  5
24807
330
24800
100
AcDbEntity
  8
12
100
AcDbLine
 10
-34.528773
 20
106.647497
 30
0.0
 11
-34.528773
 21
137.6474969999999
 31
0.0
  0
LINE
  5
24808
330
24800
100
AcDbEntity
  8
12
100
AcDbLine
 10
5.471226999999997
 20
106.647497
 30
0.0
 11
5.471226999999997
 21
137.6474969999999
 31
0.0
  0
ENDBLK
  5
24809
330
24800
100
AcDbEntity
  8
0
100
AcDbBlockEnd
  0
BLOCK
  5
2480B
330
2480A
100
AcDbEntity
  8
0
100
AcDbBlockBegin
  2
*U5
 70
     1
 10
0.0
 20
0.0
 30
0.0
  3
*U5
  1
*IGES
  0
TEXT
  5
2480C
330
2480A
100
AcDbEntity
  8
12
100
AcDbText
 10
-19.653773
 20
44.850661
 30
0.0
 40
3.0
  1
%%c32.0
 41
0.8396004939759039
  7
SANDVIK_STYLE
 72
     5
 11
-9.69851
 21
44.850661
 31
0.0
100
AcDbText
  0
INSERT
  5
2480D
330
2480A
100
AcDbEntity
  8
12
100
AcDbBlockReference
  2
IGES_214_02
 10
-30.528773
 20
43.35066099999997
 30
0.0
 41
3.0
 42
0.7899149999999999
 43
3.0
 50
180.0
  0
LINE
  5
2480E
330
2480A
100
AcDbEntity
  8
12
100
AcDbLine
 10
-27.52877299999999
 20
43.35066099999997
 30
0.0
 11
-14.528773
 21
43.35066099999997
 31
0.0
  0
INSERT
  5
2480F
330
2480A
100
AcDbEntity
  8
12
100
AcDbBlockReference
  2
IGES_214_02
 10
1.471227
 20
43.35066099999997
 30
0.0
 41
3.0
 42
0.7899149999999999
 43
3.0
  0
LINE
  5
24810
330
2480A
100
AcDbEntity
  8
12
100
AcDbLine
 10
-1.528772999999999
 20
43.35066099999997
 30
0.0
 11
-14.528773
 21
43.35066099999997
 31
0.0
  0
LINE
  5
24811
330
2480A
100
AcDbEntity
  8
12
100
AcDbLine
 10
-30.528773
 20
83.0757
 30
0.0
 11
-30.528773
 21
40.35066099999997
 31
0.0
  0
LINE
  5
24812
330
2480A
100
AcDbEntity
  8
12
100
AcDbLine
 10
1.471227
 20
83.0757
 30
0.0
 11
1.471227
 21
40.35066099999997
 31
0.0
  0
ENDBLK
  5
24813
330
2480A
100
AcDbEntity
  8
0
100
AcDbBlockEnd
  0
BLOCK
  5
24815
330
24814
100
AcDbEntity
  8
0
100
AcDbBlockBegin
  2
*U6
 70
     1
 10
0.0
 20
0.0
 30
0.0
  3
*U6
  1
*IGES
  0
TEXT
  5
24816
330
24814
100
AcDbEntity
  8
20
100
AcDbText
 10
27.346227
 20
46.255392
 30
0.0
 40
3.0
  1
110.0
 50
90.0
 41
0.7169667105263161
  7
SANDVIK_STYLE
 72
     5
 11
27.346227
 21
54.039602
 31
0.0
100
AcDbText
  0
INSERT
  5
24817
330
24814
100
AcDbEntity
  8
20
100
AcDbBlockReference
  2
IGES_214_02
 10
28.846227
 20
105.147497
 30
0.0
 41
3.0
 42
0.7899149999999999
 43
3.0
 50
90.0
  0
LINE
  5
24818
330
24814
100
AcDbEntity
  8
20
100
AcDbLine
 10
28.846227
 20
102.147497
 30
0.0
 11
28.846227
 21
50.14749699999999
 31
0.0
  0
INSERT
  5
24819
330
24814
100
AcDbEntity
  8
20
100
AcDbBlockReference
  2
IGES_214_02
 10
28.846227
 20
-4.852502999999996
 30
0.0
 41
3.0
 42
0.7899149999999999
 43
3.0
 50
270.0
  0
LINE
  5
2481A
330
24814
100
AcDbEntity
  8
20
100
AcDbLine
 10
28.846227
 20
-1.852502999999995
 30
0.0
 11
28.846227
 21
50.14749699999999
 31
0.0
  0
LINE
  5
2481B
330
24814
100
AcDbEntity
  8
20
100
AcDbLine
 10
6.971226999999997
 20
105.147497
 30
0.0
 11
31.846227
 21
105.147497
 31
0.0
  0
LINE
  5
2481C
330
24814
100
AcDbEntity
  8
20
100
AcDbLine
 10
8.846227
 20
-4.852502999999996
 30
0.0
 11
31.846227
 21
-4.852502999999996
 31
0.0
  0
ENDBLK
  5
2481D
330
24814
100
AcDbEntity
  8
0
100
AcDbBlockEnd
  0
BLOCK
  5
2481F
330
2481E
100
AcDbEntity
  8
0
100
AcDbBlockBegin
  2
*U7
 70
     1
 10
0.0
 20
0.0
 30
0.0
  3
*U7
  1
*IGES
  0
TEXT
  5
24820
330
2481E
100
AcDbEntity
  8
12
100
AcDbText
 10
17.346227
 20
36.182651
 30
0.0
 40
3.0
  1
89.4
 50
90.0
 41
0.7923886923076923
  7
SANDVIK_STYLE
 72
     5
 11
17.346227
 21
43.540546
 31
0.0
100
AcDbText
  0
INSERT
  5
24821
330
2481E
100
AcDbEntity
  8
12
100
AcDbBlockReference
  2
IGES_214_02
 10
18.84622699999999
 20
84.5757
 30
0.0
 41
3.0
 42
0.7899149999999999
 43
3.0
 50
90.0
  0
LINE
  5
24822
330
2481E
100
AcDbEntity
  8
12
100
AcDbLine
 10
18.84622699999999
 20
81.57569999999997
 30
0.0
 11
18.84622699999999
 21
39.861599
 31
0.0
  0
INSERT
  5
24823
330
2481E
100
AcDbEntity
  8
12
100
AcDbBlockReference
  2
IGES_214_02
 10
18.84622699999999
 20
-4.852502999999996
 30
0.0
 41
3.0
 42
0.7899149999999999
 43
3.0
 50
270.0
  0
LINE
  5
24824
330
2481E
100
AcDbEntity
  8
12
100
AcDbLine
 10
18.84622699999999
 20
-1.852502999999995
 30
0.0
 11
18.84622699999999
 21
39.861599
 31
0.0
  0
LINE
  5
24825
330
2481E
100
AcDbEntity
  8
12
100
AcDbLine
 10
2.971226999999998
 20
84.5757
 30
0.0
 11
21.84622699999999
 21
84.5757
 31
0.0
  0
LINE
  5
24826
330
2481E
100
AcDbEntity
  8
12
100
AcDbLine
 10
8.846227
 20
-4.852502999999996
 30
0.0
 11
21.84622699999999
 21
-4.852502999999996
 31
0.0
  0
ENDBLK
  5
24827
330
2481E
100
AcDbEntity
  8
0
100
AcDbBlockEnd
  0
BLOCK
  5
24829
330
24828
100
AcDbEntity
  8
0
100
AcDbBlockBegin
  2
*U8
 70
     1
 10
0.0
 20
0.0
 30
0.0
  3
*U8
  1
*IGES
  0
TEXT
  5
2482A
330
24828
100
AcDbEntity
  8
20
100
AcDbText
 10
-35.33751099999999
 20
-19.35182
 30
0.0
 40
3.0
  1
91%%d0'
 50
314.4999999313378
 41
0.8423444748790746
  7
SANDVIK_STYLE
 72
     5
 11
-29.77081599999999
 21
-25.01653
 31
0.0
100
AcDbText
  0
INSERT
  5
2482B
330
24828
100
AcDbEntity
  8
20
100
AcDbBlockReference
  2
IGES_214_02
 10
-41.296871
 20
-4.003434999999996
 30
0.0
 41
3.0
 42
0.7899149999999999
 43
3.0
 50
92.210187
  0
ARC
  5
2482C
330
24828
100
AcDbEntity
  8
20
100
AcDbCircle
 10
-14.528773
 20
-4.470673999999998
 30
0.0
 40
26.772175
100
AcDbArc
 50
185.420373
 51
224.5
  0
INSERT
  5
2482D
330
24828
100
AcDbEntity
  8
20
100
AcDbBlockReference
  2
IGES_214_02
 10
-14.528773
 20
-31.242849
 30
0.0
 41
3.0
 42
0.7899149999999999
 43
3.0
 50
356.789814
  0
ARC
  5
2482E
330
24828
100
AcDbEntity
  8
20
100
AcDbCircle
 10
-14.528773
 20
-4.470673999999998
 30
0.0
 40
26.772175
100
AcDbArc
 50
224.5
 51
263.579627
  0
LINE
  5
2482F
330
24828
100
AcDbEntity
  8
20
100
AcDbLine
 10
-16.153545
 20
-4.442312999999998
 30
0.0
 11
-44.296414
 21
-3.951076999999998
 31
0.0
  0
LINE
  5
24830
330
24828
100
AcDbEntity
  8
20
100
AcDbLine
 10
-14.528773
 20
-13.64417
 30
0.0
 11
-14.528773
 21
-34.24284899999999
 31
0.0
  0
ENDBLK
  5
24831
330
24828
100
AcDbEntity
  8
0
100
AcDbBlockEnd
  0
BLOCK
  5
24833
330
24832
100
AcDbEntity
  8
0
100
AcDbBlockBegin
  2
DVIEWBLOCK
 70
     0
 10
0.0
 20
0.0
 30
0.0
  3
DVIEWBLOCK
  1

  0
3DFACE
  5
24834
330
24832
100
AcDbEntity
  8
IGES
100
AcDbFace
 10
0.1
 20
0.1
 30
0.0
 11
0.9
 21
0.1
 31
0.0
 12
0.9
 22
0.9
 32
0.0
 13
0.1
 23
0.9
 33
0.0
  0
3DFACE
  5
24835
330
24832
100
AcDbEntity
  8
IGES
100
AcDbFace
 10
0.1
 20
0.1
 30
0.0
 11
0.1
 21
0.1
 31
0.595
 12
0.2
 22
0.1
 32
0.4
 13
0.2
 23
0.1
 33
0.0
 70
    10
  0
3DFACE
  5
24836
330
24832
100
AcDbEntity
  8
IGES
100
AcDbFace
 10
0.2
 20
0.1
 30
0.4
 11
0.1
 21
0.1
 31
0.595
 12
0.9
 22
0.1
 32
0.595
 13
0.4
 23
0.1
 33
0.4
 70
     5
  0
3DFACE
  5
24837
330
24832
100
AcDbEntity
  8
IGES
100
AcDbFace
 10
0.4
 20
0.1
 30
0.0
 11
0.4
 21
0.1
 31
0.4
 12
0.9
 22
0.1
 32
0.595
 13
0.9
 23
0.1
 33
0.0
 70
    14
  0
3DFACE
  5
24838
330
24832
100
AcDbEntity
  8
IGES
100
AcDbFace
 10
0.2
 20
0.1
 30
0.005
 11
0.2
 21
0.1
 31
0.4
 12
0.34
 22
0.24
 32
0.4
 13
0.34
 23
0.24
 33
0.005
 70
     1
  0
3DFACE
  5
24839
330
24832
100
AcDbEntity
  8
IGES
100
AcDbFace
 10
0.9
 20
0.1
 30
0.0
 11
0.9
 21
0.1
 31
0.595
 12
0.9
 22
0.5
 32
0.9949999999999999
 13
0.9
 23
0.3
 33
0.4
 70
    12
  0
3DFACE
  5
2483A
330
24832
100
AcDbEntity
  8
IGES
100
AcDbFace
 10
0.9
 20
0.3
 30
0.4
 11
0.9
 21
0.5
 31
0.9949999999999999
 12
0.9
 22
0.9
 32
0.595
 13
0.9
 23
0.7
 33
0.4
 70
     5
  0
3DFACE
  5
2483B
330
24832
100
AcDbEntity
  8
IGES
100
AcDbFace
 10
0.9
 20
0.7
 30
0.4
 11
0.9
 21
0.9
 31
0.595
 12
0.9
 22
0.9
 32
0.0
 13
0.9
 23
0.7
 33
0.2
 70
     7
  0
3DFACE
  5
2483C
330
24832
100
AcDbEntity
  8
IGES
100
AcDbFace
 10
0.9
 20
0.7
 30
0.2
 11
0.9
 21
0.9
 31
0.0
 12
0.9
 22
0.1
 32
0.0
 13
0.9
 23
0.3
 33
0.2
 70
     7
  0
3DFACE
  5
2483D
330
24832
100
AcDbEntity
  8
IGES
100
AcDbFace
 10
0.9
 20
0.3
 30
0.2
 11
0.9
 21
0.3
 31
0.2
 12
0.9
 22
0.1
 32
0.0
 13
0.9
 23
0.3
 33
0.4
 70
     7
  0
3DFACE
  5
2483E
330
24832
100
AcDbEntity
  8
IGES
100
AcDbFace
 10
0.9
 20
0.9
 30
0.0
 11
0.9
 21
0.9
 31
0.595
 12
0.1
 22
0.9
 32
0.595
 13
0.1
 23
0.9
 33
0.0
 70
    12
  0
3DFACE
  5
2483F
330
24832
100
AcDbEntity
  8
IGES
100
AcDbFace
 10
0.1
 20
0.9
 30
0.0
 11
0.1
 21
0.9
 31
0.595
 12
0.1
 22
0.5
 32
0.9949999999999999
 13
0.1
 23
0.5
 33
0.0
 70
    12
  0
3DFACE
  5
24840
330
24832
100
AcDbEntity
  8
IGES
100
AcDbFace
 10
0.1
 20
0.5
 30
0.0
 11
0.1
 21
0.5
 31
0.9949999999999999
 12
0.1
 22
0.1
 32
0.595
 13
0.1
 23
0.1
 33
0.0
 70
    13
  0
3DFACE
  5
24841
330
24832
100
AcDbEntity
  8
IGES
100
AcDbFace
 10
0.2
 20
0.6
 30
0.9
 11
0.2
 21
0.6
 31
1.0
 12
0.3
 22
0.6
 32
1.0
 13
0.3
 23
0.6
 33
0.9
 70
     4
  0
3DFACE
  5
24842
330
24832
100
AcDbEntity
  8
IGES
100
AcDbFace
 10
0.3
 20
0.6
 30
0.9
 11
0.3
 21
0.6
 31
1.0
 12
0.3
 22
0.7
 32
1.0
 13
0.3
 23
0.7
 33
0.8
 70
     4
  0
3DFACE
  5
24843
330
24832
100
AcDbEntity
  8
IGES
100
AcDbFace
 10
0.3
 20
0.7
 30
0.8
 11
0.3
 21
0.7
 31
1.0
 12
0.2
 22
0.7
 32
1.0
 13
0.2
 23
0.7
 33
0.8
 70
     4
  0
3DFACE
  5
24844
330
24832
100
AcDbEntity
  8
IGES
100
AcDbFace
 10
0.2
 20
0.7
 30
0.8
 11
0.2
 21
0.7
 31
1.0
 12
0.2
 22
0.6
 32
1.0
 13
0.2
 23
0.6
 33
0.9
 70
     4
  0
3DFACE
  5
24845
330
24832
100
AcDbEntity
  8
IGES
100
AcDbFace
 10
0.0
 20
0.0
 30
0.5
 11
1.0
 21
0.0
 31
0.5
 12
1.0
 22
0.5
 32
1.0
 13
0.0
 23
0.5
 33
1.0
  0
3DFACE
  5
24846
330
24832
100
AcDbEntity
  8
IGES
100
AcDbFace
 10
0.0
 20
0.5
 30
1.0
 11
1.0
 21
0.5
 31
1.0
 12
1.0
 22
1.0
 32
0.5
 13
0.0
 23
1.0
 33
0.5
 70
     1
  0
ENDBLK
  5
24847
330
24832
100
AcDbEntity
  8
0
100
AcDbBlockEnd
  0
BLOCK
  5
24849
330
24848
100
AcDbEntity
  8
0
100
AcDbBlockBegin
  2
*D10
 70
     1
 10
0.0
 20
0.0
 30
0.0
  3
*D10
  1

  0
LINE
  5
2484A
330
24848
100
AcDbEntity
  8
0
100
AcDbLine
 10
-14.528773
 20
-14.64417
 30
0.0
 11
-14.528773
 21
-29.852503
 31
0.0
  0
LINE
  5
2484B
330
24848
100
AcDbEntity
  8
0
100
AcDbLine
 10
7.346226999999997
 20
-7.352502999999997
 30
0.0
 11
7.346226999999997
 21
-29.852503
 31
0.0
  0
LINE
  5
2484C
330
24848
100
AcDbEntity
  8
0
100
AcDbLine
 10
-11.52877299999999
 20
-27.35250300000001
 30
0.0
 11
4.346226999999998
 21
-27.35250300000001
 31
0.0
  0
SOLID
  5
2484D
330
24848
100
AcDbEntity
  8
0
100
AcDbTrace
 10
-11.52877299999999
 20
-26.852503
 30
0.0
 11
-11.52877299999999
 21
-27.852503
 31
0.0
 12
-14.528773
 22
-27.35250300000001
 32
0.0
 13
-14.528773
 23
-27.35250300000001
 33
0.0
  0
SOLID
  5
2484E
330
24848
100
AcDbEntity
  8
0
100
AcDbTrace
 10
4.346226999999998
 20
-26.852503
 30
0.0
 11
4.346226999999998
 21
-27.852503
 31
0.0
 12
7.346226999999997
 22
-27.35250300000001
 32
0.0
 13
7.346226999999997
 23
-27.35250300000001
 33
0.0
  0
TEXT
  5
2484F
330
24848
100
AcDbEntity
  8
0
100
AcDbText
 10
-6.019844428571428
 20
-25.85250299999999
 30
0.0
 40
3.0
  1
22
  7
SANDVIK_STYLE
 72
     1
 11
-3.591273
 21
-24.35250299999999
 31
0.0
100
AcDbText
 73
     2
  0
POINT
  5
24850
330
24848
100
AcDbEntity
  8
DEFPOINTS
100
AcDbPoint
 10
-14.528773
 20
-12.14417
 30
0.0
  0
POINT
  5
24851
330
24848
100
AcDbEntity
  8
DEFPOINTS
100
AcDbPoint
 10
7.346226999999997
 20
-4.852502999999996
 30
0.0
  0
POINT
  5
24852
330
24848
100
AcDbEntity
  8
DEFPOINTS
100
AcDbPoint
 10
7.346226999999997
 20
-27.35250300000001
 30
0.0
  0
ENDBLK
  5
24853
330
24848
100
AcDbEntity
  8
0
100
AcDbBlockEnd
  0
BLOCK
  5
24855
330
24854
100
AcDbEntity
  8
0
100
AcDbBlockBegin
  2
*D11
 70
     1
 10
0.0
 20
0.0
 30
0.0
  3
*D11
  1

  0
LINE
  5
24856
330
24854
100
AcDbEntity
  8
0
100
AcDbLine
 10
-34.528773
 20
107.647497
 30
0.0
 11
-34.528773
 21
137.1474969999999
 31
0.0
  0
LINE
  5
24857
330
24854
100
AcDbEntity
  8
0
100
AcDbLine
 10
5.471226999999997
 20
107.647497
 30
0.0
 11
5.471226999999997
 21
137.1474969999999
 31
0.0
  0
LINE
  5
24858
330
24854
100
AcDbEntity
  8
0
100
AcDbLine
 10
-31.528773
 20
134.6474969999999
 30
0.0
 11
2.471226999999998
 21
134.6474969999999
 31
0.0
  0
SOLID
  5
24859
330
24854
100
AcDbEntity
  8
0
100
AcDbTrace
 10
-31.528773
 20
135.1474969999999
 30
0.0
 11
-31.528773
 21
134.1474969999999
 31
0.0
 12
-34.528773
 22
134.6474969999999
 32
0.0
 13
-34.528773
 23
134.6474969999999
 33
0.0
  0
SOLID
  5
2485A
330
24854
100
AcDbEntity
  8
0
100
AcDbTrace
 10
2.471226999999998
 20
135.1474969999999
 30
0.0
 11
2.471226999999998
 21
134.1474969999999
 31
0.0
 12
5.471226999999997
 22
134.6474969999999
 32
0.0
 13
5.471226999999997
 23
134.6474969999999
 33
0.0
  0
TEXT
  5
2485B
330
24854
100
AcDbEntity
  8
0
100
AcDbText
 10
-20.31448728571429
 20
136.1474969999999
 30
0.0
 40
3.0
  1
D=40
  7
SANDVIK_STYLE
 72
     1
 11
-14.528773
 21
137.6474969999999
 31
0.0
100
AcDbText
 73
     2
  0
POINT
  5
2485C
330
24854
100
AcDbEntity
  8
DEFPOINTS
100
AcDbPoint
 10
-34.528773
 20
105.147497
 30
0.0
  0
POINT
  5
2485D
330
24854
100
AcDbEntity
  8
DEFPOINTS
100
AcDbPoint
 10
5.471226999999997
 20
105.147497
 30
0.0
  0
POINT
  5
2485E
330
24854
100
AcDbEntity
  8
DEFPOINTS
100
AcDbPoint
 10
5.471226999999997
 20
134.6474969999999
 30
0.0
  0
ENDBLK
  5
2485F
330
24854
100
AcDbEntity
  8
0
100
AcDbBlockEnd
  0
BLOCK
  5
24861
330
24860
100
AcDbEntity
  8
0
100
AcDbBlockBegin
  2
*D12
 70
     1
 10
0.0
 20
0.0
 30
0.0
  3
*D12
  1

  0
LINE
  5
24862
330
24860
100
AcDbEntity
  8
0
100
AcDbLine
 10
-30.528773
 20
82.0757
 30
0.0
 11
-30.528773
 21
40.85066099999997
 31
0.0
  0
LINE
  5
24863
330
24860
100
AcDbEntity
  8
0
100
AcDbLine
 10
1.471227
 20
82.0757
 30
0.0
 11
1.471227
 21
40.85066099999997
 31
0.0
  0
LINE
  5
24864
330
24860
100
AcDbEntity
  8
0
100
AcDbLine
 10
-27.52877299999999
 20
43.35066099999997
 30
0.0
 11
-1.528772999999999
 21
43.35066099999997
 31
0.0
  0
SOLID
  5
24865
330
24860
100
AcDbEntity
  8
0
100
AcDbTrace
 10
-27.52877299999999
 20
43.85066099999998
 30
0.0
 11
-27.52877299999999
 21
42.85066099999997
 31
0.0
 12
-30.528773
 22
43.35066099999997
 32
0.0
 13
-30.528773
 23
43.35066099999997
 33
0.0
  0
SOLID
  5
24866
330
24860
100
AcDbEntity
  8
0
100
AcDbTrace
 10
-1.528772999999999
 20
43.85066099999998
 30
0.0
 11
-1.528772999999999
 21
42.85066099999997
 31
0.0
 12
1.471227
 22
43.35066099999997
 32
0.0
 13
1.471227
 23
43.35066099999997
 33
0.0
  0
TEXT
  5
24867
330
24860
100
AcDbEntity
  8
0
100
AcDbText
 10
-20.60471242857143
 20
44.85066099999998
 30
0.0
 40
3.0
  1
%%c32.0
  7
SANDVIK_STYLE
 72
     1
 11
-14.676141
 21
46.35066099999998
 31
0.0
100
AcDbText
 73
     2
  0
POINT
  5
24868
330
24860
100
AcDbEntity
  8
DEFPOINTS
100
AcDbPoint
 10
-30.528773
 20
84.5757
 30
0.0
  0
POINT
  5
24869
330
24860
100
AcDbEntity
  8
DEFPOINTS
100
AcDbPoint
 10
1.471227
 20
84.5757
 30
0.0
  0
POINT
  5
2486A
330
24860
100
AcDbEntity
  8
DEFPOINTS
100
AcDbPoint
 10
1.471227
 20
43.35066099999997
 30
0.0
  0
ENDBLK
  5
2486B
330
24860
100
AcDbEntity
  8
0
100
AcDbBlockEnd
  0
BLOCK
  5
2486D
330
2486C
100
AcDbEntity
  8
0
100
AcDbBlockBegin
  2
*D13
 70
     1
 10
0.0
 20
0.0
 30
0.0
  3
*D13
  1

  0
LINE
  5
2486E
330
2486C
100
AcDbEntity
  8
0
100
AcDbLine
 10
7.971226999999997
 20
105.147497
 30
0.0
 11
31.346227
 21
105.147497
 31
0.0
  0
LINE
  5
2486F
330
2486C
100
AcDbEntity
  8
0
100
AcDbLine
 10
9.846227
 20
-4.852502999999996
 30
0.0
 11
31.346227
 21
-4.852502999999996
 31
0.0
  0
LINE
  5
24870
330
2486C
100
AcDbEntity
  8
0
100
AcDbLine
 10
28.846227
 20
102.147497
 30
0.0
 11
28.846227
 21
-1.852502999999995
 31
0.0
  0
SOLID
  5
24871
330
2486C
100
AcDbEntity
  8
0
100
AcDbTrace
 10
28.346227
 20
102.147497
 30
0.0
 11
29.346227
 21
102.147497
 31
0.0
 12
28.846227
 22
105.147497
 32
0.0
 13
28.846227
 23
105.147497
 33
0.0
  0
SOLID
  5
24872
330
2486C
100
AcDbEntity
  8
0
100
AcDbTrace
 10
28.346227
 20
-1.852502999999995
 30
0.0
 11
29.346227
 21
-1.852502999999995
 31
0.0
 12
28.846227
 22
-4.852502999999996
 32
0.0
 13
28.846227
 23
-4.852502999999996
 33
0.0
  0
TEXT
  5
24873
330
2486C
100
AcDbEntity
  8
0
100
AcDbText
 10
27.34622681050711
 20
44.71892551906868
 30
0.0
 40
3.0
  1
110.0
 50
89.99999800000002
  7
SANDVIK_STYLE
 72
     1
 11
25.846227
 21
50.14749699999999
 31
0.0
100
AcDbText
 73
     2
  0
POINT
  5
24874
330
2486C
100
AcDbEntity
  8
DEFPOINTS
100
AcDbPoint
 10
5.471226999999997
 20
105.147497
 30
0.0
  0
POINT
  5
24875
330
2486C
100
AcDbEntity
  8
DEFPOINTS
100
AcDbPoint
 10
7.346226999999997
 20
-4.852502999999996
 30
0.0
  0
POINT
  5
24876
330
2486C
100
AcDbEntity
  8
DEFPOINTS
100
AcDbPoint
 10
28.846227
 20
-4.852502999999996
 30
0.0
  0
ENDBLK
  5
24877
330
2486C
100
AcDbEntity
  8
0
100
AcDbBlockEnd
  0
BLOCK
  5
24879
330
24878
100
AcDbEntity
  8
0
100
AcDbBlockBegin
  2
*D14
 70
     1
 10
0.0
 20
0.0
 30
0.0
  3
*D14
  1

  0
LINE
  5
2487A
330
24878
100
AcDbEntity
  8
0
100
AcDbLine
 10
3.971226999999998
 20
84.5757
 30
0.0
 11
21.34622699999999
 21
84.5757
 31
0.0
  0
LINE
  5
2487B
330
24878
100
AcDbEntity
  8
0
100
AcDbLine
 10
9.846227
 20
-4.852502999999996
 30
0.0
 11
21.34622699999999
 21
-4.852502999999996
 31
0.0
  0
LINE
  5
2487C
330
24878
100
AcDbEntity
  8
0
100
AcDbLine
 10
18.84622699999999
 20
81.57569999999997
 30
0.0
 11
18.84622699999999
 21
-1.852502999999995
 31
0.0
  0
SOLID
  5
2487D
330
24878
100
AcDbEntity
  8
0
100
AcDbTrace
 10
18.34622699999999
 20
81.57569999999997
 30
0.0
 11
19.346227
 21
81.57569999999997
 31
0.0
 12
18.84622699999999
 22
84.5757
 32
0.0
 13
18.84622699999999
 23
84.5757
 33
0.0
  0
SOLID
  5
2487E
330
24878
100
AcDbEntity
  8
0
100
AcDbTrace
 10
18.34622699999999
 20
-1.852502999999995
 30
0.0
 11
19.346227
 21
-1.852502999999995
 31
0.0
 12
18.84622699999999
 22
-4.852502999999996
 32
0.0
 13
18.84622699999999
 23
-4.852502999999996
 33
0.0
  0
TEXT
  5
2487F
330
24878
100
AcDbEntity
  8
0
100
AcDbText
 10
17.3462268379337
 20
35.21874180478298
 30
0.0
 40
3.0
  1
89.4
 50
89.99999800000002
  7
SANDVIK_STYLE
 72
     1
 11
15.84622699999999
 21
39.861599
 31
0.0
100
AcDbText
 73
     2
  0
POINT
  5
24880
330
24878
100
AcDbEntity
  8
DEFPOINTS
100
AcDbPoint
 10
1.471227
 20
84.5757
 30
0.0
  0
POINT
  5
24881
330
24878
100
AcDbEntity
  8
DEFPOINTS
100
AcDbPoint
 10
7.346226999999997
 20
-4.852502999999996
 30
0.0
  0
POINT
  5
24882
330
24878
100
AcDbEntity
  8
DEFPOINTS
100
AcDbPoint
 10
18.84622699999999
 20
-4.852502999999996
 30
0.0
  0
ENDBLK
  5
24883
330
24878
100
AcDbEntity
  8
0
100
AcDbBlockEnd
  0
BLOCK
  5
24885
330
24884
100
AcDbEntity
  8
0
100
AcDbBlockBegin
  2
*D15
 70
     1
 10
0.0
 20
0.0
 30
0.0
  3
*D15
  1

  0
LINE
  5
24886
330
24884
100
AcDbEntity
  8
0
100
AcDbLine
 10
-17.153392
 20
-4.424859999999998
 30
0.0
 11
-43.79648999999999
 21
-3.959799999999998
 31
0.0
  0
LINE
  5
24887
330
24884
100
AcDbEntity
  8
0
100
AcDbLine
 10
-14.528773
 20
-14.64417
 30
0.0
 11
-14.528773
 21
-33.742849
 31
0.0
  0
ARC
  5
24888
330
24884
100
AcDbEntity
  8
0
100
AcDbCircle
 10
-14.528773
 20
-4.470673999999998
 30
0.0
 40
26.772175
100
AcDbArc
 50
185.423729
 51
212.957122
  0
ARC
  5
24889
330
24884
100
AcDbEntity
  8
0
100
AcDbCircle
 10
-14.528773
 20
-4.470673999999998
 30
0.0
 40
26.772175
100
AcDbArc
 50
236.0428699999999
 51
263.576264
  0
SOLID
  5
2488A
330
24884
100
AcDbEntity
  8
0
100
AcDbTrace
 10
-41.680714
 20
-7.020492999999999
 30
0.0
 11
-40.681459
 21
-6.981899
 31
0.0
 12
-41.29686999999999
 22
-4.003430999999999
 32
0.0
 13
-41.29686999999999
 23
-4.003430999999999
 33
0.0
  0
SOLID
  5
2488B
330
24884
100
AcDbEntity
  8
0
100
AcDbTrace
 10
-17.496046
 20
-30.57554899999999
 30
0.0
 11
-17.552075
 21
-31.573978
 31
0.0
 12
-14.528773
 22
-31.242849
 32
0.0
 13
-14.528773
 23
-31.242849
 33
0.0
  0
TEXT
  5
2488C
330
24884
100
AcDbEntity
  8
0
100
AcDbText
 10
-37.99820220543058
 20
-20.92443549329435
 30
0.0
 40
3.0
  1
91%%d0'
 50
314.5
  7
SANDVIK_STYLE
 72
     1
 11
-33.62404
 21
-23.235538
 31
0.0
100
AcDbText
 73
     2
  0
POINT
  5
2488D
330
24884
100
AcDbEntity
  8
DEFPOINTS
100
AcDbPoint
 10
-14.529773
 20
-31.242849
 30
0.0
  0
POINT
  5
2488E
330
24884
100
AcDbEntity
  8
DEFPOINTS
100
AcDbPoint
 10
-14.528773
 20
-4.470673999999998
 30
-2.075718
  0
POINT
  5
2488F
330
24884
100
AcDbEntity
  8
DEFPOINTS
100
AcDbPoint
 10
-14.528773
 20
-12.14417
 30
-2.075718
  0
POINT
  5
24890
330
24884
100
AcDbEntity
  8
DEFPOINTS
100
AcDbPoint
 10
-14.528773
 20
-4.470673999999998
 30
-2.075718
  0
POINT
  5
24891
330
24884
100
AcDbEntity
  8
DEFPOINTS
100
AcDbPoint
 10
-14.653773
 20
-4.468491999999998
 30
-2.075718
  0
ENDBLK
  5
24892
330
24884
100
AcDbEntity
  8
0
100
AcDbBlockEnd
  0
BLOCK
  5
24894
330
24893
100
AcDbEntity
  8
0
100
AcDbBlockBegin
  2
*D16
 70
     1
 10
0.0
 20
0.0
 30
0.0
  3
*D16
  1

  0
LINE
  5
24895
330
24893
100
AcDbEntity
  8
20
100
AcDbLine
 10
-14.528773
 20
-14.64417
 30
0.0
 11
-14.528773
 21
-29.852503
 31
0.0
  0
LINE
  5
24896
330
24893
100
AcDbEntity
  8
20
100
AcDbLine
 10
7.346226999999997
 20
-7.352502999999997
 30
0.0
 11
7.346226999999997
 21
-29.852503
 31
0.0
  0
LINE
  5
24897
330
24893
100
AcDbEntity
  8
20
100
AcDbLine
 10
-11.528773
 20
-27.35250300000001
 30
0.0
 11
4.346226999999998
 21
-27.35250300000001
 31
0.0
  0
TEXT
  5
24898
330
24893
100
AcDbEntity
  8
1
100
AcDbText
 10
-6.019844428571428
 20
-25.852503
 30
0.0
 40
3.0
  1
22
  7
TDM_STYLE
100
AcDbText
  0
SOLID
  5
24899
330
24893
100
AcDbEntity
  8
20
100
AcDbTrace
 10
-11.528773
 20
-26.852503
 30
0.0
 11
-11.528773
 21
-27.852503
 31
0.0
 12
-14.528773
 22
-27.35250300000001
 32
0.0
 13
-14.528773
 23
-27.35250300000001
 33
0.0
  0
SOLID
  5
2489A
330
24893
100
AcDbEntity
  8
20
100
AcDbTrace
 10
4.346226999999998
 20
-26.852503
 30
0.0
 11
4.346226999999998
 21
-27.852503
 31
0.0
 12
7.346226999999997
 22
-27.35250300000001
 32
0.0
 13
7.346226999999997
 23
-27.35250300000001
 33
0.0
  0
POINT
  5
2489B
330
24893
100
AcDbEntity
  8
DEFPOINTS
 62
     0
100
AcDbPoint
 10
-14.528773
 20
-12.14417
 30
0.0
  0
POINT
  5
2489C
330
24893
100
AcDbEntity
  8
DEFPOINTS
 62
     0
100
AcDbPoint
 10
7.346226999999997
 20
-4.852502999999996
 30
0.0
  0
POINT
  5
2489D
330
24893
100
AcDbEntity
  8
DEFPOINTS
 62
     0
100
AcDbPoint
 10
7.346226999999997
 20
-27.35250300000001
 30
0.0
  0
ENDBLK
  5
2489E
330
24893
100
AcDbEntity
  8
0
100
AcDbBlockEnd
  0
BLOCK
  5
248A0
330
2489F
100
AcDbEntity
  8
0
100
AcDbBlockBegin
  2
*D17
 70
     1
 10
0.0
 20
0.0
 30
0.0
  3
*D17
  1

  0
LINE
  5
248A1
330
2489F
100
AcDbEntity
  8
12
100
AcDbLine
 10
-34.528773
 20
107.647497
 30
0.0
 11
-34.528773
 21
137.1474969999999
 31
0.0
  0
LINE
  5
248A2
330
2489F
100
AcDbEntity
  8
12
100
AcDbLine
 10
5.471226999999997
 20
107.647497
 30
0.0
 11
5.471226999999997
 21
137.1474969999999
 31
0.0
  0
LINE
  5
248A3
330
2489F
100
AcDbEntity
  8
12
100
AcDbLine
 10
-31.528773
 20
134.6474969999999
 30
0.0
 11
2.471226999999998
 21
134.6474969999999
 31
0.0
  0
TEXT
  5
248A4
330
2489F
100
AcDbEntity
  8
1
100
AcDbText
 10
-20.31448728571428
 20
136.1474969999999
 30
0.0
 40
3.0
  1
D=40
  7
TDM_STYLE
100
AcDbText
  0
SOLID
  5
248A5
330
2489F
100
AcDbEntity
  8
12
100
AcDbTrace
 10
-31.528773
 20
135.1474969999999
 30
0.0
 11
-31.528773
 21
134.1474969999999
 31
0.0
 12
-34.528773
 22
134.6474969999999
 32
0.0
 13
-34.528773
 23
134.6474969999999
 33
0.0
  0
SOLID
  5
248A6
330
2489F
100
AcDbEntity
  8
12
100
AcDbTrace
 10
2.471226999999998
 20
135.1474969999999
 30
0.0
 11
2.471226999999998
 21
134.1474969999999
 31
0.0
 12
5.471226999999997
 22
134.6474969999999
 32
0.0
 13
5.471226999999997
 23
134.6474969999999
 33
0.0
  0
POINT
  5
248A7
330
2489F
100
AcDbEntity
  8
DEFPOINTS
 62
     0
100
AcDbPoint
 10
-34.528773
 20
105.147497
 30
0.0
  0
POINT
  5
248A8
330
2489F
100
AcDbEntity
  8
DEFPOINTS
 62
     0
100
AcDbPoint
 10
5.471226999999997
 20
105.147497
 30
0.0
  0
POINT
  5
248A9
330
2489F
100
AcDbEntity
  8
DEFPOINTS
 62
     0
100
AcDbPoint
 10
5.471226999999997
 20
134.6474969999999
 30
0.0
  0
ENDBLK
  5
248AA
330
2489F
100
AcDbEntity
  8
0
100
AcDbBlockEnd
  0
BLOCK
  5
248AC
330
248AB
100
AcDbEntity
  8
0
100
AcDbBlockBegin
  2
*D18
 70
     1
 10
0.0
 20
0.0
 30
0.0
  3
*D18
  1

  0
LINE
  5
248AD
330
248AB
100
AcDbEntity
  8
12
100
AcDbLine
 10
-30.528773
 20
82.0757
 30
0.0
 11
-30.528773
 21
40.85066099999997
 31
0.0
  0
LINE
  5
248AE
330
248AB
100
AcDbEntity
  8
12
100
AcDbLine
 10
1.471226999999999
 20
82.0757
 30
0.0
 11
1.471226999999995
 21
40.85066099999997
 31
0.0
  0
LINE
  5
248AF
330
248AB
100
AcDbEntity
  8
12
100
AcDbLine
 10
-27.528773
 20
43.35066099999997
 30
0.0
 11
-1.528772999999999
 21
43.35066099999997
 31
0.0
  0
INSERT
  5
248B0
330
248AB
100
AcDbEntity
  8
1
100
AcDbBlockReference
  2
*U19
 10
0.0
 20
0.0
 30
0.0
  0
SOLID
  5
248B1
330
248AB
100
AcDbEntity
  8
12
100
AcDbTrace
 10
-27.528773
 20
43.85066099999998
 30
0.0
 11
-27.528773
 21
42.85066099999997
 31
0.0
 12
-30.528773
 22
43.35066099999997
 32
0.0
 13
-30.528773
 23
43.35066099999997
 33
0.0
  0
SOLID
  5
248B2
330
248AB
100
AcDbEntity
  8
12
100
AcDbTrace
 10
-1.528772999999999
 20
43.85066099999998
 30
0.0
 11
-1.528772999999999
 21
42.85066099999997
 31
0.0
 12
1.471226999999995
 22
43.35066099999997
 32
0.0
 13
1.471226999999995
 23
43.35066099999997
 33
0.0
  0
POINT
  5
248B3
330
248AB
100
AcDbEntity
  8
DEFPOINTS
 62
     0
100
AcDbPoint
 10
-30.528773
 20
84.5757
 30
0.0
  0
POINT
  5
248B4
330
248AB
100
AcDbEntity
  8
DEFPOINTS
 62
     0
100
AcDbPoint
 10
1.471227
 20
84.5757
 30
0.0
  0
POINT
  5
248B5
330
248AB
100
AcDbEntity
  8
DEFPOINTS
 62
     0
100
AcDbPoint
 10
1.471226999999995
 20
43.35066099999997
 30
0.0
  0
ENDBLK
  5
248B6
330
248AB
100
AcDbEntity
  8
0
100
AcDbBlockEnd
  0
BLOCK
  5
248B8
330
248B7
100
AcDbEntity
  8
0
100
AcDbBlockBegin
  2
*U19
 70
     1
 10
0.0
 20
0.0
 30
0.0
  3
*U19
  1

  0
TEXT
  5
248B9
330
248B7
100
AcDbEntity
  8
1
100
AcDbText
 10
-20.60471242857143
 20
44.850661
 30
0.0
 40
3.0
  1
\U+2205
  7
TDM_STYLE
100
AcDbText
  0
TEXT
  5
248BA
330
248B7
100
AcDbEntity
  8
1
100
AcDbText
 10
-17.8904267142857
 20
44.850661
 30
0.0
 40
3.0
  1
32.0
  7
TDM_STYLE
100
AcDbText
  0
ENDBLK
  5
248BB
330
248B7
100
AcDbEntity
  8
0
100
AcDbBlockEnd
  0
BLOCK
  5
248BD
330
248BC
100
AcDbEntity
  8
0
100
AcDbBlockBegin
  2
*D20
 70
     1
 10
0.0
 20
0.0
 30
0.0
  3
*D20
  1

  0
LINE
  5
248BE
330
248BC
100
AcDbEntity
  8
20
100
AcDbLine
 10
7.971226999999997
 20
105.147497
 30
0.0
 11
31.34622700000003
 21
105.147497
 31
0.0
  0
LINE
  5
248BF
330
248BC
100
AcDbEntity
  8
20
100
AcDbLine
 10
9.846227
 20
-4.852502999999996
 30
0.0
 11
31.346227
 21
-4.852503000000004
 31
0.0
  0
LINE
  5
248C0
330
248BC
100
AcDbEntity
  8
20
100
AcDbLine
 10
28.84622700000002
 20
102.147497
 30
0.0
 11
28.846227
 21
-1.852503000000004
 31
0.0
  0
TEXT
  5
248C1
330
248BC
100
AcDbEntity
  8
1
100
AcDbText
 10
27.3462268105071
 20
44.71892551906869
 30
0.0
 40
3.0
  1
110.0
 50
89.99999800000002
  7
TDM_STYLE
100
AcDbText
  0
SOLID
  5
248C2
330
248BC
100
AcDbEntity
  8
20
100
AcDbTrace
 10
28.34622700000002
 20
102.147497
 30
0.0
 11
29.34622700000002
 21
102.147497
 31
0.0
 12
28.84622700000003
 22
105.147497
 32
0.0
 13
28.84622700000003
 23
105.147497
 33
0.0
  0
SOLID
  5
248C3
330
248BC
100
AcDbEntity
  8
20
100
AcDbTrace
 10
28.346227
 20
-1.852503000000004
 30
0.0
 11
29.346227
 21
-1.852503000000004
 31
0.0
 12
28.846227
 22
-4.852503000000004
 32
0.0
 13
28.846227
 23
-4.852503000000004
 33
0.0
  0
POINT
  5
248C4
330
248BC
100
AcDbEntity
  8
DEFPOINTS
 62
     0
100
AcDbPoint
 10
5.471226999999997
 20
105.147497
 30
0.0
  0
POINT
  5
248C5
330
248BC
100
AcDbEntity
  8
DEFPOINTS
 62
     0
100
AcDbPoint
 10
7.346226999999997
 20
-4.852502999999996
 30
0.0
  0
POINT
  5
248C6
330
248BC
100
AcDbEntity
  8
DEFPOINTS
 62
     0
100
AcDbPoint
 10
28.846227
 20
-4.852503000000004
 30
0.0
  0
ENDBLK
  5
248C7
330
248BC
100
AcDbEntity
  8
0
100
AcDbBlockEnd
  0
BLOCK
  5
248C9
330
248C8
100
AcDbEntity
  8
0
100
AcDbBlockBegin
  2
*D21
 70
     1
 10
0.0
 20
0.0
 30
0.0
  3
*D21
  1

  0
LINE
  5
248CA
330
248C8
100
AcDbEntity
  8
12
100
AcDbLine
 10
3.971226999999998
 20
84.5757
 30
0.0
 11
21.34622700000001
 21
84.5757
 31
0.0
  0
LINE
  5
248CB
330
248C8
100
AcDbEntity
  8
12
100
AcDbLine
 10
9.846227
 20
-4.852502999999996
 30
0.0
 11
21.34622699999999
 21
-4.852503000000003
 31
0.0
  0
LINE
  5
248CC
330
248C8
100
AcDbEntity
  8
12
100
AcDbLine
 10
18.84622700000001
 20
81.57569999999997
 30
0.0
 11
18.84622699999999
 21
-1.852503000000002
 31
0.0
  0
TEXT
  5
248CD
330
248C8
100
AcDbEntity
  8
1
100
AcDbText
 10
17.34622683793371
 20
35.21874180478298
 30
0.0
 40
3.0
  1
89.4
 50
89.99999800000002
  7
TDM_STYLE
100
AcDbText
  0
SOLID
  5
248CE
330
248C8
100
AcDbEntity
  8
12
100
AcDbTrace
 10
18.34622700000001
 20
81.57569999999997
 30
0.0
 11
19.34622700000001
 21
81.57569999999997
 31
0.0
 12
18.84622700000001
 22
84.5757
 32
0.0
 13
18.84622700000001
 23
84.5757
 33
0.0
  0
SOLID
  5
248CF
330
248C8
100
AcDbEntity
  8
12
100
AcDbTrace
 10
18.34622699999999
 20
-1.852503000000002
 30
0.0
 11
19.346227
 21
-1.852503000000002
 31
0.0
 12
18.84622699999999
 22
-4.852503000000003
 32
0.0
 13
18.84622699999999
 23
-4.852503000000003
 33
0.0
  0
POINT
  5
248D0
330
248C8
100
AcDbEntity
  8
DEFPOINTS
 62
     0
100
AcDbPoint
 10
1.471227
 20
84.5757
 30
0.0
  0
POINT
  5
248D1
330
248C8
100
AcDbEntity
  8
DEFPOINTS
 62
     0
100
AcDbPoint
 10
7.346226999999997
 20
-4.852502999999996
 30
0.0
  0
POINT
  5
248D2
330
248C8
100
AcDbEntity
  8
DEFPOINTS
 62
     0
100
AcDbPoint
 10
18.84622699999999
 20
-4.852503000000003
 30
0.0
  0
ENDBLK
  5
248D3
330
248C8
100
AcDbEntity
  8
0
100
AcDbBlockEnd
  0
BLOCK
  5
248D5
330
248D4
100
AcDbEntity
  8
0
100
AcDbBlockBegin
  2
*D22
 70
     1
 10
0.0
 20
0.0
 30
0.0
  3
*D22
  1

  0
LINE
  5
248D6
330
248D4
100
AcDbEntity
  8
20
100
AcDbLine
 10
-17.15339219710418
 20
-4.424858647295343
 30
0.0
 11
-43.7964892470705
 21
-3.959776745191089
 31
0.0
  0
LINE
  5
248D7
330
248D4
100
AcDbEntity
  8
20
100
AcDbLine
 10
-14.528773
 20
-14.64416999999999
 30
0.0
 11
-14.52877300000001
 21
-33.74284901867609
 31
0.0
  0
ARC
  5
248D8
330
248D4
100
AcDbEntity
  8
20
100
AcDbCircle
 10
-14.52877299999999
 20
-4.470673999999997
 30
0.0
 40
26.77217501867609
100
AcDbArc
 50
185.4236828897387
 51
211.0782126881618
  0
ARC
  5
248D9
330
248D4
100
AcDbEntity
  8
20
100
AcDbCircle
 10
-14.52877299999999
 20
-4.470673999999997
 30
0.0
 40
26.77217501867609
100
AcDbArc
 50
237.921732248592
 51
263.5762635509137
  0
SOLID
  5
248DA
330
248D4
100
AcDbEntity
  8
20
100
AcDbTrace
 10
-41.68071595641168
 20
-7.020471966685492
 30
0.0
 11
-40.68146097699631
 21
-6.981878105598067
 31
0.0
 12
-41.29687004996631
 22
-4.003410097895745
 32
0.0
 13
-41.29687004996631
 23
-4.003410097895745
 33
0.0
  0
SOLID
  5
248DB
330
248D4
100
AcDbEntity
  8
20
100
AcDbTrace
 10
-17.49604637954993
 20
-30.57554946748912
 30
0.0
 11
-17.55207469995922
 21
-31.57397864740731
 31
0.0
 12
-14.528773
 22
-31.24284901867609
 32
0.0
 13
-14.528773
 23
-31.24284901867609
 33
0.0
  0
TEXT
  5
248DC
330
248D4
100
AcDbEntity
  8
20
100
AcDbText
 10
-39.624
 20
-28.5455
 30
0.0
 40
3.0
  1
91%%d0'
  7
TDM_STYLE
100
AcDbText
  0
POINT
  5
248DD
330
248D4
100
AcDbEntity
  8
DEFPOINTS
 62
     0
100
AcDbPoint
 10
-37.86834607545064
 20
-17.58607273150352
 30
0.0
  0
POINT
  5
248DE
330
248D4
100
AcDbEntity
  8
DEFPOINTS
 62
     0
100
AcDbPoint
 10
-14.528773
 20
-4.470673999999998
 30
-2.075718
  0
POINT
  5
248DF
330
248D4
100
AcDbEntity
  8
DEFPOINTS
 62
     0
100
AcDbPoint
 10
-14.528773
 20
-12.14416999999999
 30
-2.075718
  0
POINT
  5
248E0
330
248D4
100
AcDbEntity
  8
DEFPOINTS
 62
     0
100
AcDbPoint
 10
-14.528773
 20
-4.470673999999998
 30
-2.075718
  0
POINT
  5
248E1
330
248D4
100
AcDbEntity
  8
DEFPOINTS
 62
     0
100
AcDbPoint
 10
-14.653773
 20
-4.468491999999998
 30
-2.075718
  0
ENDBLK
  5
248E2
330
248D4
100
AcDbEntity
  8
0
100
AcDbBlockEnd
  0
BLOCK
  5
248E4
330
248E3
100
AcDbEntity
  8
0
100
AcDbBlockBegin
  2
*D23
 70
     1
 10
0.0
 20
0.0
 30
0.0
  3
*D23
  1

  0
LINE
  5
24C42
330
248E3
100
AcDbEntity
  8
20
 62
     0
370
    -2
100
AcDbLine
 10
118.653934
 20
1.265377999999987
 30
0.0
 11
132.112267
 21
1.265377999999982
 31
0.0
  0
LINE
  5
24C43
330
248E3
100
AcDbEntity
  8
20
 62
     0
370
    -2
100
AcDbLine
 10
111.362267
 20
23.14037799999999
 30
0.0
 11
132.112267
 21
23.14037799999999
 31
0.0
  0
LINE
  5
24C44
330
248E3
100
AcDbEntity
  8
20
 62
     0
370
    -2
100
AcDbLine
 10
130.862267
 20
3.765377999999982
 30
0.0
 11
130.862267
 21
20.64037799999999
 31
0.0
  0
SOLID
  5
24C45
330
248E3
100
AcDbEntity
  8
20
 62
     0
100
AcDbTrace
 10
130.4456003333333
 20
3.765377999999982
 30
0.0
 11
131.2789336666666
 21
3.765377999999982
 31
0.0
 12
130.862267
 22
1.265377999999982
 32
0.0
 13
130.862267
 23
1.265377999999982
 33
0.0
  0
SOLID
  5
24C46
330
248E3
100
AcDbEntity
  8
20
 62
     0
100
AcDbTrace
 10
130.4456003333333
 20
20.64037799999999
 30
0.0
 11
131.2789336666666
 21
20.64037799999999
 31
0.0
 12
130.862267
 22
23.14037799999999
 32
0.0
 13
130.862267
 23
23.14037799999999
 33
0.0
  0
MTEXT
  5
24C47
330
248E3
100
AcDbEntity
  8
20
 62
     0
100
AcDbMText
 10
128.487267
 20
12.20287799999999
 30
0.0
 40
3.5
 41
0.0
 71
     5
 72
     1
  1
22
  7
SIMPLEX
 11
0.0000000000000001
 21
1.0
 31
0.0
 73
     1
 44
1.0
1001
ACAD
1000
MTEXTBEGIN
1070
    73
1070
     1
1070
    44
1040
1.0
1070
    74
1070
     0
1000
MTEXTEND
  0
POINT
  5
24C48
330
248E3
100
AcDbEntity
  8
DEFPOINTS
 62
     0
100
AcDbPoint
 10
118.653934
 20
1.265377999999987
 30
0.0
  0
POINT
  5
24C49
330
248E3
100
AcDbEntity
  8
DEFPOINTS
 62
     0
100
AcDbPoint
 10
111.362267
 20
23.14037799999999
 30
0.0
  0
POINT
  5
24C4A
330
248E3
100
AcDbEntity
  8
DEFPOINTS
 62
     0
100
AcDbPoint
 10
130.862267
 20
23.14037799999999
 30
0.0
  0
ENDBLK
  5
248EE
330
248E3
100
AcDbEntity
  8
0
100
AcDbBlockEnd
  0
BLOCK
  5
248F0
330
248EF
100
AcDbEntity
  8
0
100
AcDbBlockBegin
  2
*D24
 70
     1
 10
0.0
 20
0.0
 30
0.0
  3
*D24
  1

  0
LINE
  5
24C39
330
248EF
100
AcDbEntity
  8
12
 62
     0
370
    -2
100
AcDbLine
 10
1.362267000000002
 20
-18.734622
 30
0.0
 11
-32.38773299999991
 21
-18.73462199999998
 31
0.0
  0
LINE
  5
24C3A
330
248EF
100
AcDbEntity
  8
12
 62
     0
370
    -2
100
AcDbLine
 10
1.362267000000002
 20
21.26537799999999
 30
0.0
 11
-32.3877329999999
 21
21.265378
 31
0.0
  0
LINE
  5
24C3B
330
248EF
100
AcDbEntity
  8
12
 62
     0
370
    -2
100
AcDbLine
 10
-31.13773299999991
 20
-16.23462199999999
 30
0.0
 11
-31.1377329999999
 21
18.765378
 31
0.0
  0
SOLID
  5
24C3C
330
248EF
100
AcDbEntity
  8
12
 62
     0
100
AcDbTrace
 10
-31.55439966666657
 20
-16.23462199999999
 30
0.0
 11
-30.72106633333324
 21
-16.23462199999999
 31
0.0
 12
-31.13773299999991
 22
-18.73462199999998
 32
0.0
 13
-31.13773299999991
 23
-18.73462199999998
 33
0.0
  0
SOLID
  5
24C3D
330
248EF
100
AcDbEntity
  8
12
 62
     0
100
AcDbTrace
 10
-31.55439966666657
 20
18.765378
 30
0.0
 11
-30.72106633333323
 21
18.765378
 31
0.0
 12
-31.1377329999999
 22
21.265378
 32
0.0
 13
-31.1377329999999
 23
21.265378
 33
0.0
  0
MTEXT
  5
24C3E
330
248EF
100
AcDbEntity
  8
12
 62
     0
100
AcDbMText
 10
-33.5127329999999
 20
1.265377999999998
 30
0.0
 40
3.5
 41
0.0
 71
     5
 72
     1
  1
D=40
  7
SIMPLEX
 11
0.0000000000000001
 21
1.0
 31
0.0
 73
     1
 44
1.0
1001
ACAD
1000
MTEXTBEGIN
1070
    73
1070
     1
1070
    44
1040
1.0
1070
    74
1070
     0
1000
MTEXTEND
  0
POINT
  5
24C3F
330
248EF
100
AcDbEntity
  8
DEFPOINTS
 62
     0
100
AcDbPoint
 10
1.362267000000002
 20
-18.734622
 30
0.0
  0
POINT
  5
24C40
330
248EF
100
AcDbEntity
  8
DEFPOINTS
 62
     0
100
AcDbPoint
 10
1.362267000000002
 20
21.26537799999999
 30
0.0
  0
POINT
  5
24C41
330
248EF
100
AcDbEntity
  8
DEFPOINTS
 62
     0
100
AcDbPoint
 10
-31.1377329999999
 20
21.265378
 30
0.0
  0
ENDBLK
  5
248FA
330
248EF
100
AcDbEntity
  8
0
100
AcDbBlockEnd
  0
BLOCK
  5
248FC
330
248FB
100
AcDbEntity
  8
0
100
AcDbBlockBegin
  2
*D25
 70
     1
 10
0.0
 20
0.0
 30
0.0
  3
*D25
  1

  0
LINE
  5
24C30
330
248FB
100
AcDbEntity
  8
12
 62
     0
370
    -2
100
AcDbLine
 10
21.93406400000001
 20
-14.73462200000001
 30
0.0
 11
61.40910300000001
 21
-14.73462200000002
 31
0.0
  0
LINE
  5
24C31
330
248FB
100
AcDbEntity
  8
12
 62
     0
370
    -2
100
AcDbLine
 10
21.93406400000001
 20
17.26537799999999
 30
0.0
 11
61.40910300000001
 21
17.26537799999998
 31
0.0
  0
LINE
  5
24C32
330
248FB
100
AcDbEntity
  8
12
 62
     0
370
    -2
100
AcDbLine
 10
60.15910300000001
 20
-12.23462200000002
 30
0.0
 11
60.15910300000001
 21
14.76537799999998
 31
0.0
  0
SOLID
  5
24C33
330
248FB
100
AcDbEntity
  8
12
 62
     0
100
AcDbTrace
 10
59.74243633333335
 20
-12.23462200000002
 30
0.0
 11
60.57576966666668
 21
-12.23462200000002
 31
0.0
 12
60.15910300000001
 22
-14.73462200000002
 32
0.0
 13
60.15910300000001
 23
-14.73462200000002
 33
0.0
  0
SOLID
  5
24C34
330
248FB
100
AcDbEntity
  8
12
 62
     0
100
AcDbTrace
 10
59.74243633333335
 20
14.76537799999998
 30
0.0
 11
60.57576966666668
 21
14.76537799999998
 31
0.0
 12
60.15910300000001
 22
17.26537799999998
 32
0.0
 13
60.15910300000001
 23
17.26537799999998
 33
0.0
  0
MTEXT
  5
24C35
330
248FB
100
AcDbEntity
  8
12
 62
     0
100
AcDbMText
 10
57.784103
 20
1.118009999999998
 30
0.0
 40
3.5
 41
0.0
 71
     5
 72
     1
  1
%%c32.0
  7
SIMPLEX
 11
0.0000000000000001
 21
1.0
 31
0.0
 73
     1
 44
1.0
1001
ACAD
1000
MTEXTBEGIN
1070
    73
1070
     1
1070
    44
1040
1.0
1070
    74
1070
     0
1000
MTEXTEND
  0
POINT
  5
24C36
330
248FB
100
AcDbEntity
  8
DEFPOINTS
 62
     0
100
AcDbPoint
 10
21.93406400000001
 20
-14.73462200000001
 30
0.0
  0
POINT
  5
24C37
330
248FB
100
AcDbEntity
  8
DEFPOINTS
 62
     0
100
AcDbPoint
 10
21.93406400000001
 20
17.26537799999999
 30
0.0
  0
POINT
  5
24C38
330
248FB
100
AcDbEntity
  8
DEFPOINTS
 62
     0
100
AcDbPoint
 10
60.15910300000001
 20
17.26537799999998
 30
0.0
  0
ENDBLK
  5
24906
330
248FB
100
AcDbEntity
  8
0
100
AcDbBlockEnd
  0
BLOCK
  5
24908
330
24907
100
AcDbEntity
  8
0
100
AcDbBlockBegin
  2
*D26
 70
     1
 10
0.0
 20
0.0
 30
0.0
  3
*D26
  1

  0
LINE
  5
24C26
330
24907
100
AcDbEntity
  8
20
 62
     0
370
    -2
100
AcDbLine
 10
1.362267000000002
 20
21.26537799999999
 30
0.0
 11
1.362267000000003
 21
42.890378
 31
0.0
  0
LINE
  5
24C27
330
24907
100
AcDbEntity
  8
20
 62
     0
370
    -2
100
AcDbLine
 10
111.362267
 20
23.14037799999999
 30
0.0
 11
111.362267
 21
42.890378
 31
0.0
  0
LINE
  5
24C28
330
24907
100
AcDbEntity
  8
20
 62
     0
370
    -2
100
AcDbLine
 10
3.862267000000002
 20
41.640378
 30
0.0
 11
53.987267
 21
41.640378
 31
0.0
  0
LINE
  5
24C29
330
24907
100
AcDbEntity
  8
20
 62
     0
370
    -2
100
AcDbLine
 10
108.862267
 20
41.640378
 30
0.0
 11
58.73726700000001
 21
41.640378
 31
0.0
  0
SOLID
  5
24C2A
330
24907
100
AcDbEntity
  8
20
 62
     0
100
AcDbTrace
 10
3.862267000000002
 20
42.05704466666666
 30
0.0
 11
3.862267000000002
 21
41.22371133333333
 31
0.0
 12
1.362267000000003
 22
41.640378
 32
0.0
 13
1.362267000000003
 23
41.640378
 33
0.0
  0
SOLID
  5
24C2B
330
24907
100
AcDbEntity
  8
20
 62
     0
100
AcDbTrace
 10
108.862267
 20
42.05704466666666
 30
0.0
 11
108.862267
 21
41.22371133333333
 31
0.0
 12
111.362267
 22
41.640378
 32
0.0
 13
111.362267
 23
41.640378
 33
0.0
  0
MTEXT
  5
24C2C
330
24907
100
AcDbEntity
  8
20
 62
     0
100
AcDbMText
 10
56.36226700000001
 20
41.640378
 30
0.0
 40
3.5
 41
0.0
 71
     5
 72
     1
  1
110.0
  7
SIMPLEX
 11
0.0000000349065848
 21
0.9999999999999994
 31
0.0
 73
     1
 44
1.0
1001
ACAD
1000
MTEXTBEGIN
1070
    73
1070
     1
1070
    44
1040
1.0
1070
    74
1070
     0
1000
MTEXTEND
  0
POINT
  5
24C2D
330
24907
100
AcDbEntity
  8
DEFPOINTS
 62
     0
100
AcDbPoint
 10
1.362267000000002
 20
21.26537799999999
 30
0.0
  0
POINT
  5
24C2E
330
24907
100
AcDbEntity
  8
DEFPOINTS
 62
     0
100
AcDbPoint
 10
111.362267
 20
23.14037799999999
 30
0.0
  0
POINT
  5
24C2F
330
24907
100
AcDbEntity
  8
DEFPOINTS
 62
     0
100
AcDbPoint
 10
111.362267
 20
41.640378
 30
0.0
  0
ENDBLK
  5
24913
330
24907
100
AcDbEntity
  8
0
100
AcDbBlockEnd
  0
BLOCK
  5
24915
330
24914
100
AcDbEntity
  8
0
100
AcDbBlockBegin
  2
*D27
 70
     1
 10
0.0
 20
0.0
 30
0.0
  3
*D27
  1

  0
LINE
  5
24C1C
330
24914
100
AcDbEntity
  8
12
 62
     0
370
    -2
100
AcDbLine
 10
21.93406400000001
 20
17.26537799999999
 30
0.0
 11
21.93406400000001
 21
32.89037799999999
 31
0.0
  0
LINE
  5
24C1D
330
24914
100
AcDbEntity
  8
12
 62
     0
370
    -2
100
AcDbLine
 10
111.362267
 20
23.14037799999999
 30
0.0
 11
111.362267
 21
32.89037799999999
 31
0.0
  0
LINE
  5
24C1E
330
24914
100
AcDbEntity
  8
12
 62
     0
370
    -2
100
AcDbLine
 10
24.43406400000001
 20
31.64037799999998
 30
0.0
 11
64.273165
 21
31.64037799999998
 31
0.0
  0
LINE
  5
24C1F
330
24914
100
AcDbEntity
  8
12
 62
     0
370
    -2
100
AcDbLine
 10
108.862267
 20
31.64037799999998
 30
0.0
 11
69.02316500000001
 21
31.64037799999998
 31
0.0
  0
SOLID
  5
24C20
330
24914
100
AcDbEntity
  8
12
 62
     0
100
AcDbTrace
 10
24.43406400000001
 20
32.05704466666665
 30
0.0
 11
24.43406400000001
 21
31.22371133333331
 31
0.0
 12
21.93406400000001
 22
31.64037799999998
 32
0.0
 13
21.93406400000001
 23
31.64037799999998
 33
0.0
  0
SOLID
  5
24C21
330
24914
100
AcDbEntity
  8
12
 62
     0
100
AcDbTrace
 10
108.862267
 20
32.05704466666665
 30
0.0
 11
108.862267
 21
31.22371133333331
 31
0.0
 12
111.362267
 22
31.64037799999998
 32
0.0
 13
111.362267
 23
31.64037799999998
 33
0.0
  0
MTEXT
  5
24C22
330
24914
100
AcDbEntity
  8
12
 62
     0
100
AcDbMText
 10
66.648165
 20
31.64037799999998
 30
0.0
 40
3.5
 41
0.0
 71
     5
 72
     1
  1
89.4
  7
SIMPLEX
 11
0.0000000349065848
 21
0.9999999999999994
 31
0.0
 73
     1
 44
1.0
1001
ACAD
1000
MTEXTBEGIN
1070
    73
1070
     1
1070
    44
1040
1.0
1070
    74
1070
     0
1000
MTEXTEND
  0
POINT
  5
24C23
330
24914
100
AcDbEntity
  8
DEFPOINTS
 62
     0
100
AcDbPoint
 10
21.93406400000001
 20
17.26537799999999
 30
0.0
  0
POINT
  5
24C24
330
24914
100
AcDbEntity
  8
DEFPOINTS
 62
     0
100
AcDbPoint
 10
111.362267
 20
23.14037799999999
 30
0.0
  0
POINT
  5
24C25
330
24914
100
AcDbEntity
  8
DEFPOINTS
 62
     0
100
AcDbPoint
 10
111.362267
 20
31.64037799999998
 30
0.0
  0
ENDBLK
  5
24920
330
24914
100
AcDbEntity
  8
0
100
AcDbBlockEnd
  0
BLOCK
  5
24922
330
24921
100
AcDbEntity
  8
0
100
AcDbBlockBegin
  2
*D28
 70
     1
 10
0.0
 20
0.0
 30
0.0
  3
*D28
  1

  0
LINE
  5
24C10
330
24921
100
AcDbEntity
  8
20
 62
     0
370
    -2
100
AcDbLine
 10
110.978256
 20
1.140377999999984
 30
0.0
 11
110.4913574215485
 21
-26.75252864851854
 31
0.0
  0
LINE
  5
24C11
330
24921
100
AcDbEntity
  8
20
 62
     0
370
    -2
100
AcDbLine
 10
118.653934
 20
1.265377999999984
 30
0.0
 11
139.0026130186761
 21
1.265377999999941
 31
0.0
  0
ARC
  5
24C12
330
24921
100
AcDbEntity
  8
20
 62
     0
370
    -2
100
AcDbCircle
 10
110.980438
 20
1.265377999999998
 30
0.0
 40
26.77217501867615
100
AcDbArc
 50
274.3522027671151
 51
308.6938714400378
  0
ARC
  5
24C13
330
24921
100
AcDbEntity
  8
20
 62
     0
370
    -2
100
AcDbCircle
 10
110.980438
 20
1.265377999999998
 30
0.0
 40
26.77217501867615
100
AcDbArc
 50
320.3060747244457
 51
354.6477436735478
  0
SOLID
  5
24C14
330
24921
100
AcDbEntity
  8
20
 62
     0
100
AcDbTrace
 10
113.0242915203318
 20
-25.84608532943108
 30
0.0
 11
112.9999174800268
 21
-25.01310852867151
 31
0.0
 12
110.5131740979006
 22
-25.50271904996645
 32
0.0
 13
110.5131740979006
 23
-25.50271904996645
 33
0.0
  0
SOLID
  5
24C15
330
24921
100
AcDbEntity
  8
20
 62
     0
100
AcDbTrace
 10
137.219675094992
 20
-1.212441259068484
 30
0.0
 11
138.0520996073214
 21
-1.25134981490828
 31
0.0
 12
137.7526130186761
 22
1.265377999999941
 32
0.0
 13
137.7526130186761
 23
1.265377999999941
 33
0.0
  0
MTEXT
  5
24C16
330
24921
100
AcDbEntity
  8
20
 62
     0
100
AcDbMText
 10
129.745294571044
 20
-17.82989662747711
 30
0.0
 40
3.5
 41
0.0
 71
     5
 72
     1
  1
91%%d0'
  7
SIMPLEX
 11
0.7009092642998506
 21
-0.7132504491541822
 31
0.0
 73
     1
 44
1.0
1001
ACAD
1000
MTEXTBEGIN
1070
    73
1070
     1
1070
    44
1040
1.0
1070
    74
1070
     0
1000
MTEXTEND
  0
POINT
  5
24C17
330
24921
100
AcDbEntity
  8
DEFPOINTS
 62
     0
100
AcDbPoint
 10
124.0958367315063
 20
-22.07419507544912
 30
0.0
  0
POINT
  5
24C18
330
24921
100
AcDbEntity
  8
DEFPOINTS
 62
     0
100
AcDbPoint
 10
110.980438
 20
1.265377999999984
 30
-2.075718
  0
POINT
  5
24C19
330
24921
100
AcDbEntity
  8
DEFPOINTS
 62
     0
100
AcDbPoint
 10
118.653934
 20
1.265377999999984
 30
-2.075718
  0
POINT
  5
24C1A
330
24921
100
AcDbEntity
  8
DEFPOINTS
 62
     0
100
AcDbPoint
 10
110.980438
 20
1.265377999999984
 30
-2.075718
  0
POINT
  5
24C1B
330
24921
100
AcDbEntity
  8
DEFPOINTS
 62
     0
100
AcDbPoint
 10
110.978256
 20
1.140377999999984
 30
-2.075718
  0
ENDBLK
  5
2492F
330
24921
100
AcDbEntity
  8
0
100
AcDbBlockEnd
  0
BLOCK
  5
24933
330
24930
100
AcDbEntity
  8
0
100
AcDbBlockBegin
  2
_Zeropoint.dwg
 70
     0
 10
0.0
 20
0.0
 30
0.0
  3
_Zeropoint.dwg
  1

  0
HATCH
  5
24934
330
24930
100
AcDbEntity
  8
2
100
AcDbHatch
 10
0.0
 20
0.0
 30
0.0
210
0.0
220
0.0
230
1.0
  2
_USER
 70
     0
 71
     1
 91
        2
 92
        7
 72
     1
 73
     1
 93
        3
 10
-2.5
 20
0.0
 42
0.4142135623730951
 10
0.0
 20
-2.5
 42
0.0
 10
0.0
 20
0.0
 42
0.0
 97
        3
330
24935
330
24937
330
24936
 92
        7
 72
     1
 73
     1
 93
        3
 10
0.0
 20
2.5
 42
0.0
 10
0.0
 20
0.0
 42
0.0
 10
2.5
 20
0.0
 42
0.4142135623730951
 97
        3
330
24936
330
24935
330
24937
 75
     0
 76
     0
 52
45.0
 41
0.5
 77
     0
 78
     1
 53
45.0
 43
0.0
 44
0.0
 45
-0.3535533905932737
 46
0.3535533905932738
 79
     0
 47
0.0807540860238484
 98
        2
 10
-1.081351813010084
 20
-0.6749528531090621
 10
1.100054950607727
 20
1.263145885468702
  0
LINE
  5
24935
102
{ACAD_REACTORS
330
24934
102
}
330
24930
100
AcDbEntity
  8
2
100
AcDbLine
 10
5.0
 20
0.0
 30
0.0
 11
-5.0
 21
0.0
 31
0.0
  0
LINE
  5
24936
102
{ACAD_REACTORS
330
24934
102
}
330
24930
100
AcDbEntity
  8
2
100
AcDbLine
 10
0.0
 20
5.0
 30
0.0
 11
0.0
 21
-5.0
 31
0.0
  0
CIRCLE
  5
24937
102
{ACAD_REACTORS
330
24934
102
}
330
24930
100
AcDbEntity
  8
2
100
AcDbCircle
 10
0.0
 20
0.0
 30
0.0
 40
2.5
  0
ENDBLK
  5
24938
330
24930
100
AcDbEntity
  8
0
100
AcDbBlockEnd
  0
BLOCK
  5
2493A
330
24939
100
AcDbEntity
  8
0
100
AcDbBlockBegin
  2
_nullpunkt
 70
     0
 10
0.0
 20
0.0
 30
0.0
  3
_nullpunkt
  1

  0
INSERT
  5
2493B
330
24939
100
AcDbEntity
  8
0
100
AcDbBlockReference
  2
_Zeropoint.dwg
 10
0.0
 20
0.0
 30
0.0
  0
ENDBLK
  5
2493C
330
24939
100
AcDbEntity
  8
0
100
AcDbBlockEnd
  0
ENDSEC
  0
SECTION
  2
ENTITIES
  0
POINT
  5
24976
330
18
100
AcDbEntity
  8
81
100
AcDbPoint
 10
111.362267
 20
23.14037799999999
 30
-2.075717
 50
90.0
  0
POINT
  5
24977
330
18
100
AcDbEntity
  8
80
100
AcDbPoint
 10
1.362267000000002
 20
1.265377999999998
 30
-2.075717
 50
90.0
  0
LINE
  5
24978
330
18
100
AcDbEntity
  8
1
100
AcDbLine
 10
110.503171
 20
4.562673999999987
 30
-2.075717
 11
104.297941
 21
-5.470181000000008
 31
-2.075717
  0
LINE
  5
24979
330
18
100
AcDbEntity
  8
1
100
AcDbLine
 10
104.297941
 20
-5.470181000000008
 30
-2.075717
 11
95.093112
 21
-10.78459200000001
 31
-2.075717
  0
LINE
  5
2497A
330
18
100
AcDbEntity
  8
1
100
AcDbLine
 10
97.77568000000002
 20
15.98436199999999
 30
-2.075717
 11
110.821837
 21
22.81904199999999
 31
-2.075717
  0
LINE
  5
2497B
330
18
100
AcDbEntity
  8
1
100
AcDbLine
 10
106.023072
 20
-2.680922999999999
 30
-2.075717
 11
89.79704899999999
 21
7.263063999999991
 31
-2.075717
  0
LINE
  5
2497C
330
18
100
AcDbEntity
  8
1
100
AcDbLine
 10
20.862267
 20
21.26537799999999
 30
-2.075717
 11
21.93406400000001
 21
17.26537799999999
 31
-2.075717
  0
LINE
  5
2497D
330
18
100
AcDbEntity
  8
1
100
AcDbLine
 10
21.93406400000001
 20
17.26537799999999
 30
-2.075717
 11
92.59560699999999
 21
17.26537799999999
 31
-2.075717
  0
LINE
  5
2497E
330
18
100
AcDbEntity
  8
1
100
AcDbLine
 10
20.862267
 20
-18.734622
 30
-2.075717
 11
21.93406400000001
 21
-14.73462200000001
 31
-2.075717
  0
LINE
  5
2497F
330
18
100
AcDbEntity
  8
1
100
AcDbLine
 10
21.93406400000001
 20
-14.73462200000001
 30
-2.075717
 11
88.251459
 21
-14.73462200000001
 31
-2.075717
  0
LINE
  5
24980
330
18
100
AcDbEntity
  8
1
100
AcDbLine
 10
20.862267
 20
-18.734622
 30
-2.075717
 11
20.862267
 21
21.26537799999999
 31
-2.075717
  0
LINE
  5
24981
330
18
100
AcDbEntity
  8
1
100
AcDbLine
 10
24.23604500000002
 20
17.26537799999999
 30
-2.075717
 11
92.59560699999999
 21
17.26537799999999
 31
-2.075717
  0
LINE
  5
24982
330
18
100
AcDbEntity
  8
1
100
AcDbLine
 10
24.23604500000002
 20
-14.73462200000001
 30
-2.075717
 11
88.251459
 21
-14.73462200000001
 31
-2.075717
  0
LINE
  5
24983
330
18
100
AcDbEntity
  8
1
100
AcDbLine
 10
20.862267
 20
21.26537799999999
 30
-2.075717
 11
21.338267
 21
19.48892099999999
 31
-2.075717
  0
LINE
  5
24984
330
18
100
AcDbEntity
  8
1
100
AcDbLine
 10
20.862267
 20
-18.734622
 30
-2.075717
 11
21.338267
 21
-16.95816500000001
 31
-2.075717
  0
LINE
  5
24985
330
18
100
AcDbEntity
  8
1
100
AcDbLine
 10
88.07074700000002
 20
10.77007399999999
 30
-2.075717
 11
88.07074700000002
 21
17.26537799999999
 31
-2.075717
  0
LINE
  5
24986
330
18
100
AcDbEntity
  8
1
100
AcDbLine
 10
87.026149
 20
12.14169799999999
 30
-2.075717
 11
87.026149
 21
17.26537799999999
 31
-2.075717
  0
LINE
  5
24987
330
18
100
AcDbEntity
  8
1
100
AcDbLine
 10
20.862267
 20
-18.734622
 30
-2.075717
 11
1.362267000000002
 21
-18.734622
 31
-2.075717
  0
LINE
  5
24988
330
18
100
AcDbEntity
  8
1
100
AcDbLine
 10
1.362267000000002
 20
-18.734622
 30
-2.075717
 11
1.362267000000002
 21
21.26537799999999
 31
-2.075717
  0
LINE
  5
24989
330
18
100
AcDbEntity
  8
11
100
AcDbLine
 10
-22.6377329999999
 20
-11.908397
 30
-2.075717
 11
-22.6377329999999
 21
14.439153
 31
-2.075717
  0
LINE
  5
2498A
330
18
100
AcDbEntity
  8
11
100
AcDbLine
 10
-0.2377329999999063
 20
-12.797122
 30
-2.075717
 11
-0.2377329999999063
 21
15.32787799999999
 31
-2.075717
  0
LINE
  5
2498B
330
18
100
AcDbEntity
  8
11
100
AcDbLine
 10
1.362267000000002
 20
-12.64707500000001
 30
-2.075717
 11
-0.2377329999999063
 21
-12.607072
 31
-2.075717
  0
LINE
  5
2498C
330
18
100
AcDbEntity
  8
11
100
AcDbLine
 10
-0.2377329999999063
 20
15.13782799999999
 30
-2.075717
 11
1.366015999999999
 21
15.17792499999999
 31
-2.075717
  0
LINE
  5
2498D
330
18
100
AcDbEntity
  8
1
100
AcDbLine
 10
8.025664000000006
 20
7.435183999999994
 30
-2.075717
 11
8.025676000000004
 21
20.28996799999999
 31
-2.075717
  0
LINE
  5
2498E
330
18
100
AcDbEntity
  8
1
100
AcDbLine
 10
8.285471999999996
 20
7.125341999999996
 30
-2.075717
 11
8.285471999999996
 21
20.38763799999999
 31
-2.075717
  0
LINE
  5
2498F
330
18
100
AcDbEntity
  8
1
100
AcDbLine
 10
10.43906200000001
 20
7.125341999999996
 30
-2.075717
 11
10.43906200000001
 21
20.38763799999999
 31
-2.075717
  0
LINE
  5
24990
330
18
100
AcDbEntity
  8
1
100
AcDbLine
 10
10.69887
 20
7.435183999999994
 30
-2.075717
 11
10.698858
 21
20.28996799999999
 31
-2.075717
  0
LINE
  5
24991
330
18
100
AcDbEntity
  8
1
100
AcDbLine
 10
8.025664000000006
 20
-4.904427999999998
 30
-2.075717
 11
8.025676000000004
 21
-17.75921199999999
 31
-2.075717
  0
LINE
  5
24992
330
18
100
AcDbEntity
  8
1
100
AcDbLine
 10
8.285471999999996
 20
-4.594585999999992
 30
-2.075717
 11
8.285471999999996
 21
-17.856882
 31
-2.075717
  0
LINE
  5
24993
330
18
100
AcDbEntity
  8
1
100
AcDbLine
 10
10.43906200000001
 20
-4.594585999999992
 30
-2.075717
 11
10.43906200000001
 21
-17.856882
 31
-2.075717
  0
LINE
  5
24994
330
18
100
AcDbEntity
  8
1
100
AcDbLine
 10
10.69887
 20
-4.904427999999998
 30
-2.075717
 11
10.698858
 21
-17.75921199999999
 31
-2.075717
  0
LINE
  5
24995
330
18
100
AcDbEntity
  8
11
100
AcDbLine
 10
-22.1377329999999
 20
-12.19707200000001
 30
-2.075717
 11
-22.1377329999999
 21
14.727828
 31
-2.075717
  0
LINE
  5
24996
330
18
100
AcDbEntity
  8
1
100
AcDbLine
 10
20.862267
 20
21.26537799999999
 30
-2.075717
 11
1.362267000000002
 21
21.26537799999999
 31
-2.075717
  0
LINE
  5
24997
330
18
100
AcDbEntity
  8
11
100
AcDbLine
 10
-0.2377329999999063
 20
-12.797122
 30
-2.075717
 11
-22.1377329999999
 21
-12.19707200000001
 31
-2.075717
  0
LINE
  5
24998
330
18
100
AcDbEntity
  8
11
100
AcDbLine
 10
-0.2377329999999063
 20
15.32787799999999
 30
-2.075717
 11
-22.1377329999999
 21
14.727828
 31
-2.075717
  0
LINE
  5
24999
330
18
100
AcDbEntity
  8
11
100
AcDbLine
 10
-22.6377329999999
 20
-11.908397
 30
-2.075717
 11
-22.1377329999999
 21
-12.19707200000001
 31
-2.075717
  0
LINE
  5
2499A
330
18
100
AcDbEntity
  8
11
100
AcDbLine
 10
-22.6377329999999
 20
14.439153
 30
-2.075717
 11
-22.1377329999999
 21
14.727828
 31
-2.075717
  0
LINE
  5
2499B
330
18
100
AcDbEntity
  8
1
100
AcDbLine
 10
111.362145
 20
22.33263499999999
 30
-2.075717
 11
111.127464
 21
8.887806999999991
 31
-2.075717
  0
LINE
  5
2499C
330
18
100
AcDbEntity
  8
1
100
AcDbLine
 10
109.931593
 20
8.26130899999999
 30
-2.075717
 11
98.21207700000002
 21
15.44351799999999
 31
-2.075717
  0
LINE
  5
2499D
330
18
100
AcDbEntity
  8
1
100
AcDbLine
 10
98.23555400000001
 20
16.78850899999999
 30
-2.075717
 11
110.18975
 21
23.05112799999999
 31
-2.075717
  0
LINE
  5
2499E
330
18
100
AcDbEntity
  8
1
100
AcDbLine
 10
107.195524
 20
-1.919712000000011
 30
-2.075717
 11
110.326657
 21
3.124379999999987
 31
-2.075717
  0
LINE
  5
2499F
330
18
100
AcDbEntity
  8
1
100
AcDbLine
 10
110.92757
 20
4.288063999999987
 30
-2.075717
 11
106.906177
 21
-2.180384999999999
 31
-2.075717
  0
LINE
  5
249A0
330
18
100
AcDbEntity
  8
1
100
AcDbLine
 10
106.674073
 20
-2.574783000000009
 30
-2.075717
 11
106.702369
 21
-2.519986999999999
 31
-2.075717
  0
LINE
  5
249A1
330
18
100
AcDbEntity
  8
1
100
AcDbLine
 10
95.156383
 20
13.95330799999999
 30
-2.075717
 11
91.13499
 21
7.484857999999992
 31
-2.075717
  0
LINE
  5
249A2
330
18
100
AcDbEntity
  8
1
100
AcDbLine
 10
90.90288599999999
 20
7.090460999999991
 30
-2.075717
 11
90.93118200000001
 21
7.145256999999991
 31
-2.075717
  0
LINE
  5
249A3
330
18
100
AcDbEntity
  8
1
100
AcDbLine
 10
97.822189
 20
15.30049299999999
 30
-2.075717
 11
102.678915
 21
12.32408699999999
 31
-2.075717
  0
LINE
  5
249A4
330
18
100
AcDbEntity
  8
1
100
AcDbLine
 10
98.21207700000002
 20
15.44351799999999
 30
-2.075717
 11
102.85644
 21
12.59725899999999
 31
-2.075717
  0
LINE
  5
249A5
330
18
100
AcDbEntity
  8
1
100
AcDbLine
 10
106.702369
 20
-2.519986999999999
 30
-2.075717
 11
90.93118200000001
 21
7.145256999999991
 31
-2.075717
  0
LINE
  5
249A6
330
18
100
AcDbEntity
  8
1
100
AcDbLine
 10
106.906177
 20
-2.180384999999999
 30
-2.075717
 11
91.13499
 21
7.484857999999992
 31
-2.075717
  0
LINE
  5
249A7
330
18
100
AcDbEntity
  8
1
100
AcDbLine
 10
110.92757
 20
4.288063999999987
 30
-2.075717
 11
110.326657
 21
3.124379999999987
 31
-2.075717
  0
LINE
  5
249A8
330
18
100
AcDbEntity
  8
1
100
AcDbLine
 10
110.92757
 20
4.288063999999987
 30
-2.075717
 11
110.945629
 21
7.257898999999986
 31
-2.075717
  0
LINE
  5
249A9
330
18
100
AcDbEntity
  8
1
100
AcDbLine
 10
110.910788
 20
7.661216999999987
 30
-2.075717
 11
110.69697
 21
7.648936999999986
 31
-2.075717
  0
LINE
  5
249AA
330
18
100
AcDbEntity
  8
1
100
AcDbLine
 10
110.623439
 20
7.50654199999999
 30
-2.075717
 11
110.311529
 21
6.353676999999986
 31
-2.075717
  0
LINE
  5
249AB
330
18
100
AcDbEntity
  8
1
100
AcDbLine
 10
110.336112
 20
4.464433999999988
 30
-2.075717
 11
110.309264
 21
5.400366999999986
 31
-2.075717
  0
LINE
  5
249AC
330
18
100
AcDbEntity
  8
1
100
AcDbLine
 10
110.337563
 20
4.284228999999998
 30
-2.075717
 11
110.326657
 21
3.124379999999987
 31
-2.075717
  0
LINE
  5
249AD
330
18
100
AcDbEntity
  8
1
100
AcDbLine
 10
105.507548
 20
5.227748999999987
 30
-2.075717
 11
105.80689
 21
5.709242999999986
 31
-2.075717
  0
LINE
  5
249AE
330
18
100
AcDbEntity
  8
1
100
AcDbLine
 10
98.431826
 20
9.564046999999991
 30
-2.075717
 11
98.731168
 21
10.04554099999999
 31
-2.075717
  0
LINE
  5
249AF
330
18
100
AcDbEntity
  8
1
100
AcDbLine
 10
110.945629
 20
7.257898999999986
 30
-2.075717
 11
106.088902
 21
10.23430499999999
 31
-2.075717
  0
LINE
  5
249B0
330
18
100
AcDbEntity
  8
1
100
AcDbLine
 10
110.910788
 20
7.661216999999987
 30
-2.075717
 11
106.266426
 21
10.50747599999999
 31
-2.075717
  0
LINE
  5
249B1
330
18
100
AcDbEntity
  8
1
100
AcDbLine
 10
105.788077
 20
9.750424999999987
 30
-2.075717
 11
106.088902
 21
10.23430499999999
 31
-2.075717
  0
LINE
  5
249B2
330
18
100
AcDbEntity
  8
1
100
AcDbLine
 10
102.37809
 20
11.84020699999999
 30
-2.075717
 11
102.678915
 21
12.32408699999999
 31
-2.075717
  0
LINE
  5
249B3
330
18
100
AcDbEntity
  8
1
100
AcDbLine
 10
102.834043
 20
12.51246099999999
 30
-2.075717
 11
106.24403
 21
10.42267799999999
 31
-2.075717
  0
LINE
  5
249B4
330
18
100
AcDbEntity
  8
1
100
AcDbLine
 10
95.156383
 20
13.95330799999999
 30
-2.075717
 11
97.822189
 21
15.30049299999999
 31
-2.075717
  0
LINE
  5
249B5
330
18
100
AcDbEntity
  8
1
100
AcDbLine
 10
110.978256
 20
1.140377999999987
 30
-2.075717
 11
110.980001
 21
1.240377999999987
 31
-2.075717
  0
LINE
  5
249B6
330
18
100
AcDbEntity
  8
1
100
AcDbLine
 10
111.362267
 20
23.14037799999999
 30
-2.075717
 11
111.362267
 21
23.24037799999999
 31
-2.075717
  0
LINE
  5
249B7
330
18
100
AcDbEntity
  8
1
100
AcDbLine
 10
88.251447
 20
-14.734629
 30
-2.075717
 11
95.093112
 21
-10.78459200000001
 31
-2.075717
  0
ARC
  5
249B8
330
18
100
AcDbEntity
  8
1
100
AcDbCircle
 10
24.23604500000002
 20
20.26537799999999
 30
-2.075717
 40
3.0
100
AcDbArc
 50
195.0000000000001
 51
270.0
  0
ARC
  5
249B9
330
18
100
AcDbEntity
  8
1
100
AcDbCircle
 10
24.23604500000002
 20
-17.734622
 30
-2.075717
 40
3.0
100
AcDbArc
 50
90.0
 51
165.0
  0
CIRCLE
  5
249BA
330
18
100
AcDbEntity
  8
1
100
AcDbCircle
 10
67.65160300000002
 20
1.265377999999987
 30
-2.075717
 40
3.007499999999998
  0
LWPOLYLINE
  5
249BB
330
18
100
AcDbEntity
  8
1
100
AcDbPolyline
 90
        9
 70
     0
 43
0.0
 38
-2.075717
 10
98.23555400000001
 20
16.78850899999999
 10
98.069906
 20
16.67145499999999
 10
97.94164399999999
 20
16.51550299999999
 10
97.85951199999999
 20
16.33128199999999
 10
97.82910499999999
 20
16.13134599999999
 10
97.852496
 20
15.92931999999999
 10
97.92809
 20
15.73897299999999
 10
98.05073700000001
 20
15.57327499999999
 10
98.21207700000002
 20
15.44351799999999
  0
LWPOLYLINE
  5
249BC
330
18
100
AcDbEntity
  8
1
100
AcDbPolyline
 90
        9
 70
     0
 43
0.0
 38
-2.075717
 10
109.931593
 20
8.26130899999999
 10
110.120632
 20
8.176336999999987
 10
110.324488
 20
8.141940999999986
 10
110.529267
 20
8.16046399999999
 10
110.721015
 20
8.230643999999987
 10
110.886664
 20
8.34769799999999
 10
111.014925
 20
8.503649999999986
 10
111.097057
 20
8.68787099999999
 10
111.127464
 20
8.887806999999991
  0
LWPOLYLINE
  5
249BD
330
18
100
AcDbEntity
  8
1
100
AcDbPolyline
 90
        9
 70
     0
 43
0.0
 38
-2.075717
 10
111.362145
 20
22.33263499999999
 10
111.338754
 20
22.53466099999998
 10
111.263159
 20
22.72500899999998
 10
111.140513
 20
22.89070699999999
 10
110.979172
 20
23.02046299999998
 10
110.790133
 20
23.10543399999999
 10
110.586277
 20
23.13983099999999
 10
110.381498
 20
23.12130799999998
 10
110.18975
 20
23.05112799999999
  0
LINE
  5
249BE
330
18
100
AcDbEntity
  8
1
100
AcDbLine
 10
91.13499
 20
7.484857999999992
 30
-2.075717
 11
90.93118200000001
 21
7.145256999999991
 31
-2.075717
  0
LWPOLYLINE
  5
249BF
330
18
100
AcDbEntity
  8
1
100
AcDbPolyline
 90
        4
 70
     0
 43
0.0
 38
-2.075717
 10
106.674073
 20
-2.574783000000009
 10
106.688583
 20
-2.575913000000014
 10
106.892212
 20
-2.34226800000001
 10
107.195524
 20
-1.919712000000011
  0
LINE
  5
249C0
330
18
100
AcDbEntity
  8
1
100
AcDbLine
 10
106.906177
 20
-2.180384999999999
 30
-2.075717
 11
106.702369
 21
-2.519986999999999
 31
-2.075717
  0
LWPOLYLINE
  5
249C1
330
18
100
AcDbEntity
  8
1
100
AcDbPolyline
 90
       32
 70
     1
 43
0.0
 38
-2.075717
 10
106.477244
 20
13.93106399999999
 10
106.847373
 20
13.95250899999999
 10
107.204528
 20
14.04472799999999
 10
107.534983
 20
14.20417599999999
 10
107.82604
 20
14.42472599999999
 10
108.066514
 20
14.69790199999999
 10
108.247162
 20
15.01320699999999
 10
108.361043
 20
15.35852199999999
 10
108.40378
 20
15.72057899999999
 10
108.373732
 20
16.08546299999999
 10
108.272052
 20
16.43915199999999
 10
108.102648
 20
16.76805399999999
 10
107.872031
 20
17.05952899999999
 10
107.589063
 20
17.30237699999999
 10
107.264617
 20
17.48726499999999
 10
106.911164
 20
17.60708599999999
 10
106.542284
 20
17.65723799999999
 10
106.172155
 20
17.63579299999998
 10
105.815
 20
17.54357399999999
 10
105.484545
 20
17.38412599999999
 10
105.193488
 20
17.16357599999999
 10
104.953014
 20
16.89039999999999
 10
104.772366
 20
16.57509499999999
 10
104.658485
 20
16.22977999999999
 10
104.615748
 20
15.86772299999999
 10
104.645796
 20
15.50283899999999
 10
104.747476
 20
15.14914999999999
 10
104.91688
 20
14.82024799999999
 10
105.147497
 20
14.52877299999999
 10
105.430465
 20
14.28592499999998
 10
105.754911
 20
14.10103699999999
 10
106.108364
 20
13.98121599999999
  0
LWPOLYLINE
  5
249C2
330
18
100
AcDbEntity
  8
1
100
AcDbPolyline
 90
       10
 70
     0
 43
0.0
 38
-2.075717
 10
88.07074700000002
 20
10.77007399999999
 10
88.10367100000002
 20
10.26679199999999
 10
88.20189500000003
 20
9.77039599999999
 10
88.36379500000004
 20
9.289103999999991
 10
88.58669
 20
8.83088399999999
 10
88.86689000000002
 20
8.403321999999992
 10
89.199756
 20
8.01349399999999
 10
89.57977900000001
 20
7.667855999999991
 10
90.00066600000002
 20
7.372127999999992
 10
90.00066600000002
 20
7.372127999999992
  0
LWPOLYLINE
  5
249C3
330
18
100
AcDbEntity
  8
1
100
AcDbPolyline
 90
       17
 70
     0
 43
0.0
 38
-2.075717
 10
87.026149
 20
12.14169799999999
 10
87.03797800000002
 20
11.77991199999999
 10
87.07341900000001
 20
11.41910599999999
 10
87.132322
 20
11.06077399999999
 10
87.21444500000002
 20
10.70640099999999
 10
87.31944799999999
 20
10.35745499999999
 10
87.44689500000001
 20
10.01538099999999
 10
87.59625800000002
 20
9.68159799999999
 10
87.766918
 20
9.35748699999999
 10
87.958169
 20
9.044391999999987
 10
88.16921800000001
 20
8.743609999999991
 10
88.39919100000001
 20
8.456385999999991
 10
88.64713400000002
 20
8.183910999999991
 10
88.912022
 20
7.927313999999991
 10
89.19275600000002
 20
7.687657999999991
 10
89.48817299999998
 20
7.465934999999986
 10
89.79704899999999
 20
7.263063999999991
  0
LWPOLYLINE
  5
249C4
330
18
100
AcDbEntity
  8
1
100
AcDbPolyline
 90
       17
 70
     0
 43
0.0
 38
-2.075717
 10
92.59560699999999
 20
17.26537799999999
 10
92.81848899999999
 20
16.97779899999999
 10
93.06667100000002
 20
16.71087399999999
 10
93.33808100000002
 20
16.46683299999999
 10
93.63044999999999
 20
16.24771599999999
 10
93.94133600000001
 20
16.05535299999999
 10
94.26814099999999
 20
15.89135199999999
 10
94.60813299999999
 20
15.75708399999999
 10
94.958471
 20
15.65366999999999
 10
95.316229
 20
15.58197399999999
 10
95.678417
 20
15.54259599999999
 10
96.042008
 20
15.53586399999999
 10
96.403964
 20
15.56183499999999
 10
96.76126
 20
15.62029199999999
 10
97.110912
 20
15.71074599999999
 10
97.44999599999999
 20
15.83244199999999
 10
97.77568000000002
 20
15.98436199999999
  0
POLYLINE
  5
249C5
330
18
100
AcDbEntity
  8
1
100
AcDb3dPolyline
 66
     1
 10
0.0
 20
0.0
 30
0.0
 70
    12
 75
     6
  0
VERTEX
  5
249C6
330
249C5
100
AcDbEntity
  8
1
100
AcDbVertex
100
AcDb3dPolylineVertex
 10
106.324054
 20
7.109291999999991
 30
-2.075717
 70
    48
  0
VERTEX
  5
249C7
330
249C5
100
AcDbEntity
  8
1
100
AcDbVertex
100
AcDb3dPolylineVertex
 10
106.286045
 20
6.862292999999986
 30
-2.075717
 70
    48
  0
VERTEX
  5
249C8
330
249C5
100
AcDbEntity
  8
1
100
AcDbVertex
100
AcDb3dPolylineVertex
 10
106.224293
 20
6.620071999999991
 30
-2.075717
 70
    48
  0
VERTEX
  5
249C9
330
249C5
100
AcDbEntity
  8
1
100
AcDbVertex
100
AcDb3dPolylineVertex
 10
106.05168
 20
6.150707999999986
 30
-2.075717
 70
    48
  0
VERTEX
  5
249CA
330
249C5
100
AcDbEntity
  8
1
100
AcDbVertex
100
AcDb3dPolylineVertex
 10
105.940302
 20
5.923836999999986
 30
-2.075717
 70
    48
  0
VERTEX
  5
249CB
330
249C5
100
AcDbEntity
  8
1
100
AcDbVertex
100
AcDb3dPolylineVertex
 10
105.80689
 20
5.709242999999986
 30
-2.075717
 70
    48
  0
VERTEX
  5
249CC
330
249C5
100
AcDbEntity
  8
1
100
AcDbVertex
100
AcDb3dPolylineVertex
 10
106.324054
 20
7.109291999999991
 30
-2.075717
 70
    40
  0
VERTEX
  5
249CD
330
249C5
100
AcDbEntity
  8
1
100
AcDbVertex
100
AcDb3dPolylineVertex
 10
106.216277
 20
6.622858999999986
 30
-2.075717
 70
    40
  0
VERTEX
  5
249CE
330
249C5
100
AcDbEntity
  8
1
100
AcDbVertex
100
AcDb3dPolylineVertex
 10
106.043574
 20
6.153852999999986
 30
-2.075717
 70
    40
  0
VERTEX
  5
249CF
330
249C5
100
AcDbEntity
  8
1
100
AcDbVertex
100
AcDb3dPolylineVertex
 10
105.80689
 20
5.709242999999986
 30
-2.075717
 70
    40
  0
SEQEND
  5
249D0
330
249C5
100
AcDbEntity
  8
1
  0
POLYLINE
  5
249D1
330
18
100
AcDbEntity
  8
1
100
AcDb3dPolyline
 66
     1
 10
0.0
 20
0.0
 30
0.0
 70
    12
 75
     6
  0
VERTEX
  5
249D2
330
249D1
100
AcDbEntity
  8
1
100
AcDbVertex
100
AcDb3dPolylineVertex
 10
105.507548
 20
5.227748999999987
 30
-2.075717
 70
    48
  0
VERTEX
  5
249D3
330
249D1
100
AcDbEntity
  8
1
100
AcDbVertex
100
AcDb3dPolylineVertex
 10
105.340697
 20
4.959367999999988
 30
-2.075717
 70
    48
  0
VERTEX
  5
249D4
330
249D1
100
AcDbEntity
  8
1
100
AcDbVertex
100
AcDb3dPolylineVertex
 10
105.147905
 20
4.721398999999987
 30
-2.075717
 70
    48
  0
VERTEX
  5
249D5
330
249D1
100
AcDbEntity
  8
1
100
AcDbVertex
100
AcDb3dPolylineVertex
 10
104.756469
 20
4.348158999999988
 30
-2.075717
 70
    48
  0
VERTEX
  5
249D6
330
249D1
100
AcDbEntity
  8
1
100
AcDbVertex
100
AcDb3dPolylineVertex
 10
104.598182
 20
4.221154999999995
 30
-2.075717
 70
    48
  0
VERTEX
  5
249D7
330
249D1
100
AcDbEntity
  8
1
100
AcDbVertex
100
AcDb3dPolylineVertex
 10
104.060444
 20
3.857614999999998
 30
-2.075717
 70
    48
  0
VERTEX
  5
249D8
330
249D1
100
AcDbEntity
  8
1
100
AcDbVertex
100
AcDb3dPolylineVertex
 10
103.66377
 20
3.678699999999988
 30
-2.075717
 70
    48
  0
VERTEX
  5
249D9
330
249D1
100
AcDbEntity
  8
1
100
AcDbVertex
100
AcDb3dPolylineVertex
 10
102.632995
 20
3.397994999999987
 30
-2.075717
 70
    48
  0
VERTEX
  5
249DA
330
249D1
100
AcDbEntity
  8
1
100
AcDbVertex
100
AcDb3dPolylineVertex
 10
101.976639
 20
3.376764999999988
 30
-2.075717
 70
    48
  0
VERTEX
  5
249DB
330
249D1
100
AcDbEntity
  8
1
100
AcDbVertex
100
AcDb3dPolylineVertex
 10
101.047387
 20
3.560593999999986
 30
-2.075717
 70
    48
  0
VERTEX
  5
249DC
330
249D1
100
AcDbEntity
  8
1
100
AcDbVertex
100
AcDb3dPolylineVertex
 10
100.793463
 20
3.637202999999987
 30
-2.075717
 70
    48
  0
VERTEX
  5
249DD
330
249D1
100
AcDbEntity
  8
1
100
AcDbVertex
100
AcDb3dPolylineVertex
 10
100.143796
 20
3.905616999999997
 30
-2.075717
 70
    48
  0
VERTEX
  5
249DE
330
249D1
100
AcDbEntity
  8
1
100
AcDbVertex
100
AcDb3dPolylineVertex
 10
99.83208600000001
 20
4.086802999999997
 30
-2.075717
 70
    48
  0
VERTEX
  5
249DF
330
249D1
100
AcDbEntity
  8
1
100
AcDbVertex
100
AcDb3dPolylineVertex
 10
99.122658
 20
4.632812999999988
 30
-2.075717
 70
    48
  0
VERTEX
  5
249E0
330
249D1
100
AcDbEntity
  8
1
100
AcDbVertex
100
AcDb3dPolylineVertex
 10
98.80239899999999
 20
4.973984999999988
 30
-2.075717
 70
    48
  0
VERTEX
  5
249E1
330
249D1
100
AcDbEntity
  8
1
100
AcDbVertex
100
AcDb3dPolylineVertex
 10
98.16420499999999
 20
5.961770999999987
 30
-2.075717
 70
    48
  0
VERTEX
  5
249E2
330
249D1
100
AcDbEntity
  8
1
100
AcDbVertex
100
AcDb3dPolylineVertex
 10
97.95822499999999
 20
6.514599999999987
 30
-2.075717
 70
    48
  0
VERTEX
  5
249E3
330
249D1
100
AcDbEntity
  8
1
100
AcDbVertex
100
AcDb3dPolylineVertex
 10
97.80246400000001
 20
8.073934999999991
 30
-2.075717
 70
    48
  0
VERTEX
  5
249E4
330
249D1
100
AcDbEntity
  8
1
100
AcDbVertex
100
AcDb3dPolylineVertex
 10
97.93570500000001
 20
8.766030999999991
 30
-2.075717
 70
    48
  0
VERTEX
  5
249E5
330
249D1
100
AcDbEntity
  8
1
100
AcDbVertex
100
AcDb3dPolylineVertex
 10
98.431826
 20
9.564046999999991
 30
-2.075717
 70
    48
  0
VERTEX
  5
249E6
330
249D1
100
AcDbEntity
  8
1
100
AcDbVertex
100
AcDb3dPolylineVertex
 10
105.507548
 20
5.227748999999987
 30
-2.075717
 70
    40
  0
VERTEX
  5
249E7
330
249D1
100
AcDbEntity
  8
1
100
AcDbVertex
100
AcDb3dPolylineVertex
 10
105.331485
 20
4.968928999999987
 30
-2.075717
 70
    40
  0
VERTEX
  5
249E8
330
249D1
100
AcDbEntity
  8
1
100
AcDbVertex
100
AcDb3dPolylineVertex
 10
105.134736
 20
4.726924999999988
 30
-2.075717
 70
    40
  0
VERTEX
  5
249E9
330
249D1
100
AcDbEntity
  8
1
100
AcDbVertex
100
AcDb3dPolylineVertex
 10
104.91391
 20
4.498280999999998
 30
-2.075717
 70
    40
  0
VERTEX
  5
249EA
330
249D1
100
AcDbEntity
  8
1
100
AcDbVertex
100
AcDb3dPolylineVertex
 10
104.592564
 20
4.224157999999997
 30
-2.075717
 70
    40
  0
VERTEX
  5
249EB
330
249D1
100
AcDbEntity
  8
1
100
AcDbVertex
100
AcDb3dPolylineVertex
 10
104.421042
 20
4.101397999999988
 30
-2.075717
 70
    40
  0
VERTEX
  5
249EC
330
249D1
100
AcDbEntity
  8
1
100
AcDbVertex
100
AcDb3dPolylineVertex
 10
104.049102
 20
3.879282999999998
 30
-2.075717
 70
    40
  0
VERTEX
  5
249ED
330
249D1
100
AcDbEntity
  8
1
100
AcDbVertex
100
AcDb3dPolylineVertex
 10
103.657212
 20
3.700684999999986
 30
-2.075717
 70
    40
  0
VERTEX
  5
249EE
330
249D1
100
AcDbEntity
  8
1
100
AcDbVertex
100
AcDb3dPolylineVertex
 10
103.249471
 20
3.565875999999988
 30
-2.075717
 70
    40
  0
VERTEX
  5
249EF
330
249D1
100
AcDbEntity
  8
1
100
AcDbVertex
100
AcDb3dPolylineVertex
 10
102.938156
 20
3.494163999999988
 30
-2.075717
 70
    40
  0
VERTEX
  5
249F0
330
249D1
100
AcDbEntity
  8
1
100
AcDbVertex
100
AcDb3dPolylineVertex
 10
102.621675
 20
3.446943999999986
 30
-2.075717
 70
    40
  0
VERTEX
  5
249F1
330
249D1
100
AcDbEntity
  8
1
100
AcDbVertex
100
AcDb3dPolylineVertex
 10
102.301508
 20
3.424263999999987
 30
-2.075717
 70
    40
  0
VERTEX
  5
249F2
330
249D1
100
AcDbEntity
  8
1
100
AcDbVertex
100
AcDb3dPolylineVertex
 10
101.979136
 20
3.426172999999998
 30
-2.075717
 70
    40
  0
VERTEX
  5
249F3
330
249D1
100
AcDbEntity
  8
1
100
AcDbVertex
100
AcDb3dPolylineVertex
 10
101.656037
 20
3.452719999999988
 30
-2.075717
 70
    40
  0
VERTEX
  5
249F4
330
249D1
100
AcDbEntity
  8
1
100
AcDbVertex
100
AcDb3dPolylineVertex
 10
101.333694
 20
3.503954999999995
 30
-2.075717
 70
    40
  0
VERTEX
  5
249F5
330
249D1
100
AcDbEntity
  8
1
100
AcDbVertex
100
AcDb3dPolylineVertex
 10
100.787932
 20
3.649108999999988
 30
-2.075717
 70
    40
  0
VERTEX
  5
249F6
330
249D1
100
AcDbEntity
  8
1
100
AcDbVertex
100
AcDb3dPolylineVertex
 10
100.516825
 20
3.751497999999988
 30
-2.075717
 70
    40
  0
VERTEX
  5
249F7
330
249D1
100
AcDbEntity
  8
1
100
AcDbVertex
100
AcDb3dPolylineVertex
 10
100.161952
 20
3.915820999999988
 30
-2.075717
 70
    40
  0
VERTEX
  5
249F8
330
249D1
100
AcDbEntity
  8
1
100
AcDbVertex
100
AcDb3dPolylineVertex
 10
99.834261
 20
4.105277999999998
 30
-2.075717
 70
    40
  0
VERTEX
  5
249F9
330
249D1
100
AcDbEntity
  8
1
100
AcDbVertex
100
AcDb3dPolylineVertex
 10
99.52004999999999
 20
4.326960999999998
 30
-2.075717
 70
    40
  0
VERTEX
  5
249FA
330
249D1
100
AcDbEntity
  8
1
100
AcDbVertex
100
AcDb3dPolylineVertex
 10
99.14709999999999
 20
4.646542999999995
 30
-2.075717
 70
    40
  0
VERTEX
  5
249FB
330
249D1
100
AcDbEntity
  8
1
100
AcDbVertex
100
AcDb3dPolylineVertex
 10
98.817962
 20
5.001410999999988
 30
-2.075717
 70
    40
  0
VERTEX
  5
249FC
330
249D1
100
AcDbEntity
  8
1
100
AcDbVertex
100
AcDb3dPolylineVertex
 10
98.52502300000001
 20
5.403302999999986
 30
-2.075717
 70
    40
  0
VERTEX
  5
249FD
330
249D1
100
AcDbEntity
  8
1
100
AcDbVertex
100
AcDb3dPolylineVertex
 10
98.357436
 20
5.682711999999987
 30
-2.075717
 70
    40
  0
VERTEX
  5
249FE
330
249D1
100
AcDbEntity
  8
1
100
AcDbVertex
100
AcDb3dPolylineVertex
 10
98.21517200000002
 20
5.965050999999986
 30
-2.075717
 70
    40
  0
VERTEX
  5
249FF
330
249D1
100
AcDbEntity
  8
1
100
AcDbVertex
100
AcDb3dPolylineVertex
 10
98.097746
 20
6.254188999999986
 30
-2.075717
 70
    40
  0
VERTEX
  5
24A00
330
249D1
100
AcDbEntity
  8
1
100
AcDbVertex
100
AcDb3dPolylineVertex
 10
98.00467300000001
 20
6.553994999999991
 30
-2.075717
 70
    40
  0
VERTEX
  5
24A01
330
249D1
100
AcDbEntity
  8
1
100
AcDbVertex
100
AcDb3dPolylineVertex
 10
97.93547000000003
 20
6.868339999999991
 30
-2.075717
 70
    40
  0
VERTEX
  5
24A02
330
249D1
100
AcDbEntity
  8
1
100
AcDbVertex
100
AcDb3dPolylineVertex
 10
97.88965199999999
 20
7.201091999999986
 30
-2.075717
 70
    40
  0
VERTEX
  5
24A03
330
249D1
100
AcDbEntity
  8
1
100
AcDbVertex
100
AcDb3dPolylineVertex
 10
97.86508600000001
 20
7.623778999999986
 30
-2.075717
 70
    40
  0
VERTEX
  5
24A04
330
249D1
100
AcDbEntity
  8
1
100
AcDbVertex
100
AcDb3dPolylineVertex
 10
97.88121600000001
 20
8.02430299999999
 30
-2.075717
 70
    40
  0
VERTEX
  5
24A05
330
249D1
100
AcDbEntity
  8
1
100
AcDbVertex
100
AcDb3dPolylineVertex
 10
97.94199800000001
 20
8.410629999999986
 30
-2.075717
 70
    40
  0
VERTEX
  5
24A06
330
249D1
100
AcDbEntity
  8
1
100
AcDbVertex
100
AcDb3dPolylineVertex
 10
98.05138900000001
 20
8.790719999999991
 30
-2.075717
 70
    40
  0
VERTEX
  5
24A07
330
249D1
100
AcDbEntity
  8
1
100
AcDbVertex
100
AcDb3dPolylineVertex
 10
98.213346
 20
9.172538999999988
 30
-2.075717
 70
    40
  0
VERTEX
  5
24A08
330
249D1
100
AcDbEntity
  8
1
100
AcDbVertex
100
AcDb3dPolylineVertex
 10
98.431826
 20
9.564046999999991
 30
-2.075717
 70
    40
  0
SEQEND
  5
24A09
330
249D1
100
AcDbEntity
  8
1
  0
POLYLINE
  5
24A0A
330
18
100
AcDbEntity
  8
1
100
AcDb2dPolyline
 66
     1
 10
0.0
 20
0.0
 30
-2.075717
 70
     4
 75
     6
  0
VERTEX
  5
24A0B
330
24A0A
100
AcDbEntity
  8
1
100
AcDbVertex
100
AcDb2dVertex
 10
98.731168
 20
10.04554099999999
 30
-2.075717
 70
    16
  0
VERTEX
  5
24A0C
330
24A0A
100
AcDbEntity
  8
1
100
AcDbVertex
100
AcDb2dVertex
 10
98.742812
 20
10.06426999999999
 30
-2.075717
 70
    16
  0
VERTEX
  5
24A0D
330
24A0A
100
AcDbEntity
  8
1
100
AcDbVertex
100
AcDb2dVertex
 10
98.75462500000001
 20
10.08289299999999
 30
-2.075717
 70
    16
  0
VERTEX
  5
24A0E
330
24A0A
100
AcDbEntity
  8
1
100
AcDbVertex
100
AcDb2dVertex
 10
99.02582200000001
 20
10.50198799999999
 30
-2.075717
 70
    16
  0
VERTEX
  5
24A0F
330
24A0A
100
AcDbEntity
  8
1
100
AcDbVertex
100
AcDb2dVertex
 10
99.36255700000003
 20
10.85258399999999
 30
-2.075717
 70
    16
  0
VERTEX
  5
24A10
330
24A0A
100
AcDbEntity
  8
1
100
AcDbVertex
100
AcDb2dVertex
 10
99.75990000000001
 20
11.13207999999999
 30
-2.075717
 70
    16
  0
VERTEX
  5
24A11
330
24A0A
100
AcDbEntity
  8
1
100
AcDbVertex
100
AcDb2dVertex
 10
98.731168
 20
10.04554099999999
 30
-2.075717
 70
     8
  0
VERTEX
  5
24A12
330
24A0A
100
AcDbEntity
  8
1
100
AcDbVertex
100
AcDb2dVertex
 10
98.76660600000001
 20
10.10140699999999
 30
-2.075717
 70
     8
  0
VERTEX
  5
24A13
330
24A0A
100
AcDbEntity
  8
1
100
AcDbVertex
100
AcDb2dVertex
 10
99.05103500000002
 20
10.48454399999999
 30
-2.075717
 70
     8
  0
VERTEX
  5
24A14
330
24A0A
100
AcDbEntity
  8
1
100
AcDbVertex
100
AcDb2dVertex
 10
99.38338600000001
 20
10.82966599999999
 30
-2.075717
 70
     8
  0
VERTEX
  5
24A15
330
24A0A
100
AcDbEntity
  8
1
100
AcDbVertex
100
AcDb2dVertex
 10
99.75990000000001
 20
11.13207999999999
 30
-2.075717
 70
     8
  0
SEQEND
  5
24A16
330
24A0A
100
AcDbEntity
  8
1
  0
POLYLINE
  5
24A17
330
18
100
AcDbEntity
  8
1
100
AcDb3dPolyline
 66
     1
 10
0.0
 20
0.0
 30
0.0
 70
    12
 75
     6
  0
VERTEX
  5
24A18
330
24A17
100
AcDbEntity
  8
1
100
AcDbVertex
100
AcDb3dPolylineVertex
 10
105.788077
 20
9.750424999999987
 30
-2.075717
 70
    48
  0
VERTEX
  5
24A19
330
24A17
100
AcDbEntity
  8
1
100
AcDbVertex
100
AcDb3dPolylineVertex
 10
105.969801
 20
9.44725799999999
 30
-2.075717
 70
    48
  0
VERTEX
  5
24A1A
330
24A17
100
AcDbEntity
  8
1
100
AcDbVertex
100
AcDb3dPolylineVertex
 10
106.11209
 20
9.123562999999988
 30
-2.075717
 70
    48
  0
VERTEX
  5
24A1B
330
24A17
100
AcDbEntity
  8
1
100
AcDbVertex
100
AcDb3dPolylineVertex
 10
106.372582
 20
8.229279999999986
 30
-2.075717
 70
    48
  0
VERTEX
  5
24A1C
330
24A17
100
AcDbEntity
  8
1
100
AcDbVertex
100
AcDb3dPolylineVertex
 10
106.414432
 20
7.635021999999986
 30
-2.075717
 70
    48
  0
VERTEX
  5
24A1D
330
24A17
100
AcDbEntity
  8
1
100
AcDbVertex
100
AcDb3dPolylineVertex
 10
106.314031
 20
7.047568999999986
 30
-2.075717
 70
    48
  0
VERTEX
  5
24A1E
330
24A17
100
AcDbEntity
  8
1
100
AcDbVertex
100
AcDb3dPolylineVertex
 10
105.788077
 20
9.750424999999987
 30
-2.075717
 70
    40
  0
VERTEX
  5
24A1F
330
24A17
100
AcDbEntity
  8
1
100
AcDbVertex
100
AcDb3dPolylineVertex
 10
105.956478
 20
9.440695999999988
 30
-2.075717
 70
    40
  0
VERTEX
  5
24A20
330
24A17
100
AcDbEntity
  8
1
100
AcDbVertex
100
AcDb3dPolylineVertex
 10
106.097524
 20
9.11896699999999
 30
-2.075717
 70
    40
  0
VERTEX
  5
24A21
330
24A17
100
AcDbEntity
  8
1
100
AcDbVertex
100
AcDb3dPolylineVertex
 10
106.210149
 20
8.786921999999986
 30
-2.075717
 70
    40
  0
VERTEX
  5
24A22
330
24A17
100
AcDbEntity
  8
1
100
AcDbVertex
100
AcDb3dPolylineVertex
 10
106.281217
 20
8.50525099999999
 30
-2.075717
 70
    40
  0
VERTEX
  5
24A23
330
24A17
100
AcDbEntity
  8
1
100
AcDbVertex
100
AcDb3dPolylineVertex
 10
106.331585
 20
8.218682999999991
 30
-2.075717
 70
    40
  0
VERTEX
  5
24A24
330
24A17
100
AcDbEntity
  8
1
100
AcDbVertex
100
AcDb3dPolylineVertex
 10
106.360653
 20
7.92842499999999
 30
-2.075717
 70
    40
  0
VERTEX
  5
24A25
330
24A17
100
AcDbEntity
  8
1
100
AcDbVertex
100
AcDb3dPolylineVertex
 10
106.367817
 20
7.635681999999986
 30
-2.075717
 70
    40
  0
VERTEX
  5
24A26
330
24A17
100
AcDbEntity
  8
1
100
AcDbVertex
100
AcDb3dPolylineVertex
 10
106.352477
 20
7.341660999999986
 30
-2.075717
 70
    40
  0
VERTEX
  5
24A27
330
24A17
100
AcDbEntity
  8
1
100
AcDbVertex
100
AcDb3dPolylineVertex
 10
106.314031
 20
7.047568999999986
 30
-2.075717
 70
    40
  0
SEQEND
  5
24A28
330
24A17
100
AcDbEntity
  8
1
  0
POLYLINE
  5
24A29
330
18
100
AcDbEntity
  8
1
100
AcDb3dPolyline
 66
     1
 10
0.0
 20
0.0
 30
0.0
 70
    12
 75
     6
  0
VERTEX
  5
24A2A
330
24A29
100
AcDbEntity
  8
1
100
AcDbVertex
100
AcDb3dPolylineVertex
 10
10.69887
 20
7.435183999999994
 30
-2.075717
 70
    48
  0
VERTEX
  5
24A2B
330
24A29
100
AcDbEntity
  8
1
100
AcDbVertex
100
AcDb3dPolylineVertex
 10
10.949023
 20
8.342029999999994
 30
-2.075717
 70
    48
  0
VERTEX
  5
24A2C
330
24A29
100
AcDbEntity
  8
1
100
AcDbVertex
100
AcDb3dPolylineVertex
 10
11.171974
 20
9.256025999999996
 30
-2.075717
 70
    48
  0
VERTEX
  5
24A2D
330
24A29
100
AcDbEntity
  8
1
100
AcDbVertex
100
AcDb3dPolylineVertex
 10
11.360794
 20
10.17709699999999
 30
-2.075717
 70
    48
  0
VERTEX
  5
24A2E
330
24A29
100
AcDbEntity
  8
1
100
AcDbVertex
100
AcDb3dPolylineVertex
 10
11.360794
 20
10.17709699999999
 30
-2.075717
 70
    48
  0
VERTEX
  5
24A2F
330
24A29
100
AcDbEntity
  8
1
100
AcDbVertex
100
AcDb3dPolylineVertex
 10
11.717419
 20
11.91673599999999
 30
-2.075717
 70
    48
  0
VERTEX
  5
24A30
330
24A29
100
AcDbEntity
  8
1
100
AcDbVertex
100
AcDb3dPolylineVertex
 10
11.964417
 20
13.68320799999999
 30
-2.075717
 70
    48
  0
VERTEX
  5
24A31
330
24A29
100
AcDbEntity
  8
1
100
AcDbVertex
100
AcDb3dPolylineVertex
 10
11.958893
 20
15.47086799999999
 30
-2.075717
 70
    48
  0
VERTEX
  5
24A32
330
24A29
100
AcDbEntity
  8
1
100
AcDbVertex
100
AcDb3dPolylineVertex
 10
11.958893
 20
15.47086799999999
 30
-2.075717
 70
    48
  0
VERTEX
  5
24A33
330
24A29
100
AcDbEntity
  8
1
100
AcDbVertex
100
AcDb3dPolylineVertex
 10
11.9569
 20
16.11584399999999
 30
-2.075717
 70
    48
  0
VERTEX
  5
24A34
330
24A29
100
AcDbEntity
  8
1
100
AcDbVertex
100
AcDb3dPolylineVertex
 10
11.922874
 20
16.74048899999999
 30
-2.075717
 70
    48
  0
VERTEX
  5
24A35
330
24A29
100
AcDbEntity
  8
1
100
AcDbVertex
100
AcDb3dPolylineVertex
 10
11.70385
 20
18.21533199999999
 30
-2.075717
 70
    48
  0
VERTEX
  5
24A36
330
24A29
100
AcDbEntity
  8
1
100
AcDbVertex
100
AcDb3dPolylineVertex
 10
11.516194
 20
18.98278699999998
 30
-2.075717
 70
    48
  0
VERTEX
  5
24A37
330
24A29
100
AcDbEntity
  8
1
100
AcDbVertex
100
AcDb3dPolylineVertex
 10
10.970831
 20
19.93615799999999
 30
-2.075717
 70
    48
  0
VERTEX
  5
24A38
330
24A29
100
AcDbEntity
  8
1
100
AcDbVertex
100
AcDb3dPolylineVertex
 10
10.854849
 20
20.10657999999999
 30
-2.075717
 70
    48
  0
VERTEX
  5
24A39
330
24A29
100
AcDbEntity
  8
1
100
AcDbVertex
100
AcDb3dPolylineVertex
 10
10.698858
 20
20.28996799999999
 30
-2.075717
 70
    48
  0
VERTEX
  5
24A3A
330
24A29
100
AcDbEntity
  8
1
100
AcDbVertex
100
AcDb3dPolylineVertex
 10
10.69887
 20
7.435183999999994
 30
-2.075717
 70
    40
  0
VERTEX
  5
24A3B
330
24A29
100
AcDbEntity
  8
1
100
AcDbVertex
100
AcDb3dPolylineVertex
 10
10.93969900000002
 20
8.344410999999997
 30
-2.075717
 70
    40
  0
VERTEX
  5
24A3C
330
24A29
100
AcDbEntity
  8
1
100
AcDbVertex
100
AcDb3dPolylineVertex
 10
11.160854
 20
9.258386999999997
 30
-2.075717
 70
    40
  0
VERTEX
  5
24A3D
330
24A29
100
AcDbEntity
  8
1
100
AcDbVertex
100
AcDb3dPolylineVertex
 10
11.360794
 20
10.17709699999999
 30
-2.075717
 70
    40
  0
VERTEX
  5
24A3E
330
24A29
100
AcDbEntity
  8
1
100
AcDbVertex
100
AcDb3dPolylineVertex
 10
11.360794
 20
10.17709699999999
 30
-2.075717
 70
    40
  0
VERTEX
  5
24A3F
330
24A29
100
AcDbEntity
  8
1
100
AcDbVertex
100
AcDb3dPolylineVertex
 10
11.529309
 20
11.04912599999999
 30
-2.075717
 70
    40
  0
VERTEX
  5
24A40
330
24A29
100
AcDbEntity
  8
1
100
AcDbVertex
100
AcDb3dPolylineVertex
 10
11.675584
 20
11.92547099999999
 30
-2.075717
 70
    40
  0
VERTEX
  5
24A41
330
24A29
100
AcDbEntity
  8
1
100
AcDbVertex
100
AcDb3dPolylineVertex
 10
11.79564899999999
 20
12.80597499999999
 30
-2.075717
 70
    40
  0
VERTEX
  5
24A42
330
24A29
100
AcDbEntity
  8
1
100
AcDbVertex
100
AcDb3dPolylineVertex
 10
11.885536
 20
13.69047999999999
 30
-2.075717
 70
    40
  0
VERTEX
  5
24A43
330
24A29
100
AcDbEntity
  8
1
100
AcDbVertex
100
AcDb3dPolylineVertex
 10
11.94127299999997
 20
14.57882999999999
 30
-2.075717
 70
    40
  0
VERTEX
  5
24A44
330
24A29
100
AcDbEntity
  8
1
100
AcDbVertex
100
AcDb3dPolylineVertex
 10
11.958893
 20
15.47086799999999
 30
-2.075717
 70
    40
  0
VERTEX
  5
24A45
330
24A29
100
AcDbEntity
  8
1
100
AcDbVertex
100
AcDb3dPolylineVertex
 10
11.958893
 20
15.47086799999999
 30
-2.075717
 70
    40
  0
VERTEX
  5
24A46
330
24A29
100
AcDbEntity
  8
1
100
AcDbVertex
100
AcDb3dPolylineVertex
 10
11.945105
 20
16.11068199999999
 30
-2.075717
 70
    40
  0
VERTEX
  5
24A47
330
24A29
100
AcDbEntity
  8
1
100
AcDbVertex
100
AcDb3dPolylineVertex
 10
11.90325900000002
 20
16.74663599999999
 30
-2.075717
 70
    40
  0
VERTEX
  5
24A48
330
24A29
100
AcDbEntity
  8
1
100
AcDbVertex
100
AcDb3dPolylineVertex
 10
11.82665200000001
 20
17.38842299999999
 30
-2.075717
 70
    40
  0
VERTEX
  5
24A49
330
24A29
100
AcDbEntity
  8
1
100
AcDbVertex
100
AcDb3dPolylineVertex
 10
11.675792
 20
18.19689899999999
 30
-2.075717
 70
    40
  0
VERTEX
  5
24A4A
330
24A29
100
AcDbEntity
  8
1
100
AcDbVertex
100
AcDb3dPolylineVertex
 10
11.572073
 20
18.58887099999998
 30
-2.075717
 70
    40
  0
VERTEX
  5
24A4B
330
24A29
100
AcDbEntity
  8
1
100
AcDbVertex
100
AcDb3dPolylineVertex
 10
11.443054
 20
18.97404999999999
 30
-2.075717
 70
    40
  0
VERTEX
  5
24A4C
330
24A29
100
AcDbEntity
  8
1
100
AcDbVertex
100
AcDb3dPolylineVertex
 10
11.283906
 20
19.35347499999999
 30
-2.075717
 70
    40
  0
VERTEX
  5
24A4D
330
24A29
100
AcDbEntity
  8
1
100
AcDbVertex
100
AcDb3dPolylineVertex
 10
11.089799
 20
19.72818499999999
 30
-2.075717
 70
    40
  0
VERTEX
  5
24A4E
330
24A29
100
AcDbEntity
  8
1
100
AcDbVertex
100
AcDb3dPolylineVertex
 10
10.84310500000001
 20
20.109031
 30
-2.075717
 70
    40
  0
VERTEX
  5
24A4F
330
24A29
100
AcDbEntity
  8
1
100
AcDbVertex
100
AcDb3dPolylineVertex
 10
10.698858
 20
20.28996799999999
 30
-2.075717
 70
    40
  0
SEQEND
  5
24A50
330
24A29
100
AcDbEntity
  8
1
  0
POLYLINE
  5
24A51
330
18
100
AcDbEntity
  8
1
100
AcDb3dPolyline
 66
     1
 10
0.0
 20
0.0
 30
0.0
 70
    12
 75
     6
  0
VERTEX
  5
24A52
330
24A51
100
AcDbEntity
  8
1
100
AcDbVertex
100
AcDb3dPolylineVertex
 10
8.025664000000006
 20
7.435183999999994
 30
-2.075717
 70
    48
  0
VERTEX
  5
24A53
330
24A51
100
AcDbEntity
  8
1
100
AcDbVertex
100
AcDb3dPolylineVertex
 10
7.983989000000008
 20
7.586263999999996
 30
-2.075717
 70
    48
  0
VERTEX
  5
24A54
330
24A51
100
AcDbEntity
  8
1
100
AcDbVertex
100
AcDb3dPolylineVertex
 10
7.944689000000008
 20
7.737978999999991
 30
-2.075717
 70
    48
  0
VERTEX
  5
24A55
330
24A51
100
AcDbEntity
  8
1
100
AcDbVertex
100
AcDb3dPolylineVertex
 10
7.445569000000006
 20
9.602213999999994
 30
-2.075717
 70
    48
  0
VERTEX
  5
24A56
330
24A51
100
AcDbEntity
  8
1
100
AcDbVertex
100
AcDb3dPolylineVertex
 10
7.086571000000006
 20
11.34340899999999
 30
-2.075717
 70
    48
  0
VERTEX
  5
24A57
330
24A51
100
AcDbEntity
  8
1
100
AcDbVertex
100
AcDb3dPolylineVertex
 10
6.896668000000003
 20
13.112619
 30
-2.075717
 70
    48
  0
VERTEX
  5
24A58
330
24A51
100
AcDbEntity
  8
1
100
AcDbVertex
100
AcDb3dPolylineVertex
 10
6.896668000000003
 20
13.112619
 30
-2.075717
 70
    48
  0
VERTEX
  5
24A59
330
24A51
100
AcDbEntity
  8
1
100
AcDbVertex
100
AcDb3dPolylineVertex
 10
6.826929000000006
 20
13.76232799999999
 30
-2.075717
 70
    48
  0
VERTEX
  5
24A5A
330
24A51
100
AcDbEntity
  8
1
100
AcDbVertex
100
AcDb3dPolylineVertex
 10
6.781790999999997
 20
14.40474899999999
 30
-2.075717
 70
    48
  0
VERTEX
  5
24A5B
330
24A51
100
AcDbEntity
  8
1
100
AcDbVertex
100
AcDb3dPolylineVertex
 10
6.752487999999997
 20
15.91524399999999
 30
-2.075717
 70
    48
  0
VERTEX
  5
24A5C
330
24A51
100
AcDbEntity
  8
1
100
AcDbVertex
100
AcDb3dPolylineVertex
 10
6.787279000000013
 20
16.74894799999999
 30
-2.075717
 70
    48
  0
VERTEX
  5
24A5D
330
24A51
100
AcDbEntity
  8
1
100
AcDbVertex
100
AcDb3dPolylineVertex
 10
7.094699000000003
 20
18.56208099999999
 30
-2.075717
 70
    48
  0
VERTEX
  5
24A5E
330
24A51
100
AcDbEntity
  8
1
100
AcDbVertex
100
AcDb3dPolylineVertex
 10
7.329191000000008
 20
19.47115399999999
 30
-2.075717
 70
    48
  0
VERTEX
  5
24A5F
330
24A51
100
AcDbEntity
  8
1
100
AcDbVertex
100
AcDb3dPolylineVertex
 10
8.025676000000004
 20
20.28996799999999
 30
-2.075717
 70
    48
  0
VERTEX
  5
24A60
330
24A51
100
AcDbEntity
  8
1
100
AcDbVertex
100
AcDb3dPolylineVertex
 10
8.025664000000006
 20
7.435183999999994
 30
-2.075717
 70
    40
  0
VERTEX
  5
24A61
330
24A51
100
AcDbEntity
  8
1
100
AcDbVertex
100
AcDb3dPolylineVertex
 10
7.904157999999965
 20
7.889364999999997
 30
-2.075717
 70
    40
  0
VERTEX
  5
24A62
330
24A51
100
AcDbEntity
  8
1
100
AcDbVertex
100
AcDb3dPolylineVertex
 10
7.481340000000002
 20
9.611650999999998
 30
-2.075717
 70
    40
  0
VERTEX
  5
24A63
330
24A51
100
AcDbEntity
  8
1
100
AcDbVertex
100
AcDb3dPolylineVertex
 10
7.299655999999997
 20
10.47985699999999
 30
-2.075717
 70
    40
  0
VERTEX
  5
24A64
330
24A51
100
AcDbEntity
  8
1
100
AcDbVertex
100
AcDb3dPolylineVertex
 10
7.140361999999981
 20
11.35275999999999
 30
-2.075717
 70
    40
  0
VERTEX
  5
24A65
330
24A51
100
AcDbEntity
  8
1
100
AcDbVertex
100
AcDb3dPolylineVertex
 10
7.005389000000008
 20
12.23034999999999
 30
-2.075717
 70
    40
  0
VERTEX
  5
24A66
330
24A51
100
AcDbEntity
  8
1
100
AcDbVertex
100
AcDb3dPolylineVertex
 10
6.896668000000003
 20
13.112619
 30
-2.075717
 70
    40
  0
VERTEX
  5
24A67
330
24A51
100
AcDbEntity
  8
1
100
AcDbVertex
100
AcDb3dPolylineVertex
 10
6.896668000000003
 20
13.112619
 30
-2.075717
 70
    40
  0
VERTEX
  5
24A68
330
24A51
100
AcDbEntity
  8
1
100
AcDbVertex
100
AcDb3dPolylineVertex
 10
6.792298999999997
 20
14.40885599999999
 30
-2.075717
 70
    40
  0
VERTEX
  5
24A69
330
24A51
100
AcDbEntity
  8
1
100
AcDbVertex
100
AcDb3dPolylineVertex
 10
6.769041999999998
 20
15.06194199999999
 30
-2.075717
 70
    40
  0
VERTEX
  5
24A6A
330
24A51
100
AcDbEntity
  8
1
100
AcDbVertex
100
AcDb3dPolylineVertex
 10
6.771714999999998
 20
15.90982899999999
 30
-2.075717
 70
    40
  0
VERTEX
  5
24A6B
330
24A51
100
AcDbEntity
  8
1
100
AcDbVertex
100
AcDb3dPolylineVertex
 10
6.821286999999997
 20
16.75135699999999
 30
-2.075717
 70
    40
  0
VERTEX
  5
24A6C
330
24A51
100
AcDbEntity
  8
1
100
AcDbVertex
100
AcDb3dPolylineVertex
 10
6.930429000000001
 20
17.59322999999999
 30
-2.075717
 70
    40
  0
VERTEX
  5
24A6D
330
24A51
100
AcDbEntity
  8
1
100
AcDbVertex
100
AcDb3dPolylineVertex
 10
7.020228999999998
 20
18.07253299999999
 30
-2.075717
 70
    40
  0
VERTEX
  5
24A6E
330
24A51
100
AcDbEntity
  8
1
100
AcDbVertex
100
AcDb3dPolylineVertex
 10
7.132615999999997
 20
18.54102599999999
 30
-2.075717
 70
    40
  0
VERTEX
  5
24A6F
330
24A51
100
AcDbEntity
  8
1
100
AcDbVertex
100
AcDb3dPolylineVertex
 10
7.278472000000008
 20
18.99786299999998
 30
-2.075717
 70
    40
  0
VERTEX
  5
24A70
330
24A51
100
AcDbEntity
  8
1
100
AcDbVertex
100
AcDb3dPolylineVertex
 10
7.468679000000008
 20
19.44219699999999
 30
-2.075717
 70
    40
  0
VERTEX
  5
24A71
330
24A51
100
AcDbEntity
  8
1
100
AcDbVertex
100
AcDb3dPolylineVertex
 10
7.714119000000008
 20
19.87318099999999
 30
-2.075717
 70
    40
  0
VERTEX
  5
24A72
330
24A51
100
AcDbEntity
  8
1
100
AcDbVertex
100
AcDb3dPolylineVertex
 10
8.025676000000004
 20
20.28996799999999
 30
-2.075717
 70
    40
  0
SEQEND
  5
24A73
330
24A51
100
AcDbEntity
  8
1
  0
POLYLINE
  5
24A74
330
18
100
AcDbEntity
  8
1
100
AcDb2dPolyline
 66
     1
 10
0.0
 20
0.0
 30
-2.075717
 70
     4
 75
     5
  0
VERTEX
  5
24A75
330
24A74
100
AcDbEntity
  8
1
100
AcDbVertex
100
AcDb2dVertex
 10
10.43906200000001
 20
7.125341999999996
 30
-2.075717
 70
    16
  0
VERTEX
  5
24A76
330
24A74
100
AcDbEntity
  8
1
100
AcDbVertex
100
AcDb2dVertex
 10
9.362267000000002
 20
7.125341999999996
 30
-2.075717
 70
    16
  0
VERTEX
  5
24A77
330
24A74
100
AcDbEntity
  8
1
100
AcDbVertex
100
AcDb2dVertex
 10
8.285471999999996
 20
7.125341999999996
 30
-2.075717
 70
    16
  0
VERTEX
  5
24A78
330
24A74
100
AcDbEntity
  8
1
100
AcDbVertex
100
AcDb2dVertex
 10
10.43906200000001
 20
7.125341999999996
 30
-2.075717
 70
     8
  0
VERTEX
  5
24A79
330
24A74
100
AcDbEntity
  8
1
100
AcDbVertex
100
AcDb2dVertex
 10
8.285471999999996
 20
7.125341999999996
 30
-2.075717
 70
     8
  0
SEQEND
  5
24A7A
330
24A74
100
AcDbEntity
  8
1
  0
POLYLINE
  5
24A7B
330
18
100
AcDbEntity
  8
1
100
AcDb2dPolyline
 66
     1
 10
0.0
 20
0.0
 30
-2.075717
 70
     4
 75
     5
  0
VERTEX
  5
24A7C
330
24A7B
100
AcDbEntity
  8
1
100
AcDbVertex
100
AcDb2dVertex
 10
10.43906200000001
 20
-4.594585999999992
 30
-2.075717
 70
    16
  0
VERTEX
  5
24A7D
330
24A7B
100
AcDbEntity
  8
1
100
AcDbVertex
100
AcDb2dVertex
 10
9.362267000000002
 20
-4.594585999999992
 30
-2.075717
 70
    16
  0
VERTEX
  5
24A7E
330
24A7B
100
AcDbEntity
  8
1
100
AcDbVertex
100
AcDb2dVertex
 10
8.285471999999996
 20
-4.594585999999992
 30
-2.075717
 70
    16
  0
VERTEX
  5
24A7F
330
24A7B
100
AcDbEntity
  8
1
100
AcDbVertex
100
AcDb2dVertex
 10
10.43906200000001
 20
-4.594585999999992
 30
-2.075717
 70
     8
  0
VERTEX
  5
24A80
330
24A7B
100
AcDbEntity
  8
1
100
AcDbVertex
100
AcDb2dVertex
 10
8.285471999999996
 20
-4.594585999999992
 30
-2.075717
 70
     8
  0
SEQEND
  5
24A81
330
24A7B
100
AcDbEntity
  8
1
  0
POLYLINE
  5
24A82
330
18
100
AcDbEntity
  8
1
100
AcDb3dPolyline
 66
     1
 10
0.0
 20
0.0
 30
0.0
 70
    12
 75
     6
  0
VERTEX
  5
24A83
330
24A82
100
AcDbEntity
  8
1
100
AcDbVertex
100
AcDb3dPolylineVertex
 10
8.025664000000006
 20
-4.904427999999998
 30
-2.075717
 70
    48
  0
VERTEX
  5
24A84
330
24A82
100
AcDbEntity
  8
1
100
AcDbVertex
100
AcDb3dPolylineVertex
 10
7.866229000000002
 20
-5.482406999999997
 30
-2.075717
 70
    48
  0
VERTEX
  5
24A85
330
24A82
100
AcDbEntity
  8
1
100
AcDbVertex
100
AcDb3dPolylineVertex
 10
7.719605999999997
 20
-6.056278999999991
 30
-2.075717
 70
    48
  0
VERTEX
  5
24A86
330
24A82
100
AcDbEntity
  8
1
100
AcDbVertex
100
AcDb3dPolylineVertex
 10
7.172727000000008
 20
-8.409703
 30
-2.075717
 70
    48
  0
VERTEX
  5
24A87
330
24A82
100
AcDbEntity
  8
1
100
AcDbVertex
100
AcDb3dPolylineVertex
 10
6.867872000000003
 20
-10.205322
 30
-2.075717
 70
    48
  0
VERTEX
  5
24A88
330
24A82
100
AcDbEntity
  8
1
100
AcDbVertex
100
AcDb3dPolylineVertex
 10
6.728219000000008
 20
-13.286563
 30
-2.075717
 70
    48
  0
VERTEX
  5
24A89
330
24A82
100
AcDbEntity
  8
1
100
AcDbVertex
100
AcDb3dPolylineVertex
 10
6.763959999999997
 20
-14.571147
 30
-2.075717
 70
    48
  0
VERTEX
  5
24A8A
330
24A82
100
AcDbEntity
  8
1
100
AcDbVertex
100
AcDb3dPolylineVertex
 10
7.092778000000008
 20
-15.821394
 30
-2.075717
 70
    48
  0
VERTEX
  5
24A8B
330
24A82
100
AcDbEntity
  8
1
100
AcDbVertex
100
AcDb3dPolylineVertex
 10
7.092778000000008
 20
-15.821394
 30
-2.075717
 70
    48
  0
VERTEX
  5
24A8C
330
24A82
100
AcDbEntity
  8
1
100
AcDbVertex
100
AcDb3dPolylineVertex
 10
7.215574000000002
 20
-16.288295
 30
-2.075717
 70
    48
  0
VERTEX
  5
24A8D
330
24A82
100
AcDbEntity
  8
1
100
AcDbVertex
100
AcDb3dPolylineVertex
 10
7.363759999999999
 20
-16.71049699999999
 30
-2.075717
 70
    48
  0
VERTEX
  5
24A8E
330
24A82
100
AcDbEntity
  8
1
100
AcDbVertex
100
AcDb3dPolylineVertex
 10
7.735140999999997
 20
-17.378782
 30
-2.075717
 70
    48
  0
VERTEX
  5
24A8F
330
24A82
100
AcDbEntity
  8
1
100
AcDbVertex
100
AcDb3dPolylineVertex
 10
7.861194000000011
 20
-17.56584199999999
 30
-2.075717
 70
    48
  0
VERTEX
  5
24A90
330
24A82
100
AcDbEntity
  8
1
100
AcDbVertex
100
AcDb3dPolylineVertex
 10
8.025676000000004
 20
-17.75921199999999
 30
-2.075717
 70
    48
  0
VERTEX
  5
24A91
330
24A82
100
AcDbEntity
  8
1
100
AcDbVertex
100
AcDb3dPolylineVertex
 10
8.025664000000006
 20
-4.904427999999998
 30
-2.075717
 70
    40
  0
VERTEX
  5
24A92
330
24A82
100
AcDbEntity
  8
1
100
AcDbVertex
100
AcDb3dPolylineVertex
 10
7.723370000000002
 20
-6.058891000000002
 30
-2.075717
 70
    40
  0
VERTEX
  5
24A93
330
24A82
100
AcDbEntity
  8
1
100
AcDbVertex
100
AcDb3dPolylineVertex
 10
7.38781999999999
 20
-7.526654000000013
 30
-2.075717
 70
    40
  0
VERTEX
  5
24A94
330
24A82
100
AcDbEntity
  8
1
100
AcDbVertex
100
AcDb3dPolylineVertex
 10
7.212536999999997
 20
-8.417744999999991
 30
-2.075717
 70
    40
  0
VERTEX
  5
24A95
330
24A82
100
AcDbEntity
  8
1
100
AcDbVertex
100
AcDb3dPolylineVertex
 10
7.061467000000008
 20
-9.312435
 30
-2.075717
 70
    40
  0
VERTEX
  5
24A96
330
24A82
100
AcDbEntity
  8
1
100
AcDbVertex
100
AcDb3dPolylineVertex
 10
6.937842000000002
 20
-10.210407
 30
-2.075717
 70
    40
  0
VERTEX
  5
24A97
330
24A82
100
AcDbEntity
  8
1
100
AcDbVertex
100
AcDb3dPolylineVertex
 10
6.844894000000008
 20
-11.111344
 30
-2.075717
 70
    40
  0
VERTEX
  5
24A98
330
24A82
100
AcDbEntity
  8
1
100
AcDbVertex
100
AcDb3dPolylineVertex
 10
6.785853999999998
 20
-12.01492900000001
 30
-2.075717
 70
    40
  0
VERTEX
  5
24A99
330
24A82
100
AcDbEntity
  8
1
100
AcDbVertex
100
AcDb3dPolylineVertex
 10
6.765743000000043
 20
-12.65160600000001
 30
-2.075717
 70
    40
  0
VERTEX
  5
24A9A
330
24A82
100
AcDbEntity
  8
1
100
AcDbVertex
100
AcDb3dPolylineVertex
 10
6.766741000000008
 20
-13.28912799999999
 30
-2.075717
 70
    40
  0
VERTEX
  5
24A9B
330
24A82
100
AcDbEntity
  8
1
100
AcDbVertex
100
AcDb3dPolylineVertex
 10
6.794395999999991
 20
-13.92618200000001
 30
-2.075717
 70
    40
  0
VERTEX
  5
24A9C
330
24A82
100
AcDbEntity
  8
1
100
AcDbVertex
100
AcDb3dPolylineVertex
 10
6.854256000000004
 20
-14.56145300000001
 30
-2.075717
 70
    40
  0
VERTEX
  5
24A9D
330
24A82
100
AcDbEntity
  8
1
100
AcDbVertex
100
AcDb3dPolylineVertex
 10
6.951868000000002
 20
-15.19362799999999
 30
-2.075717
 70
    40
  0
VERTEX
  5
24A9E
330
24A82
100
AcDbEntity
  8
1
100
AcDbVertex
100
AcDb3dPolylineVertex
 10
7.092778000000008
 20
-15.821394
 30
-2.075717
 70
    40
  0
VERTEX
  5
24A9F
330
24A82
100
AcDbEntity
  8
1
100
AcDbVertex
100
AcDb3dPolylineVertex
 10
7.092778000000008
 20
-15.821394
 30
-2.075717
 70
    40
  0
VERTEX
  5
24AA0
330
24A82
100
AcDbEntity
  8
1
100
AcDbVertex
100
AcDb3dPolylineVertex
 10
7.226675
 20
-16.27572800000001
 30
-2.075717
 70
    40
  0
VERTEX
  5
24AA1
330
24A82
100
AcDbEntity
  8
1
100
AcDbVertex
100
AcDb3dPolylineVertex
 10
7.393322999999965
 20
-16.71425899999999
 30
-2.075717
 70
    40
  0
VERTEX
  5
24AA2
330
24A82
100
AcDbEntity
  8
1
100
AcDbVertex
100
AcDb3dPolylineVertex
 10
7.608547999999997
 20
-17.15098300000001
 30
-2.075717
 70
    40
  0
VERTEX
  5
24AA3
330
24A82
100
AcDbEntity
  8
1
100
AcDbVertex
100
AcDb3dPolylineVertex
 10
7.872560000000007
 20
-17.56620300000001
 30
-2.075717
 70
    40
  0
VERTEX
  5
24AA4
330
24A82
100
AcDbEntity
  8
1
100
AcDbVertex
100
AcDb3dPolylineVertex
 10
8.025676000000004
 20
-17.75921199999999
 30
-2.075717
 70
    40
  0
SEQEND
  5
24AA5
330
24A82
100
AcDbEntity
  8
1
  0
POLYLINE
  5
24AA6
330
18
100
AcDbEntity
  8
1
100
AcDb3dPolyline
 66
     1
 10
0.0
 20
0.0
 30
0.0
 70
    12
 75
     6
  0
VERTEX
  5
24AA7
330
24AA6
100
AcDbEntity
  8
1
100
AcDbVertex
100
AcDb3dPolylineVertex
 10
8.285471999999996
 20
-17.856882
 30
-2.075717
 70
    48
  0
VERTEX
  5
24AA8
330
24AA6
100
AcDbEntity
  8
1
100
AcDbVertex
100
AcDb3dPolylineVertex
 10
8.64554799999999
 20
-17.856882
 30
-2.075717
 70
    48
  0
VERTEX
  5
24AA9
330
24AA6
100
AcDbEntity
  8
1
100
AcDbVertex
100
AcDb3dPolylineVertex
 10
9.005623999999997
 20
-17.856882
 30
-2.075717
 70
    48
  0
VERTEX
  5
24AAA
330
24AA6
100
AcDbEntity
  8
1
100
AcDbVertex
100
AcDb3dPolylineVertex
 10
9.723487000000003
 20
-17.856882
 30
-2.075717
 70
    48
  0
VERTEX
  5
24AAB
330
24AA6
100
AcDbEntity
  8
1
100
AcDbVertex
100
AcDb3dPolylineVertex
 10
10.08127400000001
 20
-17.856882
 30
-2.075717
 70
    48
  0
VERTEX
  5
24AAC
330
24AA6
100
AcDbEntity
  8
1
100
AcDbVertex
100
AcDb3dPolylineVertex
 10
10.43906200000001
 20
-17.856882
 30
-2.075717
 70
    48
  0
VERTEX
  5
24AAD
330
24AA6
100
AcDbEntity
  8
1
100
AcDbVertex
100
AcDb3dPolylineVertex
 10
8.285471999999996
 20
-17.856882
 30
-2.075717
 70
    40
  0
VERTEX
  5
24AAE
330
24AA6
100
AcDbEntity
  8
1
100
AcDbVertex
100
AcDb3dPolylineVertex
 10
10.43906200000001
 20
-17.856882
 30
-2.075717
 70
    40
  0
SEQEND
  5
24AAF
330
24AA6
100
AcDbEntity
  8
1
  0
POLYLINE
  5
24AB0
330
18
100
AcDbEntity
  8
1
100
AcDb3dPolyline
 66
     1
 10
0.0
 20
0.0
 30
0.0
 70
    12
 75
     6
  0
VERTEX
  5
24AB1
330
24AB0
100
AcDbEntity
  8
1
100
AcDbVertex
100
AcDb3dPolylineVertex
 10
8.285471999999996
 20
20.38763799999999
 30
-2.075717
 70
    48
  0
VERTEX
  5
24AB2
330
24AB0
100
AcDbEntity
  8
1
100
AcDbVertex
100
AcDb3dPolylineVertex
 10
8.64554799999999
 20
20.38763799999999
 30
-2.075717
 70
    48
  0
VERTEX
  5
24AB3
330
24AB0
100
AcDbEntity
  8
1
100
AcDbVertex
100
AcDb3dPolylineVertex
 10
9.005623999999997
 20
20.38763799999999
 30
-2.075717
 70
    48
  0
VERTEX
  5
24AB4
330
24AB0
100
AcDbEntity
  8
1
100
AcDbVertex
100
AcDb3dPolylineVertex
 10
9.723487000000003
 20
20.38763799999999
 30
-2.075717
 70
    48
  0
VERTEX
  5
24AB5
330
24AB0
100
AcDbEntity
  8
1
100
AcDbVertex
100
AcDb3dPolylineVertex
 10
10.08127400000001
 20
20.38763799999999
 30
-2.075717
 70
    48
  0
VERTEX
  5
24AB6
330
24AB0
100
AcDbEntity
  8
1
100
AcDbVertex
100
AcDb3dPolylineVertex
 10
10.43906200000001
 20
20.38763799999999
 30
-2.075717
 70
    48
  0
VERTEX
  5
24AB7
330
24AB0
100
AcDbEntity
  8
1
100
AcDbVertex
100
AcDb3dPolylineVertex
 10
8.285471999999996
 20
20.38763799999999
 30
-2.075717
 70
    40
  0
VERTEX
  5
24AB8
330
24AB0
100
AcDbEntity
  8
1
100
AcDbVertex
100
AcDb3dPolylineVertex
 10
10.43906200000001
 20
20.38763799999999
 30
-2.075717
 70
    40
  0
SEQEND
  5
24AB9
330
24AB0
100
AcDbEntity
  8
1
  0
POLYLINE
  5
24ABA
330
18
100
AcDbEntity
  8
1
100
AcDb3dPolyline
 66
     1
 10
0.0
 20
0.0
 30
0.0
 70
    12
 75
     6
  0
VERTEX
  5
24ABB
330
24ABA
100
AcDbEntity
  8
1
100
AcDbVertex
100
AcDb3dPolylineVertex
 10
10.69887
 20
-4.904427999999998
 30
-2.075717
 70
    48
  0
VERTEX
  5
24ABC
330
24ABA
100
AcDbEntity
  8
1
100
AcDbVertex
100
AcDb3dPolylineVertex
 10
10.90278600000002
 20
-5.643656
 30
-2.075717
 70
    48
  0
VERTEX
  5
24ABD
330
24ABA
100
AcDbEntity
  8
1
100
AcDbVertex
100
AcDb3dPolylineVertex
 10
11.08799000000002
 20
-6.3849
 30
-2.075717
 70
    48
  0
VERTEX
  5
24ABE
330
24ABA
100
AcDbEntity
  8
1
100
AcDbVertex
100
AcDb3dPolylineVertex
 10
11.642099
 20
-8.913991000000002
 30
-2.075717
 70
    48
  0
VERTEX
  5
24ABF
330
24ABA
100
AcDbEntity
  8
1
100
AcDbVertex
100
AcDb3dPolylineVertex
 10
11.920161
 20
-10.717127
 30
-2.075717
 70
    48
  0
VERTEX
  5
24AC0
330
24ABA
100
AcDbEntity
  8
1
100
AcDbVertex
100
AcDb3dPolylineVertex
 10
11.97319799999999
 20
-13.44029199999999
 30
-2.075717
 70
    48
  0
VERTEX
  5
24AC1
330
24ABA
100
AcDbEntity
  8
1
100
AcDbVertex
100
AcDb3dPolylineVertex
 10
11.931235
 20
-14.35420500000001
 30
-2.075717
 70
    48
  0
VERTEX
  5
24AC2
330
24ABA
100
AcDbEntity
  8
1
100
AcDbVertex
100
AcDb3dPolylineVertex
 10
11.69095300000001
 20
-15.614164
 30
-2.075717
 70
    48
  0
VERTEX
  5
24AC3
330
24ABA
100
AcDbEntity
  8
1
100
AcDbVertex
100
AcDb3dPolylineVertex
 10
11.60502499999999
 20
-15.958588
 30
-2.075717
 70
    48
  0
VERTEX
  5
24AC4
330
24ABA
100
AcDbEntity
  8
1
100
AcDbVertex
100
AcDb3dPolylineVertex
 10
11.328435
 20
-16.765702
 30
-2.075717
 70
    48
  0
VERTEX
  5
24AC5
330
24ABA
100
AcDbEntity
  8
1
100
AcDbVertex
100
AcDb3dPolylineVertex
 10
11.135119
 20
-17.18088200000001
 30
-2.075717
 70
    48
  0
VERTEX
  5
24AC6
330
24ABA
100
AcDbEntity
  8
1
100
AcDbVertex
100
AcDb3dPolylineVertex
 10
10.797268
 20
-17.63935399999998
 30
-2.075717
 70
    48
  0
VERTEX
  5
24AC7
330
24ABA
100
AcDbEntity
  8
1
100
AcDbVertex
100
AcDb3dPolylineVertex
 10
10.75103200000001
 20
-17.69787500000001
 30
-2.075717
 70
    48
  0
VERTEX
  5
24AC8
330
24ABA
100
AcDbEntity
  8
1
100
AcDbVertex
100
AcDb3dPolylineVertex
 10
10.698858
 20
-17.75921199999999
 30
-2.075717
 70
    48
  0
VERTEX
  5
24AC9
330
24ABA
100
AcDbEntity
  8
1
100
AcDbVertex
100
AcDb3dPolylineVertex
 10
10.69887
 20
-4.904427999999998
 30
-2.075717
 70
    40
  0
VERTEX
  5
24ACA
330
24ABA
100
AcDbEntity
  8
1
100
AcDbVertex
100
AcDb3dPolylineVertex
 10
11.08121200000001
 20
-6.388041000000011
 30
-2.075717
 70
    40
  0
VERTEX
  5
24ACB
330
24ABA
100
AcDbEntity
  8
1
100
AcDbVertex
100
AcDb3dPolylineVertex
 10
11.437489
 20
-8.027303000000001
 30
-2.075717
 70
    40
  0
VERTEX
  5
24ACC
330
24ABA
100
AcDbEntity
  8
1
100
AcDbVertex
100
AcDb3dPolylineVertex
 10
11.60010700000001
 20
-8.921937000000001
 30
-2.075717
 70
    40
  0
VERTEX
  5
24ACD
330
24ABA
100
AcDbEntity
  8
1
100
AcDbVertex
100
AcDb3dPolylineVertex
 10
11.736863
 20
-9.819947000000002
 30
-2.075717
 70
    40
  0
VERTEX
  5
24ACE
330
24ABA
100
AcDbEntity
  8
1
100
AcDbVertex
100
AcDb3dPolylineVertex
 10
11.84410700000001
 20
-10.72088100000001
 30
-2.075717
 70
    40
  0
VERTEX
  5
24ACF
330
24ABA
100
AcDbEntity
  8
1
100
AcDbVertex
100
AcDb3dPolylineVertex
 10
11.918191
 20
-11.624291
 30
-2.075717
 70
    40
  0
VERTEX
  5
24AD0
330
24ABA
100
AcDbEntity
  8
1
100
AcDbVertex
100
AcDb3dPolylineVertex
 10
11.95546400000002
 20
-12.52972800000001
 30
-2.075717
 70
    40
  0
VERTEX
  5
24AD1
330
24ABA
100
AcDbEntity
  8
1
100
AcDbVertex
100
AcDb3dPolylineVertex
 10
11.95070300000002
 20
-13.44079500000001
 30
-2.075717
 70
    40
  0
VERTEX
  5
24AD2
330
24ABA
100
AcDbEntity
  8
1
100
AcDbVertex
100
AcDb3dPolylineVertex
 10
11.890563
 20
-14.350412
 30
-2.075717
 70
    40
  0
VERTEX
  5
24AD3
330
24ABA
100
AcDbEntity
  8
1
100
AcDbVertex
100
AcDb3dPolylineVertex
 10
11.759467
 20
-15.254898
 30
-2.075717
 70
    40
  0
VERTEX
  5
24AD4
330
24ABA
100
AcDbEntity
  8
1
100
AcDbVertex
100
AcDb3dPolylineVertex
 10
11.594207
 20
-15.959968
 30
-2.075717
 70
    40
  0
VERTEX
  5
24AD5
330
24ABA
100
AcDbEntity
  8
1
100
AcDbVertex
100
AcDb3dPolylineVertex
 10
11.484762
 20
-16.30952500000001
 30
-2.075717
 70
    40
  0
VERTEX
  5
24AD6
330
24ABA
100
AcDbEntity
  8
1
100
AcDbVertex
100
AcDb3dPolylineVertex
 10
11.313912
 20
-16.75272900000001
 30
-2.075717
 70
    40
  0
VERTEX
  5
24AD7
330
24ABA
100
AcDbEntity
  8
1
100
AcDbVertex
100
AcDb3dPolylineVertex
 10
11.10524400000001
 20
-17.172759
 30
-2.075717
 70
    40
  0
VERTEX
  5
24AD8
330
24ABA
100
AcDbEntity
  8
1
100
AcDbVertex
100
AcDb3dPolylineVertex
 10
10.84559800000001
 20
-17.57377000000001
 30
-2.075717
 70
    40
  0
VERTEX
  5
24AD9
330
24ABA
100
AcDbEntity
  8
1
100
AcDbVertex
100
AcDb3dPolylineVertex
 10
10.698858
 20
-17.75921199999999
 30
-2.075717
 70
    40
  0
SEQEND
  5
24ADA
330
24ABA
100
AcDbEntity
  8
1
  0
POLYLINE
  5
24ADB
330
18
100
AcDbEntity
  8
1
100
AcDb3dPolyline
 66
     1
 10
0.0
 20
0.0
 30
0.0
 70
    12
 75
     6
  0
VERTEX
  5
24ADC
330
24ADB
100
AcDbEntity
  8
1
100
AcDbVertex
100
AcDb3dPolylineVertex
 10
87.026149
 20
16.15454099999999
 30
-2.075717
 70
    48
  0
VERTEX
  5
24ADD
330
24ADB
100
AcDbEntity
  8
1
100
AcDbVertex
100
AcDb3dPolylineVertex
 10
86.32254800000003
 20
16.09220399999999
 30
-2.075717
 70
    48
  0
VERTEX
  5
24ADE
330
24ADB
100
AcDbEntity
  8
1
100
AcDbVertex
100
AcDb3dPolylineVertex
 10
85.620509
 20
16.01351299999999
 30
-2.075717
 70
    48
  0
VERTEX
  5
24ADF
330
24ADB
100
AcDbEntity
  8
1
100
AcDbVertex
100
AcDb3dPolylineVertex
 10
83.154213
 20
15.65116099999999
 30
-2.075717
 70
    48
  0
VERTEX
  5
24AE0
330
24ADB
100
AcDbEntity
  8
1
100
AcDbVertex
100
AcDb3dPolylineVertex
 10
81.401037
 20
15.24209799999999
 30
-2.075717
 70
    48
  0
VERTEX
  5
24AE1
330
24ADB
100
AcDbEntity
  8
1
100
AcDbVertex
100
AcDb3dPolylineVertex
 10
79.13274700000002
 20
14.24583899999999
 30
-2.075717
 70
    48
  0
VERTEX
  5
24AE2
330
24ADB
100
AcDbEntity
  8
1
100
AcDbVertex
100
AcDb3dPolylineVertex
 10
78.56518300000002
 20
13.94942899999999
 30
-2.075717
 70
    48
  0
VERTEX
  5
24AE3
330
24ADB
100
AcDbEntity
  8
1
100
AcDbVertex
100
AcDb3dPolylineVertex
 10
77.21485100000002
 20
13.09420999999999
 30
-2.075717
 70
    48
  0
VERTEX
  5
24AE4
330
24ADB
100
AcDbEntity
  8
1
100
AcDbVertex
100
AcDb3dPolylineVertex
 10
76.53093100000003
 20
12.57644499999999
 30
-2.075717
 70
    48
  0
VERTEX
  5
24AE5
330
24ADB
100
AcDbEntity
  8
1
100
AcDbVertex
100
AcDb3dPolylineVertex
 10
75.108276
 20
11.01971399999999
 30
-2.075717
 70
    48
  0
VERTEX
  5
24AE6
330
24ADB
100
AcDbEntity
  8
1
100
AcDbVertex
100
AcDb3dPolylineVertex
 10
74.52693900000001
 20
10.06886199999999
 30
-2.075717
 70
    48
  0
VERTEX
  5
24AE7
330
24ADB
100
AcDbEntity
  8
1
100
AcDbVertex
100
AcDb3dPolylineVertex
 10
73.400766
 20
7.445810999999991
 30
-2.075717
 70
    48
  0
VERTEX
  5
24AE8
330
24ADB
100
AcDbEntity
  8
1
100
AcDbVertex
100
AcDb3dPolylineVertex
 10
73.15092000000001
 20
5.997940999999991
 30
-2.075717
 70
    48
  0
VERTEX
  5
24AE9
330
24ADB
100
AcDbEntity
  8
1
100
AcDbVertex
100
AcDb3dPolylineVertex
 10
73.25042800000002
 20
3.217970999999987
 30
-2.075717
 70
    48
  0
VERTEX
  5
24AEA
330
24ADB
100
AcDbEntity
  8
1
100
AcDbVertex
100
AcDb3dPolylineVertex
 10
73.401861
 20
2.306468999999987
 30
-2.075717
 70
    48
  0
VERTEX
  5
24AEB
330
24ADB
100
AcDbEntity
  8
1
100
AcDbVertex
100
AcDb3dPolylineVertex
 10
73.65910300000002
 20
1.265377999999987
 30
-2.075717
 70
    48
  0
VERTEX
  5
24AEC
330
24ADB
100
AcDbEntity
  8
1
100
AcDbVertex
100
AcDb3dPolylineVertex
 10
87.026149
 20
16.15454099999999
 30
-2.075717
 70
    40
  0
VERTEX
  5
24AED
330
24ADB
100
AcDbEntity
  8
1
100
AcDbVertex
100
AcDb3dPolylineVertex
 10
85.62158600000001
 20
16.00581199999999
 30
-2.075717
 70
    40
  0
VERTEX
  5
24AEE
330
24ADB
100
AcDbEntity
  8
1
100
AcDbVertex
100
AcDb3dPolylineVertex
 10
84.92190800000001
 20
15.91087299999999
 30
-2.075717
 70
    40
  0
VERTEX
  5
24AEF
330
24ADB
100
AcDbEntity
  8
1
100
AcDbVertex
100
AcDb3dPolylineVertex
 10
84.03966100000003
 20
15.76779299999999
 30
-2.075717
 70
    40
  0
VERTEX
  5
24AF0
330
24ADB
100
AcDbEntity
  8
1
100
AcDbVertex
100
AcDb3dPolylineVertex
 10
83.16217599999998
 20
15.59514799999999
 30
-2.075717
 70
    40
  0
VERTEX
  5
24AF1
330
24ADB
100
AcDbEntity
  8
1
100
AcDbVertex
100
AcDb3dPolylineVertex
 10
82.291796
 20
15.38826899999999
 30
-2.075717
 70
    40
  0
VERTEX
  5
24AF2
330
24ADB
100
AcDbEntity
  8
1
100
AcDbVertex
100
AcDb3dPolylineVertex
 10
81.430863
 20
15.14248199999999
 30
-2.075717
 70
    40
  0
VERTEX
  5
24AF3
330
24ADB
100
AcDbEntity
  8
1
100
AcDbVertex
100
AcDb3dPolylineVertex
 10
80.58171900000003
 20
14.85311499999999
 30
-2.075717
 70
    40
  0
VERTEX
  5
24AF4
330
24ADB
100
AcDbEntity
  8
1
100
AcDbVertex
100
AcDb3dPolylineVertex
 10
79.74670800000001
 20
14.51549799999999
 30
-2.075717
 70
    40
  0
VERTEX
  5
24AF5
330
24ADB
100
AcDbEntity
  8
1
100
AcDbVertex
100
AcDb3dPolylineVertex
 10
79.146169
 20
14.23537199999999
 30
-2.075717
 70
    40
  0
VERTEX
  5
24AF6
330
24ADB
100
AcDbEntity
  8
1
100
AcDbVertex
100
AcDb3dPolylineVertex
 10
78.5643
 20
13.92810899999999
 30
-2.075717
 70
    40
  0
VERTEX
  5
24AF7
330
24ADB
100
AcDbEntity
  8
1
100
AcDbVertex
100
AcDb3dPolylineVertex
 10
77.98884000000002
 20
13.58440799999999
 30
-2.075717
 70
    40
  0
VERTEX
  5
24AF8
330
24ADB
100
AcDbEntity
  8
1
100
AcDbVertex
100
AcDb3dPolylineVertex
 10
77.244025
 20
13.08022199999999
 30
-2.075717
 70
    40
  0
VERTEX
  5
24AF9
330
24ADB
100
AcDbEntity
  8
1
100
AcDbVertex
100
AcDb3dPolylineVertex
 10
76.892543
 20
12.81223899999999
 30
-2.075717
 70
    40
  0
VERTEX
  5
24AFA
330
24ADB
100
AcDbEntity
  8
1
100
AcDbVertex
100
AcDb3dPolylineVertex
 10
76.554161
 20
12.52886399999999
 30
-2.075717
 70
    40
  0
VERTEX
  5
24AFB
330
24ADB
100
AcDbEntity
  8
1
100
AcDbVertex
100
AcDb3dPolylineVertex
 10
76.22824399999998
 20
12.22649799999999
 30
-2.075717
 70
    40
  0
VERTEX
  5
24AFC
330
24ADB
100
AcDbEntity
  8
1
100
AcDbVertex
100
AcDb3dPolylineVertex
 10
75.91415400000002
 20
11.90154099999999
 30
-2.075717
 70
    40
  0
VERTEX
  5
24AFD
330
24ADB
100
AcDbEntity
  8
1
100
AcDbVertex
100
AcDb3dPolylineVertex
 10
75.52935900000001
 20
11.45442699999999
 30
-2.075717
 70
    40
  0
VERTEX
  5
24AFE
330
24ADB
100
AcDbEntity
  8
1
100
AcDbVertex
100
AcDb3dPolylineVertex
 10
75.17858100000002
 20
10.99311999999999
 30
-2.075717
 70
    40
  0
VERTEX
  5
24AFF
330
24ADB
100
AcDbEntity
  8
1
100
AcDbVertex
100
AcDb3dPolylineVertex
 10
74.858413
 20
10.51492999999999
 30
-2.075717
 70
    40
  0
VERTEX
  5
24B00
330
24ADB
100
AcDbEntity
  8
1
100
AcDbVertex
100
AcDb3dPolylineVertex
 10
74.565449
 20
10.01716999999999
 30
-2.075717
 70
    40
  0
VERTEX
  5
24B01
330
24ADB
100
AcDbEntity
  8
1
100
AcDbVertex
100
AcDb3dPolylineVertex
 10
74.29628200000002
 20
9.497147999999992
 30
-2.075717
 70
    40
  0
VERTEX
  5
24B02
330
24ADB
100
AcDbEntity
  8
1
100
AcDbVertex
100
AcDb3dPolylineVertex
 10
74.047505
 20
8.952176999999991
 30
-2.075717
 70
    40
  0
VERTEX
  5
24B03
330
24ADB
100
AcDbEntity
  8
1
100
AcDbVertex
100
AcDb3dPolylineVertex
 10
73.75680700000002
 20
8.202525999999991
 30
-2.075717
 70
    40
  0
VERTEX
  5
24B04
330
24ADB
100
AcDbEntity
  8
1
100
AcDbVertex
100
AcDb3dPolylineVertex
 10
73.529844
 20
7.45457099999999
 30
-2.075717
 70
    40
  0
VERTEX
  5
24B05
330
24ADB
100
AcDbEntity
  8
1
100
AcDbVertex
100
AcDb3dPolylineVertex
 10
73.364199
 20
6.700254999999986
 30
-2.075717
 70
    40
  0
VERTEX
  5
24B06
330
24ADB
100
AcDbEntity
  8
1
100
AcDbVertex
100
AcDb3dPolylineVertex
 10
73.25745900000002
 20
5.931525999999991
 30
-2.075717
 70
    40
  0
VERTEX
  5
24B07
330
24ADB
100
AcDbEntity
  8
1
100
AcDbVertex
100
AcDb3dPolylineVertex
 10
73.20720800000002
 20
5.140327999999987
 30
-2.075717
 70
    40
  0
VERTEX
  5
24B08
330
24ADB
100
AcDbEntity
  8
1
100
AcDbVertex
100
AcDb3dPolylineVertex
 10
73.21103100000001
 20
4.318607999999986
 30
-2.075717
 70
    40
  0
VERTEX
  5
24B09
330
24ADB
100
AcDbEntity
  8
1
100
AcDbVertex
100
AcDb3dPolylineVertex
 10
73.240037
 20
3.782574999999988
 30
-2.075717
 70
    40
  0
VERTEX
  5
24B0A
330
24ADB
100
AcDbEntity
  8
1
100
AcDbVertex
100
AcDb3dPolylineVertex
 10
73.28754299999999
 20
3.269210999999998
 30
-2.075717
 70
    40
  0
VERTEX
  5
24B0B
330
24ADB
100
AcDbEntity
  8
1
100
AcDbVertex
100
AcDb3dPolylineVertex
 10
73.437361
 20
2.275077000000008
 30
-2.075717
 70
    40
  0
VERTEX
  5
24B0C
330
24ADB
100
AcDbEntity
  8
1
100
AcDbVertex
100
AcDb3dPolylineVertex
 10
73.65910300000002
 20
1.265377999999987
 30
-2.075717
 70
    40
  0
VERTEX
  5
24B0D
330
24ADB
100
AcDbEntity
  8
1
100
AcDbVertex
100
AcDb3dPolylineVertex
 10
73.65910300000002
 20
1.265377999999987
 30
-2.075717
 70
    40
  0
SEQEND
  5
24B0E
330
24ADB
100
AcDbEntity
  8
1
  0
POLYLINE
  5
24B0F
330
18
100
AcDbEntity
  8
1
100
AcDb3dPolyline
 66
     1
 10
0.0
 20
0.0
 30
0.0
 70
    12
 75
     6
  0
VERTEX
  5
24B10
330
24B0F
100
AcDbEntity
  8
1
100
AcDbVertex
100
AcDb3dPolylineVertex
 10
102.37809
 20
11.84020699999999
 30
-2.075717
 70
    48
  0
VERTEX
  5
24B11
330
24B0F
100
AcDbEntity
  8
1
100
AcDbVertex
100
AcDb3dPolylineVertex
 10
102.247807
 20
11.84954399999999
 30
-2.075717
 70
    48
  0
VERTEX
  5
24B12
330
24B0F
100
AcDbEntity
  8
1
100
AcDbVertex
100
AcDb3dPolylineVertex
 10
102.117231
 20
11.85294399999999
 30
-2.075717
 70
    48
  0
VERTEX
  5
24B13
330
24B0F
100
AcDbEntity
  8
1
100
AcDbVertex
100
AcDb3dPolylineVertex
 10
101.35043
 20
11.83742999999999
 30
-2.075717
 70
    48
  0
VERTEX
  5
24B14
330
24B0F
100
AcDbEntity
  8
1
100
AcDbVertex
100
AcDb3dPolylineVertex
 10
100.715216
 20
11.67912799999999
 30
-2.075717
 70
    48
  0
VERTEX
  5
24B15
330
24B0F
100
AcDbEntity
  8
1
100
AcDbVertex
100
AcDb3dPolylineVertex
 10
99.98600600000001
 20
11.28382199999999
 30
-2.075717
 70
    48
  0
VERTEX
  5
24B16
330
24B0F
100
AcDbEntity
  8
1
100
AcDbVertex
100
AcDb3dPolylineVertex
 10
99.85252500000001
 20
11.20017499999999
 30
-2.075717
 70
    48
  0
VERTEX
  5
24B17
330
24B0F
100
AcDbEntity
  8
1
100
AcDbVertex
100
AcDb3dPolylineVertex
 10
99.70882000000001
 20
11.09551899999999
 30
-2.075717
 70
    48
  0
VERTEX
  5
24B18
330
24B0F
100
AcDbEntity
  8
1
100
AcDbVertex
100
AcDb3dPolylineVertex
 10
102.37809
 20
11.84020699999999
 30
-2.075717
 70
    40
  0
VERTEX
  5
24B19
330
24B0F
100
AcDbEntity
  8
1
100
AcDbVertex
100
AcDb3dPolylineVertex
 10
101.986777
 20
11.85030499999999
 30
-2.075717
 70
    40
  0
VERTEX
  5
24B1A
330
24B0F
100
AcDbEntity
  8
1
100
AcDbVertex
100
AcDb3dPolylineVertex
 10
101.668968
 20
11.83170999999999
 30
-2.075717
 70
    40
  0
VERTEX
  5
24B1B
330
24B0F
100
AcDbEntity
  8
1
100
AcDbVertex
100
AcDb3dPolylineVertex
 10
101.35297
 20
11.78864399999999
 30
-2.075717
 70
    40
  0
VERTEX
  5
24B1C
330
24B0F
100
AcDbEntity
  8
1
100
AcDbVertex
100
AcDb3dPolylineVertex
 10
101.040403
 20
11.72087699999999
 30
-2.075717
 70
    40
  0
VERTEX
  5
24B1D
330
24B0F
100
AcDbEntity
  8
1
100
AcDbVertex
100
AcDb3dPolylineVertex
 10
100.732891
 20
11.62817499999999
 30
-2.075717
 70
    40
  0
VERTEX
  5
24B1E
330
24B0F
100
AcDbEntity
  8
1
100
AcDbVertex
100
AcDb3dPolylineVertex
 10
100.432053
 20
11.51030599999999
 30
-2.075717
 70
    40
  0
VERTEX
  5
24B1F
330
24B0F
100
AcDbEntity
  8
1
100
AcDbVertex
100
AcDb3dPolylineVertex
 10
100.139513
 20
11.36703799999999
 30
-2.075717
 70
    40
  0
VERTEX
  5
24B20
330
24B0F
100
AcDbEntity
  8
1
100
AcDbVertex
100
AcDb3dPolylineVertex
 10
99.85023700000001
 20
11.19393399999999
 30
-2.075717
 70
    40
  0
VERTEX
  5
24B21
330
24B0F
100
AcDbEntity
  8
1
100
AcDbVertex
100
AcDb3dPolylineVertex
 10
99.70882000000001
 20
11.09551899999999
 30
-2.075717
 70
    40
  0
SEQEND
  5
24B22
330
24B0F
100
AcDbEntity
  8
1
  0
POLYLINE
  5
24B23
330
18
100
AcDbEntity
  8
1
100
AcDb3dPolyline
 66
     1
 10
0.0
 20
0.0
 30
0.0
 70
    12
 75
     6
  0
VERTEX
  5
24B24
330
24B23
100
AcDbEntity
  8
1
100
AcDbVertex
100
AcDb3dPolylineVertex
 10
89.718069
 20
-10.33770900000001
 30
-2.075717
 70
    48
  0
VERTEX
  5
24B25
330
24B23
100
AcDbEntity
  8
1
100
AcDbVertex
100
AcDb3dPolylineVertex
 10
90.5554
 20
-10.40978600000001
 30
-2.075717
 70
    48
  0
VERTEX
  5
24B26
330
24B23
100
AcDbEntity
  8
1
100
AcDbVertex
100
AcDb3dPolylineVertex
 10
91.39283199999999
 20
-10.48069200000001
 30
-2.075717
 70
    48
  0
VERTEX
  5
24B27
330
24B23
100
AcDbEntity
  8
1
100
AcDbVertex
100
AcDb3dPolylineVertex
 10
93.18448899999999
 20
-10.629955
 30
-2.075717
 70
    48
  0
VERTEX
  5
24B28
330
24B23
100
AcDbEntity
  8
1
100
AcDbVertex
100
AcDb3dPolylineVertex
 10
94.138744
 20
-10.70797600000001
 30
-2.075717
 70
    48
  0
VERTEX
  5
24B29
330
24B23
100
AcDbEntity
  8
1
100
AcDbVertex
100
AcDb3dPolylineVertex
 10
95.093112
 20
-10.78459200000001
 30
-2.075717
 70
    48
  0
VERTEX
  5
24B2A
330
24B23
100
AcDbEntity
  8
1
100
AcDbVertex
100
AcDb3dPolylineVertex
 10
89.718069
 20
-10.33770900000001
 30
-2.075717
 70
    40
  0
VERTEX
  5
24B2B
330
24B23
100
AcDbEntity
  8
1
100
AcDbVertex
100
AcDb3dPolylineVertex
 10
95.093112
 20
-10.78459200000001
 30
-2.075717
 70
    40
  0
SEQEND
  5
24B2C
330
24B23
100
AcDbEntity
  8
1
  0
POLYLINE
  5
24B2D
330
18
100
AcDbEntity
  8
1
100
AcDb3dPolyline
 66
     1
 10
0.0
 20
0.0
 30
0.0
 70
    12
 75
     6
  0
VERTEX
  5
24B2E
330
24B2D
100
AcDbEntity
  8
1
100
AcDbVertex
100
AcDb3dPolylineVertex
 10
85.85198199999998
 20
11.36265699999999
 30
-2.075717
 70
    48
  0
VERTEX
  5
24B2F
330
24B2D
100
AcDbEntity
  8
1
100
AcDbVertex
100
AcDb3dPolylineVertex
 10
85.98541199999997
 20
11.35149499999999
 30
-2.075717
 70
    48
  0
VERTEX
  5
24B30
330
24B2D
100
AcDbEntity
  8
1
100
AcDbVertex
100
AcDb3dPolylineVertex
 10
86.09970600000002
 20
11.34291299999999
 30
-2.075717
 70
    48
  0
VERTEX
  5
24B31
330
24B2D
100
AcDbEntity
  8
1
100
AcDbVertex
100
AcDb3dPolylineVertex
 10
86.55088799999999
 20
11.27405199999999
 30
-2.075717
 70
    48
  0
VERTEX
  5
24B32
330
24B2D
100
AcDbEntity
  8
1
100
AcDbVertex
100
AcDb3dPolylineVertex
 10
86.75205100000004
 20
11.24031499999999
 30
-2.075717
 70
    48
  0
VERTEX
  5
24B33
330
24B2D
100
AcDbEntity
  8
1
100
AcDbVertex
100
AcDb3dPolylineVertex
 10
87.13310400000002
 20
10.86331099999999
 30
-2.075717
 70
    48
  0
VERTEX
  5
24B34
330
24B2D
100
AcDbEntity
  8
1
100
AcDbVertex
100
AcDb3dPolylineVertex
 10
87.17902300000002
 20
10.79603099999999
 30
-2.075717
 70
    48
  0
VERTEX
  5
24B35
330
24B2D
100
AcDbEntity
  8
1
100
AcDbVertex
100
AcDb3dPolylineVertex
 10
87.225722
 20
10.55919499999999
 30
-2.075717
 70
    48
  0
VERTEX
  5
24B36
330
24B2D
100
AcDbEntity
  8
1
100
AcDbVertex
100
AcDb3dPolylineVertex
 10
87.22134399999999
 20
10.44524999999999
 30
-2.075717
 70
    48
  0
VERTEX
  5
24B37
330
24B2D
100
AcDbEntity
  8
1
100
AcDbVertex
100
AcDb3dPolylineVertex
 10
87.17244599999999
 20
10.08814299999999
 30
-2.075717
 70
    48
  0
VERTEX
  5
24B38
330
24B2D
100
AcDbEntity
  8
1
100
AcDbVertex
100
AcDb3dPolylineVertex
 10
87.06489500000001
 20
9.929691999999988
 30
-2.075717
 70
    48
  0
VERTEX
  5
24B39
330
24B2D
100
AcDbEntity
  8
1
100
AcDbVertex
100
AcDb3dPolylineVertex
 10
86.68395700000003
 20
9.426744999999991
 30
-2.075717
 70
    48
  0
VERTEX
  5
24B3A
330
24B2D
100
AcDbEntity
  8
1
100
AcDbVertex
100
AcDb3dPolylineVertex
 10
86.42277699999999
 20
9.078428999999987
 30
-2.075717
 70
    48
  0
VERTEX
  5
24B3B
330
24B2D
100
AcDbEntity
  8
1
100
AcDbVertex
100
AcDb3dPolylineVertex
 10
85.47044500000001
 20
8.116255999999991
 30
-2.075717
 70
    48
  0
VERTEX
  5
24B3C
330
24B2D
100
AcDbEntity
  8
1
100
AcDbVertex
100
AcDb3dPolylineVertex
 10
84.68777199999998
 20
7.60535299999999
 30
-2.075717
 70
    48
  0
VERTEX
  5
24B3D
330
24B2D
100
AcDbEntity
  8
1
100
AcDbVertex
100
AcDb3dPolylineVertex
 10
83.53980699999999
 20
6.98067099999999
 30
-2.075717
 70
    48
  0
VERTEX
  5
24B3E
330
24B2D
100
AcDbEntity
  8
1
100
AcDbVertex
100
AcDb3dPolylineVertex
 10
83.21268400000002
 20
6.807994999999992
 30
-2.075717
 70
    48
  0
VERTEX
  5
24B3F
330
24B2D
100
AcDbEntity
  8
1
100
AcDbVertex
100
AcDb3dPolylineVertex
 10
82.40917300000003
 20
6.440770999999991
 30
-2.075717
 70
    48
  0
VERTEX
  5
24B40
330
24B2D
100
AcDbEntity
  8
1
100
AcDbVertex
100
AcDb3dPolylineVertex
 10
81.947702
 20
6.27657999999999
 30
-2.075717
 70
    48
  0
VERTEX
  5
24B41
330
24B2D
100
AcDbEntity
  8
1
100
AcDbVertex
100
AcDb3dPolylineVertex
 10
81.14978599999998
 20
6.117875999999991
 30
-2.075717
 70
    48
  0
VERTEX
  5
24B42
330
24B2D
100
AcDbEntity
  8
1
100
AcDbVertex
100
AcDb3dPolylineVertex
 10
80.858041
 20
6.06314899999999
 30
-2.075717
 70
    48
  0
VERTEX
  5
24B43
330
24B2D
100
AcDbEntity
  8
1
100
AcDbVertex
100
AcDb3dPolylineVertex
 10
80.25761000000001
 20
6.00788599999999
 30
-2.075717
 70
    48
  0
VERTEX
  5
24B44
330
24B2D
100
AcDbEntity
  8
1
100
AcDbVertex
100
AcDb3dPolylineVertex
 10
79.98871500000001
 20
6.012451999999991
 30
-2.075717
 70
    48
  0
VERTEX
  5
24B45
330
24B2D
100
AcDbEntity
  8
1
100
AcDbVertex
100
AcDb3dPolylineVertex
 10
79.510152
 20
6.344928999999991
 30
-2.075717
 70
    48
  0
VERTEX
  5
24B46
330
24B2D
100
AcDbEntity
  8
1
100
AcDbVertex
100
AcDb3dPolylineVertex
 10
79.431145
 20
6.44031599999999
 30
-2.075717
 70
    48
  0
VERTEX
  5
24B47
330
24B2D
100
AcDbEntity
  8
1
100
AcDbVertex
100
AcDb3dPolylineVertex
 10
79.22829400000002
 20
6.710455999999991
 30
-2.075717
 70
    48
  0
VERTEX
  5
24B48
330
24B2D
100
AcDbEntity
  8
1
100
AcDbVertex
100
AcDb3dPolylineVertex
 10
79.14647600000002
 20
6.82576199999999
 30
-2.075717
 70
    48
  0
VERTEX
  5
24B49
330
24B2D
100
AcDbEntity
  8
1
100
AcDbVertex
100
AcDb3dPolylineVertex
 10
78.97266400000003
 20
7.306691999999991
 30
-2.075717
 70
    48
  0
VERTEX
  5
24B4A
330
24B2D
100
AcDbEntity
  8
1
100
AcDbVertex
100
AcDb3dPolylineVertex
 10
79.01514399999998
 20
7.515747999999991
 30
-2.075717
 70
    48
  0
VERTEX
  5
24B4B
330
24B2D
100
AcDbEntity
  8
1
100
AcDbVertex
100
AcDb3dPolylineVertex
 10
79.110068
 20
8.208160999999986
 30
-2.075717
 70
    48
  0
VERTEX
  5
24B4C
330
24B2D
100
AcDbEntity
  8
1
100
AcDbVertex
100
AcDb3dPolylineVertex
 10
79.31495900000001
 20
8.528580999999991
 30
-2.075717
 70
    48
  0
VERTEX
  5
24B4D
330
24B2D
100
AcDbEntity
  8
1
100
AcDbVertex
100
AcDb3dPolylineVertex
 10
79.745446
 20
9.241485999999991
 30
-2.075717
 70
    48
  0
VERTEX
  5
24B4E
330
24B2D
100
AcDbEntity
  8
1
100
AcDbVertex
100
AcDb3dPolylineVertex
 10
80.019244
 20
9.489519999999991
 30
-2.075717
 70
    48
  0
VERTEX
  5
24B4F
330
24B2D
100
AcDbEntity
  8
1
100
AcDbVertex
100
AcDb3dPolylineVertex
 10
81.00658299999997
 20
10.15244599999999
 30
-2.075717
 70
    48
  0
VERTEX
  5
24B50
330
24B2D
100
AcDbEntity
  8
1
100
AcDbVertex
100
AcDb3dPolylineVertex
 10
81.558133
 20
10.50128899999999
 30
-2.075717
 70
    48
  0
VERTEX
  5
24B51
330
24B2D
100
AcDbEntity
  8
1
100
AcDbVertex
100
AcDb3dPolylineVertex
 10
82.65425900000002
 20
10.92150799999999
 30
-2.075717
 70
    48
  0
VERTEX
  5
24B52
330
24B2D
100
AcDbEntity
  8
1
100
AcDbVertex
100
AcDb3dPolylineVertex
 10
83.044589
 20
11.04666399999999
 30
-2.075717
 70
    48
  0
VERTEX
  5
24B53
330
24B2D
100
AcDbEntity
  8
1
100
AcDbVertex
100
AcDb3dPolylineVertex
 10
84.01326199999997
 20
11.28807299999999
 30
-2.075717
 70
    48
  0
VERTEX
  5
24B54
330
24B2D
100
AcDbEntity
  8
1
100
AcDbVertex
100
AcDb3dPolylineVertex
 10
84.547702
 20
11.36925399999999
 30
-2.075717
 70
    48
  0
VERTEX
  5
24B55
330
24B2D
100
AcDbEntity
  8
1
100
AcDbVertex
100
AcDb3dPolylineVertex
 10
85.36185200000002
 20
11.39046299999999
 30
-2.075717
 70
    48
  0
VERTEX
  5
24B56
330
24B2D
100
AcDbEntity
  8
1
100
AcDbVertex
100
AcDb3dPolylineVertex
 10
85.60189600000002
 20
11.38357599999999
 30
-2.075717
 70
    48
  0
VERTEX
  5
24B57
330
24B2D
100
AcDbEntity
  8
1
100
AcDbVertex
100
AcDb3dPolylineVertex
 10
85.85198199999998
 20
11.36265699999999
 30
-2.075717
 70
    48
  0
VERTEX
  5
24B58
330
24B2D
100
AcDbEntity
  8
1
100
AcDbVertex
100
AcDb3dPolylineVertex
 10
85.85198199999998
 20
11.36265699999999
 30
-2.075717
 70
    40
  0
VERTEX
  5
24B59
330
24B2D
100
AcDbEntity
  8
1
100
AcDbVertex
100
AcDb3dPolylineVertex
 10
86.24024600000002
 20
11.32146299999999
 30
-2.075717
 70
    40
  0
VERTEX
  5
24B5A
330
24B2D
100
AcDbEntity
  8
1
100
AcDbVertex
100
AcDb3dPolylineVertex
 10
86.52120000000001
 20
11.26925999999999
 30
-2.075717
 70
    40
  0
VERTEX
  5
24B5B
330
24B2D
100
AcDbEntity
  8
1
100
AcDbVertex
100
AcDb3dPolylineVertex
 10
86.77000000000004
 20
11.17007699999999
 30
-2.075717
 70
    40
  0
VERTEX
  5
24B5C
330
24B2D
100
AcDbEntity
  8
1
100
AcDbVertex
100
AcDb3dPolylineVertex
 10
86.89510100000005
 20
11.08533799999999
 30
-2.075717
 70
    40
  0
VERTEX
  5
24B5D
330
24B2D
100
AcDbEntity
  8
1
100
AcDbVertex
100
AcDb3dPolylineVertex
 10
87.11451700000003
 20
10.87275099999999
 30
-2.075717
 70
    40
  0
VERTEX
  5
24B5E
330
24B2D
100
AcDbEntity
  8
1
100
AcDbVertex
100
AcDb3dPolylineVertex
 10
87.169644
 20
10.78469099999999
 30
-2.075717
 70
    40
  0
VERTEX
  5
24B5F
330
24B2D
100
AcDbEntity
  8
1
100
AcDbVertex
100
AcDb3dPolylineVertex
 10
87.20075300000003
 20
10.68582499999999
 30
-2.075717
 70
    40
  0
VERTEX
  5
24B60
330
24B2D
100
AcDbEntity
  8
1
100
AcDbVertex
100
AcDb3dPolylineVertex
 10
87.21588600000002
 20
10.43808299999999
 30
-2.075717
 70
    40
  0
VERTEX
  5
24B61
330
24B2D
100
AcDbEntity
  8
1
100
AcDbVertex
100
AcDb3dPolylineVertex
 10
87.20221200000002
 20
10.30552999999999
 30
-2.075717
 70
    40
  0
VERTEX
  5
24B62
330
24B2D
100
AcDbEntity
  8
1
100
AcDbVertex
100
AcDb3dPolylineVertex
 10
87.148967
 20
10.10564599999999
 30
-2.075717
 70
    40
  0
VERTEX
  5
24B63
330
24B2D
100
AcDbEntity
  8
1
100
AcDbVertex
100
AcDb3dPolylineVertex
 10
87.058566
 20
9.932196999999991
 30
-2.075717
 70
    40
  0
VERTEX
  5
24B64
330
24B2D
100
AcDbEntity
  8
1
100
AcDbVertex
100
AcDb3dPolylineVertex
 10
86.682514
 20
9.42743399999999
 30
-2.075717
 70
    40
  0
VERTEX
  5
24B65
330
24B2D
100
AcDbEntity
  8
1
100
AcDbVertex
100
AcDb3dPolylineVertex
 10
86.409905
 20
9.090319999999987
 30
-2.075717
 70
    40
  0
VERTEX
  5
24B66
330
24B2D
100
AcDbEntity
  8
1
100
AcDbVertex
100
AcDb3dPolylineVertex
 10
86.11808400000002
 20
8.77058699999999
 30
-2.075717
 70
    40
  0
VERTEX
  5
24B67
330
24B2D
100
AcDbEntity
  8
1
100
AcDbVertex
100
AcDb3dPolylineVertex
 10
85.783488
 20
8.45502199999999
 30
-2.075717
 70
    40
  0
VERTEX
  5
24B68
330
24B2D
100
AcDbEntity
  8
1
100
AcDbVertex
100
AcDb3dPolylineVertex
 10
85.42924500000003
 20
8.16125399999999
 30
-2.075717
 70
    40
  0
VERTEX
  5
24B69
330
24B2D
100
AcDbEntity
  8
1
100
AcDbVertex
100
AcDb3dPolylineVertex
 10
85.05821199999997
 20
7.88717199999999
 30
-2.075717
 70
    40
  0
VERTEX
  5
24B6A
330
24B2D
100
AcDbEntity
  8
1
100
AcDbVertex
100
AcDb3dPolylineVertex
 10
84.673248
 20
7.630667999999992
 30
-2.075717
 70
    40
  0
VERTEX
  5
24B6B
330
24B2D
100
AcDbEntity
  8
1
100
AcDbVertex
100
AcDb3dPolylineVertex
 10
83.87295999999997
 20
7.161960999999991
 30
-2.075717
 70
    40
  0
VERTEX
  5
24B6C
330
24B2D
100
AcDbEntity
  8
1
100
AcDbVertex
100
AcDb3dPolylineVertex
 10
83.20726400000003
 20
6.812600999999991
 30
-2.075717
 70
    40
  0
VERTEX
  5
24B6D
330
24B2D
100
AcDbEntity
  8
1
100
AcDbVertex
100
AcDb3dPolylineVertex
 10
82.866513
 20
6.649786999999991
 30
-2.075717
 70
    40
  0
VERTEX
  5
24B6E
330
24B2D
100
AcDbEntity
  8
1
100
AcDbVertex
100
AcDb3dPolylineVertex
 10
82.406652
 20
6.456475999999987
 30
-2.075717
 70
    40
  0
VERTEX
  5
24B6F
330
24B2D
100
AcDbEntity
  8
1
100
AcDbVertex
100
AcDb3dPolylineVertex
 10
81.93717000000003
 20
6.297628999999991
 30
-2.075717
 70
    40
  0
VERTEX
  5
24B70
330
24B2D
100
AcDbEntity
  8
1
100
AcDbVertex
100
AcDb3dPolylineVertex
 10
81.45120099999997
 20
6.177826999999991
 30
-2.075717
 70
    40
  0
VERTEX
  5
24B71
330
24B2D
100
AcDbEntity
  8
1
100
AcDbVertex
100
AcDb3dPolylineVertex
 10
80.85556999999999
 20
6.071340999999986
 30
-2.075717
 70
    40
  0
VERTEX
  5
24B72
330
24B2D
100
AcDbEntity
  8
1
100
AcDbVertex
100
AcDb3dPolylineVertex
 10
80.55674899999997
 20
6.035417999999991
 30
-2.075717
 70
    40
  0
VERTEX
  5
24B73
330
24B2D
100
AcDbEntity
  8
1
100
AcDbVertex
100
AcDb3dPolylineVertex
 10
80.26503600000003
 20
6.025212999999991
 30
-2.075717
 70
    40
  0
VERTEX
  5
24B74
330
24B2D
100
AcDbEntity
  8
1
100
AcDbVertex
100
AcDb3dPolylineVertex
 10
80.121763
 20
6.040560999999986
 30
-2.075717
 70
    40
  0
VERTEX
  5
24B75
330
24B2D
100
AcDbEntity
  8
1
100
AcDbVertex
100
AcDb3dPolylineVertex
 10
79.97755600000002
 20
6.076170999999991
 30
-2.075717
 70
    40
  0
VERTEX
  5
24B76
330
24B2D
100
AcDbEntity
  8
1
100
AcDbVertex
100
AcDb3dPolylineVertex
 10
79.830425
 20
6.137011999999987
 30
-2.075717
 70
    40
  0
VERTEX
  5
24B77
330
24B2D
100
AcDbEntity
  8
1
100
AcDbVertex
100
AcDb3dPolylineVertex
 10
79.67837800000002
 20
6.228055999999991
 30
-2.075717
 70
    40
  0
VERTEX
  5
24B78
330
24B2D
100
AcDbEntity
  8
1
100
AcDbVertex
100
AcDb3dPolylineVertex
 10
79.53586200000002
 20
6.339891999999991
 30
-2.075717
 70
    40
  0
VERTEX
  5
24B79
330
24B2D
100
AcDbEntity
  8
1
100
AcDbVertex
100
AcDb3dPolylineVertex
 10
79.33256000000001
 20
6.571603999999991
 30
-2.075717
 70
    40
  0
VERTEX
  5
24B7A
330
24B2D
100
AcDbEntity
  8
1
100
AcDbVertex
100
AcDb3dPolylineVertex
 10
79.15084499999998
 20
6.848014999999991
 30
-2.075717
 70
    40
  0
VERTEX
  5
24B7B
330
24B2D
100
AcDbEntity
  8
1
100
AcDbVertex
100
AcDb3dPolylineVertex
 10
79.07659600000002
 20
7.01911499999999
 30
-2.075717
 70
    40
  0
VERTEX
  5
24B7C
330
24B2D
100
AcDbEntity
  8
1
100
AcDbVertex
100
AcDb3dPolylineVertex
 10
79.01584200000002
 20
7.285674999999991
 30
-2.075717
 70
    40
  0
VERTEX
  5
24B7D
330
24B2D
100
AcDbEntity
  8
1
100
AcDbVertex
100
AcDb3dPolylineVertex
 10
79.01893699999998
 20
7.530822999999991
 30
-2.075717
 70
    40
  0
VERTEX
  5
24B7E
330
24B2D
100
AcDbEntity
  8
1
100
AcDbVertex
100
AcDb3dPolylineVertex
 10
79.092715
 20
7.988957999999991
 30
-2.075717
 70
    40
  0
VERTEX
  5
24B7F
330
24B2D
100
AcDbEntity
  8
1
100
AcDbVertex
100
AcDb3dPolylineVertex
 10
79.15403900000002
 20
8.179279999999991
 30
-2.075717
 70
    40
  0
VERTEX
  5
24B80
330
24B2D
100
AcDbEntity
  8
1
100
AcDbVertex
100
AcDb3dPolylineVertex
 10
79.32385
 20
8.53610199999999
 30
-2.075717
 70
    40
  0
VERTEX
  5
24B81
330
24B2D
100
AcDbEntity
  8
1
100
AcDbVertex
100
AcDb3dPolylineVertex
 10
79.53149000000002
 20
8.887165999999988
 30
-2.075717
 70
    40
  0
VERTEX
  5
24B82
330
24B2D
100
AcDbEntity
  8
1
100
AcDbVertex
100
AcDb3dPolylineVertex
 10
79.76608300000002
 20
9.20956799999999
 30
-2.075717
 70
    40
  0
VERTEX
  5
24B83
330
24B2D
100
AcDbEntity
  8
1
100
AcDbVertex
100
AcDb3dPolylineVertex
 10
80.04470900000002
 20
9.482171999999991
 30
-2.075717
 70
    40
  0
VERTEX
  5
24B84
330
24B2D
100
AcDbEntity
  8
1
100
AcDbVertex
100
AcDb3dPolylineVertex
 10
80.37150600000002
 20
9.726038999999991
 30
-2.075717
 70
    40
  0
VERTEX
  5
24B85
330
24B2D
100
AcDbEntity
  8
1
100
AcDbVertex
100
AcDb3dPolylineVertex
 10
80.986782
 20
10.12627199999999
 30
-2.075717
 70
    40
  0
VERTEX
  5
24B86
330
24B2D
100
AcDbEntity
  8
1
100
AcDbVertex
100
AcDb3dPolylineVertex
 10
81.594619
 20
10.47287999999999
 30
-2.075717
 70
    40
  0
VERTEX
  5
24B87
330
24B2D
100
AcDbEntity
  8
1
100
AcDbVertex
100
AcDb3dPolylineVertex
 10
82.24326299999999
 20
10.76394599999999
 30
-2.075717
 70
    40
  0
VERTEX
  5
24B88
330
24B2D
100
AcDbEntity
  8
1
100
AcDbVertex
100
AcDb3dPolylineVertex
 10
83.05336600000002
 20
11.03958099999999
 30
-2.075717
 70
    40
  0
VERTEX
  5
24B89
330
24B2D
100
AcDbEntity
  8
1
100
AcDbVertex
100
AcDb3dPolylineVertex
 10
83.46712600000001
 20
11.15196699999999
 30
-2.075717
 70
    40
  0
VERTEX
  5
24B8A
330
24B2D
100
AcDbEntity
  8
1
100
AcDbVertex
100
AcDb3dPolylineVertex
 10
83.46712600000001
 20
11.15196699999999
 30
-2.075717
 70
    40
  0
VERTEX
  5
24B8B
330
24B2D
100
AcDbEntity
  8
1
100
AcDbVertex
100
AcDb3dPolylineVertex
 10
84.01084000000002
 20
11.26933499999999
 30
-2.075717
 70
    40
  0
VERTEX
  5
24B8C
330
24B2D
100
AcDbEntity
  8
1
100
AcDbVertex
100
AcDb3dPolylineVertex
 10
84.55561199999998
 20
11.34750799999999
 30
-2.075717
 70
    40
  0
VERTEX
  5
24B8D
330
24B2D
100
AcDbEntity
  8
1
100
AcDbVertex
100
AcDb3dPolylineVertex
 10
85.11030100000002
 20
11.38390999999999
 30
-2.075717
 70
    40
  0
VERTEX
  5
24B8E
330
24B2D
100
AcDbEntity
  8
1
100
AcDbVertex
100
AcDb3dPolylineVertex
 10
85.604445
 20
11.37892099999999
 30
-2.075717
 70
    40
  0
VERTEX
  5
24B8F
330
24B2D
100
AcDbEntity
  8
1
100
AcDbVertex
100
AcDb3dPolylineVertex
 10
85.85198199999998
 20
11.36265699999999
 30
-2.075717
 70
    40
  0
SEQEND
  5
24B90
330
24B2D
100
AcDbEntity
  8
1
  0
POLYLINE
  5
24B91
330
18
100
AcDbEntity
  8
1
100
AcDb3dPolyline
 66
     1
 10
0.0
 20
0.0
 30
0.0
 70
    12
 75
     6
  0
VERTEX
  5
24B92
330
24B91
100
AcDbEntity
  8
1
100
AcDbVertex
100
AcDb3dPolylineVertex
 10
73.65910300000002
 20
1.265377999999987
 30
-2.075717
 70
    48
  0
VERTEX
  5
24B93
330
24B91
100
AcDbEntity
  8
1
100
AcDbVertex
100
AcDb3dPolylineVertex
 10
73.79045600000002
 20
0.7349589999999875
 30
-2.075717
 70
    48
  0
VERTEX
  5
24B94
330
24B91
100
AcDbEntity
  8
1
100
AcDbVertex
100
AcDb3dPolylineVertex
 10
73.94519200000002
 20
0.2231089999999867
 30
-2.075717
 70
    48
  0
VERTEX
  5
24B95
330
24B91
100
AcDbEntity
  8
1
100
AcDbVertex
100
AcDb3dPolylineVertex
 10
74.370765
 20
-0.9280630000000016
 30
-2.075717
 70
    48
  0
VERTEX
  5
24B96
330
24B91
100
AcDbEntity
  8
1
100
AcDbVertex
100
AcDb3dPolylineVertex
 10
74.646143
 20
-1.528931
 30
-2.075717
 70
    48
  0
VERTEX
  5
24B97
330
24B91
100
AcDbEntity
  8
1
100
AcDbVertex
100
AcDb3dPolylineVertex
 10
75.22676700000002
 20
-2.579595000000009
 30
-2.075717
 70
    48
  0
VERTEX
  5
24B98
330
24B91
100
AcDbEntity
  8
1
100
AcDbVertex
100
AcDb3dPolylineVertex
 10
75.486626
 20
-2.996216
 30
-2.075717
 70
    48
  0
VERTEX
  5
24B99
330
24B91
100
AcDbEntity
  8
1
100
AcDbVertex
100
AcDb3dPolylineVertex
 10
76.52521
 20
-4.489599000000011
 30
-2.075717
 70
    48
  0
VERTEX
  5
24B9A
330
24B91
100
AcDbEntity
  8
1
100
AcDbVertex
100
AcDb3dPolylineVertex
 10
77.42414100000002
 20
-5.441339000000008
 30
-2.075717
 70
    48
  0
VERTEX
  5
24B9B
330
24B91
100
AcDbEntity
  8
1
100
AcDbVertex
100
AcDb3dPolylineVertex
 10
78.429025
 20
-6.261220000000013
 30
-2.075717
 70
    48
  0
VERTEX
  5
24B9C
330
24B91
100
AcDbEntity
  8
1
100
AcDbVertex
100
AcDb3dPolylineVertex
 10
78.429025
 20
-6.261220000000013
 30
-2.075717
 70
    48
  0
VERTEX
  5
24B9D
330
24B91
100
AcDbEntity
  8
1
100
AcDbVertex
100
AcDb3dPolylineVertex
 10
79.43384100000002
 20
-7.081046000000013
 30
-2.075717
 70
    48
  0
VERTEX
  5
24B9E
330
24B91
100
AcDbEntity
  8
1
100
AcDbVertex
100
AcDb3dPolylineVertex
 10
80.54928000000002
 20
-7.762931000000013
 30
-2.075717
 70
    48
  0
VERTEX
  5
24B9F
330
24B91
100
AcDbEntity
  8
1
100
AcDbVertex
100
AcDb3dPolylineVertex
 10
81.73028
 20
-8.319773000000013
 30
-2.075717
 70
    48
  0
VERTEX
  5
24BA0
330
24B91
100
AcDbEntity
  8
1
100
AcDbVertex
100
AcDb3dPolylineVertex
 10
81.73028
 20
-8.319773000000013
 30
-2.075717
 70
    48
  0
VERTEX
  5
24BA1
330
24B91
100
AcDbEntity
  8
1
100
AcDbVertex
100
AcDb3dPolylineVertex
 10
82.187879
 20
-8.535531000000013
 30
-2.075717
 70
    48
  0
VERTEX
  5
24BA2
330
24B91
100
AcDbEntity
  8
1
100
AcDbVertex
100
AcDb3dPolylineVertex
 10
82.64314099999998
 20
-8.727201000000011
 30
-2.075717
 70
    48
  0
VERTEX
  5
24BA3
330
24B91
100
AcDbEntity
  8
1
100
AcDbVertex
100
AcDb3dPolylineVertex
 10
84.597849
 20
-9.463190000000011
 30
-2.075717
 70
    48
  0
VERTEX
  5
24BA4
330
24B91
100
AcDbEntity
  8
1
100
AcDbVertex
100
AcDb3dPolylineVertex
 10
86.105064
 20
-9.835809000000011
 30
-2.075717
 70
    48
  0
VERTEX
  5
24BA5
330
24B91
100
AcDbEntity
  8
1
100
AcDbVertex
100
AcDb3dPolylineVertex
 10
88.341598
 20
-10.19510200000001
 30
-2.075717
 70
    48
  0
VERTEX
  5
24BA6
330
24B91
100
AcDbEntity
  8
1
100
AcDbVertex
100
AcDb3dPolylineVertex
 10
89.02188
 20
-10.277789
 30
-2.075717
 70
    48
  0
VERTEX
  5
24BA7
330
24B91
100
AcDbEntity
  8
1
100
AcDbVertex
100
AcDb3dPolylineVertex
 10
89.718069
 20
-10.33770900000001
 30
-2.075717
 70
    48
  0
VERTEX
  5
24BA8
330
24B91
100
AcDbEntity
  8
1
100
AcDbVertex
100
AcDb3dPolylineVertex
 10
73.65910300000002
 20
1.265377999999987
 30
-2.075717
 70
    40
  0
VERTEX
  5
24BA9
330
24B91
100
AcDbEntity
  8
1
100
AcDbVertex
100
AcDb3dPolylineVertex
 10
73.95636700000001
 20
0.2235529999999883
 30
-2.075717
 70
    40
  0
VERTEX
  5
24BAA
330
24B91
100
AcDbEntity
  8
1
100
AcDbVertex
100
AcDb3dPolylineVertex
 10
74.13471999999998
 20
-0.2895630000000118
 30
-2.075717
 70
    40
  0
VERTEX
  5
24BAB
330
24B91
100
AcDbEntity
  8
1
100
AcDbVertex
100
AcDb3dPolylineVertex
 10
74.38453299999998
 20
-0.9169390000000028
 30
-2.075717
 70
    40
  0
VERTEX
  5
24BAC
330
24B91
100
AcDbEntity
  8
1
100
AcDbVertex
100
AcDb3dPolylineVertex
 10
74.66451000000002
 20
-1.527749
 30
-2.075717
 70
    40
  0
VERTEX
  5
24BAD
330
24B91
100
AcDbEntity
  8
1
100
AcDbVertex
100
AcDb3dPolylineVertex
 10
74.978593
 20
-2.130513999999998
 30
-2.075717
 70
    40
  0
VERTEX
  5
24BAE
330
24B91
100
AcDbEntity
  8
1
100
AcDbVertex
100
AcDb3dPolylineVertex
 10
75.49617399999998
 20
-2.995388999999999
 30
-2.075717
 70
    40
  0
VERTEX
  5
24BAF
330
24B91
100
AcDbEntity
  8
1
100
AcDbVertex
100
AcDb3dPolylineVertex
 10
75.77725
 20
-3.41410499999999
 30
-2.075717
 70
    40
  0
VERTEX
  5
24BB0
330
24B91
100
AcDbEntity
  8
1
100
AcDbVertex
100
AcDb3dPolylineVertex
 10
76.16360199999999
 20
-3.94150199999999
 30
-2.075717
 70
    40
  0
VERTEX
  5
24BB1
330
24B91
100
AcDbEntity
  8
1
100
AcDbVertex
100
AcDb3dPolylineVertex
 10
76.57386600000002
 20
-4.448047000000012
 30
-2.075717
 70
    40
  0
VERTEX
  5
24BB2
330
24B91
100
AcDbEntity
  8
1
100
AcDbVertex
100
AcDb3dPolylineVertex
 10
77.00679100000002
 20
-4.933516999999998
 30
-2.075717
 70
    40
  0
VERTEX
  5
24BB3
330
24B91
100
AcDbEntity
  8
1
100
AcDbVertex
100
AcDb3dPolylineVertex
 10
77.461126
 20
-5.397686000000008
 30
-2.075717
 70
    40
  0
VERTEX
  5
24BB4
330
24B91
100
AcDbEntity
  8
1
100
AcDbVertex
100
AcDb3dPolylineVertex
 10
77.93562099999999
 20
-5.840329000000012
 30
-2.075717
 70
    40
  0
VERTEX
  5
24BB5
330
24B91
100
AcDbEntity
  8
1
100
AcDbVertex
100
AcDb3dPolylineVertex
 10
78.429025
 20
-6.261220000000013
 30
-2.075717
 70
    40
  0
VERTEX
  5
24BB6
330
24B91
100
AcDbEntity
  8
1
100
AcDbVertex
100
AcDb3dPolylineVertex
 10
78.429025
 20
-6.261220000000013
 30
-2.075717
 70
    40
  0
VERTEX
  5
24BB7
330
24B91
100
AcDbEntity
  8
1
100
AcDbVertex
100
AcDb3dPolylineVertex
 10
78.940443
 20
-6.659698000000002
 30
-2.075717
 70
    40
  0
VERTEX
  5
24BB8
330
24B91
100
AcDbEntity
  8
1
100
AcDbVertex
100
AcDb3dPolylineVertex
 10
79.46904600000002
 20
-7.035543000000012
 30
-2.075717
 70
    40
  0
VERTEX
  5
24BB9
330
24B91
100
AcDbEntity
  8
1
100
AcDbVertex
100
AcDb3dPolylineVertex
 10
80.01358300000003
 20
-7.389115000000008
 30
-2.075717
 70
    40
  0
VERTEX
  5
24BBA
330
24B91
100
AcDbEntity
  8
1
100
AcDbVertex
100
AcDb3dPolylineVertex
 10
80.572803
 20
-7.720772
 30
-2.075717
 70
    40
  0
VERTEX
  5
24BBB
330
24B91
100
AcDbEntity
  8
1
100
AcDbVertex
100
AcDb3dPolylineVertex
 10
81.145452
 20
-8.030872000000012
 30
-2.075717
 70
    40
  0
VERTEX
  5
24BBC
330
24B91
100
AcDbEntity
  8
1
100
AcDbVertex
100
AcDb3dPolylineVertex
 10
81.73028
 20
-8.319773000000013
 30
-2.075717
 70
    40
  0
VERTEX
  5
24BBD
330
24B91
100
AcDbEntity
  8
1
100
AcDbVertex
100
AcDb3dPolylineVertex
 10
81.73028
 20
-8.319773000000013
 30
-2.075717
 70
    40
  0
VERTEX
  5
24BBE
330
24B91
100
AcDbEntity
  8
1
100
AcDbVertex
100
AcDb3dPolylineVertex
 10
82.649132
 20
-8.722596000000002
 30
-2.075717
 70
    40
  0
VERTEX
  5
24BBF
330
24B91
100
AcDbEntity
  8
1
100
AcDbVertex
100
AcDb3dPolylineVertex
 10
83.11891499999999
 20
-8.906340000000009
 30
-2.075717
 70
    40
  0
VERTEX
  5
24BC0
330
24B91
100
AcDbEntity
  8
1
100
AcDbVertex
100
AcDb3dPolylineVertex
 10
83.860802
 20
-9.169692000000011
 30
-2.075717
 70
    40
  0
VERTEX
  5
24BC1
330
24B91
100
AcDbEntity
  8
1
100
AcDbVertex
100
AcDb3dPolylineVertex
 10
84.60778000000003
 20
-9.404019000000012
 30
-2.075717
 70
    40
  0
VERTEX
  5
24BC2
330
24B91
100
AcDbEntity
  8
1
100
AcDbVertex
100
AcDb3dPolylineVertex
 10
85.36022900000002
 20
-9.611000999999999
 30
-2.075717
 70
    40
  0
VERTEX
  5
24BC3
330
24B91
100
AcDbEntity
  8
1
100
AcDbVertex
100
AcDb3dPolylineVertex
 10
86.118526
 20
-9.792316000000012
 30
-2.075717
 70
    40
  0
VERTEX
  5
24BC4
330
24B91
100
AcDbEntity
  8
1
100
AcDbVertex
100
AcDb3dPolylineVertex
 10
86.883049
 20
-9.949646000000011
 30
-2.075717
 70
    40
  0
VERTEX
  5
24BC5
330
24B91
100
AcDbEntity
  8
1
100
AcDbVertex
100
AcDb3dPolylineVertex
 10
87.65417700000002
 20
-10.08467
 30
-2.075717
 70
    40
  0
VERTEX
  5
24BC6
330
24B91
100
AcDbEntity
  8
1
100
AcDbVertex
100
AcDb3dPolylineVertex
 10
89.026329
 20
-10.27001600000001
 30
-2.075717
 70
    40
  0
VERTEX
  5
24BC7
330
24B91
100
AcDbEntity
  8
1
100
AcDbVertex
100
AcDb3dPolylineVertex
 10
89.718069
 20
-10.33770900000001
 30
-2.075717
 70
    40
  0
VERTEX
  5
24BC8
330
24B91
100
AcDbEntity
  8
1
100
AcDbVertex
100
AcDb3dPolylineVertex
 10
89.718069
 20
-10.33770900000001
 30
-2.075717
 70
    40
  0
SEQEND
  5
24BC9
330
24B91
100
AcDbEntity
  8
1
  0
TEXT
  5
24BCA
330
18
100
AcDbEntity
  8
16
100
AcDbText
 10
5.062267000000105
 20
-16.792648
 30
-2.075718
 40
2.7
  1
C4-PTFNR-22110-16W
 50
90.0
 41
0.7654022524977293
  7
SANDVIK_STYLE
 72
     5
 11
5.062267000000105
 21
19.32340399999999
 31
-2.075718
100
AcDbText
  0
DIMENSION
  5
24BCB
330
18
100
AcDbEntity
  8
20
100
AcDbDimension
  2
*D23
 10
130.862267
 20
23.14037799999999
 30
-2.075718
 11
130.862267
 21
12.20287799999999
 31
-2.075718
 70
   160
  1
22
 71
     5
 42
21.875
  3
SANDVIK_STYLE
100
AcDbAlignedDimension
 13
118.653934
 23
1.265377999999987
 33
-2.075718
 14
111.362267
 24
23.14037799999999
 34
-2.075718
 50
90.0
100
AcDbRotatedDimension
  0
DIMENSION
  5
24BCC
330
18
100
AcDbEntity
  8
12
100
AcDbDimension
  2
*D24
 10
-31.1377329999999
 20
21.265378
 30
-2.075718
 11
-31.1377329999999
 21
1.265377999999998
 31
-2.075718
 70
   160
  1
D=40
 71
     5
 42
40.0
  3
SANDVIK_STYLE
100
AcDbAlignedDimension
 13
1.362267000000002
 23
-18.734622
 33
-2.075718
 14
1.362267000000002
 24
21.26537799999999
 34
-2.075718
 50
90.0
100
AcDbRotatedDimension
  0
DIMENSION
  5
24BCD
330
18
100
AcDbEntity
  8
12
100
AcDbDimension
  2
*D25
 10
60.15910300000001
 20
17.26537799999998
 30
-2.075718
 11
60.15910300000001
 21
1.118009999999998
 31
-2.075718
 70
   160
  1
%%c32.0
 71
     5
 42
32.0
  3
SANDVIK_STYLE
100
AcDbAlignedDimension
 13
21.93406400000001
 23
-14.73462200000001
 33
-2.075718
 14
21.93406400000001
 24
17.26537799999999
 34
-2.075718
 50
90.0
100
AcDbRotatedDimension
  0
DIMENSION
  5
24BCE
330
18
100
AcDbEntity
  8
20
100
AcDbDimension
  2
*D26
 10
111.362267
 20
41.640378
 30
-2.075718
 11
56.36226700000001
 21
41.640378
 31
-2.075718
 70
   160
  1
110.0
 71
     5
 42
110.0
 53
89.99999800000002
  3
SANDVIK_STYLE
100
AcDbAlignedDimension
 13
1.362267000000002
 23
21.26537799999999
 33
-2.075718
 14
111.362267
 24
23.14037799999999
 34
-2.075718
100
AcDbRotatedDimension
  0
DIMENSION
  5
24BCF
330
18
100
AcDbEntity
  8
12
100
AcDbDimension
  2
*D27
 10
111.362267
 20
31.64037799999998
 30
-2.075718
 11
66.648165
 21
31.64037799999998
 31
-2.075718
 70
   160
  1
89.4
 71
     5
 42
89.42820299999999
 53
89.99999800000002
  3
SANDVIK_STYLE
100
AcDbAlignedDimension
 13
21.93406400000001
 23
17.26537799999999
 33
-2.075718
 14
111.362267
 24
23.14037799999999
 34
-2.075718
100
AcDbRotatedDimension
  0
DIMENSION
  5
24BD0
330
18
100
AcDbEntity
  8
20
100
AcDbDimension
  2
*D28
 10
110.978256
 20
1.140377999999987
 30
-2.075718
 11
129.745294571044
 21
-17.82989662747711
 31
0.0
 70
    34
  1
91%%d0'
 71
     5
 42
1.588250554101615
 52
201.75
 53
314.5
  3
SANDVIK_STYLE
100
AcDb2LineAngularDimension
 13
118.653934
 23
1.265377999999987
 33
-2.075718
 14
110.980438
 24
1.265377999999987
 34
-2.075718
 15
110.980438
 25
1.265377999999987
 35
-2.075718
 16
124.0958367315063
 26
-22.07419507544912
 36
0.0
  0
LINE
  5
24BD1
330
18
100
AcDbEntity
  8
80
100
AcDbLine
 10
1.362267000000002
 20
1.265377999999998
 30
-2.075717
 11
-24.96568179192279
 21
1.265377999999998
 31
-2.075717
  0
LINE
  5
24BD2
330
18
100
AcDbEntity
  8
81
100
AcDbLine
 10
1.362267000000002
 20
1.265377999999998
 30
-2.075717
 11
116.1243544701717
 21
1.265377999999987
 31
-2.075717
  0
INSERT
  5
24BD3
330
18
100
AcDbEntity
  8
5
100
AcDbBlockReference
  2
_nullpunkt
 10
1.362266999999999
 20
1.265377999999999
 30
-2.075717
  0
TEXT
  5
24BD4
330
18
100
AcDbEntity
  8
5
100
AcDbText
 10
-1.137732999999998
 20
1.265378
 30
-2.075717
 40
0.1
  1
ISOORIENTED
100
AcDbText
  0
ENDSEC
  0
SECTION
  2
OBJECTS
  0
DICTIONARY
  5
C
330
0
100
AcDbDictionary
281
     1
  3
ACAD_2007HEADERVARS_RT
350
24CC9
  3
ACAD_CIP_PREVIOUS_PRODUCT_INFO
350
24C8F
  3
ACAD_COLOR
350
387
  3
ACAD_DETAILVIEWSTYLE
350
24C8C
  3
ACAD_GROUP
350
D
  3
ACAD_LAYOUT
350
301
  3
ACAD_MATERIAL
350
386
  3
ACAD_MLEADERSTYLE
350
43C
  3
ACAD_MLINESTYLE
350
E
  3
ACAD_PLOTSETTINGS
350
302
  3
ACAD_PLOTSTYLENAME
350
2FF
  3
ACAD_SCALELIST
350
41A
  3
ACAD_SECTIONVIEWSTYLE
350
24C8A
  3
ACAD_TABLESTYLE
350
388
  3
ACAD_VISUALSTYLE
350
3F2
  3
ACDB_RECOMPOSE_DATA
350
24CC7
  3
AcDbVariableDictionary
350
357
  3
DWGPROPS
350
24CC8
  0
DICTIONARY
  5
24C92
330
F
100
AcDbDictionary
280
     1
281
     1
  3
ADSK_XREC_LAYER_RECONCILED
360
24C93
  0
DICTIONARY
  5
24C94
330
23
100
AcDbDictionary
280
     1
281
     1
  3
ADSK_XREC_LAYER_RECONCILED
360
24C95
  0
DICTIONARY
  5
24C96
330
24958
100
AcDbDictionary
280
     1
281
     1
  3
ADSK_XREC_LAYER_RECONCILED
360
24C97
  0
DICTIONARY
  5
24C98
330
2495A
100
AcDbDictionary
280
     1
281
     1
  3
ADSK_XREC_LAYER_RECONCILED
360
24C99
  0
DICTIONARY
  5
24C9A
330
2495B
100
AcDbDictionary
280
     1
281
     1
  3
ADSK_XREC_LAYER_RECONCILED
360
24C9B
  0
DICTIONARY
  5
24C9C
330
2495C
100
AcDbDictionary
280
     1
281
     1
  3
ADSK_XREC_LAYER_RECONCILED
360
24C9D
  0
DICTIONARY
  5
24C9E
330
2495D
100
AcDbDictionary
280
     1
281
     1
  3
ADSK_XREC_LAYER_RECONCILED
360
24C9F
  0
DICTIONARY
  5
24CA0
330
2495E
100
AcDbDictionary
280
     1
281
     1
  3
ADSK_XREC_LAYER_RECONCILED
360
24CA1
  0
DICTIONARY
  5
24CA2
330
2495F
100
AcDbDictionary
280
     1
281
     1
  3
ADSK_XREC_LAYER_RECONCILED
360
24CA3
  0
DICTIONARY
  5
24CA4
330
24960
100
AcDbDictionary
280
     1
281
     1
  3
ADSK_XREC_LAYER_RECONCILED
360
24CA5
  0
DICTIONARY
  5
24CA6
330
24961
100
AcDbDictionary
280
     1
281
     1
  3
ADSK_XREC_LAYER_RECONCILED
360
24CA7
  0
DICTIONARY
  5
24CA8
330
24962
100
AcDbDictionary
280
     1
281
     1
  3
ADSK_XREC_LAYER_RECONCILED
360
24CA9
  0
DICTIONARY
  5
24CAA
330
24963
100
AcDbDictionary
280
     1
281
     1
  3
ADSK_XREC_LAYER_RECONCILED
360
24CAB
  0
DICTIONARY
  5
24CAC
330
24964
100
AcDbDictionary
280
     1
281
     1
  3
ADSK_XREC_LAYER_RECONCILED
360
24CAD
  0
DICTIONARY
  5
24CAE
330
24965
100
AcDbDictionary
280
     1
281
     1
  3
ADSK_XREC_LAYER_RECONCILED
360
24CAF
  0
DICTIONARY
  5
24CB0
330
24966
100
AcDbDictionary
280
     1
281
     1
  3
ADSK_XREC_LAYER_RECONCILED
360
24CB1
  0
DICTIONARY
  5
24CB2
330
24967
100
AcDbDictionary
280
     1
281
     1
  3
ADSK_XREC_LAYER_RECONCILED
360
24CB3
  0
DICTIONARY
  5
24CB4
330
24968
100
AcDbDictionary
280
     1
281
     1
  3
ADSK_XREC_LAYER_RECONCILED
360
24CB5
  0
DICTIONARY
  5
24CB6
330
24969
100
AcDbDictionary
280
     1
281
     1
  3
ADSK_XREC_LAYER_RECONCILED
360
24CB7
  0
DICTIONARY
  5
24CB8
330
2496A
100
AcDbDictionary
280
     1
281
     1
  3
ADSK_XREC_LAYER_RECONCILED
360
24CB9
  0
DICTIONARY
  5
24CBA
330
2496B
100
AcDbDictionary
280
     1
281
     1
  3
ADSK_XREC_LAYER_RECONCILED
360
24CBB
  0
DICTIONARY
  5
24CBC
330
2496C
100
AcDbDictionary
280
     1
281
     1
  3
ADSK_XREC_LAYER_RECONCILED
360
24CBD
  0
DICTIONARY
  5
24CBE
330
2496D
100
AcDbDictionary
280
     1
281
     1
  3
ADSK_XREC_LAYER_RECONCILED
360
24CBF
  0
DICTIONARY
  5
24CC0
330
2496E
100
AcDbDictionary
280
     1
281
     1
  3
ADSK_XREC_LAYER_RECONCILED
360
24CC1
  0
DICTIONARY
  5
24931
330
24930
100
AcDbDictionary
280
     1
281
     1
  3
ACAD_SORTENTS
360
24932
  0
DICTIONARY
  5
24CC9
102
{ACAD_REACTORS
330
C
102
}
330
C
100
AcDbDictionary
281
     1
  3
DIMJOGANG
350
24CCA
  0
XRECORD
  5
24C8F
102
{ACAD_REACTORS
330
C
102
}
330
C
100
AcDbXrecord
280
     1
300
AMECH_PP
300
2013
300
PDSU_F_S
  0
DICTIONARY
  5
387
102
{ACAD_REACTORS
330
C
102
}
330
C
100
AcDbDictionary
281
     1
  0
DICTIONARY
  5
24C8C
102
{ACAD_REACTORS
330
C
102
}
330
C
100
AcDbDictionary
281
     1
  3
Metric50
350
24C8D
  0
DICTIONARY
  5
D
102
{ACAD_REACTORS
330
C
102
}
330
C
100
AcDbDictionary
281
     1
  0
DICTIONARY
  5
301
102
{ACAD_REACTORS
330
C
102
}
330
C
100
AcDbDictionary
281
     1
  3
Layout1
350
33B
  3
Model
350
303
  0
DICTIONARY
  5
386
102
{ACAD_REACTORS
330
C
102
}
330
C
100
AcDbDictionary
281
     1
  3
ByBlock
350
3F0
  3
ByLayer
350
3EF
  3
Global
350
3F1
  0
DICTIONARY
  5
43C
102
{ACAD_REACTORS
330
C
102
}
330
C
100
AcDbDictionary
281
     1
  3
Standard
350
43D
  0
DICTIONARY
  5
E
102
{ACAD_REACTORS
330
C
102
}
330
C
100
AcDbDictionary
281
     1
  3
STANDARD
350
1B
  0
DICTIONARY
  5
302
102
{ACAD_REACTORS
330
C
102
}
330
C
100
AcDbDictionary
281
     1
  0
ACDBDICTIONARYWDFLT
  5
2FF
102
{ACAD_REACTORS
330
C
102
}
330
C
100
AcDbDictionary
281
     1
  3
Normal
350
300
100
AcDbDictionaryWithDefault
340
300
  0
DICTIONARY
  5
41A
102
{ACAD_REACTORS
330
C
102
}
330
C
100
AcDbDictionary
281
     1
  3
A0
350
41B
  3
A1
350
41C
  3
A2
350
41D
  3
A3
350
41E
  3
A4
350
41F
  3
A5
350
420
  3
A6
350
421
  3
A7
350
422
  3
A8
350
423
  3
A9
350
424
  3
B0
350
425
  3
B1
350
426
  3
B2
350
427
  3
B3
350
428
  3
B4
350
429
  3
B5
350
42A
  3
B6
350
42B
  3
B7
350
42C
  3
B8
350
42D
  3
B9
350
42E
  3
C0
350
42F
  3
C1
350
430
  3
C2
350
431
  3
C3
350
432
  3
C4
350
433
  3
C5
350
434
  3
C6
350
435
  3
C7
350
436
  3
C8
350
437
  3
C9
350
438
  3
D0
350
439
  3
D1
350
43A
  3
D2
350
43B
  0
DICTIONARY
  5
24C8A
102
{ACAD_REACTORS
330
C
102
}
330
C
100
AcDbDictionary
281
     1
  3
Metric50
350
24C8B
  0
DICTIONARY
  5
388
102
{ACAD_REACTORS
330
C
102
}
330
C
100
AcDbDictionary
281
     1
  3
Standard
350
389
  0
DICTIONARY
  5
3F2
102
{ACAD_REACTORS
330
C
102
}
330
C
100
AcDbDictionary
281
     1
  3
2dWireframe
350
3F8
  3
3D Hidden
350
3FA
  3
3dWireframe
350
3F9
  3
Basic
350
3F7
  3
Brighten
350
3FE
  3
ColorChange
350
402
  3
Conceptual
350
3FB
  3
Dim
350
3FD
  3
EdgeColorOff
350
44E
  3
Facepattern
350
401
  3
Flat
350
3F3
  3
FlatWithEdges
350
3F4
  3
Gouraud
350
3F5
  3
GouraudWithEdges
350
3F6
  3
Hidden
350
24C84
  3
JitterOff
350
44C
  3
Linepattern
350
400
  3
OverhangOff
350
44D
  3
Realistic
350
3FC
  3
Shaded
350
24C89
  3
Shaded with edges
350
24C88
  3
Shades of Gray
350
24C85
  3
Sketchy
350
24C86
  3
Thicken
350
3FF
  3
Wireframe
350
24C83
  3
X-Ray
350
24C87
  0
XRECORD
  5
24CC7
102
{ACAD_REACTORS
330
C
102
}
330
C
100
AcDbXrecord
280
     1
 90
        1
330
389
  0
DICTIONARY
  5
357
102
{ACAD_REACTORS
330
C
102
}
330
C
100
AcDbDictionary
281
     1
  3
CANNOSCALE
350
449
  3
CMLEADERSTYLE
350
447
  3
CTABLESTYLE
350
38E
  3
CVIEWDETAILSTYLE
350
24CC2
  3
CVIEWSECTIONSTYLE
350
24CC3
  3
DIMASSOC
350
359
  3
HIDETEXT
350
358
  3
INDEXCTL
350
728
  3
LAYEREVAL
350
458
  3
LAYERNOTIFY
350
459
  3
LIGHTINGUNITS
350
44A
  3
MSLTSCALE
350
448
  3
SORTENTS
350
727
  3
XCLIPFRAME
350
24CC4
  0
XRECORD
  5
24CC8
102
{ACAD_REACTORS
330
C
102
}
330
C
100
AcDbXrecord
280
     1
  1
DWGPROPS COOKIE
  2

  3

  4

  6

  7

  8
Micke
  9

300
=
301
=
302
=
303
=
304
=
305
=
306
=
307
=
308
=
309
=
 40
0.0012772569444444
 41
2455883.64348684
 42
2456817.855828866
  1

 90
        0
  0
XRECORD
  5
24C93
102
{ACAD_REACTORS
330
24C92
102
}
330
24C92
100
AcDbXrecord
280
     1
290
     1
  0
XRECORD
  5
24C95
102
{ACAD_REACTORS
330
24C94
102
}
330
24C94
100
AcDbXrecord
280
     1
290
     1
  0
XRECORD
  5
24C97
102
{ACAD_REACTORS
330
24C96
102
}
330
24C96
100
AcDbXrecord
280
     1
290
     1
  0
XRECORD
  5
24C99
102
{ACAD_REACTORS
330
24C98
102
}
330
24C98
100
AcDbXrecord
280
     1
290
     1
  0
XRECORD
  5
24C9B
102
{ACAD_REACTORS
330
24C9A
102
}
330
24C9A
100
AcDbXrecord
280
     1
290
     1
  0
XRECORD
  5
24C9D
102
{ACAD_REACTORS
330
24C9C
102
}
330
24C9C
100
AcDbXrecord
280
     1
290
     1
  0
XRECORD
  5
24C9F
102
{ACAD_REACTORS
330
24C9E
102
}
330
24C9E
100
AcDbXrecord
280
     1
290
     1
  0
XRECORD
  5
24CA1
102
{ACAD_REACTORS
330
24CA0
102
}
330
24CA0
100
AcDbXrecord
280
     1
290
     1
  0
XRECORD
  5
24CA3
102
{ACAD_REACTORS
330
24CA2
102
}
330
24CA2
100
AcDbXrecord
280
     1
290
     1
  0
XRECORD
  5
24CA5
102
{ACAD_REACTORS
330
24CA4
102
}
330
24CA4
100
AcDbXrecord
280
     1
290
     1
  0
XRECORD
  5
24CA7
102
{ACAD_REACTORS
330
24CA6
102
}
330
24CA6
100
AcDbXrecord
280
     1
290
     1
  0
XRECORD
  5
24CA9
102
{ACAD_REACTORS
330
24CA8
102
}
330
24CA8
100
AcDbXrecord
280
     1
290
     1
  0
XRECORD
  5
24CAB
102
{ACAD_REACTORS
330
24CAA
102
}
330
24CAA
100
AcDbXrecord
280
     1
290
     1
  0
XRECORD
  5
24CAD
102
{ACAD_REACTORS
330
24CAC
102
}
330
24CAC
100
AcDbXrecord
280
     1
290
     1
  0
XRECORD
  5
24CAF
102
{ACAD_REACTORS
330
24CAE
102
}
330
24CAE
100
AcDbXrecord
280
     1
290
     1
  0
XRECORD
  5
24CB1
102
{ACAD_REACTORS
330
24CB0
102
}
330
24CB0
100
AcDbXrecord
280
     1
290
     1
  0
XRECORD
  5
24CB3
102
{ACAD_REACTORS
330
24CB2
102
}
330
24CB2
100
AcDbXrecord
280
     1
290
     1
  0
XRECORD
  5
24CB5
102
{ACAD_REACTORS
330
24CB4
102
}
330
24CB4
100
AcDbXrecord
280
     1
290
     1
  0
XRECORD
  5
24CB7
102
{ACAD_REACTORS
330
24CB6
102
}
330
24CB6
100
AcDbXrecord
280
     1
290
     1
  0
XRECORD
  5
24CB9
102
{ACAD_REACTORS
330
24CB8
102
}
330
24CB8
100
AcDbXrecord
280
     1
290
     1
  0
XRECORD
  5
24CBB
102
{ACAD_REACTORS
330
24CBA
102
}
330
24CBA
100
AcDbXrecord
280
     1
290
     1
  0
XRECORD
  5
24CBD
102
{ACAD_REACTORS
330
24CBC
102
}
330
24CBC
100
AcDbXrecord
280
     1
290
     1
  0
XRECORD
  5
24CBF
102
{ACAD_REACTORS
330
24CBE
102
}
330
24CBE
100
AcDbXrecord
280
     1
290
     1
  0
XRECORD
  5
24CC1
102
{ACAD_REACTORS
330
24CC0
102
}
330
24CC0
100
AcDbXrecord
280
     1
290
     1
  0
SORTENTSTABLE
  5
24932
102
{ACAD_REACTORS
330
24931
102
}
330
24931
100
AcDbSortentsTable
330
24930
  0
XRECORD
  5
24CCA
102
{ACAD_REACTORS
330
24CC9
102
}
330
24CC9
100
AcDbXrecord
280
     1
 40
1.570796326794896
  0
ACDBDETAILVIEWSTYLE
  5
24C8D
102
{ACAD_REACTORS
330
24C8C
102
}
330
24C8C
100
AcDbModelDocViewStyle
 70
     0
  3
Metric50
290
     0
100
AcDbDetailViewStyle
 70
     0
 71
     0
 90
        3
 71
     1
340
10
 40
5.0
340
0
 40
5.0
300

 40
0.0
280
     1
 71
     2
340
14
 90
       25
 71
     3
340
10
 40
5.0
 90
        0
 40
15.0
 90
        1
300
%<\AcVar ViewDetailId>% (%<\AcVar ViewScale \f "%sn">%)
 71
     4
340
14
 90
       25
340
14
 90
       25
280
     0
  0
LAYOUT
  5
33B
102
{ACAD_XDICTIONARY
360
24CCD
102
}
102
{ACAD_REACTORS
330
301
102
}
330
301
100
AcDbPlotSettings
  1

  2
Lexmark Optra PS2
  4

  6

 40
0.0
 41
0.0
 42
0.0
 43
0.0
 44
0.0
 45
0.0
 46
0.0
 47
0.0
 48
0.0
 49
0.0
140
0.0
141
0.0
142
1.0
143
1.0
 70
   688
 72
     0
 73
     0
 74
     5
  7
monochrome.ctb
 75
    16
147
1.0
148
0.0
149
0.0
100
AcDbLayout
  1
Layout1
 70
     1
 71
     1
 10
0.0
 20
0.0
 11
12.0
 21
9.0
 12
0.0
 22
0.0
 32
0.0
 14
0.0
 24
0.0
 34
0.0
 15
0.0
 25
0.0
 35
0.0
146
0.0
 13
0.0
 23
0.0
 33
0.0
 16
1.0
 26
0.0
 36
0.0
 17
0.0
 27
1.0
 37
0.0
 76
     0
330
338
  0
LAYOUT
  5
303
102
{ACAD_XDICTIONARY
360
24CCB
102
}
102
{ACAD_REACTORS
330
301
102
}
330
301
100
AcDbPlotSettings
  1

  2
Default Windows System Printer.pc3
  4
A4
  6

 40
6.805083274841307
 41
5.535083293914794
 42
6.974411010742187
 43
7.14373779296875
 44
209.9733276367186
 45
296.9259948730469
 46
67.83299579489725
 47
0.0
 48
0.0
 49
0.0
140
0.0
141
0.0
142
1.0
143
0.3604333568168785
 70
  3764
 72
     1
 73
     1
 74
     1
  7
monochrome.ctb
 75
     0
147
2.774437995504559
148
-82.35087775247029
149
-53.69369632994493
100
AcDbLayout
  1
Model
 70
     1
 71
     0
 10
0.0
 20
0.0
 11
12.0
 21
9.0
 12
0.0
 22
0.0
 32
0.0
 14
0.0
 24
0.0
 34
0.0
 15
0.0
 25
0.0
 35
0.0
146
0.0
 13
0.0
 23
0.0
 33
0.0
 16
1.0
 26
0.0
 36
0.0
 17
0.0
 27
1.0
 37
0.0
 76
     0
330
18
331
3ED
1001
ACAD_PSEXT
1000
Default Windows System Printer.pc3
1000
Lexmark Optra Rx
1000
Lexmark Rx
1000
Erstellt von Lexmark Benutzerdefinierte Installation,Nov 13,2005,10:03
1070
     0
  0
MATERIAL
  5
3F0
102
{ACAD_XDICTIONARY
360
24C55
102
}
102
{ACAD_REACTORS
330
386
102
}
330
386
100
AcDbMaterial
  1
ByBlock
 73
     1
 78
     1
172
     1
176
     1
270
     1
274
     1
  0
MATERIAL
  5
3EF
102
{ACAD_XDICTIONARY
360
24C53
102
}
102
{ACAD_REACTORS
330
386
102
}
330
386
100
AcDbMaterial
  1
ByLayer
 73
     1
 78
     1
172
     1
176
     1
270
     1
274
     1
  0
MATERIAL
  5
3F1
102
{ACAD_XDICTIONARY
360
24C57
102
}
102
{ACAD_REACTORS
330
386
102
}
330
386
100
AcDbMaterial
  1
Global
 73
     1
 78
     1
172
     1
176
     1
270
     1
274
     1
  0
MLEADERSTYLE
  5
43D
102
{ACAD_REACTORS
330
43C
102
}
330
43C
100
AcDbMLeaderStyle
170
     2
171
     1
172
     0
 90
        2
 40
0.0
 41
0.0
173
     1
 91
-1056964608
340
12
 92
       -2
290
     1
 42
2.0
291
     1
 43
0.36
  3
Standard
 44
4.0
300

342
10
174
     1
178
     6
175
     1
176
     0
 93
-1056964608
 45
4.0
292
     0
297
     0
 46
4.0
 94
-1056964608
 47
1.0
 49
1.0
140
1.0
293
     1
141
0.0
294
     1
177
     0
142
1.0
295
     0
296
     0
143
0.125
1001
ACAD_MLEADERVER
1070
     2
  0
MLINESTYLE
  5
1B
102
{ACAD_REACTORS
330
E
102
}
330
E
100
AcDbMlineStyle
  2
STANDARD
 70
     0
  3

 62
     0
 51
90.0
 52
90.0
 71
     2
 49
0.5
 62
   256
  6
BYLAYER
 49
-0.5
 62
   256
  6
BYLAYER
  0
ACDBPLACEHOLDER
  5
300
102
{ACAD_REACTORS
330
2FF
102
}
330
2FF
  0
SCALE
  5
41B
102
{ACAD_REACTORS
330
41A
102
}
330
41A
100
AcDbScale
 70
     0
300
1:1
140
1.0
141
1.0
290
     1
  0
SCALE
  5
41C
102
{ACAD_REACTORS
330
41A
102
}
330
41A
100
AcDbScale
 70
     0
300
1:2
140
1.0
141
2.0
290
     0
  0
SCALE
  5
41D
102
{ACAD_REACTORS
330
41A
102
}
330
41A
100
AcDbScale
 70
     0
300
1:4
140
1.0
141
4.0
290
     0
  0
SCALE
  5
41E
102
{ACAD_REACTORS
330
41A
102
}
330
41A
100
AcDbScale
 70
     0
300
1:5
140
1.0
141
5.0
290
     0
  0
SCALE
  5
41F
102
{ACAD_REACTORS
330
41A
102
}
330
41A
100
AcDbScale
 70
     0
300
1:8
140
1.0
141
8.0
290
     0
  0
SCALE
  5
420
102
{ACAD_REACTORS
330
41A
102
}
330
41A
100
AcDbScale
 70
     0
300
1:10
140
1.0
141
10.0
290
     0
  0
SCALE
  5
421
102
{ACAD_REACTORS
330
41A
102
}
330
41A
100
AcDbScale
 70
     0
300
1:16
140
1.0
141
16.0
290
     0
  0
SCALE
  5
422
102
{ACAD_REACTORS
330
41A
102
}
330
41A
100
AcDbScale
 70
     0
300
1:20
140
1.0
141
20.0
290
     0
  0
SCALE
  5
423
102
{ACAD_REACTORS
330
41A
102
}
330
41A
100
AcDbScale
 70
     0
300
1:30
140
1.0
141
30.0
290
     0
  0
SCALE
  5
424
102
{ACAD_REACTORS
330
41A
102
}
330
41A
100
AcDbScale
 70
     0
300
1:40
140
1.0
141
40.0
290
     0
  0
SCALE
  5
425
102
{ACAD_REACTORS
330
41A
102
}
330
41A
100
AcDbScale
 70
     0
300
1:50
140
1.0
141
50.0
290
     0
  0
SCALE
  5
426
102
{ACAD_REACTORS
330
41A
102
}
330
41A
100
AcDbScale
 70
     0
300
1:100
140
1.0
141
100.0
290
     0
  0
SCALE
  5
427
102
{ACAD_REACTORS
330
41A
102
}
330
41A
100
AcDbScale
 70
     0
300
2:1
140
2.0
141
1.0
290
     0
  0
SCALE
  5
428
102
{ACAD_REACTORS
330
41A
102
}
330
41A
100
AcDbScale
 70
     0
300
4:1
140
4.0
141
1.0
290
     0
  0
SCALE
  5
429
102
{ACAD_REACTORS
330
41A
102
}
330
41A
100
AcDbScale
 70
     0
300
8:1
140
8.0
141
1.0
290
     0
  0
SCALE
  5
42A
102
{ACAD_REACTORS
330
41A
102
}
330
41A
100
AcDbScale
 70
     0
300
10:1
140
10.0
141
1.0
290
     0
  0
SCALE
  5
42B
102
{ACAD_REACTORS
330
41A
102
}
330
41A
100
AcDbScale
 70
     0
300
100:1
140
100.0
141
1.0
290
     0
  0
SCALE
  5
42C
102
{ACAD_REACTORS
330
41A
102
}
330
41A
100
AcDbScale
 70
     0
300
1/128" = 1'-0"
140
0.0078125
141
12.0
290
     0
  0
SCALE
  5
42D
102
{ACAD_REACTORS
330
41A
102
}
330
41A
100
AcDbScale
 70
     0
300
1/64" = 1'-0"
140
0.015625
141
12.0
290
     0
  0
SCALE
  5
42E
102
{ACAD_REACTORS
330
41A
102
}
330
41A
100
AcDbScale
 70
     0
300
1/32" = 1'-0"
140
0.03125
141
12.0
290
     0
  0
SCALE
  5
42F
102
{ACAD_REACTORS
330
41A
102
}
330
41A
100
AcDbScale
 70
     0
300
1/16" = 1'-0"
140
0.0625
141
12.0
290
     0
  0
SCALE
  5
430
102
{ACAD_REACTORS
330
41A
102
}
330
41A
100
AcDbScale
 70
     0
300
3/32" = 1'-0"
140
0.09375
141
12.0
290
     0
  0
SCALE
  5
431
102
{ACAD_REACTORS
330
41A
102
}
330
41A
100
AcDbScale
 70
     0
300
1/8" = 1'-0"
140
0.125
141
12.0
290
     0
  0
SCALE
  5
432
102
{ACAD_REACTORS
330
41A
102
}
330
41A
100
AcDbScale
 70
     0
300
3/16" = 1'-0"
140
0.1875
141
12.0
290
     0
  0
SCALE
  5
433
102
{ACAD_REACTORS
330
41A
102
}
330
41A
100
AcDbScale
 70
     0
300
1/4" = 1'-0"
140
0.25
141
12.0
290
     0
  0
SCALE
  5
434
102
{ACAD_REACTORS
330
41A
102
}
330
41A
100
AcDbScale
 70
     0
300
3/8" = 1'-0"
140
0.375
141
12.0
290
     0
  0
SCALE
  5
435
102
{ACAD_REACTORS
330
41A
102
}
330
41A
100
AcDbScale
 70
     0
300
1/2" = 1'-0"
140
0.5
141
12.0
290
     0
  0
SCALE
  5
436
102
{ACAD_REACTORS
330
41A
102
}
330
41A
100
AcDbScale
 70
     0
300
3/4" = 1'-0"
140
0.75
141
12.0
290
     0
  0
SCALE
  5
437
102
{ACAD_REACTORS
330
41A
102
}
330
41A
100
AcDbScale
 70
     0
300
1" = 1'-0"
140
1.0
141
12.0
290
     0
  0
SCALE
  5
438
102
{ACAD_REACTORS
330
41A
102
}
330
41A
100
AcDbScale
 70
     0
300
1-1/2" = 1'-0"
140
1.5
141
12.0
290
     0
  0
SCALE
  5
439
102
{ACAD_REACTORS
330
41A
102
}
330
41A
100
AcDbScale
 70
     0
300
3" = 1'-0"
140
3.0
141
12.0
290
     0
  0
SCALE
  5
43A
102
{ACAD_REACTORS
330
41A
102
}
330
41A
100
AcDbScale
 70
     0
300
6" = 1'-0"
140
6.0
141
12.0
290
     0
  0
SCALE
  5
43B
102
{ACAD_REACTORS
330
41A
102
}
330
41A
100
AcDbScale
 70
     0
300
1'-0" = 1'-0"
140
12.0
141
12.0
290
     0
  0
ACDBSECTIONVIEWSTYLE
  5
24C8B
102
{ACAD_REACTORS
330
24C8A
102
}
330
24C8A
100
AcDbModelDocViewStyle
 70
     0
  3
Metric50
290
     0
100
AcDbSectionViewStyle
 70
     0
 71
     0
 90
      102
 71
     1
340
10
 40
5.0
340
0
340
0
 40
5.0
300
I, O, Q, S, X, Z
 40
10.0
 90
        0
 40
2.5
 90
        0
 71
     2
340
14
 90
       25
340
14
 90
       50
 40
5.0
 40
2.5
 40
5.0
 71
     3
340
10
 40
5.0
 90
        0
 40
15.0
 90
        1
300
%<\AcVar ViewSectionStartId>%-%<\AcVar ViewSectionEndId>% (%<\AcVar ViewScale \f "%sn">%)
 71
     4
300
ANSI31
 40
1.0
 90
        0
290
     0
290
     0
 90
        6
 40
0.0
 40
1.570796326794896
 40
0.2617993877991494
 40
1.308996938995747
 40
-0.2617993877991494
 40
1.832595714594046
  0
TABLESTYLE
  5
389
102
{ACAD_XDICTIONARY
360
444
102
}
102
{ACAD_REACTORS
330
388
102
}
330
388
100
AcDbTableStyle
  3
Standard
 70
     0
 71
     0
 40
1.5
 41
1.5
280
     0
281
     0
  7
STANDARD
140
4.5
170
     2
 62
     0
 63
     7
283
     0
274
    -2
284
     1
 64
     0
275
    -2
285
     1
 65
     0
276
    -2
286
     1
 66
     0
277
    -2
287
     1
 67
     0
278
    -2
288
     1
 68
     0
279
    -2
289
     1
 69
     0
  7
STANDARD
140
6.0
170
     5
 62
     0
 63
     7
283
     0
274
    -2
284
     1
 64
     0
275
    -2
285
     1
 65
     0
276
    -2
286
     1
 66
     0
277
    -2
287
     1
 67
     0
278
    -2
288
     1
 68
     0
279
    -2
289
     1
 69
     0
  7
STANDARD
140
4.5
170
     5
 62
     0
 63
     7
283
     0
274
    -2
284
     1
 64
     0
275
    -2
285
     1
 65
     0
276
    -2
286
     1
 66
     0
277
    -2
287
     1
 67
     0
278
    -2
288
     1
 68
     0
279
    -2
289
     1
 69
     0
  0
VISUALSTYLE
  5
3F8
102
{ACAD_XDICTIONARY
360
24CDA
102
}
102
{ACAD_REACTORS
330
3F2
102
}
330
3F2
100
AcDbVisualStyle
  2

 70
     4
 71
     0
 72
     2
 73
     0
 90
        0
 40
-0.6
 41
-30.0
 62
     5
 63
     7
 74
     1
 91
        4
 64
     7
 65
   257
 75
     1
175
     1
 42
1.0
 92
        0
 66
   257
 43
1.0
 76
     1
 77
     6
 78
     2
 67
     7
 79
     5
170
     0
171
     0
290
     0
174
     0
 93
        1
 44
0.0
173
     0
291
     0
 45
0.0
1001
ACAD
1000
AcDbSavedByObjectVersion
1070
     0
  0
VISUALSTYLE
  5
3FA
102
{ACAD_XDICTIONARY
360
24CDE
102
}
102
{ACAD_REACTORS
330
3F2
102
}
330
3F2
100
AcDbVisualStyle
  2

 70
     6
 71
     1
 72
     2
 73
     2
 90
        0
 40
-0.6
 41
-30.0
 62
     5
 63
     7
 74
     2
 91
        2
 64
     7
 65
   257
 75
     2
175
     1
 42
40.0
 92
        0
 66
   257
 43
1.0
 76
     1
 77
     6
 78
     2
 67
     7
 79
     3
170
     0
171
     0
290
     0
174
     0
 93
        1
 44
0.0
173
     0
291
     0
 45
0.0
1001
ACAD
1000
AcDbSavedByObjectVersion
1070
     0
  0
VISUALSTYLE
  5
3F9
102
{ACAD_XDICTIONARY
360
24CDC
102
}
102
{ACAD_REACTORS
330
3F2
102
}
330
3F2
100
AcDbVisualStyle
  2

 70
     5
 71
     0
 72
     2
 73
     0
 90
        0
 40
-0.6
 41
-30.0
 62
     5
 63
     7
 74
     1
 91
        4
 64
     7
 65
   257
 75
     1
175
     1
 42
1.0
 92
        0
 66
   257
 43
1.0
 76
     1
 77
     6
 78
     2
 67
     7
 79
     5
170
     0
171
     0
290
     0
174
     0
 93
        1
 44
0.0
173
     0
291
     0
 45
0.0
1001
ACAD
1000
AcDbSavedByObjectVersion
1070
     0
  0
VISUALSTYLE
  5
3F7
102
{ACAD_XDICTIONARY
360
24CD8
102
}
102
{ACAD_REACTORS
330
3F2
102
}
330
3F2
100
AcDbVisualStyle
  2

 70
     7
 71
     1
 72
     0
 73
     1
 90
        0
 40
-0.6
 41
-30.0
 62
     5
 63
     7
 74
     0
 91
        4
 64
     7
 65
   257
 75
     1
175
     1
 42
1.0
 92
        8
 66
     7
 43
1.0
 76
     1
 77
     6
 78
     2
 67
     7
 79
     5
170
     0
171
     0
290
     0
174
     0
 93
        1
 44
0.0
173
     0
291
     1
 45
0.0
1001
ACAD
1000
AcDbSavedByObjectVersion
1070
     0
  0
VISUALSTYLE
  5
3FE
102
{ACAD_XDICTIONARY
360
24CE6
102
}
102
{ACAD_REACTORS
330
3F2
102
}
330
3F2
100
AcDbVisualStyle
  2

 70
    12
 71
     2
 72
     2
 73
     0
 90
        0
 40
-0.6
 41
-30.0
 62
     5
 63
     7
 74
     1
 91
        4
 64
     7
 65
   257
 75
     1
175
     1
 42
1.0
 92
        8
 66
     7
 43
1.0
 76
     1
 77
     6
 78
     2
 67
     7
 79
     5
170
     0
171
     0
290
     0
174
     0
 93
        1
 44
50.0
173
     0
291
     1
 45
0.0
1001
ACAD
1000
AcDbSavedByObjectVersion
1070
     0
  0
VISUALSTYLE
  5
402
102
{ACAD_XDICTIONARY
360
24CEE
102
}
102
{ACAD_REACTORS
330
3F2
102
}
330
3F2
100
AcDbVisualStyle
  2

 70
    16
 71
     2
 72
     2
 73
     3
 90
        0
 40
-0.6
 41
-30.0
 62
     5
 63
     8
 74
     1
 91
        4
 64
     7
 65
   257
 75
     1
175
     1
 42
1.0
 92
        8
 66
     8
 43
1.0
 76
     1
 77
     6
 78
     2
 67
     7
 79
     5
170
     0
171
     0
290
     0
174
     0
 93
        1
 44
0.0
173
     0
291
     1
 45
0.0
1001
ACAD
1000
AcDbSavedByObjectVersion
1070
     0
  0
VISUALSTYLE
  5
3FB
102
{ACAD_XDICTIONARY
360
24CE0
102
}
102
{ACAD_REACTORS
330
3F2
102
}
330
3F2
100
AcDbVisualStyle
  2

 70
     9
 71
     3
 72
     2
 73
     0
 90
        0
 40
-0.6
 41
-30.0
 62
     5
 63
     7
 74
     2
 91
        2
 64
     7
 65
   257
 75
     1
175
     1
 42
40.0
 92
        8
 66
     7
 43
1.0
 76
     1
 77
     6
 78
     2
 67
     7
 79
     3
170
     0
171
     0
290
     0
174
     0
 93
        1
 44
0.0
173
     0
291
     0
 45
0.0
1001
ACAD
1000
AcDbSavedByObjectVersion
1070
     0
  0
VISUALSTYLE
  5
3FD
102
{ACAD_XDICTIONARY
360
24CE4
102
}
102
{ACAD_REACTORS
330
3F2
102
}
330
3F2
100
AcDbVisualStyle
  2

 70
    11
 71
     2
 72
     2
 73
     0
 90
        0
 40
-0.6
 41
-30.0
 62
     5
 63
     7
 74
     1
 91
        4
 64
     7
 65
   257
 75
     1
175
     1
 42
1.0
 92
        8
 66
     7
 43
1.0
 76
     1
 77
     6
 78
     2
 67
     7
 79
     5
170
     0
171
     0
290
     0
174
     0
 93
        1
 44
-50.0
173
     0
291
     1
 45
0.0
1001
ACAD
1000
AcDbSavedByObjectVersion
1070
     0
  0
VISUALSTYLE
  5
44E
102
{ACAD_XDICTIONARY
360
24CF4
102
}
102
{ACAD_REACTORS
330
3F2
102
}
330
3F2
100
AcDbVisualStyle
  2

 70
    22
 71
     2
 72
     2
 73
     0
 90
        0
 40
-0.6
 41
-30.0
 62
     5
 63
     7
 74
     1
 91
        4
 64
     7
 65
   257
 75
     1
175
     1
 42
1.0
 92
        8
 66
     7
 43
1.0
 76
     1
 77
     6
 78
     2
 67
     7
 79
     5
170
     0
171
     0
290
     0
174
     0
 93
        1
 44
0.0
173
     0
291
     1
 45
0.0
1001
ACAD
1000
AcDbSavedByObjectVersion
1070
     0
  0
VISUALSTYLE
  5
401
102
{ACAD_XDICTIONARY
360
24CEC
102
}
102
{ACAD_REACTORS
330
3F2
102
}
330
3F2
100
AcDbVisualStyle
  2

 70
    15
 71
     2
 72
     2
 73
     0
 90
        0
 40
-0.6
 41
-30.0
 62
     5
 63
     7
 74
     1
 91
        4
 64
     7
 65
   257
 75
     1
175
     1
 42
1.0
 92
        8
 66
     7
 43
1.0
 76
     1
 77
     6
 78
     2
 67
     7
 79
     5
170
     0
171
     0
290
     0
174
     0
 93
        1
 44
0.0
173
     0
291
     1
 45
0.0
1001
ACAD
1000
AcDbSavedByObjectVersion
1070
     0
  0
VISUALSTYLE
  5
3F3
102
{ACAD_XDICTIONARY
360
24CD0
102
}
102
{ACAD_REACTORS
330
3F2
102
}
330
3F2
100
AcDbVisualStyle
  2

 70
     0
 71
     2
 72
     1
 73
     1
 90
        2
 40
-0.6
 41
30.0
 62
     5
 63
     7
 74
     0
 91
        4
 64
     7
 65
   257
 75
     1
175
     1
 42
1.0
 92
        8
 66
     7
 43
1.0
 76
     1
 77
     6
 78
     2
 67
     7
 79
     5
170
     0
171
     0
290
     0
174
     0
 93
       13
 44
0.0
173
     0
291
     1
 45
0.0
1001
ACAD
1000
AcDbSavedByObjectVersion
1070
     0
  0
VISUALSTYLE
  5
3F4
102
{ACAD_XDICTIONARY
360
24CD2
102
}
102
{ACAD_REACTORS
330
3F2
102
}
330
3F2
100
AcDbVisualStyle
  2

 70
     1
 71
     2
 72
     1
 73
     1
 90
        2
 40
-0.6
 41
30.0
 62
     5
 63
     7
 74
     1
 91
        4
 64
     7
 65
   257
 75
     1
175
     1
 42
1.0
 92
        0
 66
   257
 43
1.0
 76
     1
 77
     6
 78
     2
 67
     7
 79
     5
170
     0
171
     0
290
     0
174
     0
 93
       13
 44
0.0
173
     0
291
     1
 45
0.0
1001
ACAD
1000
AcDbSavedByObjectVersion
1070
     0
  0
VISUALSTYLE
  5
3F5
102
{ACAD_XDICTIONARY
360
24CD4
102
}
102
{ACAD_REACTORS
330
3F2
102
}
330
3F2
100
AcDbVisualStyle
  2

 70
     2
 71
     2
 72
     2
 73
     1
 90
        2
 40
-0.6
 41
30.0
 62
     5
 63
     7
 74
     0
 91
        4
 64
     7
 65
   257
 75
     1
175
     1
 42
1.0
 92
        0
 66
     7
 43
1.0
 76
     1
 77
     6
 78
     2
 67
     7
 79
     5
170
     0
171
     0
290
     0
174
     0
 93
       13
 44
0.0
173
     0
291
     1
 45
0.0
1001
ACAD
1000
AcDbSavedByObjectVersion
1070
     0
  0
VISUALSTYLE
  5
3F6
102
{ACAD_XDICTIONARY
360
24CD6
102
}
102
{ACAD_REACTORS
330
3F2
102
}
330
3F2
100
AcDbVisualStyle
  2

 70
     3
 71
     2
 72
     2
 73
     1
 90
        2
 40
-0.6
 41
30.0
 62
     5
 63
     7
 74
     1
 91
        4
 64
     7
 65
   257
 75
     1
175
     1
 42
1.0
 92
        0
 66
   257
 43
1.0
 76
     1
 77
     6
 78
     2
 67
     7
 79
     5
170
     0
171
     0
290
     0
174
     0
 93
       13
 44
0.0
173
     0
291
     1
 45
0.0
1001
ACAD
1000
AcDbSavedByObjectVersion
1070
     0
  0
VISUALSTYLE
  5
24C84
102
{ACAD_XDICTIONARY
360
24CF9
102
}
102
{ACAD_REACTORS
330
3F2
102
}
330
3F2
100
AcDbVisualStyle
  2
Hidden
 70
     6
 71
     1
 72
     2
 73
     2
 90
        0
 40
-0.6
 41
-30.0
 62
     5
 63
     7
 74
     2
 91
        2
 64
     7
 65
   257
 75
     2
175
     1
 42
40.0
 92
        0
 66
   257
 43
1.0
 76
     1
 77
     6
 78
     2
 67
     7
 79
     3
170
     0
171
     0
290
     0
174
     0
 93
        1
 44
0.0
173
     0
291
     0
 45
0.0
1001
ACAD
1000
AcDbSavedByObjectVersion
1070
     0
  0
VISUALSTYLE
  5
44C
102
{ACAD_XDICTIONARY
360
24CF0
102
}
102
{ACAD_REACTORS
330
3F2
102
}
330
3F2
100
AcDbVisualStyle
  2

 70
    20
 71
     2
 72
     2
 73
     0
 90
        0
 40
-0.6
 41
-30.0
 62
     5
 63
     7
 74
     1
 91
        4
 64
     7
 65
   257
 75
     1
175
     1
 42
1.0
 92
       10
 66
     7
 43
1.0
 76
     1
 77
     6
 78
     2
 67
     7
 79
     5
170
     0
171
     0
290
     0
174
     0
 93
        1
 44
0.0
173
     0
291
     1
 45
0.0
1001
ACAD
1000
AcDbSavedByObjectVersion
1070
     0
  0
VISUALSTYLE
  5
400
102
{ACAD_XDICTIONARY
360
24CEA
102
}
102
{ACAD_REACTORS
330
3F2
102
}
330
3F2
100
AcDbVisualStyle
  2

 70
    14
 71
     2
 72
     2
 73
     0
 90
        0
 40
-0.6
 41
-30.0
 62
     5
 63
     7
 74
     1
 91
        4
 64
     7
 65
   257
 75
     7
175
     7
 42
1.0
 92
        8
 66
     7
 43
1.0
 76
     1
 77
     6
 78
     2
 67
     7
 79
     5
170
     0
171
     0
290
     0
174
     0
 93
        1
 44
0.0
173
     0
291
     1
 45
0.0
1001
ACAD
1000
AcDbSavedByObjectVersion
1070
     0
  0
VISUALSTYLE
  5
44D
102
{ACAD_XDICTIONARY
360
24CF2
102
}
102
{ACAD_REACTORS
330
3F2
102
}
330
3F2
100
AcDbVisualStyle
  2

 70
    21
 71
     2
 72
     2
 73
     0
 90
        0
 40
-0.6
 41
-30.0
 62
     5
 63
     7
 74
     1
 91
        4
 64
     7
 65
   257
 75
     1
175
     1
 42
1.0
 92
        9
 66
     7
 43
1.0
 76
     1
 77
     6
 78
     2
 67
     7
 79
     5
170
     0
171
     0
290
     0
174
     0
 93
        1
 44
0.0
173
     0
291
     1
 45
0.0
1001
ACAD
1000
AcDbSavedByObjectVersion
1070
     0
  0
VISUALSTYLE
  5
3FC
102
{ACAD_XDICTIONARY
360
24CE2
102
}
102
{ACAD_REACTORS
330
3F2
102
}
330
3F2
100
AcDbVisualStyle
  2

 70
     8
 71
     2
 72
     2
 73
     0
 90
        0
 40
-0.6
 41
-30.0
 62
     5
 63
     7
 74
     1
 91
        0
 64
     7
 65
   257
 75
     1
175
     1
 42
1.0
 92
        8
 66
     8
 43
1.0
 76
     1
 77
     6
 78
     2
 67
     7
 79
     5
170
     0
171
     0
290
     0
174
     0
 93
       13
 44
0.0
173
     0
291
     0
 45
0.0
1001
ACAD
1000
AcDbSavedByObjectVersion
1070
     0
  0
VISUALSTYLE
  5
24C89
102
{ACAD_XDICTIONARY
360
24D03
102
}
102
{ACAD_REACTORS
330
3F2
102
}
330
3F2
100
AcDbVisualStyle
  2
Shaded
 70
    27
 71
     2
 72
     2
 73
     1
 90
        2
 40
-0.6
 41
30.0
 62
     5
 63
     7
 74
     0
 91
        4
 64
     7
 65
   257
 75
     1
175
     1
 42
1.0
 92
        8
 66
   257
 43
1.0
 76
     1
 77
     6
 78
     2
 67
     8
 79
     3
170
     0
171
     0
290
     0
174
     0
 93
        5
 44
0.0
173
     0
291
     0
 45
0.0
1001
ACAD
1000
AcDbSavedByObjectVersion
1070
     0
  0
VISUALSTYLE
  5
24C88
102
{ACAD_XDICTIONARY
360
24D01
102
}
102
{ACAD_REACTORS
330
3F2
102
}
330
3F2
100
AcDbVisualStyle
  2
Shaded with edges
 70
    26
 71
     2
 72
     2
 73
     1
 90
        2
 40
-0.6
 41
30.0
 62
     5
 63
     7
 74
     1
 91
       10
 64
     7
 65
   257
 75
     2
175
     1
 42
1.0
 92
        8
 66
   257
 43
1.0
 76
     1
 77
     6
 78
     2
 67
     7
 79
     3
170
     0
171
     0
290
     0
174
     0
 93
        5
 44
0.0
173
     0
291
     0
 45
0.0
1001
ACAD
1000
AcDbSavedByObjectVersion
1070
     0
  0
VISUALSTYLE
  5
24C85
102
{ACAD_XDICTIONARY
360
24CFB
102
}
102
{ACAD_REACTORS
330
3F2
102
}
330
3F2
100
AcDbVisualStyle
  2
Shades of Gray
 70
    23
 71
     2
 72
     2
 73
     3
 90
        0
 40
-0.6
 41
-30.0
 62
     5
 63
     7
 74
     2
 91
        2
 64
     7
 65
     7
 75
     1
175
     1
 42
40.0
 92
        8
 66
     7
 43
1.0
 76
     1
 77
     6
 78
     2
 67
     7
 79
     3
170
     0
171
     0
290
     0
174
     0
 93
        1
 44
0.0
173
     0
291
     0
 45
0.0
1001
ACAD
1000
AcDbSavedByObjectVersion
1070
     0
  0
VISUALSTYLE
  5
24C86
102
{ACAD_XDICTIONARY
360
24CFD
102
}
102
{ACAD_REACTORS
330
3F2
102
}
330
3F2
100
AcDbVisualStyle
  2
Sketchy
 70
    24
 71
     1
 72
     2
 73
     2
 90
        0
 40
-0.6
 41
-30.0
 62
     5
 63
     7
 74
     2
 91
        2
 64
     7
 65
     7
 75
     1
175
     1
 42
40.0
 92
       11
 66
     7
 43
1.0
 76
     1
 77
     6
 78
     2
 67
     7
 79
     6
170
     0
171
     0
290
     0
174
     0
 93
        1
 44
0.0
173
     0
291
     0
 45
0.0
1001
ACAD
1000
AcDbSavedByObjectVersion
1070
     0
  0
VISUALSTYLE
  5
3FF
102
{ACAD_XDICTIONARY
360
24CE8
102
}
102
{ACAD_REACTORS
330
3F2
102
}
330
3F2
100
AcDbVisualStyle
  2

 70
    13
 71
     2
 72
     2
 73
     0
 90
        0
 40
-0.6
 41
-30.0
 62
     5
 63
     7
 74
     1
 91
        4
 64
     7
 65
   257
 75
     1
175
     1
 42
1.0
 92
       12
 66
     7
 43
1.0
 76
     1
 77
     6
 78
     2
 67
     7
 79
     5
170
     0
171
     0
290
     0
174
     0
 93
        1
 44
0.0
173
     0
291
     1
 45
0.0
1001
ACAD
1000
AcDbSavedByObjectVersion
1070
     0
  0
VISUALSTYLE
  5
24C83
102
{ACAD_XDICTIONARY
360
24CF7
102
}
102
{ACAD_REACTORS
330
3F2
102
}
330
3F2
100
AcDbVisualStyle
  2
Wireframe
 70
     5
 71
     0
 72
     2
 73
     0
 90
        0
 40
-0.6
 41
-30.0
 62
     5
 63
     7
 74
     1
 91
        4
 64
     7
 65
   257
 75
     1
175
     1
 42
1.0
 92
        0
 66
   257
 43
1.0
 76
     1
 77
     6
 78
     2
 67
     7
 79
     3
170
     0
171
     0
290
     0
174
     0
 93
        1
 44
0.0
173
     0
291
     0
 45
0.0
1001
ACAD
1000
AcDbSavedByObjectVersion
1070
     0
  0
VISUALSTYLE
  5
24C87
102
{ACAD_XDICTIONARY
360
24CFF
102
}
102
{ACAD_REACTORS
330
3F2
102
}
330
3F2
100
AcDbVisualStyle
  2
X-Ray
 70
    25
 71
     2
 72
     2
 73
     1
 90
        1
 40
0.5
 41
-30.0
 62
     5
 63
     7
 74
     1
 91
        0
 64
     7
 65
   257
 75
     1
175
     1
 42
1.0
 92
        8
 66
     7
 43
1.0
 76
     1
 77
     6
 78
     2
 67
     7
 79
     3
170
     0
171
     0
290
     0
174
     0
 93
       13
 44
0.0
173
     0
291
     0
 45
0.0
1001
ACAD
1000
AcDbSavedByObjectVersion
1070
     0
  0
DICTIONARYVAR
  5
449
102
{ACAD_REACTORS
330
357
102
}
330
357
100
DictionaryVariables
280
     0
  1
1:1
  0
DICTIONARYVAR
  5
447
102
{ACAD_REACTORS
330
357
102
}
330
357
100
DictionaryVariables
280
     0
  1
STANDARD
  0
DICTIONARYVAR
  5
38E
102
{ACAD_REACTORS
330
357
102
}
330
357
100
DictionaryVariables
280
     0
  1
STANDARD
  0
DICTIONARYVAR
  5
24CC2
102
{ACAD_REACTORS
330
357
102
}
330
357
100
DictionaryVariables
280
     0
  1
Metric50
  0
DICTIONARYVAR
  5
24CC3
102
{ACAD_REACTORS
330
357
102
}
330
357
100
DictionaryVariables
280
     0
  1
Metric50
  0
DICTIONARYVAR
  5
359
102
{ACAD_REACTORS
330
357
102
}
330
357
100
DictionaryVariables
280
     0
  1
2
  0
DICTIONARYVAR
  5
358
102
{ACAD_REACTORS
330
357
102
}
330
357
100
DictionaryVariables
280
     0
  1
1
  0
DICTIONARYVAR
  5
728
102
{ACAD_REACTORS
330
357
102
}
330
357
100
DictionaryVariables
280
     0
  1
0
  0
DICTIONARYVAR
  5
458
102
{ACAD_REACTORS
330
357
102
}
330
357
100
DictionaryVariables
280
     0
  1
1
  0
DICTIONARYVAR
  5
459
102
{ACAD_REACTORS
330
357
102
}
330
357
100
DictionaryVariables
280
     0
  1
15
  0
DICTIONARYVAR
  5
44A
102
{ACAD_REACTORS
330
357
102
}
330
357
100
DictionaryVariables
280
     0
  1
0
  0
DICTIONARYVAR
  5
448
102
{ACAD_REACTORS
330
357
102
}
330
357
100
DictionaryVariables
280
     0
  1
0
  0
DICTIONARYVAR
  5
727
102
{ACAD_REACTORS
330
357
102
}
330
357
100
DictionaryVariables
280
     0
  1
127
  0
DICTIONARYVAR
  5
24CC4
102
{ACAD_REACTORS
330
357
102
}
330
357
100
DictionaryVariables
280
     0
  1
2
  0
DICTIONARY
  5
24CCD
330
33B
100
AcDbDictionary
280
     1
281
     1
  3
ACAD_XREC_ROUNDTRIP
360
24CCE
  0
DICTIONARY
  5
24CCB
330
303
100
AcDbDictionary
280
     1
281
     1
  3
ACAD_XREC_ROUNDTRIP
360
24CCC
  0
DICTIONARY
  5
24C55
330
3F0
100
AcDbDictionary
280
     1
281
     1
  3
ACAD_XREC_ROUNDTRIP
360
24C56
  0
DICTIONARY
  5
24C53
330
3EF
100
AcDbDictionary
280
     1
281
     1
  3
ACAD_XREC_ROUNDTRIP
360
24C54
  0
DICTIONARY
  5
24C57
330
3F1
100
AcDbDictionary
280
     1
281
     1
  3
ACAD_XREC_ROUNDTRIP
360
24C58
  0
DICTIONARY
  5
444
330
389
100
AcDbDictionary
280
     1
281
     1
  3
ACAD_ROUNDTRIP_2008_TABLESTYLE_CELLSTYLEMAP
360
24CC6
  3
ACAD_XREC_ROUNDTRIP
360
24CCF
  0
DICTIONARY
  5
24CDA
330
3F8
100
AcDbDictionary
280
     1
281
     1
  3
ACAD_XREC_ROUNDTRIP
360
24CDB
  0
DICTIONARY
  5
24CDE
330
3FA
100
AcDbDictionary
280
     1
281
     1
  3
ACAD_XREC_ROUNDTRIP
360
24CDF
  0
DICTIONARY
  5
24CDC
330
3F9
100
AcDbDictionary
280
     1
281
     1
  3
ACAD_XREC_ROUNDTRIP
360
24CDD
  0
DICTIONARY
  5
24CD8
330
3F7
100
AcDbDictionary
280
     1
281
     1
  3
ACAD_XREC_ROUNDTRIP
360
24CD9
  0
DICTIONARY
  5
24CE6
330
3FE
100
AcDbDictionary
280
     1
281
     1
  3
ACAD_XREC_ROUNDTRIP
360
24CE7
  0
DICTIONARY
  5
24CEE
330
402
100
AcDbDictionary
280
     1
281
     1
  3
ACAD_XREC_ROUNDTRIP
360
24CEF
  0
DICTIONARY
  5
24CE0
330
3FB
100
AcDbDictionary
280
     1
281
     1
  3
ACAD_XREC_ROUNDTRIP
360
24CE1
  0
DICTIONARY
  5
24CE4
330
3FD
100
AcDbDictionary
280
     1
281
     1
  3
ACAD_XREC_ROUNDTRIP
360
24CE5
  0
DICTIONARY
  5
24CF4
330
44E
100
AcDbDictionary
280
     1
281
     1
  3
ACAD_XREC_ROUNDTRIP
360
24CF5
  0
DICTIONARY
  5
24CEC
330
401
100
AcDbDictionary
280
     1
281
     1
  3
ACAD_XREC_ROUNDTRIP
360
24CED
  0
DICTIONARY
  5
24CD0
330
3F3
100
AcDbDictionary
280
     1
281
     1
  3
ACAD_XREC_ROUNDTRIP
360
24CD1
  0
DICTIONARY
  5
24CD2
330
3F4
100
AcDbDictionary
280
     1
281
     1
  3
ACAD_XREC_ROUNDTRIP
360
24CD3
  0
DICTIONARY
  5
24CD4
330
3F5
100
AcDbDictionary
280
     1
281
     1
  3
ACAD_XREC_ROUNDTRIP
360
24CD5
  0
DICTIONARY
  5
24CD6
330
3F6
100
AcDbDictionary
280
     1
281
     1
  3
ACAD_XREC_ROUNDTRIP
360
24CD7
  0
DICTIONARY
  5
24CF9
330
24C84
100
AcDbDictionary
280
     1
281
     1
  3
ACAD_XREC_ROUNDTRIP
360
24CFA
  0
DICTIONARY
  5
24CF0
330
44C
100
AcDbDictionary
280
     1
281
     1
  3
ACAD_XREC_ROUNDTRIP
360
24CF1
  0
DICTIONARY
  5
24CEA
330
400
100
AcDbDictionary
280
     1
281
     1
  3
ACAD_XREC_ROUNDTRIP
360
24CEB
  0
DICTIONARY
  5
24CF2
330
44D
100
AcDbDictionary
280
     1
281
     1
  3
ACAD_XREC_ROUNDTRIP
360
24CF3
  0
DICTIONARY
  5
24CE2
330
3FC
100
AcDbDictionary
280
     1
281
     1
  3
ACAD_XREC_ROUNDTRIP
360
24CE3
  0
DICTIONARY
  5
24D03
330
24C89
100
AcDbDictionary
280
     1
281
     1
  3
ACAD_XREC_ROUNDTRIP
360
24D04
  0
DICTIONARY
  5
24D01
330
24C88
100
AcDbDictionary
280
     1
281
     1
  3
ACAD_XREC_ROUNDTRIP
360
24D02
  0
DICTIONARY
  5
24CFB
330
24C85
100
AcDbDictionary
280
     1
281
     1
  3
ACAD_XREC_ROUNDTRIP
360
24CFC
  0
DICTIONARY
  5
24CFD
330
24C86
100
AcDbDictionary
280
     1
281
     1
  3
ACAD_XREC_ROUNDTRIP
360
24CFE
  0
DICTIONARY
  5
24CE8
330
3FF
100
AcDbDictionary
280
     1
281
     1
  3
ACAD_XREC_ROUNDTRIP
360
24CE9
  0
DICTIONARY
  5
24CF7
330
24C83
100
AcDbDictionary
280
     1
281
     1
  3
ACAD_XREC_ROUNDTRIP
360
24CF8
  0
DICTIONARY
  5
24CFF
330
24C87
100
AcDbDictionary
280
     1
281
     1
  3
ACAD_XREC_ROUNDTRIP
360
24D00
  0
XRECORD
  5
24CCE
102
{ACAD_REACTORS
330
24CCD
102
}
330
24CCD
100
AcDbXrecord
280
     1
102
SHADEPLOT
 70
     0
102
SHADEPLOTRESLEVEL
 70
     2
102
SHADEPLOTCUSTOMDPI
 70
   300
  0
XRECORD
  5
24CCC
102
{ACAD_REACTORS
330
24CCB
102
}
330
24CCB
100
AcDbXrecord
280
     1
102
SHADEPLOT
 70
     1
102
SHADEPLOTRESLEVEL
 70
     2
102
SHADEPLOTCUSTOMDPI
 70
   300
  0
XRECORD
  5
24C56
102
{ACAD_REACTORS
330
24C55
102
}
330
24C55
100
AcDbXrecord
280
     1
102
MATERIAL
148
0.0
149
0.0
149
0.0
 93
        0
 94
      127
282
     0
 72
     1
 77
     1
171
     1
175
     1
179
     1
273
     0
  0
XRECORD
  5
24C54
102
{ACAD_REACTORS
330
24C53
102
}
330
24C53
100
AcDbXrecord
280
     1
102
MATERIAL
148
0.0
149
0.0
149
0.0
 93
        0
 94
      127
282
     0
 72
     1
 77
     1
171
     1
175
     1
179
     1
273
     0
  0
XRECORD
  5
24C58
102
{ACAD_REACTORS
330
24C57
102
}
330
24C57
100
AcDbXrecord
280
     1
102
MATERIAL
148
0.0
149
0.0
149
0.0
 93
        0
 94
      127
282
     0
 72
     1
 77
     1
171
     1
175
     1
179
     1
273
     0
  0
CELLSTYLEMAP
  5
24CC6
102
{ACAD_REACTORS
330
444
102
}
330
444
100
AcDbCellStyleMap
 90
        3
300
CELLSTYLE
  1
TABLEFORMAT_BEGIN
 90
        5
170
     1
 91
        0
 92
    32768
 62
   257
 93
        1
300
CONTENTFORMAT
  1
CONTENTFORMAT_BEGIN
 90
        0
 91
        0
 92
        4
 93
        0
300

 40
0.0
140
1.0
 94
        5
 62
     0
340
10
144
6.0
309
CONTENTFORMAT_END
171
     1
301
MARGIN
  1
CELLMARGIN_BEGIN
 40
1.5
 40
1.5
 40
1.5
 40
1.5
 40
0.18
 40
0.18
309
CELLMARGIN_END
 94
        6
 95
        1
302
GRIDFORMAT
  1
GRIDFORMAT_BEGIN
 90
        0
 91
        1
 62
     0
 92
       -2
340
0
 93
        0
 40
0.045
309
GRIDFORMAT_END
 95
        2
302
GRIDFORMAT
  1
GRIDFORMAT_BEGIN
 90
        0
 91
        1
 62
     0
 92
       -2
340
0
 93
        0
 40
0.045
309
GRIDFORMAT_END
 95
        4
302
GRIDFORMAT
  1
GRIDFORMAT_BEGIN
 90
        0
 91
        1
 62
     0
 92
       -2
340
0
 93
        0
 40
0.045
309
GRIDFORMAT_END
 95
        8
302
GRIDFORMAT
  1
GRIDFORMAT_BEGIN
 90
        0
 91
        1
 62
     0
 92
       -2
340
0
 93
        0
 40
0.045
309
GRIDFORMAT_END
 95
       16
302
GRIDFORMAT
  1
GRIDFORMAT_BEGIN
 90
        0
 91
        1
 62
     0
 92
       -2
340
0
 93
        0
 40
0.045
309
GRIDFORMAT_END
 95
       32
302
GRIDFORMAT
  1
GRIDFORMAT_BEGIN
 90
        0
 91
        1
 62
     0
 92
       -2
340
0
 93
        0
 40
0.045
309
GRIDFORMAT_END
309
TABLEFORMAT_END
  1
CELLSTYLE_BEGIN
 90
        1
 91
        1
300
_TITLE
309
CELLSTYLE_END
300
CELLSTYLE
  1
TABLEFORMAT_BEGIN
 90
        5
170
     1
 91
        0
 92
        0
 62
   257
 93
        1
300
CONTENTFORMAT
  1
CONTENTFORMAT_BEGIN
 90
        0
 91
        0
 92
        4
 93
        0
300

 40
0.0
140
1.0
 94
        5
 62
     0
340
10
144
4.5
309
CONTENTFORMAT_END
171
     1
301
MARGIN
  1
CELLMARGIN_BEGIN
 40
1.5
 40
1.5
 40
1.5
 40
1.5
 40
0.18
 40
0.18
309
CELLMARGIN_END
 94
        6
 95
        1
302
GRIDFORMAT
  1
GRIDFORMAT_BEGIN
 90
        0
 91
        1
 62
     0
 92
       -2
340
0
 93
        0
 40
0.045
309
GRIDFORMAT_END
 95
        2
302
GRIDFORMAT
  1
GRIDFORMAT_BEGIN
 90
        0
 91
        1
 62
     0
 92
       -2
340
0
 93
        0
 40
0.045
309
GRIDFORMAT_END
 95
        4
302
GRIDFORMAT
  1
GRIDFORMAT_BEGIN
 90
        0
 91
        1
 62
     0
 92
       -2
340
0
 93
        0
 40
0.045
309
GRIDFORMAT_END
 95
        8
302
GRIDFORMAT
  1
GRIDFORMAT_BEGIN
 90
        0
 91
        1
 62
     0
 92
       -2
340
0
 93
        0
 40
0.045
309
GRIDFORMAT_END
 95
       16
302
GRIDFORMAT
  1
GRIDFORMAT_BEGIN
 90
        0
 91
        1
 62
     0
 92
       -2
340
0
 93
        0
 40
0.045
309
GRIDFORMAT_END
 95
       32
302
GRIDFORMAT
  1
GRIDFORMAT_BEGIN
 90
        0
 91
        1
 62
     0
 92
       -2
340
0
 93
        0
 40
0.045
309
GRIDFORMAT_END
309
TABLEFORMAT_END
  1
CELLSTYLE_BEGIN
 90
        2
 91
        1
300
_HEADER
309
CELLSTYLE_END
300
CELLSTYLE
  1
TABLEFORMAT_BEGIN
 90
        5
170
     1
 91
        0
 92
        0
 62
   257
 93
        1
300
CONTENTFORMAT
  1
CONTENTFORMAT_BEGIN
 90
        0
 91
        0
 92
        4
 93
        0
300

 40
0.0
140
1.0
 94
        2
 62
     0
340
10
144
4.5
309
CONTENTFORMAT_END
171
     1
301
MARGIN
  1
CELLMARGIN_BEGIN
 40
1.5
 40
1.5
 40
1.5
 40
1.5
 40
0.18
 40
0.18
309
CELLMARGIN_END
 94
        6
 95
        1
302
GRIDFORMAT
  1
GRIDFORMAT_BEGIN
 90
        0
 91
        1
 62
     0
 92
       -2
340
0
 93
        0
 40
0.045
309
GRIDFORMAT_END
 95
        2
302
GRIDFORMAT
  1
GRIDFORMAT_BEGIN
 90
        0
 91
        1
 62
     0
 92
       -2
340
0
 93
        0
 40
0.045
309
GRIDFORMAT_END
 95
        4
302
GRIDFORMAT
  1
GRIDFORMAT_BEGIN
 90
        0
 91
        1
 62
     0
 92
       -2
340
0
 93
        0
 40
0.045
309
GRIDFORMAT_END
 95
        8
302
GRIDFORMAT
  1
GRIDFORMAT_BEGIN
 90
        0
 91
        1
 62
     0
 92
       -2
340
0
 93
        0
 40
0.045
309
GRIDFORMAT_END
 95
       16
302
GRIDFORMAT
  1
GRIDFORMAT_BEGIN
 90
        0
 91
        1
 62
     0
 92
       -2
340
0
 93
        0
 40
0.045
309
GRIDFORMAT_END
 95
       32
302
GRIDFORMAT
  1
GRIDFORMAT_BEGIN
 90
        0
 91
        1
 62
     0
 92
       -2
340
0
 93
        0
 40
0.045
309
GRIDFORMAT_END
309
TABLEFORMAT_END
  1
CELLSTYLE_BEGIN
 90
        3
 91
        2
300
_DATA
309
CELLSTYLE_END
  0
XRECORD
  5
24CCF
102
{ACAD_REACTORS
330
444
102
}
330
444
100
AcDbXrecord
280
     1
102
ACAD_ROUNDTRIP_PRE2007_TABLESTYLE
 90
        4
 91
        0
  1

 92
        4
 93
        0
  2

 94
        4
 95
        0
  3

  0
XRECORD
  5
24CDB
102
{ACAD_REACTORS
330
24CDA
102
}
330
24CDA
100
AcDbXrecord
280
     1
102
RTVSPost2010Prop28
280
     1
102
RTVSPost2010PropOp28
 70
     1
102
RTVSPost2010Prop29
280
     1
102
RTVSPost2010PropOp29
 70
     1
102
RTVSPost2010Prop30
280
     0
102
RTVSPost2010PropOp30
 70
     1
102
RTVSPost2010Prop31
280
     0
102
RTVSPost2010PropOp31
 70
     1
102
RTVSPost2010Prop32
280
     0
102
RTVSPost2010PropOp32
 70
     1
102
RTVSPost2010Prop33
280
     0
102
RTVSPost2010PropOp33
 70
     1
102
RTVSPost2010Prop34
280
     0
102
RTVSPost2010PropOp34
 70
     1
102
RTVSPost2010Prop35
280
     0
102
RTVSPost2010PropOp35
 70
     1
102
RTVSPost2010Prop36
280
     0
102
RTVSPost2010PropOp36
 70
     1
102
RTVSPost2010Prop37
 90
       50
102
RTVSPost2010PropOp37
 70
     1
102
RTVSPost2010Prop38
140
0.0
102
RTVSPost2010PropOp38
 70
     1
102
RTVSPost2010Prop39
140
1.0
102
RTVSPost2010PropOp39
 70
     1
102
RTVSPost2010Prop40
 90
        0
102
RTVSPost2010PropOp40
 70
     1
102
RTVSPost2010Prop41ColorIndex
 90
       18
102
RTVSPost2010Prop41ColorRGB
 90
        0
102
RTVSPost2010PropOp41
 70
     1
102
RTVSPost2010Prop42
 90
       50
102
RTVSPost2010PropOp42
 70
     1
102
RTVSPost2010Prop43
 90
        3
102
RTVSPost2010PropOp43
 70
     1
102
RTVSPost2010Prop44ColorIndex
 90
        5
102
RTVSPost2010Prop44ColorRGB
 90
      255
102
RTVSPost2010PropOp44
 70
     1
102
RTVSPost2010Prop45
280
     0
102
RTVSPost2010PropOp45
 70
     1
102
RTVSPost2010Prop46
 90
       50
102
RTVSPost2010PropOp46
 70
     1
102
RTVSPost2010Prop47
 90
       50
102
RTVSPost2010PropOp47
 70
     1
102
RTVSPost2010Prop48
 90
       50
102
RTVSPost2010PropOp48
 70
     1
102
RTVSPost2010Prop49
280
     0
102
RTVSPost2010PropOp49
 70
     1
102
RTVSPost2010Prop50
 90
       50
102
RTVSPost2010PropOp50
 70
     1
102
RTVSPost2010Prop51ColorIndex
 90
      256
102
RTVSPost2010Prop51ColorRGB
 90
-16777216
102
RTVSPost2010PropOp51
 70
     0
102
RTVSPost2010Prop52
140
1.0
102
RTVSPost2010PropOp52
 70
     0
102
RTVSPost2010Prop53
 90
        2
102
RTVSPost2010PropOp53
 70
     1
102
RTVSPost2010Prop54
  1
strokes_ogs.tif
102
RTVSPost2010PropOp54
 70
     1
102
RTVSPost2010Prop55
280
     0
102
RTVSPost2010PropOp55
 70
     1
102
RTVSPost2010Prop56
140
1.0
102
RTVSPost2010PropOp56
 70
     1
102
RTVSPost2010Prop57
140
1.0
102
RTVSPost2010PropOp57
 70
     1
102
RTVSPropertyOp0
 70
     1
102
RTVSPropertyOp1
 70
     1
102
RTVSPropertyOp2
 70
     1
102
RTVSPropertyOp3
 70
     1
102
RTVSPropertyOp4
 70
     1
102
RTVSPropertyOp5
 70
     1
102
RTVSPropertyOp6
 70
     1
102
RTVSPropertyOp7
 70
     1
102
RTVSPropertyOp8
 70
     1
102
RTVSPropertyOp9
 70
     1
102
RTVSPropertyOp10
 70
     1
102
RTVSPropertyOp11
 70
     1
102
RTVSPropertyOp12
 70
     1
102
RTVSPropertyOp13
 70
     1
102
RTVSPropertyOp14
 70
     1
102
RTVSPropertyOp15
 70
     1
102
RTVSPropertyOp16
 70
     1
102
RTVSPropertyOp17
 70
     1
102
RTVSPropertyOp18
 70
     1
102
RTVSPropertyOp19
 70
     1
102
RTVSPropertyOp20
 70
     1
102
RTVSPropertyOp21
 70
     1
102
RTVSPropertyOp22
 70
     1
102
RTVSPropertyOp23
 70
     1
102
RTVSPropertyOp24
 70
     1
102
RTVSPropertyOp25
 70
     1
102
RTVSPropertyOp26
 70
     1
102
RTVSPropertyOp27
 70
     1
102
RTVSPropertyOp28
 70
     1
102
RTVSPropertyOp29
 70
     1
102
RTVSPropertyOp30
 70
     1
102
RTVSPropertyOp31
 70
     1
102
RTVSPropertyOp32
 70
     1
102
RTVSPropertyOp33
 70
     1
102
RTVSPropertyOp34
 70
     1
102
RTVSPropertyOp35
 70
     1
102
RTVSPropertyOp36
 70
     1
102
RTVSPropertyOp37
 70
     1
102
RTVSPropertyOp38
 70
     1
102
RTVSPropertyOp39
 70
     1
102
RTVSPropertyOp40
 70
     1
102
RTVSPropertyOp41
 70
     1
102
RTVSPropertyOp42
 70
     1
102
RTVSPropertyOp43
 70
     1
102
RTVSPropertyOp44
 70
     1
102
RTVSPropertyOp45
 70
     1
102
RTVSPropertyOp46
 70
     1
102
RTVSPropertyOp47
 70
     1
102
RTVSPropertyOp48
 70
     1
102
RTVSPropertyOp49
 70
     1
102
RTVSPropertyOp50
 70
     1
102
RTVSPropertyOp51
 70
     0
102
RTVSPropertyOp52
 70
     0
102
RTVSPropertyOp53
 70
     1
102
RTVSPropertyOp54
 70
     1
102
RTVSPropertyOp55
 70
     1
102
RTVSPropertyOp56
 70
     1
102
RTVSPropertyOp57
 70
     1
102
RTVSPropertyOp58
 70
     1
102
RTVSPropertyOp59
 70
     1
102
RTVSPropertyOp60
 70
     1
102
RTVSPropertyOp61
 70
     1
102
RTVSPropertyOp62
 70
     1
  0
XRECORD
  5
24CDF
102
{ACAD_REACTORS
330
24CDE
102
}
330
24CDE
100
AcDbXrecord
280
     1
102
RTVSPost2010Prop28
280
     0
102
RTVSPost2010PropOp28
 70
     1
102
RTVSPost2010Prop29
280
     1
102
RTVSPost2010PropOp29
 70
     1
102
RTVSPost2010Prop30
280
     1
102
RTVSPost2010PropOp30
 70
     1
102
RTVSPost2010Prop31
280
     0
102
RTVSPost2010PropOp31
 70
     1
102
RTVSPost2010Prop32
280
     0
102
RTVSPost2010PropOp32
 70
     1
102
RTVSPost2010Prop33
280
     0
102
RTVSPost2010PropOp33
 70
     1
102
RTVSPost2010Prop34
280
     0
102
RTVSPost2010PropOp34
 70
     1
102
RTVSPost2010Prop35
280
     0
102
RTVSPost2010PropOp35
 70
     1
102
RTVSPost2010Prop36
280
     0
102
RTVSPost2010PropOp36
 70
     1
102
RTVSPost2010Prop37
 90
       50
102
RTVSPost2010PropOp37
 70
     1
102
RTVSPost2010Prop38
140
0.0
102
RTVSPost2010PropOp38
 70
     1
102
RTVSPost2010Prop39
140
1.0
102
RTVSPost2010PropOp39
 70
     1
102
RTVSPost2010Prop40
 90
        0
102
RTVSPost2010PropOp40
 70
     1
102
RTVSPost2010Prop41ColorIndex
 90
       18
102
RTVSPost2010Prop41ColorRGB
 90
        0
102
RTVSPost2010PropOp41
 70
     1
102
RTVSPost2010Prop42
 90
       50
102
RTVSPost2010PropOp42
 70
     1
102
RTVSPost2010Prop43
 90
        3
102
RTVSPost2010PropOp43
 70
     1
102
RTVSPost2010Prop44ColorIndex
 90
        5
102
RTVSPost2010Prop44ColorRGB
 90
      255
102
RTVSPost2010PropOp44
 70
     1
102
RTVSPost2010Prop45
280
     0
102
RTVSPost2010PropOp45
 70
     1
102
RTVSPost2010Prop46
 90
       50
102
RTVSPost2010PropOp46
 70
     1
102
RTVSPost2010Prop47
 90
       50
102
RTVSPost2010PropOp47
 70
     1
102
RTVSPost2010Prop48
 90
       50
102
RTVSPost2010PropOp48
 70
     1
102
RTVSPost2010Prop49
280
     0
102
RTVSPost2010PropOp49
 70
     1
102
RTVSPost2010Prop50
 90
       50
102
RTVSPost2010PropOp50
 70
     1
102
RTVSPost2010Prop51ColorIndex
 90
      256
102
RTVSPost2010Prop51ColorRGB
 90
-16777216
102
RTVSPost2010PropOp51
 70
     0
102
RTVSPost2010Prop52
140
1.0
102
RTVSPost2010PropOp52
 70
     0
102
RTVSPost2010Prop53
 90
        2
102
RTVSPost2010PropOp53
 70
     1
102
RTVSPost2010Prop54
  1
strokes_ogs.tif
102
RTVSPost2010PropOp54
 70
     1
102
RTVSPost2010Prop55
280
     0
102
RTVSPost2010PropOp55
 70
     1
102
RTVSPost2010Prop56
140
1.0
102
RTVSPost2010PropOp56
 70
     1
102
RTVSPost2010Prop57
140
1.0
102
RTVSPost2010PropOp57
 70
     1
102
RTVSPropertyOp0
 70
     1
102
RTVSPropertyOp1
 70
     1
102
RTVSPropertyOp2
 70
     1
102
RTVSPropertyOp3
 70
     1
102
RTVSPropertyOp4
 70
     1
102
RTVSPropertyOp5
 70
     1
102
RTVSPropertyOp6
 70
     1
102
RTVSPropertyOp7
 70
     1
102
RTVSPropertyOp8
 70
     1
102
RTVSPropertyOp9
 70
     1
102
RTVSPropertyOp10
 70
     1
102
RTVSPropertyOp11
 70
     1
102
RTVSPropertyOp12
 70
     1
102
RTVSPropertyOp13
 70
     1
102
RTVSPropertyOp14
 70
     1
102
RTVSPropertyOp15
 70
     1
102
RTVSPropertyOp16
 70
     1
102
RTVSPropertyOp17
 70
     1
102
RTVSPropertyOp18
 70
     1
102
RTVSPropertyOp19
 70
     1
102
RTVSPropertyOp20
 70
     1
102
RTVSPropertyOp21
 70
     1
102
RTVSPropertyOp22
 70
     1
102
RTVSPropertyOp23
 70
     1
102
RTVSPropertyOp24
 70
     1
102
RTVSPropertyOp25
 70
     1
102
RTVSPropertyOp26
 70
     1
102
RTVSPropertyOp27
 70
     1
102
RTVSPropertyOp28
 70
     1
102
RTVSPropertyOp29
 70
     1
102
RTVSPropertyOp30
 70
     1
102
RTVSPropertyOp31
 70
     1
102
RTVSPropertyOp32
 70
     1
102
RTVSPropertyOp33
 70
     1
102
RTVSPropertyOp34
 70
     1
102
RTVSPropertyOp35
 70
     1
102
RTVSPropertyOp36
 70
     1
102
RTVSPropertyOp37
 70
     1
102
RTVSPropertyOp38
 70
     1
102
RTVSPropertyOp39
 70
     1
102
RTVSPropertyOp40
 70
     1
102
RTVSPropertyOp41
 70
     1
102
RTVSPropertyOp42
 70
     1
102
RTVSPropertyOp43
 70
     1
102
RTVSPropertyOp44
 70
     1
102
RTVSPropertyOp45
 70
     1
102
RTVSPropertyOp46
 70
     1
102
RTVSPropertyOp47
 70
     1
102
RTVSPropertyOp48
 70
     1
102
RTVSPropertyOp49
 70
     1
102
RTVSPropertyOp50
 70
     1
102
RTVSPropertyOp51
 70
     0
102
RTVSPropertyOp52
 70
     0
102
RTVSPropertyOp53
 70
     1
102
RTVSPropertyOp54
 70
     1
102
RTVSPropertyOp55
 70
     1
102
RTVSPropertyOp56
 70
     1
102
RTVSPropertyOp57
 70
     1
102
RTVSPropertyOp58
 70
     1
102
RTVSPropertyOp59
 70
     1
102
RTVSPropertyOp60
 70
     1
102
RTVSPropertyOp61
 70
     1
102
RTVSPropertyOp62
 70
     1
  0
XRECORD
  5
24CDD
102
{ACAD_REACTORS
330
24CDC
102
}
330
24CDC
100
AcDbXrecord
280
     1
102
RTVSPost2010Prop28
280
     0
102
RTVSPost2010PropOp28
 70
     1
102
RTVSPost2010Prop29
280
     1
102
RTVSPost2010PropOp29
 70
     1
102
RTVSPost2010Prop30
280
     1
102
RTVSPost2010PropOp30
 70
     1
102
RTVSPost2010Prop31
280
     0
102
RTVSPost2010PropOp31
 70
     1
102
RTVSPost2010Prop32
280
     0
102
RTVSPost2010PropOp32
 70
     1
102
RTVSPost2010Prop33
280
     0
102
RTVSPost2010PropOp33
 70
     1
102
RTVSPost2010Prop34
280
     0
102
RTVSPost2010PropOp34
 70
     1
102
RTVSPost2010Prop35
280
     0
102
RTVSPost2010PropOp35
 70
     1
102
RTVSPost2010Prop36
280
     0
102
RTVSPost2010PropOp36
 70
     1
102
RTVSPost2010Prop37
 90
       50
102
RTVSPost2010PropOp37
 70
     1
102
RTVSPost2010Prop38
140
0.0
102
RTVSPost2010PropOp38
 70
     1
102
RTVSPost2010Prop39
140
1.0
102
RTVSPost2010PropOp39
 70
     1
102
RTVSPost2010Prop40
 90
        0
102
RTVSPost2010PropOp40
 70
     1
102
RTVSPost2010Prop41ColorIndex
 90
       18
102
RTVSPost2010Prop41ColorRGB
 90
        0
102
RTVSPost2010PropOp41
 70
     1
102
RTVSPost2010Prop42
 90
       50
102
RTVSPost2010PropOp42
 70
     1
102
RTVSPost2010Prop43
 90
        3
102
RTVSPost2010PropOp43
 70
     1
102
RTVSPost2010Prop44ColorIndex
 90
        5
102
RTVSPost2010Prop44ColorRGB
 90
      255
102
RTVSPost2010PropOp44
 70
     1
102
RTVSPost2010Prop45
280
     0
102
RTVSPost2010PropOp45
 70
     1
102
RTVSPost2010Prop46
 90
       50
102
RTVSPost2010PropOp46
 70
     1
102
RTVSPost2010Prop47
 90
       50
102
RTVSPost2010PropOp47
 70
     1
102
RTVSPost2010Prop48
 90
       50
102
RTVSPost2010PropOp48
 70
     1
102
RTVSPost2010Prop49
280
     0
102
RTVSPost2010PropOp49
 70
     1
102
RTVSPost2010Prop50
 90
       50
102
RTVSPost2010PropOp50
 70
     1
102
RTVSPost2010Prop51ColorIndex
 90
      256
102
RTVSPost2010Prop51ColorRGB
 90
-16777216
102
RTVSPost2010PropOp51
 70
     0
102
RTVSPost2010Prop52
140
1.0
102
RTVSPost2010PropOp52
 70
     0
102
RTVSPost2010Prop53
 90
        2
102
RTVSPost2010PropOp53
 70
     1
102
RTVSPost2010Prop54
  1
strokes_ogs.tif
102
RTVSPost2010PropOp54
 70
     1
102
RTVSPost2010Prop55
280
     0
102
RTVSPost2010PropOp55
 70
     1
102
RTVSPost2010Prop56
140
1.0
102
RTVSPost2010PropOp56
 70
     1
102
RTVSPost2010Prop57
140
1.0
102
RTVSPost2010PropOp57
 70
     1
102
RTVSPropertyOp0
 70
     1
102
RTVSPropertyOp1
 70
     1
102
RTVSPropertyOp2
 70
     1
102
RTVSPropertyOp3
 70
     1
102
RTVSPropertyOp4
 70
     1
102
RTVSPropertyOp5
 70
     1
102
RTVSPropertyOp6
 70
     1
102
RTVSPropertyOp7
 70
     1
102
RTVSPropertyOp8
 70
     1
102
RTVSPropertyOp9
 70
     1
102
RTVSPropertyOp10
 70
     1
102
RTVSPropertyOp11
 70
     1
102
RTVSPropertyOp12
 70
     1
102
RTVSPropertyOp13
 70
     1
102
RTVSPropertyOp14
 70
     1
102
RTVSPropertyOp15
 70
     1
102
RTVSPropertyOp16
 70
     1
102
RTVSPropertyOp17
 70
     1
102
RTVSPropertyOp18
 70
     1
102
RTVSPropertyOp19
 70
     1
102
RTVSPropertyOp20
 70
     1
102
RTVSPropertyOp21
 70
     1
102
RTVSPropertyOp22
 70
     1
102
RTVSPropertyOp23
 70
     1
102
RTVSPropertyOp24
 70
     1
102
RTVSPropertyOp25
 70
     1
102
RTVSPropertyOp26
 70
     1
102
RTVSPropertyOp27
 70
     1
102
RTVSPropertyOp28
 70
     1
102
RTVSPropertyOp29
 70
     1
102
RTVSPropertyOp30
 70
     1
102
RTVSPropertyOp31
 70
     1
102
RTVSPropertyOp32
 70
     1
102
RTVSPropertyOp33
 70
     1
102
RTVSPropertyOp34
 70
     1
102
RTVSPropertyOp35
 70
     1
102
RTVSPropertyOp36
 70
     1
102
RTVSPropertyOp37
 70
     1
102
RTVSPropertyOp38
 70
     1
102
RTVSPropertyOp39
 70
     1
102
RTVSPropertyOp40
 70
     1
102
RTVSPropertyOp41
 70
     1
102
RTVSPropertyOp42
 70
     1
102
RTVSPropertyOp43
 70
     1
102
RTVSPropertyOp44
 70
     1
102
RTVSPropertyOp45
 70
     1
102
RTVSPropertyOp46
 70
     1
102
RTVSPropertyOp47
 70
     1
102
RTVSPropertyOp48
 70
     1
102
RTVSPropertyOp49
 70
     1
102
RTVSPropertyOp50
 70
     1
102
RTVSPropertyOp51
 70
     0
102
RTVSPropertyOp52
 70
     0
102
RTVSPropertyOp53
 70
     1
102
RTVSPropertyOp54
 70
     1
102
RTVSPropertyOp55
 70
     1
102
RTVSPropertyOp56
 70
     1
102
RTVSPropertyOp57
 70
     1
102
RTVSPropertyOp58
 70
     1
102
RTVSPropertyOp59
 70
     1
102
RTVSPropertyOp60
 70
     1
102
RTVSPropertyOp61
 70
     1
102
RTVSPropertyOp62
 70
     1
  0
XRECORD
  5
24CD9
102
{ACAD_REACTORS
330
24CD8
102
}
330
24CD8
100
AcDbXrecord
280
     1
102
RTVSPost2010Prop28
280
     0
102
RTVSPost2010PropOp28
 70
     1
102
RTVSPost2010Prop29
280
     1
102
RTVSPost2010PropOp29
 70
     1
102
RTVSPost2010Prop30
280
     1
102
RTVSPost2010PropOp30
 70
     1
102
RTVSPost2010Prop31
280
     0
102
RTVSPost2010PropOp31
 70
     1
102
RTVSPost2010Prop32
280
     0
102
RTVSPost2010PropOp32
 70
     1
102
RTVSPost2010Prop33
280
     0
102
RTVSPost2010PropOp33
 70
     1
102
RTVSPost2010Prop34
280
     0
102
RTVSPost2010PropOp34
 70
     1
102
RTVSPost2010Prop35
280
     0
102
RTVSPost2010PropOp35
 70
     1
102
RTVSPost2010Prop36
280
     0
102
RTVSPost2010PropOp36
 70
     1
102
RTVSPost2010Prop37
 90
       50
102
RTVSPost2010PropOp37
 70
     1
102
RTVSPost2010Prop38
140
0.0
102
RTVSPost2010PropOp38
 70
     1
102
RTVSPost2010Prop39
140
1.0
102
RTVSPost2010PropOp39
 70
     1
102
RTVSPost2010Prop40
 90
        0
102
RTVSPost2010PropOp40
 70
     1
102
RTVSPost2010Prop41ColorIndex
 90
       18
102
RTVSPost2010Prop41ColorRGB
 90
        0
102
RTVSPost2010PropOp41
 70
     1
102
RTVSPost2010Prop42
 90
       50
102
RTVSPost2010PropOp42
 70
     1
102
RTVSPost2010Prop43
 90
        3
102
RTVSPost2010PropOp43
 70
     1
102
RTVSPost2010Prop44ColorIndex
 90
        5
102
RTVSPost2010Prop44ColorRGB
 90
      255
102
RTVSPost2010PropOp44
 70
     1
102
RTVSPost2010Prop45
280
     0
102
RTVSPost2010PropOp45
 70
     1
102
RTVSPost2010Prop46
 90
       50
102
RTVSPost2010PropOp46
 70
     1
102
RTVSPost2010Prop47
 90
       50
102
RTVSPost2010PropOp47
 70
     1
102
RTVSPost2010Prop48
 90
       50
102
RTVSPost2010PropOp48
 70
     1
102
RTVSPost2010Prop49
280
     0
102
RTVSPost2010PropOp49
 70
     1
102
RTVSPost2010Prop50
 90
       50
102
RTVSPost2010PropOp50
 70
     1
102
RTVSPost2010Prop51ColorIndex
 90
      256
102
RTVSPost2010Prop51ColorRGB
 90
-16777216
102
RTVSPost2010PropOp51
 70
     0
102
RTVSPost2010Prop52
140
1.0
102
RTVSPost2010PropOp52
 70
     0
102
RTVSPost2010Prop53
 90
        2
102
RTVSPost2010PropOp53
 70
     1
102
RTVSPost2010Prop54
  1
strokes_ogs.tif
102
RTVSPost2010PropOp54
 70
     1
102
RTVSPost2010Prop55
280
     0
102
RTVSPost2010PropOp55
 70
     1
102
RTVSPost2010Prop56
140
1.0
102
RTVSPost2010PropOp56
 70
     1
102
RTVSPost2010Prop57
140
1.0
102
RTVSPost2010PropOp57
 70
     1
102
RTVSPropertyOp0
 70
     1
102
RTVSPropertyOp1
 70
     1
102
RTVSPropertyOp2
 70
     1
102
RTVSPropertyOp3
 70
     1
102
RTVSPropertyOp4
 70
     1
102
RTVSPropertyOp5
 70
     1
102
RTVSPropertyOp6
 70
     1
102
RTVSPropertyOp7
 70
     1
102
RTVSPropertyOp8
 70
     1
102
RTVSPropertyOp9
 70
     1
102
RTVSPropertyOp10
 70
     1
102
RTVSPropertyOp11
 70
     1
102
RTVSPropertyOp12
 70
     1
102
RTVSPropertyOp13
 70
     1
102
RTVSPropertyOp14
 70
     1
102
RTVSPropertyOp15
 70
     1
102
RTVSPropertyOp16
 70
     1
102
RTVSPropertyOp17
 70
     1
102
RTVSPropertyOp18
 70
     1
102
RTVSPropertyOp19
 70
     1
102
RTVSPropertyOp20
 70
     1
102
RTVSPropertyOp21
 70
     1
102
RTVSPropertyOp22
 70
     1
102
RTVSPropertyOp23
 70
     1
102
RTVSPropertyOp24
 70
     1
102
RTVSPropertyOp25
 70
     1
102
RTVSPropertyOp26
 70
     1
102
RTVSPropertyOp27
 70
     1
102
RTVSPropertyOp28
 70
     1
102
RTVSPropertyOp29
 70
     1
102
RTVSPropertyOp30
 70
     1
102
RTVSPropertyOp31
 70
     1
102
RTVSPropertyOp32
 70
     1
102
RTVSPropertyOp33
 70
     1
102
RTVSPropertyOp34
 70
     1
102
RTVSPropertyOp35
 70
     1
102
RTVSPropertyOp36
 70
     1
102
RTVSPropertyOp37
 70
     1
102
RTVSPropertyOp38
 70
     1
102
RTVSPropertyOp39
 70
     1
102
RTVSPropertyOp40
 70
     1
102
RTVSPropertyOp41
 70
     1
102
RTVSPropertyOp42
 70
     1
102
RTVSPropertyOp43
 70
     1
102
RTVSPropertyOp44
 70
     1
102
RTVSPropertyOp45
 70
     1
102
RTVSPropertyOp46
 70
     1
102
RTVSPropertyOp47
 70
     1
102
RTVSPropertyOp48
 70
     1
102
RTVSPropertyOp49
 70
     1
102
RTVSPropertyOp50
 70
     1
102
RTVSPropertyOp51
 70
     0
102
RTVSPropertyOp52
 70
     0
102
RTVSPropertyOp53
 70
     1
102
RTVSPropertyOp54
 70
     1
102
RTVSPropertyOp55
 70
     1
102
RTVSPropertyOp56
 70
     1
102
RTVSPropertyOp57
 70
     1
102
RTVSPropertyOp58
 70
     1
102
RTVSPropertyOp59
 70
     1
102
RTVSPropertyOp60
 70
     1
102
RTVSPropertyOp61
 70
     1
102
RTVSPropertyOp62
 70
     1
  0
XRECORD
  5
24CE7
102
{ACAD_REACTORS
330
24CE6
102
}
330
24CE6
100
AcDbXrecord
280
     1
102
RTVSPost2010Prop28
280
     0
102
RTVSPost2010PropOp28
 70
     1
102
RTVSPost2010Prop29
280
     1
102
RTVSPost2010PropOp29
 70
     1
102
RTVSPost2010Prop30
280
     1
102
RTVSPost2010PropOp30
 70
     1
102
RTVSPost2010Prop31
280
     0
102
RTVSPost2010PropOp31
 70
     1
102
RTVSPost2010Prop32
280
     0
102
RTVSPost2010PropOp32
 70
     1
102
RTVSPost2010Prop33
280
     0
102
RTVSPost2010PropOp33
 70
     1
102
RTVSPost2010Prop34
280
     0
102
RTVSPost2010PropOp34
 70
     1
102
RTVSPost2010Prop35
280
     0
102
RTVSPost2010PropOp35
 70
     1
102
RTVSPost2010Prop36
280
     0
102
RTVSPost2010PropOp36
 70
     1
102
RTVSPost2010Prop37
 90
       50
102
RTVSPost2010PropOp37
 70
     1
102
RTVSPost2010Prop38
140
0.0
102
RTVSPost2010PropOp38
 70
     1
102
RTVSPost2010Prop39
140
1.0
102
RTVSPost2010PropOp39
 70
     1
102
RTVSPost2010Prop40
 90
        0
102
RTVSPost2010PropOp40
 70
     1
102
RTVSPost2010Prop41ColorIndex
 90
       18
102
RTVSPost2010Prop41ColorRGB
 90
        0
102
RTVSPost2010PropOp41
 70
     1
102
RTVSPost2010Prop42
 90
       50
102
RTVSPost2010PropOp42
 70
     1
102
RTVSPost2010Prop43
 90
        3
102
RTVSPost2010PropOp43
 70
     1
102
RTVSPost2010Prop44ColorIndex
 90
        5
102
RTVSPost2010Prop44ColorRGB
 90
      255
102
RTVSPost2010PropOp44
 70
     1
102
RTVSPost2010Prop45
280
     0
102
RTVSPost2010PropOp45
 70
     1
102
RTVSPost2010Prop46
 90
       50
102
RTVSPost2010PropOp46
 70
     1
102
RTVSPost2010Prop47
 90
       50
102
RTVSPost2010PropOp47
 70
     1
102
RTVSPost2010Prop48
 90
       50
102
RTVSPost2010PropOp48
 70
     1
102
RTVSPost2010Prop49
280
     0
102
RTVSPost2010PropOp49
 70
     1
102
RTVSPost2010Prop50
 90
       50
102
RTVSPost2010PropOp50
 70
     1
102
RTVSPost2010Prop51ColorIndex
 90
      256
102
RTVSPost2010Prop51ColorRGB
 90
-16777216
102
RTVSPost2010PropOp51
 70
     0
102
RTVSPost2010Prop52
140
1.0
102
RTVSPost2010PropOp52
 70
     0
102
RTVSPost2010Prop53
 90
        2
102
RTVSPost2010PropOp53
 70
     1
102
RTVSPost2010Prop54
  1
strokes_ogs.tif
102
RTVSPost2010PropOp54
 70
     1
102
RTVSPost2010Prop55
280
     0
102
RTVSPost2010PropOp55
 70
     1
102
RTVSPost2010Prop56
140
1.0
102
RTVSPost2010PropOp56
 70
     1
102
RTVSPost2010Prop57
140
1.0
102
RTVSPost2010PropOp57
 70
     1
102
RTVSPropertyOp0
 70
     1
102
RTVSPropertyOp1
 70
     1
102
RTVSPropertyOp2
 70
     1
102
RTVSPropertyOp3
 70
     1
102
RTVSPropertyOp4
 70
     1
102
RTVSPropertyOp5
 70
     1
102
RTVSPropertyOp6
 70
     1
102
RTVSPropertyOp7
 70
     1
102
RTVSPropertyOp8
 70
     1
102
RTVSPropertyOp9
 70
     1
102
RTVSPropertyOp10
 70
     1
102
RTVSPropertyOp11
 70
     1
102
RTVSPropertyOp12
 70
     1
102
RTVSPropertyOp13
 70
     1
102
RTVSPropertyOp14
 70
     1
102
RTVSPropertyOp15
 70
     1
102
RTVSPropertyOp16
 70
     1
102
RTVSPropertyOp17
 70
     1
102
RTVSPropertyOp18
 70
     1
102
RTVSPropertyOp19
 70
     1
102
RTVSPropertyOp20
 70
     1
102
RTVSPropertyOp21
 70
     1
102
RTVSPropertyOp22
 70
     1
102
RTVSPropertyOp23
 70
     1
102
RTVSPropertyOp24
 70
     1
102
RTVSPropertyOp25
 70
     1
102
RTVSPropertyOp26
 70
     1
102
RTVSPropertyOp27
 70
     1
102
RTVSPropertyOp28
 70
     1
102
RTVSPropertyOp29
 70
     1
102
RTVSPropertyOp30
 70
     1
102
RTVSPropertyOp31
 70
     1
102
RTVSPropertyOp32
 70
     1
102
RTVSPropertyOp33
 70
     1
102
RTVSPropertyOp34
 70
     1
102
RTVSPropertyOp35
 70
     1
102
RTVSPropertyOp36
 70
     1
102
RTVSPropertyOp37
 70
     1
102
RTVSPropertyOp38
 70
     1
102
RTVSPropertyOp39
 70
     1
102
RTVSPropertyOp40
 70
     1
102
RTVSPropertyOp41
 70
     1
102
RTVSPropertyOp42
 70
     1
102
RTVSPropertyOp43
 70
     1
102
RTVSPropertyOp44
 70
     1
102
RTVSPropertyOp45
 70
     1
102
RTVSPropertyOp46
 70
     1
102
RTVSPropertyOp47
 70
     1
102
RTVSPropertyOp48
 70
     1
102
RTVSPropertyOp49
 70
     1
102
RTVSPropertyOp50
 70
     1
102
RTVSPropertyOp51
 70
     0
102
RTVSPropertyOp52
 70
     0
102
RTVSPropertyOp53
 70
     1
102
RTVSPropertyOp54
 70
     1
102
RTVSPropertyOp55
 70
     1
102
RTVSPropertyOp56
 70
     1
102
RTVSPropertyOp57
 70
     1
102
RTVSPropertyOp58
 70
     1
102
RTVSPropertyOp59
 70
     1
102
RTVSPropertyOp60
 70
     1
102
RTVSPropertyOp61
 70
     1
102
RTVSPropertyOp62
 70
     1
  0
XRECORD
  5
24CEF
102
{ACAD_REACTORS
330
24CEE
102
}
330
24CEE
100
AcDbXrecord
280
     1
102
RTVSPost2010Prop28
280
     0
102
RTVSPost2010PropOp28
 70
     1
102
RTVSPost2010Prop29
280
     1
102
RTVSPost2010PropOp29
 70
     1
102
RTVSPost2010Prop30
280
     1
102
RTVSPost2010PropOp30
 70
     1
102
RTVSPost2010Prop31
280
     0
102
RTVSPost2010PropOp31
 70
     1
102
RTVSPost2010Prop32
280
     0
102
RTVSPost2010PropOp32
 70
     1
102
RTVSPost2010Prop33
280
     0
102
RTVSPost2010PropOp33
 70
     1
102
RTVSPost2010Prop34
280
     0
102
RTVSPost2010PropOp34
 70
     1
102
RTVSPost2010Prop35
280
     0
102
RTVSPost2010PropOp35
 70
     1
102
RTVSPost2010Prop36
280
     0
102
RTVSPost2010PropOp36
 70
     1
102
RTVSPost2010Prop37
 90
       50
102
RTVSPost2010PropOp37
 70
     1
102
RTVSPost2010Prop38
140
0.0
102
RTVSPost2010PropOp38
 70
     1
102
RTVSPost2010Prop39
140
1.0
102
RTVSPost2010PropOp39
 70
     1
102
RTVSPost2010Prop40
 90
        0
102
RTVSPost2010PropOp40
 70
     1
102
RTVSPost2010Prop41ColorIndex
 90
       18
102
RTVSPost2010Prop41ColorRGB
 90
        0
102
RTVSPost2010PropOp41
 70
     1
102
RTVSPost2010Prop42
 90
       50
102
RTVSPost2010PropOp42
 70
     1
102
RTVSPost2010Prop43
 90
        3
102
RTVSPost2010PropOp43
 70
     1
102
RTVSPost2010Prop44ColorIndex
 90
        5
102
RTVSPost2010Prop44ColorRGB
 90
      255
102
RTVSPost2010PropOp44
 70
     1
102
RTVSPost2010Prop45
280
     0
102
RTVSPost2010PropOp45
 70
     1
102
RTVSPost2010Prop46
 90
       50
102
RTVSPost2010PropOp46
 70
     1
102
RTVSPost2010Prop47
 90
       50
102
RTVSPost2010PropOp47
 70
     1
102
RTVSPost2010Prop48
 90
       50
102
RTVSPost2010PropOp48
 70
     1
102
RTVSPost2010Prop49
280
     0
102
RTVSPost2010PropOp49
 70
     1
102
RTVSPost2010Prop50
 90
       50
102
RTVSPost2010PropOp50
 70
     1
102
RTVSPost2010Prop51ColorIndex
 90
      256
102
RTVSPost2010Prop51ColorRGB
 90
-16777216
102
RTVSPost2010PropOp51
 70
     0
102
RTVSPost2010Prop52
140
1.0
102
RTVSPost2010PropOp52
 70
     0
102
RTVSPost2010Prop53
 90
        2
102
RTVSPost2010PropOp53
 70
     1
102
RTVSPost2010Prop54
  1
strokes_ogs.tif
102
RTVSPost2010PropOp54
 70
     1
102
RTVSPost2010Prop55
280
     0
102
RTVSPost2010PropOp55
 70
     1
102
RTVSPost2010Prop56
140
1.0
102
RTVSPost2010PropOp56
 70
     1
102
RTVSPost2010Prop57
140
1.0
102
RTVSPost2010PropOp57
 70
     1
102
RTVSPropertyOp0
 70
     1
102
RTVSPropertyOp1
 70
     1
102
RTVSPropertyOp2
 70
     1
102
RTVSPropertyOp3
 70
     1
102
RTVSPropertyOp4
 70
     1
102
RTVSPropertyOp5
 70
     1
102
RTVSPropertyOp6
 70
     1
102
RTVSPropertyOp7
 70
     1
102
RTVSPropertyOp8
 70
     1
102
RTVSPropertyOp9
 70
     1
102
RTVSPropertyOp10
 70
     1
102
RTVSPropertyOp11
 70
     1
102
RTVSPropertyOp12
 70
     1
102
RTVSPropertyOp13
 70
     1
102
RTVSPropertyOp14
 70
     1
102
RTVSPropertyOp15
 70
     1
102
RTVSPropertyOp16
 70
     1
102
RTVSPropertyOp17
 70
     1
102
RTVSPropertyOp18
 70
     1
102
RTVSPropertyOp19
 70
     1
102
RTVSPropertyOp20
 70
     1
102
RTVSPropertyOp21
 70
     1
102
RTVSPropertyOp22
 70
     1
102
RTVSPropertyOp23
 70
     1
102
RTVSPropertyOp24
 70
     1
102
RTVSPropertyOp25
 70
     1
102
RTVSPropertyOp26
 70
     1
102
RTVSPropertyOp27
 70
     1
102
RTVSPropertyOp28
 70
     1
102
RTVSPropertyOp29
 70
     1
102
RTVSPropertyOp30
 70
     1
102
RTVSPropertyOp31
 70
     1
102
RTVSPropertyOp32
 70
     1
102
RTVSPropertyOp33
 70
     1
102
RTVSPropertyOp34
 70
     1
102
RTVSPropertyOp35
 70
     1
102
RTVSPropertyOp36
 70
     1
102
RTVSPropertyOp37
 70
     1
102
RTVSPropertyOp38
 70
     1
102
RTVSPropertyOp39
 70
     1
102
RTVSPropertyOp40
 70
     1
102
RTVSPropertyOp41
 70
     1
102
RTVSPropertyOp42
 70
     1
102
RTVSPropertyOp43
 70
     1
102
RTVSPropertyOp44
 70
     1
102
RTVSPropertyOp45
 70
     1
102
RTVSPropertyOp46
 70
     1
102
RTVSPropertyOp47
 70
     1
102
RTVSPropertyOp48
 70
     1
102
RTVSPropertyOp49
 70
     1
102
RTVSPropertyOp50
 70
     1
102
RTVSPropertyOp51
 70
     0
102
RTVSPropertyOp52
 70
     0
102
RTVSPropertyOp53
 70
     1
102
RTVSPropertyOp54
 70
     1
102
RTVSPropertyOp55
 70
     1
102
RTVSPropertyOp56
 70
     1
102
RTVSPropertyOp57
 70
     1
102
RTVSPropertyOp58
 70
     1
102
RTVSPropertyOp59
 70
     1
102
RTVSPropertyOp60
 70
     1
102
RTVSPropertyOp61
 70
     1
102
RTVSPropertyOp62
 70
     1
  0
XRECORD
  5
24CE1
102
{ACAD_REACTORS
330
24CE0
102
}
330
24CE0
100
AcDbXrecord
280
     1
102
RTVSPost2010Prop28
280
     0
102
RTVSPost2010PropOp28
 70
     1
102
RTVSPost2010Prop29
280
     1
102
RTVSPost2010PropOp29
 70
     1
102
RTVSPost2010Prop30
280
     1
102
RTVSPost2010PropOp30
 70
     1
102
RTVSPost2010Prop31
280
     0
102
RTVSPost2010PropOp31
 70
     1
102
RTVSPost2010Prop32
280
     0
102
RTVSPost2010PropOp32
 70
     1
102
RTVSPost2010Prop33
280
     0
102
RTVSPost2010PropOp33
 70
     1
102
RTVSPost2010Prop34
280
     0
102
RTVSPost2010PropOp34
 70
     1
102
RTVSPost2010Prop35
280
     0
102
RTVSPost2010PropOp35
 70
     1
102
RTVSPost2010Prop36
280
     0
102
RTVSPost2010PropOp36
 70
     1
102
RTVSPost2010Prop37
 90
       50
102
RTVSPost2010PropOp37
 70
     1
102
RTVSPost2010Prop38
140
0.0
102
RTVSPost2010PropOp38
 70
     1
102
RTVSPost2010Prop39
140
1.0
102
RTVSPost2010PropOp39
 70
     1
102
RTVSPost2010Prop40
 90
        0
102
RTVSPost2010PropOp40
 70
     1
102
RTVSPost2010Prop41ColorIndex
 90
       18
102
RTVSPost2010Prop41ColorRGB
 90
        0
102
RTVSPost2010PropOp41
 70
     1
102
RTVSPost2010Prop42
 90
       50
102
RTVSPost2010PropOp42
 70
     1
102
RTVSPost2010Prop43
 90
        3
102
RTVSPost2010PropOp43
 70
     1
102
RTVSPost2010Prop44ColorIndex
 90
        5
102
RTVSPost2010Prop44ColorRGB
 90
      255
102
RTVSPost2010PropOp44
 70
     1
102
RTVSPost2010Prop45
280
     0
102
RTVSPost2010PropOp45
 70
     1
102
RTVSPost2010Prop46
 90
       50
102
RTVSPost2010PropOp46
 70
     1
102
RTVSPost2010Prop47
 90
       50
102
RTVSPost2010PropOp47
 70
     1
102
RTVSPost2010Prop48
 90
       50
102
RTVSPost2010PropOp48
 70
     1
102
RTVSPost2010Prop49
280
     0
102
RTVSPost2010PropOp49
 70
     1
102
RTVSPost2010Prop50
 90
       50
102
RTVSPost2010PropOp50
 70
     1
102
RTVSPost2010Prop51ColorIndex
 90
      256
102
RTVSPost2010Prop51ColorRGB
 90
-16777216
102
RTVSPost2010PropOp51
 70
     0
102
RTVSPost2010Prop52
140
1.0
102
RTVSPost2010PropOp52
 70
     0
102
RTVSPost2010Prop53
 90
        2
102
RTVSPost2010PropOp53
 70
     1
102
RTVSPost2010Prop54
  1
strokes_ogs.tif
102
RTVSPost2010PropOp54
 70
     1
102
RTVSPost2010Prop55
280
     0
102
RTVSPost2010PropOp55
 70
     1
102
RTVSPost2010Prop56
140
1.0
102
RTVSPost2010PropOp56
 70
     1
102
RTVSPost2010Prop57
140
1.0
102
RTVSPost2010PropOp57
 70
     1
102
RTVSPropertyOp0
 70
     1
102
RTVSPropertyOp1
 70
     1
102
RTVSPropertyOp2
 70
     1
102
RTVSPropertyOp3
 70
     1
102
RTVSPropertyOp4
 70
     1
102
RTVSPropertyOp5
 70
     1
102
RTVSPropertyOp6
 70
     1
102
RTVSPropertyOp7
 70
     1
102
RTVSPropertyOp8
 70
     1
102
RTVSPropertyOp9
 70
     1
102
RTVSPropertyOp10
 70
     1
102
RTVSPropertyOp11
 70
     1
102
RTVSPropertyOp12
 70
     1
102
RTVSPropertyOp13
 70
     1
102
RTVSPropertyOp14
 70
     1
102
RTVSPropertyOp15
 70
     1
102
RTVSPropertyOp16
 70
     1
102
RTVSPropertyOp17
 70
     1
102
RTVSPropertyOp18
 70
     1
102
RTVSPropertyOp19
 70
     1
102
RTVSPropertyOp20
 70
     1
102
RTVSPropertyOp21
 70
     1
102
RTVSPropertyOp22
 70
     1
102
RTVSPropertyOp23
 70
     1
102
RTVSPropertyOp24
 70
     1
102
RTVSPropertyOp25
 70
     1
102
RTVSPropertyOp26
 70
     1
102
RTVSPropertyOp27
 70
     1
102
RTVSPropertyOp28
 70
     1
102
RTVSPropertyOp29
 70
     1
102
RTVSPropertyOp30
 70
     1
102
RTVSPropertyOp31
 70
     1
102
RTVSPropertyOp32
 70
     1
102
RTVSPropertyOp33
 70
     1
102
RTVSPropertyOp34
 70
     1
102
RTVSPropertyOp35
 70
     1
102
RTVSPropertyOp36
 70
     1
102
RTVSPropertyOp37
 70
     1
102
RTVSPropertyOp38
 70
     1
102
RTVSPropertyOp39
 70
     1
102
RTVSPropertyOp40
 70
     1
102
RTVSPropertyOp41
 70
     1
102
RTVSPropertyOp42
 70
     1
102
RTVSPropertyOp43
 70
     1
102
RTVSPropertyOp44
 70
     1
102
RTVSPropertyOp45
 70
     1
102
RTVSPropertyOp46
 70
     1
102
RTVSPropertyOp47
 70
     1
102
RTVSPropertyOp48
 70
     1
102
RTVSPropertyOp49
 70
     1
102
RTVSPropertyOp50
 70
     1
102
RTVSPropertyOp51
 70
     0
102
RTVSPropertyOp52
 70
     0
102
RTVSPropertyOp53
 70
     1
102
RTVSPropertyOp54
 70
     1
102
RTVSPropertyOp55
 70
     1
102
RTVSPropertyOp56
 70
     1
102
RTVSPropertyOp57
 70
     1
102
RTVSPropertyOp58
 70
     1
102
RTVSPropertyOp59
 70
     1
102
RTVSPropertyOp60
 70
     1
102
RTVSPropertyOp61
 70
     1
102
RTVSPropertyOp62
 70
     1
  0
XRECORD
  5
24CE5
102
{ACAD_REACTORS
330
24CE4
102
}
330
24CE4
100
AcDbXrecord
280
     1
102
RTVSPost2010Prop28
280
     0
102
RTVSPost2010PropOp28
 70
     1
102
RTVSPost2010Prop29
280
     1
102
RTVSPost2010PropOp29
 70
     1
102
RTVSPost2010Prop30
280
     1
102
RTVSPost2010PropOp30
 70
     1
102
RTVSPost2010Prop31
280
     0
102
RTVSPost2010PropOp31
 70
     1
102
RTVSPost2010Prop32
280
     0
102
RTVSPost2010PropOp32
 70
     1
102
RTVSPost2010Prop33
280
     0
102
RTVSPost2010PropOp33
 70
     1
102
RTVSPost2010Prop34
280
     0
102
RTVSPost2010PropOp34
 70
     1
102
RTVSPost2010Prop35
280
     0
102
RTVSPost2010PropOp35
 70
     1
102
RTVSPost2010Prop36
280
     0
102
RTVSPost2010PropOp36
 70
     1
102
RTVSPost2010Prop37
 90
       50
102
RTVSPost2010PropOp37
 70
     1
102
RTVSPost2010Prop38
140
0.0
102
RTVSPost2010PropOp38
 70
     1
102
RTVSPost2010Prop39
140
1.0
102
RTVSPost2010PropOp39
 70
     1
102
RTVSPost2010Prop40
 90
        0
102
RTVSPost2010PropOp40
 70
     1
102
RTVSPost2010Prop41ColorIndex
 90
       18
102
RTVSPost2010Prop41ColorRGB
 90
        0
102
RTVSPost2010PropOp41
 70
     1
102
RTVSPost2010Prop42
 90
       50
102
RTVSPost2010PropOp42
 70
     1
102
RTVSPost2010Prop43
 90
        3
102
RTVSPost2010PropOp43
 70
     1
102
RTVSPost2010Prop44ColorIndex
 90
        5
102
RTVSPost2010Prop44ColorRGB
 90
      255
102
RTVSPost2010PropOp44
 70
     1
102
RTVSPost2010Prop45
280
     0
102
RTVSPost2010PropOp45
 70
     1
102
RTVSPost2010Prop46
 90
       50
102
RTVSPost2010PropOp46
 70
     1
102
RTVSPost2010Prop47
 90
       50
102
RTVSPost2010PropOp47
 70
     1
102
RTVSPost2010Prop48
 90
       50
102
RTVSPost2010PropOp48
 70
     1
102
RTVSPost2010Prop49
280
     0
102
RTVSPost2010PropOp49
 70
     1
102
RTVSPost2010Prop50
 90
       50
102
RTVSPost2010PropOp50
 70
     1
102
RTVSPost2010Prop51ColorIndex
 90
      256
102
RTVSPost2010Prop51ColorRGB
 90
-16777216
102
RTVSPost2010PropOp51
 70
     0
102
RTVSPost2010Prop52
140
1.0
102
RTVSPost2010PropOp52
 70
     0
102
RTVSPost2010Prop53
 90
        2
102
RTVSPost2010PropOp53
 70
     1
102
RTVSPost2010Prop54
  1
strokes_ogs.tif
102
RTVSPost2010PropOp54
 70
     1
102
RTVSPost2010Prop55
280
     0
102
RTVSPost2010PropOp55
 70
     1
102
RTVSPost2010Prop56
140
1.0
102
RTVSPost2010PropOp56
 70
     1
102
RTVSPost2010Prop57
140
1.0
102
RTVSPost2010PropOp57
 70
     1
102
RTVSPropertyOp0
 70
     1
102
RTVSPropertyOp1
 70
     1
102
RTVSPropertyOp2
 70
     1
102
RTVSPropertyOp3
 70
     1
102
RTVSPropertyOp4
 70
     1
102
RTVSPropertyOp5
 70
     1
102
RTVSPropertyOp6
 70
     1
102
RTVSPropertyOp7
 70
     1
102
RTVSPropertyOp8
 70
     1
102
RTVSPropertyOp9
 70
     1
102
RTVSPropertyOp10
 70
     1
102
RTVSPropertyOp11
 70
     1
102
RTVSPropertyOp12
 70
     1
102
RTVSPropertyOp13
 70
     1
102
RTVSPropertyOp14
 70
     1
102
RTVSPropertyOp15
 70
     1
102
RTVSPropertyOp16
 70
     1
102
RTVSPropertyOp17
 70
     1
102
RTVSPropertyOp18
 70
     1
102
RTVSPropertyOp19
 70
     1
102
RTVSPropertyOp20
 70
     1
102
RTVSPropertyOp21
 70
     1
102
RTVSPropertyOp22
 70
     1
102
RTVSPropertyOp23
 70
     1
102
RTVSPropertyOp24
 70
     1
102
RTVSPropertyOp25
 70
     1
102
RTVSPropertyOp26
 70
     1
102
RTVSPropertyOp27
 70
     1
102
RTVSPropertyOp28
 70
     1
102
RTVSPropertyOp29
 70
     1
102
RTVSPropertyOp30
 70
     1
102
RTVSPropertyOp31
 70
     1
102
RTVSPropertyOp32
 70
     1
102
RTVSPropertyOp33
 70
     1
102
RTVSPropertyOp34
 70
     1
102
RTVSPropertyOp35
 70
     1
102
RTVSPropertyOp36
 70
     1
102
RTVSPropertyOp37
 70
     1
102
RTVSPropertyOp38
 70
     1
102
RTVSPropertyOp39
 70
     1
102
RTVSPropertyOp40
 70
     1
102
RTVSPropertyOp41
 70
     1
102
RTVSPropertyOp42
 70
     1
102
RTVSPropertyOp43
 70
     1
102
RTVSPropertyOp44
 70
     1
102
RTVSPropertyOp45
 70
     1
102
RTVSPropertyOp46
 70
     1
102
RTVSPropertyOp47
 70
     1
102
RTVSPropertyOp48
 70
     1
102
RTVSPropertyOp49
 70
     1
102
RTVSPropertyOp50
 70
     1
102
RTVSPropertyOp51
 70
     0
102
RTVSPropertyOp52
 70
     0
102
RTVSPropertyOp53
 70
     1
102
RTVSPropertyOp54
 70
     1
102
RTVSPropertyOp55
 70
     1
102
RTVSPropertyOp56
 70
     1
102
RTVSPropertyOp57
 70
     1
102
RTVSPropertyOp58
 70
     1
102
RTVSPropertyOp59
 70
     1
102
RTVSPropertyOp60
 70
     1
102
RTVSPropertyOp61
 70
     1
102
RTVSPropertyOp62
 70
     1
  0
XRECORD
  5
24CF5
102
{ACAD_REACTORS
330
24CF4
102
}
330
24CF4
100
AcDbXrecord
280
     1
102
RTVSPost2010Prop28
280
     0
102
RTVSPost2010PropOp28
 70
     1
102
RTVSPost2010Prop29
280
     1
102
RTVSPost2010PropOp29
 70
     1
102
RTVSPost2010Prop30
280
     1
102
RTVSPost2010PropOp30
 70
     1
102
RTVSPost2010Prop31
280
     0
102
RTVSPost2010PropOp31
 70
     1
102
RTVSPost2010Prop32
280
     0
102
RTVSPost2010PropOp32
 70
     1
102
RTVSPost2010Prop33
280
     0
102
RTVSPost2010PropOp33
 70
     1
102
RTVSPost2010Prop34
280
     0
102
RTVSPost2010PropOp34
 70
     1
102
RTVSPost2010Prop35
280
     0
102
RTVSPost2010PropOp35
 70
     1
102
RTVSPost2010Prop36
280
     0
102
RTVSPost2010PropOp36
 70
     1
102
RTVSPost2010Prop37
 90
       50
102
RTVSPost2010PropOp37
 70
     1
102
RTVSPost2010Prop38
140
0.0
102
RTVSPost2010PropOp38
 70
     1
102
RTVSPost2010Prop39
140
1.0
102
RTVSPost2010PropOp39
 70
     1
102
RTVSPost2010Prop40
 90
        0
102
RTVSPost2010PropOp40
 70
     1
102
RTVSPost2010Prop41ColorIndex
 90
       18
102
RTVSPost2010Prop41ColorRGB
 90
        0
102
RTVSPost2010PropOp41
 70
     1
102
RTVSPost2010Prop42
 90
       50
102
RTVSPost2010PropOp42
 70
     1
102
RTVSPost2010Prop43
 90
        3
102
RTVSPost2010PropOp43
 70
     1
102
RTVSPost2010Prop44ColorIndex
 90
        5
102
RTVSPost2010Prop44ColorRGB
 90
      255
102
RTVSPost2010PropOp44
 70
     1
102
RTVSPost2010Prop45
280
     0
102
RTVSPost2010PropOp45
 70
     1
102
RTVSPost2010Prop46
 90
       50
102
RTVSPost2010PropOp46
 70
     1
102
RTVSPost2010Prop47
 90
       50
102
RTVSPost2010PropOp47
 70
     1
102
RTVSPost2010Prop48
 90
       50
102
RTVSPost2010PropOp48
 70
     1
102
RTVSPost2010Prop49
280
     0
102
RTVSPost2010PropOp49
 70
     1
102
RTVSPost2010Prop50
 90
       50
102
RTVSPost2010PropOp50
 70
     1
102
RTVSPost2010Prop51ColorIndex
 90
      256
102
RTVSPost2010Prop51ColorRGB
 90
-16777216
102
RTVSPost2010PropOp51
 70
     0
102
RTVSPost2010Prop52
140
1.0
102
RTVSPost2010PropOp52
 70
     0
102
RTVSPost2010Prop53
 90
        2
102
RTVSPost2010PropOp53
 70
     1
102
RTVSPost2010Prop54
  1
strokes_ogs.tif
102
RTVSPost2010PropOp54
 70
     1
102
RTVSPost2010Prop55
280
     0
102
RTVSPost2010PropOp55
 70
     1
102
RTVSPost2010Prop56
140
1.0
102
RTVSPost2010PropOp56
 70
     1
102
RTVSPost2010Prop57
140
1.0
102
RTVSPost2010PropOp57
 70
     1
102
RTVSPropertyOp0
 70
     0
102
RTVSPropertyOp1
 70
     0
102
RTVSPropertyOp2
 70
     0
102
RTVSPropertyOp3
 70
     0
102
RTVSPropertyOp4
 70
     0
102
RTVSPropertyOp5
 70
     0
102
RTVSPropertyOp6
 70
     0
102
RTVSPropertyOp7
 70
     0
102
RTVSPropertyOp8
 70
     0
102
RTVSPropertyOp9
 70
     0
102
RTVSPropertyOp10
 70
     0
102
RTVSPropertyOp11
 70
     0
102
RTVSPropertyOp12
 70
     0
102
RTVSPropertyOp13
 70
     0
102
RTVSPropertyOp14
 70
     2
102
RTVSPropertyOp15
 70
     0
102
RTVSPropertyOp16
 70
     0
102
RTVSPropertyOp17
 70
     0
102
RTVSPropertyOp18
 70
     0
102
RTVSPropertyOp19
 70
     0
102
RTVSPropertyOp20
 70
     0
102
RTVSPropertyOp21
 70
     0
102
RTVSPropertyOp22
 70
     0
102
RTVSPropertyOp23
 70
     0
102
RTVSPropertyOp24
 70
     0
102
RTVSPropertyOp25
 70
     0
102
RTVSPropertyOp26
 70
     0
102
RTVSPropertyOp27
 70
     0
102
RTVSPropertyOp28
 70
     1
102
RTVSPropertyOp29
 70
     1
102
RTVSPropertyOp30
 70
     1
102
RTVSPropertyOp31
 70
     1
102
RTVSPropertyOp32
 70
     1
102
RTVSPropertyOp33
 70
     1
102
RTVSPropertyOp34
 70
     1
102
RTVSPropertyOp35
 70
     1
102
RTVSPropertyOp36
 70
     1
102
RTVSPropertyOp37
 70
     1
102
RTVSPropertyOp38
 70
     1
102
RTVSPropertyOp39
 70
     1
102
RTVSPropertyOp40
 70
     1
102
RTVSPropertyOp41
 70
     1
102
RTVSPropertyOp42
 70
     1
102
RTVSPropertyOp43
 70
     1
102
RTVSPropertyOp44
 70
     1
102
RTVSPropertyOp45
 70
     1
102
RTVSPropertyOp46
 70
     1
102
RTVSPropertyOp47
 70
     1
102
RTVSPropertyOp48
 70
     1
102
RTVSPropertyOp49
 70
     1
102
RTVSPropertyOp50
 70
     1
102
RTVSPropertyOp51
 70
     0
102
RTVSPropertyOp52
 70
     0
102
RTVSPropertyOp53
 70
     1
102
RTVSPropertyOp54
 70
     1
102
RTVSPropertyOp55
 70
     1
102
RTVSPropertyOp56
 70
     1
102
RTVSPropertyOp57
 70
     1
102
RTVSPropertyOp58
 70
     1
102
RTVSPropertyOp59
 70
     1
102
RTVSPropertyOp60
 70
     1
102
RTVSPropertyOp61
 70
     1
102
RTVSPropertyOp62
 70
     1
  0
XRECORD
  5
24CED
102
{ACAD_REACTORS
330
24CEC
102
}
330
24CEC
100
AcDbXrecord
280
     1
102
RTVSPost2010Prop28
280
     0
102
RTVSPost2010PropOp28
 70
     1
102
RTVSPost2010Prop29
280
     1
102
RTVSPost2010PropOp29
 70
     1
102
RTVSPost2010Prop30
280
     1
102
RTVSPost2010PropOp30
 70
     1
102
RTVSPost2010Prop31
280
     0
102
RTVSPost2010PropOp31
 70
     1
102
RTVSPost2010Prop32
280
     0
102
RTVSPost2010PropOp32
 70
     1
102
RTVSPost2010Prop33
280
     0
102
RTVSPost2010PropOp33
 70
     1
102
RTVSPost2010Prop34
280
     0
102
RTVSPost2010PropOp34
 70
     1
102
RTVSPost2010Prop35
280
     0
102
RTVSPost2010PropOp35
 70
     1
102
RTVSPost2010Prop36
280
     0
102
RTVSPost2010PropOp36
 70
     1
102
RTVSPost2010Prop37
 90
       50
102
RTVSPost2010PropOp37
 70
     1
102
RTVSPost2010Prop38
140
0.0
102
RTVSPost2010PropOp38
 70
     1
102
RTVSPost2010Prop39
140
1.0
102
RTVSPost2010PropOp39
 70
     1
102
RTVSPost2010Prop40
 90
        0
102
RTVSPost2010PropOp40
 70
     1
102
RTVSPost2010Prop41ColorIndex
 90
       18
102
RTVSPost2010Prop41ColorRGB
 90
        0
102
RTVSPost2010PropOp41
 70
     1
102
RTVSPost2010Prop42
 90
       50
102
RTVSPost2010PropOp42
 70
     1
102
RTVSPost2010Prop43
 90
        3
102
RTVSPost2010PropOp43
 70
     1
102
RTVSPost2010Prop44ColorIndex
 90
        5
102
RTVSPost2010Prop44ColorRGB
 90
      255
102
RTVSPost2010PropOp44
 70
     1
102
RTVSPost2010Prop45
280
     0
102
RTVSPost2010PropOp45
 70
     1
102
RTVSPost2010Prop46
 90
       50
102
RTVSPost2010PropOp46
 70
     1
102
RTVSPost2010Prop47
 90
       50
102
RTVSPost2010PropOp47
 70
     1
102
RTVSPost2010Prop48
 90
       50
102
RTVSPost2010PropOp48
 70
     1
102
RTVSPost2010Prop49
280
     0
102
RTVSPost2010PropOp49
 70
     1
102
RTVSPost2010Prop50
 90
       50
102
RTVSPost2010PropOp50
 70
     1
102
RTVSPost2010Prop51ColorIndex
 90
      256
102
RTVSPost2010Prop51ColorRGB
 90
-16777216
102
RTVSPost2010PropOp51
 70
     0
102
RTVSPost2010Prop52
140
1.0
102
RTVSPost2010PropOp52
 70
     0
102
RTVSPost2010Prop53
 90
        2
102
RTVSPost2010PropOp53
 70
     1
102
RTVSPost2010Prop54
  1
strokes_ogs.tif
102
RTVSPost2010PropOp54
 70
     1
102
RTVSPost2010Prop55
280
     0
102
RTVSPost2010PropOp55
 70
     1
102
RTVSPost2010Prop56
140
1.0
102
RTVSPost2010PropOp56
 70
     1
102
RTVSPost2010Prop57
140
1.0
102
RTVSPost2010PropOp57
 70
     1
102
RTVSPropertyOp0
 70
     1
102
RTVSPropertyOp1
 70
     1
102
RTVSPropertyOp2
 70
     1
102
RTVSPropertyOp3
 70
     1
102
RTVSPropertyOp4
 70
     1
102
RTVSPropertyOp5
 70
     1
102
RTVSPropertyOp6
 70
     1
102
RTVSPropertyOp7
 70
     1
102
RTVSPropertyOp8
 70
     1
102
RTVSPropertyOp9
 70
     1
102
RTVSPropertyOp10
 70
     1
102
RTVSPropertyOp11
 70
     1
102
RTVSPropertyOp12
 70
     1
102
RTVSPropertyOp13
 70
     1
102
RTVSPropertyOp14
 70
     1
102
RTVSPropertyOp15
 70
     1
102
RTVSPropertyOp16
 70
     1
102
RTVSPropertyOp17
 70
     1
102
RTVSPropertyOp18
 70
     1
102
RTVSPropertyOp19
 70
     1
102
RTVSPropertyOp20
 70
     1
102
RTVSPropertyOp21
 70
     1
102
RTVSPropertyOp22
 70
     1
102
RTVSPropertyOp23
 70
     1
102
RTVSPropertyOp24
 70
     1
102
RTVSPropertyOp25
 70
     1
102
RTVSPropertyOp26
 70
     1
102
RTVSPropertyOp27
 70
     1
102
RTVSPropertyOp28
 70
     1
102
RTVSPropertyOp29
 70
     1
102
RTVSPropertyOp30
 70
     1
102
RTVSPropertyOp31
 70
     1
102
RTVSPropertyOp32
 70
     1
102
RTVSPropertyOp33
 70
     1
102
RTVSPropertyOp34
 70
     1
102
RTVSPropertyOp35
 70
     1
102
RTVSPropertyOp36
 70
     1
102
RTVSPropertyOp37
 70
     1
102
RTVSPropertyOp38
 70
     1
102
RTVSPropertyOp39
 70
     1
102
RTVSPropertyOp40
 70
     1
102
RTVSPropertyOp41
 70
     1
102
RTVSPropertyOp42
 70
     1
102
RTVSPropertyOp43
 70
     1
102
RTVSPropertyOp44
 70
     1
102
RTVSPropertyOp45
 70
     1
102
RTVSPropertyOp46
 70
     1
102
RTVSPropertyOp47
 70
     1
102
RTVSPropertyOp48
 70
     1
102
RTVSPropertyOp49
 70
     1
102
RTVSPropertyOp50
 70
     1
102
RTVSPropertyOp51
 70
     0
102
RTVSPropertyOp52
 70
     0
102
RTVSPropertyOp53
 70
     1
102
RTVSPropertyOp54
 70
     1
102
RTVSPropertyOp55
 70
     1
102
RTVSPropertyOp56
 70
     1
102
RTVSPropertyOp57
 70
     1
102
RTVSPropertyOp58
 70
     1
102
RTVSPropertyOp59
 70
     1
102
RTVSPropertyOp60
 70
     1
102
RTVSPropertyOp61
 70
     1
102
RTVSPropertyOp62
 70
     1
  0
XRECORD
  5
24CD1
102
{ACAD_REACTORS
330
24CD0
102
}
330
24CD0
100
AcDbXrecord
280
     1
102
RTVSPost2010Prop28
280
     0
102
RTVSPost2010PropOp28
 70
     1
102
RTVSPost2010Prop29
280
     1
102
RTVSPost2010PropOp29
 70
     1
102
RTVSPost2010Prop30
280
     1
102
RTVSPost2010PropOp30
 70
     1
102
RTVSPost2010Prop31
280
     0
102
RTVSPost2010PropOp31
 70
     1
102
RTVSPost2010Prop32
280
     0
102
RTVSPost2010PropOp32
 70
     1
102
RTVSPost2010Prop33
280
     0
102
RTVSPost2010PropOp33
 70
     1
102
RTVSPost2010Prop34
280
     0
102
RTVSPost2010PropOp34
 70
     1
102
RTVSPost2010Prop35
280
     0
102
RTVSPost2010PropOp35
 70
     1
102
RTVSPost2010Prop36
280
     0
102
RTVSPost2010PropOp36
 70
     1
102
RTVSPost2010Prop37
 90
       50
102
RTVSPost2010PropOp37
 70
     1
102
RTVSPost2010Prop38
140
0.0
102
RTVSPost2010PropOp38
 70
     1
102
RTVSPost2010Prop39
140
1.0
102
RTVSPost2010PropOp39
 70
     1
102
RTVSPost2010Prop40
 90
        0
102
RTVSPost2010PropOp40
 70
     1
102
RTVSPost2010Prop41ColorIndex
 90
       18
102
RTVSPost2010Prop41ColorRGB
 90
        0
102
RTVSPost2010PropOp41
 70
     1
102
RTVSPost2010Prop42
 90
       50
102
RTVSPost2010PropOp42
 70
     1
102
RTVSPost2010Prop43
 90
        3
102
RTVSPost2010PropOp43
 70
     1
102
RTVSPost2010Prop44ColorIndex
 90
        5
102
RTVSPost2010Prop44ColorRGB
 90
      255
102
RTVSPost2010PropOp44
 70
     1
102
RTVSPost2010Prop45
280
     0
102
RTVSPost2010PropOp45
 70
     1
102
RTVSPost2010Prop46
 90
       50
102
RTVSPost2010PropOp46
 70
     1
102
RTVSPost2010Prop47
 90
       50
102
RTVSPost2010PropOp47
 70
     1
102
RTVSPost2010Prop48
 90
       50
102
RTVSPost2010PropOp48
 70
     1
102
RTVSPost2010Prop49
280
     0
102
RTVSPost2010PropOp49
 70
     1
102
RTVSPost2010Prop50
 90
       50
102
RTVSPost2010PropOp50
 70
     1
102
RTVSPost2010Prop51ColorIndex
 90
      256
102
RTVSPost2010Prop51ColorRGB
 90
-16777216
102
RTVSPost2010PropOp51
 70
     0
102
RTVSPost2010Prop52
140
1.0
102
RTVSPost2010PropOp52
 70
     0
102
RTVSPost2010Prop53
 90
        2
102
RTVSPost2010PropOp53
 70
     1
102
RTVSPost2010Prop54
  1
strokes_ogs.tif
102
RTVSPost2010PropOp54
 70
     1
102
RTVSPost2010Prop55
280
     0
102
RTVSPost2010PropOp55
 70
     1
102
RTVSPost2010Prop56
140
1.0
102
RTVSPost2010PropOp56
 70
     1
102
RTVSPost2010Prop57
140
1.0
102
RTVSPost2010PropOp57
 70
     1
102
RTVSPropertyOp0
 70
     1
102
RTVSPropertyOp1
 70
     1
102
RTVSPropertyOp2
 70
     1
102
RTVSPropertyOp3
 70
     1
102
RTVSPropertyOp4
 70
     1
102
RTVSPropertyOp5
 70
     1
102
RTVSPropertyOp6
 70
     1
102
RTVSPropertyOp7
 70
     1
102
RTVSPropertyOp8
 70
     1
102
RTVSPropertyOp9
 70
     1
102
RTVSPropertyOp10
 70
     1
102
RTVSPropertyOp11
 70
     1
102
RTVSPropertyOp12
 70
     1
102
RTVSPropertyOp13
 70
     1
102
RTVSPropertyOp14
 70
     1
102
RTVSPropertyOp15
 70
     1
102
RTVSPropertyOp16
 70
     1
102
RTVSPropertyOp17
 70
     1
102
RTVSPropertyOp18
 70
     1
102
RTVSPropertyOp19
 70
     1
102
RTVSPropertyOp20
 70
     1
102
RTVSPropertyOp21
 70
     1
102
RTVSPropertyOp22
 70
     1
102
RTVSPropertyOp23
 70
     1
102
RTVSPropertyOp24
 70
     1
102
RTVSPropertyOp25
 70
     1
102
RTVSPropertyOp26
 70
     1
102
RTVSPropertyOp27
 70
     1
102
RTVSPropertyOp28
 70
     1
102
RTVSPropertyOp29
 70
     1
102
RTVSPropertyOp30
 70
     1
102
RTVSPropertyOp31
 70
     1
102
RTVSPropertyOp32
 70
     1
102
RTVSPropertyOp33
 70
     1
102
RTVSPropertyOp34
 70
     1
102
RTVSPropertyOp35
 70
     1
102
RTVSPropertyOp36
 70
     1
102
RTVSPropertyOp37
 70
     1
102
RTVSPropertyOp38
 70
     1
102
RTVSPropertyOp39
 70
     1
102
RTVSPropertyOp40
 70
     1
102
RTVSPropertyOp41
 70
     1
102
RTVSPropertyOp42
 70
     1
102
RTVSPropertyOp43
 70
     1
102
RTVSPropertyOp44
 70
     1
102
RTVSPropertyOp45
 70
     1
102
RTVSPropertyOp46
 70
     1
102
RTVSPropertyOp47
 70
     1
102
RTVSPropertyOp48
 70
     1
102
RTVSPropertyOp49
 70
     1
102
RTVSPropertyOp50
 70
     1
102
RTVSPropertyOp51
 70
     0
102
RTVSPropertyOp52
 70
     0
102
RTVSPropertyOp53
 70
     1
102
RTVSPropertyOp54
 70
     1
102
RTVSPropertyOp55
 70
     1
102
RTVSPropertyOp56
 70
     1
102
RTVSPropertyOp57
 70
     1
102
RTVSPropertyOp58
 70
     1
102
RTVSPropertyOp59
 70
     1
102
RTVSPropertyOp60
 70
     1
102
RTVSPropertyOp61
 70
     1
102
RTVSPropertyOp62
 70
     1
  0
XRECORD
  5
24CD3
102
{ACAD_REACTORS
330
24CD2
102
}
330
24CD2
100
AcDbXrecord
280
     1
102
RTVSPost2010Prop28
280
     0
102
RTVSPost2010PropOp28
 70
     1
102
RTVSPost2010Prop29
280
     1
102
RTVSPost2010PropOp29
 70
     1
102
RTVSPost2010Prop30
280
     1
102
RTVSPost2010PropOp30
 70
     1
102
RTVSPost2010Prop31
280
     0
102
RTVSPost2010PropOp31
 70
     1
102
RTVSPost2010Prop32
280
     0
102
RTVSPost2010PropOp32
 70
     1
102
RTVSPost2010Prop33
280
     0
102
RTVSPost2010PropOp33
 70
     1
102
RTVSPost2010Prop34
280
     0
102
RTVSPost2010PropOp34
 70
     1
102
RTVSPost2010Prop35
280
     0
102
RTVSPost2010PropOp35
 70
     1
102
RTVSPost2010Prop36
280
     0
102
RTVSPost2010PropOp36
 70
     1
102
RTVSPost2010Prop37
 90
       50
102
RTVSPost2010PropOp37
 70
     1
102
RTVSPost2010Prop38
140
0.0
102
RTVSPost2010PropOp38
 70
     1
102
RTVSPost2010Prop39
140
1.0
102
RTVSPost2010PropOp39
 70
     1
102
RTVSPost2010Prop40
 90
        0
102
RTVSPost2010PropOp40
 70
     1
102
RTVSPost2010Prop41ColorIndex
 90
       18
102
RTVSPost2010Prop41ColorRGB
 90
        0
102
RTVSPost2010PropOp41
 70
     1
102
RTVSPost2010Prop42
 90
       50
102
RTVSPost2010PropOp42
 70
     1
102
RTVSPost2010Prop43
 90
        3
102
RTVSPost2010PropOp43
 70
     1
102
RTVSPost2010Prop44ColorIndex
 90
        5
102
RTVSPost2010Prop44ColorRGB
 90
      255
102
RTVSPost2010PropOp44
 70
     1
102
RTVSPost2010Prop45
280
     0
102
RTVSPost2010PropOp45
 70
     1
102
RTVSPost2010Prop46
 90
       50
102
RTVSPost2010PropOp46
 70
     1
102
RTVSPost2010Prop47
 90
       50
102
RTVSPost2010PropOp47
 70
     1
102
RTVSPost2010Prop48
 90
       50
102
RTVSPost2010PropOp48
 70
     1
102
RTVSPost2010Prop49
280
     0
102
RTVSPost2010PropOp49
 70
     1
102
RTVSPost2010Prop50
 90
       50
102
RTVSPost2010PropOp50
 70
     1
102
RTVSPost2010Prop51ColorIndex
 90
      256
102
RTVSPost2010Prop51ColorRGB
 90
-16777216
102
RTVSPost2010PropOp51
 70
     0
102
RTVSPost2010Prop52
140
1.0
102
RTVSPost2010PropOp52
 70
     0
102
RTVSPost2010Prop53
 90
        2
102
RTVSPost2010PropOp53
 70
     1
102
RTVSPost2010Prop54
  1
strokes_ogs.tif
102
RTVSPost2010PropOp54
 70
     1
102
RTVSPost2010Prop55
280
     0
102
RTVSPost2010PropOp55
 70
     1
102
RTVSPost2010Prop56
140
1.0
102
RTVSPost2010PropOp56
 70
     1
102
RTVSPost2010Prop57
140
1.0
102
RTVSPost2010PropOp57
 70
     1
102
RTVSPropertyOp0
 70
     1
102
RTVSPropertyOp1
 70
     1
102
RTVSPropertyOp2
 70
     1
102
RTVSPropertyOp3
 70
     1
102
RTVSPropertyOp4
 70
     1
102
RTVSPropertyOp5
 70
     1
102
RTVSPropertyOp6
 70
     1
102
RTVSPropertyOp7
 70
     1
102
RTVSPropertyOp8
 70
     1
102
RTVSPropertyOp9
 70
     1
102
RTVSPropertyOp10
 70
     1
102
RTVSPropertyOp11
 70
     1
102
RTVSPropertyOp12
 70
     1
102
RTVSPropertyOp13
 70
     1
102
RTVSPropertyOp14
 70
     1
102
RTVSPropertyOp15
 70
     1
102
RTVSPropertyOp16
 70
     1
102
RTVSPropertyOp17
 70
     1
102
RTVSPropertyOp18
 70
     1
102
RTVSPropertyOp19
 70
     1
102
RTVSPropertyOp20
 70
     1
102
RTVSPropertyOp21
 70
     1
102
RTVSPropertyOp22
 70
     1
102
RTVSPropertyOp23
 70
     1
102
RTVSPropertyOp24
 70
     1
102
RTVSPropertyOp25
 70
     1
102
RTVSPropertyOp26
 70
     1
102
RTVSPropertyOp27
 70
     1
102
RTVSPropertyOp28
 70
     1
102
RTVSPropertyOp29
 70
     1
102
RTVSPropertyOp30
 70
     1
102
RTVSPropertyOp31
 70
     1
102
RTVSPropertyOp32
 70
     1
102
RTVSPropertyOp33
 70
     1
102
RTVSPropertyOp34
 70
     1
102
RTVSPropertyOp35
 70
     1
102
RTVSPropertyOp36
 70
     1
102
RTVSPropertyOp37
 70
     1
102
RTVSPropertyOp38
 70
     1
102
RTVSPropertyOp39
 70
     1
102
RTVSPropertyOp40
 70
     1
102
RTVSPropertyOp41
 70
     1
102
RTVSPropertyOp42
 70
     1
102
RTVSPropertyOp43
 70
     1
102
RTVSPropertyOp44
 70
     1
102
RTVSPropertyOp45
 70
     1
102
RTVSPropertyOp46
 70
     1
102
RTVSPropertyOp47
 70
     1
102
RTVSPropertyOp48
 70
     1
102
RTVSPropertyOp49
 70
     1
102
RTVSPropertyOp50
 70
     1
102
RTVSPropertyOp51
 70
     0
102
RTVSPropertyOp52
 70
     0
102
RTVSPropertyOp53
 70
     1
102
RTVSPropertyOp54
 70
     1
102
RTVSPropertyOp55
 70
     1
102
RTVSPropertyOp56
 70
     1
102
RTVSPropertyOp57
 70
     1
102
RTVSPropertyOp58
 70
     1
102
RTVSPropertyOp59
 70
     1
102
RTVSPropertyOp60
 70
     1
102
RTVSPropertyOp61
 70
     1
102
RTVSPropertyOp62
 70
     1
  0
XRECORD
  5
24CD5
102
{ACAD_REACTORS
330
24CD4
102
}
330
24CD4
100
AcDbXrecord
280
     1
102
RTVSPost2010Prop28
280
     0
102
RTVSPost2010PropOp28
 70
     1
102
RTVSPost2010Prop29
280
     1
102
RTVSPost2010PropOp29
 70
     1
102
RTVSPost2010Prop30
280
     1
102
RTVSPost2010PropOp30
 70
     1
102
RTVSPost2010Prop31
280
     0
102
RTVSPost2010PropOp31
 70
     1
102
RTVSPost2010Prop32
280
     0
102
RTVSPost2010PropOp32
 70
     1
102
RTVSPost2010Prop33
280
     0
102
RTVSPost2010PropOp33
 70
     1
102
RTVSPost2010Prop34
280
     0
102
RTVSPost2010PropOp34
 70
     1
102
RTVSPost2010Prop35
280
     0
102
RTVSPost2010PropOp35
 70
     1
102
RTVSPost2010Prop36
280
     0
102
RTVSPost2010PropOp36
 70
     1
102
RTVSPost2010Prop37
 90
       50
102
RTVSPost2010PropOp37
 70
     1
102
RTVSPost2010Prop38
140
0.0
102
RTVSPost2010PropOp38
 70
     1
102
RTVSPost2010Prop39
140
1.0
102
RTVSPost2010PropOp39
 70
     1
102
RTVSPost2010Prop40
 90
        0
102
RTVSPost2010PropOp40
 70
     1
102
RTVSPost2010Prop41ColorIndex
 90
       18
102
RTVSPost2010Prop41ColorRGB
 90
        0
102
RTVSPost2010PropOp41
 70
     1
102
RTVSPost2010Prop42
 90
       50
102
RTVSPost2010PropOp42
 70
     1
102
RTVSPost2010Prop43
 90
        3
102
RTVSPost2010PropOp43
 70
     1
102
RTVSPost2010Prop44ColorIndex
 90
        5
102
RTVSPost2010Prop44ColorRGB
 90
      255
102
RTVSPost2010PropOp44
 70
     1
102
RTVSPost2010Prop45
280
     0
102
RTVSPost2010PropOp45
 70
     1
102
RTVSPost2010Prop46
 90
       50
102
RTVSPost2010PropOp46
 70
     1
102
RTVSPost2010Prop47
 90
       50
102
RTVSPost2010PropOp47
 70
     1
102
RTVSPost2010Prop48
 90
       50
102
RTVSPost2010PropOp48
 70
     1
102
RTVSPost2010Prop49
280
     0
102
RTVSPost2010PropOp49
 70
     1
102
RTVSPost2010Prop50
 90
       50
102
RTVSPost2010PropOp50
 70
     1
102
RTVSPost2010Prop51ColorIndex
 90
      256
102
RTVSPost2010Prop51ColorRGB
 90
-16777216
102
RTVSPost2010PropOp51
 70
     0
102
RTVSPost2010Prop52
140
1.0
102
RTVSPost2010PropOp52
 70
     0
102
RTVSPost2010Prop53
 90
        2
102
RTVSPost2010PropOp53
 70
     1
102
RTVSPost2010Prop54
  1
strokes_ogs.tif
102
RTVSPost2010PropOp54
 70
     1
102
RTVSPost2010Prop55
280
     0
102
RTVSPost2010PropOp55
 70
     1
102
RTVSPost2010Prop56
140
1.0
102
RTVSPost2010PropOp56
 70
     1
102
RTVSPost2010Prop57
140
1.0
102
RTVSPost2010PropOp57
 70
     1
102
RTVSPropertyOp0
 70
     1
102
RTVSPropertyOp1
 70
     1
102
RTVSPropertyOp2
 70
     1
102
RTVSPropertyOp3
 70
     1
102
RTVSPropertyOp4
 70
     1
102
RTVSPropertyOp5
 70
     1
102
RTVSPropertyOp6
 70
     1
102
RTVSPropertyOp7
 70
     1
102
RTVSPropertyOp8
 70
     1
102
RTVSPropertyOp9
 70
     1
102
RTVSPropertyOp10
 70
     1
102
RTVSPropertyOp11
 70
     1
102
RTVSPropertyOp12
 70
     1
102
RTVSPropertyOp13
 70
     1
102
RTVSPropertyOp14
 70
     1
102
RTVSPropertyOp15
 70
     1
102
RTVSPropertyOp16
 70
     1
102
RTVSPropertyOp17
 70
     1
102
RTVSPropertyOp18
 70
     1
102
RTVSPropertyOp19
 70
     1
102
RTVSPropertyOp20
 70
     1
102
RTVSPropertyOp21
 70
     1
102
RTVSPropertyOp22
 70
     1
102
RTVSPropertyOp23
 70
     1
102
RTVSPropertyOp24
 70
     1
102
RTVSPropertyOp25
 70
     1
102
RTVSPropertyOp26
 70
     1
102
RTVSPropertyOp27
 70
     1
102
RTVSPropertyOp28
 70
     1
102
RTVSPropertyOp29
 70
     1
102
RTVSPropertyOp30
 70
     1
102
RTVSPropertyOp31
 70
     1
102
RTVSPropertyOp32
 70
     1
102
RTVSPropertyOp33
 70
     1
102
RTVSPropertyOp34
 70
     1
102
RTVSPropertyOp35
 70
     1
102
RTVSPropertyOp36
 70
     1
102
RTVSPropertyOp37
 70
     1
102
RTVSPropertyOp38
 70
     1
102
RTVSPropertyOp39
 70
     1
102
RTVSPropertyOp40
 70
     1
102
RTVSPropertyOp41
 70
     1
102
RTVSPropertyOp42
 70
     1
102
RTVSPropertyOp43
 70
     1
102
RTVSPropertyOp44
 70
     1
102
RTVSPropertyOp45
 70
     1
102
RTVSPropertyOp46
 70
     1
102
RTVSPropertyOp47
 70
     1
102
RTVSPropertyOp48
 70
     1
102
RTVSPropertyOp49
 70
     1
102
RTVSPropertyOp50
 70
     1
102
RTVSPropertyOp51
 70
     0
102
RTVSPropertyOp52
 70
     0
102
RTVSPropertyOp53
 70
     1
102
RTVSPropertyOp54
 70
     1
102
RTVSPropertyOp55
 70
     1
102
RTVSPropertyOp56
 70
     1
102
RTVSPropertyOp57
 70
     1
102
RTVSPropertyOp58
 70
     1
102
RTVSPropertyOp59
 70
     1
102
RTVSPropertyOp60
 70
     1
102
RTVSPropertyOp61
 70
     1
102
RTVSPropertyOp62
 70
     1
  0
XRECORD
  5
24CD7
102
{ACAD_REACTORS
330
24CD6
102
}
330
24CD6
100
AcDbXrecord
280
     1
102
RTVSPost2010Prop28
280
     0
102
RTVSPost2010PropOp28
 70
     1
102
RTVSPost2010Prop29
280
     1
102
RTVSPost2010PropOp29
 70
     1
102
RTVSPost2010Prop30
280
     1
102
RTVSPost2010PropOp30
 70
     1
102
RTVSPost2010Prop31
280
     0
102
RTVSPost2010PropOp31
 70
     1
102
RTVSPost2010Prop32
280
     0
102
RTVSPost2010PropOp32
 70
     1
102
RTVSPost2010Prop33
280
     0
102
RTVSPost2010PropOp33
 70
     1
102
RTVSPost2010Prop34
280
     0
102
RTVSPost2010PropOp34
 70
     1
102
RTVSPost2010Prop35
280
     0
102
RTVSPost2010PropOp35
 70
     1
102
RTVSPost2010Prop36
280
     0
102
RTVSPost2010PropOp36
 70
     1
102
RTVSPost2010Prop37
 90
       50
102
RTVSPost2010PropOp37
 70
     1
102
RTVSPost2010Prop38
140
0.0
102
RTVSPost2010PropOp38
 70
     1
102
RTVSPost2010Prop39
140
1.0
102
RTVSPost2010PropOp39
 70
     1
102
RTVSPost2010Prop40
 90
        0
102
RTVSPost2010PropOp40
 70
     1
102
RTVSPost2010Prop41ColorIndex
 90
       18
102
RTVSPost2010Prop41ColorRGB
 90
        0
102
RTVSPost2010PropOp41
 70
     1
102
RTVSPost2010Prop42
 90
       50
102
RTVSPost2010PropOp42
 70
     1
102
RTVSPost2010Prop43
 90
        3
102
RTVSPost2010PropOp43
 70
     1
102
RTVSPost2010Prop44ColorIndex
 90
        5
102
RTVSPost2010Prop44ColorRGB
 90
      255
102
RTVSPost2010PropOp44
 70
     1
102
RTVSPost2010Prop45
280
     0
102
RTVSPost2010PropOp45
 70
     1
102
RTVSPost2010Prop46
 90
       50
102
RTVSPost2010PropOp46
 70
     1
102
RTVSPost2010Prop47
 90
       50
102
RTVSPost2010PropOp47
 70
     1
102
RTVSPost2010Prop48
 90
       50
102
RTVSPost2010PropOp48
 70
     1
102
RTVSPost2010Prop49
280
     0
102
RTVSPost2010PropOp49
 70
     1
102
RTVSPost2010Prop50
 90
       50
102
RTVSPost2010PropOp50
 70
     1
102
RTVSPost2010Prop51ColorIndex
 90
      256
102
RTVSPost2010Prop51ColorRGB
 90
-16777216
102
RTVSPost2010PropOp51
 70
     0
102
RTVSPost2010Prop52
140
1.0
102
RTVSPost2010PropOp52
 70
     0
102
RTVSPost2010Prop53
 90
        2
102
RTVSPost2010PropOp53
 70
     1
102
RTVSPost2010Prop54
  1
strokes_ogs.tif
102
RTVSPost2010PropOp54
 70
     1
102
RTVSPost2010Prop55
280
     0
102
RTVSPost2010PropOp55
 70
     1
102
RTVSPost2010Prop56
140
1.0
102
RTVSPost2010PropOp56
 70
     1
102
RTVSPost2010Prop57
140
1.0
102
RTVSPost2010PropOp57
 70
     1
102
RTVSPropertyOp0
 70
     1
102
RTVSPropertyOp1
 70
     1
102
RTVSPropertyOp2
 70
     1
102
RTVSPropertyOp3
 70
     1
102
RTVSPropertyOp4
 70
     1
102
RTVSPropertyOp5
 70
     1
102
RTVSPropertyOp6
 70
     1
102
RTVSPropertyOp7
 70
     1
102
RTVSPropertyOp8
 70
     1
102
RTVSPropertyOp9
 70
     1
102
RTVSPropertyOp10
 70
     1
102
RTVSPropertyOp11
 70
     1
102
RTVSPropertyOp12
 70
     1
102
RTVSPropertyOp13
 70
     1
102
RTVSPropertyOp14
 70
     1
102
RTVSPropertyOp15
 70
     1
102
RTVSPropertyOp16
 70
     1
102
RTVSPropertyOp17
 70
     1
102
RTVSPropertyOp18
 70
     1
102
RTVSPropertyOp19
 70
     1
102
RTVSPropertyOp20
 70
     1
102
RTVSPropertyOp21
 70
     1
102
RTVSPropertyOp22
 70
     1
102
RTVSPropertyOp23
 70
     1
102
RTVSPropertyOp24
 70
     1
102
RTVSPropertyOp25
 70
     1
102
RTVSPropertyOp26
 70
     1
102
RTVSPropertyOp27
 70
     1
102
RTVSPropertyOp28
 70
     1
102
RTVSPropertyOp29
 70
     1
102
RTVSPropertyOp30
 70
     1
102
RTVSPropertyOp31
 70
     1
102
RTVSPropertyOp32
 70
     1
102
RTVSPropertyOp33
 70
     1
102
RTVSPropertyOp34
 70
     1
102
RTVSPropertyOp35
 70
     1
102
RTVSPropertyOp36
 70
     1
102
RTVSPropertyOp37
 70
     1
102
RTVSPropertyOp38
 70
     1
102
RTVSPropertyOp39
 70
     1
102
RTVSPropertyOp40
 70
     1
102
RTVSPropertyOp41
 70
     1
102
RTVSPropertyOp42
 70
     1
102
RTVSPropertyOp43
 70
     1
102
RTVSPropertyOp44
 70
     1
102
RTVSPropertyOp45
 70
     1
102
RTVSPropertyOp46
 70
     1
102
RTVSPropertyOp47
 70
     1
102
RTVSPropertyOp48
 70
     1
102
RTVSPropertyOp49
 70
     1
102
RTVSPropertyOp50
 70
     1
102
RTVSPropertyOp51
 70
     0
102
RTVSPropertyOp52
 70
     0
102
RTVSPropertyOp53
 70
     1
102
RTVSPropertyOp54
 70
     1
102
RTVSPropertyOp55
 70
     1
102
RTVSPropertyOp56
 70
     1
102
RTVSPropertyOp57
 70
     1
102
RTVSPropertyOp58
 70
     1
102
RTVSPropertyOp59
 70
     1
102
RTVSPropertyOp60
 70
     1
102
RTVSPropertyOp61
 70
     1
102
RTVSPropertyOp62
 70
     1
  0
XRECORD
  5
24CFA
102
{ACAD_REACTORS
330
24CF9
102
}
330
24CF9
100
AcDbXrecord
280
     1
102
RTVSPost2010Prop28
280
     0
102
RTVSPost2010PropOp28
 70
     1
102
RTVSPost2010Prop29
280
     1
102
RTVSPost2010PropOp29
 70
     1
102
RTVSPost2010Prop30
280
     1
102
RTVSPost2010PropOp30
 70
     1
102
RTVSPost2010Prop31
280
     0
102
RTVSPost2010PropOp31
 70
     1
102
RTVSPost2010Prop32
280
     0
102
RTVSPost2010PropOp32
 70
     1
102
RTVSPost2010Prop33
280
     0
102
RTVSPost2010PropOp33
 70
     1
102
RTVSPost2010Prop34
280
     0
102
RTVSPost2010PropOp34
 70
     1
102
RTVSPost2010Prop35
280
     0
102
RTVSPost2010PropOp35
 70
     1
102
RTVSPost2010Prop36
280
     0
102
RTVSPost2010PropOp36
 70
     1
102
RTVSPost2010Prop37
 90
       50
102
RTVSPost2010PropOp37
 70
     1
102
RTVSPost2010Prop38
140
0.0
102
RTVSPost2010PropOp38
 70
     1
102
RTVSPost2010Prop39
140
1.0
102
RTVSPost2010PropOp39
 70
     1
102
RTVSPost2010Prop40
 90
        0
102
RTVSPost2010PropOp40
 70
     1
102
RTVSPost2010Prop41ColorIndex
 90
       18
102
RTVSPost2010Prop41ColorRGB
 90
        0
102
RTVSPost2010PropOp41
 70
     1
102
RTVSPost2010Prop42
 90
       50
102
RTVSPost2010PropOp42
 70
     1
102
RTVSPost2010Prop43
 90
        3
102
RTVSPost2010PropOp43
 70
     1
102
RTVSPost2010Prop44ColorIndex
 90
        5
102
RTVSPost2010Prop44ColorRGB
 90
      255
102
RTVSPost2010PropOp44
 70
     1
102
RTVSPost2010Prop45
280
     0
102
RTVSPost2010PropOp45
 70
     1
102
RTVSPost2010Prop46
 90
       50
102
RTVSPost2010PropOp46
 70
     1
102
RTVSPost2010Prop47
 90
       50
102
RTVSPost2010PropOp47
 70
     1
102
RTVSPost2010Prop48
 90
       50
102
RTVSPost2010PropOp48
 70
     1
102
RTVSPost2010Prop49
280
     0
102
RTVSPost2010PropOp49
 70
     1
102
RTVSPost2010Prop50
 90
       50
102
RTVSPost2010PropOp50
 70
     1
102
RTVSPost2010Prop51ColorIndex
 90
      256
102
RTVSPost2010Prop51ColorRGB
 90
-16777216
102
RTVSPost2010PropOp51
 70
     0
102
RTVSPost2010Prop52
140
1.0
102
RTVSPost2010PropOp52
 70
     0
102
RTVSPost2010Prop53
 90
        2
102
RTVSPost2010PropOp53
 70
     1
102
RTVSPost2010Prop54
  1
strokes_ogs.tif
102
RTVSPost2010PropOp54
 70
     1
102
RTVSPost2010Prop55
280
     0
102
RTVSPost2010PropOp55
 70
     1
102
RTVSPost2010Prop56
140
1.0
102
RTVSPost2010PropOp56
 70
     1
102
RTVSPost2010Prop57
140
1.0
102
RTVSPost2010PropOp57
 70
     1
102
RTVSPropertyOp0
 70
     1
102
RTVSPropertyOp1
 70
     1
102
RTVSPropertyOp2
 70
     1
102
RTVSPropertyOp3
 70
     1
102
RTVSPropertyOp4
 70
     1
102
RTVSPropertyOp5
 70
     1
102
RTVSPropertyOp6
 70
     1
102
RTVSPropertyOp7
 70
     1
102
RTVSPropertyOp8
 70
     1
102
RTVSPropertyOp9
 70
     1
102
RTVSPropertyOp10
 70
     1
102
RTVSPropertyOp11
 70
     1
102
RTVSPropertyOp12
 70
     1
102
RTVSPropertyOp13
 70
     1
102
RTVSPropertyOp14
 70
     1
102
RTVSPropertyOp15
 70
     1
102
RTVSPropertyOp16
 70
     1
102
RTVSPropertyOp17
 70
     1
102
RTVSPropertyOp18
 70
     1
102
RTVSPropertyOp19
 70
     1
102
RTVSPropertyOp20
 70
     1
102
RTVSPropertyOp21
 70
     1
102
RTVSPropertyOp22
 70
     1
102
RTVSPropertyOp23
 70
     1
102
RTVSPropertyOp24
 70
     1
102
RTVSPropertyOp25
 70
     1
102
RTVSPropertyOp26
 70
     1
102
RTVSPropertyOp27
 70
     1
102
RTVSPropertyOp28
 70
     1
102
RTVSPropertyOp29
 70
     1
102
RTVSPropertyOp30
 70
     1
102
RTVSPropertyOp31
 70
     1
102
RTVSPropertyOp32
 70
     1
102
RTVSPropertyOp33
 70
     1
102
RTVSPropertyOp34
 70
     1
102
RTVSPropertyOp35
 70
     1
102
RTVSPropertyOp36
 70
     1
102
RTVSPropertyOp37
 70
     1
102
RTVSPropertyOp38
 70
     1
102
RTVSPropertyOp39
 70
     1
102
RTVSPropertyOp40
 70
     1
102
RTVSPropertyOp41
 70
     1
102
RTVSPropertyOp42
 70
     1
102
RTVSPropertyOp43
 70
     1
102
RTVSPropertyOp44
 70
     1
102
RTVSPropertyOp45
 70
     1
102
RTVSPropertyOp46
 70
     1
102
RTVSPropertyOp47
 70
     1
102
RTVSPropertyOp48
 70
     1
102
RTVSPropertyOp49
 70
     1
102
RTVSPropertyOp50
 70
     1
102
RTVSPropertyOp51
 70
     0
102
RTVSPropertyOp52
 70
     0
102
RTVSPropertyOp53
 70
     1
102
RTVSPropertyOp54
 70
     1
102
RTVSPropertyOp55
 70
     1
102
RTVSPropertyOp56
 70
     1
102
RTVSPropertyOp57
 70
     1
102
RTVSPropertyOp58
 70
     1
102
RTVSPropertyOp59
 70
     1
102
RTVSPropertyOp60
 70
     1
102
RTVSPropertyOp61
 70
     1
102
RTVSPropertyOp62
 70
     1
  0
XRECORD
  5
24CF1
102
{ACAD_REACTORS
330
24CF0
102
}
330
24CF0
100
AcDbXrecord
280
     1
102
RTVSPost2010Prop28
280
     0
102
RTVSPost2010PropOp28
 70
     1
102
RTVSPost2010Prop29
280
     1
102
RTVSPost2010PropOp29
 70
     1
102
RTVSPost2010Prop30
280
     1
102
RTVSPost2010PropOp30
 70
     1
102
RTVSPost2010Prop31
280
     0
102
RTVSPost2010PropOp31
 70
     1
102
RTVSPost2010Prop32
280
     0
102
RTVSPost2010PropOp32
 70
     1
102
RTVSPost2010Prop33
280
     0
102
RTVSPost2010PropOp33
 70
     1
102
RTVSPost2010Prop34
280
     0
102
RTVSPost2010PropOp34
 70
     1
102
RTVSPost2010Prop35
280
     0
102
RTVSPost2010PropOp35
 70
     1
102
RTVSPost2010Prop36
280
     0
102
RTVSPost2010PropOp36
 70
     1
102
RTVSPost2010Prop37
 90
       50
102
RTVSPost2010PropOp37
 70
     1
102
RTVSPost2010Prop38
140
0.0
102
RTVSPost2010PropOp38
 70
     1
102
RTVSPost2010Prop39
140
1.0
102
RTVSPost2010PropOp39
 70
     1
102
RTVSPost2010Prop40
 90
        0
102
RTVSPost2010PropOp40
 70
     1
102
RTVSPost2010Prop41ColorIndex
 90
       18
102
RTVSPost2010Prop41ColorRGB
 90
        0
102
RTVSPost2010PropOp41
 70
     1
102
RTVSPost2010Prop42
 90
       50
102
RTVSPost2010PropOp42
 70
     1
102
RTVSPost2010Prop43
 90
        3
102
RTVSPost2010PropOp43
 70
     1
102
RTVSPost2010Prop44ColorIndex
 90
        5
102
RTVSPost2010Prop44ColorRGB
 90
      255
102
RTVSPost2010PropOp44
 70
     1
102
RTVSPost2010Prop45
280
     0
102
RTVSPost2010PropOp45
 70
     1
102
RTVSPost2010Prop46
 90
       50
102
RTVSPost2010PropOp46
 70
     1
102
RTVSPost2010Prop47
 90
       50
102
RTVSPost2010PropOp47
 70
     1
102
RTVSPost2010Prop48
 90
       50
102
RTVSPost2010PropOp48
 70
     1
102
RTVSPost2010Prop49
280
     0
102
RTVSPost2010PropOp49
 70
     1
102
RTVSPost2010Prop50
 90
       50
102
RTVSPost2010PropOp50
 70
     1
102
RTVSPost2010Prop51ColorIndex
 90
      256
102
RTVSPost2010Prop51ColorRGB
 90
-16777216
102
RTVSPost2010PropOp51
 70
     0
102
RTVSPost2010Prop52
140
1.0
102
RTVSPost2010PropOp52
 70
     0
102
RTVSPost2010Prop53
 90
        2
102
RTVSPost2010PropOp53
 70
     1
102
RTVSPost2010Prop54
  1
strokes_ogs.tif
102
RTVSPost2010PropOp54
 70
     1
102
RTVSPost2010Prop55
280
     0
102
RTVSPost2010PropOp55
 70
     1
102
RTVSPost2010Prop56
140
1.0
102
RTVSPost2010PropOp56
 70
     1
102
RTVSPost2010Prop57
140
1.0
102
RTVSPost2010PropOp57
 70
     1
102
RTVSPropertyOp0
 70
     0
102
RTVSPropertyOp1
 70
     0
102
RTVSPropertyOp2
 70
     0
102
RTVSPropertyOp3
 70
     0
102
RTVSPropertyOp4
 70
     0
102
RTVSPropertyOp5
 70
     0
102
RTVSPropertyOp6
 70
     0
102
RTVSPropertyOp7
 70
     0
102
RTVSPropertyOp8
 70
     0
102
RTVSPropertyOp9
 70
     0
102
RTVSPropertyOp10
 70
     0
102
RTVSPropertyOp11
 70
     0
102
RTVSPropertyOp12
 70
     0
102
RTVSPropertyOp13
 70
     0
102
RTVSPropertyOp14
 70
     2
102
RTVSPropertyOp15
 70
     0
102
RTVSPropertyOp16
 70
     0
102
RTVSPropertyOp17
 70
     0
102
RTVSPropertyOp18
 70
     0
102
RTVSPropertyOp19
 70
     0
102
RTVSPropertyOp20
 70
     0
102
RTVSPropertyOp21
 70
     0
102
RTVSPropertyOp22
 70
     0
102
RTVSPropertyOp23
 70
     0
102
RTVSPropertyOp24
 70
     0
102
RTVSPropertyOp25
 70
     0
102
RTVSPropertyOp26
 70
     0
102
RTVSPropertyOp27
 70
     0
102
RTVSPropertyOp28
 70
     1
102
RTVSPropertyOp29
 70
     1
102
RTVSPropertyOp30
 70
     1
102
RTVSPropertyOp31
 70
     1
102
RTVSPropertyOp32
 70
     1
102
RTVSPropertyOp33
 70
     1
102
RTVSPropertyOp34
 70
     1
102
RTVSPropertyOp35
 70
     1
102
RTVSPropertyOp36
 70
     1
102
RTVSPropertyOp37
 70
     1
102
RTVSPropertyOp38
 70
     1
102
RTVSPropertyOp39
 70
     1
102
RTVSPropertyOp40
 70
     1
102
RTVSPropertyOp41
 70
     1
102
RTVSPropertyOp42
 70
     1
102
RTVSPropertyOp43
 70
     1
102
RTVSPropertyOp44
 70
     1
102
RTVSPropertyOp45
 70
     1
102
RTVSPropertyOp46
 70
     1
102
RTVSPropertyOp47
 70
     1
102
RTVSPropertyOp48
 70
     1
102
RTVSPropertyOp49
 70
     1
102
RTVSPropertyOp50
 70
     1
102
RTVSPropertyOp51
 70
     0
102
RTVSPropertyOp52
 70
     0
102
RTVSPropertyOp53
 70
     1
102
RTVSPropertyOp54
 70
     1
102
RTVSPropertyOp55
 70
     1
102
RTVSPropertyOp56
 70
     1
102
RTVSPropertyOp57
 70
     1
102
RTVSPropertyOp58
 70
     1
102
RTVSPropertyOp59
 70
     1
102
RTVSPropertyOp60
 70
     1
102
RTVSPropertyOp61
 70
     1
102
RTVSPropertyOp62
 70
     1
  0
XRECORD
  5
24CEB
102
{ACAD_REACTORS
330
24CEA
102
}
330
24CEA
100
AcDbXrecord
280
     1
102
RTVSPost2010Prop28
280
     0
102
RTVSPost2010PropOp28
 70
     1
102
RTVSPost2010Prop29
280
     1
102
RTVSPost2010PropOp29
 70
     1
102
RTVSPost2010Prop30
280
     1
102
RTVSPost2010PropOp30
 70
     1
102
RTVSPost2010Prop31
280
     0
102
RTVSPost2010PropOp31
 70
     1
102
RTVSPost2010Prop32
280
     0
102
RTVSPost2010PropOp32
 70
     1
102
RTVSPost2010Prop33
280
     0
102
RTVSPost2010PropOp33
 70
     1
102
RTVSPost2010Prop34
280
     0
102
RTVSPost2010PropOp34
 70
     1
102
RTVSPost2010Prop35
280
     0
102
RTVSPost2010PropOp35
 70
     1
102
RTVSPost2010Prop36
280
     0
102
RTVSPost2010PropOp36
 70
     1
102
RTVSPost2010Prop37
 90
       50
102
RTVSPost2010PropOp37
 70
     1
102
RTVSPost2010Prop38
140
0.0
102
RTVSPost2010PropOp38
 70
     1
102
RTVSPost2010Prop39
140
1.0
102
RTVSPost2010PropOp39
 70
     1
102
RTVSPost2010Prop40
 90
        0
102
RTVSPost2010PropOp40
 70
     1
102
RTVSPost2010Prop41ColorIndex
 90
       18
102
RTVSPost2010Prop41ColorRGB
 90
        0
102
RTVSPost2010PropOp41
 70
     1
102
RTVSPost2010Prop42
 90
       50
102
RTVSPost2010PropOp42
 70
     1
102
RTVSPost2010Prop43
 90
        3
102
RTVSPost2010PropOp43
 70
     1
102
RTVSPost2010Prop44ColorIndex
 90
        5
102
RTVSPost2010Prop44ColorRGB
 90
      255
102
RTVSPost2010PropOp44
 70
     1
102
RTVSPost2010Prop45
280
     0
102
RTVSPost2010PropOp45
 70
     1
102
RTVSPost2010Prop46
 90
       50
102
RTVSPost2010PropOp46
 70
     1
102
RTVSPost2010Prop47
 90
       50
102
RTVSPost2010PropOp47
 70
     1
102
RTVSPost2010Prop48
 90
       50
102
RTVSPost2010PropOp48
 70
     1
102
RTVSPost2010Prop49
280
     0
102
RTVSPost2010PropOp49
 70
     1
102
RTVSPost2010Prop50
 90
       50
102
RTVSPost2010PropOp50
 70
     1
102
RTVSPost2010Prop51ColorIndex
 90
      256
102
RTVSPost2010Prop51ColorRGB
 90
-16777216
102
RTVSPost2010PropOp51
 70
     0
102
RTVSPost2010Prop52
140
1.0
102
RTVSPost2010PropOp52
 70
     0
102
RTVSPost2010Prop53
 90
        2
102
RTVSPost2010PropOp53
 70
     1
102
RTVSPost2010Prop54
  1
strokes_ogs.tif
102
RTVSPost2010PropOp54
 70
     1
102
RTVSPost2010Prop55
280
     0
102
RTVSPost2010PropOp55
 70
     1
102
RTVSPost2010Prop56
140
1.0
102
RTVSPost2010PropOp56
 70
     1
102
RTVSPost2010Prop57
140
1.0
102
RTVSPost2010PropOp57
 70
     1
102
RTVSPropertyOp0
 70
     1
102
RTVSPropertyOp1
 70
     1
102
RTVSPropertyOp2
 70
     1
102
RTVSPropertyOp3
 70
     1
102
RTVSPropertyOp4
 70
     1
102
RTVSPropertyOp5
 70
     1
102
RTVSPropertyOp6
 70
     1
102
RTVSPropertyOp7
 70
     1
102
RTVSPropertyOp8
 70
     1
102
RTVSPropertyOp9
 70
     1
102
RTVSPropertyOp10
 70
     1
102
RTVSPropertyOp11
 70
     1
102
RTVSPropertyOp12
 70
     1
102
RTVSPropertyOp13
 70
     1
102
RTVSPropertyOp14
 70
     1
102
RTVSPropertyOp15
 70
     1
102
RTVSPropertyOp16
 70
     1
102
RTVSPropertyOp17
 70
     1
102
RTVSPropertyOp18
 70
     1
102
RTVSPropertyOp19
 70
     1
102
RTVSPropertyOp20
 70
     1
102
RTVSPropertyOp21
 70
     1
102
RTVSPropertyOp22
 70
     1
102
RTVSPropertyOp23
 70
     1
102
RTVSPropertyOp24
 70
     1
102
RTVSPropertyOp25
 70
     1
102
RTVSPropertyOp26
 70
     1
102
RTVSPropertyOp27
 70
     1
102
RTVSPropertyOp28
 70
     1
102
RTVSPropertyOp29
 70
     1
102
RTVSPropertyOp30
 70
     1
102
RTVSPropertyOp31
 70
     1
102
RTVSPropertyOp32
 70
     1
102
RTVSPropertyOp33
 70
     1
102
RTVSPropertyOp34
 70
     1
102
RTVSPropertyOp35
 70
     1
102
RTVSPropertyOp36
 70
     1
102
RTVSPropertyOp37
 70
     1
102
RTVSPropertyOp38
 70
     1
102
RTVSPropertyOp39
 70
     1
102
RTVSPropertyOp40
 70
     1
102
RTVSPropertyOp41
 70
     1
102
RTVSPropertyOp42
 70
     1
102
RTVSPropertyOp43
 70
     1
102
RTVSPropertyOp44
 70
     1
102
RTVSPropertyOp45
 70
     1
102
RTVSPropertyOp46
 70
     1
102
RTVSPropertyOp47
 70
     1
102
RTVSPropertyOp48
 70
     1
102
RTVSPropertyOp49
 70
     1
102
RTVSPropertyOp50
 70
     1
102
RTVSPropertyOp51
 70
     0
102
RTVSPropertyOp52
 70
     0
102
RTVSPropertyOp53
 70
     1
102
RTVSPropertyOp54
 70
     1
102
RTVSPropertyOp55
 70
     1
102
RTVSPropertyOp56
 70
     1
102
RTVSPropertyOp57
 70
     1
102
RTVSPropertyOp58
 70
     1
102
RTVSPropertyOp59
 70
     1
102
RTVSPropertyOp60
 70
     1
102
RTVSPropertyOp61
 70
     1
102
RTVSPropertyOp62
 70
     1
  0
XRECORD
  5
24CF3
102
{ACAD_REACTORS
330
24CF2
102
}
330
24CF2
100
AcDbXrecord
280
     1
102
RTVSPost2010Prop28
280
     0
102
RTVSPost2010PropOp28
 70
     1
102
RTVSPost2010Prop29
280
     1
102
RTVSPost2010PropOp29
 70
     1
102
RTVSPost2010Prop30
280
     1
102
RTVSPost2010PropOp30
 70
     1
102
RTVSPost2010Prop31
280
     0
102
RTVSPost2010PropOp31
 70
     1
102
RTVSPost2010Prop32
280
     0
102
RTVSPost2010PropOp32
 70
     1
102
RTVSPost2010Prop33
280
     0
102
RTVSPost2010PropOp33
 70
     1
102
RTVSPost2010Prop34
280
     0
102
RTVSPost2010PropOp34
 70
     1
102
RTVSPost2010Prop35
280
     0
102
RTVSPost2010PropOp35
 70
     1
102
RTVSPost2010Prop36
280
     0
102
RTVSPost2010PropOp36
 70
     1
102
RTVSPost2010Prop37
 90
       50
102
RTVSPost2010PropOp37
 70
     1
102
RTVSPost2010Prop38
140
0.0
102
RTVSPost2010PropOp38
 70
     1
102
RTVSPost2010Prop39
140
1.0
102
RTVSPost2010PropOp39
 70
     1
102
RTVSPost2010Prop40
 90
        0
102
RTVSPost2010PropOp40
 70
     1
102
RTVSPost2010Prop41ColorIndex
 90
       18
102
RTVSPost2010Prop41ColorRGB
 90
        0
102
RTVSPost2010PropOp41
 70
     1
102
RTVSPost2010Prop42
 90
       50
102
RTVSPost2010PropOp42
 70
     1
102
RTVSPost2010Prop43
 90
        3
102
RTVSPost2010PropOp43
 70
     1
102
RTVSPost2010Prop44ColorIndex
 90
        5
102
RTVSPost2010Prop44ColorRGB
 90
      255
102
RTVSPost2010PropOp44
 70
     1
102
RTVSPost2010Prop45
280
     0
102
RTVSPost2010PropOp45
 70
     1
102
RTVSPost2010Prop46
 90
       50
102
RTVSPost2010PropOp46
 70
     1
102
RTVSPost2010Prop47
 90
       50
102
RTVSPost2010PropOp47
 70
     1
102
RTVSPost2010Prop48
 90
       50
102
RTVSPost2010PropOp48
 70
     1
102
RTVSPost2010Prop49
280
     0
102
RTVSPost2010PropOp49
 70
     1
102
RTVSPost2010Prop50
 90
       50
102
RTVSPost2010PropOp50
 70
     1
102
RTVSPost2010Prop51ColorIndex
 90
      256
102
RTVSPost2010Prop51ColorRGB
 90
-16777216
102
RTVSPost2010PropOp51
 70
     0
102
RTVSPost2010Prop52
140
1.0
102
RTVSPost2010PropOp52
 70
     0
102
RTVSPost2010Prop53
 90
        2
102
RTVSPost2010PropOp53
 70
     1
102
RTVSPost2010Prop54
  1
strokes_ogs.tif
102
RTVSPost2010PropOp54
 70
     1
102
RTVSPost2010Prop55
280
     0
102
RTVSPost2010PropOp55
 70
     1
102
RTVSPost2010Prop56
140
1.0
102
RTVSPost2010PropOp56
 70
     1
102
RTVSPost2010Prop57
140
1.0
102
RTVSPost2010PropOp57
 70
     1
102
RTVSPropertyOp0
 70
     0
102
RTVSPropertyOp1
 70
     0
102
RTVSPropertyOp2
 70
     0
102
RTVSPropertyOp3
 70
     0
102
RTVSPropertyOp4
 70
     0
102
RTVSPropertyOp5
 70
     0
102
RTVSPropertyOp6
 70
     0
102
RTVSPropertyOp7
 70
     0
102
RTVSPropertyOp8
 70
     0
102
RTVSPropertyOp9
 70
     0
102
RTVSPropertyOp10
 70
     0
102
RTVSPropertyOp11
 70
     0
102
RTVSPropertyOp12
 70
     0
102
RTVSPropertyOp13
 70
     0
102
RTVSPropertyOp14
 70
     2
102
RTVSPropertyOp15
 70
     0
102
RTVSPropertyOp16
 70
     0
102
RTVSPropertyOp17
 70
     0
102
RTVSPropertyOp18
 70
     0
102
RTVSPropertyOp19
 70
     0
102
RTVSPropertyOp20
 70
     0
102
RTVSPropertyOp21
 70
     0
102
RTVSPropertyOp22
 70
     0
102
RTVSPropertyOp23
 70
     0
102
RTVSPropertyOp24
 70
     0
102
RTVSPropertyOp25
 70
     0
102
RTVSPropertyOp26
 70
     0
102
RTVSPropertyOp27
 70
     0
102
RTVSPropertyOp28
 70
     1
102
RTVSPropertyOp29
 70
     1
102
RTVSPropertyOp30
 70
     1
102
RTVSPropertyOp31
 70
     1
102
RTVSPropertyOp32
 70
     1
102
RTVSPropertyOp33
 70
     1
102
RTVSPropertyOp34
 70
     1
102
RTVSPropertyOp35
 70
     1
102
RTVSPropertyOp36
 70
     1
102
RTVSPropertyOp37
 70
     1
102
RTVSPropertyOp38
 70
     1
102
RTVSPropertyOp39
 70
     1
102
RTVSPropertyOp40
 70
     1
102
RTVSPropertyOp41
 70
     1
102
RTVSPropertyOp42
 70
     1
102
RTVSPropertyOp43
 70
     1
102
RTVSPropertyOp44
 70
     1
102
RTVSPropertyOp45
 70
     1
102
RTVSPropertyOp46
 70
     1
102
RTVSPropertyOp47
 70
     1
102
RTVSPropertyOp48
 70
     1
102
RTVSPropertyOp49
 70
     1
102
RTVSPropertyOp50
 70
     1
102
RTVSPropertyOp51
 70
     0
102
RTVSPropertyOp52
 70
     0
102
RTVSPropertyOp53
 70
     1
102
RTVSPropertyOp54
 70
     1
102
RTVSPropertyOp55
 70
     1
102
RTVSPropertyOp56
 70
     1
102
RTVSPropertyOp57
 70
     1
102
RTVSPropertyOp58
 70
     1
102
RTVSPropertyOp59
 70
     1
102
RTVSPropertyOp60
 70
     1
102
RTVSPropertyOp61
 70
     1
102
RTVSPropertyOp62
 70
     1
  0
XRECORD
  5
24CE3
102
{ACAD_REACTORS
330
24CE2
102
}
330
24CE2
100
AcDbXrecord
280
     1
102
RTVSPost2010Prop28
280
     0
102
RTVSPost2010PropOp28
 70
     1
102
RTVSPost2010Prop29
280
     1
102
RTVSPost2010PropOp29
 70
     1
102
RTVSPost2010Prop30
280
     1
102
RTVSPost2010PropOp30
 70
     1
102
RTVSPost2010Prop31
280
     0
102
RTVSPost2010PropOp31
 70
     1
102
RTVSPost2010Prop32
280
     0
102
RTVSPost2010PropOp32
 70
     1
102
RTVSPost2010Prop33
280
     0
102
RTVSPost2010PropOp33
 70
     1
102
RTVSPost2010Prop34
280
     0
102
RTVSPost2010PropOp34
 70
     1
102
RTVSPost2010Prop35
280
     0
102
RTVSPost2010PropOp35
 70
     1
102
RTVSPost2010Prop36
280
     0
102
RTVSPost2010PropOp36
 70
     1
102
RTVSPost2010Prop37
 90
       50
102
RTVSPost2010PropOp37
 70
     1
102
RTVSPost2010Prop38
140
0.0
102
RTVSPost2010PropOp38
 70
     1
102
RTVSPost2010Prop39
140
1.0
102
RTVSPost2010PropOp39
 70
     1
102
RTVSPost2010Prop40
 90
        0
102
RTVSPost2010PropOp40
 70
     1
102
RTVSPost2010Prop41ColorIndex
 90
       18
102
RTVSPost2010Prop41ColorRGB
 90
        0
102
RTVSPost2010PropOp41
 70
     1
102
RTVSPost2010Prop42
 90
       50
102
RTVSPost2010PropOp42
 70
     1
102
RTVSPost2010Prop43
 90
        3
102
RTVSPost2010PropOp43
 70
     1
102
RTVSPost2010Prop44ColorIndex
 90
        5
102
RTVSPost2010Prop44ColorRGB
 90
      255
102
RTVSPost2010PropOp44
 70
     1
102
RTVSPost2010Prop45
280
     0
102
RTVSPost2010PropOp45
 70
     1
102
RTVSPost2010Prop46
 90
       50
102
RTVSPost2010PropOp46
 70
     1
102
RTVSPost2010Prop47
 90
       50
102
RTVSPost2010PropOp47
 70
     1
102
RTVSPost2010Prop48
 90
       50
102
RTVSPost2010PropOp48
 70
     1
102
RTVSPost2010Prop49
280
     0
102
RTVSPost2010PropOp49
 70
     1
102
RTVSPost2010Prop50
 90
       50
102
RTVSPost2010PropOp50
 70
     1
102
RTVSPost2010Prop51ColorIndex
 90
      256
102
RTVSPost2010Prop51ColorRGB
 90
-16777216
102
RTVSPost2010PropOp51
 70
     0
102
RTVSPost2010Prop52
140
1.0
102
RTVSPost2010PropOp52
 70
     0
102
RTVSPost2010Prop53
 90
        2
102
RTVSPost2010PropOp53
 70
     1
102
RTVSPost2010Prop54
  1
strokes_ogs.tif
102
RTVSPost2010PropOp54
 70
     1
102
RTVSPost2010Prop55
280
     0
102
RTVSPost2010PropOp55
 70
     1
102
RTVSPost2010Prop56
140
1.0
102
RTVSPost2010PropOp56
 70
     1
102
RTVSPost2010Prop57
140
1.0
102
RTVSPost2010PropOp57
 70
     1
102
RTVSPropertyOp0
 70
     1
102
RTVSPropertyOp1
 70
     1
102
RTVSPropertyOp2
 70
     1
102
RTVSPropertyOp3
 70
     1
102
RTVSPropertyOp4
 70
     1
102
RTVSPropertyOp5
 70
     1
102
RTVSPropertyOp6
 70
     1
102
RTVSPropertyOp7
 70
     1
102
RTVSPropertyOp8
 70
     1
102
RTVSPropertyOp9
 70
     1
102
RTVSPropertyOp10
 70
     1
102
RTVSPropertyOp11
 70
     1
102
RTVSPropertyOp12
 70
     1
102
RTVSPropertyOp13
 70
     1
102
RTVSPropertyOp14
 70
     1
102
RTVSPropertyOp15
 70
     1
102
RTVSPropertyOp16
 70
     1
102
RTVSPropertyOp17
 70
     1
102
RTVSPropertyOp18
 70
     1
102
RTVSPropertyOp19
 70
     1
102
RTVSPropertyOp20
 70
     1
102
RTVSPropertyOp21
 70
     1
102
RTVSPropertyOp22
 70
     1
102
RTVSPropertyOp23
 70
     1
102
RTVSPropertyOp24
 70
     1
102
RTVSPropertyOp25
 70
     1
102
RTVSPropertyOp26
 70
     1
102
RTVSPropertyOp27
 70
     1
102
RTVSPropertyOp28
 70
     1
102
RTVSPropertyOp29
 70
     1
102
RTVSPropertyOp30
 70
     1
102
RTVSPropertyOp31
 70
     1
102
RTVSPropertyOp32
 70
     1
102
RTVSPropertyOp33
 70
     1
102
RTVSPropertyOp34
 70
     1
102
RTVSPropertyOp35
 70
     1
102
RTVSPropertyOp36
 70
     1
102
RTVSPropertyOp37
 70
     1
102
RTVSPropertyOp38
 70
     1
102
RTVSPropertyOp39
 70
     1
102
RTVSPropertyOp40
 70
     1
102
RTVSPropertyOp41
 70
     1
102
RTVSPropertyOp42
 70
     1
102
RTVSPropertyOp43
 70
     1
102
RTVSPropertyOp44
 70
     1
102
RTVSPropertyOp45
 70
     1
102
RTVSPropertyOp46
 70
     1
102
RTVSPropertyOp47
 70
     1
102
RTVSPropertyOp48
 70
     1
102
RTVSPropertyOp49
 70
     1
102
RTVSPropertyOp50
 70
     1
102
RTVSPropertyOp51
 70
     0
102
RTVSPropertyOp52
 70
     0
102
RTVSPropertyOp53
 70
     1
102
RTVSPropertyOp54
 70
     1
102
RTVSPropertyOp55
 70
     1
102
RTVSPropertyOp56
 70
     1
102
RTVSPropertyOp57
 70
     1
102
RTVSPropertyOp58
 70
     1
102
RTVSPropertyOp59
 70
     1
102
RTVSPropertyOp60
 70
     1
102
RTVSPropertyOp61
 70
     1
102
RTVSPropertyOp62
 70
     1
  0
XRECORD
  5
24D04
102
{ACAD_REACTORS
330
24D03
102
}
330
24D03
100
AcDbXrecord
280
     1
102
RTVSPost2010Prop28
280
     0
102
RTVSPost2010PropOp28
 70
     1
102
RTVSPost2010Prop29
280
     1
102
RTVSPost2010PropOp29
 70
     1
102
RTVSPost2010Prop30
280
     1
102
RTVSPost2010PropOp30
 70
     1
102
RTVSPost2010Prop31
280
     0
102
RTVSPost2010PropOp31
 70
     1
102
RTVSPost2010Prop32
280
     0
102
RTVSPost2010PropOp32
 70
     1
102
RTVSPost2010Prop33
280
     0
102
RTVSPost2010PropOp33
 70
     1
102
RTVSPost2010Prop34
280
     0
102
RTVSPost2010PropOp34
 70
     1
102
RTVSPost2010Prop35
280
     0
102
RTVSPost2010PropOp35
 70
     1
102
RTVSPost2010Prop36
280
     0
102
RTVSPost2010PropOp36
 70
     1
102
RTVSPost2010Prop37
 90
       50
102
RTVSPost2010PropOp37
 70
     1
102
RTVSPost2010Prop38
140
0.0
102
RTVSPost2010PropOp38
 70
     1
102
RTVSPost2010Prop39
140
1.0
102
RTVSPost2010PropOp39
 70
     1
102
RTVSPost2010Prop40
 90
        0
102
RTVSPost2010PropOp40
 70
     1
102
RTVSPost2010Prop41ColorIndex
 90
       18
102
RTVSPost2010Prop41ColorRGB
 90
        0
102
RTVSPost2010PropOp41
 70
     1
102
RTVSPost2010Prop42
 90
       50
102
RTVSPost2010PropOp42
 70
     1
102
RTVSPost2010Prop43
 90
        3
102
RTVSPost2010PropOp43
 70
     1
102
RTVSPost2010Prop44ColorIndex
 90
        5
102
RTVSPost2010Prop44ColorRGB
 90
      255
102
RTVSPost2010PropOp44
 70
     1
102
RTVSPost2010Prop45
280
     0
102
RTVSPost2010PropOp45
 70
     1
102
RTVSPost2010Prop46
 90
       50
102
RTVSPost2010PropOp46
 70
     1
102
RTVSPost2010Prop47
 90
       50
102
RTVSPost2010PropOp47
 70
     1
102
RTVSPost2010Prop48
 90
       50
102
RTVSPost2010PropOp48
 70
     1
102
RTVSPost2010Prop49
280
     0
102
RTVSPost2010PropOp49
 70
     1
102
RTVSPost2010Prop50
 90
       50
102
RTVSPost2010PropOp50
 70
     1
102
RTVSPost2010Prop51ColorIndex
 90
      256
102
RTVSPost2010Prop51ColorRGB
 90
-16777216
102
RTVSPost2010PropOp51
 70
     0
102
RTVSPost2010Prop52
140
1.0
102
RTVSPost2010PropOp52
 70
     0
102
RTVSPost2010Prop53
 90
        2
102
RTVSPost2010PropOp53
 70
     1
102
RTVSPost2010Prop54
  1
strokes_ogs.tif
102
RTVSPost2010PropOp54
 70
     1
102
RTVSPost2010Prop55
280
     0
102
RTVSPost2010PropOp55
 70
     1
102
RTVSPost2010Prop56
140
1.0
102
RTVSPost2010PropOp56
 70
     1
102
RTVSPost2010Prop57
140
1.0
102
RTVSPost2010PropOp57
 70
     1
102
RTVSPropertyOp0
 70
     1
102
RTVSPropertyOp1
 70
     1
102
RTVSPropertyOp2
 70
     1
102
RTVSPropertyOp3
 70
     1
102
RTVSPropertyOp4
 70
     1
102
RTVSPropertyOp5
 70
     1
102
RTVSPropertyOp6
 70
     1
102
RTVSPropertyOp7
 70
     1
102
RTVSPropertyOp8
 70
     1
102
RTVSPropertyOp9
 70
     1
102
RTVSPropertyOp10
 70
     1
102
RTVSPropertyOp11
 70
     1
102
RTVSPropertyOp12
 70
     1
102
RTVSPropertyOp13
 70
     1
102
RTVSPropertyOp14
 70
     1
102
RTVSPropertyOp15
 70
     1
102
RTVSPropertyOp16
 70
     1
102
RTVSPropertyOp17
 70
     1
102
RTVSPropertyOp18
 70
     1
102
RTVSPropertyOp19
 70
     1
102
RTVSPropertyOp20
 70
     1
102
RTVSPropertyOp21
 70
     1
102
RTVSPropertyOp22
 70
     1
102
RTVSPropertyOp23
 70
     1
102
RTVSPropertyOp24
 70
     1
102
RTVSPropertyOp25
 70
     1
102
RTVSPropertyOp26
 70
     1
102
RTVSPropertyOp27
 70
     1
102
RTVSPropertyOp28
 70
     1
102
RTVSPropertyOp29
 70
     1
102
RTVSPropertyOp30
 70
     1
102
RTVSPropertyOp31
 70
     1
102
RTVSPropertyOp32
 70
     1
102
RTVSPropertyOp33
 70
     1
102
RTVSPropertyOp34
 70
     1
102
RTVSPropertyOp35
 70
     1
102
RTVSPropertyOp36
 70
     1
102
RTVSPropertyOp37
 70
     1
102
RTVSPropertyOp38
 70
     1
102
RTVSPropertyOp39
 70
     1
102
RTVSPropertyOp40
 70
     1
102
RTVSPropertyOp41
 70
     1
102
RTVSPropertyOp42
 70
     1
102
RTVSPropertyOp43
 70
     1
102
RTVSPropertyOp44
 70
     1
102
RTVSPropertyOp45
 70
     1
102
RTVSPropertyOp46
 70
     1
102
RTVSPropertyOp47
 70
     1
102
RTVSPropertyOp48
 70
     1
102
RTVSPropertyOp49
 70
     1
102
RTVSPropertyOp50
 70
     1
102
RTVSPropertyOp51
 70
     0
102
RTVSPropertyOp52
 70
     0
102
RTVSPropertyOp53
 70
     1
102
RTVSPropertyOp54
 70
     1
102
RTVSPropertyOp55
 70
     1
102
RTVSPropertyOp56
 70
     1
102
RTVSPropertyOp57
 70
     1
102
RTVSPropertyOp58
 70
     1
102
RTVSPropertyOp59
 70
     1
102
RTVSPropertyOp60
 70
     1
102
RTVSPropertyOp61
 70
     1
102
RTVSPropertyOp62
 70
     1
  0
XRECORD
  5
24D02
102
{ACAD_REACTORS
330
24D01
102
}
330
24D01
100
AcDbXrecord
280
     1
102
RTVSPost2010Prop28
280
     0
102
RTVSPost2010PropOp28
 70
     1
102
RTVSPost2010Prop29
280
     1
102
RTVSPost2010PropOp29
 70
     1
102
RTVSPost2010Prop30
280
     1
102
RTVSPost2010PropOp30
 70
     1
102
RTVSPost2010Prop31
280
     0
102
RTVSPost2010PropOp31
 70
     1
102
RTVSPost2010Prop32
280
     0
102
RTVSPost2010PropOp32
 70
     1
102
RTVSPost2010Prop33
280
     0
102
RTVSPost2010PropOp33
 70
     1
102
RTVSPost2010Prop34
280
     0
102
RTVSPost2010PropOp34
 70
     1
102
RTVSPost2010Prop35
280
     0
102
RTVSPost2010PropOp35
 70
     1
102
RTVSPost2010Prop36
280
     0
102
RTVSPost2010PropOp36
 70
     1
102
RTVSPost2010Prop37
 90
       50
102
RTVSPost2010PropOp37
 70
     1
102
RTVSPost2010Prop38
140
0.0
102
RTVSPost2010PropOp38
 70
     1
102
RTVSPost2010Prop39
140
1.0
102
RTVSPost2010PropOp39
 70
     1
102
RTVSPost2010Prop40
 90
        0
102
RTVSPost2010PropOp40
 70
     1
102
RTVSPost2010Prop41ColorIndex
 90
       18
102
RTVSPost2010Prop41ColorRGB
 90
        0
102
RTVSPost2010PropOp41
 70
     1
102
RTVSPost2010Prop42
 90
       50
102
RTVSPost2010PropOp42
 70
     1
102
RTVSPost2010Prop43
 90
        3
102
RTVSPost2010PropOp43
 70
     1
102
RTVSPost2010Prop44ColorIndex
 90
        5
102
RTVSPost2010Prop44ColorRGB
 90
      255
102
RTVSPost2010PropOp44
 70
     1
102
RTVSPost2010Prop45
280
     0
102
RTVSPost2010PropOp45
 70
     1
102
RTVSPost2010Prop46
 90
       50
102
RTVSPost2010PropOp46
 70
     1
102
RTVSPost2010Prop47
 90
       50
102
RTVSPost2010PropOp47
 70
     1
102
RTVSPost2010Prop48
 90
       50
102
RTVSPost2010PropOp48
 70
     1
102
RTVSPost2010Prop49
280
     0
102
RTVSPost2010PropOp49
 70
     1
102
RTVSPost2010Prop50
 90
       50
102
RTVSPost2010PropOp50
 70
     1
102
RTVSPost2010Prop51ColorIndex
 90
      256
102
RTVSPost2010Prop51ColorRGB
 90
-16777216
102
RTVSPost2010PropOp51
 70
     0
102
RTVSPost2010Prop52
140
1.0
102
RTVSPost2010PropOp52
 70
     0
102
RTVSPost2010Prop53
 90
        2
102
RTVSPost2010PropOp53
 70
     1
102
RTVSPost2010Prop54
  1
strokes_ogs.tif
102
RTVSPost2010PropOp54
 70
     1
102
RTVSPost2010Prop55
280
     0
102
RTVSPost2010PropOp55
 70
     1
102
RTVSPost2010Prop56
140
1.0
102
RTVSPost2010PropOp56
 70
     1
102
RTVSPost2010Prop57
140
1.0
102
RTVSPost2010PropOp57
 70
     1
102
RTVSPropertyOp0
 70
     1
102
RTVSPropertyOp1
 70
     1
102
RTVSPropertyOp2
 70
     1
102
RTVSPropertyOp3
 70
     1
102
RTVSPropertyOp4
 70
     1
102
RTVSPropertyOp5
 70
     1
102
RTVSPropertyOp6
 70
     1
102
RTVSPropertyOp7
 70
     1
102
RTVSPropertyOp8
 70
     1
102
RTVSPropertyOp9
 70
     1
102
RTVSPropertyOp10
 70
     1
102
RTVSPropertyOp11
 70
     1
102
RTVSPropertyOp12
 70
     1
102
RTVSPropertyOp13
 70
     1
102
RTVSPropertyOp14
 70
     1
102
RTVSPropertyOp15
 70
     1
102
RTVSPropertyOp16
 70
     1
102
RTVSPropertyOp17
 70
     1
102
RTVSPropertyOp18
 70
     1
102
RTVSPropertyOp19
 70
     1
102
RTVSPropertyOp20
 70
     1
102
RTVSPropertyOp21
 70
     1
102
RTVSPropertyOp22
 70
     1
102
RTVSPropertyOp23
 70
     1
102
RTVSPropertyOp24
 70
     1
102
RTVSPropertyOp25
 70
     1
102
RTVSPropertyOp26
 70
     1
102
RTVSPropertyOp27
 70
     1
102
RTVSPropertyOp28
 70
     1
102
RTVSPropertyOp29
 70
     1
102
RTVSPropertyOp30
 70
     1
102
RTVSPropertyOp31
 70
     1
102
RTVSPropertyOp32
 70
     1
102
RTVSPropertyOp33
 70
     1
102
RTVSPropertyOp34
 70
     1
102
RTVSPropertyOp35
 70
     1
102
RTVSPropertyOp36
 70
     1
102
RTVSPropertyOp37
 70
     1
102
RTVSPropertyOp38
 70
     1
102
RTVSPropertyOp39
 70
     1
102
RTVSPropertyOp40
 70
     1
102
RTVSPropertyOp41
 70
     1
102
RTVSPropertyOp42
 70
     1
102
RTVSPropertyOp43
 70
     1
102
RTVSPropertyOp44
 70
     1
102
RTVSPropertyOp45
 70
     1
102
RTVSPropertyOp46
 70
     1
102
RTVSPropertyOp47
 70
     1
102
RTVSPropertyOp48
 70
     1
102
RTVSPropertyOp49
 70
     1
102
RTVSPropertyOp50
 70
     1
102
RTVSPropertyOp51
 70
     0
102
RTVSPropertyOp52
 70
     0
102
RTVSPropertyOp53
 70
     1
102
RTVSPropertyOp54
 70
     1
102
RTVSPropertyOp55
 70
     1
102
RTVSPropertyOp56
 70
     1
102
RTVSPropertyOp57
 70
     1
102
RTVSPropertyOp58
 70
     1
102
RTVSPropertyOp59
 70
     1
102
RTVSPropertyOp60
 70
     1
102
RTVSPropertyOp61
 70
     1
102
RTVSPropertyOp62
 70
     1
  0
XRECORD
  5
24CFC
102
{ACAD_REACTORS
330
24CFB
102
}
330
24CFB
100
AcDbXrecord
280
     1
102
RTVSPost2010Prop28
280
     0
102
RTVSPost2010PropOp28
 70
     1
102
RTVSPost2010Prop29
280
     1
102
RTVSPost2010PropOp29
 70
     1
102
RTVSPost2010Prop30
280
     1
102
RTVSPost2010PropOp30
 70
     1
102
RTVSPost2010Prop31
280
     0
102
RTVSPost2010PropOp31
 70
     1
102
RTVSPost2010Prop32
280
     0
102
RTVSPost2010PropOp32
 70
     1
102
RTVSPost2010Prop33
280
     0
102
RTVSPost2010PropOp33
 70
     1
102
RTVSPost2010Prop34
280
     0
102
RTVSPost2010PropOp34
 70
     1
102
RTVSPost2010Prop35
280
     0
102
RTVSPost2010PropOp35
 70
     1
102
RTVSPost2010Prop36
280
     0
102
RTVSPost2010PropOp36
 70
     1
102
RTVSPost2010Prop37
 90
       50
102
RTVSPost2010PropOp37
 70
     1
102
RTVSPost2010Prop38
140
0.0
102
RTVSPost2010PropOp38
 70
     1
102
RTVSPost2010Prop39
140
1.0
102
RTVSPost2010PropOp39
 70
     1
102
RTVSPost2010Prop40
 90
        0
102
RTVSPost2010PropOp40
 70
     1
102
RTVSPost2010Prop41ColorIndex
 90
       18
102
RTVSPost2010Prop41ColorRGB
 90
        0
102
RTVSPost2010PropOp41
 70
     1
102
RTVSPost2010Prop42
 90
       50
102
RTVSPost2010PropOp42
 70
     1
102
RTVSPost2010Prop43
 90
        3
102
RTVSPost2010PropOp43
 70
     1
102
RTVSPost2010Prop44ColorIndex
 90
        5
102
RTVSPost2010Prop44ColorRGB
 90
      255
102
RTVSPost2010PropOp44
 70
     1
102
RTVSPost2010Prop45
280
     0
102
RTVSPost2010PropOp45
 70
     1
102
RTVSPost2010Prop46
 90
       50
102
RTVSPost2010PropOp46
 70
     1
102
RTVSPost2010Prop47
 90
       50
102
RTVSPost2010PropOp47
 70
     1
102
RTVSPost2010Prop48
 90
       50
102
RTVSPost2010PropOp48
 70
     1
102
RTVSPost2010Prop49
280
     0
102
RTVSPost2010PropOp49
 70
     1
102
RTVSPost2010Prop50
 90
       50
102
RTVSPost2010PropOp50
 70
     1
102
RTVSPost2010Prop51ColorIndex
 90
      256
102
RTVSPost2010Prop51ColorRGB
 90
-16777216
102
RTVSPost2010PropOp51
 70
     0
102
RTVSPost2010Prop52
140
1.0
102
RTVSPost2010PropOp52
 70
     0
102
RTVSPost2010Prop53
 90
        2
102
RTVSPost2010PropOp53
 70
     1
102
RTVSPost2010Prop54
  1
strokes_ogs.tif
102
RTVSPost2010PropOp54
 70
     1
102
RTVSPost2010Prop55
280
     0
102
RTVSPost2010PropOp55
 70
     1
102
RTVSPost2010Prop56
140
1.0
102
RTVSPost2010PropOp56
 70
     1
102
RTVSPost2010Prop57
140
1.0
102
RTVSPost2010PropOp57
 70
     1
102
RTVSPropertyOp0
 70
     1
102
RTVSPropertyOp1
 70
     1
102
RTVSPropertyOp2
 70
     1
102
RTVSPropertyOp3
 70
     1
102
RTVSPropertyOp4
 70
     1
102
RTVSPropertyOp5
 70
     1
102
RTVSPropertyOp6
 70
     1
102
RTVSPropertyOp7
 70
     1
102
RTVSPropertyOp8
 70
     1
102
RTVSPropertyOp9
 70
     1
102
RTVSPropertyOp10
 70
     1
102
RTVSPropertyOp11
 70
     1
102
RTVSPropertyOp12
 70
     1
102
RTVSPropertyOp13
 70
     1
102
RTVSPropertyOp14
 70
     1
102
RTVSPropertyOp15
 70
     1
102
RTVSPropertyOp16
 70
     1
102
RTVSPropertyOp17
 70
     1
102
RTVSPropertyOp18
 70
     1
102
RTVSPropertyOp19
 70
     1
102
RTVSPropertyOp20
 70
     1
102
RTVSPropertyOp21
 70
     1
102
RTVSPropertyOp22
 70
     1
102
RTVSPropertyOp23
 70
     1
102
RTVSPropertyOp24
 70
     1
102
RTVSPropertyOp25
 70
     1
102
RTVSPropertyOp26
 70
     1
102
RTVSPropertyOp27
 70
     1
102
RTVSPropertyOp28
 70
     1
102
RTVSPropertyOp29
 70
     1
102
RTVSPropertyOp30
 70
     1
102
RTVSPropertyOp31
 70
     1
102
RTVSPropertyOp32
 70
     1
102
RTVSPropertyOp33
 70
     1
102
RTVSPropertyOp34
 70
     1
102
RTVSPropertyOp35
 70
     1
102
RTVSPropertyOp36
 70
     1
102
RTVSPropertyOp37
 70
     1
102
RTVSPropertyOp38
 70
     1
102
RTVSPropertyOp39
 70
     1
102
RTVSPropertyOp40
 70
     1
102
RTVSPropertyOp41
 70
     1
102
RTVSPropertyOp42
 70
     1
102
RTVSPropertyOp43
 70
     1
102
RTVSPropertyOp44
 70
     1
102
RTVSPropertyOp45
 70
     1
102
RTVSPropertyOp46
 70
     1
102
RTVSPropertyOp47
 70
     1
102
RTVSPropertyOp48
 70
     1
102
RTVSPropertyOp49
 70
     1
102
RTVSPropertyOp50
 70
     1
102
RTVSPropertyOp51
 70
     0
102
RTVSPropertyOp52
 70
     0
102
RTVSPropertyOp53
 70
     1
102
RTVSPropertyOp54
 70
     1
102
RTVSPropertyOp55
 70
     1
102
RTVSPropertyOp56
 70
     1
102
RTVSPropertyOp57
 70
     1
102
RTVSPropertyOp58
 70
     1
102
RTVSPropertyOp59
 70
     1
102
RTVSPropertyOp60
 70
     1
102
RTVSPropertyOp61
 70
     1
102
RTVSPropertyOp62
 70
     1
  0
XRECORD
  5
24CFE
102
{ACAD_REACTORS
330
24CFD
102
}
330
24CFD
100
AcDbXrecord
280
     1
102
RTVSPost2010Prop28
280
     0
102
RTVSPost2010PropOp28
 70
     1
102
RTVSPost2010Prop29
280
     1
102
RTVSPost2010PropOp29
 70
     1
102
RTVSPost2010Prop30
280
     1
102
RTVSPost2010PropOp30
 70
     1
102
RTVSPost2010Prop31
280
     0
102
RTVSPost2010PropOp31
 70
     1
102
RTVSPost2010Prop32
280
     0
102
RTVSPost2010PropOp32
 70
     1
102
RTVSPost2010Prop33
280
     0
102
RTVSPost2010PropOp33
 70
     1
102
RTVSPost2010Prop34
280
     0
102
RTVSPost2010PropOp34
 70
     1
102
RTVSPost2010Prop35
280
     0
102
RTVSPost2010PropOp35
 70
     1
102
RTVSPost2010Prop36
280
     0
102
RTVSPost2010PropOp36
 70
     1
102
RTVSPost2010Prop37
 90
       50
102
RTVSPost2010PropOp37
 70
     1
102
RTVSPost2010Prop38
140
0.0
102
RTVSPost2010PropOp38
 70
     1
102
RTVSPost2010Prop39
140
1.0
102
RTVSPost2010PropOp39
 70
     1
102
RTVSPost2010Prop40
 90
        0
102
RTVSPost2010PropOp40
 70
     1
102
RTVSPost2010Prop41ColorIndex
 90
       18
102
RTVSPost2010Prop41ColorRGB
 90
        0
102
RTVSPost2010PropOp41
 70
     1
102
RTVSPost2010Prop42
 90
       50
102
RTVSPost2010PropOp42
 70
     1
102
RTVSPost2010Prop43
 90
        3
102
RTVSPost2010PropOp43
 70
     1
102
RTVSPost2010Prop44ColorIndex
 90
        5
102
RTVSPost2010Prop44ColorRGB
 90
      255
102
RTVSPost2010PropOp44
 70
     1
102
RTVSPost2010Prop45
280
     0
102
RTVSPost2010PropOp45
 70
     1
102
RTVSPost2010Prop46
 90
       50
102
RTVSPost2010PropOp46
 70
     1
102
RTVSPost2010Prop47
 90
       50
102
RTVSPost2010PropOp47
 70
     1
102
RTVSPost2010Prop48
 90
       50
102
RTVSPost2010PropOp48
 70
     1
102
RTVSPost2010Prop49
280
     0
102
RTVSPost2010PropOp49
 70
     1
102
RTVSPost2010Prop50
 90
       50
102
RTVSPost2010PropOp50
 70
     1
102
RTVSPost2010Prop51ColorIndex
 90
      256
102
RTVSPost2010Prop51ColorRGB
 90
-16777216
102
RTVSPost2010PropOp51
 70
     0
102
RTVSPost2010Prop52
140
1.0
102
RTVSPost2010PropOp52
 70
     0
102
RTVSPost2010Prop53
 90
        2
102
RTVSPost2010PropOp53
 70
     1
102
RTVSPost2010Prop54
  1
strokes_ogs.tif
102
RTVSPost2010PropOp54
 70
     1
102
RTVSPost2010Prop55
280
     0
102
RTVSPost2010PropOp55
 70
     1
102
RTVSPost2010Prop56
140
1.0
102
RTVSPost2010PropOp56
 70
     1
102
RTVSPost2010Prop57
140
1.0
102
RTVSPost2010PropOp57
 70
     1
102
RTVSPropertyOp0
 70
     1
102
RTVSPropertyOp1
 70
     1
102
RTVSPropertyOp2
 70
     1
102
RTVSPropertyOp3
 70
     1
102
RTVSPropertyOp4
 70
     1
102
RTVSPropertyOp5
 70
     1
102
RTVSPropertyOp6
 70
     1
102
RTVSPropertyOp7
 70
     1
102
RTVSPropertyOp8
 70
     1
102
RTVSPropertyOp9
 70
     1
102
RTVSPropertyOp10
 70
     1
102
RTVSPropertyOp11
 70
     1
102
RTVSPropertyOp12
 70
     1
102
RTVSPropertyOp13
 70
     1
102
RTVSPropertyOp14
 70
     1
102
RTVSPropertyOp15
 70
     1
102
RTVSPropertyOp16
 70
     1
102
RTVSPropertyOp17
 70
     1
102
RTVSPropertyOp18
 70
     1
102
RTVSPropertyOp19
 70
     1
102
RTVSPropertyOp20
 70
     1
102
RTVSPropertyOp21
 70
     1
102
RTVSPropertyOp22
 70
     1
102
RTVSPropertyOp23
 70
     1
102
RTVSPropertyOp24
 70
     1
102
RTVSPropertyOp25
 70
     1
102
RTVSPropertyOp26
 70
     1
102
RTVSPropertyOp27
 70
     1
102
RTVSPropertyOp28
 70
     1
102
RTVSPropertyOp29
 70
     1
102
RTVSPropertyOp30
 70
     1
102
RTVSPropertyOp31
 70
     1
102
RTVSPropertyOp32
 70
     1
102
RTVSPropertyOp33
 70
     1
102
RTVSPropertyOp34
 70
     1
102
RTVSPropertyOp35
 70
     1
102
RTVSPropertyOp36
 70
     1
102
RTVSPropertyOp37
 70
     1
102
RTVSPropertyOp38
 70
     1
102
RTVSPropertyOp39
 70
     1
102
RTVSPropertyOp40
 70
     1
102
RTVSPropertyOp41
 70
     1
102
RTVSPropertyOp42
 70
     1
102
RTVSPropertyOp43
 70
     1
102
RTVSPropertyOp44
 70
     1
102
RTVSPropertyOp45
 70
     1
102
RTVSPropertyOp46
 70
     1
102
RTVSPropertyOp47
 70
     1
102
RTVSPropertyOp48
 70
     1
102
RTVSPropertyOp49
 70
     1
102
RTVSPropertyOp50
 70
     1
102
RTVSPropertyOp51
 70
     0
102
RTVSPropertyOp52
 70
     0
102
RTVSPropertyOp53
 70
     1
102
RTVSPropertyOp54
 70
     1
102
RTVSPropertyOp55
 70
     1
102
RTVSPropertyOp56
 70
     1
102
RTVSPropertyOp57
 70
     1
102
RTVSPropertyOp58
 70
     1
102
RTVSPropertyOp59
 70
     1
102
RTVSPropertyOp60
 70
     1
102
RTVSPropertyOp61
 70
     1
102
RTVSPropertyOp62
 70
     1
  0
XRECORD
  5
24CE9
102
{ACAD_REACTORS
330
24CE8
102
}
330
24CE8
100
AcDbXrecord
280
     1
102
RTVSPost2010Prop28
280
     0
102
RTVSPost2010PropOp28
 70
     1
102
RTVSPost2010Prop29
280
     1
102
RTVSPost2010PropOp29
 70
     1
102
RTVSPost2010Prop30
280
     1
102
RTVSPost2010PropOp30
 70
     1
102
RTVSPost2010Prop31
280
     0
102
RTVSPost2010PropOp31
 70
     1
102
RTVSPost2010Prop32
280
     0
102
RTVSPost2010PropOp32
 70
     1
102
RTVSPost2010Prop33
280
     0
102
RTVSPost2010PropOp33
 70
     1
102
RTVSPost2010Prop34
280
     0
102
RTVSPost2010PropOp34
 70
     1
102
RTVSPost2010Prop35
280
     0
102
RTVSPost2010PropOp35
 70
     1
102
RTVSPost2010Prop36
280
     0
102
RTVSPost2010PropOp36
 70
     1
102
RTVSPost2010Prop37
 90
       50
102
RTVSPost2010PropOp37
 70
     1
102
RTVSPost2010Prop38
140
0.0
102
RTVSPost2010PropOp38
 70
     1
102
RTVSPost2010Prop39
140
1.0
102
RTVSPost2010PropOp39
 70
     1
102
RTVSPost2010Prop40
 90
        0
102
RTVSPost2010PropOp40
 70
     1
102
RTVSPost2010Prop41ColorIndex
 90
       18
102
RTVSPost2010Prop41ColorRGB
 90
        0
102
RTVSPost2010PropOp41
 70
     1
102
RTVSPost2010Prop42
 90
       50
102
RTVSPost2010PropOp42
 70
     1
102
RTVSPost2010Prop43
 90
        3
102
RTVSPost2010PropOp43
 70
     1
102
RTVSPost2010Prop44ColorIndex
 90
        5
102
RTVSPost2010Prop44ColorRGB
 90
      255
102
RTVSPost2010PropOp44
 70
     1
102
RTVSPost2010Prop45
280
     0
102
RTVSPost2010PropOp45
 70
     1
102
RTVSPost2010Prop46
 90
       50
102
RTVSPost2010PropOp46
 70
     1
102
RTVSPost2010Prop47
 90
       50
102
RTVSPost2010PropOp47
 70
     1
102
RTVSPost2010Prop48
 90
       50
102
RTVSPost2010PropOp48
 70
     1
102
RTVSPost2010Prop49
280
     0
102
RTVSPost2010PropOp49
 70
     1
102
RTVSPost2010Prop50
 90
       50
102
RTVSPost2010PropOp50
 70
     1
102
RTVSPost2010Prop51ColorIndex
 90
      256
102
RTVSPost2010Prop51ColorRGB
 90
-16777216
102
RTVSPost2010PropOp51
 70
     0
102
RTVSPost2010Prop52
140
1.0
102
RTVSPost2010PropOp52
 70
     0
102
RTVSPost2010Prop53
 90
        2
102
RTVSPost2010PropOp53
 70
     1
102
RTVSPost2010Prop54
  1
strokes_ogs.tif
102
RTVSPost2010PropOp54
 70
     1
102
RTVSPost2010Prop55
280
     0
102
RTVSPost2010PropOp55
 70
     1
102
RTVSPost2010Prop56
140
1.0
102
RTVSPost2010PropOp56
 70
     1
102
RTVSPost2010Prop57
140
1.0
102
RTVSPost2010PropOp57
 70
     1
102
RTVSPropertyOp0
 70
     1
102
RTVSPropertyOp1
 70
     1
102
RTVSPropertyOp2
 70
     1
102
RTVSPropertyOp3
 70
     1
102
RTVSPropertyOp4
 70
     1
102
RTVSPropertyOp5
 70
     1
102
RTVSPropertyOp6
 70
     1
102
RTVSPropertyOp7
 70
     1
102
RTVSPropertyOp8
 70
     1
102
RTVSPropertyOp9
 70
     1
102
RTVSPropertyOp10
 70
     1
102
RTVSPropertyOp11
 70
     1
102
RTVSPropertyOp12
 70
     1
102
RTVSPropertyOp13
 70
     1
102
RTVSPropertyOp14
 70
     1
102
RTVSPropertyOp15
 70
     1
102
RTVSPropertyOp16
 70
     1
102
RTVSPropertyOp17
 70
     1
102
RTVSPropertyOp18
 70
     1
102
RTVSPropertyOp19
 70
     1
102
RTVSPropertyOp20
 70
     1
102
RTVSPropertyOp21
 70
     1
102
RTVSPropertyOp22
 70
     1
102
RTVSPropertyOp23
 70
     1
102
RTVSPropertyOp24
 70
     1
102
RTVSPropertyOp25
 70
     1
102
RTVSPropertyOp26
 70
     1
102
RTVSPropertyOp27
 70
     1
102
RTVSPropertyOp28
 70
     1
102
RTVSPropertyOp29
 70
     1
102
RTVSPropertyOp30
 70
     1
102
RTVSPropertyOp31
 70
     1
102
RTVSPropertyOp32
 70
     1
102
RTVSPropertyOp33
 70
     1
102
RTVSPropertyOp34
 70
     1
102
RTVSPropertyOp35
 70
     1
102
RTVSPropertyOp36
 70
     1
102
RTVSPropertyOp37
 70
     1
102
RTVSPropertyOp38
 70
     1
102
RTVSPropertyOp39
 70
     1
102
RTVSPropertyOp40
 70
     1
102
RTVSPropertyOp41
 70
     1
102
RTVSPropertyOp42
 70
     1
102
RTVSPropertyOp43
 70
     1
102
RTVSPropertyOp44
 70
     1
102
RTVSPropertyOp45
 70
     1
102
RTVSPropertyOp46
 70
     1
102
RTVSPropertyOp47
 70
     1
102
RTVSPropertyOp48
 70
     1
102
RTVSPropertyOp49
 70
     1
102
RTVSPropertyOp50
 70
     1
102
RTVSPropertyOp51
 70
     0
102
RTVSPropertyOp52
 70
     0
102
RTVSPropertyOp53
 70
     1
102
RTVSPropertyOp54
 70
     1
102
RTVSPropertyOp55
 70
     1
102
RTVSPropertyOp56
 70
     1
102
RTVSPropertyOp57
 70
     1
102
RTVSPropertyOp58
 70
     1
102
RTVSPropertyOp59
 70
     1
102
RTVSPropertyOp60
 70
     1
102
RTVSPropertyOp61
 70
     1
102
RTVSPropertyOp62
 70
     1
  0
XRECORD
  5
24CF8
102
{ACAD_REACTORS
330
24CF7
102
}
330
24CF7
100
AcDbXrecord
280
     1
102
RTVSPost2010Prop28
280
     0
102
RTVSPost2010PropOp28
 70
     1
102
RTVSPost2010Prop29
280
     1
102
RTVSPost2010PropOp29
 70
     1
102
RTVSPost2010Prop30
280
     1
102
RTVSPost2010PropOp30
 70
     1
102
RTVSPost2010Prop31
280
     0
102
RTVSPost2010PropOp31
 70
     1
102
RTVSPost2010Prop32
280
     0
102
RTVSPost2010PropOp32
 70
     1
102
RTVSPost2010Prop33
280
     0
102
RTVSPost2010PropOp33
 70
     1
102
RTVSPost2010Prop34
280
     0
102
RTVSPost2010PropOp34
 70
     1
102
RTVSPost2010Prop35
280
     0
102
RTVSPost2010PropOp35
 70
     1
102
RTVSPost2010Prop36
280
     0
102
RTVSPost2010PropOp36
 70
     1
102
RTVSPost2010Prop37
 90
       50
102
RTVSPost2010PropOp37
 70
     1
102
RTVSPost2010Prop38
140
0.0
102
RTVSPost2010PropOp38
 70
     1
102
RTVSPost2010Prop39
140
1.0
102
RTVSPost2010PropOp39
 70
     1
102
RTVSPost2010Prop40
 90
        0
102
RTVSPost2010PropOp40
 70
     1
102
RTVSPost2010Prop41ColorIndex
 90
       18
102
RTVSPost2010Prop41ColorRGB
 90
        0
102
RTVSPost2010PropOp41
 70
     1
102
RTVSPost2010Prop42
 90
       50
102
RTVSPost2010PropOp42
 70
     1
102
RTVSPost2010Prop43
 90
        3
102
RTVSPost2010PropOp43
 70
     1
102
RTVSPost2010Prop44ColorIndex
 90
        5
102
RTVSPost2010Prop44ColorRGB
 90
      255
102
RTVSPost2010PropOp44
 70
     1
102
RTVSPost2010Prop45
280
     0
102
RTVSPost2010PropOp45
 70
     1
102
RTVSPost2010Prop46
 90
       50
102
RTVSPost2010PropOp46
 70
     1
102
RTVSPost2010Prop47
 90
       50
102
RTVSPost2010PropOp47
 70
     1
102
RTVSPost2010Prop48
 90
       50
102
RTVSPost2010PropOp48
 70
     1
102
RTVSPost2010Prop49
280
     0
102
RTVSPost2010PropOp49
 70
     1
102
RTVSPost2010Prop50
 90
       50
102
RTVSPost2010PropOp50
 70
     1
102
RTVSPost2010Prop51ColorIndex
 90
      256
102
RTVSPost2010Prop51ColorRGB
 90
-16777216
102
RTVSPost2010PropOp51
 70
     0
102
RTVSPost2010Prop52
140
1.0
102
RTVSPost2010PropOp52
 70
     0
102
RTVSPost2010Prop53
 90
        2
102
RTVSPost2010PropOp53
 70
     1
102
RTVSPost2010Prop54
  1
strokes_ogs.tif
102
RTVSPost2010PropOp54
 70
     1
102
RTVSPost2010Prop55
280
     0
102
RTVSPost2010PropOp55
 70
     1
102
RTVSPost2010Prop56
140
1.0
102
RTVSPost2010PropOp56
 70
     1
102
RTVSPost2010Prop57
140
1.0
102
RTVSPost2010PropOp57
 70
     1
102
RTVSPropertyOp0
 70
     1
102
RTVSPropertyOp1
 70
     1
102
RTVSPropertyOp2
 70
     1
102
RTVSPropertyOp3
 70
     1
102
RTVSPropertyOp4
 70
     1
102
RTVSPropertyOp5
 70
     1
102
RTVSPropertyOp6
 70
     1
102
RTVSPropertyOp7
 70
     1
102
RTVSPropertyOp8
 70
     1
102
RTVSPropertyOp9
 70
     1
102
RTVSPropertyOp10
 70
     1
102
RTVSPropertyOp11
 70
     1
102
RTVSPropertyOp12
 70
     1
102
RTVSPropertyOp13
 70
     1
102
RTVSPropertyOp14
 70
     1
102
RTVSPropertyOp15
 70
     1
102
RTVSPropertyOp16
 70
     1
102
RTVSPropertyOp17
 70
     1
102
RTVSPropertyOp18
 70
     1
102
RTVSPropertyOp19
 70
     1
102
RTVSPropertyOp20
 70
     1
102
RTVSPropertyOp21
 70
     1
102
RTVSPropertyOp22
 70
     1
102
RTVSPropertyOp23
 70
     1
102
RTVSPropertyOp24
 70
     1
102
RTVSPropertyOp25
 70
     1
102
RTVSPropertyOp26
 70
     1
102
RTVSPropertyOp27
 70
     1
102
RTVSPropertyOp28
 70
     1
102
RTVSPropertyOp29
 70
     1
102
RTVSPropertyOp30
 70
     1
102
RTVSPropertyOp31
 70
     1
102
RTVSPropertyOp32
 70
     1
102
RTVSPropertyOp33
 70
     1
102
RTVSPropertyOp34
 70
     1
102
RTVSPropertyOp35
 70
     1
102
RTVSPropertyOp36
 70
     1
102
RTVSPropertyOp37
 70
     1
102
RTVSPropertyOp38
 70
     1
102
RTVSPropertyOp39
 70
     1
102
RTVSPropertyOp40
 70
     1
102
RTVSPropertyOp41
 70
     1
102
RTVSPropertyOp42
 70
     1
102
RTVSPropertyOp43
 70
     1
102
RTVSPropertyOp44
 70
     1
102
RTVSPropertyOp45
 70
     1
102
RTVSPropertyOp46
 70
     1
102
RTVSPropertyOp47
 70
     1
102
RTVSPropertyOp48
 70
     1
102
RTVSPropertyOp49
 70
     1
102
RTVSPropertyOp50
 70
     1
102
RTVSPropertyOp51
 70
     0
102
RTVSPropertyOp52
 70
     0
102
RTVSPropertyOp53
 70
     1
102
RTVSPropertyOp54
 70
     1
102
RTVSPropertyOp55
 70
     1
102
RTVSPropertyOp56
 70
     1
102
RTVSPropertyOp57
 70
     1
102
RTVSPropertyOp58
 70
     1
102
RTVSPropertyOp59
 70
     1
102
RTVSPropertyOp60
 70
     1
102
RTVSPropertyOp61
 70
     1
102
RTVSPropertyOp62
 70
     1
  0
XRECORD
  5
24D00
102
{ACAD_REACTORS
330
24CFF
102
}
330
24CFF
100
AcDbXrecord
280
     1
102
RTVSPost2010Prop28
280
     0
102
RTVSPost2010PropOp28
 70
     1
102
RTVSPost2010Prop29
280
     1
102
RTVSPost2010PropOp29
 70
     1
102
RTVSPost2010Prop30
280
     1
102
RTVSPost2010PropOp30
 70
     1
102
RTVSPost2010Prop31
280
     0
102
RTVSPost2010PropOp31
 70
     1
102
RTVSPost2010Prop32
280
     0
102
RTVSPost2010PropOp32
 70
     1
102
RTVSPost2010Prop33
280
     0
102
RTVSPost2010PropOp33
 70
     1
102
RTVSPost2010Prop34
280
     0
102
RTVSPost2010PropOp34
 70
     1
102
RTVSPost2010Prop35
280
     0
102
RTVSPost2010PropOp35
 70
     1
102
RTVSPost2010Prop36
280
     0
102
RTVSPost2010PropOp36
 70
     1
102
RTVSPost2010Prop37
 90
       50
102
RTVSPost2010PropOp37
 70
     1
102
RTVSPost2010Prop38
140
0.0
102
RTVSPost2010PropOp38
 70
     1
102
RTVSPost2010Prop39
140
1.0
102
RTVSPost2010PropOp39
 70
     1
102
RTVSPost2010Prop40
 90
        0
102
RTVSPost2010PropOp40
 70
     1
102
RTVSPost2010Prop41ColorIndex
 90
       18
102
RTVSPost2010Prop41ColorRGB
 90
        0
102
RTVSPost2010PropOp41
 70
     1
102
RTVSPost2010Prop42
 90
       50
102
RTVSPost2010PropOp42
 70
     1
102
RTVSPost2010Prop43
 90
        3
102
RTVSPost2010PropOp43
 70
     1
102
RTVSPost2010Prop44ColorIndex
 90
        5
102
RTVSPost2010Prop44ColorRGB
 90
      255
102
RTVSPost2010PropOp44
 70
     1
102
RTVSPost2010Prop45
280
     0
102
RTVSPost2010PropOp45
 70
     1
102
RTVSPost2010Prop46
 90
       50
102
RTVSPost2010PropOp46
 70
     1
102
RTVSPost2010Prop47
 90
       50
102
RTVSPost2010PropOp47
 70
     1
102
RTVSPost2010Prop48
 90
       50
102
RTVSPost2010PropOp48
 70
     1
102
RTVSPost2010Prop49
280
     0
102
RTVSPost2010PropOp49
 70
     1
102
RTVSPost2010Prop50
 90
       50
102
RTVSPost2010PropOp50
 70
     1
102
RTVSPost2010Prop51ColorIndex
 90
      256
102
RTVSPost2010Prop51ColorRGB
 90
-16777216
102
RTVSPost2010PropOp51
 70
     0
102
RTVSPost2010Prop52
140
1.0
102
RTVSPost2010PropOp52
 70
     0
102
RTVSPost2010Prop53
 90
        2
102
RTVSPost2010PropOp53
 70
     1
102
RTVSPost2010Prop54
  1
strokes_ogs.tif
102
RTVSPost2010PropOp54
 70
     1
102
RTVSPost2010Prop55
280
     0
102
RTVSPost2010PropOp55
 70
     1
102
RTVSPost2010Prop56
140
1.0
102
RTVSPost2010PropOp56
 70
     1
102
RTVSPost2010Prop57
140
1.0
102
RTVSPost2010PropOp57
 70
     1
102
RTVSPropertyOp0
 70
     1
102
RTVSPropertyOp1
 70
     1
102
RTVSPropertyOp2
 70
     1
102
RTVSPropertyOp3
 70
     1
102
RTVSPropertyOp4
 70
     1
102
RTVSPropertyOp5
 70
     1
102
RTVSPropertyOp6
 70
     1
102
RTVSPropertyOp7
 70
     1
102
RTVSPropertyOp8
 70
     1
102
RTVSPropertyOp9
 70
     1
102
RTVSPropertyOp10
 70
     1
102
RTVSPropertyOp11
 70
     1
102
RTVSPropertyOp12
 70
     1
102
RTVSPropertyOp13
 70
     1
102
RTVSPropertyOp14
 70
     1
102
RTVSPropertyOp15
 70
     1
102
RTVSPropertyOp16
 70
     1
102
RTVSPropertyOp17
 70
     1
102
RTVSPropertyOp18
 70
     1
102
RTVSPropertyOp19
 70
     1
102
RTVSPropertyOp20
 70
     1
102
RTVSPropertyOp21
 70
     1
102
RTVSPropertyOp22
 70
     1
102
RTVSPropertyOp23
 70
     1
102
RTVSPropertyOp24
 70
     1
102
RTVSPropertyOp25
 70
     1
102
RTVSPropertyOp26
 70
     1
102
RTVSPropertyOp27
 70
     1
102
RTVSPropertyOp28
 70
     1
102
RTVSPropertyOp29
 70
     1
102
RTVSPropertyOp30
 70
     1
102
RTVSPropertyOp31
 70
     1
102
RTVSPropertyOp32
 70
     1
102
RTVSPropertyOp33
 70
     1
102
RTVSPropertyOp34
 70
     1
102
RTVSPropertyOp35
 70
     1
102
RTVSPropertyOp36
 70
     1
102
RTVSPropertyOp37
 70
     1
102
RTVSPropertyOp38
 70
     1
102
RTVSPropertyOp39
 70
     1
102
RTVSPropertyOp40
 70
     1
102
RTVSPropertyOp41
 70
     1
102
RTVSPropertyOp42
 70
     1
102
RTVSPropertyOp43
 70
     1
102
RTVSPropertyOp44
 70
     1
102
RTVSPropertyOp45
 70
     1
102
RTVSPropertyOp46
 70
     1
102
RTVSPropertyOp47
 70
     1
102
RTVSPropertyOp48
 70
     1
102
RTVSPropertyOp49
 70
     1
102
RTVSPropertyOp50
 70
     1
102
RTVSPropertyOp51
 70
     0
102
RTVSPropertyOp52
 70
     0
102
RTVSPropertyOp53
 70
     1
102
RTVSPropertyOp54
 70
     1
102
RTVSPropertyOp55
 70
     1
102
RTVSPropertyOp56
 70
     1
102
RTVSPropertyOp57
 70
     1
102
RTVSPropertyOp58
 70
     1
102
RTVSPropertyOp59
 70
     1
102
RTVSPropertyOp60
 70
     1
102
RTVSPropertyOp61
 70
     1
102
RTVSPropertyOp62
 70
     1
  0
ENDSEC
  0
EOF
