0
SECTION
2
HEADER
9
$ACADVER
1
AC1015
9
$DWGCODEPAGE
3
ANSI_1252
9
$HANDSEED
5
208
9
$ANGBASE
50
0
9
$ANGDIR
70
0
9
$ATTMODE
70
1
9
$AUNITS
70
0
9
$AUPREC
70
0
9
$CECOLOR
62
256
9
$CELTSCALE
40
1
9
$CELTYPE
6
ByLayer
9
$CELWEIGHT
370
18
9
$CLAYER
8
0
9
$CMLJUST
70
0
9
$CMLSCALE
40
1
9
$CMLSTYLE
2
Standard
9
$DIMSTYLE
2
Standard
9
$TEXTSIZE
40
0.2
9
$TEXTSTYLE
7
Standard
9
$LUNITS
70
2
9
$LUPREC
70
4
9
$EXTNAMES
290
1
9
$INSUNITS
70
4
9
$LTSCALE
40
1
9
$LWDISPLAY
290
1
9
$PDMODE
70
0
9
$PDSIZE
40
0
9
$PLINEGEN
70
0
0
ENDSEC
0
SECTION
2
CLASSES
0
CLASS
1
RASTERVARIABLES
2
AcDbRasterVariables
3
ISM
90
0
280
0
281
0
0
ENDSEC
0
SECTION
2
TABLES
0
TABLE
2
VPORT
5
1fe
100
AcDbSymbolTable
0
VPORT
5
1
100
AcDbSymbolTableRecord
100
AcDbViewportTableRecord
2
*Active
70
0
10
0
20
0
11
1
21
1
12
-1
22
1
13
0
23
0
14
0.5
24
0.5
15
10
25
10
16
0
26
0
36
1
17
0
27
0
37
0
0
ENDTAB
0
TABLE
2
LTYPE
5
1ff
100
AcDbSymbolTable
0
LTYPE
5
14
100
AcDbSymbolTableRecord
100
AcDbLinetypeTableRecord
70
0
2
ByBlock
3

72
65
73
0
40
0
0
LTYPE
5
15
100
AcDbSymbolTableRecord
100
AcDbLinetypeTableRecord
70
0
2
ByLayer
3

72
65
73
0
40
0
0
LTYPE
5
16
100
AcDbSymbolTableRecord
100
AcDbLinetypeTableRecord
70
0
2
CONTINUOUS
3
Solid line
72
65
73
0
40
0
0
LTYPE
5
6A
100
AcDbSymbolTableRecord
100
AcDbLinetypeTableRecord
70
0
2
CENTER
3
____ _ ____ _ ____ _ ____
72
65
73
4
40
47.5
49
22
74
0
49
-8.5
74
0
49
8.5
74
0
49
-8.5
74
0
0
LTYPE
5
6B
100
AcDbSymbolTableRecord
100
AcDbLinetypeTableRecord
70
0
2
DASHED
3
__ __ __ __ __ __ __ __ __
72
65
73
2
40
25.72
49
12.86
74
0
49
-12.86
74
0
0
ENDTAB
0
TABLE
2
LAYER
5
200
100
AcDbSymbolTable
0
LAYER
5
10
100
AcDbSymbolTableRecord
100
AcDbLayerTableRecord
2
0
70
0
62
7
6
CONTINUOUS
290
1
370
-3
390
0
0
LAYER
5
6D
100
AcDbSymbolTableRecord
100
AcDbLayerTableRecord
2
81
70
0
62
-3
6
CONTINUOUS
290
1
370
-3
390
0
0
LAYER
5
6F
100
AcDbSymbolTableRecord
100
AcDbLayerTableRecord
2
80
70
0
62
-6
6
CONTINUOUS
290
1
370
-3
390
0
0
LAYER
5
71
100
AcDbSymbolTableRecord
100
AcDbLayerTableRecord
2
1
70
0
62
4
6
CONTINUOUS
290
1
370
-3
390
0
0
LAYER
5
CE
100
AcDbSymbolTableRecord
100
AcDbLayerTableRecord
2
4
70
0
62
-2
6
CENTER
290
1
370
-3
390
0
0
LAYER
5
137
100
AcDbSymbolTableRecord
100
AcDbLayerTableRecord
2
2
70
0
62
7
6
CONTINUOUS
290
1
370
-3
390
0
0
LAYER
5
1ea
100
AcDbSymbolTableRecord
100
AcDbLayerTableRecord
2
SK1
70
0
62
4
6
CONTINUOUS
290
1
370
-3
390
0
0
LAYER
5
1eb
100
AcDbSymbolTableRecord
100
AcDbLayerTableRecord
2
SK4
70
0
62
2
6
CENTER
290
1
370
-3
390
0
0
LAYER
5
1ec
100
AcDbSymbolTableRecord
100
AcDbLayerTableRecord
2
SK6
70
0
62
5
6
CONTINUOUS
290
1
370
-3
390
0
0
LAYER
5
1ed
100
AcDbSymbolTableRecord
100
AcDbLayerTableRecord
2
SK2
70
0
62
7
6
CONTINUOUS
290
1
370
-3
390
0
0
ENDTAB
0
TABLE
2
STYLE
5
201
100
AcDbSymbolTable
0
STYLE
5
11
100
AcDbSymbolTableRecord
100
AcDbTextStyleTableRecord
2
Standard
3
txt
70
0
71
0
40
0
41
1
42
0
50
0
0
STYLE
5
132
100
AcDbSymbolTableRecord
100
AcDbTextStyleTableRecord
2
iso_b_vert
3
simplex.shx
70
0
71
0
40
0
41
1
42
0
50
0
0
STYLE
5
133
100
AcDbSymbolTableRecord
100
AcDbTextStyleTableRecord
2
DWGDirectTextStyle
3
simplex
70
0
71
0
40
0
41
1
42
0
50
0
0
ENDTAB
0
TABLE
2
DIMSTYLE
5
202
100
AcDbSymbolTable
100
AcDbDimStyleTable
0
DIMSTYLE
105
27
100
AcDbSymbolTableRecord
100
AcDbDimStyleTableRecord
2
Standard
70
0
3
<>
41
0.18
42
0.0625
44
0.18
140
0.18
147
0.09
73
0
74
0
77
1
271
2
275
0
278
52
280
0
340
11
0
ENDTAB
0
TABLE
2
VIEW
5
203
100
AcDbSymbolTable
0
ENDTAB
0
TABLE
2
UCS
5
204
100
AcDbSymbolTable
0
ENDTAB
0
TABLE
2
APPID
5
205
100
AcDbSymbolTable
0
APPID
5
12
100
AcDbSymbolTableRecord
100
AcDbRegAppTableRecord
2
ACAD
70
0
0
ENDTAB
0
TABLE
2
BLOCK_RECORD
5
206
100
AcDbSymbolTable
0
BLOCK_RECORD
5
1F
100
AcDbSymbolTableRecord
100
AcDbBlockTableRecord
2
*Model_Space
340
0
70
0
0
BLOCK_RECORD
5
1B
100
AcDbSymbolTableRecord
100
AcDbBlockTableRecord
2
*Paper_Space
340
0
70
0
0
BLOCK_RECORD
5
23
100
AcDbSymbolTableRecord
100
AcDbBlockTableRecord
2
*Paper_Space0
340
0
70
0
0
BLOCK_RECORD
5
135
100
AcDbSymbolTableRecord
100
AcDbBlockTableRecord
2
DimnDraft3D1
340
0
70
0
0
BLOCK_RECORD
5
144
100
AcDbSymbolTableRecord
100
AcDbBlockTableRecord
2
_CLOSED
340
0
70
0
0
BLOCK_RECORD
5
14B
100
AcDbSymbolTableRecord
100
AcDbBlockTableRecord
2
DimnDraft3D2
340
0
70
0
0
BLOCK_RECORD
5
15A
100
AcDbSymbolTableRecord
100
AcDbBlockTableRecord
2
DimnDraft3D3
340
0
70
0
0
BLOCK_RECORD
5
168
100
AcDbSymbolTableRecord
100
AcDbBlockTableRecord
2
DimnDraft3D4
340
0
70
0
0
BLOCK_RECORD
5
176
100
AcDbSymbolTableRecord
100
AcDbBlockTableRecord
2
DimnDraft3D5
340
0
70
0
0
BLOCK_RECORD
5
183
100
AcDbSymbolTableRecord
100
AcDbBlockTableRecord
2
DimnDraft3D6
340
0
70
0
0
ENDTAB
0
ENDSEC
0
SECTION
2
BLOCKS
0
BLOCK
5
20
100
AcDbEntity
8
0
100
AcDbBlockBegin
2
*Model_Space
70
0
10
0
20
0
30
0
3
*Model_Space
0
ENDBLK
5
21
100
AcDbEntity
8
0
100
AcDbBlockEnd
0
BLOCK
5
1C
100
AcDbEntity
8
0
100
AcDbBlockBegin
2
*Paper_Space
70
0
10
0
20
0
30
0
3
*Paper_Space
0
ENDBLK
5
1D
100
AcDbEntity
8
0
100
AcDbBlockEnd
0
BLOCK
5
24
100
AcDbEntity
8
0
100
AcDbBlockBegin
2
*Paper_Space0
70
0
10
0
20
0
30
0
3
*Paper_Space0
0
ENDBLK
5
25
100
AcDbEntity
8
0
100
AcDbBlockEnd
0
BLOCK
5
141
100
AcDbEntity
8
0
100
AcDbBlockBegin
2
DimnDraft3D1
70
0
10
0
20
0
30
0
3
DimnDraft3D1
0
MTEXT
5
136
100
AcDbEntity
8
2
62
256
6
ByLayer
370
18
48
1
60
0
100
AcDbMText
10
43.997368
20
43.255553
30
0
210
0
220
0
230
1
1
\W0.6563;90
40
3
41
0
44
1.084337
50
0
71
7
72
5
7
iso_b_vert
0
LINE
5
138
100
AcDbEntity
8
2
62
256
6
ByLayer
370
13
48
1
60
0
100
AcDbLine
10
0
20
22
30
0
11
0
21
44.505553
31
0
39
0
210
0
220
0
230
1
0
LINE
5
139
100
AcDbEntity
8
2
62
256
6
ByLayer
370
13
48
1
60
0
100
AcDbLine
10
90
20
18.875
30
0
11
90
21
44.505553
31
0
39
0
210
0
220
0
230
1
0
LINE
5
13A
100
AcDbEntity
8
2
62
256
6
ByLayer
370
13
48
1
60
0
100
AcDbLine
10
0
20
42.505553
30
0
11
90
21
42.505553
31
0
39
0
210
0
220
0
230
1
0
LINE
5
13B
100
AcDbEntity
8
2
62
256
6
ByLayer
370
13
48
1
60
0
100
AcDbLine
10
0
20
42.505553
30
0
11
3.174998
21
42.92355
31
0
39
0
210
0
220
0
230
1
0
LINE
5
13C
100
AcDbEntity
8
2
62
256
6
ByLayer
370
13
48
1
60
0
100
AcDbLine
10
0
20
42.505553
30
0
11
3.175002
21
42.087556
31
0
39
0
210
0
220
0
230
1
0
LINE
5
13D
100
AcDbEntity
8
2
62
256
6
ByLayer
370
13
48
1
60
0
100
AcDbLine
10
3.174998
20
42.92355
30
0
11
3.175002
21
42.087556
31
0
39
0
210
0
220
0
230
1
0
LINE
5
13E
100
AcDbEntity
8
2
62
256
6
ByLayer
370
13
48
1
60
0
100
AcDbLine
10
90
20
42.505553
30
0
11
86.825002
21
42.087556
31
0
39
0
210
0
220
0
230
1
0
LINE
5
13F
100
AcDbEntity
8
2
62
256
6
ByLayer
370
13
48
1
60
0
100
AcDbLine
10
90
20
42.505553
30
0
11
86.824998
21
42.92355
31
0
39
0
210
0
220
0
230
1
0
LINE
5
140
100
AcDbEntity
8
2
62
256
6
ByLayer
370
13
48
1
60
0
100
AcDbLine
10
86.825002
20
42.087556
30
0
11
86.824998
21
42.92355
31
0
39
0
210
0
220
0
230
1
0
ENDBLK
5
142
100
AcDbEntity
8
0
100
AcDbBlockEnd
0
BLOCK
5
145
100
AcDbEntity
8
0
100
AcDbBlockBegin
2
_CLOSED
70
0
10
0
20
0
30
0
3
_CLOSED
0
LINE
5
147
100
AcDbEntity
8
0
62
256
6
ByLayer
370
-2
48
1
60
0
100
AcDbLine
10
-1
20
0.166667
30
0
11
0
21
0
31
0
39
0
210
0
220
0
230
1
0
LINE
5
148
100
AcDbEntity
8
0
62
256
6
ByLayer
370
-2
48
1
60
0
100
AcDbLine
10
0
20
0
30
0
11
-1
21
-0.166667
31
0
39
0
210
0
220
0
230
1
0
LINE
5
149
100
AcDbEntity
8
0
62
256
6
ByLayer
370
-2
48
1
60
0
100
AcDbLine
10
-1
20
0.166667
30
0
11
-1
21
-0.166667
31
0
39
0
210
0
220
0
230
1
0
LINE
5
14A
100
AcDbEntity
8
0
62
256
6
ByLayer
370
-2
48
1
60
0
100
AcDbLine
10
0
20
0
30
0
11
-1
21
0
31
0
39
0
210
0
220
0
230
1
0
ENDBLK
5
146
100
AcDbEntity
8
0
100
AcDbBlockEnd
0
BLOCK
5
157
100
AcDbEntity
8
0
100
AcDbBlockBegin
2
DimnDraft3D2
70
0
10
0
20
0
30
0
3
DimnDraft3D2
0
MTEXT
5
14C
100
AcDbEntity
8
SK2
62
256
6
ByLayer
370
18
48
1
60
0
100
AcDbMText
10
-36.420674
20
-4.610526
30
0
210
0
220
0
230
1
1
\W1.3359;%%c40
40
3
41
0
44
1.084337
50
90
71
7
72
5
7
iso_b_vert
0
LINE
5
14E
100
AcDbEntity
8
SK2
62
256
6
ByLayer
370
13
48
1
60
0
100
AcDbLine
10
-2
20
-20
30
0
11
-36.920674
21
-20
31
0
39
0
210
0
220
0
230
1
0
LINE
5
14F
100
AcDbEntity
8
SK2
62
256
6
ByLayer
370
13
48
1
60
0
100
AcDbLine
10
-2
20
20
30
0
11
-36.920674
21
20
31
0
39
0
210
0
220
0
230
1
0
LINE
5
150
100
AcDbEntity
8
SK2
62
256
6
ByLayer
370
13
48
1
60
0
100
AcDbLine
10
-34.920674
20
-20
30
0
11
-34.920674
21
20
31
0
39
0
210
0
220
0
230
1
0
LINE
5
151
100
AcDbEntity
8
SK2
62
256
6
ByLayer
370
13
48
1
60
0
100
AcDbLine
10
-34.920674
20
-20
30
0
11
-35.33867
21
-16.825002
31
0
39
0
210
0
220
0
230
1
0
LINE
5
152
100
AcDbEntity
8
SK2
62
256
6
ByLayer
370
13
48
1
60
0
100
AcDbLine
10
-34.920674
20
-20
30
0
11
-34.502677
21
-16.824998
31
0
39
0
210
0
220
0
230
1
0
LINE
5
153
100
AcDbEntity
8
SK2
62
256
6
ByLayer
370
13
48
1
60
0
100
AcDbLine
10
-35.33867
20
-16.825002
30
0
11
-34.502677
21
-16.824998
31
0
39
0
210
0
220
0
230
1
0
LINE
5
154
100
AcDbEntity
8
SK2
62
256
6
ByLayer
370
13
48
1
60
0
100
AcDbLine
10
-34.920674
20
20
30
0
11
-34.502677
21
16.825002
31
0
39
0
210
0
220
0
230
1
0
LINE
5
155
100
AcDbEntity
8
SK2
62
256
6
ByLayer
370
13
48
1
60
0
100
AcDbLine
10
-34.920674
20
20
30
0
11
-35.33867
21
16.824998
31
0
39
0
210
0
220
0
230
1
0
LINE
5
156
100
AcDbEntity
8
SK2
62
256
6
ByLayer
370
13
48
1
60
0
100
AcDbLine
10
-34.502677
20
16.825002
30
0
11
-35.33867
21
16.824998
31
0
39
0
210
0
220
0
230
1
0
ENDBLK
5
158
100
AcDbEntity
8
0
100
AcDbBlockEnd
0
BLOCK
5
165
100
AcDbEntity
8
0
100
AcDbBlockBegin
2
DimnDraft3D3
70
0
10
0
20
0
30
0
3
DimnDraft3D3
0
MTEXT
5
15B
100
AcDbEntity
8
2
62
256
6
ByLayer
370
18
48
1
60
0
100
AcDbMText
10
54.752178
20
32.210007
30
0
210
0
220
0
230
1
1
\W0.6745;69
40
3
41
0
44
1.084337
50
0
71
7
72
5
7
iso_b_vert
0
LINE
5
15C
100
AcDbEntity
8
2
62
256
6
ByLayer
370
13
48
1
60
0
100
AcDbLine
10
21.509619
20
14.5
30
0
11
21.509619
21
33.460007
31
0
39
0
210
0
220
0
230
1
0
LINE
5
15D
100
AcDbEntity
8
2
62
256
6
ByLayer
370
13
48
1
60
0
100
AcDbLine
10
90
20
18.875
30
0
11
90
21
33.460007
31
0
39
0
210
0
220
0
230
1
0
LINE
5
15E
100
AcDbEntity
8
2
62
256
6
ByLayer
370
13
48
1
60
0
100
AcDbLine
10
21.509619
20
31.460007
30
0
11
90
21
31.460007
31
0
39
0
210
0
220
0
230
1
0
LINE
5
15F
100
AcDbEntity
8
2
62
256
6
ByLayer
370
13
48
1
60
0
100
AcDbLine
10
21.509619
20
31.460007
30
0
11
24.684617
21
31.878003
31
0
39
0
210
0
220
0
230
1
0
LINE
5
160
100
AcDbEntity
8
2
62
256
6
ByLayer
370
13
48
1
60
0
100
AcDbLine
10
21.509619
20
31.460007
30
0
11
24.68462
21
31.04201
31
0
39
0
210
0
220
0
230
1
0
LINE
5
161
100
AcDbEntity
8
2
62
256
6
ByLayer
370
13
48
1
60
0
100
AcDbLine
10
24.684617
20
31.878003
30
0
11
24.68462
21
31.04201
31
0
39
0
210
0
220
0
230
1
0
LINE
5
162
100
AcDbEntity
8
2
62
256
6
ByLayer
370
13
48
1
60
0
100
AcDbLine
10
90
20
31.460007
30
0
11
86.825002
21
31.04201
31
0
39
0
210
0
220
0
230
1
0
LINE
5
163
100
AcDbEntity
8
2
62
256
6
ByLayer
370
13
48
1
60
0
100
AcDbLine
10
90
20
31.460007
30
0
11
86.824998
21
31.878003
31
0
39
0
210
0
220
0
230
1
0
LINE
5
164
100
AcDbEntity
8
2
62
256
6
ByLayer
370
13
48
1
60
0
100
AcDbLine
10
86.825002
20
31.04201
30
0
11
86.824998
21
31.878003
31
0
39
0
210
0
220
0
230
1
0
ENDBLK
5
166
100
AcDbEntity
8
0
100
AcDbBlockEnd
0
BLOCK
5
173
100
AcDbEntity
8
0
100
AcDbBlockBegin
2
DimnDraft3D4
70
0
10
0
20
0
30
0
3
DimnDraft3D4
0
MTEXT
5
169
100
AcDbEntity
8
2
62
256
6
ByLayer
370
18
48
1
60
0
100
AcDbMText
10
116.456273
20
7.809868
30
0
210
0
220
0
230
1
1
\W0.5144;17
40
3
41
0
44
1.084337
50
90
71
7
72
5
7
iso_b_vert
0
LINE
5
16A
100
AcDbEntity
8
2
62
256
6
ByLayer
370
13
48
1
60
0
100
AcDbLine
10
92
20
16.875
30
0
11
117.206273
21
16.875
31
0
39
0
210
0
220
0
230
1
0
LINE
5
16B
100
AcDbEntity
8
2
62
256
6
ByLayer
370
13
48
1
60
0
100
AcDbLine
10
105
20
0
30
0
11
117.206273
21
0
31
0
39
0
210
0
220
0
230
1
0
LINE
5
16C
100
AcDbEntity
8
2
62
256
6
ByLayer
370
13
48
1
60
0
100
AcDbLine
10
117.206273
20
16.875
30
0
11
117.206273
21
0
31
0
39
0
210
0
220
0
230
1
0
LINE
5
16D
100
AcDbEntity
8
2
62
256
6
ByLayer
370
13
48
1
60
0
100
AcDbLine
10
117.206273
20
16.875
30
0
11
117.62427
21
13.700002
31
0
39
0
210
0
220
0
230
1
0
LINE
5
16E
100
AcDbEntity
8
2
62
256
6
ByLayer
370
13
48
1
60
0
100
AcDbLine
10
117.206273
20
16.875
30
0
11
116.788276
21
13.699998
31
0
39
0
210
0
220
0
230
1
0
LINE
5
16F
100
AcDbEntity
8
2
62
256
6
ByLayer
370
13
48
1
60
0
100
AcDbLine
10
117.62427
20
13.700002
30
0
11
116.788276
21
13.699998
31
0
39
0
210
0
220
0
230
1
0
LINE
5
170
100
AcDbEntity
8
2
62
256
6
ByLayer
370
13
48
1
60
0
100
AcDbLine
10
117.206273
20
0
30
0
11
116.788276
21
3.174998
31
0
39
0
210
0
220
0
230
1
0
LINE
5
171
100
AcDbEntity
8
2
62
256
6
ByLayer
370
13
48
1
60
0
100
AcDbLine
10
117.206273
20
0
30
0
11
117.62427
21
3.175002
31
0
39
0
210
0
220
0
230
1
0
LINE
5
172
100
AcDbEntity
8
2
62
256
6
ByLayer
370
13
48
1
60
0
100
AcDbLine
10
116.788276
20
3.174998
30
0
11
117.62427
21
3.175002
31
0
39
0
210
0
220
0
230
1
0
ENDBLK
5
174
100
AcDbEntity
8
0
100
AcDbBlockEnd
0
BLOCK
5
180
100
AcDbEntity
8
0
100
AcDbBlockBegin
2
DimnDraft3D5
70
0
10
0
20
0
30
0
3
DimnDraft3D5
0
MTEXT
5
177
100
AcDbEntity
8
2
62
256
6
ByLayer
370
18
48
1
60
0
100
AcDbMText
10
51.456204
20
-18.10642
30
0
210
0
220
0
230
1
1
\W0.8896;45%%d
40
3
41
0
44
1.084337
50
292.340579235297
71
7
72
5
7
iso_b_vert
0
LINE
5
178
100
AcDbEntity
8
2
62
256
6
ByLayer
370
13
48
1
60
0
100
AcDbLine
10
70.659583
20
-12.5
30
0
11
55.981739
21
-27.015387
31
0
39
0
210
0
220
0
230
1
0
ARC
5
179
100
AcDbEntity
8
2
62
256
6
ByLayer
370
13
48
1
60
0
100
AcDbCircle
39
0
10
70.659583
20
-12.5
30
0
40
20.6430510325359
210
0
220
0
230
1
100
AcDbArc
50
160.032986
51
244.648172
0
LINE
5
17A
100
AcDbEntity
8
2
62
256
6
ByLayer
370
13
48
1
60
0
100
AcDbLine
10
50.016532
20
-12.5
30
0
11
49.720656
21
-9.311302
31
0
39
0
210
0
220
0
230
1
0
LINE
5
17B
100
AcDbEntity
8
2
62
256
6
ByLayer
370
13
48
1
60
0
100
AcDbLine
10
50.016532
20
-12.5
30
0
11
50.556034
21
-9.343373
31
0
39
0
210
0
220
0
230
1
0
LINE
5
17C
100
AcDbEntity
8
2
62
256
6
ByLayer
370
13
48
1
60
0
100
AcDbLine
10
49.720656
20
-9.311302
30
0
11
50.556034
21
-9.343373
31
0
39
0
210
0
220
0
230
1
0
LINE
5
17D
100
AcDbEntity
8
2
62
256
6
ByLayer
370
13
48
1
60
0
100
AcDbLine
10
55.981739
20
-27.015387
30
0
11
58.584956
21
-28.880487
31
0
39
0
210
0
220
0
230
1
0
LINE
5
17E
100
AcDbEntity
8
2
62
256
6
ByLayer
370
13
48
1
60
0
100
AcDbLine
10
55.981739
20
-27.015387
30
0
11
58.013532
21
-29.4907
31
0
39
0
210
0
220
0
230
1
0
LINE
5
17F
100
AcDbEntity
8
2
62
256
6
ByLayer
370
13
48
1
60
0
100
AcDbLine
10
58.584956
20
-28.880487
30
0
11
58.013532
21
-29.4907
31
0
39
0
210
0
220
0
230
1
0
ENDBLK
5
181
100
AcDbEntity
8
0
100
AcDbBlockEnd
0
BLOCK
5
18E
100
AcDbEntity
8
0
100
AcDbBlockBegin
2
DimnDraft3D6
70
0
10
0
20
0
30
0
3
DimnDraft3D6
0
MTEXT
5
184
100
AcDbEntity
8
2
62
256
6
ByLayer
370
18
48
1
60
0
100
AcDbMText
10
98.585331
20
4.574849
30
0
210
0
220
0
230
1
1
\W0.8896;94%%d
40
3
41
0
44
1.084337
50
42.8392
71
7
72
5
7
iso_b_vert
0
LINE
5
185
100
AcDbEntity
8
2
62
256
6
ByLayer
370
13
48
1
60
0
100
AcDbLine
10
89.498466
20
9.412944
30
0
11
88.889521
21
1.354856
31
0
39
0
210
0
220
0
230
1
0
LINE
5
186
100
AcDbEntity
8
2
62
256
6
ByLayer
370
13
48
1
60
0
100
AcDbLine
10
90
20
16.875
30
0
11
105.626767
21
16.875
31
0
39
0
210
0
220
0
230
1
0
ARC
5
187
100
AcDbEntity
8
2
62
256
6
ByLayer
370
13
48
1
60
0
100
AcDbCircle
39
0
10
90.06237
20
16.875
30
0
40
15.5643964745465
210
0
220
0
230
1
100
AcDbArc
50
265.6784
51
0
0
LINE
5
188
100
AcDbEntity
8
2
62
256
6
ByLayer
370
13
48
1
60
0
100
AcDbLine
10
88.889521
20
1.354856
30
0
11
92.073841
21
1.694616
31
0
39
0
210
0
220
0
230
1
0
LINE
5
189
100
AcDbEntity
8
2
62
256
6
ByLayer
370
13
48
1
60
0
100
AcDbLine
10
88.889521
20
1.354856
30
0
11
92.053278
21
0.858876
31
0
39
0
210
0
220
0
230
1
0
LINE
5
18A
100
AcDbEntity
8
2
62
256
6
ByLayer
370
13
48
1
60
0
100
AcDbLine
10
92.073841
20
1.694616
30
0
11
92.053278
21
0.858876
31
0
39
0
210
0
220
0
230
1
0
LINE
5
18B
100
AcDbEntity
8
2
62
256
6
ByLayer
370
13
48
1
60
0
100
AcDbLine
10
105.626767
20
16.875
30
0
11
105.882933
21
13.682867
31
0
39
0
210
0
220
0
230
1
0
LINE
5
18C
100
AcDbEntity
8
2
62
256
6
ByLayer
370
13
48
1
60
0
100
AcDbLine
10
105.626767
20
16.875
30
0
11
105.048019
21
13.725332
31
0
39
0
210
0
220
0
230
1
0
LINE
5
18D
100
AcDbEntity
8
2
62
256
6
ByLayer
370
13
48
1
60
0
100
AcDbLine
10
105.882933
20
13.682867
30
0
11
105.048019
21
13.725332
31
0
39
0
210
0
220
0
230
1
0
ENDBLK
5
18F
100
AcDbEntity
8
0
100
AcDbBlockEnd
0
ENDSEC
0
SECTION
2
ENTITIES
0
ARC
5
D3
100
AcDbEntity
8
1
62
256
6
ByLayer
370
18
48
1
60
0
100
AcDbCircle
39
0
10
24.578927
20
-16.5
30
0
40
3.99999999999998
210
0
220
0
230
1
100
AcDbArc
50
90
51
165
0
ARC
5
D4
100
AcDbEntity
8
1
62
256
6
ByLayer
370
18
48
1
60
0
100
AcDbCircle
39
0
10
24.578927
20
16.5
30
0
40
3.99999999999992
210
0
220
0
230
1
100
AcDbArc
50
195
51
270
0
ARC
5
D5
100
AcDbEntity
8
1
62
256
6
ByLayer
370
18
48
1
60
0
100
AcDbCircle
39
0
10
74.60814
20
17.164412
30
0
40
6.00000000000082
210
0
220
0
230
1
100
AcDbArc
50
231.023312
51
294.327747
0
ELLIPSE
5
D6
100
AcDbEntity
8
1
62
256
6
ByLayer
370
18
48
1
60
0
100
AcDbEllipse
10
46.757737
20
6.481452
30
0
11
-3.0075
21
3.03949695816021E-15
31
0
210
0
220
0
230
1
40
0.855068
41
0
42
6.28318530717959
0
ELLIPSE
5
D7
100
AcDbEntity
8
1
62
256
6
ByLayer
370
18
48
1
60
0
100
AcDbEllipse
10
78.752206
20
5.914426
30
0
11
-3.22668541909123
21
1.91075932713296
31
0
210
0
220
0
230
1
40
0.973019
41
2.89190305354789
42
-1.82048592683685
0
ELLIPSE
5
D8
100
AcDbEntity
8
1
62
256
6
ByLayer
370
18
48
1
60
0
100
AcDbEllipse
10
88.645422
20
15.145624
30
0
11
-0.602314611564606
21
0.356675074396876
31
0
210
0
220
0
230
1
40
0.973019
41
-2.69315055283595
42
-0.947821300842153
0
ELLIPSE
5
D9
100
AcDbEntity
8
1
62
256
6
ByLayer
370
18
48
1
60
0
100
AcDbEllipse
10
78.578948
20
5.743085
30
0
11
-3.01157305781679
21
1.78337537199325
31
0
210
0
220
0
230
1
40
0.973019
41
0
42
6.28318530717959
0
ELLIPSE
5
DA
100
AcDbEntity
8
1
62
256
6
ByLayer
370
18
48
1
60
0
100
AcDbEllipse
10
86.034213
20
5.06783
30
0
11
-0.688359556072359
21
0.407628656455743
31
0
210
0
220
0
230
1
40
0.973019
41
1.49563965195347
42
-3.0422164032318
0
ELLIPSE
5
DB
100
AcDbEntity
8
1
62
256
6
ByLayer
370
18
48
1
60
0
100
AcDbEllipse
10
78.578948
20
5.743085
30
0
11
-2.15112361272619
21
1.27383955142388
31
0
210
0
220
0
230
1
40
0.973019
41
0
42
6.28318530717959
0
ELLIPSE
5
DC
100
AcDbEntity
8
1
62
256
6
ByLayer
370
18
48
1
60
0
100
AcDbEllipse
10
84.896792
20
11.884057
30
0
11
-2.58134833527131
21
1.52860746170902
31
0
210
0
220
0
230
1
40
0.973019
41
1.32110672675402
42
2.57434262425737
0
ELLIPSE
5
DD
100
AcDbEntity
8
1
62
256
6
ByLayer
370
18
48
1
60
0
100
AcDbEllipse
10
84.932779
20
11.865658
30
0
11
-2.5813483352715
21
1.52860746170853
31
0
210
0
220
0
230
1
40
0.973019
41
0.125734008322171
42
2.51647944518551
0
ELLIPSE
5
DE
100
AcDbEntity
8
1
62
256
6
ByLayer
370
18
48
1
60
0
100
AcDbEllipse
10
84.375624
20
10.919999
30
0
11
-4.09573935854762
21
2.42539050598092
31
0
210
0
220
0
230
1
40
0.973019
41
-3.0422164032106
42
-2.69315055281041
0
ELLIPSE
5
DF
100
AcDbEntity
8
1
62
256
6
ByLayer
370
18
48
1
60
0
100
AcDbEllipse
10
83.999424
20
10.284712
30
0
11
-4.00969441365399
21
2.37443692437221
31
0
210
0
220
0
230
1
40
0.973019
41
-3.04221640308773
42
-2.69315055268348
0
ELLIPSE
5
E0
100
AcDbEntity
8
1
62
256
6
ByLayer
370
18
48
1
60
0
100
AcDbEllipse
10
84.896792
20
11.884057
30
0
11
-2.58134833526284
21
1.52860746172097
31
0
210
0
220
0
230
1
40
0.973019
41
0.0678708292553258
42
1.32110672675902
0
ELLIPSE
5
E1
100
AcDbEntity
8
1
62
256
6
ByLayer
370
18
48
1
60
0
100
AcDbEllipse
10
88.269222
20
14.510337
30
0
11
-0.602314611564606
21
0.356675074396876
31
0
210
0
220
0
230
1
40
0.973019
41
-2.69315055283595
42
-0.947821300842153
0
ELLIPSE
5
E2
100
AcDbEntity
8
1
62
256
6
ByLayer
370
18
48
1
60
0
100
AcDbEllipse
10
84.375624
20
10.919999
30
0
11
-4.00969441438946
21
2.37443692355297
31
0
210
0
220
0
230
1
40
0.973019
41
-3.04221640331528
42
-2.69315055291942
0
ELLIPSE
5
E3
100
AcDbEntity
8
1
62
256
6
ByLayer
370
18
48
1
60
0
100
AcDbEllipse
10
88.645422
20
15.145624
30
0
11
-0.688359556072377
21
0.407628656455658
31
0
210
0
220
0
230
1
40
0.973019
41
-2.69315055283306
42
-0.94782130083873
0
ELLIPSE
5
E4
100
AcDbEntity
8
1
62
256
6
ByLayer
370
18
48
1
60
0
100
AcDbEllipse
10
85.658012
20
4.432543
30
0
11
-0.602314611562854
21
0.356675074399689
31
0
210
0
220
0
230
1
40
0.973019
41
1.495639651955
42
-3.04221640323039
0
ELLIPSE
5
E5
100
AcDbEntity
8
1
62
256
6
ByLayer
370
18
48
1
60
0
100
AcDbEllipse
10
84.932779
20
11.865658
30
0
11
-2.10931451316375
21
1.24908128819935
31
0
210
0
220
0
230
1
40
0.973019
41
0
42
6.28318530717959
0
ELLIPSE
5
E6
100
AcDbEntity
8
1
62
256
6
ByLayer
370
18
48
1
60
0
100
AcDbEllipse
10
84.932095
20
11.868069
30
0
11
-4.09573935759809
21
2.42539050803586
31
0
210
0
220
0
230
1
40
0.973019
41
-0.947821300338985
42
-0.59875544994953
0
ELLIPSE
5
E7
100
AcDbEntity
8
1
62
256
6
ByLayer
370
18
48
1
60
0
100
AcDbEllipse
10
86.593811
20
6.01282
30
0
11
-0.688359556073167
21
0.407628656454148
31
0
210
0
220
0
230
1
40
0.973019
41
1.27177209236735
42
-3.04221640323395
0
ELLIPSE
5
E8
100
AcDbEntity
8
1
62
256
6
ByLayer
370
18
48
1
60
0
100
AcDbEllipse
10
86.034213
20
5.06783
30
0
11
-0.602314611563622
21
0.356675074398138
31
0
210
0
220
0
230
1
40
0.973019
41
1.49563965195242
42
-3.04221640323277
0
ELLIPSE
5
E9
100
AcDbEntity
8
1
62
256
6
ByLayer
370
18
48
1
60
0
100
AcDbEllipse
10
84.935222
20
11.864988
30
0
11
-4.09573935917102
21
2.42539050526843
31
0
210
0
220
0
230
1
40
0.973019
41
-3.04221640340245
42
-2.69315055300892
0
ELLIPSE
5
EA
100
AcDbEntity
8
1
62
256
6
ByLayer
370
18
48
1
60
0
100
AcDbEllipse
10
88.211275
20
5.399661
30
0
11
-8.21058333700248
21
-8.33524572318833
31
0
210
0
220
0
230
1
40
0.057013
41
-0.268597389273565
42
0.396977237540241
0
ELLIPSE
5
EB
100
AcDbEntity
8
1
62
256
6
ByLayer
370
18
48
1
60
0
100
AcDbEllipse
10
89.20502
20
16.090613
30
0
11
-0.688359556073008
21
0.407628656454724
31
0
210
0
220
0
230
1
40
0.973019
41
-2.69315055283438
42
-0.947821300840214
0
ELLIPSE
5
EC
100
AcDbEntity
8
1
62
256
6
ByLayer
370
18
48
1
60
0
100
AcDbEllipse
10
85.41431
20
5.045665
30
0
11
-0.324585257673385
21
-0.563155760433069
31
0
210
0
220
0
230
1
40
0.002794
41
-1.24911791545032
42
1.89086897910233
0
ELLIPSE
5
ED
100
AcDbEntity
8
1
62
256
6
ByLayer
370
18
48
1
60
0
100
AcDbEllipse
10
78.752206
20
5.914426
30
0
11
-3.22668541908706
21
1.91075932714017
31
0
210
0
220
0
230
1
40
0.973019
41
-1.82048592683454
42
-0.249689600039751
0
ELLIPSE
5
EE
100
AcDbEntity
8
1
62
256
6
ByLayer
370
18
48
1
60
0
100
AcDbEllipse
10
78.999507
20
13.493543
30
0
11
-0.688359556073051
21
0.407628656454674
31
0
210
0
220
0
230
1
40
0.973019
41
-0.59875545044127
42
1.14657380155296
0
ELLIPSE
5
EF
100
AcDbEntity
8
1
62
256
6
ByLayer
370
18
48
1
60
0
100
AcDbEllipse
10
85.10932
20
3.507504
30
0
11
-0.530646979210626
21
-1.93475958870017
31
0
210
0
220
0
230
1
40
0.062227
41
-3.09240067056291
42
-2.74333482021227
0
POINT
5
6C
100
AcDbEntity
8
81
62
256
6
ByLayer
370
18
48
1
60
0
100
AcDbPoint
10
90
20
16.875
30
0
39
0
210
0
220
0
230
1
50
360
0
POINT
5
6E
100
AcDbEntity
8
80
62
256
6
ByLayer
370
18
48
1
60
0
100
AcDbPoint
10
0
20
0
30
0
39
0
210
0
220
0
230
1
50
360
0
SPLINE
5
F0
100
AcDbEntity
8
1
62
256
6
ByLayer
370
18
48
1
60
0
100
AcDbSpline
70
4
71
3
72
30
73
26
40
0
40
0
40
0
40
0
40
0.0378820596626883
40
0.0378820596626883
40
0.116151013381865
40
0.116151013381865
40
0.194419967104423
40
0.194419967104423
40
0.263952113933528
40
0.263952113933528
40
0.333484260763766
40
0.333484260763766
40
0.456969633016112
40
0.456969633016112
40
0.538963932128984
40
0.538963932128984
40
0.620958231243243
40
0.620958231243243
40
0.694380350487509
40
0.694380350487509
40
0.767802469733534
40
0.767802469733534
40
0.897913275158328
40
0.897913275158328
40
1
40
1
40
1
40
1
41
1
10
86.1115320659492
20
8.03614624667948
30
0
41
1
10
86.0581671550766
20
8.02389440713752
30
0
41
1
10
86.00438348259
20
8.01264266424099
30
0
41
1
10
85.8373859231843
20
7.98105737757304
30
0
41
1
10
85.7260906049069
20
7.9646147895553
30
0
41
1
10
85.4999126266791
20
7.94026585666195
30
0
41
1
10
85.387204168123
20
7.93261195633613
30
0
41
1
10
85.1705463293308
20
7.92656842239117
30
0
41
1
10
85.0700194181116
20
7.92732359538299
30
0
41
1
10
84.8673874070097
20
7.93590851739712
30
0
41
1
10
84.7668270440488
20
7.94368465777207
30
0
41
1
10
84.4851175337907
20
7.97546672890171
30
0
41
1
10
84.3086304105223
20
8.00656953424992
30
0
41
1
10
84.0149237894508
20
8.07727380229054
30
0
41
1
10
83.8999372930203
20
8.11001557245493
30
0
41
1
10
83.671596200431
20
8.18522814473537
30
0
41
1
10
83.5602078280857
20
8.22698999083355
30
0
41
1
10
83.3481024835514
20
8.31666565053796
30
0
41
1
10
83.2515479196924
20
8.36176307191744
30
0
41
1
10
83.0597292216433
20
8.459962871962
30
0
41
1
10
82.966301957394
20
8.5121598509253
30
0
41
1
10
82.7094934507655
20
8.66829773589111
30
0
41
1
10
82.5544622544765
20
8.77692816642325
30
0
41
1
10
82.2875096811988
20
8.99102672502434
30
0
41
1
10
82.176824086459
20
9.08944580697625
30
0
41
1
10
82.0695817154537
20
9.19508425527626
30
0
0
SPLINE
5
F1
100
AcDbEntity
8
1
62
256
6
ByLayer
370
18
48
1
60
0
100
AcDbSpline
70
4
71
3
72
130
73
126
40
0
40
0
40
0
40
0
40
0.0081117137966135
40
0.0163347507916482
40
0.024544842634434
40
0.0327425675004258
40
0.0409285025611488
40
0.0491032238954091
40
0.0572673064006353
40
0.065421323704443
40
0.0735658480765181
40
0.0817014503409114
40
0.0898286997888358
40
0.0979481640920622
40
0.106060409217005
40
0.114165999339584
40
0.12226549676096
40
0.130359461824226
40
0.138448452832145
40
0.146533025966013
40
0.154613735205746
40
0.162691132251247
40
0.170765766445157
40
0.178838184697049
40
0.186908931409149
40
0.194978548403645
40
0.203047574851659
40
0.211116547203951
40
0.219185999123402
40
0.227256461419344
40
0.235328461983801
40
0.243402525729664
40
0.251479170260559
40
0.259558680584308
40
0.267641002877817
40
0.275726063499631
40
0.283813797381899
40
0.291904148372198
40
0.299997069575456
40
0.308092523695912
40
0.316190483379027
40
0.324290931553258
40
0.332393861771585
40
0.340499278552657
40
0.348607197721439
40
0.356717646749179
40
0.364830665092551
40
0.372946304531765
40
0.381064629507446
40
0.389185717456063
40
0.397309659143669
40
0.405436558997686
40
0.41356653543647
40
0.421699721196353
40
0.429836263655855
40
0.437976325156738
40
0.446120083321545
40
0.454267731367264
40
0.462419478414737
40
0.470575549793391
40
0.478736187340904
40
0.486901649697335
40
0.495072212593296
40
0.503248126132065
40
0.51142897871745
40
0.519613834428907
40
0.527801760707449
40
0.535991844801398
40
0.544183195162779
40
0.552374942865201
40
0.56056624304494
40
0.568756276366825
40
0.576944250516437
40
0.585129401720057
40
0.59331099629362
40
0.601488332221884
40
0.609660740768812
40
0.617827588120047
40
0.625988277058186
40
0.634142248671355
40
0.642288984095373
40
0.650428006289591
40
0.658558881846189
40
0.666681222832483
40
0.674794688665431
40
0.682898988017251
40
0.690993880750644
40
0.699079179881752
40
0.707154753568545
40
0.715220527121851
40
0.7232764850358
40
0.731322673033852
40
0.739359200126112
40
0.747386240672969
40
0.755404165669501
40
0.763414384624774
40
0.771418759745127
40
0.779419137176422
40
0.787417343334956
40
0.795415183822437
40
0.803414442386711
40
0.811416879931256
40
0.819424233576102
40
0.827438215772497
40
0.835460513473327
40
0.843492787360881
40
0.851536671133281
40
0.85959377085047
40
0.867665664340358
40
0.875753900665389
40
0.883859999649429
40
0.891985451464631
40
0.900131716277598
40
0.908300223953922
40
0.91649237381991
40
0.92470953448012
40
0.932953043689069
40
0.941224208275366
40
0.949524304116305
40
0.957854576160862
40
0.966216238498922
40
0.974610474474454
40
0.983038436840312
40
0.991501247952288
40
1
40
1
40
1
40
1
41
1
10
69.7219997868292
20
-7.75541452602959
30
0
41
1
10
69.6820312405695
20
-7.75106760106967
30
0
41
1
10
69.6015868973812
20
-7.74205007279069
30
0
41
1
10
69.4808318991438
20
-7.72768761088553
30
0
41
1
10
69.3597857995476
20
-7.71249576596163
30
0
41
1
10
69.2390593905615
20
-7.69653938463567
30
0
41
1
10
69.1186501234835
20
-7.67982428032897
30
0
41
1
10
68.9985552143214
20
-7.66235251812202
30
0
41
1
10
68.8787719419798
20
-7.64412716529738
30
0
41
1
10
68.7592975685339
20
-7.62515102121323
30
0
41
1
10
68.6401293605448
20
-7.60542695692415
30
0
41
1
10
68.5212645833576
20
-7.58495782435938
30
0
41
1
10
68.4027005026246
20
-7.56374648061193
30
0
41
1
10
68.2844343838954
20
-7.54179578144106
30
0
41
1
10
68.1664634927245
20
-7.51910858300939
30
0
41
1
10
68.0487850946409
20
-7.49568774141718
30
0
41
1
10
67.9313964551544
20
-7.47153611282572
30
0
41
1
10
67.8142948397517
20
-7.44665655342317
30
0
41
1
10
67.6974775138957
20
-7.42105191943233
30
0
41
1
10
67.5809417430243
20
-7.39472506710722
30
0
41
1
10
67.4646847925487
20
-7.36767885273274
30
0
41
1
10
67.3487039278528
20
-7.33991613262243
30
0
41
1
10
67.2329964142909
20
-7.31143976312051
30
0
41
1
10
67.117559517189
20
-7.28225260058848
30
0
41
1
10
67.0023905018362
20
-7.25235750144898
30
0
41
1
10
66.8874866335119
20
-7.22175732201588
30
0
41
1
10
66.7728451773788
20
-7.1904549191213
30
0
41
1
10
66.6584633988794
20
-7.15845314776974
30
0
41
1
10
66.5443385622509
20
-7.12575486988598
30
0
41
1
10
66.4304679360661
20
-7.09236292165669
30
0
41
1
10
66.3168487725459
20
-7.05828023543231
30
0
41
1
10
66.2034784047748
20
-7.02350939076475
30
0
41
1
10
66.090355029545
20
-6.98805464998539
30
0
41
1
10
65.9774804334889
20
-6.95191555605081
30
0
41
1
10
65.8648611522009
20
-6.91508149174931
30
0
41
1
10
65.7525051535932
20
-6.87754429071993
30
0
41
1
10
65.6404206217466
20
-6.83929531734319
30
0
41
1
10
65.5286157178687
20
-6.80032607290426
30
0
41
1
10
65.4170986093623
20
-6.76062802187489
30
0
41
1
10
65.3058774620358
20
-6.72019263848258
30
0
41
1
10
65.1949604421953
20
-6.67901139422469
30
0
41
1
10
65.0843557160877
20
-6.6370757612142
30
0
41
1
10
64.9740714500539
20
-6.59437721128155
30
0
41
1
10
64.8641158104923
20
-6.55090721621432
30
0
41
1
10
64.7544969638731
20
-6.50665724769217
30
0
41
1
10
64.6452230767393
20
-6.46161877730359
30
0
41
1
10
64.536302315711
20
-6.41578327654113
30
0
41
1
10
64.42774284749
20
-6.36914221680254
30
0
41
1
10
64.3195528388638
20
-6.32168706939072
30
0
41
1
10
64.2117404567097
20
-6.27340930551417
30
0
41
1
10
64.104313868
20
-6.22430039628786
30
0
41
1
10
63.9972812398061
20
-6.17435181273419
30
0
41
1
10
63.8906507393034
20
-6.12355502578419
30
0
41
1
10
63.7844305337771
20
-6.07190150627984
30
0
41
1
10
63.6786287906241
20
-6.01938272497404
30
0
41
1
10
63.5732536773685
20
-5.96599015254022
30
0
41
1
10
63.4683133616283
20
-5.91171525954843
30
0
41
1
10
63.3638160112648
20
-5.85654951656808
30
0
41
1
10
63.2597697938473
20
-5.8004843937996
30
0
41
1
10
63.1561828786782
20
-5.74351136246767
30
0
41
1
10
63.0530634292536
20
-5.68562188963695
30
0
41
1
10
62.9504196314481
20
-5.62680745759814
30
0
41
1
10
62.8482597674697
20
-5.56705959628834
30
0
41
1
10
62.7465954195369
20
-5.50637184334497
30
0
41
1
10
62.6454416793641
20
-5.44473993162904
30
0
41
1
10
62.5448176887973
20
-5.3821618133158
30
0
41
1
10
62.4447451613868
20
-5.31863697402018
30
0
41
1
10
62.3452458021737
20
-5.25416489403361
30
0
41
1
10
62.2463413352081
20
-5.18874506468735
30
0
41
1
10
62.1480534795245
20
-5.12237697378701
30
0
41
1
10
62.0504039555892
20
-5.05506010948436
30
0
41
1
10
61.9534144835838
20
-4.98679395920631
30
0
41
1
10
61.8571067838791
20
-4.91757800990809
30
0
41
1
10
61.7615025769257
20
-4.84741174797141
30
0
41
1
10
61.666623583305
20
-4.77629465919753
30
0
41
1
10
61.5724915237405
20
-4.70422622877528
30
0
41
1
10
61.4791281191237
20
-4.63120594125611
30
0
41
1
10
61.386555090541
20
-4.55723328052812
30
0
41
1
10
61.2947941593039
20
-4.48230772979142
30
0
41
1
10
61.2038670469839
20
-4.40642877153496
30
0
41
1
10
61.1137954754505
20
-4.32959588751468
30
0
41
1
10
61.0246011669132
20
-4.25180855873428
30
0
41
1
10
60.9363058439685
20
-4.17306626542789
30
0
41
1
10
60.8489312296494
20
-4.09336848704773
30
0
41
1
10
60.7624990474847
20
-4.01271470224888
30
0
41
1
10
60.6770310215431
20
-3.93110438890288
30
0
41
1
10
60.592548876554
20
-3.84853702402507
30
0
41
1
10
60.5090743377638
20
-3.76501208404767
30
0
41
1
10
60.4266291318001
20
-3.68052904383266
30
0
41
1
10
60.345234983797
20
-3.59508738041091
30
0
41
1
10
60.2649136284725
20
-3.50868655915
30
0
41
1
10
60.1856867692467
20
-3.42132608541939
30
0
41
1
10
60.1075762309378
20
-3.33300531230238
30
0
41
1
10
60.0306029782945
20
-3.24372367808928
30
0
41
1
10
59.9547862115949
20
-3.15347436988574
30
0
41
1
10
59.8801277082213
20
-3.06226164950303
30
0
41
1
10
59.8066210824189
20
-2.97008831202509
30
0
41
1
10
59.7342592734472
20
-2.87695433019897
30
0
41
1
10
59.6630349932209
20
-2.7828599481537
30
0
41
1
10
59.5929410111315
20
-2.68780533485787
30
0
41
1
10
59.5239700799105
20
-2.59179067937831
30
0
41
1
10
59.4561149554958
20
-2.49481616526899
30
0
41
1
10
59.3893683917297
20
-2.39688197733655
30
0
41
1
10
59.323723141807
20
-2.29798829973561
30
0
41
1
10
59.2591719579224
20
-2.1981353163927
30
0
41
1
10
59.1957075914062
20
-2.09732321081154
30
0
41
1
10
59.1333227927362
20
-1.99555216605037
30
0
41
1
10
59.0720103115876
20
-1.89282236465959
30
0
41
1
10
59.0117628968772
20
-1.78913398863707
30
0
41
1
10
58.9525732968131
20
-1.6844872193857
30
0
41
1
10
58.8944342589464
20
-1.57888223767773
30
0
41
1
10
58.8373385302243
20
-1.47231922362408
30
0
41
1
10
58.7812788570436
20
-1.36479835665142
30
0
41
1
10
58.7262479853107
20
-1.25631981547695
30
0
41
1
10
58.6722386604778
20
-1.14688377811844
30
0
41
1
10
58.6192436276676
20
-1.03649042179686
30
0
41
1
10
58.5672556314677
20
-0.92513992326635
30
0
41
1
10
58.5162674169535
20
-0.812832457564433
30
0
41
1
10
58.4662717261022
20
-0.699568202709198
30
0
41
1
10
58.417261311489
20
-0.58534732210525
30
0
41
1
10
58.36922888512
20
-0.470170030614561
30
0
41
1
10
58.322167310705
20
-0.354036346633606
30
0
41
1
10
58.2760688820628
20
-0.236947022887247
30
0
41
1
10
58.2309280327159
20
-0.1189000516395
30
0
41
1
10
58.2015269785883
20
-0.0397402518021686
30
0
41
1
10
58.1869862003883
20
5.33E-14
30
0
0
SPLINE
5
F2
100
AcDbEntity
8
1
62
256
6
ByLayer
370
18
48
1
60
0
100
AcDbSpline
70
4
71
3
72
110
73
106
40
0
40
0
40
0
40
0
40
0.0097404048643683
40
0.0194987596847223
40
0.0292720954152386
40
0.0390574339597233
40
0.0488518059411193
40
0.058652268388577
40
0.0684559224224239
40
0.0782599310151666
40
0.0880615369039986
40
0.0978580807270774
40
0.107647019452023
40
0.117425945160453
40
0.127192604246809
40
0.136944917083041
40
0.146681167563922
40
0.156421274749662
40
0.16617743671159
40
0.175947573855756
40
0.185729433210957
40
0.195520608648572
40
0.205318560618887
40
0.215120635458377
40
0.224924084329133
40
0.2347260818571
40
0.244523744540246
40
0.254314149001451
40
0.264094350163845
40
0.273861399428685
40
0.28361236293773
40
0.29335697159899
40
0.303129096907575
40
0.312912206287074
40
0.322705100989134
40
0.332506358663266
40
0.342314348722365
40
0.352127247320464
40
0.361943051940523
40
0.37175959559887
40
0.381574560680455
40
0.391385492425694
40
0.401189812095327
40
0.410984829844656
40
0.420767757342847
40
0.430528825290243
40
0.440253940878736
40
0.449987770404719
40
0.459730159232452
40
0.469480775907822
40
0.479239120255037
40
0.489004531368081
40
0.498776195475729
40
0.508553153663467
40
0.518334309439784
40
0.528118436138007
40
0.537904184148249
40
0.547690087976987
40
0.557474573134508
40
0.567255962852822
40
0.57703248463872
40
0.586802276668568
40
0.596563394033022
40
0.60631381484139
40
0.616051446196608
40
0.625768044068287
40
0.635467662098534
40
0.645173074335977
40
0.654884344063817
40
0.664601454194832
40
0.674324310072146
40
0.684052742257241
40
0.693786509299699
40
0.703525300483938
40
0.713268738548884
40
0.723016382377256
40
0.732767729651732
40
0.74252221947587
40
0.752279234958229
40
0.7620381057586
40
0.771798110595779
40
0.781558479716697
40
0.791318397327156
40
0.801077003984763
40
0.810833398954997
40
0.820586642531659
40
0.830335758323198
40
0.840079735506719
40
0.849817531051679
40
0.859548071915486
40
0.869270257213468
40
0.878982960365806
40
0.888685031224245
40
0.898385670575454
40
0.908091893673172
40
0.917803221958501
40
0.927519428595496
40
0.937240267246334
40
0.94696547285989
40
0.95669476245353
40
0.966427835888093
40
0.976164376636131
40
0.985904052543468
40
0.995646516584214
40
1
40
1
40
1
40
1
41
1
10
58.1869862003883
20
2.84E-14
30
0
41
1
10
58.1703948904413
20
0.0517335162680688
30
0
41
1
10
58.13819457187
20
0.155585757255025
30
0
41
1
10
58.0928966499738
20
0.312404187736703
30
0
41
1
10
58.050586550238
20
0.470254396579996
30
0
41
1
10
58.0112978804088
20
0.629013898621704
30
0
41
1
10
57.9750645240924
20
0.788548154006513
30
0
41
1
10
57.9419203030075
20
0.94872586093836
30
0
41
1
10
57.911899067801
20
1.10941485023917
30
0
41
1
10
57.8850346735155
20
1.27048318731741
30
0
41
1
10
57.8613609880388
20
1.43179887666385
30
0
41
1
10
57.840911885033
20
1.59322994153541
30
0
41
1
10
57.8237212668135
20
1.75464440115243
30
0
41
1
10
57.8098229839607
20
1.91591028179407
30
0
41
1
10
57.7992511383672
20
2.07689559398985
30
0
41
1
10
57.7920389174201
20
2.2374693398459
30
0
41
1
10
57.7882200940334
20
2.39761857897226
30
0
41
1
10
57.7878273028442
20
2.55740445449513
30
0
41
1
10
57.7908156313778
20
2.7168995904304
30
0
41
1
10
57.7971588235455
20
2.87605697360279
30
0
41
1
10
57.8068285720518
20
3.03475274325905
30
0
41
1
10
57.8197971891089
20
3.19286299776341
30
0
41
1
10
57.8360368369795
20
3.35026384127514
30
0
41
1
10
57.855519734078
20
3.50683137074287
30
0
41
1
10
57.8782180964099
20
3.66244168102727
30
0
41
1
10
57.9041041613311
20
3.81697085796449
30
0
41
1
10
57.9331501479622
20
3.97029500198374
30
0
41
1
10
57.9653283894021
20
4.12229014194057
30
0
41
1
10
58.0006108427
20
4.27283255721952
30
0
41
1
10
58.0389709134464
20
4.42179757879999
30
0
41
1
10
58.080394542682
20
4.56912765208948
30
0
41
1
10
58.1249495823691
20
4.71493203727431
30
0
41
1
10
58.1726129178105
20
4.85930018732538
30
0
41
1
10
58.2233436405801
20
5.00226987078269
30
0
41
1
10
58.2770555713596
20
5.14370102791032
30
0
41
1
10
58.3336839390111
20
5.28353284746771
30
0
41
1
10
58.3931650398829
20
5.42170383487557
30
0
41
1
10
58.4554348967148
20
5.55815267010981
30
0
41
1
10
58.5204296166242
20
5.69281797842224
30
0
41
1
10
58.588085296123
20
5.82563838842204
30
0
41
1
10
58.6583380374741
20
5.95655252991835
30
0
41
1
10
58.7311239736988
20
6.08549898566914
30
0
41
1
10
58.8063791482603
20
6.21241648808759
30
0
41
1
10
58.8840399674517
20
6.33724318345795
30
0
41
1
10
58.9640227143038
20
6.45989055355244
30
0
41
1
10
59.0462147978939
20
6.58021834978672
30
0
41
1
10
59.1306153162273
20
6.69831671540427
30
0
41
1
10
59.2172320251153
20
6.81432773963721
30
0
41
1
10
59.3061370367558
20
6.92842637460357
30
0
41
1
10
59.3972713860906
20
7.04061040020043
30
0
41
1
10
59.4905766922531
20
7.15087672342663
30
0
41
1
10
59.5859944246093
20
7.25922247969974
30
0
41
1
10
59.6834660989665
20
7.3656447372874
30
0
41
1
10
59.7829332242756
20
7.47014057658298
30
0
41
1
10
59.8843373163079
20
7.57270706890457
30
0
41
1
10
59.9876198934354
20
7.67334128226124
30
0
41
1
10
60.0927224771886
20
7.77204028009007
30
0
41
1
10
60.1995865918541
20
7.8688011213303
30
0
41
1
10
60.3081537633689
20
7.96362086234964
30
0
41
1
10
60.4183655222251
20
8.05649655025256
30
0
41
1
10
60.530163391271
20
8.14742524888563
30
0
41
1
10
60.6434889300987
20
8.23640394282436
30
0
41
1
10
60.7582835686142
20
8.32342989632101
30
0
41
1
10
60.8744892264938
20
8.40849931660808
30
0
41
1
10
60.9920215120343
20
8.49159501852058
30
0
41
1
10
61.1108269795969
20
8.57270436742726
30
0
41
1
10
61.2309251134962
20
8.65194942184479
30
0
41
1
10
61.352380189809
20
8.72943473421359
30
0
41
1
10
61.4752507978495
20
8.80523925713792
30
0
41
1
10
61.5995008960978
20
8.87938271871217
30
0
41
1
10
61.7250947974858
20
8.95188421501988
30
0
41
1
10
61.8519967216965
20
9.02276300964168
30
0
41
1
10
61.9801709150678
20
9.09203831924706
30
0
41
1
10
62.10958161828
20
9.15972937111972
30
0
41
1
10
62.2401930748746
20
9.22585538776418
30
0
41
1
10
62.371969528834
20
9.29043559107636
30
0
41
1
10
62.5048752251036
20
9.35348920127461
30
0
41
1
10
62.6388744093358
20
9.41503543724156
30
0
41
1
10
62.7739313278524
20
9.47509351649212
30
0
41
1
10
62.910010227558
20
9.53368265524514
30
0
41
1
10
63.0470753558765
20
9.59082206846912
30
0
41
1
10
63.1850909606893
20
9.64653096993937
30
0
41
1
10
63.324021290288
20
9.70082857228116
30
0
41
1
10
63.46383059331
20
9.75373408706102
30
0
41
1
10
63.6044831187652
20
9.80526672469952
30
0
41
1
10
63.7459431157588
20
9.85544569504721
30
0
41
1
10
63.8881748343717
20
9.90429020548353
30
0
41
1
10
64.0311425222524
20
9.95181946824794
30
0
41
1
10
64.1748104372285
20
9.99805267333791
30
0
41
1
10
64.3191428002128
20
10.0430090897817
30
0
41
1
10
64.464103970706
20
10.0867076883421
30
0
41
1
10
64.609657792657
20
10.1291685479391
30
0
41
1
10
64.7558221032331
20
10.1704223116211
30
0
41
1
10
64.9026500886152
20
10.2105244899533
30
0
41
1
10
65.0501911348537
20
10.2495351451954
30
0
41
1
10
65.1984621830835
20
10.287470138783
30
0
41
1
10
65.3474402277967
20
10.3243431964425
30
0
41
1
10
65.4971046072052
20
10.3601663326756
30
0
41
1
10
65.6474343991476
20
10.3949521191996
30
0
41
1
10
65.7984087576286
20
10.428712974402
30
0
41
1
10
65.9500067932224
20
10.4614613708419
30
0
41
1
10
66.1022077147012
20
10.4932097162837
30
0
41
1
10
66.2549903819086
20
10.5239706221138
30
0
41
1
10
66.3800480195299
20
10.5482615539463
30
0
41
1
10
66.4541788643528
20
10.5622890369431
30
0
41
1
10
66.4770907807698
20
10.5665889359443
30
0
0
SPLINE
5
F3
100
AcDbEntity
8
1
62
256
6
ByLayer
370
18
48
1
60
0
100
AcDbSpline
70
4
71
3
72
40
73
36
40
0
40
0
40
0
40
0
40
0.0080851618932315
40
0.0390825005840677
40
0.0700798392749046
40
0.101077177965741
40
0.132074516656577
40
0.163071855347414
40
0.19406919403825
40
0.225066532729087
40
0.256063871419924
40
0.28706121011076
40
0.318058548801597
40
0.349055887492433
40
0.380053226183269
40
0.411050564874106
40
0.442047903564942
40
0.473045242255779
40
0.504042580946615
40
0.535039919637452
40
0.566037258328289
40
0.597034597019125
40
0.628031935709962
40
0.659029274400798
40
0.690026613091634
40
0.721023951782471
40
0.752021290473308
40
0.783018629164144
40
0.814015967854981
40
0.845013306545817
40
0.876010645236654
40
0.90700798392749
40
0.938005322618326
40
0.969002661309164
40
1
40
1
40
1
40
1
41
1
10
74.9265251836318
20
-8.28028504657911
30
0
41
1
10
74.9124987068283
20
-8.2788704922019
30
0
41
1
10
74.8446967512081
20
-8.27203274139324
30
0
41
1
10
74.7231193167715
20
-8.25977179415316
30
0
41
1
10
74.5617928803217
20
-8.24350220485886
30
0
41
1
10
74.4004664438719
20
-8.22723261556455
30
0
41
1
10
74.2391400074222
20
-8.21096302627024
30
0
41
1
10
74.0778135709725
20
-8.19469343697592
30
0
41
1
10
73.9164871345227
20
-8.17842384768161
30
0
41
1
10
73.7551606980729
20
-8.16215425838731
30
0
41
1
10
73.5938342616232
20
-8.145884669093
30
0
41
1
10
73.4325078251734
20
-8.12961507979869
30
0
41
1
10
73.2711813887237
20
-8.11334549050439
30
0
41
1
10
73.1098549522739
20
-8.09707590121007
30
0
41
1
10
72.9485285158242
20
-8.08080631191577
30
0
41
1
10
72.7872020793744
20
-8.06453672262145
30
0
41
1
10
72.6258756429247
20
-8.04826713332715
30
0
41
1
10
72.4645492064749
20
-8.03199754403284
30
0
41
1
10
72.3032227700252
20
-8.01572795473852
30
0
41
1
10
72.1418963335754
20
-7.99945836544423
30
0
41
1
10
71.9805698971257
20
-7.98318877614991
30
0
41
1
10
71.8192434606759
20
-7.9669191868556
30
0
41
1
10
71.6579170242262
20
-7.95064959756128
30
0
41
1
10
71.4965905877764
20
-7.93438000826698
30
0
41
1
10
71.3352641513267
20
-7.91811041897267
30
0
41
1
10
71.1739377148769
20
-7.90184082967836
30
0
41
1
10
71.0126112784272
20
-7.88557124038406
30
0
41
1
10
70.8512848419774
20
-7.86930165108974
30
0
41
1
10
70.6899584055277
20
-7.85303206179544
30
0
41
1
10
70.5286319690779
20
-7.83676247250112
30
0
41
1
10
70.3673055326282
20
-7.82049288320682
30
0
41
1
10
70.2059790961784
20
-7.8042232939125
30
0
41
1
10
70.0446526597287
20
-7.7879537046182
30
0
41
1
10
69.8833262232789
20
-7.77168411532389
30
0
41
1
10
69.7757752656457
20
-7.76083772246102
30
0
41
1
10
69.7219997868292
20
-7.75541452602958
30
0
0
SPLINE
5
F4
100
AcDbEntity
8
1
62
256
6
ByLayer
370
18
48
1
60
0
100
AcDbSpline
70
4
71
3
72
9
73
5
40
0
40
0
40
0
40
0
40
0.505050505050505
40
1
40
1
40
1
40
1
41
1
10
9.0767949192431
20
-5.85996421168225
30
0
41
1
10
8.71423770737675
20
-5.85996421168225
30
0
41
1
10
7.99637442788134
20
-5.85996421157612
30
0
41
1
10
7.27851114838592
20
-5.85996421168225
30
0
41
1
10
6.92320508075687
20
-5.85996421168225
30
0
0
SPLINE
5
F5
100
AcDbEntity
8
1
62
256
6
ByLayer
370
18
48
1
60
0
100
AcDbSpline
70
4
71
3
72
9
73
5
40
0
40
0
40
0
40
0
40
0.494949494949495
40
1
40
1
40
1
40
1
41
1
10
6.92320508075687
20
-19.1222597889947
30
0
41
1
10
7.27851114838592
20
-19.1222597889947
30
0
41
1
10
7.99637442788134
20
-19.1222597901563
30
0
41
1
10
8.7142377073767
20
-19.1222597889947
30
0
41
1
10
9.07679491924307
20
-19.1222597889947
30
0
0
SPLINE
5
F6
100
AcDbEntity
8
1
62
256
6
ByLayer
370
18
48
1
60
0
100
AcDbSpline
70
4
71
3
72
12
73
8
40
0
40
0
40
0
40
0
40
0.48557129858128
40
0.48557129858128
40
0.936402085205193
40
0.936402085205193
40
1
40
1
40
1
40
1
41
1
10
9.33660254037846
20
6.16980639330487
30
0
41
1
10
9.35456651699917
20
6.23492859639201
30
0
41
1
10
9.29375666287368
20
6.03987724384561
30
0
41
1
10
9.22189536050024
20
5.92914516396302
30
0
41
1
10
9.16894029016481
20
5.87474700467881
30
0
41
1
10
9.09537819879927
20
5.86084605005277
30
0
41
1
10
9.0860652092108
20
5.85996421168223
30
0
41
1
10
9.07679491924313
20
5.85996421168223
30
0
0
SPLINE
5
F7
100
AcDbEntity
8
1
62
256
6
ByLayer
370
18
48
1
60
0
100
AcDbSpline
70
4
71
3
72
12
73
8
40
0
40
0
40
0
40
0
40
0.485571298590726
40
0.485571298590726
40
0.936402085205378
40
0.936402085205378
40
1
40
1
40
1
40
1
41
1
10
6.66339745962154
20
-6.16980639336088
30
0
41
1
10
6.68136143624474
20
-6.10468419026447
30
0
41
1
10
6.70624333711118
20
-6.03987724387552
30
0
41
1
10
6.77810463948754
20
-5.92914516397579
30
0
41
1
10
6.83105970982552
20
-5.87474700468212
30
0
41
1
10
6.90462180119849
20
-5.86084605005301
30
0
41
1
10
6.91393479078806
20
-5.85996421168225
30
0
41
1
10
6.92320508075687
20
-5.85996421168225
30
0
0
SPLINE
5
F8
100
AcDbEntity
8
1
62
256
6
ByLayer
370
18
48
1
60
0
100
AcDbSpline
70
4
71
3
72
30
73
26
40
0
40
0
40
0
40
0
40
0.0378820596626883
40
0.0378820596626883
40
0.116151013381865
40
0.116151013381865
40
0.194419967104423
40
0.194419967104423
40
0.263952113933528
40
0.263952113933528
40
0.333484260763766
40
0.333484260763766
40
0.456969633016112
40
0.456969633016112
40
0.538963932128984
40
0.538963932128984
40
0.620958231243243
40
0.620958231243243
40
0.694380350487509
40
0.694380350487509
40
0.767802469733534
40
0.767802469733534
40
0.897913275158328
40
0.897913275158328
40
1
40
1
40
1
40
1
41
1
10
80.8874037872786
20
13.1821421800555
30
0
41
1
10
80.8750955289193
20
13.1294477335174
30
0
41
1
10
80.8638013769255
20
13.0763419456964
30
0
41
1
10
80.8321285919678
20
12.9114558092316
30
0
41
1
10
80.8156884330977
20
12.8015767207047
30
0
41
1
10
80.7914639629957
20
12.5782947072839
30
0
41
1
10
80.7839311422392
20
12.46703818169
30
0
41
1
10
80.778234652937
20
12.2531884476166
30
0
41
1
10
80.779197775657
20
12.1539714771099
30
0
41
1
10
80.7882949743397
20
11.953993822861
30
0
41
1
10
80.7963716924442
20
11.8547576642349
30
0
41
1
10
80.8291276116724
20
11.5767774678624
30
0
41
1
10
80.8609880681055
20
11.402648751188
30
0
41
1
10
80.9332029506682
20
11.1129042574085
30
0
41
1
10
80.9666028503179
20
10.9994789064639
30
0
41
1
10
81.043256731789
20
10.774258026024
30
0
41
1
10
81.0857885383548
20
10.6644017317379
30
0
41
1
10
81.1770642065409
20
10.4552337615688
30
0
41
1
10
81.2229463474365
20
10.3600247692595
30
0
41
1
10
81.3228185796487
20
10.1708961843836
30
0
41
1
10
81.3758877169475
20
10.0787877699096
30
0
41
1
10
81.5345898719887
20
9.82562939315136
30
0
41
1
10
81.6449577934878
20
9.67283002946595
30
0
41
1
10
81.8624047358982
20
9.40977377775392
30
0
41
1
10
81.9623393444484
20
9.30072270357628
30
0
41
1
10
82.0695817154537
20
9.19508425527627
30
0
0
SPLINE
5
F9
100
AcDbEntity
8
1
62
256
6
ByLayer
370
18
48
1
60
0
100
AcDbSpline
70
4
71
3
72
16
73
12
40
0
40
0
40
0
40
0
40
0.0463492595373783
40
0.0463492595373783
40
0.29272440709006
40
0.29272440709006
40
0.624973152517318
40
0.624973152517318
40
0.880915511168991
40
0.880915511168991
40
1
40
1
40
1
40
1
41
1
10
6.66339745962154
20
-6.16980639336088
30
0
41
1
10
6.73800822761629
20
-5.89933078050228
30
0
41
1
10
6.51709918401397
20
-6.70968927922734
30
0
41
1
10
6.08353203432034
20
-8.40152698944124
30
0
41
1
10
5.80308950801754
20
-9.79605700675115
30
0
41
1
10
5.3894889633554
20
-12.830854303
30
0
41
1
10
5.33963545766466
20
-14.429932300597
30
0
41
1
10
5.59601990931219
20
-16.7288187252401
30
0
41
1
10
5.82325234672976
20
-17.5748263953976
30
0
41
1
10
6.29903323852955
20
-18.5335902214347
30
0
41
1
10
6.47171096722607
20
-18.7992227994875
30
0
41
1
10
6.66340887413665
20
-19.024590460553
30
0
0
SPLINE
5
FA
100
AcDbEntity
8
1
62
256
6
ByLayer
370
18
48
1
60
0
100
AcDbSpline
70
4
71
3
72
9
73
5
40
0
40
0
40
0
40
0
40
0.505050505050505
40
1
40
1
40
1
40
1
41
1
10
9.07679491924313
20
5.85996421168223
30
0
41
1
10
8.71423770737675
20
5.85996421168223
30
0
41
1
10
7.99637442788134
20
5.85996421157609
30
0
41
1
10
7.27851114838592
20
5.85996421168223
30
0
41
1
10
6.9232050807569
20
5.85996421168223
30
0
0
SPLINE
5
FB
100
AcDbEntity
8
1
62
256
6
ByLayer
370
18
48
1
60
0
100
AcDbSpline
70
4
71
3
72
9
73
5
40
0
40
0
40
0
40
0
40
0.494949494949495
40
1
40
1
40
1
40
1
41
1
10
6.92320508075693
20
19.1222597889947
30
0
41
1
10
7.27851114838597
20
19.1222597889947
30
0
41
1
10
7.99637442788136
20
19.1222597901563
30
0
41
1
10
8.71423770737675
20
19.1222597889947
30
0
41
1
10
9.07679491924313
20
19.1222597889947
30
0
0
SPLINE
5
FC
100
AcDbEntity
8
1
62
256
6
ByLayer
370
18
48
1
60
0
100
AcDbSpline
70
4
71
3
72
12
73
8
40
0
40
0
40
0
40
0
40
0.485571298590726
40
0.485571298590726
40
0.936402085205378
40
0.936402085205378
40
1
40
1
40
1
40
1
41
1
10
6.66339745962156
20
6.16980639336085
30
0
41
1
10
6.68136143624474
20
6.10468419026445
30
0
41
1
10
6.70624333711118
20
6.0398772438755
30
0
41
1
10
6.77810463948757
20
5.92914516397577
30
0
41
1
10
6.83105970982552
20
5.8747470046821
30
0
41
1
10
6.90462180119852
20
5.86084605005298
30
0
41
1
10
6.91393479078809
20
5.85996421168223
30
0
41
1
10
6.9232050807569
20
5.85996421168223
30
0
0
SPLINE
5
FD
100
AcDbEntity
8
1
62
256
6
ByLayer
370
18
48
1
60
0
100
AcDbSpline
70
4
71
3
72
14
73
10
40
0
40
0
40
0
40
0
40
0.197972797234751
40
0.197972797234751
40
0.519709382526681
40
0.519709382526681
40
0.844463780411799
40
0.844463780411799
40
1
40
1
40
1
40
1
41
1
10
86.2746717747164
20
9.24528361983368
30
0
41
1
10
86.2696015703993
20
9.16205860379103
30
0
41
1
10
86.2631327469083
20
9.07971593780452
30
0
41
1
10
86.2429587804431
20
8.86528667084814
30
0
41
1
10
86.2272789538444
20
8.73444569486502
30
0
41
1
10
86.1906042855827
20
8.47472152120478
30
0
41
1
10
86.1695560738377
20
8.34587027931061
30
0
41
1
10
86.1352250021923
20
8.15733392140916
30
0
41
1
10
86.1236127480569
20
8.09661569928411
30
0
41
1
10
86.1115381810026
20
8.03616873197486
30
0
0
SPLINE
5
FE
100
AcDbEntity
8
1
62
256
6
ByLayer
370
18
48
1
60
0
100
AcDbSpline
70
4
71
3
72
12
73
8
40
0
40
0
40
0
40
0
40
0.485571298585116
40
0.485571298585116
40
0.936402085205247
40
0.936402085205247
40
1
40
1
40
1
40
1
41
1
10
6.66339745962154
20
-19.0245496416828
30
0
41
1
10
6.64543348299981
20
-19.0034300150664
30
0
41
1
10
6.70624333712013
20
-19.0662952264088
30
0
41
1
10
6.77810463949476
20
-19.1010070064654
30
0
41
1
10
6.83105970983121
20
-19.1177302439753
30
0
41
1
10
6.9046218011998
20
-19.1219922204584
30
0
41
1
10
6.91393479078872
20
-19.1222597889947
30
0
41
1
10
6.92320508075687
20
-19.1222597889947
30
0
0
SPLINE
5
FF
100
AcDbEntity
8
1
62
256
6
ByLayer
370
18
48
1
60
0
100
AcDbSpline
70
4
71
3
72
14
73
10
40
0
40
0
40
0
40
0
40
0.197972797234751
40
0.197972797234751
40
0.519709382526681
40
0.519709382526681
40
0.844463780411799
40
0.844463780411799
40
1
40
1
40
1
40
1
41
1
10
82.2205160942103
20
13.2388051285486
30
0
41
1
10
82.1292254729499
20
13.2405110122267
30
0
41
1
10
82.0387924054529
20
13.2408768164683
30
0
41
1
10
81.8030420569058
20
13.2387997595553
30
0
41
1
10
81.6589353777571
20
13.2344648771642
30
0
41
1
10
81.3724567986714
20
13.2208085335169
30
0
41
1
10
81.2301157501395
20
13.2114360661777
30
0
41
1
10
81.02157263842
20
13.1945062236496
30
0
41
1
10
80.9543690100696
20
13.1885479481379
30
0
41
1
10
80.8874265569687
20
13.1821482598018
30
0
0
SPLINE
5
100
100
AcDbEntity
8
1
62
256
6
ByLayer
370
18
48
1
60
0
100
AcDbSpline
70
4
71
3
72
12
73
8
40
0
40
0
40
0
40
0
40
0.485571298585116
40
0.485571298585116
40
0.936402085205247
40
0.936402085205247
40
1
40
1
40
1
40
1
41
1
10
6.66339745962159
20
19.0245496416828
30
0
41
1
10
6.64543348299986
20
19.0034300150663
30
0
41
1
10
6.70624333712018
20
19.0662952264088
30
0
41
1
10
6.77810463949481
20
19.1010070064654
30
0
41
1
10
6.83105970983127
20
19.1177302439753
30
0
41
1
10
6.90462180119985
20
19.1219922204584
30
0
41
1
10
6.91393479078877
20
19.1222597889947
30
0
41
1
10
6.92320508075693
20
19.1222597889947
30
0
0
SPLINE
5
101
100
AcDbEntity
8
1
62
256
6
ByLayer
370
18
48
1
60
0
100
AcDbSpline
70
4
71
3
72
16
73
12
40
0
40
0
40
0
40
0
40
0.0463470189311361
40
0.0463470189311361
40
0.292714190516279
40
0.292714190516279
40
0.624961574752601
40
0.624961574752601
40
0.880903213804346
40
0.880903213804346
40
1
40
1
40
1
40
1
41
1
10
9.33660254037844
20
-6.16980639214681
30
0
41
1
10
9.41120970705356
20
-6.44026894963471
30
0
41
1
10
9.48289389445296
20
-6.70966326688877
30
0
41
1
10
9.91644779893528
20
-8.40144293988241
30
0
41
1
10
10.1968857470654
20
-9.79592967066935
30
0
41
1
10
10.6104994244177
20
-12.8306959686099
30
0
41
1
10
10.6603659269753
20
-14.4297824024
30
0
41
1
10
10.4040057931725
20
-16.7286941568393
30
0
41
1
10
10.1767842109767
20
-17.5747161700864
30
0
41
1
10
9.7010024823461
20
-18.5335352447912
30
0
41
1
10
9.52830884327841
20
-18.7991995076926
30
0
41
1
10
9.33659112649156
20
-19.0245904583064
30
0
0
SPLINE
5
102
100
AcDbEntity
8
1
62
256
6
ByLayer
370
18
48
1
60
0
100
AcDbSpline
70
4
71
3
72
12
73
8
40
0
40
0
40
0
40
0
40
0.48557129858128
40
0.48557129858128
40
0.936402085205193
40
0.936402085205193
40
1
40
1
40
1
40
1
41
1
10
9.33660254037844
20
-6.1698063933049
30
0
41
1
10
9.35456651699914
20
-6.23492859639204
30
0
41
1
10
9.29375666287365
20
-6.03987724384564
30
0
41
1
10
9.22189536050024
20
-5.92914516396306
30
0
41
1
10
9.16894029016481
20
-5.87474700467884
30
0
41
1
10
9.09537819879924
20
-5.8608460500528
30
0
41
1
10
9.0860652092108
20
-5.85996421168225
30
0
41
1
10
9.0767949192431
20
-5.85996421168225
30
0
0
SPLINE
5
103
100
AcDbEntity
8
1
62
256
6
ByLayer
370
18
48
1
60
0
100
AcDbSpline
70
4
71
3
72
16
73
12
40
0
40
0
40
0
40
0
40
0.0463492595373783
40
0.0463492595373783
40
0.29272440709006
40
0.29272440709006
40
0.624973152517318
40
0.624973152517318
40
0.880915511168991
40
0.880915511168991
40
1
40
1
40
1
40
1
41
1
10
6.66339745962156
20
6.16980639336085
30
0
41
1
10
6.73800822761632
20
5.89933078050226
30
0
41
1
10
6.517099184014
20
6.70968927922731
30
0
41
1
10
6.0835320343204
20
8.40152698944122
30
0
41
1
10
5.80308950801759
20
9.79605700675113
30
0
41
1
10
5.38948896335546
20
12.830854303
30
0
41
1
10
5.33963545766468
20
14.429932300597
30
0
41
1
10
5.59601990931225
20
16.7288187252401
30
0
41
1
10
5.82325234672982
20
17.5748263953976
30
0
41
1
10
6.2990332385296
20
18.5335902214347
30
0
41
1
10
6.47171096722613
20
18.7992227994875
30
0
41
1
10
6.66340887413671
20
19.024590460553
30
0
0
SPLINE
5
104
100
AcDbEntity
8
1
62
256
6
ByLayer
370
18
48
1
60
0
100
AcDbSpline
70
4
71
3
72
16
73
12
40
0
40
0
40
0
40
0
40
0.0463470189311361
40
0.0463470189311361
40
0.292714190516279
40
0.292714190516279
40
0.624961574752601
40
0.624961574752601
40
0.880903213804346
40
0.880903213804346
40
1
40
1
40
1
40
1
41
1
10
9.33660254037846
20
6.16980639214678
30
0
41
1
10
9.41120970705359
20
6.44026894963468
30
0
41
1
10
9.48289389445296
20
6.70966326688874
30
0
41
1
10
9.91644779893528
20
8.40144293988238
30
0
41
1
10
10.1968857470654
20
9.79592967066932
30
0
41
1
10
10.6104994244177
20
12.8306959686098
30
0
41
1
10
10.6603659269754
20
14.4297824024
30
0
41
1
10
10.4040057931725
20
16.7286941568393
30
0
41
1
10
10.1767842109767
20
17.5747161700864
30
0
41
1
10
9.70100248234615
20
18.5335352447912
30
0
41
1
10
9.52830884327847
20
18.7991995076926
30
0
41
1
10
9.33659112649158
20
19.0245904583064
30
0
0
SPLINE
5
105
100
AcDbEntity
8
1
62
256
6
ByLayer
370
18
48
1
60
0
100
AcDbSpline
70
4
71
3
72
12
73
8
40
0
40
0
40
0
40
0
40
0.485571298590738
40
0.485571298590738
40
0.936402085205416
40
0.936402085205416
40
1
40
1
40
1
40
1
41
1
10
9.33660254037841
20
-19.024549641672
30
0
41
1
10
9.31863856375526
20
-19.0456692682904
30
0
41
1
10
9.29375666288877
20
-19.0662952264033
30
0
41
1
10
9.22189536051241
20
-19.1010070064631
30
0
41
1
10
9.16894029017442
20
-19.1177302439747
30
0
41
1
10
9.09537819880146
20
-19.1219922204584
30
0
41
1
10
9.08606520921188
20
-19.1222597889947
30
0
41
1
10
9.07679491924307
20
-19.1222597889947
30
0
0
SPLINE
5
106
100
AcDbEntity
8
1
62
256
6
ByLayer
370
18
48
1
60
0
100
AcDbSpline
70
4
71
3
72
12
73
8
40
0
40
0
40
0
40
0
40
0.485571298590738
40
0.485571298590738
40
0.936402085205416
40
0.936402085205416
40
1
40
1
40
1
40
1
41
1
10
9.33660254037846
20
19.024549641672
30
0
41
1
10
9.31863856375529
20
19.0456692682903
30
0
41
1
10
9.29375666288882
20
19.0662952264032
30
0
41
1
10
9.22189536051246
20
19.1010070064631
30
0
41
1
10
9.16894029017448
20
19.1177302439747
30
0
41
1
10
9.09537819880151
20
19.1219922204583
30
0
41
1
10
9.08606520921194
20
19.1222597889947
30
0
41
1
10
9.07679491924313
20
19.1222597889947
30
0
0
SPLINE
5
107
100
AcDbEntity
8
1
62
256
6
ByLayer
370
18
48
1
60
0
100
AcDbSpline
70
4
71
1
72
4
73
2
40
0
40
0
40
1
40
1
41
1
10
86.2603088904739
20
4.07583806420131
30
0
41
1
10
86.6365092663353
20
4.7111249107492
30
0
0
SPLINE
5
108
100
AcDbEntity
8
1
62
256
6
ByLayer
370
18
48
1
60
0
100
AcDbSpline
70
4
71
1
72
4
73
2
40
0
40
0
40
1
40
1
41
1
10
86.7225723225021
20
4.66020191187473
30
0
41
1
10
87.2821223427084
20
5.60510998464243
30
0
0
SPLINE
5
109
100
AcDbEntity
8
1
62
256
6
ByLayer
370
18
48
1
60
0
100
AcDbSpline
70
4
71
4
72
14
73
9
40
0
40
0
40
0
40
0
40
0
40
0.5
40
0.5
40
0.5
40
0.5
40
1
40
1
40
1
40
1
40
1
41
0.278843689197582
10
85.5870157334739
20
4.43054134715652
30
0
41
0.249224389705199
10
85.7422589262363
20
4.32255081828216
30
0
41
0.241419583993874
10
85.9029056426552
20
4.27601548520111
30
0
41
0.249224389705199
10
86.0689913484945
20
4.26227865482516
30
0
41
0.278843689197582
10
86.2497715940702
20
4.3082831112402
30
0
41
0.249224389705198
10
86.430551839646
20
4.35428756765524
30
0
41
0.241419583993875
10
86.5669919848401
20
4.44501033907779
30
0
41
0.249224389705199
10
86.6813633787733
20
4.56153151951035
30
0
41
0.278843689197582
10
86.7585267898753
20
4.72866423753262
30
0
0
SPLINE
5
10A
100
AcDbEntity
8
1
62
256
6
ByLayer
370
18
48
1
60
0
100
AcDbSpline
70
4
71
4
72
10
73
5
40
0
40
0
40
0
40
0
40
0
40
1
40
1
40
1
40
1
40
1
41
0.253841780070716
10
88.6143445708467
20
9.83659763680424
30
0
41
0.24998535305206
10
88.5840622503672
20
9.43587623337141
30
0
41
0.248738935907015
10
88.5070639458154
20
9.04797207538525
30
0
41
0.24998535305206
10
88.3861669757584
20
8.67211218836415
30
0
41
0.253841780070716
10
88.2185540216291
20
8.30906954678973
30
0
0
SPLINE
5
10B
100
AcDbEntity
8
1
62
256
6
ByLayer
370
18
48
1
60
0
100
AcDbSpline
70
4
71
1
72
4
73
2
40
0
40
0
40
1
40
1
41
1
10
86.7585267898753
20
4.72866423753262
30
0
41
1
10
87.318124848969
20
5.67365342177245
30
0
0
SPLINE
5
10C
100
AcDbEntity
8
1
62
256
6
ByLayer
370
18
48
1
60
0
100
AcDbSpline
70
4
71
1
72
4
73
2
40
0
40
0
40
1
40
1
41
0.253841780070716
10
88.2185540216291
20
8.30906954678973
30
0
41
0.253841780070716
10
88.5947543974904
20
8.94435639333753
30
0
0
SPLINE
5
10D
100
AcDbEntity
8
1
62
256
6
ByLayer
370
18
48
1
60
0
100
AcDbSpline
70
4
71
1
72
4
73
2
40
0
40
0
40
1
40
1
41
1
10
88.9905449467081
20
10.471884483352
30
0
41
1
10
88.6143445708467
20
9.83659763680423
30
0
0
SPLINE
5
10E
100
AcDbEntity
8
1
62
256
6
ByLayer
370
18
48
1
60
0
100
AcDbSpline
70
4
71
1
72
4
73
2
40
0
40
0
40
1
40
1
41
0.253841780070716
10
88.990544946708
20
10.471884483352
30
0
41
0.253841780070716
10
88.6143445708467
20
9.83659763680424
30
0
0
SPLINE
5
10F
100
AcDbEntity
8
1
62
256
6
ByLayer
370
18
48
1
60
0
100
AcDbSpline
70
4
71
1
72
4
73
2
40
0
40
0
40
1
40
1
41
1
10
88.962449956708
20
14.443023979163
30
0
41
1
10
89.3386503325693
20
15.0783108257108
30
0
0
SPLINE
5
110
100
AcDbEntity
8
1
62
256
6
ByLayer
370
18
48
1
60
0
100
AcDbSpline
70
4
71
1
72
4
73
2
40
0
40
0
40
1
40
1
41
1
10
88.6852936673302
20
8.90196063054199
30
0
41
1
10
86.7585267898753
20
4.72866423753262
30
0
0
SPLINE
5
111
100
AcDbEntity
8
1
62
256
6
ByLayer
370
18
48
1
60
0
100
AcDbSpline
70
4
71
1
72
4
73
2
40
0
40
0
40
1
40
1
41
1
10
88.5947543974904
20
8.9443563933375
30
0
41
1
10
88.2185540216291
20
8.3090695467897
30
0
0
SPLINE
5
112
100
AcDbEntity
8
1
62
256
6
ByLayer
370
18
48
1
60
0
100
AcDbSpline
70
4
71
1
72
4
73
2
40
0
40
0
40
1
40
1
41
1
10
88.6143445708467
20
9.83659763680423
30
0
41
1
10
88.962449956708
20
14.443023979163
30
0
0
SPLINE
5
113
100
AcDbEntity
8
1
62
256
6
ByLayer
370
18
48
1
60
0
100
AcDbSpline
70
4
71
1
72
4
73
2
40
0
40
0
40
1
40
1
41
1
10
89.2448917264239
20
9.84694981478184
30
0
41
1
10
88.6852936673302
20
8.90196063054199
30
0
0
SPLINE
5
114
100
AcDbEntity
8
1
62
256
6
ByLayer
370
18
48
1
60
0
100
AcDbSpline
70
4
71
1
72
4
73
2
40
0
40
0
40
1
40
1
41
1
10
89.3386503325693
20
15.0783108257108
30
0
41
1
10
88.9905449467081
20
10.471884483352
30
0
0
SPLINE
5
115
100
AcDbEntity
8
1
62
256
6
ByLayer
370
18
48
1
60
0
100
AcDbSpline
70
4
71
1
72
4
73
2
40
0
40
0
40
1
40
1
41
1
10
89.0895775759731
20
10.4622682933036
30
0
41
1
10
89.6491756350668
20
11.4072574775434
30
0
0
SPLINE
5
116
100
AcDbEntity
8
1
62
256
6
ByLayer
370
18
48
1
60
0
100
AcDbSpline
70
4
71
1
72
4
73
2
40
0
40
0
40
1
40
1
41
1
10
86.2917871441742
20
4.13577315378033
30
0
41
1
10
86.6679875200356
20
4.77106000032813
30
0
0
SPLINE
5
117
100
AcDbEntity
8
1
62
256
6
ByLayer
370
18
48
1
60
0
100
AcDbSpline
70
4
71
4
72
14
73
9
40
0
40
0
40
0
40
0
40
0
40
0.5
40
0.5
40
0.5
40
0.5
40
1
40
1
40
1
40
1
40
1
41
0.275178156061374
10
89.4376829618343
20
15.0686946356623
30
0
41
0.24939610566081
10
89.451431198465
20
15.2506229882505
30
0
41
0.242412473765129
10
89.4097781728801
20
15.4131600842072
30
0
41
0.24939610566081
10
89.3325139023819
20
15.5632327206647
30
0
41
0.275178156061374
10
89.199848369668
20
15.6939141004907
30
0
41
0.24939610566081
10
89.0671828369542
20
15.8245954803167
30
0
41
0.242412473765129
10
88.9149795157894
20
15.9005585058012
30
0
41
0.24939610566081
10
88.7502175462877
20
15.9413492510923
30
0
41
0.275178156061374
10
88.5659177883351
20
15.9274216420419
30
0
0
SPLINE
5
118
100
AcDbEntity
8
1
62
256
6
ByLayer
370
18
48
1
60
0
100
AcDbSpline
70
4
71
1
72
4
73
2
40
0
40
0
40
1
40
1
41
0.275178156061374
10
85.6429153456844
20
4.51020247124905
30
0
41
0.275178156061374
10
85.2667149698231
20
3.87491562470124
30
0
0
SPLINE
5
119
100
AcDbEntity
8
1
62
256
6
ByLayer
370
18
48
1
60
0
100
AcDbSpline
70
4
71
1
72
4
73
2
40
0
40
0
40
1
40
1
41
1
10
86.6679875200356
20
4.77106000032813
30
0
41
1
10
88.5947543974904
20
8.9443563933375
30
0
0
SPLINE
5
11A
100
AcDbEntity
8
1
62
256
6
ByLayer
370
18
48
1
60
0
100
AcDbSpline
70
4
71
4
72
14
73
9
40
0
40
0
40
0
40
0
40
0
40
0.5
40
0.5
40
0.5
40
0.5
40
1
40
1
40
1
40
1
40
1
41
0.275178156061374
10
89.1255158474289
20
16.8724108262818
30
0
41
0.24939610566081
10
89.3098156053815
20
16.8863384353322
30
0
41
0.242412473765129
10
89.4745775748831
20
16.845547690041
30
0
41
0.24939610566081
10
89.6267808960479
20
16.7695846645566
30
0
41
0.275178156061374
10
89.7594464287618
20
16.6389032847306
30
0
41
0.24939610566081
10
89.8921119614756
20
16.5082219049046
30
0
41
0.242412473765129
10
89.9693762319738
20
16.358149268447
30
0
41
0.24939610566081
10
90.0110292575588
20
16.1956121724904
30
0
41
0.275178156061374
10
89.997281020928
20
16.0136838199022
30
0
0
SPLINE
5
11B
100
AcDbEntity
8
1
62
256
6
ByLayer
370
18
48
1
60
0
100
AcDbSpline
70
4
71
1
72
4
73
2
40
0
40
0
40
1
40
1
41
1
10
87.318124848969
20
5.67365342177245
30
0
41
1
10
89.2448917264239
20
9.84694981478184
30
0
0
SPLINE
5
11C
100
AcDbEntity
8
1
62
256
6
ByLayer
370
18
48
1
60
0
100
AcDbSpline
70
4
71
1
72
4
73
2
40
0
40
0
40
1
40
1
41
0.253841780070716
10
88.6852936673301
20
8.901960630542
30
0
41
0.253841780070716
10
89.2448917264239
20
9.84694981478185
30
0
0
SPLINE
5
11D
100
AcDbEntity
8
1
62
256
6
ByLayer
370
18
48
1
60
0
100
AcDbSpline
70
4
71
1
72
4
73
2
40
0
40
0
40
1
40
1
41
1
10
88.2185540216291
20
8.3090695467897
30
0
41
1
10
86.2917871441742
20
4.13577315378033
30
0
0
SPLINE
5
11E
100
AcDbEntity
8
1
62
256
6
ByLayer
370
18
48
1
60
0
100
AcDbSpline
70
4
71
1
72
4
73
2
40
0
40
0
40
1
40
1
41
0.253841780070716
10
89.6491756350668
20
11.4072574775434
30
0
41
0.253841780070716
10
89.0895775759731
20
10.4622682933036
30
0
0
SPLINE
5
11F
100
AcDbEntity
8
1
62
256
6
ByLayer
370
18
48
1
60
0
100
AcDbSpline
70
4
71
4
72
14
73
9
40
0
40
0
40
0
40
0
40
0
40
0.5
40
0.5
40
0.5
40
0.5
40
1
40
1
40
1
40
1
40
1
41
0.278843689197582
10
87.318124848969
20
5.67365342177245
30
0
41
0.249224389705199
10
87.2318258303006
20
5.4867333602209
30
0
41
0.241419583993875
10
87.0958303821377
20
5.3562813434476
30
0
41
0.249224389705198
10
86.9298937993949
20
5.26498615327396
30
0
41
0.278843689197582
10
86.7226091790678
20
5.23629029703995
30
0
41
0.249224389705199
10
86.5153245587407
20
5.20759444080594
30
0
41
0.241419583993874
10
86.3272318804848
20
5.24987889028775
30
0
41
0.249224389705199
10
86.1550383236147
20
5.33766615283385
30
0
41
0.278843689197582
10
86.0119985889171
20
5.49283725064128
30
0
0
SPLINE
5
120
100
AcDbEntity
8
1
62
256
6
ByLayer
370
18
48
1
60
0
100
AcDbSpline
70
4
71
1
72
4
73
2
40
0
40
0
40
1
40
1
41
1
10
89.4376829618343
20
15.0686946356624
30
0
41
1
10
89.0895775759731
20
10.4622682933036
30
0
0
SPLINE
5
121
100
AcDbEntity
8
1
62
256
6
ByLayer
370
18
48
1
60
0
100
AcDbSpline
70
4
71
4
72
14
73
9
40
0
40
0
40
0
40
0
40
0
40
0.5
40
0.5
40
0.5
40
0.5
40
1
40
1
40
1
40
1
40
1
41
0.275178156061374
10
86.6679875200356
20
4.77106000032813
30
0
41
0.24939610566081
10
86.6014029682461
20
4.62684064869579
30
0
41
0.242412473765129
10
86.5009862256827
20
4.52217118753842
30
0
41
0.24939610566081
10
86.3788225700814
20
4.44292390594286
30
0
41
0.275178156061374
10
86.2228267237061
20
4.40322651482227
30
0
41
0.24939610566081
10
86.0668308773309
20
4.3635291237017
30
0
41
0.242412473765129
10
85.9191731976925
20
4.37411301888935
30
0
41
0.24939610566081
10
85.77687518832
20
4.41701710191509
30
0
41
0.275178156061374
10
85.6429153456844
20
4.51020247124905
30
0
0
SPLINE
5
122
100
AcDbEntity
8
1
62
256
6
ByLayer
370
18
48
1
60
0
100
AcDbSpline
70
4
71
1
72
4
73
2
40
0
40
0
40
1
40
1
41
0.275178156061374
10
89.997281020928
20
16.0136838199022
30
0
41
0.275178156061374
10
89.4376829618343
20
15.0686946356623
30
0
0
SPLINE
5
123
100
AcDbEntity
8
1
62
256
6
ByLayer
370
18
48
1
60
0
100
AcDbSpline
70
4
71
1
72
4
73
2
40
0
40
0
40
1
40
1
41
1
10
89.6491756350668
20
11.4072574775434
30
0
41
1
10
89.9972812618794
20
16.0136870083755
30
0
0
SPLINE
5
124
100
AcDbEntity
8
1
62
256
6
ByLayer
370
18
48
1
60
0
100
AcDbSpline
70
4
71
1
72
4
73
2
40
0
40
0
40
1
40
1
41
0.275178156061374
10
86.2917871441743
20
4.13577315378033
30
0
41
0.275178156061374
10
86.6679875200356
20
4.77106000032813
30
0
0
SPLINE
5
125
100
AcDbEntity
8
1
62
256
6
ByLayer
370
18
48
1
60
0
100
AcDbSpline
70
4
71
1
72
4
73
2
40
0
40
0
40
1
40
1
41
0.275178156061374
10
88.5659177883351
20
15.9274216420419
30
0
41
0.275178156061374
10
89.1255158474289
20
16.8724108262818
30
0
0
SPLINE
5
126
100
AcDbEntity
8
1
62
256
6
ByLayer
370
18
48
1
60
0
100
AcDbSpline
70
4
71
4
72
14
73
9
40
0
40
0
40
0
40
0
40
0
40
0.5
40
0.5
40
0.5
40
0.5
40
1
40
1
40
1
40
1
40
1
41
0.275178156061374
10
88.1996554298961
20
15.1944101097451
30
0
41
0.24939610566081
10
88.3609177181047
20
15.2065967676642
30
0
41
0.242412473765129
10
88.5050844414187
20
15.1709048655344
30
0
41
0.24939610566081
10
88.6382623474378
20
15.1044372182356
30
0
41
0.275178156061374
10
88.7543446885625
20
14.9900910108878
30
0
41
0.24939610566081
10
88.8704270296871
20
14.8757448035401
30
0
41
0.242412473765129
10
88.938033266373
20
14.7444312466397
30
0
41
0.24939610566081
10
88.9744796637598
20
14.6022112876776
30
0
41
0.275178156061374
10
88.9624499567079
20
14.443023979163
30
0
0
SPLINE
5
127
100
AcDbEntity
8
1
62
256
6
ByLayer
370
18
48
1
60
0
100
AcDbSpline
70
4
71
4
72
10
73
5
40
0
40
0
40
0
40
0
40
0
40
1
40
1
40
1
40
1
40
1
41
0.253841780070716
10
89.0895775759731
20
10.4622682933036
30
0
41
0.24998535305206
10
89.0586454202901
20
10.0529477181233
30
0
41
0.248738935907015
10
88.9799947916063
20
9.65671943657519
30
0
41
0.24998535305206
10
88.8565034659686
20
9.27279388674248
30
0
41
0.253841780070716
10
88.6852936673301
20
8.901960630542
30
0
0
SPLINE
5
128
100
AcDbEntity
8
1
62
256
6
ByLayer
370
18
48
1
60
0
100
AcDbSpline
70
4
71
4
72
14
73
9
40
0
40
0
40
0
40
0
40
0
40
0.5
40
0.5
40
0.5
40
0.5
40
1
40
1
40
1
40
1
40
1
41
0.275178156061374
10
85.2667149698231
20
3.87491562470124
30
0
41
0.24939610566081
10
85.4006748124587
20
3.78173025536729
30
0
41
0.242412473765129
10
85.5429728218311
20
3.73882617234155
30
0
41
0.24939610566081
10
85.6906305014695
20
3.72824227715391
30
0
41
0.275178156061374
10
85.8466263478448
20
3.76793966827447
30
0
41
0.24939610566081
10
86.00262219422
20
3.80763705939506
30
0
41
0.242412473765129
10
86.1247858498214
20
3.88688434099062
30
0
41
0.24939610566081
10
86.2252025923847
20
3.991553802148
30
0
41
0.275178156061374
10
86.2917871441743
20
4.13577315378033
30
0
0
SPLINE
5
129
100
AcDbEntity
8
1
62
256
6
ByLayer
370
18
48
1
60
0
100
AcDbSpline
70
4
71
1
72
4
73
2
40
0
40
0
40
1
40
1
41
0.275178156061374
10
88.9624499567079
20
14.443023979163
30
0
41
0.275178156061374
10
89.3386503325693
20
15.0783108257108
30
0
0
SPLINE
5
12A
100
AcDbEntity
8
1
62
256
6
ByLayer
370
18
48
1
60
0
100
AcDbSpline
70
4
71
4
72
10
73
5
40
0
40
0
40
0
40
0
40
0
40
1
40
1
40
1
40
1
40
1
41
0.253841780070716
10
89.2448917264239
20
9.84694981478185
30
0
41
0.24998535305206
10
89.4161015250624
20
10.2177830709823
30
0
41
0.248738935907015
10
89.5395928507001
20
10.601708620815
30
0
41
0.24998535305206
10
89.6182434793839
20
10.9979369023631
30
0
41
0.253841780070716
10
89.6491756350668
20
11.4072574775434
30
0
0
SPLINE
5
12B
100
AcDbEntity
8
1
62
256
6
ByLayer
370
18
48
1
60
0
100
AcDbSpline
70
4
71
1
72
4
73
2
40
0
40
0
40
1
40
1
41
0.278843689197582
10
86.7585267898753
20
4.72866423753262
30
0
41
0.278843689197582
10
87.318124848969
20
5.67365342177245
30
0
0
SPLINE
5
12C
100
AcDbEntity
8
1
62
256
6
ByLayer
370
18
48
1
60
0
100
AcDbSpline
70
4
71
1
72
4
73
2
40
0
40
0
40
1
40
1
41
0.275178156061374
10
88.5758558057575
20
15.8296969562929
30
0
41
0.275178156061374
10
88.1996554298961
20
15.1944101097451
30
0
0
SPLINE
5
12D
100
AcDbEntity
8
1
62
256
6
ByLayer
370
18
48
1
60
0
100
AcDbSpline
70
4
71
4
72
10
73
5
40
0
40
0
40
0
40
0
40
0
40
1
40
1
40
1
40
1
40
1
41
0.253841780070716
10
88.5947543974904
20
8.94435639333753
30
0
41
0.24998535305206
10
88.7623673516197
20
9.30739903491195
30
0
41
0.248738935907015
10
88.8832643216768
20
9.68325892193305
30
0
41
0.24998535305206
10
88.9602626262285
20
10.0711630799192
30
0
41
0.253841780070716
10
88.990544946708
20
10.471884483352
30
0
0
SPLINE
5
12E
100
AcDbEntity
8
1
62
256
6
ByLayer
370
18
48
1
60
0
100
AcDbSpline
70
4
71
1
72
4
73
2
40
0
40
0
40
1
40
1
41
0.278843689197582
10
86.0119985889171
20
5.49283725064128
30
0
41
0.278843689197582
10
85.5870157334739
20
4.43054134715652
30
0
0
SPLINE
5
12F
100
AcDbEntity
8
1
62
256
6
ByLayer
370
18
48
1
60
0
100
AcDbSpline
70
4
71
1
72
4
73
2
40
0
40
0
40
1
40
1
41
1
10
89.9972812618794
20
16.0136870083755
30
0
41
1
10
89.4376829618343
20
15.0686946356624
30
0
0
SPLINE
5
130
100
AcDbEntity
8
1
62
256
6
ByLayer
370
18
48
1
60
0
100
AcDbSpline
70
4
71
4
72
14
73
9
40
0
40
0
40
0
40
0
40
0
40
0.5
40
0.5
40
0.5
40
0.5
40
1
40
1
40
1
40
1
40
1
41
0.275178156061374
10
89.3386503325693
20
15.0783108257108
30
0
41
0.24939610566081
10
89.3506800396212
20
15.2374981342254
30
0
41
0.242412473765129
10
89.3142336422343
20
15.3797180931875
30
0
41
0.24939610566081
10
89.2466274055484
20
15.5110316500879
30
0
41
0.275178156061374
10
89.1305450644238
20
15.6253778574356
30
0
41
0.24939610566081
10
89.0144627232992
20
15.7397240647834
30
0
41
0.242412473765129
10
88.88128481728
20
15.8061917120822
30
0
41
0.24939610566081
10
88.737118093966
20
15.841883614212
30
0
41
0.275178156061374
10
88.5758558057575
20
15.8296969562929
30
0
0
LINE
5
70
100
AcDbEntity
8
1
62
256
6
ByLayer
370
18
48
1
60
0
100
AcDbLine
10
19.5
20
20
30
0
11
0
21
20
31
0
39
0
210
0
220
0
230
1
0
LINE
5
72
100
AcDbEntity
8
1
62
256
6
ByLayer
370
13
48
1
60
0
100
AcDbLine
10
21.509619
20
12.5
30
0
11
70.834115
21
12.5
31
0
39
0
210
0
220
0
230
1
0
LINE
5
73
100
AcDbEntity
8
1
62
256
6
ByLayer
370
18
48
1
60
0
100
AcDbLine
10
19.5
20
-20
30
0
11
0
21
-20
31
0
39
0
210
0
220
0
230
1
0
LINE
5
74
100
AcDbEntity
8
1
62
256
6
ByLayer
370
18
48
1
60
0
100
AcDbLine
10
88.685294
20
8.901961
30
0
11
89.244892
21
9.84695
31
0
39
0
210
0
220
0
230
1
0
LINE
5
75
100
AcDbEntity
8
1
62
256
6
ByLayer
370
13
48
1
60
0
100
AcDbLine
10
9.336603
20
6.169806
30
0
11
9.336591
21
19.02459
31
0
39
0
210
0
220
0
230
1
0
LINE
5
76
100
AcDbEntity
8
1
62
256
6
ByLayer
370
18
48
1
60
0
100
AcDbLine
10
76.923433
20
5.321794
30
0
11
78.155363
21
4.108289
31
0
39
0
210
0
220
0
230
1
0
LINE
5
77
100
AcDbEntity
8
1
62
256
6
ByLayer
370
18
48
1
60
0
100
AcDbLine
10
89.16946
20
11.225982
30
0
11
89.565151
21
16.462109
31
0
39
0
210
0
220
0
230
1
0
LINE
5
78
100
AcDbEntity
8
1
62
256
6
ByLayer
370
18
48
1
60
0
100
AcDbLine
10
82.982448
20
14.365745
30
0
11
77.079874
21
11.697188
31
0
39
0
210
0
220
0
230
1
0
LINE
5
79
100
AcDbEntity
8
1
62
256
6
ByLayer
370
18
48
1
60
0
100
AcDbLine
10
89.244892
20
9.84695
30
0
11
87.318125
21
5.673653
31
0
39
0
210
0
220
0
230
1
0
LINE
5
7A
100
AcDbEntity
8
1
62
256
6
ByLayer
370
18
48
1
60
0
100
AcDbLine
10
88.575856
20
15.829697
30
0
11
88.199655
21
15.19441
31
0
39
0
210
0
220
0
230
1
0
LINE
5
7B
100
AcDbEntity
8
1
62
256
6
ByLayer
370
18
48
1
60
0
100
AcDbLine
10
85.641654
20
5.44505
30
0
11
85.638134
21
5.439573
31
0
39
0
210
0
220
0
230
1
0
LINE
5
7C
100
AcDbEntity
8
SK1
62
256
6
ByLayer
370
18
48
1
60
0
100
AcDbLine
10
-23.5
20
-13.46245
30
0
11
-23.5
21
13.46245
31
0
39
0
210
0
220
0
230
1
0
LINE
5
7E
100
AcDbEntity
8
1
62
256
6
ByLayer
370
18
48
1
60
0
100
AcDbLine
10
79.810878
20
4.52958
30
0
11
78.155363
21
4.108289
31
0
39
0
210
0
220
0
230
1
0
LINE
5
7F
100
AcDbEntity
8
1
62
256
6
ByLayer
370
18
48
1
60
0
100
AcDbLine
10
85.587016
20
4.430541
30
0
11
86.146614
21
5.375531
31
0
39
0
210
0
220
0
230
1
0
LINE
5
80
100
AcDbEntity
8
1
62
256
6
ByLayer
370
18
48
1
60
0
100
AcDbLine
10
80.168977
20
-2.51249
30
0
11
82.266518
21
-0.438165
31
0
39
0
210
0
220
0
230
1
0
LINE
5
81
100
AcDbEntity
8
1
62
256
6
ByLayer
370
18
48
1
60
0
100
AcDbLine
10
80.257801
20
-3.008017
30
0
11
64.514325
21
12.5
31
0
39
0
210
0
220
0
230
1
0
LINE
5
82
100
AcDbEntity
8
1
62
256
6
ByLayer
370
18
48
1
60
0
100
AcDbLine
10
86.770072
20
7.387484
30
0
11
82.266518
21
-0.438165
31
0
39
0
210
0
220
0
230
1
0
LINE
5
83
100
AcDbEntity
8
1
62
256
6
ByLayer
370
18
48
1
60
0
100
AcDbLine
10
89.437683
20
15.068695
30
0
11
89.089578
21
10.462268
31
0
39
0
210
0
220
0
230
1
0
LINE
5
84
100
AcDbEntity
8
1
62
256
6
ByLayer
370
18
48
1
60
0
100
AcDbLine
10
89.16946
20
11.225982
30
0
11
84.563806
21
1.250329
31
0
39
0
210
0
220
0
230
1
0
LINE
5
85
100
AcDbEntity
8
1
62
256
6
ByLayer
370
18
48
1
60
0
100
AcDbLine
10
89.125516
20
16.872411
30
0
11
88.565918
21
15.927422
31
0
39
0
210
0
220
0
230
1
0
LINE
5
86
100
AcDbEntity
8
1
62
256
6
ByLayer
370
18
48
1
60
0
100
AcDbLine
10
77.857397
20
-0.235482
30
0
11
80.168977
21
-2.51249
31
0
39
0
210
0
220
0
230
1
0
LINE
5
87
100
AcDbEntity
8
SK1
62
256
6
ByLayer
370
18
48
1
60
0
100
AcDbLine
10
-1.6
20
-14.0625
30
0
11
-1.6
21
14.0625
31
0
39
0
210
0
220
0
230
1
0
LINE
5
88
100
AcDbEntity
8
1
62
256
6
ByLayer
370
13
48
1
60
0
100
AcDbLine
10
6.663397
20
-6.169806
30
0
11
6.663409
21
-19.02459
31
0
39
0
210
0
220
0
230
1
0
LINE
5
89
100
AcDbEntity
8
1
62
256
6
ByLayer
370
18
48
1
60
0
100
AcDbLine
10
87.270429
20
8.264419
30
0
11
86.770072
21
7.387484
31
0
39
0
210
0
220
0
230
1
0
LINE
5
8A
100
AcDbEntity
8
SK1
62
256
6
ByLayer
370
18
48
1
60
0
100
AcDbLine
10
-1.6
20
14.0625
30
0
11
-23.5
21
13.46245
31
0
39
0
210
0
220
0
230
1
0
LINE
5
8B
100
AcDbEntity
8
1
62
256
6
ByLayer
370
18
48
1
60
0
100
AcDbLine
10
81.405388
20
-1.89235
30
0
11
82.266518
21
-0.438165
31
0
39
0
210
0
220
0
230
1
0
LINE
5
8C
100
AcDbEntity
8
1
62
256
6
ByLayer
370
18
48
1
60
0
100
AcDbLine
10
86.758527
20
4.728664
30
0
11
87.318125
21
5.673653
31
0
39
0
210
0
220
0
230
1
0
LINE
5
8D
100
AcDbEntity
8
1
62
256
6
ByLayer
370
18
48
1
60
0
100
AcDbLine
10
86.667988
20
4.77106
30
0
11
86.291787
21
4.135773
31
0
39
0
210
0
220
0
230
1
0
LINE
5
8E
100
AcDbEntity
8
1
62
256
6
ByLayer
370
18
48
1
60
0
100
AcDbLine
10
87.193278
20
8.134134
30
0
11
87.270429
21
8.264419
31
0
39
0
210
0
220
0
230
1
0
LINE
5
8F
100
AcDbEntity
8
1
62
256
6
ByLayer
370
18
48
1
60
0
100
AcDbLine
10
86.111538
20
8.036169
30
0
11
86.770072
21
7.387484
31
0
39
0
210
0
220
0
230
1
0
LINE
5
90
100
AcDbEntity
8
1
62
256
6
ByLayer
370
18
48
1
60
0
100
AcDbLine
10
88.218554
20
8.30907
30
0
11
86.291787
21
4.135773
31
0
39
0
210
0
220
0
230
1
0
LINE
5
91
100
AcDbEntity
8
1
62
256
6
ByLayer
370
18
48
1
60
0
100
AcDbLine
10
88.685294
20
8.901961
30
0
11
86.758527
21
4.728664
31
0
39
0
210
0
220
0
230
1
0
LINE
5
92
100
AcDbEntity
8
1
62
256
6
ByLayer
370
18
48
1
60
0
100
AcDbLine
10
86.197521
20
9.114999
30
0
11
86.274672
21
9.245284
31
0
39
0
210
0
220
0
230
1
0
LINE
5
93
100
AcDbEntity
8
1
62
256
6
ByLayer
370
18
48
1
60
0
100
AcDbLine
10
70.211402
20
7.296159
30
0
11
72.308943
21
9.370484
31
0
39
0
210
0
220
0
230
1
0
LINE
5
94
100
AcDbEntity
8
1
62
256
6
ByLayer
370
18
48
1
60
0
100
AcDbLine
10
85.794859
20
5.704157
30
0
11
86.011999
21
5.492837
31
0
39
0
210
0
220
0
230
1
0
LINE
5
95
100
AcDbEntity
8
1
62
256
6
ByLayer
370
18
48
1
60
0
100
AcDbLine
10
89.997281
20
16.013684
30
0
11
89.437683
21
15.068695
31
0
39
0
210
0
220
0
230
1
0
LINE
5
96
100
AcDbEntity
8
1
62
256
6
ByLayer
370
13
48
1
60
0
100
AcDbLine
10
6.663397
20
6.169806
30
0
11
6.663409
21
19.02459
31
0
39
0
210
0
220
0
230
1
0
LINE
5
97
100
AcDbEntity
8
1
62
256
6
ByLayer
370
18
48
1
60
0
100
AcDbLine
10
80.887427
20
13.182148
30
0
11
80.228893
21
13.830833
31
0
39
0
210
0
220
0
230
1
0
LINE
5
98
100
AcDbEntity
8
1
62
256
6
ByLayer
370
13
48
1
60
0
100
AcDbLine
10
6.923205
20
-5.859964
30
0
11
6.923205
21
-19.12226
31
0
39
0
210
0
220
0
230
1
0
LINE
5
99
100
AcDbEntity
8
1
62
256
6
ByLayer
370
18
48
1
60
0
100
AcDbLine
10
87.193278
20
8.134134
30
0
11
86.155597
21
9.156295
31
0
39
0
210
0
220
0
230
1
0
LINE
5
9A
100
AcDbEntity
8
1
62
256
6
ByLayer
370
18
48
1
60
0
100
AcDbLine
10
82.143365
20
13.108521
30
0
11
82.220516
21
13.238805
31
0
39
0
210
0
220
0
230
1
0
LINE
5
9B
100
AcDbEntity
8
1
62
256
6
ByLayer
370
18
48
1
60
0
100
AcDbLine
10
81.405388
20
-1.89235
30
0
11
80.813013
21
-2.478168
31
0
39
0
210
0
220
0
230
1
0
LINE
5
9C
100
AcDbEntity
8
1
62
256
6
ByLayer
370
18
48
1
60
0
100
AcDbLine
10
81.147607
20
14.089385
30
0
11
81.224759
21
14.21967
31
0
39
0
210
0
220
0
230
1
0
LINE
5
9D
100
AcDbEntity
8
1
62
256
6
ByLayer
370
18
48
1
60
0
100
AcDbLine
10
80.234463
20
6.164376
30
0
11
79.810878
21
4.52958
31
0
39
0
210
0
220
0
230
1
0
LINE
5
9E
100
AcDbEntity
8
1
62
256
6
ByLayer
370
18
48
1
60
0
100
AcDbLine
10
78.654443
20
14.207761
30
0
11
82.878964
21
16.117669
31
0
39
0
210
0
220
0
230
1
0
LINE
5
9F
100
AcDbEntity
8
1
62
256
6
ByLayer
370
18
48
1
60
0
100
AcDbLine
10
81.147607
20
14.089385
30
0
11
78.633556
21
12.673525
31
0
39
0
210
0
220
0
230
1
0
LINE
5
A0
100
AcDbEntity
8
1
62
256
6
ByLayer
370
18
48
1
60
0
100
AcDbLine
10
89.33865
20
15.078311
30
0
11
88.96245
21
14.443024
31
0
39
0
210
0
220
0
230
1
0
LINE
5
A1
100
AcDbEntity
8
1
62
256
6
ByLayer
370
18
48
1
60
0
100
AcDbLine
10
19.5
20
-20
30
0
11
19.5
21
20
31
0
39
0
210
0
220
0
230
1
0
LINE
5
A2
100
AcDbEntity
8
1
62
256
6
ByLayer
370
18
48
1
60
0
100
AcDbLine
10
87.270429
20
8.264419
30
0
11
86.274672
21
9.245284
31
0
39
0
210
0
220
0
230
1
0
LINE
5
A3
100
AcDbEntity
8
1
62
256
6
ByLayer
370
18
48
1
60
0
100
AcDbLine
10
77.857397
20
-0.235482
30
0
11
81.419414
21
3.287109
31
0
39
0
210
0
220
0
230
1
0
LINE
5
A4
100
AcDbEntity
8
1
62
256
6
ByLayer
370
18
48
1
60
0
100
AcDbLine
10
89.997281
20
16.013687
30
0
11
89.649176
21
11.407257
31
0
39
0
210
0
220
0
230
1
0
LINE
5
A5
100
AcDbEntity
8
1
62
256
6
ByLayer
370
18
48
1
60
0
100
AcDbLine
10
88.96245
20
14.443024
30
0
11
88.614345
21
9.836598
31
0
39
0
210
0
220
0
230
1
0
LINE
5
A6
100
AcDbEntity
8
SK1
62
256
6
ByLayer
370
18
48
1
60
0
100
AcDbLine
10
-24
20
-13.173775
30
0
11
-24
21
13.173775
31
0
39
0
210
0
220
0
230
1
0
LINE
5
A7
100
AcDbEntity
8
1
62
256
6
ByLayer
370
18
48
1
60
0
100
AcDbLine
10
80.228893
20
13.830833
30
0
11
72.308943
21
9.370484
31
0
39
0
210
0
220
0
230
1
0
LINE
5
A8
100
AcDbEntity
8
1
62
256
6
ByLayer
370
18
48
1
60
0
100
AcDbLine
10
86.016876
20
6.078685
30
0
11
85.800255
21
5.712878
31
0
39
0
210
0
220
0
230
1
0
LINE
5
A9
100
AcDbEntity
8
SK1
62
256
6
ByLayer
370
18
48
1
60
0
100
AcDbLine
10
-1.6
20
-14.0625
30
0
11
-23.5
21
-13.46245
31
0
39
0
210
0
220
0
230
1
0
LINE
5
AA
100
AcDbEntity
8
1
62
256
6
ByLayer
370
18
48
1
60
0
100
AcDbLine
10
81.147607
20
14.089385
30
0
11
82.185288
21
13.067224
31
0
39
0
210
0
220
0
230
1
0
LINE
5
AB
100
AcDbEntity
8
1
62
256
6
ByLayer
370
18
48
1
60
0
100
AcDbLine
10
81.224759
20
14.21967
30
0
11
82.220516
21
13.238805
31
0
39
0
210
0
220
0
230
1
0
LINE
5
AC
100
AcDbEntity
8
1
62
256
6
ByLayer
370
18
48
1
60
0
100
AcDbLine
10
84.459046
20
16.519764
30
0
11
89.125516
21
16.872411
31
0
39
0
210
0
220
0
230
1
0
LINE
5
AD
100
AcDbEntity
8
1
62
256
6
ByLayer
370
18
48
1
60
0
100
AcDbLine
10
85.642915
20
4.510202
30
0
11
85.266715
21
3.874916
31
0
39
0
210
0
220
0
230
1
0
LINE
5
AE
100
AcDbEntity
8
1
62
256
6
ByLayer
370
13
48
1
60
0
100
AcDbLine
10
6.923205
20
5.859964
30
0
11
6.923205
21
19.12226
31
0
39
0
210
0
220
0
230
1
0
LINE
5
AF
100
AcDbEntity
8
1
62
256
6
ByLayer
370
18
48
1
60
0
100
AcDbLine
10
24.578927
20
12.5
30
0
11
70.834115
21
12.5
31
0
39
0
210
0
220
0
230
1
0
LINE
5
B0
100
AcDbEntity
8
1
62
256
6
ByLayer
370
18
48
1
60
0
100
AcDbLine
10
85.31069
20
4.869337
30
0
11
85.643024
21
5.447172
31
0
39
0
210
0
220
0
230
1
0
LINE
5
B1
100
AcDbEntity
8
1
62
256
6
ByLayer
370
18
48
1
60
0
100
AcDbLine
10
81.224759
20
14.21967
30
0
11
80.228893
21
13.830833
31
0
39
0
210
0
220
0
230
1
0
LINE
5
B2
100
AcDbEntity
8
1
62
256
6
ByLayer
370
18
48
1
60
0
100
AcDbLine
10
89.33865
20
15.078311
30
0
11
88.990545
21
10.471884
31
0
39
0
210
0
220
0
230
1
0
LINE
5
B3
100
AcDbEntity
8
SK1
62
256
6
ByLayer
370
18
48
1
60
0
100
AcDbLine
10
-1.6
20
13.87245
30
0
11
0.003749
21
13.912547
31
0
39
0
210
0
220
0
230
1
0
LINE
5
B4
100
AcDbEntity
8
1
62
256
6
ByLayer
370
18
48
1
60
0
100
AcDbLine
10
72.522982
20
5.019151
30
0
11
70.211402
21
7.296159
31
0
39
0
210
0
220
0
230
1
0
LINE
5
B5
100
AcDbEntity
8
1
62
256
6
ByLayer
370
13
48
1
60
0
100
AcDbLine
10
9.076795
20
-5.859964
30
0
11
9.076795
21
-19.12226
31
0
39
0
210
0
220
0
230
1
0
LINE
5
B6
100
AcDbEntity
8
SK1
62
256
6
ByLayer
370
18
48
1
60
0
100
AcDbLine
10
-24
20
13.173775
30
0
11
-23.5
21
13.46245
31
0
39
0
210
0
220
0
230
1
0
LINE
5
B7
100
AcDbEntity
8
1
62
256
6
ByLayer
370
18
48
1
60
0
100
AcDbLine
10
78.354697
20
13.050911
30
0
11
78.633556
21
12.673525
31
0
39
0
210
0
220
0
230
1
0
LINE
5
B8
100
AcDbEntity
8
1
62
256
6
ByLayer
370
18
48
1
60
0
100
AcDbLine
10
88.990545
20
10.471884
30
0
11
88.614345
21
9.836598
31
0
39
0
210
0
220
0
230
1
0
LINE
5
B9
100
AcDbEntity
8
1
62
256
6
ByLayer
370
18
48
1
60
0
100
AcDbLine
10
76.084998
20
8.541743
30
0
11
72.522982
21
5.019151
31
0
39
0
210
0
220
0
230
1
0
LINE
5
BA
100
AcDbEntity
8
1
62
256
6
ByLayer
370
18
48
1
60
0
100
AcDbLine
10
85.533891
20
5.263072
30
0
11
85.556476
21
5.301677
31
0
39
0
210
0
220
0
230
1
0
LINE
5
BB
100
AcDbEntity
8
1
62
256
6
ByLayer
370
18
48
1
60
0
100
AcDbLine
10
89.089578
20
10.462268
30
0
11
89.649176
21
11.407257
31
0
39
0
210
0
220
0
230
1
0
LINE
5
BC
100
AcDbEntity
8
1
62
256
6
ByLayer
370
18
48
1
60
0
100
AcDbLine
10
0
20
-20
30
0
11
0
21
20
31
0
39
0
210
0
220
0
230
1
0
LINE
5
BD
100
AcDbEntity
8
1
62
256
6
ByLayer
370
13
48
1
60
0
100
AcDbLine
10
9.076795
20
5.859964
30
0
11
9.076795
21
19.12226
31
0
39
0
210
0
220
0
230
1
0
LINE
5
BE
100
AcDbEntity
8
1
62
256
6
ByLayer
370
18
48
1
60
0
100
AcDbLine
10
79.002532
20
7.377882
30
0
11
80.234463
21
6.164376
31
0
39
0
210
0
220
0
230
1
0
LINE
5
BF
100
AcDbEntity
8
1
62
256
6
ByLayer
370
18
48
1
60
0
100
AcDbLine
10
88.594754
20
8.944356
30
0
11
86.667988
21
4.77106
31
0
39
0
210
0
220
0
230
1
0
LINE
5
C0
100
AcDbEntity
8
SK1
62
256
6
ByLayer
370
18
48
1
60
0
100
AcDbLine
10
0
20
-13.912453
30
0
11
-1.6
21
-13.87245
31
0
39
0
210
0
220
0
230
1
0
LINE
5
C1
100
AcDbEntity
8
1
62
256
6
ByLayer
370
18
48
1
60
0
100
AcDbLine
10
77.347017
20
6.956591
30
0
11
76.923433
21
5.321794
31
0
39
0
210
0
220
0
230
1
0
LINE
5
C2
100
AcDbEntity
8
SK1
62
256
6
ByLayer
370
18
48
1
60
0
100
AcDbLine
10
-24
20
-13.173775
30
0
11
-23.5
21
-13.46245
31
0
39
0
210
0
220
0
230
1
0
LINE
5
C3
100
AcDbEntity
8
1
62
256
6
ByLayer
370
18
48
1
60
0
100
AcDbLine
10
81.405388
20
-1.89235
30
0
11
85.044644
21
4.426695
31
0
39
0
210
0
220
0
230
1
0
LINE
5
C4
100
AcDbEntity
8
1
62
256
6
ByLayer
370
18
48
1
60
0
100
AcDbLine
10
85.533891
20
5.263072
30
0
11
85.044644
21
4.426695
31
0
39
0
210
0
220
0
230
1
0
LINE
5
C5
100
AcDbEntity
8
1
62
256
6
ByLayer
370
18
48
1
60
0
100
AcDbLine
10
79.002532
20
7.377882
30
0
11
77.347017
21
6.956591
31
0
39
0
210
0
220
0
230
1
0
LINE
5
C6
100
AcDbEntity
8
1
62
256
6
ByLayer
370
18
48
1
60
0
100
AcDbLine
10
88.594754
20
8.944356
30
0
11
88.218554
21
8.30907
31
0
39
0
210
0
220
0
230
1
0
LINE
5
C7
100
AcDbEntity
8
1
62
256
6
ByLayer
370
13
48
1
60
0
100
AcDbLine
10
9.336603
20
-6.169806
30
0
11
9.336591
21
-19.02459
31
0
39
0
210
0
220
0
230
1
0
LINE
5
C8
100
AcDbEntity
8
1
62
256
6
ByLayer
370
18
48
1
60
0
100
AcDbLine
10
19.5
20
-20
30
0
11
21.509619
21
-12.5
31
0
39
0
210
0
220
0
230
1
0
LINE
5
C9
100
AcDbEntity
8
1
62
256
6
ByLayer
370
18
48
1
60
0
100
AcDbLine
10
21.509619
20
12.5
30
0
11
19.5
21
20
31
0
39
0
210
0
220
0
230
1
0
LINE
5
CA
100
AcDbEntity
8
1
62
256
6
ByLayer
370
13
48
1
60
0
100
AcDbLine
10
70.659583
20
-12.5
30
0
11
21.509619
21
-12.5
31
0
39
0
210
0
220
0
230
1
0
LINE
5
CB
100
AcDbEntity
8
1
62
256
6
ByLayer
370
18
48
1
60
0
100
AcDbLine
10
84.563806
20
1.250329
30
0
11
70.659583
21
-12.5
31
0
39
0
210
0
220
0
230
1
0
LINE
5
CC
100
AcDbEntity
8
1
62
256
6
ByLayer
370
18
48
1
60
0
100
AcDbLine
10
87.193278
20
8.134134
30
0
11
85.51793
21
5.221993
31
0
39
0
210
0
220
0
230
1
0
LINE
5
CD
100
AcDbEntity
8
4
62
256
6
ByLayer
370
13
48
0.05
60
0
100
AcDbLine
10
0
20
0
30
0
11
90
21
0
31
0
39
0
210
0
220
0
230
1
0
LINE
5
CF
100
AcDbEntity
8
SK4
62
256
6
ByLayer
370
13
48
0.05
60
0
100
AcDbLine
10
-30
20
0
30
0
11
105
21
0
31
0
39
0
210
0
220
0
230
1
0
LINE
5
D1
100
AcDbEntity
8
80
62
256
6
ByLayer
370
18
48
1
60
0
100
AcDbLine
10
0
20
0
30
0
11
-6.429408
21
0
31
0
39
0
210
0
220
0
230
1
0
LINE
5
D2
100
AcDbEntity
8
81
62
256
6
ByLayer
370
18
48
1
60
0
100
AcDbLine
10
96.429408
20
16.875
30
0
11
90
21
16.875
31
0
39
0
210
0
220
0
230
1
0
MTEXT
5
131
100
AcDbEntity
8
SK6
62
256
6
ByLayer
370
18
48
1
60
0
100
AcDbMText
10
10.238987
20
-47.566361
30
0
210
0
220
0
230
1
1
\W0.7446;C4-MWLNR-17090-08
40
4.5
41
0
44
1.084337
50
0
71
7
72
5
7
iso_b_vert
0
DIMENSION
5
143
100
AcDbEntity
8
2
62
256
6
ByLayer
370
13
48
1
60
0
100
AcDbDimension
2
DimnDraft3D1
10
-42.505553
20
90
30
0
11
-42.505553
21
43.247368
31
0
70
32
71
5
72
1
41
1
210
0
220
0
230
1
3
Standard
100
AcDbAlignedDimension
13
-22
23
0
33
0
14
-18.875
24
90
34
0
50
90
100
AcDbRotatedDimension
1001
ACAD
1000
DSTYLE
1002
{
1070
    74
1070
     0
1070
   279
1070
     0
1070
   172
1070
     1
1070
   173
1070
     1
1070
   340
1005
132
1070
   271
1070
     1
1070
   272
1070
     2
1070
    77
1070
     1
1070
    73
1070
     0
1070
   171
1070
     3
1070
   274
1070
     4
1070
   177
1070
     9
1070
   176
1070
     9
1070
   178
1070
     9
1070
    78
1070
     8
1070
    41
1041
3.175
1070
   147
1041
1.5
1070
    42
1041
2.0
1070
    44
1041
2.0
1070
   140
1041
3.0
1070
   343
1005
144
1070
   344
1005
144
1002
}
0
DIMENSION
5
159
100
AcDbEntity
8
SK2
62
256
6
ByLayer
370
13
48
1
60
0
100
AcDbDimension
2
DimnDraft3D2
10
20
20
34.920674
30
0
11
-5.360526
21
34.920674
31
0
70
32
71
5
72
1
41
1
210
0
220
0
230
1
3
Standard
100
AcDbAlignedDimension
13
-20
23
2
33
0
14
20
24
2
34
0
50
0
100
AcDbRotatedDimension
1001
ACAD
1000
DSTYLE
1002
{
1070
   279
1070
     0
1070
   172
1070
     1
1070
   173
1070
     1
1070
   340
1005
132
1070
   271
1070
     0
1070
   272
1070
     2
1070
    77
1070
     1
1070
    73
1070
     0
1070
   171
1070
     3
1070
   274
1070
     4
1070
   177
1070
     9
1070
   176
1070
     9
1070
   178
1070
     9
1070
    78
1070
     8
1070
    41
1041
3.175
1070
   147
1041
1.5
1070
    42
1041
2.0
1070
    44
1041
2.0
1070
   140
1041
3.0
1070
   343
1005
144
1070
   344
1005
144
1002
}
0
DIMENSION
5
167
100
AcDbEntity
8
2
62
256
6
ByLayer
370
13
48
1
60
0
100
AcDbDimension
2
DimnDraft3D3
10
-31.460007
20
90
30
0
11
-31.460007
21
54.002178
31
0
70
32
71
5
72
1
41
1
210
0
220
0
230
1
3
Standard
100
AcDbAlignedDimension
13
-14.5
23
21.509619
33
0
14
-18.875
24
90
34
0
50
90
100
AcDbRotatedDimension
1001
ACAD
1000
DSTYLE
1002
{
1070
    74
1070
     0
1070
   279
1070
     0
1070
   172
1070
     1
1070
   173
1070
     1
1070
   340
1005
132
1070
   271
1070
     1
1070
   272
1070
     2
1070
    77
1070
     1
1070
    73
1070
     0
1070
   171
1070
     3
1070
   274
1070
     4
1070
   177
1070
     9
1070
   176
1070
     9
1070
   178
1070
     9
1070
    78
1070
     8
1070
    41
1041
3.175
1070
   147
1041
1.5
1070
    42
1041
2.0
1070
    44
1041
2.0
1070
   140
1041
3.0
1070
   343
1005
144
1070
   344
1005
144
1002
}
0
DIMENSION
5
175
100
AcDbEntity
8
2
62
256
6
ByLayer
370
13
48
1
60
0
100
AcDbDimension
2
DimnDraft3D4
10
0
20
-117.206273
30
0
11
7.059868
21
-117.206273
31
0
70
32
71
5
72
1
41
1
210
0
220
0
230
1
3
Standard
100
AcDbAlignedDimension
13
16.875
23
-92
33
0
14
0
24
-105
34
0
50
0
100
AcDbRotatedDimension
1001
ACAD
1000
DSTYLE
1002
{
1070
   279
1070
     0
1070
   172
1070
     1
1070
   173
1070
     1
1070
   340
1005
132
1070
   271
1070
     1
1070
   272
1070
     2
1070
    77
1070
     1
1070
    73
1070
     0
1070
   171
1070
     3
1070
   274
1070
     4
1070
   177
1070
     9
1070
   176
1070
     9
1070
   178
1070
     9
1070
    78
1070
     8
1070
    41
1041
3.175
1070
   147
1041
1.5
1070
    42
1041
2.0
1070
    44
1041
0.0
1070
   140
1041
3.0
1070
   343
1005
144
1070
   344
1005
144
1002
}
0
DIMENSION
5
182
100
AcDbEntity
8
2
62
256
6
ByLayer
370
13
48
1
60
0
100
AcDbDimension
2
DimnDraft3D5
10
70.659583
20
-12.5
30
0
11
54.340806
21
-19.206324
31
0
70
34
71
5
72
1
41
1
210
0
220
0
230
1
3
Standard
100
AcDb2LineAngularDimension
13
70.659583
23
-12.5
33
0
14
21.509619
24
-12.5
34
0
15
84.563806
25
1.250329
35
0
16
51.565984
26
-20.346658
36
0
40
0
0
DIMENSION
5
190
100
AcDbEntity
8
2
62
256
6
ByLayer
370
13
48
1
60
0
100
AcDbDimension
2
DimnDraft3D6
10
91
20
16.875
30
0
11
98.605445
21
7.66197
31
0
70
34
71
5
72
1
41
1
210
0
220
0
230
1
3
Standard
100
AcDb2LineAngularDimension
13
89.997281
23
16.013687
33
0
14
89.649176
24
11.407257
34
0
15
90
25
16.875
35
0
16
100.645275
26
5.462175
36
0
40
0
0
ENDSEC
0
SECTION
2
OBJECTS
0
DICTIONARY
5
1fb
330
0
100
AcDbDictionary
280
0
281
1
3
ACAD_GROUP
350
1fc
3
ACAD_MLINESTYLE
350
1fd
0
DICTIONARY
5
1fc
330
0
100
AcDbDictionary
280
0
281
1
0
DICTIONARY
5
1fd
330
0
100
AcDbDictionary
280
0
281
1
3
Standard
350
18
0
MLINESTYLE
5
18
330
1fd
100
AcDbMlineStyle
2
Standard
70
0
3

62
256
51
90
52
90
71
2
49
-0.5
62
256
6
ByLayer
49
0.5
62
256
6
ByLayer
0
RASTERVARIABLES
5
1e9
330

100
AcDbRasterVariables
90
0
70
1
71
1
72
1
0
ENDSEC
0
EOF
