0
SECTION
2
HEADER
9
$ACADVER
1
AC1015
9
$DWGCODEPAGE
3
ANSI_1252
9
$HANDSEED
5
2a7
9
$ANGBASE
50
0
9
$ANGDIR
70
0
9
$ATTMODE
70
1
9
$AUNITS
70
0
9
$AUPREC
70
0
9
$CECOLOR
62
256
9
$CELTSCALE
40
1
9
$CELTYPE
6
ByLayer
9
$CELWEIGHT
370
18
9
$CLAYER
8
0
9
$CMLJUST
70
0
9
$CMLSCALE
40
1
9
$CMLSTYLE
2
Standard
9
$DIMSTYLE
2
Standard
9
$TEXTSIZE
40
0.2
9
$TEXTSTYLE
7
Standard
9
$LUNITS
70
2
9
$LUPREC
70
4
9
$EXTNAMES
290
1
9
$INSUNITS
70
4
9
$LTSCALE
40
1
9
$LWDISPLAY
290
1
9
$PDMODE
70
0
9
$PDSIZE
40
0
9
$PLINEGEN
70
0
0
ENDSEC
0
SECTION
2
CLASSES
0
CLASS
1
RASTERVARIABLES
2
AcDbRasterVariables
3
ISM
90
0
280
0
281
0
0
ENDSEC
0
SECTION
2
TABLES
0
TABLE
2
VPORT
5
29d
100
AcDbSymbolTable
0
VPORT
5
1
100
AcDbSymbolTableRecord
100
AcDbViewportTableRecord
2
*Active
70
0
10
0
20
0
11
1
21
1
12
-1
22
1
13
0
23
0
14
0.5
24
0.5
15
10
25
10
16
0
26
0
36
1
17
0
27
0
37
0
0
ENDTAB
0
TABLE
2
LTYPE
5
29e
100
AcDbSymbolTable
0
LTYPE
5
14
100
AcDbSymbolTableRecord
100
AcDbLinetypeTableRecord
70
0
2
ByBlock
3

72
65
73
0
40
0
0
LTYPE
5
15
100
AcDbSymbolTableRecord
100
AcDbLinetypeTableRecord
70
0
2
ByLayer
3

72
65
73
0
40
0
0
LTYPE
5
16
100
AcDbSymbolTableRecord
100
AcDbLinetypeTableRecord
70
0
2
CONTINUOUS
3
Solid line
72
65
73
0
40
0
0
LTYPE
5
6A
100
AcDbSymbolTableRecord
100
AcDbLinetypeTableRecord
70
0
2
CENTER
3
____ _ ____ _ ____ _ ____
72
65
73
4
40
47.5
49
22
74
0
49
-8.5
74
0
49
8.5
74
0
49
-8.5
74
0
0
LTYPE
5
6B
100
AcDbSymbolTableRecord
100
AcDbLinetypeTableRecord
70
0
2
DASHED
3
__ __ __ __ __ __ __ __ __
72
65
73
2
40
25.72
49
12.86
74
0
49
-12.86
74
0
0
ENDTAB
0
TABLE
2
LAYER
5
29f
100
AcDbSymbolTable
0
LAYER
5
10
100
AcDbSymbolTableRecord
100
AcDbLayerTableRecord
2
0
70
0
62
7
6
CONTINUOUS
290
1
370
-3
390
0
0
LAYER
5
6D
100
AcDbSymbolTableRecord
100
AcDbLayerTableRecord
2
2
70
0
62
7
6
CONTINUOUS
290
1
370
-3
390
0
0
LAYER
5
6F
100
AcDbSymbolTableRecord
100
AcDbLayerTableRecord
2
80
70
0
62
-6
6
CONTINUOUS
290
1
370
-3
390
0
0
LAYER
5
71
100
AcDbSymbolTableRecord
100
AcDbLayerTableRecord
2
81
70
0
62
-3
6
CONTINUOUS
290
1
370
-3
390
0
0
LAYER
5
73
100
AcDbSymbolTableRecord
100
AcDbLayerTableRecord
2
1
70
0
62
4
6
CONTINUOUS
290
1
370
-3
390
0
0
LAYER
5
8C
100
AcDbSymbolTableRecord
100
AcDbLayerTableRecord
2
4
70
0
62
-2
6
CENTER
290
1
370
-3
390
0
0
LAYER
5
289
100
AcDbSymbolTableRecord
100
AcDbLayerTableRecord
2
SK4
70
0
62
2
6
CENTER
290
1
370
-3
390
0
0
LAYER
5
28a
100
AcDbSymbolTableRecord
100
AcDbLayerTableRecord
2
SK1
70
0
62
4
6
CONTINUOUS
290
1
370
-3
390
0
0
LAYER
5
28b
100
AcDbSymbolTableRecord
100
AcDbLayerTableRecord
2
SK6
70
0
62
5
6
CONTINUOUS
290
1
370
-3
390
0
0
LAYER
5
28c
100
AcDbSymbolTableRecord
100
AcDbLayerTableRecord
2
SK2
70
0
62
7
6
CONTINUOUS
290
1
370
-3
390
0
0
ENDTAB
0
TABLE
2
STYLE
5
2a0
100
AcDbSymbolTable
0
STYLE
5
11
100
AcDbSymbolTableRecord
100
AcDbTextStyleTableRecord
2
Standard
3
txt
70
0
71
0
40
0
41
1
42
0
50
0
0
STYLE
5
1ED
100
AcDbSymbolTableRecord
100
AcDbTextStyleTableRecord
2
iso_b_vert
3
simplex.shx
70
0
71
0
40
0
41
1
42
0
50
0
0
STYLE
5
1EE
100
AcDbSymbolTableRecord
100
AcDbTextStyleTableRecord
2
DWGDirectTextStyle
3
simplex
70
0
71
0
40
0
41
1
42
0
50
0
0
ENDTAB
0
TABLE
2
DIMSTYLE
5
2a1
100
AcDbSymbolTable
100
AcDbDimStyleTable
0
DIMSTYLE
105
27
100
AcDbSymbolTableRecord
100
AcDbDimStyleTableRecord
2
Standard
70
0
3
<>
41
0.18
42
0.0625
44
0.18
140
0.18
147
0.09
73
0
74
0
77
1
271
2
275
0
278
52
280
0
340
11
0
ENDTAB
0
TABLE
2
VIEW
5
2a2
100
AcDbSymbolTable
0
ENDTAB
0
TABLE
2
UCS
5
2a3
100
AcDbSymbolTable
0
ENDTAB
0
TABLE
2
APPID
5
2a4
100
AcDbSymbolTable
0
APPID
5
12
100
AcDbSymbolTableRecord
100
AcDbRegAppTableRecord
2
ACAD
70
0
0
ENDTAB
0
TABLE
2
BLOCK_RECORD
5
2a5
100
AcDbSymbolTable
0
BLOCK_RECORD
5
1F
100
AcDbSymbolTableRecord
100
AcDbBlockTableRecord
2
*Model_Space
340
0
70
0
0
BLOCK_RECORD
5
1B
100
AcDbSymbolTableRecord
100
AcDbBlockTableRecord
2
*Paper_Space
340
0
70
0
0
BLOCK_RECORD
5
23
100
AcDbSymbolTableRecord
100
AcDbBlockTableRecord
2
*Paper_Space0
340
0
70
0
0
BLOCK_RECORD
5
1F0
100
AcDbSymbolTableRecord
100
AcDbBlockTableRecord
2
DimnDraft3D11
340
0
70
0
0
BLOCK_RECORD
5
1FE
100
AcDbSymbolTableRecord
100
AcDbBlockTableRecord
2
DimnDraft3D2
340
0
70
0
0
BLOCK_RECORD
5
20C
100
AcDbSymbolTableRecord
100
AcDbBlockTableRecord
2
_CLOSED
340
0
70
0
0
BLOCK_RECORD
5
213
100
AcDbSymbolTableRecord
100
AcDbBlockTableRecord
2
DimnDraft3D3
340
0
70
0
0
BLOCK_RECORD
5
222
100
AcDbSymbolTableRecord
100
AcDbBlockTableRecord
2
DimnDraft3D4
340
0
70
0
0
ENDTAB
0
ENDSEC
0
SECTION
2
BLOCKS
0
BLOCK
5
20
100
AcDbEntity
8
0
100
AcDbBlockBegin
2
*Model_Space
70
0
10
0
20
0
30
0
3
*Model_Space
0
ENDBLK
5
21
100
AcDbEntity
8
0
100
AcDbBlockEnd
0
BLOCK
5
1C
100
AcDbEntity
8
0
100
AcDbBlockBegin
2
*Paper_Space
70
0
10
0
20
0
30
0
3
*Paper_Space
0
ENDBLK
5
1D
100
AcDbEntity
8
0
100
AcDbBlockEnd
0
BLOCK
5
24
100
AcDbEntity
8
0
100
AcDbBlockBegin
2
*Paper_Space0
70
0
10
0
20
0
30
0
3
*Paper_Space0
0
ENDBLK
5
25
100
AcDbEntity
8
0
100
AcDbBlockEnd
0
BLOCK
5
1F1
100
AcDbEntity
8
0
100
AcDbBlockBegin
2
DimnDraft3D11
70
0
10
0
20
0
30
0
3
DimnDraft3D11
0
LINE
5
1F3
100
AcDbEntity
8
2
62
256
6
ByLayer
370
25
48
1
60
0
100
AcDbLine
10
50
20
29
30
0
11
50
21
57.75
31
0
39
0
210
0
220
0
230
1
0
LINE
5
1F4
100
AcDbEntity
8
2
62
256
6
ByLayer
370
25
48
1
60
0
100
AcDbLine
10
0
20
22
30
0
11
0
21
57.75
31
0
39
0
210
0
220
0
230
1
0
LINE
5
1F5
100
AcDbEntity
8
2
62
256
6
ByLayer
370
25
48
1
60
0
100
AcDbLine
10
50
20
55.75
30
0
11
0
21
55.75
31
0
39
0
210
0
220
0
230
1
0
LINE
5
1F6
100
AcDbEntity
8
2
62
256
6
ByLayer
370
25
48
1
60
0
100
AcDbLine
10
50
20
55.75
30
0
11
46.825002
21
55.332003
31
0
39
0
210
0
220
0
230
1
0
LINE
5
1F7
100
AcDbEntity
8
2
62
256
6
ByLayer
370
25
48
1
60
0
100
AcDbLine
10
50
20
55.75
30
0
11
46.824998
21
56.167997
31
0
39
0
210
0
220
0
230
1
0
LINE
5
1F8
100
AcDbEntity
8
2
62
256
6
ByLayer
370
25
48
1
60
0
100
AcDbLine
10
46.825002
20
55.332003
30
0
11
46.824998
21
56.167997
31
0
39
0
210
0
220
0
230
1
0
LINE
5
1F9
100
AcDbEntity
8
2
62
256
6
ByLayer
370
25
48
1
60
0
100
AcDbLine
10
0
20
55.75
30
0
11
3.174998
21
56.167997
31
0
39
0
210
0
220
0
230
1
0
LINE
5
1FA
100
AcDbEntity
8
2
62
256
6
ByLayer
370
25
48
1
60
0
100
AcDbLine
10
0
20
55.75
30
0
11
3.175002
21
55.332003
31
0
39
0
210
0
220
0
230
1
0
LINE
5
1FB
100
AcDbEntity
8
2
62
256
6
ByLayer
370
25
48
1
60
0
100
AcDbLine
10
3.174998
20
56.167997
30
0
11
3.175002
21
55.332003
31
0
39
0
210
0
220
0
230
1
0
MTEXT
5
1FC
100
AcDbEntity
8
2
62
256
6
ByLayer
370
18
48
1
60
0
100
AcDbMText
10
20.843421
20
56.875
30
0
210
0
220
0
230
1
1
\W0.7346;50.0
40
4.5
41
0
44
1.084337
50
0
71
7
72
5
7
iso_b_vert
0
ENDBLK
5
1F2
100
AcDbEntity
8
0
100
AcDbBlockEnd
0
BLOCK
5
209
100
AcDbEntity
8
0
100
AcDbBlockBegin
2
DimnDraft3D2
70
0
10
0
20
0
30
0
3
DimnDraft3D2
0
MTEXT
5
1FF
100
AcDbEntity
8
2
62
256
6
ByLayer
370
18
48
1
60
0
100
AcDbMText
10
38.150642
20
34.263071
30
0
210
0
220
0
230
1
1
\W0.7399;93%%d
40
4.5
41
0
44
1.084337
50
46.4999999999996
71
7
72
5
7
iso_b_vert
0
LINE
5
200
100
AcDbEntity
8
2
62
256
6
ByLayer
370
13
48
1
60
0
100
AcDbLine
10
50
20
29
30
0
11
50
21
41.483093
31
0
39
0
210
0
220
0
230
1
0
LINE
5
201
100
AcDbEntity
8
2
62
256
6
ByLayer
370
13
48
1
60
0
100
AcDbLine
10
46.16882
20
26.841904
30
0
11
35.579385
21
26.286936
31
0
39
0
210
0
220
0
230
1
0
ARC
5
202
100
AcDbEntity
8
2
62
256
6
ByLayer
370
13
48
1
60
0
100
AcDbCircle
39
0
10
50
20
27.042688
30
0
40
12.440404683847
210
0
220
0
230
1
100
AcDbArc
50
90
51
183
0
LINE
5
203
100
AcDbEntity
8
2
62
256
6
ByLayer
370
13
48
1
60
0
100
AcDbLine
10
50
20
39.483093
30
0
11
46.857902
21
38.864583
31
0
39
0
210
0
220
0
230
1
0
LINE
5
204
100
AcDbEntity
8
2
62
256
6
ByLayer
370
13
48
1
60
0
100
AcDbLine
10
50
20
39.483093
30
0
11
46.804881
21
39.698894
31
0
39
0
210
0
220
0
230
1
0
LINE
5
205
100
AcDbEntity
8
2
62
256
6
ByLayer
370
13
48
1
60
0
100
AcDbLine
10
46.857902
20
38.864583
30
0
11
46.804881
21
39.698894
31
0
39
0
210
0
220
0
230
1
0
LINE
5
206
100
AcDbEntity
8
2
62
256
6
ByLayer
370
13
48
1
60
0
100
AcDbLine
10
37.576644
20
26.391607
30
0
11
37.19392
21
29.571051
31
0
39
0
210
0
220
0
230
1
0
LINE
5
207
100
AcDbEntity
8
2
62
256
6
ByLayer
370
13
48
1
60
0
100
AcDbLine
10
37.576644
20
26.391607
30
0
11
38.029861
21
29.561773
31
0
39
0
210
0
220
0
230
1
0
LINE
5
208
100
AcDbEntity
8
2
62
256
6
ByLayer
370
13
48
1
60
0
100
AcDbLine
10
37.19392
20
29.571051
30
0
11
38.029861
21
29.561773
31
0
39
0
210
0
220
0
230
1
0
ENDBLK
5
20A
100
AcDbEntity
8
0
100
AcDbBlockEnd
0
BLOCK
5
20D
100
AcDbEntity
8
0
100
AcDbBlockBegin
2
_CLOSED
70
0
10
0
20
0
30
0
3
_CLOSED
0
LINE
5
20F
100
AcDbEntity
8
0
62
256
6
ByLayer
370
-2
48
1
60
0
100
AcDbLine
10
-1
20
0.166667
30
0
11
0
21
0
31
0
39
0
210
0
220
0
230
1
0
LINE
5
210
100
AcDbEntity
8
0
62
256
6
ByLayer
370
-2
48
1
60
0
100
AcDbLine
10
0
20
0
30
0
11
-1
21
-0.166667
31
0
39
0
210
0
220
0
230
1
0
LINE
5
211
100
AcDbEntity
8
0
62
256
6
ByLayer
370
-2
48
1
60
0
100
AcDbLine
10
-1
20
0.166667
30
0
11
-1
21
-0.166667
31
0
39
0
210
0
220
0
230
1
0
LINE
5
212
100
AcDbEntity
8
0
62
256
6
ByLayer
370
-2
48
1
60
0
100
AcDbLine
10
0
20
0
30
0
11
-1
21
0
31
0
39
0
210
0
220
0
230
1
0
ENDBLK
5
20E
100
AcDbEntity
8
0
100
AcDbBlockEnd
0
BLOCK
5
21F
100
AcDbEntity
8
0
100
AcDbBlockBegin
2
DimnDraft3D3
70
0
10
0
20
0
30
0
3
DimnDraft3D3
0
MTEXT
5
214
100
AcDbEntity
8
SK2
62
256
6
ByLayer
370
18
48
1
60
0
100
AcDbMText
10
-32.875
20
-1.8
30
0
210
0
220
0
230
1
1
\W0.7361;40
40
4.5
41
0
44
1.084337
50
90
71
7
72
5
7
iso_b_vert
0
LINE
5
216
100
AcDbEntity
8
SK2
62
256
6
ByLayer
370
13
48
1
60
0
100
AcDbLine
10
-2
20
-20
30
0
11
-33.75
21
-20
31
0
39
0
210
0
220
0
230
1
0
LINE
5
217
100
AcDbEntity
8
SK2
62
256
6
ByLayer
370
13
48
1
60
0
100
AcDbLine
10
-2
20
20
30
0
11
-33.75
21
20
31
0
39
0
210
0
220
0
230
1
0
LINE
5
218
100
AcDbEntity
8
SK2
62
256
6
ByLayer
370
13
48
1
60
0
100
AcDbLine
10
-31.75
20
-20
30
0
11
-31.75
21
20
31
0
39
0
210
0
220
0
230
1
0
LINE
5
219
100
AcDbEntity
8
SK2
62
256
6
ByLayer
370
13
48
1
60
0
100
AcDbLine
10
-31.75
20
-20
30
0
11
-32.167997
21
-16.825002
31
0
39
0
210
0
220
0
230
1
0
LINE
5
21A
100
AcDbEntity
8
SK2
62
256
6
ByLayer
370
13
48
1
60
0
100
AcDbLine
10
-31.75
20
-20
30
0
11
-31.332003
21
-16.824998
31
0
39
0
210
0
220
0
230
1
0
LINE
5
21B
100
AcDbEntity
8
SK2
62
256
6
ByLayer
370
13
48
1
60
0
100
AcDbLine
10
-32.167997
20
-16.825002
30
0
11
-31.332003
21
-16.824998
31
0
39
0
210
0
220
0
230
1
0
LINE
5
21C
100
AcDbEntity
8
SK2
62
256
6
ByLayer
370
13
48
1
60
0
100
AcDbLine
10
-31.75
20
20
30
0
11
-31.332003
21
16.825002
31
0
39
0
210
0
220
0
230
1
0
LINE
5
21D
100
AcDbEntity
8
SK2
62
256
6
ByLayer
370
13
48
1
60
0
100
AcDbLine
10
-31.75
20
20
30
0
11
-32.167997
21
16.824998
31
0
39
0
210
0
220
0
230
1
0
LINE
5
21E
100
AcDbEntity
8
SK2
62
256
6
ByLayer
370
13
48
1
60
0
100
AcDbLine
10
-31.332003
20
16.825002
30
0
11
-32.167997
21
16.824998
31
0
39
0
210
0
220
0
230
1
0
ENDBLK
5
220
100
AcDbEntity
8
0
100
AcDbBlockEnd
0
BLOCK
5
22D
100
AcDbEntity
8
0
100
AcDbBlockBegin
2
DimnDraft3D4
70
0
10
0
20
0
30
0
3
DimnDraft3D4
0
MTEXT
5
223
100
AcDbEntity
8
2
62
256
6
ByLayer
370
18
48
1
60
0
100
AcDbMText
10
71.125
20
9.343421
30
0
210
0
220
0
230
1
1
\W0.7346;27.0
40
4.5
41
0
44
1.084337
50
90
71
7
72
5
7
iso_b_vert
0
LINE
5
224
100
AcDbEntity
8
2
62
256
6
ByLayer
370
13
48
1
60
0
100
AcDbLine
10
52
20
0
30
0
11
74.25
21
0
31
0
39
0
210
0
220
0
230
1
0
LINE
5
225
100
AcDbEntity
8
2
62
256
6
ByLayer
370
13
48
1
60
0
100
AcDbLine
10
52
20
27
30
0
11
74.25
21
27
31
0
39
0
210
0
220
0
230
1
0
LINE
5
226
100
AcDbEntity
8
2
62
256
6
ByLayer
370
13
48
1
60
0
100
AcDbLine
10
72.25
20
0
30
0
11
72.25
21
27
31
0
39
0
210
0
220
0
230
1
0
LINE
5
227
100
AcDbEntity
8
2
62
256
6
ByLayer
370
13
48
1
60
0
100
AcDbLine
10
72.25
20
0
30
0
11
71.832003
21
3.174998
31
0
39
0
210
0
220
0
230
1
0
LINE
5
228
100
AcDbEntity
8
2
62
256
6
ByLayer
370
13
48
1
60
0
100
AcDbLine
10
72.25
20
0
30
0
11
72.667997
21
3.175002
31
0
39
0
210
0
220
0
230
1
0
LINE
5
229
100
AcDbEntity
8
2
62
256
6
ByLayer
370
13
48
1
60
0
100
AcDbLine
10
71.832003
20
3.174998
30
0
11
72.667997
21
3.175002
31
0
39
0
210
0
220
0
230
1
0
LINE
5
22A
100
AcDbEntity
8
2
62
256
6
ByLayer
370
13
48
1
60
0
100
AcDbLine
10
72.25
20
27
30
0
11
72.667997
21
23.825002
31
0
39
0
210
0
220
0
230
1
0
LINE
5
22B
100
AcDbEntity
8
2
62
256
6
ByLayer
370
13
48
1
60
0
100
AcDbLine
10
72.25
20
27
30
0
11
71.832003
21
23.824998
31
0
39
0
210
0
220
0
230
1
0
LINE
5
22C
100
AcDbEntity
8
2
62
256
6
ByLayer
370
13
48
1
60
0
100
AcDbLine
10
72.667997
20
23.825002
30
0
11
71.832003
21
23.824998
31
0
39
0
210
0
220
0
230
1
0
ENDBLK
5
22E
100
AcDbEntity
8
0
100
AcDbBlockEnd
0
ENDSEC
0
SECTION
2
ENTITIES
0
ARC
5
FE
100
AcDbEntity
8
SK1
62
256
6
ByLayer
370
18
48
1
60
0
100
AcDbCircle
39
0
10
0.6
20
-15
30
0
40
0.999999999999989
210
0
220
0
230
-1
100
AcDbArc
50
113.578178
51
126.869898
0
ARC
5
FF
100
AcDbEntity
8
SK1
62
256
6
ByLayer
370
18
48
1
60
0
100
AcDbCircle
39
0
10
0.6
20
15
30
0
40
0.999999999999989
210
0
220
0
230
-1
100
AcDbArc
50
233.130102
51
246.421822
0
ELLIPSE
5
100
100
AcDbEntity
8
1
62
256
6
ByLayer
370
18
48
1
60
0
100
AcDbEllipse
10
8
20
11.854645
30
0
11
2
21
0
31
0
210
0
220
0
230
1
40
0.707107
41
0.373653459844233
42
2.76793957407005
0
ELLIPSE
5
101
100
AcDbEntity
8
1
62
256
6
ByLayer
370
18
48
1
60
0
100
AcDbEllipse
10
8
20
10.606602
30
0
11
-1.87399516862694
21
-2.78920145025286
31
0
210
0
220
0
230
1
40
0.250492
41
1.94585700116124
42
-2.65958138010599
0
ELLIPSE
5
102
100
AcDbEntity
8
1
62
256
6
ByLayer
370
18
48
1
60
0
100
AcDbEllipse
10
8
20
11.854645
30
0
11
1.65
21
0
31
0
210
0
220
0
230
1
40
0.707107
41
-2.29041743578248
42
-2.13245415547795
0
ELLIPSE
5
103
100
AcDbEntity
8
1
62
256
6
ByLayer
370
18
48
1
60
0
100
AcDbEllipse
10
8
20
11.854645
30
0
11
1.65
21
0
31
0
210
0
220
0
230
1
40
0.707107
41
-0.0234635074422896
42
0
0
ELLIPSE
5
104
100
AcDbEntity
8
1
62
256
6
ByLayer
370
18
48
1
60
0
100
AcDbEllipse
10
8
20
11.854645
30
0
11
1.65
21
0
31
0
210
0
220
0
230
1
40
0.707107
41
0
42
-3.11812898116473
0
ELLIPSE
5
105
100
AcDbEntity
8
1
62
256
6
ByLayer
370
18
48
1
60
0
100
AcDbEllipse
10
8
20
11.854645
30
0
11
1.65
21
0
31
0
210
0
220
0
230
1
40
0.707107
41
-1.00913862407849
42
-0.629693465280207
0
ELLIPSE
5
106
100
AcDbEntity
8
1
62
256
6
ByLayer
370
18
48
1
60
0
100
AcDbEllipse
10
36.168769
20
1.42094
30
0
11
-3.48908087149001
21
-4.37458088928307
31
0
210
0
220
0
230
1
40
0.714822
41
2.79333533534296
42
3.13974967304729
0
ELLIPSE
5
107
100
AcDbEntity
8
1
62
256
6
ByLayer
370
18
48
1
60
0
100
AcDbEllipse
10
17.749773
20
0
30
0
11
1.22460635382238E-15
21
20
31
0
210
0
220
0
230
1
40
0.087489
41
0.392575063395553
42
2.74901759019424
0
ELLIPSE
5
108
100
AcDbEntity
8
1
62
256
6
ByLayer
370
18
48
1
60
0
100
AcDbEllipse
10
-0.948929
20
0
30
0
11
-9.36741787978211
21
19.7417491527504
31
0
210
0
220
0
230
1
40
0.341999
41
-2.98886640869145
42
-2.0452731260899
0
ELLIPSE
5
109
100
AcDbEntity
8
1
62
256
6
ByLayer
370
18
48
1
60
0
100
AcDbEllipse
10
16.948929
20
0
30
0
11
-9.36741787978228
21
-19.7417491527506
31
0
210
0
220
0
230
1
40
0.341999
41
-1.09631952749989
42
-0.152726244898338
0
ELLIPSE
5
10A
100
AcDbEntity
8
1
62
256
6
ByLayer
370
18
48
1
60
0
100
AcDbEllipse
10
-0.948929
20
0
30
0
11
-9.36741787978245
21
-19.7417491527508
31
0
210
0
220
0
230
1
40
0.341999
41
2.04527312608992
42
2.98886640869145
0
ELLIPSE
5
10B
100
AcDbEntity
8
1
62
256
6
ByLayer
370
18
48
1
60
0
100
AcDbEllipse
10
16.954533
20
13.692809
30
0
11
-0.0235688542498916
21
-2.70298856867876
31
0
210
0
220
0
230
1
40
0.083311
41
2.68104770424035
42
0.529314734582183
0
ELLIPSE
5
10C
100
AcDbEntity
8
1
62
256
6
ByLayer
370
18
48
1
60
0
100
AcDbEllipse
10
8
20
12.137533
30
0
11
2
21
0
31
0
210
0
220
0
230
1
40
0.707107
41
1.00226206910651
42
2.13933058448328
0
ELLIPSE
5
10D
100
AcDbEntity
8
1
62
256
6
ByLayer
370
18
48
1
60
0
100
AcDbEllipse
10
22.474111
20
53.555131
30
0
11
-6.69225682523465E-15
21
-36.4321525544163
31
0
210
-6.9425119697206E-18
220
-1.3363823550461E-51
230
1
40
0.109793
41
-0.359965400657581
42
-0.213043167614295
0
ELLIPSE
5
10E
100
AcDbEntity
8
1
62
256
6
ByLayer
370
18
48
1
60
0
100
AcDbEllipse
10
16.948929
20
0
30
0
11
-9.36741787978284
21
19.7417491527512
31
0
210
0
220
0
230
1
40
0.341999
41
0.152726244898339
42
1.09631952749986
0
ELLIPSE
5
10F
100
AcDbEntity
8
1
62
256
6
ByLayer
370
18
48
1
60
0
100
AcDbEllipse
10
43.026706
20
14.625258
30
0
11
1.76049377056326
21
-1.5851557109763
31
0
210
0
220
0
230
1
40
0.989133
41
-1.33025623222487
42
-0.777753293310924
0
ELLIPSE
5
110
100
AcDbEntity
8
1
62
256
6
ByLayer
370
18
48
1
60
0
100
AcDbEllipse
10
43.22531
20
14.6361
30
0
11
1.76049377056326
21
-1.5851557109763
31
0
210
0
220
0
230
1
40
0.989133
41
-0.777753293310924
42
0.79304303348397
0
ELLIPSE
5
111
100
AcDbEntity
8
1
62
256
6
ByLayer
370
18
48
1
60
0
100
AcDbEllipse
10
42.132323
20
13.422216
30
0
11
1.85656497275482
21
-1.67165860997012
31
0
210
0
220
0
230
1
40
0.989133
41
0.418898835881284
42
0.793043033483979
0
ELLIPSE
5
112
100
AcDbEntity
8
1
62
256
6
ByLayer
370
18
48
1
60
0
100
AcDbEllipse
10
24.07641
20
11.116687
30
0
11
-3.48908087133738
21
-4.37458088916726
31
0
210
0
220
0
230
1
40
0.714822
41
3.13974967304127
42
-2.79702116241622
0
ELLIPSE
5
113
100
AcDbEntity
8
1
62
256
6
ByLayer
370
18
48
1
60
0
100
AcDbEllipse
10
42.117566
20
13.405827
30
0
11
1.74509324893321
21
-1.5712890190163
31
0
210
0
220
0
230
1
40
0.989133
41
0.351084803212924
42
0.793043033483983
0
ELLIPSE
5
114
100
AcDbEntity
8
1
62
256
6
ByLayer
370
18
48
1
60
0
100
AcDbEllipse
10
8
20
10.606602
30
0
11
-1.87399516862692
21
2.78920145025283
31
0
210
0
220
0
230
1
40
0.250492
41
-0.482011273483802
42
1.19573565242856
0
ELLIPSE
5
115
100
AcDbEntity
8
1
62
256
6
ByLayer
370
18
48
1
60
0
100
AcDbEllipse
10
8
20
12.137533
30
0
11
2
21
0
31
0
210
0
220
0
230
1
40
0.707107
41
-2.13933058448328
42
-1.00226206910651
0
ELLIPSE
5
116
100
AcDbEntity
8
1
62
256
6
ByLayer
370
18
48
1
60
0
100
AcDbEllipse
10
38.205539
20
22.058404
30
0
11
-1.56973692348434
21
1.98552100698119
31
0
210
0
220
0
230
1
40
0.482826
41
1.05401673777484
42
1.39634722277655
0
ELLIPSE
5
117
100
AcDbEntity
8
1
62
256
6
ByLayer
370
18
48
1
60
0
100
AcDbEllipse
10
35.537292
20
14.643762
30
0
11
0.234090620025381
21
-0.210776141003039
31
0
210
0
220
0
230
1
40
0.989133
41
-1.38213118972169
42
-0.735775343330664
0
ELLIPSE
5
118
100
AcDbEntity
8
1
62
256
6
ByLayer
370
18
48
1
60
0
100
AcDbEllipse
10
36.851208
20
14.604751
30
0
11
0.234090620025381
21
-0.210776141003039
31
0
210
0
220
0
230
1
40
0.989133
41
-2.42932874091832
42
-1.95612847315304
0
ELLIPSE
5
119
100
AcDbEntity
8
1
62
256
6
ByLayer
370
18
48
1
60
0
100
AcDbEllipse
10
35.970891
20
12.735495
30
0
11
-0.215511999388447
21
0.194047875844066
31
0
210
0
220
0
230
1
40
0.989133
41
0.712263912671487
42
-2.69101284290194
0
ELLIPSE
5
11A
100
AcDbEntity
8
1
62
256
6
ByLayer
370
18
48
1
60
0
100
AcDbEllipse
10
36.110052
20
13.678003
30
0
11
0.687408963566595
21
-0.618945810881939
31
0
210
0
220
0
230
1
40
0.989133
41
-1.65951827150171
42
-1.36642820992535
0
ELLIPSE
5
11B
100
AcDbEntity
8
1
62
256
6
ByLayer
370
18
48
1
60
0
100
AcDbEllipse
10
35.977241
20
13.530502
30
0
11
0.668830342929659
21
-0.602217545722968
31
0
210
0
220
0
230
1
40
0.989133
41
2.76930898916643
42
-2.95593336389875
0
ELLIPSE
5
11C
100
AcDbEntity
8
1
62
256
6
ByLayer
370
18
48
1
60
0
100
AcDbEllipse
10
36.105792
20
13.673272
30
0
11
0.668830342929659
21
-0.602217545722968
31
0
210
0
220
0
230
1
40
0.989133
41
-0.559267714610478
42
-0.372283664423383
0
ELLIPSE
5
11D
100
AcDbEntity
8
1
62
256
6
ByLayer
370
18
48
1
60
0
100
AcDbEllipse
10
36.110052
20
13.678003
30
0
11
0.687408963566595
21
-0.618945810881939
31
0
210
0
220
0
230
1
40
0.989133
41
-2.70671582269831
42
-2.41362576112195
0
ELLIPSE
5
11E
100
AcDbEntity
8
1
62
256
6
ByLayer
370
18
48
1
60
0
100
AcDbEllipse
10
35.83808
20
12.587993
30
0
11
-0.215511999388447
21
0.194047875844066
31
0
210
0
220
0
230
1
40
0.989133
41
-2.78834531482255
42
-2.69101284290194
0
ELLIPSE
5
11F
100
AcDbEntity
8
1
62
256
6
ByLayer
370
18
48
1
60
0
100
AcDbEllipse
10
37.158345
20
13.343989
30
0
11
0.234090620025381
21
-0.210776141003039
31
0
210
0
220
0
230
1
40
0.989133
41
-2.29017113809641
42
-1.64381529170538
0
ELLIPSE
5
120
100
AcDbEntity
8
1
62
256
6
ByLayer
370
18
48
1
60
0
100
AcDbEllipse
10
36.105792
20
13.673272
30
0
11
0.668830342929659
21
-0.602217545722968
31
0
210
0
220
0
230
1
40
0.989133
41
0.487929836585966
42
0.674913886782954
0
ELLIPSE
5
121
100
AcDbEntity
8
1
62
256
6
ByLayer
370
18
48
1
60
0
100
AcDbEllipse
10
36.110052
20
13.678003
30
0
11
0.687408963566595
21
-0.618945810881939
31
0
210
0
220
0
230
1
40
0.989133
41
2.52927193328467
42
2.82236199486104
0
ELLIPSE
5
122
100
AcDbEntity
8
1
62
256
6
ByLayer
370
18
48
1
60
0
100
AcDbEllipse
10
36.066866
20
13.63004
30
0
11
-2.37806344152769
21
2.14121794034831
31
0
210
0
220
0
230
1
40
0.989133
41
0
42
6.28318530717959
0
ELLIPSE
5
123
100
AcDbEntity
8
1
62
256
6
ByLayer
370
18
48
1
60
0
100
AcDbEllipse
10
35.977241
20
13.530502
30
0
11
0.668830342929659
21
-0.602217545722968
31
0
210
0
220
0
230
1
40
0.989133
41
0.674913886773214
42
1.53512738778272
0
ELLIPSE
5
124
100
AcDbEntity
8
1
62
256
6
ByLayer
370
18
48
1
60
0
100
AcDbEllipse
10
36.550001
20
12.564743
30
0
11
0.234090620025381
21
-0.210776141003039
31
0
210
0
220
0
230
1
40
0.989133
41
1.75946146386813
42
2.23266173163335
0
ELLIPSE
5
125
100
AcDbEntity
8
1
62
256
6
ByLayer
370
18
48
1
60
0
100
AcDbEllipse
10
35.977241
20
13.530502
30
0
11
0.668830342929659
21
-0.602217545722968
31
0
210
0
220
0
230
1
40
0.989133
41
1.72211143796981
42
2.58232493897933
0
ELLIPSE
5
126
100
AcDbEntity
8
1
62
256
6
ByLayer
370
18
48
1
60
0
100
AcDbEllipse
10
36.105792
20
13.673272
30
0
11
0.668830342929659
21
-0.602217545722968
31
0
210
0
220
0
230
1
40
0.989133
41
2.58232493897422
42
2.76930898917421
0
ELLIPSE
5
127
100
AcDbEntity
8
1
62
256
6
ByLayer
370
18
48
1
60
0
100
AcDbEllipse
10
35.670103
20
14.791263
30
0
11
0.234090620025381
21
-0.210776141003039
31
0
210
0
220
0
230
1
40
0.989133
41
-0.0226204570773955
42
0.450579810687818
0
ELLIPSE
5
128
100
AcDbEntity
8
1
62
256
6
ByLayer
370
18
48
1
60
0
100
AcDbEllipse
10
36.110052
20
13.678003
30
0
11
0.687408963566595
21
-0.618945810881939
31
0
210
0
220
0
230
1
40
0.989133
41
0.43487683089149
42
0.727966892467834
0
ELLIPSE
5
129
100
AcDbEntity
8
1
62
256
6
ByLayer
370
18
48
1
60
0
100
AcDbEllipse
10
36.718397
20
14.457249
30
0
11
0.234090620025381
21
-0.210776141003039
31
0
210
0
220
0
230
1
40
0.989133
41
-2.42932874091832
42
-1.7829728945273
0
ELLIPSE
5
12A
100
AcDbEntity
8
1
62
256
6
ByLayer
370
18
48
1
60
0
100
AcDbEllipse
10
35.368897
20
12.751256
30
0
11
0.234090620025381
21
-0.210776141003039
31
0
210
0
220
0
230
1
40
0.989133
41
0.71226391267151
42
1.18546418043675
0
ELLIPSE
5
12B
100
AcDbEntity
8
1
62
256
6
ByLayer
370
18
48
1
60
0
100
AcDbEllipse
10
35.228295
20
14.131012
30
0
11
-0.215511999388447
21
0.194047875844066
31
0
210
0
220
0
230
1
40
0.989133
41
-1.38213118972171
42
-0.35323814360638
0
ELLIPSE
5
12C
100
AcDbEntity
8
1
62
256
6
ByLayer
370
18
48
1
60
0
100
AcDbEllipse
10
35.537292
20
14.643762
30
0
11
0.234090620025381
21
-0.210776141003039
31
0
210
0
220
0
230
1
40
0.989133
41
-0.195776035703199
42
1.01994183086109E-05
0
ELLIPSE
5
12D
100
AcDbEntity
8
1
62
256
6
ByLayer
370
18
48
1
60
0
100
AcDbEllipse
10
35.221945
20
13.336006
30
0
11
-0.215511999388447
21
0.194047875844066
31
0
210
0
220
0
230
1
40
0.989133
41
-0.33493363852512
42
2.54497491308101
0
ELLIPSE
5
12E
100
AcDbEntity
8
1
62
256
6
ByLayer
370
18
48
1
60
0
100
AcDbEllipse
10
35.977241
20
13.530502
30
0
11
0.668830342929659
21
-0.602217545722968
31
0
210
0
220
0
230
1
40
0.989133
41
-0.10331935298129
42
0.487929836586119
0
ELLIPSE
5
12F
100
AcDbEntity
8
1
62
256
6
ByLayer
370
18
48
1
60
0
100
AcDbEllipse
10
35.670103
20
14.791263
30
0
11
0.234090620025381
21
-0.210776141003039
31
0
210
0
220
0
230
1
40
0.989133
41
-1.38213118972171
42
-0.9089309219565
0
ELLIPSE
5
130
100
AcDbEntity
8
1
62
256
6
ByLayer
370
18
48
1
60
0
100
AcDbEllipse
10
36.110052
20
13.678003
30
0
11
0.687408963566595
21
-0.618945810881939
31
0
210
0
220
0
230
1
40
0.989133
41
1.48207438208809
42
1.77516444366444
0
ELLIPSE
5
131
100
AcDbEntity
8
1
62
256
6
ByLayer
370
18
48
1
60
0
100
AcDbEllipse
10
36.105792
20
13.673272
30
0
11
0.668830342929659
21
-0.602217545722968
31
0
210
0
220
0
230
1
40
0.989133
41
-2.65366281700385
42
-2.46667876680686
0
ELLIPSE
5
132
100
AcDbEntity
8
1
62
256
6
ByLayer
370
18
48
1
60
0
100
AcDbEllipse
10
36.41719
20
12.417241
30
0
11
0.234090620025381
21
-0.210776141003039
31
0
210
0
220
0
230
1
40
0.989133
41
-3.14158319757521
42
-2.69101284290196
0
ELLIPSE
5
133
100
AcDbEntity
8
1
62
256
6
ByLayer
370
18
48
1
60
0
100
AcDbEllipse
10
37.291156
20
13.491491
30
0
11
0.234090620025381
21
-0.210776141003039
31
0
210
0
220
0
230
1
40
0.989133
41
-2.11701555947062
42
-1.64381529170538
0
ELLIPSE
5
134
100
AcDbEntity
8
1
62
256
6
ByLayer
370
18
48
1
60
0
100
AcDbEllipse
10
36.105792
20
13.673272
30
0
11
0.668830342929659
21
-0.602217545722968
31
0
210
0
220
0
230
1
40
0.989133
41
-1.60646526580708
42
-1.41948121561998
0
ELLIPSE
5
135
100
AcDbEntity
8
1
62
256
6
ByLayer
370
18
48
1
60
0
100
AcDbEllipse
10
34.796137
20
13.717014
30
0
11
0.234090620025381
21
-0.210776141003039
31
0
210
0
220
0
230
1
40
0.989133
41
-0.334933638525096
42
9.53575778435247E-07
0
ELLIPSE
5
136
100
AcDbEntity
8
1
62
256
6
ByLayer
370
18
48
1
60
0
100
AcDbEllipse
10
36.116402
20
14.47301
30
0
11
-0.215511999388447
21
0.194047875844066
31
0
210
0
220
0
230
1
40
0.989133
41
-2.42932874091831
42
-0.353276286586908
0
ELLIPSE
5
137
100
AcDbEntity
8
1
62
256
6
ByLayer
370
18
48
1
60
0
100
AcDbEllipse
10
34.928948
20
13.864516
30
0
11
0.234090620025381
21
-0.210776141003039
31
0
210
0
220
0
230
1
40
0.989133
41
1.02457709411919
42
1.49777736188441
0
ELLIPSE
5
138
100
AcDbEntity
8
1
62
256
6
ByLayer
370
18
48
1
60
0
100
AcDbEllipse
10
36.865348
20
13.872499
30
0
11
-0.215511999388447
21
0.194047875844066
31
0
210
0
220
0
230
1
40
0.989133
41
-2.78881233080577
42
-0.596617740508798
0
ELLIPSE
5
139
100
AcDbEntity
8
1
62
256
6
ByLayer
370
18
48
1
60
0
100
AcDbEllipse
10
37.291156
20
13.491491
30
0
11
0.234090620025381
21
-0.210776141003039
31
0
210
0
220
0
230
1
40
0.989133
41
2.80665901506471
42
-3.00332602434963
0
ELLIPSE
5
13A
100
AcDbEntity
8
1
62
256
6
ByLayer
370
18
48
1
60
0
100
AcDbEllipse
10
37.158345
20
13.343989
30
0
11
0.234090620025381
21
-0.210776141003039
31
0
210
0
220
0
230
1
40
0.989133
41
3.14159241313835
42
-2.83017044572389
0
ELLIPSE
5
13B
100
AcDbEntity
8
1
62
256
6
ByLayer
370
18
48
1
60
0
100
AcDbEllipse
10
35.977241
20
13.530502
30
0
11
0.668830342929659
21
-0.602217545722968
31
0
210
0
220
0
230
1
40
0.989133
41
-2.44015990225833
42
-1.83315817791559
0
ELLIPSE
5
13C
100
AcDbEntity
8
1
62
256
6
ByLayer
370
18
48
1
60
0
100
AcDbEllipse
10
34.928948
20
13.864516
30
0
11
0.234090620025381
21
-0.210776141003039
31
0
210
0
220
0
230
1
40
0.989133
41
-0.334933638525123
42
0.138266629240128
0
ELLIPSE
5
13D
100
AcDbEntity
8
1
62
256
6
ByLayer
370
18
48
1
60
0
100
AcDbEllipse
10
36.99816
20
14.020001
30
0
11
-0.215511999388447
21
0.194047875844066
31
0
210
0
220
0
230
1
40
0.989133
41
2.80665901506468
42
-0.596617740508798
0
ELLIPSE
5
13E
100
AcDbEntity
8
1
62
256
6
ByLayer
370
18
48
1
60
0
100
AcDbEllipse
10
35.368897
20
12.751256
30
0
11
0.234090620025381
21
-0.210776141003039
31
0
210
0
220
0
230
1
40
0.989133
41
2.07177464531578
42
2.54497491308103
0
ELLIPSE
5
13F
100
AcDbEntity
8
1
62
256
6
ByLayer
370
18
48
1
60
0
100
AcDbEllipse
10
36.110052
20
13.678003
30
0
11
0.687408963566595
21
-0.618945810881939
31
0
210
0
220
0
230
1
40
0.989133
41
-0.612320720305121
42
-0.319230658728758
0
ELLIPSE
5
140
100
AcDbEntity
8
1
62
256
6
ByLayer
370
18
48
1
60
0
100
AcDbEllipse
10
35.361106
20
14.278514
30
0
11
-0.215511999388447
21
0.194047875844066
31
0
210
0
220
0
230
1
40
0.989133
41
-1.38213118972173
42
1.49777736188442
0
ELLIPSE
5
141
100
AcDbEntity
8
1
62
256
6
ByLayer
370
18
48
1
60
0
100
AcDbEllipse
10
35.942809
20
13.49226
30
0
11
0.668830342929659
21
-0.602217545722968
31
0
210
0
220
0
230
1
40
0.989133
41
0.0289350020261581
42
3.11260471708343
0
ELLIPSE
5
142
100
AcDbEntity
8
1
62
256
6
ByLayer
370
18
48
1
60
0
100
AcDbEllipse
10
36.718397
20
14.457249
30
0
11
0.234090620025381
21
-0.210776141003039
31
0
210
0
220
0
230
1
40
0.989133
41
-1.24297358689982
42
-0.596617740508791
0
ELLIPSE
5
143
100
AcDbEntity
8
1
62
256
6
ByLayer
370
18
48
1
60
0
100
AcDbEllipse
10
36.110052
20
13.678003
30
0
11
-1.41197516840707
21
1.27134815208181
31
0
210
0
220
0
230
1
40
0.989133
41
0
42
6.28318530717959
0
ELLIPSE
5
144
100
AcDbEntity
8
1
62
256
6
ByLayer
370
18
48
1
60
0
100
AcDbEllipse
10
35.977241
20
13.530502
30
0
11
0.668830342929659
21
-0.602217545722968
31
0
210
0
220
0
230
1
40
0.989133
41
-1.17333872682103
42
-0.559267714610494
0
ELLIPSE
5
145
100
AcDbEntity
8
1
62
256
6
ByLayer
370
18
48
1
60
0
100
AcDbEllipse
10
36.851208
20
14.604751
30
0
11
0.234090620025381
21
-0.210776141003039
31
0
210
0
220
0
230
1
40
0.989133
41
-1.06981800827402
42
-0.596617740508755
0
ELLIPSE
5
146
100
AcDbEntity
8
1
62
256
6
ByLayer
370
18
48
1
60
0
100
AcDbEllipse
10
36.726187
20
12.929991
30
0
11
-0.215511999388447
21
0.194047875844066
31
0
210
0
220
0
230
1
40
0.989133
41
-2.78835510516436
42
-1.64381529170539
0
ELLIPSE
5
147
100
AcDbEntity
8
1
62
256
6
ByLayer
370
18
48
1
60
0
100
AcDbEllipse
10
35.903457
20
13.448556
30
0
11
2.37806344152768
21
-2.14121794034833
31
0
210
0
220
0
230
1
40
0.989133
41
3.14156605715621
42
-0.843188182912965
0
ELLIPSE
5
148
100
AcDbEntity
8
1
62
256
6
ByLayer
370
18
48
1
60
0
100
AcDbEllipse
10
35.903457
20
13.448556
30
0
11
2.37806344152768
21
-2.14121794034833
31
0
210
0
220
0
230
1
40
0.989133
41
-0.843188182912953
42
0
0
ELLIPSE
5
149
100
AcDbEntity
8
1
62
256
6
ByLayer
370
18
48
1
60
0
100
AcDbEllipse
10
36.249213
20
14.620511
30
0
11
-0.215511999388447
21
0.194047875844066
31
0
210
0
220
0
230
1
40
0.989133
41
-2.42932874091831
42
0.450579810687843
0
ELLIPSE
5
14A
100
AcDbEntity
8
1
62
256
6
ByLayer
370
18
48
1
60
0
100
AcDbEllipse
10
36.105792
20
13.673272
30
0
11
0.668830342929659
21
-0.602217545722968
31
0
210
0
220
0
230
1
40
0.989133
41
1.53512738778273
42
1.72211143796982
0
ELLIPSE
5
14B
100
AcDbEntity
8
1
62
256
6
ByLayer
370
18
48
1
60
0
100
AcDbEllipse
10
36.550001
20
12.564743
30
0
11
0.234090620025381
21
-0.210776141003039
31
0
210
0
220
0
230
1
40
0.989133
41
3.11897219651235
42
-2.69101284290196
0
ELLIPSE
5
14C
100
AcDbEntity
8
1
62
256
6
ByLayer
370
18
48
1
60
0
100
AcDbEllipse
10
36.858998
20
13.077492
30
0
11
-0.215511999388447
21
0.194047875844066
31
0
210
0
220
0
230
1
40
0.989133
41
1.75946146386811
42
-1.64381529170542
0
ELLIPSE
5
14D
100
AcDbEntity
8
1
62
256
6
ByLayer
370
18
48
1
60
0
100
AcDbEllipse
10
35.93828
20
10.004074
30
0
11
2.81499571204061
21
3.51081174960905
31
0
210
0
220
0
230
1
40
0.008497
41
-2.38176204128982
42
-1.94288547246091
0
ELLIPSE
5
14E
100
AcDbEntity
8
1
62
256
6
ByLayer
370
18
48
1
60
0
100
AcDbEllipse
10
36.325912
20
13.97709
30
0
11
-2.50325377285797
21
2.22625707156032
31
0
210
0
220
0
230
1
40
0.986421
41
-3.08983598628257
42
-0.0672802099244308
0
ELLIPSE
5
14F
100
AcDbEntity
8
1
62
256
6
ByLayer
370
18
48
1
60
0
100
AcDbEllipse
10
35.252427
20
7.709845
30
0
11
1.76329603787241
21
-0.361644967922212
31
0
210
0
220
0
230
1
40
0.789807
41
-1.95033180541692
42
-0.520101998968111
0
ELLIPSE
5
150
100
AcDbEntity
8
1
62
256
6
ByLayer
370
18
48
1
60
0
100
AcDbEllipse
10
36.680051
20
9.47447
30
0
11
-0.355765360599314
21
-3.65163204559593
31
0
210
0
220
0
230
1
40
0.450788
41
0.313627366877757
42
0.605251230395457
0
ELLIPSE
5
151
100
AcDbEntity
8
1
62
256
6
ByLayer
370
18
48
1
60
0
100
AcDbEllipse
10
25.79786
20
9.713218
30
0
11
3.75332761605415
21
4.68108233281207
31
0
210
0
220
0
230
1
40
0.008497
41
0.81054150494837
42
0.81243062602555
0
ELLIPSE
5
152
100
AcDbEntity
8
1
62
256
6
ByLayer
370
18
48
1
60
0
100
AcDbEllipse
10
30.226339
20
14.691074
30
0
11
-1.80506244379905
21
-2.0128241433846
31
0
210
0
220
0
230
1
40
0.337398
41
-0.116678527452915
42
0.624812356277096
0
ELLIPSE
5
153
100
AcDbEntity
8
1
62
256
6
ByLayer
370
18
48
1
60
0
100
AcDbEllipse
10
32.505611
20
12.756415
30
0
11
2.81499571204061
21
3.51081174960905
31
0
210
0
220
0
230
1
40
0.008497
41
-2.38176204128968
42
-1.94288547246091
0
ELLIPSE
5
154
100
AcDbEntity
8
1
62
256
6
ByLayer
370
18
48
1
60
0
100
AcDbEllipse
10
42.853203
20
22.165867
30
0
11
-1.61982724902471
21
0.505967627141554
31
0
210
0
220
0
230
1
40
0.828245
41
-1.87623666933652
42
-1.59515298439651
0
ELLIPSE
5
155
100
AcDbEntity
8
1
62
256
6
ByLayer
370
18
48
1
60
0
100
AcDbEllipse
10
34.851015
20
7.331798
30
0
11
-1.64231984473045
21
1.88514045555441
31
0
210
0
220
0
230
1
40
0.996407
41
1.74971046111252
42
2.86350485722416
0
ELLIPSE
5
156
100
AcDbEntity
8
1
62
256
6
ByLayer
370
18
48
1
60
0
100
AcDbEllipse
10
30.092086
20
11.147543
30
0
11
-1.64231984474461
21
1.88514045554187
31
0
210
0
220
0
230
1
40
0.996407
41
0.635916064993242
42
1.74971046110493
0
ELLIPSE
5
157
100
AcDbEntity
8
1
62
256
6
ByLayer
370
18
48
1
60
0
100
AcDbEllipse
10
42.853203
20
22.165867
30
0
11
-0.757597426738019
21
1.50579673477639
31
0
210
0
220
0
230
1
40
0.826259
41
-1.48252862321675
42
-1.2014449383213
0
ELLIPSE
5
158
100
AcDbEntity
8
1
62
256
6
ByLayer
370
18
48
1
60
0
100
AcDbEllipse
10
36.941395
20
9.199769
30
0
11
-2.70802425170838
21
-3.59648648484614
31
0
210
0
220
0
230
1
40
0.189222
41
-0.611937014371433
42
-0.550288836719665
0
ELLIPSE
5
159
100
AcDbEntity
8
1
62
256
6
ByLayer
370
18
48
1
60
0
100
AcDbEllipse
10
31.502496
20
13.560721
30
0
11
-2.92261417887586
21
-3.42440716153112
31
0
210
0
220
0
230
1
40
0.206199
41
0.550849938968229
42
0.612498116118083
0
ELLIPSE
5
15A
100
AcDbEntity
8
1
62
256
6
ByLayer
370
18
48
1
60
0
100
AcDbEllipse
10
37.121309
20
6.644975
30
0
11
-2.24171979658923
21
1.99366304915849
31
0
210
0
220
0
230
1
40
0.986421
41
0.020026044540039
42
0.0517566673072195
0
ELLIPSE
5
15B
100
AcDbEntity
8
1
62
256
6
ByLayer
370
18
48
1
60
0
100
AcDbEllipse
10
31.921123
20
13.290215
30
0
11
-3.57777169280974
21
-1.0354621287213
31
0
210
0
220
0
230
1
40
0.460545
41
-0.57824864589063
42
-0.28662478236334
0
ELLIPSE
5
15C
100
AcDbEntity
8
1
62
256
6
ByLayer
370
18
48
1
60
0
100
AcDbEllipse
10
38.329579
20
8.193835
30
0
11
-1.57382819360518
21
-2.19830177676002
31
0
210
0
220
0
230
1
40
0.320461
41
-0.623656443260134
42
0.117834440468644
0
ELLIPSE
5
15D
100
AcDbEntity
8
1
62
256
6
ByLayer
370
18
48
1
60
0
100
AcDbEllipse
10
30.435708
20
11.571928
30
0
11
0.704568163081538
21
-1.65637667925261
31
0
210
0
220
0
230
1
40
0.78494
41
-2.59707982171682
42
-1.16685001526801
0
ELLIPSE
5
15E
100
AcDbEntity
8
1
62
256
6
ByLayer
370
18
48
1
60
0
100
AcDbEllipse
10
22.971543
20
16.115819
30
0
11
-0.728409782290086
21
1.80884471115246
31
0
210
0
220
0
230
1
40
0.173866
41
-2.96409369726233
42
-0.177565184652697
0
ELLIPSE
5
15F
100
AcDbEntity
8
1
62
256
6
ByLayer
370
18
48
1
60
0
100
AcDbEllipse
10
22.743172
20
16.023856
30
0
11
0.821795651814469
21
-2.04074787924889
31
0
210
0
220
0
230
1
40
0.173866
41
7.4714431711938E-05
42
3.14158508355127
0
ELLIPSE
5
160
100
AcDbEntity
8
1
62
256
6
ByLayer
370
18
48
1
60
0
100
AcDbEllipse
10
42.632702
20
21.913634
30
0
11
1.41569089253444
21
-1.27469380511362
31
0
210
0
220
0
230
1
40
0.989133
41
0.156431394340485
42
3.1018708787046
0
ELLIPSE
5
161
100
AcDbEntity
8
1
62
256
6
ByLayer
370
18
48
1
60
0
100
AcDbEllipse
10
42.663692
20
13.514895
30
0
11
0.590056991429054
21
-0.53128970144893
31
0
210
0
220
0
230
1
40
0.989133
41
-1.61285006103901
42
-2.75884039632209E-06
0
ELLIPSE
5
162
100
AcDbEntity
8
1
62
256
6
ByLayer
370
18
48
1
60
0
100
AcDbEllipse
10
35.556445
20
25.495195
30
0
11
-0.590056991429058
21
0.531289701448926
31
0
210
0
220
0
230
1
40
0.989133
41
-0.77993495487592
42
1.31446014751729
0
ELLIPSE
5
163
100
AcDbEntity
8
1
62
256
6
ByLayer
370
18
48
1
60
0
100
AcDbEllipse
10
49.209686
20
26.210731
30
0
11
-0.590056991429058
21
0.531289701448926
31
0
210
0
220
0
230
1
40
0.989133
41
-2.87433005726911
42
-0.779934954875908
0
ELLIPSE
5
164
100
AcDbEntity
8
1
62
256
6
ByLayer
370
18
48
1
60
0
100
AcDbEllipse
10
43.131975
20
14.034975
30
0
11
-0.590056991429058
21
0.531289701448926
31
0
210
0
220
0
230
1
40
0.989133
41
1.31446014751729
42
-2.87433005726911
0
ELLIPSE
5
165
100
AcDbEntity
8
1
62
256
6
ByLayer
370
18
48
1
60
0
100
AcDbEllipse
10
35.088163
20
24.975115
30
0
11
0.590056991429054
21
-0.53128970144893
31
0
210
0
220
0
230
1
40
0.989133
41
-3.1415616490443
42
-1.8271325060725
0
ELLIPSE
5
166
100
AcDbEntity
8
1
62
256
6
ByLayer
370
18
48
1
60
0
100
AcDbEllipse
10
42.023522
20
13.646751
30
0
11
0.884806807834007
21
-0.79668362819599
31
0
210
0
220
0
230
1
40
0.989133
41
-0.769594180743257
42
-0.142126567995827
0
ELLIPSE
5
167
100
AcDbEntity
8
1
62
256
6
ByLayer
370
18
48
1
60
0
100
AcDbEllipse
10
35.205115
20
23.961599
30
0
11
-0.884806807834018
21
0.79668362819599
31
0
210
0
220
0
230
1
40
0.989133
41
3.08030927798046E-05
42
0.399602511653108
0
POINT
5
6C
100
AcDbEntity
8
2
62
256
6
ByLayer
370
18
48
1
60
0
100
AcDbPoint
10
50
20
27
30
0
39
0
210
0
220
0
230
1
50
360
0
POINT
5
6E
100
AcDbEntity
8
80
62
256
6
ByLayer
370
18
48
1
60
0
100
AcDbPoint
10
0
20
0
30
0
39
0
210
0
220
0
230
1
50
360
0
POINT
5
70
100
AcDbEntity
8
81
62
256
6
ByLayer
370
18
48
1
60
0
100
AcDbPoint
10
50
20
27
30
0
39
0
210
0
220
0
230
1
50
360
0
SPLINE
5
168
100
AcDbEntity
8
SK1
62
256
6
ByLayer
370
18
48
1
60
0
100
AcDbSpline
70
4
71
2
72
6
73
3
40
0
40
0
40
0
40
1
40
1
40
1
41
1
10
-22.5
20
-13.4933966698402
30
0
41
1
10
-12.0999999999449
20
-13.7545973909208
30
0
41
1
10
-1.69999999999999
20
-14.0157977997179
30
0
0
SPLINE
5
169
100
AcDbEntity
8
SK1
62
256
6
ByLayer
370
18
48
1
60
0
100
AcDbSpline
70
4
71
2
72
6
73
3
40
0
40
0
40
0
40
1
40
1
40
1
41
1
10
-1.69999999999999
20
14.0157970602974
30
0
41
1
10
-12.099999999963
20
13.7545958471854
30
0
41
1
10
-22.5
20
13.493394380475
30
0
0
SPLINE
5
16A
100
AcDbEntity
8
SK1
62
256
6
ByLayer
370
18
48
1
60
0
100
AcDbSpline
70
4
71
3
72
13
73
9
40
0
40
0
40
0
40
0
40
0.239456136997449
40
0.368359723417175
40
0.499998985516726
40
0.631638416576567
40
0.760542468702411
40
1
40
1
40
1
40
1
41
1
10
-1.69999999999999
20
-14.0200984156386
30
0
41
1
10
-1.6990919864528
20
-13.9940409390257
30
0
41
1
10
-1.69103284110332
20
-13.9566683539303
30
0
41
1
10
-1.66563592205637
20
-13.9104491790265
30
0
41
1
10
-1.63886378681673
20
-13.8791676243502
30
0
41
1
10
-1.60627712752267
20
-13.8540002532836
30
0
41
1
10
-1.5588406423667
20
-13.830956449625
30
0
41
1
10
-1.52111030874428
20
-13.8247841935567
30
0
41
1
10
-1.49503997793931
20
-13.8251858327438
30
0
0
SPLINE
5
16B
100
AcDbEntity
8
SK1
62
256
6
ByLayer
370
18
48
1
60
0
100
AcDbSpline
70
4
71
3
72
13
73
9
40
0
40
0
40
0
40
0
40
0.239457531274807
40
0.368361583394193
40
0.500001014452292
40
0.631640276555059
40
0.760543862982143
40
1
40
1
40
1
40
1
41
1
10
-1.49503997793928
20
13.8251858293361
30
0
41
1
10
-1.52111030874488
20
13.8247841901529
30
0
41
1
10
-1.5588406423679
20
13.8309564462263
30
0
41
1
10
-1.60627712752327
20
13.8540002498915
30
0
41
1
10
-1.63886378681727
20
13.8791676209635
30
0
41
1
10
-1.66563592205674
20
13.9104491756451
30
0
41
1
10
-1.69103284110358
20
13.9566683505561
30
0
41
1
10
-1.69909198645305
20
13.9940409356568
30
0
41
1
10
-1.69999999999999
20
14.0200984122732
30
0
0
SPLINE
5
16C
100
AcDbEntity
8
SK1
62
256
6
ByLayer
370
18
48
1
60
0
100
AcDbSpline
70
4
71
2
72
6
73
3
40
0
40
0
40
0
40
1
40
1
40
1
41
1
10
-24
20
-12.6310964932104
30
0
41
1
10
-23.2499999989322
20
-13.0640911753538
30
0
41
1
10
-22.5
20
-13.4970856697526
30
0
0
SPLINE
5
16D
100
AcDbEntity
8
SK1
62
256
6
ByLayer
370
18
48
1
60
0
100
AcDbSpline
70
4
71
2
72
6
73
3
40
0
40
0
40
0
40
1
40
1
40
1
41
1
10
-22.5
20
13.4970852847173
30
0
41
1
10
-23.2499999989318
20
13.0640908004416
30
0
41
1
10
-24
20
12.6310961283886
30
0
0
SPLINE
5
16E
100
AcDbEntity
8
SK1
62
256
6
ByLayer
370
18
48
1
60
0
100
AcDbSpline
70
4
71
2
72
6
73
3
40
0
40
0
40
0
40
1
40
1
40
1
41
1
10
-1.49503997793931
20
-13.7129410868425
30
0
41
1
10
-0.945008433407281
20
-13.7266599565288
30
0
41
1
10
-0.394976888875306
20
-13.7403788260786
30
0
0
SPLINE
5
16F
100
AcDbEntity
8
SK1
62
256
6
ByLayer
370
18
48
1
60
0
100
AcDbSpline
70
4
71
2
72
6
73
3
40
0
40
0
40
0
40
1
40
1
40
1
41
1
10
-0.394976888875277
20
13.740379899128
30
0
41
1
10
-0.945008433407281
20
13.7266611372792
30
0
41
1
10
-1.49503997793928
20
13.7129423752897
30
0
0
SPLINE
5
170
100
AcDbEntity
8
SK1
62
256
6
ByLayer
370
18
48
1
60
0
100
AcDbSpline
70
4
71
3
72
118
73
114
40
0
40
0
40
0
40
0
40
0.0076461641734493
40
0.0154178039668494
40
0.0231894437602496
40
0.0309610835536497
40
0.0387327233470499
40
0.04650436314045
40
0.0542760029338501
40
0.0620476427272503
40
0.0698192825206504
40
0.0775909223140506
40
0.0931342019008509
40
0.108677481487651
40
0.124220761074452
40
0.131992400867852
40
0.139764040661252
40
0.147535680454652
40
0.155307320248052
40
0.170850599834852
40
0.178622239628252
40
0.186393879421653
40
0.194165519215053
40
0.201937159008453
40
0.209708798801853
40
0.217480438595253
40
0.233023718182054
40
0.240795357975454
40
0.248566997768854
40
0.256338637562254
40
0.264110277355654
40
0.271881917149054
40
0.279653556942454
40
0.287425196735854
40
0.295196836529255
40
0.310740116116055
40
0.318511755909455
40
0.326283395702855
40
0.341826675289656
40
0.357369954876456
40
0.365141594669856
40
0.372913234463256
40
0.380684874256656
40
0.388456514050056
40
0.396228153843457
40
0.403999793636857
40
0.407885613533557
40
0.411771433430257
40
0.419543073223657
40
0.427314713017057
40
0.435086352810457
40
0.450629632397258
40
0.458401272190658
40
0.466172911984058
40
0.473944551777458
40
0.481716191570858
40
0.489487831364258
40
0.497259471157659
40
0.505031110951059
40
0.512802750744459
40
0.520574390537859
40
0.528346030331259
40
0.543889309918059
40
0.55166094971146
40
0.55943258950486
40
0.56331840940156
40
0.56720422929826
40
0.57497586909166
40
0.59051914867846
40
0.59829078847186
40
0.606062428265261
40
0.621605707852061
40
0.637148987438861
40
0.644920627232261
40
0.652692267025661
40
0.668235546612462
40
0.676007186405862
40
0.683778826199262
40
0.691550465992662
40
0.699322105786062
40
0.707093745579462
40
0.714865385372863
40
0.730408664959663
40
0.745951944546463
40
0.753723584339863
40
0.761495224133263
40
0.769266863926664
40
0.777038503720064
40
0.792581783306864
40
0.808125062893664
40
0.823668342480465
40
0.839211622067265
40
0.846983261860665
40
0.854754901654065
40
0.862526541447465
40
0.870298181240866
40
0.878069821034266
40
0.885841460827666
40
0.893613100621066
40
0.901384740414466
40
0.909156380207866
40
0.916928020001266
40
0.924699659794667
40
0.932471299588067
40
0.940242939381467
40
0.948014579174867
40
0.955786218968267
40
0.963557858761667
40
0.971329498555067
40
0.979101138348468
40
0.986872778141868
40
0.994644417935268
40
1
40
1
40
1
40
1
41
1
10
-1.70000000000002
20
14.0157582210727
30
0
41
1
10
-1.69999999999996
20
14.017180869696
30
0
41
1
10
-1.69999999999996
20
14.0193350222212
30
0
41
1
10
-1.69999999999999
20
14.0204498319149
30
0
41
1
10
-1.69999999999999
20
14.0194577493028
30
0
41
1
10
-1.69999999999999
20
14.0163929237538
30
0
41
1
10
-1.69999999999999
20
14.0112928179987
30
0
41
1
10
-1.69999999999999
20
14.0041925984504
30
0
41
1
10
-1.69999999999999
20
13.9951252442004
30
0
41
1
10
-1.69999999999999
20
13.9841239086368
30
0
41
1
10
-1.69999999999999
20
13.9712195253815
30
0
41
1
10
-1.69999999999999
20
13.9515178138587
30
0
41
1
10
-1.69999999999999
20
13.9222750232465
30
0
41
1
10
-1.69999999999999
20
13.8800204120324
30
0
41
1
10
-1.69999999999999
20
13.838998019961
30
0
41
1
10
-1.69999999999999
20
13.8027899045868
30
0
41
1
10
-1.69999999999999
20
13.773955994413
30
0
41
1
10
-1.69999999999999
20
13.7434660879001
30
0
41
1
10
-1.69999999999999
20
13.7006353174901
30
0
41
1
10
-1.69999999999999
20
13.6545611373555
30
0
41
1
10
-1.69999999999999
20
13.6053355893185
30
0
41
1
10
-1.69999999999999
20
13.5668499361124
30
0
41
1
10
-1.69999999999999
20
13.5268172028035
30
0
41
1
10
-1.69999999999999
20
13.485252935173
30
0
41
1
10
-1.69999999999999
20
13.4421723218484
30
0
41
1
10
-1.69999999999999
20
13.3827344162836
30
0
41
1
10
-1.69999999999999
20
13.3203101073726
30
0
41
1
10
-1.69999999999999
20
13.254979960848
30
0
41
1
10
-1.69999999999999
20
13.2045321061977
30
0
41
1
10
-1.69999999999999
20
13.1526505121852
30
0
41
1
10
-1.69999999999999
20
13.099347414251
30
0
41
1
10
-1.69999999999999
20
13.0446338149516
30
0
41
1
10
-1.69999999999999
20
12.9885220902628
30
0
41
1
10
-1.69999999999999
20
12.9310230723471
30
0
41
1
10
-1.69999999999999
20
12.8525264142953
30
0
41
1
10
-1.69999999999999
20
12.7712834714132
30
0
41
1
10
-1.69999999999999
20
12.6873624197502
30
0
41
1
10
-1.69999999999999
20
12.6016598943421
30
0
41
1
10
-1.69999999999999
20
12.4912006491746
30
0
41
1
10
-1.69999999999999
20
12.3763763558488
30
0
41
1
10
-1.69999999999999
20
12.2819406900945
30
0
41
1
10
-1.69999999999999
20
12.209824815618
30
0
41
1
10
-1.69999999999999
20
12.1364316894724
30
0
41
1
10
-1.69999999999999
20
12.0617686582407
30
0
41
1
10
-1.69999999999999
20
11.9858436758677
30
0
41
1
10
-1.69999999999999
20
11.9215236068653
30
0
41
1
10
-1.69999999999999
20
11.8694488081267
30
0
41
1
10
-1.69999999999999
20
11.8169591426362
30
0
41
1
10
-1.69999999999999
20
11.7505641289662
30
0
41
1
10
-1.69999999999999
20
11.6696587742526
30
0
41
1
10
-1.69999999999999
20
11.5601529159528
30
0
41
1
10
-1.69999999999999
20
11.448182891669
30
0
41
1
10
-1.69999999999999
20
11.3338110499831
30
0
41
1
10
-1.69999999999999
20
11.2468221792499
30
0
41
1
10
-1.69999999999999
20
11.1586337603462
30
0
41
1
10
-1.69999999999999
20
11.0692509372408
30
0
41
1
10
-1.69999999999999
20
10.9786794422307
30
0
41
1
10
-1.69999999999999
20
10.8869237783616
30
0
41
1
10
-1.69999999999999
20
10.7939888359847
30
0
41
1
10
-1.69999999999999
20
10.6998796425436
30
0
41
1
10
-1.69999999999999
20
10.6046008465563
30
0
41
1
10
-1.69999999999999
20
10.4760157679139
30
0
41
1
10
-1.69999999999999
20
10.3450861470912
30
0
41
1
10
-1.69999999999999
20
10.2118742799613
30
0
41
1
10
-1.69999999999999
20
10.1276505623382
30
0
41
1
10
-1.69999999999999
20
10.0597065749413
30
0
41
1
10
-1.69999999999999
20
9.9913814320609
30
0
41
1
10
-1.69999999999999
20
9.87081043657869
30
0
41
1
10
-1.69999999999999
20
9.73071862052217
30
0
41
1
10
-1.69999999999999
20
9.58839008121353
30
0
41
1
10
-1.69999999999999
20
9.44455854729449
30
0
41
1
10
-1.69999999999999
20
9.26193698423123
30
0
41
1
10
-1.69999999999999
20
9.07558727703642
30
0
41
1
10
-1.69999999999999
20
8.92429760284432
30
0
41
1
10
-1.69999999999999
20
8.77152766795061
30
0
41
1
10
-1.69999999999999
20
8.61651162008161
30
0
41
1
10
-1.69999999999999
20
8.45931945344486
30
0
41
1
10
-1.69999999999999
20
8.34031606829598
30
0
41
1
10
-1.69999999999999
20
8.22021379775831
30
0
41
1
10
-1.69999999999999
20
8.09901464495698
30
0
41
1
10
-1.69999999999999
20
7.9767200242907
30
0
41
1
10
-1.69999999999999
20
7.81221411547432
30
0
41
1
10
-1.69999999999999
20
7.60382755625838
30
0
41
1
10
-1.69999999999999
20
7.39181445781463
30
0
41
1
10
-1.69999999999999
20
7.22005470774221
30
0
41
1
10
-1.69999999999999
20
7.09014226669851
30
0
41
1
10
-1.69999999999999
20
6.95914717066265
30
0
41
1
10
-1.69999999999999
20
6.7830583657493
30
0
41
1
10
-1.69999999999999
20
6.56021848903171
30
0
41
1
10
-1.69999999999999
20
6.28851700104784
30
0
41
1
10
-1.69999999999999
20
6.01251447744062
30
0
41
1
10
-1.69999999999999
20
5.77892152059965
30
0
41
1
10
-1.69999999999999
20
5.58993216915877
30
0
41
1
10
-1.69999999999999
20
5.44710899667646
30
0
41
1
10
-1.69999999999999
20
5.30321729486519
30
0
41
1
10
-1.69999999999999
20
5.15825857839869
30
0
41
1
10
-1.69999999999999
20
5.01223405348068
30
0
41
1
10
-1.69999999999999
20
4.86514556778678
30
0
41
1
10
-1.69999999999999
20
4.71699468615466
30
0
41
1
10
-1.69999999999999
20
4.56778337246482
30
0
41
1
10
-1.69999999999999
20
4.41751381174834
30
0
41
1
10
-1.69999999999999
20
4.26618872973953
30
0
41
1
10
-1.69999999999999
20
4.11381092681606
30
0
41
1
10
-1.69999999999999
20
3.96038358832212
30
0
41
1
10
-1.69999999999999
20
3.80591077742719
30
0
41
1
10
-1.69999999999999
20
3.65039714326571
30
0
41
1
10
-1.69999999999999
20
3.49384789900154
30
0
41
1
10
-1.69999999999999
20
3.33626943234705
30
0
41
1
10
-1.69999999999999
20
3.17766893265431
30
0
41
1
10
-1.69999999999999
20
3.01805527431182
30
0
41
1
10
-1.69999999999999
20
2.85743846779499
30
0
41
1
10
-1.69999999999999
20
2.71257747642741
30
0
41
1
10
-1.69999999999999
20
2.62111404232408
30
0
41
1
10
-1.69999999999999
20
2.58372509632827
30
0
0
SPLINE
5
171
100
AcDbEntity
8
SK1
62
256
6
ByLayer
370
18
48
1
60
0
100
AcDbSpline
70
4
71
3
72
287
73
283
40
0
40
0
40
0
40
0
40
0.0011530444626562
40
0.0046414882561494
40
0.0081299320496426
40
0.0116183758431357
40
0.0151068196366289
40
0.018595263430122
40
0.0220837072236152
40
0.0255721510171084
40
0.0290605948106015
40
0.0325490386040946
40
0.0395259261910809
40
0.0465028137780672
40
0.0534797013650535
40
0.0569681451585467
40
0.0604565889520398
40
0.063945032745533
40
0.0674334765390261
40
0.0744103641260124
40
0.0778988079195056
40
0.0813872517129988
40
0.0848756955064919
40
0.088364139299985
40
0.0918525830934782
40
0.0953410268869714
40
0.102317914473958
40
0.105806358267451
40
0.109294802060944
40
0.112783245854437
40
0.11627168964793
40
0.119760133441423
40
0.123248577234917
40
0.12673702102841
40
0.130225464821903
40
0.137202352408889
40
0.140690796202382
40
0.144179239995875
40
0.151156127582862
40
0.158133015169848
40
0.161621458963341
40
0.165109902756834
40
0.168598346550327
40
0.172086790343821
40
0.175575234137314
40
0.179063677930807
40
0.180807899827554
40
0.1825521217243
40
0.186040565517793
40
0.189529009311286
40
0.19301745310478
40
0.199994340691766
40
0.203482784485259
40
0.206971228278752
40
0.210459672072245
40
0.213948115865739
40
0.217436559659232
40
0.220925003452725
40
0.224413447246218
40
0.227901891039711
40
0.231390334833204
40
0.234878778626697
40
0.241855666213684
40
0.245344110007177
40
0.24883255380067
40
0.250576775697417
40
0.252320997594163
40
0.255809441387656
40
0.262786328974643
40
0.266274772768136
40
0.269763216561629
40
0.276740104148615
40
0.283716991735602
40
0.287205435529095
40
0.290693879322588
40
0.297670766909574
40
0.301159210703067
40
0.30464765449656
40
0.308136098290054
40
0.311624542083547
40
0.31511298587704
40
0.318601429670533
40
0.325578317257519
40
0.332555204844506
40
0.336043648637999
40
0.339532092431492
40
0.343020536224985
40
0.346508980018478
40
0.353485867605465
40
0.360462755192451
40
0.367439642779437
40
0.374416530366423
40
0.377904974159917
40
0.38139341795341
40
0.384881861746903
40
0.388370305540396
40
0.391858749333889
40
0.395347193127382
40
0.398835636920875
40
0.402324080714369
40
0.405812524507862
40
0.409300968301355
40
0.412789412094848
40
0.416277855888341
40
0.419766299681834
40
0.423254743475328
40
0.426743187268821
40
0.430231631062314
40
0.433720074855807
40
0.4372085186493
40
0.440696962442793
40
0.444185406236287
40
0.44767385002978
40
0.449418071926526
40
0.451162293823273
40
0.454650737616766
40
0.456394959513513
40
0.458139181410259
40
0.459883403307006
40
0.461627625203752
40
0.463371847100499
40
0.465116068997245
40
0.466860290893992
40
0.468604512790739
40
0.472092956584232
40
0.473837178480978
40
0.475581400377725
40
0.477325622274472
40
0.479069844171218
40
0.480814066067965
40
0.482558287964711
40
0.484302509861458
40
0.486046731758204
40
0.487790953654951
40
0.489535175551698
40
0.491279397448444
40
0.493023619345191
40
0.494767841241937
40
0.496512063138684
40
0.49825628503543
40
0.500000506932177
40
0.501744728828923
40
0.50348895072567
40
0.505233172622417
40
0.506977394519163
40
0.50872161641591
40
0.510465838312656
40
0.512210060209403
40
0.51395428210615
40
0.515698504002896
40
0.517442725899643
40
0.519186947796389
40
0.520931169693136
40
0.522675391589882
40
0.524419613486629
40
0.526163835383376
40
0.527908057280122
40
0.531396501073615
40
0.533140722970362
40
0.534884944867109
40
0.536629166763855
40
0.538373388660602
40
0.540117610557348
40
0.541861832454095
40
0.543606054350841
40
0.545350276247588
40
0.548838720041081
40
0.550582941937828
40
0.552327163834574
40
0.555815607628067
40
0.559304051421561
40
0.562792495215053
40
0.566280939008547
40
0.56976938280204
40
0.573257826595533
40
0.576746270389026
40
0.580234714182519
40
0.583723157976012
40
0.587211601769506
40
0.590700045562999
40
0.594188489356492
40
0.597676933149985
40
0.601165376943478
40
0.604653820736971
40
0.608142264530464
40
0.611630708323958
40
0.615119152117451
40
0.618607595910944
40
0.622096039704437
40
0.62558448349793
40
0.632561371084917
40
0.639538258671903
40
0.646515146258889
40
0.653492033845876
40
0.656980477639369
40
0.660468921432862
40
0.663957365226355
40
0.667445809019848
40
0.674422696606834
40
0.681399584193821
40
0.684888027987314
40
0.688376471780807
40
0.6918649155743
40
0.695353359367793
40
0.698841803161286
40
0.70233024695478
40
0.709307134541766
40
0.712795578335259
40
0.716284022128752
40
0.723260909715739
40
0.730237797302725
40
0.733726241096218
40
0.737214684889711
40
0.744191572476698
40
0.747680016270191
40
0.749424238166937
40
0.751168460063684
40
0.754656903857177
40
0.75814534765067
40
0.765122235237656
40
0.76861067903115
40
0.772099122824643
40
0.775587566618136
40
0.779076010411629
40
0.782564454205122
40
0.786052897998615
40
0.789541341792108
40
0.793029785585602
40
0.796518229379095
40
0.800006673172588
40
0.806983560759574
40
0.810472004553067
40
0.81396044834656
40
0.817448892140054
40
0.8191931140368
40
0.820937335933547
40
0.82442577972704
40
0.827914223520533
40
0.831402667314026
40
0.834891111107519
40
0.838379554901013
40
0.841867998694506
40
0.848844886281492
40
0.855821773868478
40
0.859310217661971
40
0.862798661455465
40
0.869775549042451
40
0.873263992835944
40
0.876752436629437
40
0.88024088042293
40
0.883729324216423
40
0.887217768009917
40
0.89070621180341
40
0.894194655596903
40
0.897683099390396
40
0.904659986977382
40
0.908148430770875
40
0.911636874564369
40
0.915125318357862
40
0.918613762151355
40
0.922102205944848
40
0.925590649738341
40
0.932567537325328
40
0.936055981118821
40
0.939544424912314
40
0.943032868705807
40
0.9465213124993
40
0.953498200086287
40
0.95698664387978
40
0.960475087673273
40
0.963963531466766
40
0.967451975260259
40
0.970940419053752
40
0.974428862847246
40
0.977917306640739
40
0.981405750434232
40
0.984894194227725
40
0.988382638021218
40
0.991871081814711
40
0.995359525608205
40
0.998847969401697
40
1
40
1
40
1
40
1
41
1
10
-22.5
20
13.4956358678333
30
0
41
1
10
-22.5
20
13.4959444001509
30
0
41
1
10
-22.5
20
13.4970336920144
30
0
41
1
10
-22.5
20
13.4978716184631
30
0
41
1
10
-22.5
20
13.4969161903089
30
0
41
1
10
-22.5
20
13.4939625245411
30
0
41
1
10
-22.5
20
13.4890441905268
30
0
41
1
10
-22.5
20
13.4821928739338
30
0
41
1
10
-22.5
20
13.4734382711797
30
0
41
1
10
-22.5
20
13.4628104278487
30
0
41
1
10
-22.5
20
13.4503375493538
30
0
41
1
10
-22.5
20
13.4312436783152
30
0
41
1
10
-22.5
20
13.402990048048
30
0
41
1
10
-22.5
20
13.3620642251226
30
0
41
1
10
-22.5
20
13.3223661774289
30
0
41
1
10
-22.5
20
13.2871835761246
30
0
41
1
10
-22.5
20
13.2592104836088
30
0
41
1
10
-22.5
20
13.2296213566399
30
0
41
1
10
-22.5
20
13.1879639126742
30
0
41
1
10
-22.5
20
13.1433841284413
30
0
41
1
10
-22.5
20
13.0954724183383
30
0
41
1
10
-22.5
20
13.0580720783436
30
0
41
1
10
-22.5
20
13.0191589474766
30
0
41
1
10
-22.5
20
12.9787481075025
30
0
41
1
10
-22.5
20
12.9368537004399
30
0
41
1
10
-22.5
20
12.8789379874313
30
0
41
1
10
-22.5
20
12.8184132188765
30
0
41
1
10
-22.5
20
12.7547247883428
30
0
41
1
10
-22.5
20
12.7056201369325
30
0
41
1
10
-22.5
20
12.6551113810006
30
0
41
1
10
-22.5
20
12.6032111684974
30
0
41
1
10
-22.5
20
12.5499297998313
30
0
41
1
10
-22.5
20
12.4952790326449
30
0
41
1
10
-22.5
20
12.4392702770472
30
0
41
1
10
-22.5
20
12.3626709718699
30
0
41
1
10
-22.5
20
12.2837700633604
30
0
41
1
10
-22.5
20
12.2018541666219
30
0
41
1
10
-22.5
20
12.1181901660327
30
0
41
1
10
-22.5
20
12.0106580823312
30
0
41
1
10
-22.5
20
11.8988607853737
30
0
41
1
10
-22.5
20
11.8066390784571
30
0
41
1
10
-22.5
20
11.7363216027856
30
0
41
1
10
-22.5
20
11.6647550005754
30
0
41
1
10
-22.5
20
11.59194615036
30
0
41
1
10
-22.5
20
11.5179033392113
30
0
41
1
10
-22.5
20
11.4552554262223
30
0
41
1
10
-22.5
20
11.4043880916922
30
0
41
1
10
-22.5
20
11.3531143221947
30
0
41
1
10
-22.5
20
11.2884404549429
30
0
41
1
10
-22.5
20
11.2095312020912
30
0
41
1
10
-22.5
20
11.1025558247745
30
0
41
1
10
-22.5
20
10.9936883814227
30
0
41
1
10
-22.5
20
10.881957392112
30
0
41
1
10
-22.5
20
10.7971107518715
30
0
41
1
10
-22.5
20
10.7110949831286
30
0
41
1
10
-22.5
20
10.6239149454148
30
0
41
1
10
-22.5
20
10.5355769819029
30
0
41
1
10
-22.5
20
10.4460865275718
30
0
41
1
10
-22.5
20
10.3554481215356
30
0
41
1
10
-22.5
20
10.2636670923514
30
0
41
1
10
-22.5
20
10.1707494549495
30
0
41
1
10
-22.5
20
10.0451570413025
30
0
41
1
10
-22.5
20
9.9178935930201
30
0
41
1
10
-22.5
20
9.78780083934149
30
0
41
1
10
-22.5
20
9.70579078784203
30
0
41
1
10
-22.5
20
9.63944489130404
30
0
41
1
10
-22.5
20
9.57273011219269
30
0
41
1
10
-22.5
20
9.45508832781687
30
0
41
1
10
-22.5
20
9.31898450356377
30
0
41
1
10
-22.5
20
9.18004983919923
30
0
41
1
10
-22.5
20
9.03966368952015
30
0
41
1
10
-22.5
20
8.86197296792949
30
0
41
1
10
-22.5
20
8.68069429175796
30
0
41
1
10
-22.5
20
8.53310893756458
30
0
41
1
10
-22.5
20
8.38410353449396
30
0
41
1
10
-22.5
20
8.23370690743869
30
0
41
1
10
-22.5
20
8.08045168982594
30
0
41
1
10
-22.5
20
7.96465014223952
30
0
41
1
10
-22.5
20
7.84779993569691
30
0
41
1
10
-22.5
20
7.72990617143802
30
0
41
1
10
-22.5
20
7.61097083499584
30
0
41
1
10
-22.5
20
7.45073654157579
30
0
41
1
10
-22.5
20
7.24848505186407
30
0
41
1
10
-22.5
20
7.04280518235291
30
0
41
1
10
-22.5
20
6.87569112826711
30
0
41
1
10
-22.5
20
6.74956632065386
30
0
41
1
10
-22.5
20
6.62242827644155
30
0
41
1
10
-22.5
20
6.4512555331213
30
0
41
1
10
-22.5
20
6.23550102644131
30
0
41
1
10
-22.5
20
5.97220551217549
30
0
41
1
10
-22.5
20
5.70495651005669
30
0
41
1
10
-22.5
20
5.47933703035866
30
0
41
1
10
-22.5
20
5.29623480232564
30
0
41
1
10
-22.5
20
5.15823567759486
30
0
41
1
10
-22.5
20
5.01927995326392
30
0
41
1
10
-22.5
20
4.87937450907222
30
0
41
1
10
-22.5
20
4.73852599905979
30
0
41
1
10
-22.5
20
4.59674211262629
30
0
41
1
10
-22.5
20
4.45403157575558
30
0
41
1
10
-22.5
20
4.31040309161111
30
0
41
1
10
-22.5
20
4.16586580001649
30
0
41
1
10
-22.5
20
4.02043049501106
30
0
41
1
10
-22.5
20
3.87410976932693
30
0
41
1
10
-22.5
20
3.72691565105669
30
0
41
1
10
-22.5
20
3.57886126909133
30
0
41
1
10
-22.5
20
3.4299627769704
30
0
41
1
10
-22.5
20
3.28023687778401
30
0
41
1
10
-22.5
20
3.12970257053468
30
0
41
1
10
-22.5
20
2.97838003358396
30
0
41
1
10
-22.5
20
2.8262921676581
30
0
41
1
10
-22.5
20
2.67346525953189
30
0
41
1
10
-22.5
20
2.51992549648591
30
0
41
1
10
-22.5
20
2.39172828921559
30
0
41
1
10
-22.5
20
2.2882368400623
30
0
41
1
10
-22.5
20
2.18454587114542
30
0
41
1
10
-22.5
20
2.08161602870015
30
0
41
1
10
-22.5
20
1.97729727415896
30
0
41
1
10
-22.5
20
1.89920682890118
30
0
41
1
10
-22.5
20
1.82098464012651
30
0
41
1
10
-22.5
20
1.74263823347056
30
0
41
1
10
-22.5
20
1.66417084854152
30
0
41
1
10
-22.5
20
1.58559123041411
30
0
41
1
10
-22.5
20
1.50690426712365
30
0
41
1
10
-22.5
20
1.40144074045128
30
0
41
1
10
-22.5
20
1.29707563275716
30
0
41
1
10
-22.5
20
1.1912185842138
30
0
41
1
10
-22.5
20
1.11209553564783
30
0
41
1
10
-22.5
20
1.03290644237791
30
0
41
1
10
-22.5
20
0.95365606681014
30
0
41
1
10
-22.5
20
0.874352168955852
30
0
41
1
10
-22.5
20
0.795000198505278
30
0
41
1
10
-22.5
20
0.71560660892132
30
0
41
1
10
-22.5
20
0.63617666680787
30
0
41
1
10
-22.5
20
0.556715993884097
30
0
41
1
10
-22.5
20
0.477229338262958
30
0
41
1
10
-22.5
20
0.397721593521055
30
0
41
1
10
-22.5
20
0.318196568076161
30
0
41
1
10
-22.5
20
0.238658582119825
30
0
41
1
10
-22.5
20
0.159110826532412
30
0
41
1
10
-22.5
20
0.0795570008675952
30
0
41
1
10
-22.5
20
-4.3520458E-09
30
0
41
1
10
-22.5
20
-0.0795570195282949
30
0
41
1
10
-22.5
20
-0.159110863620981
30
0
41
1
10
-22.5
20
-0.238658616598514
30
0
41
1
10
-22.5
20
-0.318196574925025
30
0
41
1
10
-22.5
20
-0.397721596430074
30
0
41
1
10
-22.5
20
-0.477229377934975
30
0
41
1
10
-22.5
20
-0.556716044364009
30
0
41
1
10
-22.5
20
-0.63617667254502
30
0
41
1
10
-22.5
20
-0.715606595157226
30
0
41
1
10
-22.5
20
-0.795000235128668
30
0
41
1
10
-22.5
20
-0.874352236673616
30
0
41
1
10
-22.5
20
-0.953656082911976
30
0
41
1
10
-22.5
20
-1.03290641330759
30
0
41
1
10
-22.5
20
-1.11209555133374
30
0
41
1
10
-22.5
20
-1.19121866112906
30
0
41
1
10
-22.5
20
-1.29707565327635
30
0
41
1
10
-22.5
20
-1.40144071039387
30
0
41
1
10
-22.5
20
-1.50690430877853
30
0
41
1
10
-22.5
20
-1.58559131690836
30
0
41
1
10
-22.5
20
-1.66417088377818
30
0
41
1
10
-22.5
20
-1.74263820265682
30
0
41
1
10
-22.5
20
-1.82098461234611
30
0
41
1
10
-22.5
20
-1.89920687090043
30
0
41
1
10
-22.5
20
-1.97729736527978
30
0
41
1
10
-22.5
20
-2.08161605220536
30
0
41
1
10
-22.5
20
-2.18454583019769
30
0
41
1
10
-22.5
20
-2.28823685042076
30
0
41
1
10
-22.5
20
-2.39172837491469
30
0
41
1
10
-22.5
20
-2.51992552331163
30
0
41
1
10
-22.5
20
-2.67346522993279
30
0
41
1
10
-22.5
20
-2.82629223006825
30
0
41
1
10
-22.5
20
-2.9783800820847
30
0
41
1
10
-22.5
20
-3.12970236953149
30
0
41
1
10
-22.5
20
-3.2802363758513
30
0
41
1
10
-22.5
20
-3.42996282061054
30
0
41
1
10
-22.5
20
-3.57886234252629
30
0
41
1
10
-22.5
20
-3.72691655621918
30
0
41
1
10
-22.5
20
-3.87410940415094
30
0
41
1
10
-22.5
20
-4.02042950258553
30
0
41
1
10
-22.5
20
-4.1658649918152
30
0
41
1
10
-22.5
20
-4.31040320562681
30
0
41
1
10
-22.5
20
-4.45403251641869
30
0
41
1
10
-22.5
20
-4.59674271442694
30
0
41
1
10
-22.5
20
-4.73852585442467
30
0
41
1
10
-22.5
20
-4.87937424460151
30
0
41
1
10
-22.5
20
-5.01927991936705
30
0
41
1
10
-22.5
20
-5.15823571506778
30
0
41
1
10
-22.5
20
-5.29623478947158
30
0
41
1
10
-22.5
20
-5.47933703089231
30
0
41
1
10
-22.5
20
-5.70495655337433
30
0
41
1
10
-22.5
20
-5.97220551419213
30
0
41
1
10
-22.5
20
-6.23550104742759
30
0
41
1
10
-22.5
20
-6.451255571394
30
0
41
1
10
-22.5
20
-6.6224282598192
30
0
41
1
10
-22.5
20
-6.74956631857705
30
0
41
1
10
-22.5
20
-6.87569116366484
30
0
41
1
10
-22.5
20
-7.04280522024894
30
0
41
1
10
-22.5
20
-7.24848505302427
30
0
41
1
10
-22.5
20
-7.4507365478344
30
0
41
1
10
-22.5
20
-7.6109708771202
30
0
41
1
10
-22.5
20
-7.72990620240671
30
0
41
1
10
-22.5
20
-7.84779994085653
30
0
41
1
10
-22.5
20
-7.96465013686171
30
0
41
1
10
-22.5
20
-8.08045169790759
30
0
41
1
10
-22.5
20
-8.23370694014301
30
0
41
1
10
-22.5
20
-8.38410356414289
30
0
41
1
10
-22.5
20
-8.53310893988203
30
0
41
1
10
-22.5
20
-8.68069429599308
30
0
41
1
10
-22.5
20
-8.8619729936481
30
0
41
1
10
-22.5
20
-9.0396637144479
30
0
41
1
10
-22.5
20
-9.18004984465043
30
0
41
1
10
-22.5
20
-9.31898451102214
30
0
41
1
10
-22.5
20
-9.45508835059124
30
0
41
1
10
-22.5
20
-9.57273013875857
30
0
41
1
10
-22.5
20
-9.63944491324963
30
0
41
1
10
-22.5
20
-9.70579080403837
30
0
41
1
10
-22.5
20
-9.7878008492857
30
0
41
1
10
-22.5
20
-9.91789360326428
30
0
41
1
10
-22.5
20
-10.0451570606616
30
0
41
1
10
-22.5
20
-10.1707494782419
30
0
41
1
10
-22.5
20
-10.2636671117607
30
0
41
1
10
-22.5
20
-10.3554481360506
30
0
41
1
10
-22.5
20
-10.4460865401309
30
0
41
1
10
-22.5
20
-10.5355769962349
30
0
41
1
10
-22.5
20
-10.6239149629423
30
0
41
1
10
-22.5
20
-10.7110950034658
30
0
41
1
10
-22.5
20
-10.7971107724731
30
0
41
1
10
-22.5
20
-10.881957410682
30
0
41
1
10
-22.5
20
-10.9936883968037
30
0
41
1
10
-22.5
20
-11.1025558384385
30
0
41
1
10
-22.5
20
-11.2095312195267
30
0
41
1
10
-22.5
20
-11.2884404756242
30
0
41
1
10
-22.5
20
-11.3531143441571
30
0
41
1
10
-22.5
20
-11.4043881128182
30
0
41
1
10
-22.5
20
-11.4552554448703
30
0
41
1
10
-22.5
20
-11.5179033535968
30
0
41
1
10
-22.5
20
-11.5919461625789
30
0
41
1
10
-22.5
20
-11.664755015164
30
0
41
1
10
-22.5
20
-11.7363216229303
30
0
41
1
10
-22.5
20
-11.8066391033683
30
0
41
1
10
-22.5
20
-11.8988608066557
30
0
41
1
10
-22.5
20
-12.0106580919609
30
0
41
1
10
-22.5
20
-12.1181901818312
30
0
41
1
10
-22.5
20
-12.2018541939414
30
0
41
1
10
-22.5
20
-12.2837700876339
30
0
41
1
10
-22.5
20
-12.3626709807027
30
0
41
1
10
-22.5
20
-12.4392702870471
30
0
41
1
10
-22.5
20
-12.4952790541085
30
0
41
1
10
-22.5
20
-12.5499298292215
30
0
41
1
10
-22.5
20
-12.6032111946844
30
0
41
1
10
-22.5
20
-12.6551113940766
30
0
41
1
10
-22.5
20
-12.7056201424592
30
0
41
1
10
-22.5
20
-12.7547247990428
30
0
41
1
10
-22.5
20
-12.8184132466048
30
0
41
1
10
-22.5
20
-12.8789380178894
30
0
41
1
10
-22.5
20
-12.9368537080862
30
0
41
1
10
-22.5
20
-12.9787481114295
30
0
41
1
10
-22.5
20
-13.0191589652135
30
0
41
1
10
-22.5
20
-13.0580721081213
30
0
41
1
10
-22.5
20
-13.0954724456838
30
0
41
1
10
-22.5
20
-13.143384141029
30
0
41
1
10
-22.5
20
-13.187963912528
30
0
41
1
10
-22.5
20
-13.2296213845592
30
0
41
1
10
-22.5
20
-13.2592105165633
30
0
41
1
10
-22.5
20
-13.2871835921006
30
0
41
1
10
-22.5
20
-13.3223661764574
30
0
41
1
10
-22.5
20
-13.3540536969874
30
0
41
1
10
-22.5
20
-13.3825245595672
30
0
41
1
10
-22.5
20
-13.4021158939438
30
0
41
1
10
-22.5
20
-13.4199649415155
30
0
41
1
10
-22.5
20
-13.4360470510206
30
0
41
1
10
-22.5
20
-13.4503375548199
30
0
41
1
10
-22.5
20
-13.4628103286331
30
0
41
1
10
-22.5
20
-13.4734380181859
30
0
41
1
10
-22.5
20
-13.4821927509398
30
0
41
1
10
-22.5
20
-13.4890446841776
30
0
41
1
10
-22.5
20
-13.4939634903146
30
0
41
1
10
-22.5
20
-13.4969168014739
30
0
41
1
10
-22.5
20
-13.4978715423881
30
0
41
1
10
-22.5
20
-13.4970334682033
30
0
41
1
10
-22.5
20
-13.4959445009119
30
0
41
1
10
-22.5
20
-13.4956362998662
30
0
0
SPLINE
5
172
100
AcDbEntity
8
SK1
62
256
6
ByLayer
370
18
48
1
60
0
100
AcDbSpline
70
4
71
3
72
119
73
115
40
0
40
0
40
0
40
0
40
0.0017654123250135
40
0.0096870351404955
40
0.0176086579559774
40
0.0255302807714594
40
0.0334519035869414
40
0.0413735264024233
40
0.0492951492179053
40
0.0572167720333873
40
0.0651383948488692
40
0.0730600176643512
40
0.0809816404798331
40
0.0889032632953151
40
0.0968248861107971
40
0.104746508926279
40
0.112668131741761
40
0.120589754557243
40
0.128511377372725
40
0.136433000188207
40
0.144354623003689
40
0.152276245819171
40
0.160197868634653
40
0.176041114265617
40
0.191884359896581
40
0.207727605527544
40
0.223570851158508
40
0.23149247397399
40
0.239414096789472
40
0.247335719604954
40
0.255257342420436
40
0.2711005880514
40
0.286943833682364
40
0.294865456497846
40
0.302787079313328
40
0.31070870212881
40
0.318630324944292
40
0.326551947759774
40
0.334473570575256
40
0.35031681620622
40
0.358238439021702
40
0.366160061837184
40
0.382003307468148
40
0.397846553099112
40
0.405768175914594
40
0.413689798730076
40
0.429533044361039
40
0.437454667176521
40
0.441415478584262
40
0.445376289992003
40
0.453297912807485
40
0.461219535622967
40
0.477062781253931
40
0.484984404069413
40
0.492906026884895
40
0.500827649700377
40
0.508749272515859
40
0.516670895331341
40
0.524592518146823
40
0.532514140962305
40
0.540435763777787
40
0.548357386593269
40
0.556279009408751
40
0.572122255039715
40
0.580043877855197
40
0.587965500670679
40
0.595887123486161
40
0.599847934893902
40
0.603808746301643
40
0.611730369117125
40
0.619651991932607
40
0.627573614748088
40
0.63549523756357
40
0.643416860379052
40
0.651338483194534
40
0.667181728825498
40
0.683024974456462
40
0.690946597271944
40
0.698868220087426
40
0.71471146571839
40
0.722633088533872
40
0.730554711349354
40
0.738476334164836
40
0.746397956980318
40
0.7543195797958
40
0.762241202611282
40
0.770162825426764
40
0.778084448242246
40
0.79392769387321
40
0.801849316688692
40
0.809770939504174
40
0.817692562319656
40
0.825614185135138
40
0.83353580795062
40
0.841457430766102
40
0.857300676397065
40
0.865222299212547
40
0.873143922028029
40
0.881065544843511
40
0.888987167658993
40
0.904830413289957
40
0.912752036105439
40
0.920673658920921
40
0.928595281736403
40
0.936516904551885
40
0.944438527367367
40
0.952360150182849
40
0.960281772998331
40
0.968203395813813
40
0.976125018629295
40
0.984046641444777
40
0.991968264260259
40
0.999889887075741
40
1
40
1
40
1
40
1
41
1
10
-1.49503997793931
20
-2.59465115086957
30
0
41
1
10
-1.49503997793931
20
-2.606473243442
30
0
41
1
10
-1.49503997793931
20
-2.67130382016646
30
0
41
1
10
-1.49503997793931
20
-2.78881794693001
30
0
41
1
10
-1.49503997793931
20
-2.94652921585708
30
0
41
1
10
-1.49503997793931
20
-3.10333581737226
30
0
41
1
10
-1.49503997793931
20
-3.25922160409144
30
0
41
1
10
-1.49503997793931
20
-3.4141725129254
30
0
41
1
10
-1.49503997793931
20
-3.56817684914566
30
0
41
1
10
-1.49503997793931
20
-3.72122348266291
30
0
41
1
10
-1.49503997793931
20
-3.87330241838259
30
0
41
1
10
-1.49503997793931
20
-4.02440435063471
30
0
41
1
10
-1.49503997793931
20
-4.17452257114442
30
0
41
1
10
-1.49503997793931
20
-4.32365075555242
30
0
41
1
10
-1.49503997793931
20
-4.47178250674139
30
0
41
1
10
-1.49503997793931
20
-4.61891187892093
30
0
41
1
10
-1.49503997793931
20
-4.7650335666859
30
0
41
1
10
-1.49503997793931
20
-4.91014320448997
30
0
41
1
10
-1.49503997793931
20
-5.05423700692032
30
0
41
1
10
-1.49503997793931
20
-5.19731095699922
30
0
41
1
10
-1.49503997793931
20
-5.33936160781602
30
0
41
1
10
-1.49503997793931
20
-5.48038543010182
30
0
41
1
10
-1.49503997793931
20
-5.66717892451575
30
0
41
1
10
-1.49503997793931
20
-5.89779786635279
30
0
41
1
10
-1.49503997793931
20
-6.17053537924178
30
0
41
1
10
-1.49503997793931
20
-6.43910150489376
30
0
41
1
10
-1.49503997793931
20
-6.65929861735816
30
0
41
1
10
-1.49503997793931
20
-6.83355374310952
30
0
41
1
10
-1.49503997793931
20
-6.96311018885424
30
0
41
1
10
-1.49503997793931
20
-7.09160988853208
30
0
41
1
10
-1.49503997793931
20
-7.26163684175143
30
0
41
1
10
-1.49503997793931
20
-7.47128768043942
30
0
41
1
10
-1.49503997793931
20
-7.67738590051292
30
0
41
1
10
-1.49503997793931
20
-7.84029855153605
30
0
41
1
10
-1.49503997793931
20
-7.96134018717205
30
0
41
1
10
-1.49503997793931
20
-8.08130644558901
30
0
41
1
10
-1.49503997793931
20
-8.2001957134178
30
0
41
1
10
-1.49503997793931
20
-8.31800484031689
30
0
41
1
10
-1.49503997793931
20
-8.47372856948019
30
0
41
1
10
-1.49503997793931
20
-8.62702161678089
30
0
41
1
10
-1.49503997793931
20
-8.7783873974316
30
0
41
1
10
-1.49503997793931
20
-8.92829538452324
30
0
41
1
10
-1.49503997793931
20
-9.11275364912453
30
0
41
1
10
-1.49503997793931
20
-9.2935360539519
30
0
41
1
10
-1.49503997793931
20
-9.43608247629777
30
0
41
1
10
-1.49503997793931
20
-9.57714512355727
30
0
41
1
10
-1.49503997793931
20
-9.71574945872365
30
0
41
1
10
-1.49503997793931
20
-9.835227886979
30
0
41
1
10
-1.49503997793931
20
-9.90295237623948
30
0
41
1
10
-1.49503997793931
20
-9.97030028641953
30
0
41
1
10
-1.49503997793931
20
-10.0536983203575
30
0
41
1
10
-1.49503997793931
20
-10.1857467801784
30
0
41
1
10
-1.49503997793931
20
-10.3153089526253
30
0
41
1
10
-1.49503997793931
20
-10.4427777956644
30
0
41
1
10
-1.49503997793931
20
-10.537175897834
30
0
41
1
10
-1.49503997793931
20
-10.630416702033
30
0
41
1
10
-1.49503997793931
20
-10.7224950525573
30
0
41
1
10
-1.49503997793931
20
-10.8134058114344
30
0
41
1
10
-1.49503997793931
20
-10.9031442186804
30
0
41
1
10
-1.49503997793931
20
-10.9917054227684
30
0
41
1
10
-1.49503997793931
20
-11.0790834618892
30
0
41
1
10
-1.49503997793931
20
-11.165273297363
30
0
41
1
10
-1.49503997793931
20
-11.2786601205037
30
0
41
1
10
-1.49503997793931
20
-11.3894729046301
30
0
41
1
10
-1.49503997793931
20
-11.4980349156059
30
0
41
1
10
-1.49503997793931
20
-11.5781957427673
30
0
41
1
10
-1.49503997793931
20
-11.6439487843731
30
0
41
1
10
-1.49503997793931
20
-11.6959849306732
30
0
41
1
10
-1.49503997793931
20
-11.747609354201
30
0
41
1
10
-1.49503997793931
20
-11.8113057197552
30
0
41
1
10
-1.49503997793931
20
-11.886528664654
30
0
41
1
10
-1.49503997793931
20
-11.960500101414
30
0
41
1
10
-1.49503997793931
20
-12.0332119519516
30
0
41
1
10
-1.49503997793931
20
-12.1046570427268
30
0
41
1
10
-1.49503997793931
20
-12.1982669205398
30
0
41
1
10
-1.49503997793931
20
-12.3119621581916
30
0
41
1
10
-1.49503997793931
20
-12.4213295969168
30
0
41
1
10
-1.49503997793931
20
-12.5062717787185
30
0
41
1
10
-1.49503997793931
20
-12.5894449263383
30
0
41
1
10
-1.49503997793931
20
-12.6698142967672
30
0
41
1
10
-1.49503997793931
20
-12.7476032540011
30
0
41
1
10
-1.49503997793931
20
-12.8045464232669
30
0
41
1
10
-1.49503997793931
20
-12.8601132308426
30
0
41
1
10
-1.49503997793931
20
-12.9142926213842
30
0
41
1
10
-1.49503997793931
20
-12.9670724454163
30
0
41
1
10
-1.49503997793931
20
-13.0184419731185
30
0
41
1
10
-1.49503997793931
20
-13.0683888234861
30
0
41
1
10
-1.49503997793931
20
-13.133106637017
30
0
41
1
10
-1.49503997793931
20
-13.1948224412614
30
0
41
1
10
-1.49503997793931
20
-13.2536925631392
30
0
41
1
10
-1.49503997793931
20
-13.296330722945
30
0
41
1
10
-1.49503997793931
20
-13.3374647797226
30
0
41
1
10
-1.49503997793931
20
-13.3770799229021
30
0
41
1
10
-1.49503997793931
20
-13.4151607649325
30
0
41
1
10
-1.49503997793931
20
-13.4638962511352
30
0
41
1
10
-1.49503997793931
20
-13.5094130161235
30
0
41
1
10
-1.49503997793931
20
-13.551806168738
30
0
41
1
10
-1.49503997793931
20
-13.5819601013665
30
0
41
1
10
-1.49503997793931
20
-13.6104729213425
30
0
41
1
10
-1.49503997793931
20
-13.646298505966
30
0
41
1
10
-1.49503997793931
20
-13.6786965897716
30
0
41
1
10
-1.49503997793931
20
-13.7077055842542
30
0
41
1
10
-1.49503997793931
20
-13.7276983600542
30
0
41
1
10
-1.49503997793931
20
-13.7459180935577
30
0
41
1
10
-1.49503997793931
20
-13.7623389110759
30
0
41
1
10
-1.49503997793931
20
-13.7769347594832
30
0
41
1
10
-1.49503997793931
20
-13.7896781016746
30
0
41
1
10
-1.49503997793931
20
-13.800539960484
30
0
41
1
10
-1.49503997793931
20
-13.8094907530557
30
0
41
1
10
-1.49503997793931
20
-13.8164987457743
30
0
41
1
10
-1.49503997793931
20
-13.821531562835
30
0
41
1
10
-1.49503997793931
20
-13.8245545856003
30
0
41
1
10
-1.49503997793931
20
-13.8252109204062
30
0
41
1
10
-1.49503997793934
20
-13.8251847301554
30
0
41
1
10
-1.49503997793934
20
-13.8251837300554
30
0
0
SPLINE
5
173
100
AcDbEntity
8
SK1
62
256
6
ByLayer
370
18
48
1
60
0
100
AcDbSpline
70
4
71
3
72
120
73
116
40
0
40
0
40
0
40
0
40
0.0053555999505168
40
0.0131272596109913
40
0.0208989192714659
40
0.0286705789319404
40
0.036442238592415
40
0.0442138982528895
40
0.0519855579133641
40
0.0597572175738386
40
0.0675288772343132
40
0.0753005368947877
40
0.0830721965552622
40
0.0908438562157368
40
0.0986155158762113
40
0.106387175536686
40
0.11415883519716
40
0.121930494857635
40
0.12970215451811
40
0.137473814178584
40
0.145245473839059
40
0.153017133499533
40
0.160788793160008
40
0.176332112480957
40
0.191875431801906
40
0.207418751122855
40
0.222962070443804
40
0.230733730104279
40
0.238505389764753
40
0.246277049425228
40
0.254048709085702
40
0.269592028406651
40
0.2851353477276
40
0.292907007388075
40
0.30067866704855
40
0.308450326709024
40
0.316221986369499
40
0.323993646029973
40
0.331765305690448
40
0.347308625011397
40
0.355080284671871
40
0.362851944332346
40
0.378395263653295
40
0.393938582974244
40
0.401710242634719
40
0.409481902295193
40
0.425025221616142
40
0.432796881276617
40
0.436682711106854
40
0.440568540937091
40
0.448340200597566
40
0.45611186025804
40
0.471655179578989
40
0.479426839239464
40
0.487198498899939
40
0.494970158560413
40
0.502741818220888
40
0.510513477881362
40
0.518285137541837
40
0.526056797202311
40
0.533828456862786
40
0.54160011652326
40
0.549371776183735
40
0.564915095504684
40
0.572686755165158
40
0.580458414825633
40
0.588230074486108
40
0.592115904316345
40
0.596001734146582
40
0.603773393807057
40
0.611545053467531
40
0.619316713128006
40
0.62708837278848
40
0.634860032448955
40
0.64263169210943
40
0.658175011430378
40
0.673718330751328
40
0.681489990411802
40
0.689261650072277
40
0.704804969393226
40
0.7125766290537
40
0.720348288714175
40
0.728119948374649
40
0.735891608035124
40
0.743663267695599
40
0.751434927356073
40
0.759206587016548
40
0.766978246677022
40
0.782521565997971
40
0.790293225658446
40
0.79806488531892
40
0.805836544979395
40
0.813608204639869
40
0.821379864300344
40
0.829151523960818
40
0.844694843281768
40
0.852466502942242
40
0.860238162602717
40
0.868009822263191
40
0.875781481923666
40
0.891324801244615
40
0.899096460905089
40
0.906868120565564
40
0.914639780226039
40
0.922411439886513
40
0.930183099546988
40
0.937954759207462
40
0.945726418867937
40
0.953498078528411
40
0.961269738188886
40
0.96904139784936
40
0.976813057509835
40
0.984584717170309
40
0.992356376830784
40
1
40
1
40
1
40
1
41
1
10
-1.69999999999999
20
-2.5837250319525
30
0
41
1
10
-1.69999999999999
20
-2.62111400924692
30
0
41
1
10
-1.69999999999999
20
-2.71257747842986
30
0
41
1
10
-1.69999999999999
20
-2.85743848960826
30
0
41
1
10
-1.69999999999999
20
-3.01805529196176
30
0
41
1
10
-1.69999999999999
20
-3.17766896347746
30
0
41
1
10
-1.69999999999999
20
-3.33626946559076
30
0
41
1
10
-1.69999999999999
20
-3.49384788295134
30
0
41
1
10
-1.69999999999999
20
-3.65039703338328
30
0
41
1
10
-1.69999999999999
20
-3.80591068333541
30
0
41
1
10
-1.69999999999999
20
-3.9603838288908
30
0
41
1
10
-1.69999999999999
20
-4.11381118090259
30
0
41
1
10
-1.69999999999999
20
-4.26618881241484
30
0
41
1
10
-1.69999999999999
20
-4.41751369191317
30
0
41
1
10
-1.69999999999999
20
-4.56778315161375
30
0
41
1
10
-1.69999999999999
20
-4.7169946256985
30
0
41
1
10
-1.69999999999999
20
-4.86514572624662
30
0
41
1
10
-1.69999999999999
20
-5.01223421717728
30
0
41
1
10
-1.69999999999999
20
-5.15825863689906
30
0
41
1
10
-1.69999999999999
20
-5.30321731736851
30
0
41
1
10
-1.69999999999999
20
-5.44710902267545
30
0
41
1
10
-1.69999999999999
20
-5.58993219435266
30
0
41
1
10
-1.69999999999999
20
-5.77892152593586
30
0
41
1
10
-1.69999999999999
20
-6.01251450148573
30
0
41
1
10
-1.69999999999999
20
-6.28851702131561
30
0
41
1
10
-1.69999999999999
20
-6.56021849497904
30
0
41
1
10
-1.69999999999999
20
-6.78305839594086
30
0
41
1
10
-1.69999999999999
20
-6.95914718913937
30
0
41
1
10
-1.69999999999999
20
-7.0901422748378
30
0
41
1
10
-1.69999999999999
20
-7.22005471809891
30
0
41
1
10
-1.69999999999999
20
-7.391814483107
30
0
41
1
10
-1.69999999999999
20
-7.60382757721297
30
0
41
1
10
-1.69999999999999
20
-7.81221412115067
30
0
41
1
10
-1.69999999999999
20
-7.97672004102665
30
0
41
1
10
-1.69999999999999
20
-8.09901466976936
30
0
41
1
10
-1.69999999999999
20
-8.22021382021134
30
0
41
1
10
-1.69999999999999
20
-8.34031608257325
30
0
41
1
10
-1.69999999999999
20
-8.45931946186533
30
0
41
1
10
-1.69999999999999
20
-8.61651163422607
30
0
41
1
10
-1.69999999999999
20
-8.77152769372714
30
0
41
1
10
-1.69999999999999
20
-8.92429762219672
30
0
41
1
10
-1.69999999999999
20
-9.07558728630886
30
0
41
1
10
-1.69999999999999
20
-9.26193699842017
30
0
41
1
10
-1.69999999999999
20
-9.44455857133374
30
0
41
1
10
-1.69999999999999
20
-9.58839009925038
30
0
41
1
10
-1.69999999999999
20
-9.73071863089592
30
0
41
1
10
-1.69999999999999
20
-9.87081045044334
30
0
41
1
10
-1.69999999999999
20
-9.99138145148612
30
0
41
1
10
-1.69999999999999
20
-10.059706595653
30
0
41
1
10
-1.69999999999999
20
-10.127650582945
30
0
41
1
10
-1.69999999999999
20
-10.2118742978003
30
0
41
1
10
-1.69999999999999
20
-10.3450861597474
30
0
41
1
10
-1.69999999999999
20
-10.4760157822056
30
0
41
1
10
-1.69999999999999
20
-10.6046008653873
30
0
41
1
10
-1.69999999999999
20
-10.6998796625668
30
0
41
1
10
-1.69999999999999
20
-10.7939888545435
30
0
41
1
10
-1.69999999999999
20
-10.8869237943964
30
0
41
1
10
-1.69999999999999
20
-10.9786794570574
30
0
41
1
10
-1.69999999999999
20
-11.069250952524
30
0
41
1
10
-1.69999999999999
20
-11.1586337774266
30
0
41
1
10
-1.69999999999999
20
-11.2468221981049
30
0
41
1
10
-1.69999999999999
20
-11.3338110691597
30
0
41
1
10
-1.69999999999999
20
-11.4481829097131
30
0
41
1
10
-1.69999999999999
20
-11.5601529310588
30
0
41
1
10
-1.69999999999999
20
-11.6696587897978
30
0
41
1
10
-1.69999999999999
20
-11.7505641463283
30
0
41
1
10
-1.69999999999999
20
-11.8169591619061
30
0
41
1
10
-1.69999999999999
20
-11.869448828233
30
0
41
1
10
-1.69999999999999
20
-11.9215236271769
30
0
41
1
10
-1.69999999999999
20
-11.9858436943514
30
0
41
1
10
-1.69999999999999
20
-12.0617686735772
30
0
41
1
10
-1.69999999999999
20
-12.1364317035572
30
0
41
1
10
-1.69999999999999
20
-12.2098248313331
30
0
41
1
10
-1.69999999999999
20
-12.2819407102379
30
0
41
1
10
-1.69999999999999
20
-12.3763763795169
30
0
41
1
10
-1.69999999999999
20
-12.4912006631364
30
0
41
1
10
-1.69999999999999
20
-12.6016599065257
30
0
41
1
10
-1.69999999999999
20
-12.687362440577
30
0
41
1
10
-1.69999999999999
20
-12.7712834981639
30
0
41
1
10
-1.69999999999999
20
-12.8525264302737
30
0
41
1
10
-1.69999999999999
20
-12.9310230820619
30
0
41
1
10
-1.69999999999999
20
-12.9885221046098
30
0
41
1
10
-1.69999999999999
20
-13.0446338377524
30
0
41
1
10
-1.69999999999999
20
-13.0993474417035
30
0
41
1
10
-1.69999999999999
20
-13.1526505331688
30
0
41
1
10
-1.69999999999999
20
-13.2045321176789
30
0
41
1
10
-1.69999999999999
20
-13.2549799687684
30
0
41
1
10
-1.69999999999999
20
-13.3203101272292
30
0
41
1
10
-1.69999999999999
20
-13.3827344481881
30
0
41
1
10
-1.69999999999999
20
-13.4421723383994
30
0
41
1
10
-1.69999999999999
20
-13.4852529409442
30
0
41
1
10
-1.69999999999999
20
-13.5268172136993
30
0
41
1
10
-1.69999999999999
20
-13.5668499598694
30
0
41
1
10
-1.69999999999999
20
-13.6053356175566
30
0
41
1
10
-1.69999999999999
20
-13.6545611570253
30
0
41
1
10
-1.69999999999999
20
-13.7006353167884
30
0
41
1
10
-1.69999999999999
20
-13.7434661079967
30
0
41
1
10
-1.69999999999999
20
-13.7739560268625
30
0
41
1
10
-1.69999999999999
20
-13.8027899277569
30
0
41
1
10
-1.69999999999999
20
-13.8389980176944
30
0
41
1
10
-1.69999999999999
20
-13.8718187984145
30
0
41
1
10
-1.69999999999999
20
-13.9011479145568
30
0
41
1
10
-1.69999999999999
20
-13.9213794981548
30
0
41
1
10
-1.69999999999999
20
-13.9398197437578
30
0
41
1
10
-1.69999999999999
20
-13.9564420504847
30
0
41
1
10
-1.69999999999999
20
-13.9712195410175
30
0
41
1
10
-1.69999999999999
20
-13.9841238377961
30
0
41
1
10
-1.69999999999999
20
-13.9951249982352
30
0
41
1
10
-1.69999999999999
20
-14.0041924220526
30
0
41
1
10
-1.69999999999999
20
-14.0112932507837
30
0
41
1
10
-1.69999999999999
20
-14.0163938901866
30
0
41
1
10
-1.69999999999999
20
-14.019458382701
30
0
41
1
10
-1.69999999999999
20
-14.0204497516689
30
0
41
1
10
-1.69999999999999
20
-14.0193347369783
30
0
41
1
10
-1.69999999999999
20
-14.0171811884928
30
0
41
1
10
-1.70000000000002
20
-14.0157592864049
30
0
0
SPLINE
5
174
100
AcDbEntity
8
SK1
62
256
6
ByLayer
370
18
48
1
60
0
100
AcDbSpline
70
4
71
3
72
287
73
283
40
0
40
0
40
0
40
0
40
0.0005770524704308
40
0.0040695176944313
40
0.0075619829184319
40
0.0110544481424325
40
0.0145469133664331
40
0.0180393785904337
40
0.0215318438144343
40
0.0250243090384349
40
0.0285167742624354
40
0.032009239486436
40
0.0389941699344372
40
0.0459791003824383
40
0.0529640308304395
40
0.0564564960544401
40
0.0599489612784407
40
0.0634414265024413
40
0.0669338917264418
40
0.073918822174443
40
0.0774112873984436
40
0.0809037526224441
40
0.0843962178464447
40
0.0878886830704454
40
0.091381148294446
40
0.0948736135184466
40
0.101858543966448
40
0.105351009190448
40
0.108843474414449
40
0.112335939638449
40
0.11582840486245
40
0.119320870086451
40
0.122813335310451
40
0.126305800534452
40
0.129798265758452
40
0.136783196206453
40
0.140275661430454
40
0.143768126654455
40
0.150753057102456
40
0.157737987550457
40
0.161230452774458
40
0.164722917998458
40
0.168215383222459
40
0.171707848446459
40
0.17520031367046
40
0.178692778894461
40
0.180439011506461
40
0.182185244118461
40
0.185677709342462
40
0.189170174566462
40
0.192662639790463
40
0.199647570238464
40
0.203140035462465
40
0.206632500686465
40
0.210124965910466
40
0.213617431134466
40
0.217109896358467
40
0.220602361582467
40
0.224094826806468
40
0.227587292030469
40
0.231079757254469
40
0.23457222247847
40
0.241557152926471
40
0.245049618150472
40
0.248542083374472
40
0.250288315986473
40
0.252034548598473
40
0.255527013822473
40
0.262511944270474
40
0.266004409494475
40
0.269496874718476
40
0.276481805166477
40
0.283466735614478
40
0.286959200838479
40
0.290451666062479
40
0.29743659651048
40
0.300929061734481
40
0.304421526958482
40
0.307913992182482
40
0.311406457406483
40
0.314898922630483
40
0.318391387854484
40
0.325376318302485
40
0.332361248750486
40
0.335853713974487
40
0.339346179198487
40
0.342838644422488
40
0.346331109646489
40
0.35331604009449
40
0.360300970542491
40
0.367285900990492
40
0.374270831438493
40
0.377763296662494
40
0.381255761886495
40
0.384748227110495
40
0.388240692334495
40
0.391733157558496
40
0.395225622782497
40
0.398718088006497
40
0.402210553230498
40
0.405703018454499
40
0.409195483678499
40
0.4126879489025
40
0.4161804141265
40
0.419672879350501
40
0.423165344574501
40
0.426657809798502
40
0.430150275022503
40
0.433642740246503
40
0.437135205470504
40
0.440627670694504
40
0.444120135918505
40
0.447612601142506
40
0.449358833754506
40
0.451105066366506
40
0.454597531590507
40
0.456343764202507
40
0.458089996814507
40
0.459836229426507
40
0.461582462038508
40
0.463328694650508
40
0.465074927262508
40
0.466821159874509
40
0.468567392486509
40
0.47205985771051
40
0.47380609032251
40
0.47555232293451
40
0.477298555546511
40
0.479044788158511
40
0.480791020770511
40
0.482537253382511
40
0.484283485994512
40
0.486029718606512
40
0.487775951218512
40
0.489522183830512
40
0.491268416442513
40
0.493014649054513
40
0.494760881666513
40
0.496507114278514
40
0.498253346890514
40
0.499999579502514
40
0.501745812114515
40
0.503492044726515
40
0.505238277338515
40
0.506984509950516
40
0.508730742562516
40
0.510476975174516
40
0.512223207786516
40
0.513969440398517
40
0.515715673010517
40
0.517461905622517
40
0.519208138234517
40
0.520954370846518
40
0.522700603458518
40
0.524446836070518
40
0.526193068682519
40
0.527939301294519
40
0.531431766518519
40
0.53317799913052
40
0.53492423174252
40
0.53667046435452
40
0.538416696966521
40
0.540162929578521
40
0.541909162190521
40
0.543655394802521
40
0.545401627414522
40
0.548894092638523
40
0.550640325250523
40
0.552386557862523
40
0.555879023086524
40
0.559371488310524
40
0.562863953534525
40
0.566356418758525
40
0.569848883982526
40
0.573341349206526
40
0.576833814430527
40
0.580326279654528
40
0.583818744878528
40
0.587311210102529
40
0.590803675326529
40
0.59429614055053
40
0.597788605774531
40
0.601281070998531
40
0.604773536222532
40
0.608266001446532
40
0.611758466670533
40
0.615250931894534
40
0.618743397118534
40
0.622235862342535
40
0.625728327566536
40
0.632713258014536
40
0.639698188462538
40
0.646683118910539
40
0.65366804935854
40
0.657160514582541
40
0.660652979806541
40
0.664145445030542
40
0.667637910254542
40
0.674622840702544
40
0.681607771150545
40
0.685100236374545
40
0.688592701598546
40
0.692085166822546
40
0.695577632046547
40
0.699070097270548
40
0.702562562494548
40
0.709547492942549
40
0.71303995816655
40
0.71653242339055
40
0.723517353838552
40
0.730502284286553
40
0.733994749510554
40
0.737487214734554
40
0.744472145182555
40
0.747964610406556
40
0.749710843018556
40
0.751457075630557
40
0.754949540854557
40
0.758442006078558
40
0.765426936526559
40
0.768919401750559
40
0.77241186697456
40
0.775904332198561
40
0.779396797422561
40
0.782889262646561
40
0.786381727870562
40
0.789874193094563
40
0.793366658318563
40
0.796859123542564
40
0.800351588766565
40
0.807336519214566
40
0.810828984438566
40
0.814321449662567
40
0.817813914886567
40
0.819560147498568
40
0.821306380110568
40
0.824798845334569
40
0.828291310558569
40
0.83178377578257
40
0.83527624100657
40
0.838768706230571
40
0.842261171454571
40
0.849246101902573
40
0.856231032350574
40
0.859723497574574
40
0.863215962798575
40
0.870200893246576
40
0.873693358470577
40
0.877185823694577
40
0.880678288918578
40
0.884170754142579
40
0.887663219366579
40
0.89115568459058
40
0.89464814981458
40
0.898140615038581
40
0.905125545486582
40
0.908618010710583
40
0.912110475934583
40
0.915602941158584
40
0.919095406382584
40
0.922587871606585
40
0.926080336830586
40
0.933065267278587
40
0.936557732502587
40
0.940050197726588
40
0.943542662950589
40
0.947035128174589
40
0.95402005862259
40
0.957512523846591
40
0.961004989070591
40
0.964497454294592
40
0.967989919518592
40
0.971482384742593
40
0.974974849966594
40
0.978467315190594
40
0.981959780414595
40
0.985452245638595
40
0.988944710862596
40
0.992437176086597
40
0.995929641310597
40
0.999422106534598
40
1
40
1
40
1
40
1
41
1
10
-24
20
12.6301466103834
30
0
41
1
10
-24
20
12.6302729711298
30
0
41
1
10
-24
20
12.631101948341
30
0
41
1
10
-24
20
12.6318299492432
30
0
41
1
10
-24
20
12.6309352666138
30
0
41
1
10
-24
20
12.6281658201647
30
0
41
1
10
-24
20
12.623548726994
30
0
41
1
10
-24
20
12.6171099043118
30
0
41
1
10
-24
20
12.6088736083307
30
0
41
1
10
-24
20
12.5988647342338
30
0
41
1
10
-24
20
12.5871069661155
30
0
41
1
10
-24
20
12.569020437469
30
0
41
1
10
-24
20
12.5424060911485
30
0
41
1
10
-24
20
12.5036823998811
30
0
41
1
10
-24
20
12.466179119183
30
0
41
1
10
-24
20
12.4326960489613
30
0
41
1
10
-24
20
12.4061495447384
30
0
41
1
10
-24
20
12.3780532328159
30
0
41
1
10
-24
20
12.3383402816863
30
0
41
1
10
-24
20
12.2962370819873
30
0
41
1
10
-24
20
12.2505027270978
30
0
41
1
10
-24
20
12.2149010201899
30
0
41
1
10
-24
20
12.1778433481664
30
0
41
1
10
-24
20
12.1393440238031
30
0
41
1
10
-24
20
12.0994154546281
30
0
41
1
10
-24
20
12.0440223921018
30
0
41
1
10
-24
20
11.9866456328948
30
0
41
1
10
-24
20
11.9256779328098
30
0
41
1
10
-24
20
11.8787993022056
30
0
41
1
10
-24
20
11.8305656793587
30
0
41
1
10
-24
20
11.78099039585
30
0
41
1
10
-24
20
11.7300825884547
30
0
41
1
10
-24
20
11.6778529900837
30
0
41
1
10
-24
20
11.6243139686469
30
0
41
1
10
-24
20
11.5508590476175
30
0
41
1
10
-24
20
11.4758394707542
30
0
41
1
10
-24
20
11.3972466128896
30
0
41
1
10
-24
20
11.3169609533628
30
0
41
1
10
-24
20
11.2142799019792
30
0
41
1
10
-24
20
11.1074990885262
30
0
41
1
10
-24
20
11.0189464603389
30
0
41
1
10
-24
20
10.9516093773873
30
0
41
1
10
-24
20
10.8830697782116
30
0
41
1
10
-24
20
10.8133337656712
30
0
41
1
10
-24
20
10.7424101789121
30
0
41
1
10
-24
20
10.6825334430363
30
0
41
1
10
-24
20
10.6336671760819
30
0
41
1
10
-24
20
10.5844084477176
30
0
41
1
10
-24
20
10.5225869468266
30
0
41
1
10
-24
20
10.4469857296791
30
0
41
1
10
-24
20
10.3442039867663
30
0
41
1
10
-24
20
10.2404782892815
30
0
41
1
10
-24
20
10.133123847137
30
0
41
1
10
-24
20
10.0518274139735
30
0
41
1
10
-24
20
9.96941226524035
30
0
41
1
10
-24
20
9.8858827890852
30
0
41
1
10
-24
20
9.80124634105394
30
0
41
1
10
-24
20
9.71550990056983
30
0
41
1
10
-24
20
9.62867742465991
30
0
41
1
10
-24
20
9.54075474090101
30
0
41
1
10
-24
20
9.4517501287076
30
0
41
1
10
-24
20
9.33111730296773
30
0
41
1
10
-24
20
9.20992961158598
30
0
41
1
10
-24
20
9.08500600225796
30
0
41
1
10
-24
20
9.00666454438806
30
0
41
1
10
-24
20
8.94296708063843
30
0
41
1
10
-24
20
8.87892107357061
30
0
41
1
10
-24
20
8.76613371827506
30
0
41
1
10
-24
20
8.63663898523424
30
0
41
1
10
-24
20
8.50332881313912
30
0
41
1
10
-24
20
8.36865251940401
30
0
41
1
10
-24
20
8.19913342470036
30
0
41
1
10
-24
20
8.02625870426021
30
0
41
1
10
-24
20
7.88481232676438
30
0
41
1
10
-24
20
7.74204568631339
30
0
41
1
10
-24
20
7.59930458489882
30
0
41
1
10
-24
20
7.45257386795717
30
0
41
1
10
-24
20
7.34207855908448
30
0
41
1
10
-24
20
7.23061782890775
30
0
41
1
10
-24
20
7.11820191301106
30
0
41
1
10
-24
20
7.00483374343872
30
0
41
1
10
-24
20
6.8516785758469
30
0
41
1
10
-24
20
6.65959441745028
30
0
41
1
10
-24
20
6.46441027855923
30
0
41
1
10
-24
20
6.30499529459036
30
0
41
1
10
-24
20
6.18514753468799
30
0
41
1
10
-24
20
6.06440158167572
30
0
41
1
10
-24
20
5.90137597131746
30
0
41
1
10
-24
20
5.69736367955667
30
0
41
1
10
-24
20
5.44799894794272
30
0
41
1
10
-24
20
5.19525670130326
30
0
41
1
10
-24
20
4.98285125019774
30
0
41
1
10
-24
20
4.80950544532163
30
0
41
1
10
-24
20
4.67950096380329
30
0
41
1
10
-24
20
4.54872537799758
30
0
41
1
10
-24
20
4.41719445888799
30
0
41
1
10
-24
20
4.28492388892991
30
0
41
1
10
-24
20
4.15193103870837
30
0
41
1
10
-24
20
4.01823650200188
30
0
41
1
10
-24
20
3.88386015063671
30
0
41
1
10
-24
20
3.74882265025218
30
0
41
1
10
-24
20
3.61314816606938
30
0
41
1
10
-24
20
3.47686551917991
30
0
41
1
10
-24
20
3.34000139230267
30
0
41
1
10
-24
20
3.20258393847712
30
0
41
1
10
-24
20
3.06464837689458
30
0
41
1
10
-24
20
2.9262304523017
30
0
41
1
10
-24
20
2.78737006373561
30
0
41
1
10
-24
20
2.64810891556724
30
0
41
1
10
-24
20
2.50849315364215
30
0
41
1
10
-24
20
2.36857603859875
30
0
41
1
10
-24
20
2.22840727338092
30
0
41
1
10
-24
20
2.11231267734073
30
0
41
1
10
-24
20
2.01771125590744
30
0
41
1
10
-24
20
1.92310511773127
30
0
41
1
10
-24
20
1.8313714962141
30
0
41
1
10
-24
20
1.73663368976398
30
0
41
1
10
-24
20
1.66636839269287
30
0
41
1
10
-24
20
1.59612143913762
30
0
41
1
10
-24
20
1.52590617425699
30
0
41
1
10
-24
20
1.45572440081648
30
0
41
1
10
-24
20
1.38559146347791
30
0
41
1
10
-24
20
1.31551245865842
30
0
41
1
10
-24
20
1.22103102890804
30
0
41
1
10
-24
20
1.13019491172784
30
0
41
1
10
-24
20
1.03590357373665
30
0
41
1
10
-24
20
0.966211278320685
30
0
41
1
10
-24
20
0.896616942008535
30
0
41
1
10
-24
20
0.827119549474418
30
0
41
1
10
-24
20
0.757724503129253
30
0
41
1
10
-24
20
0.688430802184314
30
0
41
1
10
-24
20
0.619238394305086
30
0
41
1
10
-24
20
0.550143822342449
30
0
41
1
10
-24
20
0.481142957404018
30
0
41
1
10
-24
20
0.412229055265982
30
0
41
1
10
-24
20
0.343394373554958
30
0
41
1
10
-24
20
0.274627961865065
30
0
41
1
10
-24
20
0.205919183520024
30
0
41
1
10
-24
20
0.137254128872428
30
0
41
1
10
-24
20
0.068619580615092
30
0
41
1
10
-24
20
1.20069785E-08
30
0
41
1
10
-24
20
-0.0686195837654395
30
0
41
1
10
-24
20
-0.1372541822264
30
0
41
1
10
-24
20
-0.205919229600312
30
0
41
1
10
-24
20
-0.274627932715674
30
0
41
1
10
-24
20
-0.343394334295567
30
0
41
1
10
-24
20
-0.412229116407673
30
0
41
1
10
-24
20
-0.48114304712405
30
0
41
1
10
-24
20
-0.55014378989776
30
0
41
1
10
-24
20
-0.619238310392774
30
0
41
1
10
-24
20
-0.688430856535206
30
0
41
1
10
-24
20
-0.757724640342815
30
0
41
1
10
-24
20
-0.827119544713668
30
0
41
1
10
-24
20
-0.896616816711344
30
0
41
1
10
-24
20
-0.966211277672699
30
0
41
1
10
-24
20
-1.03590373801057
30
0
41
1
10
-24
20
-1.13019491751669
30
0
41
1
10
-24
20
-1.22103090337816
30
0
41
1
10
-24
20
-1.31551253110209
30
0
41
1
10
-24
20
-1.38559165365194
30
0
41
1
10
-24
20
-1.45572444737027
30
0
41
1
10
-24
20
-1.52590604398472
30
0
41
1
10
-24
20
-1.59612132289769
30
0
41
1
10
-24
20
-1.66636846888792
30
0
41
1
10
-24
20
-1.73663389391052
30
0
41
1
10
-24
20
-1.83137150908334
30
0
41
1
10
-24
20
-1.923104963833
30
0
41
1
10
-24
20
-2.01771124909399
30
0
41
1
10
-24
20
-2.11231287096447
30
0
41
1
10
-24
20
-2.22840729138045
30
0
41
1
10
-24
20
-2.36857592379664
30
0
41
1
10
-24
20
-2.50849329023109
30
0
41
1
10
-24
20
-2.64810899336408
30
0
41
1
10
-24
20
-2.7873694745272
30
0
41
1
10
-24
20
-2.92622914514115
30
0
41
1
10
-24
20
-3.06464867495961
30
0
41
1
10
-24
20
-3.20258694679336
30
0
41
1
10
-24
20
-3.34000339886188
30
0
41
1
10
-24
20
-3.47686412773234
30
0
41
1
10
-24
20
-3.61314539193521
30
0
41
1
10
-24
20
-3.74882070125756
30
0
41
1
10
-24
20
-3.88386081960974
30
0
41
1
10
-24
20
-4.01823910176785
30
0
41
1
10
-24
20
-4.15193237523465
30
0
41
1
10
-24
20
-4.28492323331267
30
0
41
1
10
-24
20
-4.41719365917405
30
0
41
1
10
-24
20
-4.54872525063161
30
0
41
1
10
-24
20
-4.67950102029136
30
0
41
1
10
-24
20
-4.8095053694127
30
0
41
1
10
-24
20
-4.98285124277228
30
0
41
1
10
-24
20
-5.19525677656026
30
0
41
1
10
-24
20
-5.44799891971269
30
0
41
1
10
-24
20
-5.69736372546623
30
0
41
1
10
-24
20
-5.90137602298265
30
0
41
1
10
-24
20
-6.0644015068855
30
0
41
1
10
-24
20
-6.1851475156806
30
0
41
1
10
-24
20
-6.30499537148731
30
0
41
1
10
-24
20
-6.46441033734266
30
0
41
1
10
-24
20
-6.65959438580623
30
0
41
1
10
-24
20
-6.85167858307042
30
0
41
1
10
-24
20
-7.00483382763792
30
0
41
1
10
-24
20
-7.11820195418233
30
0
41
1
10
-24
20
-7.2306178054078
30
0
41
1
10
-24
20
-7.34207852113332
30
0
41
1
10
-24
20
-7.45257387547733
30
0
41
1
10
-24
20
-7.59930464836137
30
0
41
1
10
-24
20
-7.74204572237986
30
0
41
1
10
-24
20
-7.88481230085068
30
0
41
1
10
-24
20
-8.02625870014725
30
0
41
1
10
-24
20
-8.19913346952643
30
0
41
1
10
-24
20
-8.36865254580422
30
0
41
1
10
-24
20
-8.50332879773273
30
0
41
1
10
-24
20
-8.63663898786112
30
0
41
1
10
-24
20
-8.76613375581505
30
0
41
1
10
-24
20
-8.87892111197036
30
0
41
1
10
-24
20
-8.94296710462893
30
0
41
1
10
-24
20
-9.00666455327519
30
0
41
1
10
-24
20
-9.08500599911847
30
0
41
1
10
-24
20
-9.20992961783276
30
0
41
1
10
-24
20
-9.33111733072479
30
0
41
1
10
-24
20
-9.45175015939358
30
0
41
1
10
-24
20
-9.54075475929304
30
0
41
1
10
-24
20
-9.62867743247332
30
0
41
1
10
-24
20
-9.71550990736878
30
0
41
1
10
-24
20
-9.80124635456616
30
0
41
1
10
-24
20
-9.88588281033205
30
0
41
1
10
-24
20
-9.9694122909747
30
0
41
1
10
-24
20
-10.0518274374696
30
0
41
1
10
-24
20
-10.1331238647016
30
0
41
1
10
-24
20
-10.240478300249
30
0
41
1
10
-24
20
-10.3442039980406
30
0
41
1
10
-24
20
-10.4469857502475
30
0
41
1
10
-24
20
-10.5225869730086
30
0
41
1
10
-24
20
-10.5844084741421
30
0
41
1
10
-24
20
-10.6336671988976
30
0
41
1
10
-24
20
-10.6825334589273
30
0
41
1
10
-24
20
-10.7424101865055
30
0
41
1
10
-24
20
-10.8133337727233
30
0
41
1
10
-24
20
-10.8830697936353
30
0
41
1
10
-24
20
-10.951609404873
30
0
41
1
10
-24
20
-11.0189464931514
30
0
41
1
10
-24
20
-11.1074991058536
30
0
41
1
10
-24
20
-11.2142799044294
30
0
41
1
10
-24
20
-11.3169609751522
30
0
41
1
10
-24
20
-11.3972466509688
30
0
41
1
10
-24
20
-11.4758394909226
30
0
41
1
10
-24
20
-11.5508590446085
30
0
41
1
10
-24
20
-11.6243139791192
30
0
41
1
10
-24
20
-11.6778530233414
30
0
41
1
10
-24
20
-11.7300826287653
30
0
41
1
10
-24
20
-11.7809904199398
30
0
41
1
10
-24
20
-11.8305656793297
30
0
41
1
10
-24
20
-11.8787992978642
30
0
41
1
10
-24
20
-11.9256779481161
30
0
41
1
10
-24
20
-11.9866456736684
30
0
41
1
10
-24
20
-12.0440224201629
30
0
41
1
10
-24
20
-12.099415447517
30
0
41
1
10
-24
20
-12.1393440246738
30
0
41
1
10
-24
20
-12.1778433772408
30
0
41
1
10
-24
20
-12.2149010599454
30
0
41
1
10
-24
20
-12.250502752964
30
0
41
1
10
-24
20
-12.2962370828382
30
0
41
1
10
-24
20
-12.3383402824608
30
0
41
1
10
-24
20
-12.3780532736994
30
0
41
1
10
-24
20
-12.4061495785297
30
0
41
1
10
-24
20
-12.4326960530149
30
0
41
1
10
-24
20
-12.4661791203578
30
0
41
1
10
-24
20
-12.4959885477691
30
0
41
1
10
-24
20
-12.523037071398
30
0
41
1
10
-24
20
-12.5415673540695
30
0
41
1
10
-24
20
-12.55843663992
30
0
41
1
10
-24
20
-12.5736235086905
30
0
41
1
10
-24
20
-12.5871069547276
30
0
41
1
10
-24
20
-12.5988645879939
30
0
41
1
10
-24
20
-12.6088733436887
30
0
41
1
10
-24
20
-12.617109869821
30
0
41
1
10
-24
20
-12.6235493215145
30
0
41
1
10
-24
20
-12.6281667848456
30
0
41
1
10
-24
20
-12.630935840933
30
0
41
1
10
-24
20
-12.6318298800803
30
0
41
1
10
-24
20
-12.6311015700101
30
0
41
1
10
-24
20
-12.6302722750956
30
0
41
1
10
-24
20
-12.6301456977441
30
0
0
SPLINE
5
175
100
AcDbEntity
8
SK1
62
256
6
ByLayer
370
18
48
1
60
0
100
AcDbSpline
70
4
71
3
72
22
73
18
40
0
40
0
40
0
40
0
40
0.0262442859026881
40
0.0262442859026881
40
0.0530261157854851
40
0.0530261157854851
40
0.0713559655737795
40
0.0713559655737795
40
0.0895874012639089
40
0.0895874012639089
40
0.119482247898519
40
0.119482247898519
40
0.178618886842945
40
0.178618886842945
40
0.388022338076953
40
0.388022338076953
40
1
40
1
40
1
40
1
41
1
10
-0.394976888875277
20
5.0009244140283
30
0
41
1
10
-0.389542958903149
20
4.99654803778401
30
0
41
1
10
-0.383617633691586
20
4.99263335383438
30
0
41
1
10
-0.370682657201087
20
4.98677476419829
30
0
41
1
10
-0.363425194676552
20
4.98483424058901
30
0
41
1
10
-0.350979181144169
20
4.98462903203949
30
0
41
1
10
-0.345738268039327
20
4.98542011278013
30
0
41
1
10
-0.335836240990062
20
4.98861553627458
30
0
41
1
10
-0.331061456711979
20
4.99102841332402
30
0
41
1
10
-0.319537139874143
20
4.9986715699325
30
0
41
1
10
-0.313226756018622
20
5.00478758784652
30
0
41
1
10
-0.29682625826149
20
5.02421063341325
30
0
41
1
10
-0.288455270980222
20
5.03906576138257
30
0
41
1
10
-0.256353055935392
20
5.10678482490906
30
0
41
1
10
-0.244000373144985
20
5.16381228581221
30
0
41
1
10
-0.204596889637315
20
5.38213882730372
30
0
41
1
10
-0.200000000000046
20
5.54465158381666
30
0
41
1
10
-0.200000000000046
20
5.70317614351262
30
0
0
SPLINE
5
176
100
AcDbEntity
8
SK1
62
256
6
ByLayer
370
18
48
1
60
0
100
AcDbSpline
70
4
71
3
72
8
73
4
40
0
40
0
40
0
40
0
40
1
40
1
40
1
40
1
41
1
10
-1.49503997793931
20
-2.59465115086957
30
0
41
1
10
-1.43729564430089
20
-2.94660231507382
30
0
41
1
10
-1.37345704405578
20
-3.29127575598179
30
0
41
1
10
-1.30710678118655
20
-3.6278161010051
30
0
0
SPLINE
5
177
100
AcDbEntity
8
SK1
62
256
6
ByLayer
370
18
48
1
60
0
100
AcDbSpline
70
4
71
3
72
10
73
6
40
0
40
0
40
0
40
0
40
0.5
40
0.5
40
1
40
1
40
1
40
1
41
1
10
-1.69999999999999
20
2.58372509632821
30
0
41
1
10
-1.83222262461143
20
1.751855044526
30
0
41
1
10
-1.92871617486691
20
0.884329181036094
30
0
41
1
10
-1.92842303871006
20
-0.888588835776119
30
0
41
1
10
-1.83224326233341
20
-1.75172436897285
30
0
41
1
10
-1.69999999999999
20
-2.58372503195247
30
0
0
SPLINE
5
178
100
AcDbEntity
8
SK1
62
256
6
ByLayer
370
18
48
1
60
0
100
AcDbSpline
70
4
71
3
72
30
73
26
40
0
40
0
40
0
40
0
40
0.337353368376273
40
0.337353368376273
40
0.421572476570396
40
0.421572476570396
40
0.437870507614647
40
0.437870507614647
40
0.454360744150349
40
0.454360744150349
40
0.46102437321649
40
0.46102437321649
40
0.467802724987302
40
0.467802724987302
40
0.473791453396888
40
0.473791453396888
40
0.481264268969724
40
0.481264268969724
40
0.494804301393218
40
0.494804301393218
40
0.541069262252274
40
0.541069262252274
40
0.762218024196531
40
0.762218024196531
40
1
40
1
40
1
40
1
41
1
10
-1.69999999999999
20
-2.5837250319525
30
0
41
1
10
-1.69946915813009
20
-2.45210484593008
30
0
41
1
10
-1.69760670671556
20
-2.31884997747196
30
0
41
1
10
-1.67915375522099
20
-2.15294187932722
30
0
41
1
10
-1.67485152519237
20
-2.11932442567118
30
0
41
1
10
-1.66472347048304
20
-2.08095979549279
30
0
41
1
10
-1.66287560510222
20
-2.07475454077749
30
0
41
1
10
-1.65846712486041
20
-2.06274931231133
30
0
41
1
10
-1.65588139752759
20
-2.05680133794195
30
0
41
1
10
-1.65120237663186
20
-2.0497680665317
30
0
41
1
10
-1.64969999009787
20
-2.04787870491481
30
0
41
1
10
-1.64639510213217
20
-2.0447894938039
30
0
41
1
10
-1.64453557847699
20
-2.04357912964019
30
0
41
1
10
-1.64096575658939
20
-2.04240828386776
30
0
41
1
10
-1.63922229186966
20
-2.04230771235822
30
0
41
1
10
-1.63551182442282
20
-2.04297037181766
30
0
41
1
10
-1.63353448434609
20
-2.04393506875687
30
0
41
1
10
-1.62845259442082
20
-2.04750201060256
30
0
41
1
10
-1.62558657915471
20
-2.0508033417303
30
0
41
1
10
-1.61425491864986
20
-2.06649024761731
30
0
41
1
10
-1.60795428020356
20
-2.08189579117942
30
0
41
1
10
-1.57473680217674
20
-2.17064161742221
30
0
41
1
10
-1.55852136531561
20
-2.25243693059593
30
0
41
1
10
-1.5247433730911
20
-2.41950302647342
30
0
41
1
10
-1.50941945205861
20
-2.5070083929059
30
0
41
1
10
-1.49503997793928
20
-2.59465115086951
30
0
0
SPLINE
5
179
100
AcDbEntity
8
SK1
62
256
6
ByLayer
370
18
48
1
60
0
100
AcDbSpline
70
4
71
3
72
98
73
94
40
0
40
0
40
0
40
0
40
0.0012808740763045
40
0.0105737783742241
40
0.0198666826721437
40
0.0291595869700633
40
0.0384524912679829
40
0.0477453955659025
40
0.0663312041617417
40
0.0849170127575809
40
0.10350282135342
40
0.11279572565134
40
0.122088629949259
40
0.131381534247179
40
0.140674438545099
40
0.159260247140938
40
0.168553151438857
40
0.177846055736777
40
0.187138960034696
40
0.196431864332616
40
0.205724768630536
40
0.215017672928455
40
0.233603481524295
40
0.242896385822214
40
0.252189290120134
40
0.261482194418053
40
0.270775098715973
40
0.280068003013893
40
0.289360907311812
40
0.298653811609732
40
0.307946715907651
40
0.326532524503491
40
0.33582542880141
40
0.34511833309933
40
0.363704141695169
40
0.382289950291008
40
0.391582854588928
40
0.400875758886847
40
0.410168663184767
40
0.419461567482687
40
0.428754471780606
40
0.438047376078526
40
0.442693828227486
40
0.447340280376445
40
0.456633184674365
40
0.465926088972284
40
0.475218993270204
40
0.493804801866043
40
0.503097706163963
40
0.512390610461883
40
0.521683514759802
40
0.530976419057722
40
0.540269323355641
40
0.549562227653561
40
0.558855131951481
40
0.5681480362494
40
0.57744094054732
40
0.586733844845239
40
0.605319653441079
40
0.614612557738998
40
0.623905462036918
40
0.628551914185878
40
0.633198366334837
40
0.642491270632757
40
0.661077079228596
40
0.670369983526516
40
0.679662887824435
40
0.698248696420275
40
0.716834505016114
40
0.726127409314034
40
0.735420313611953
40
0.754006122207792
40
0.763299026505712
40
0.772591930803632
40
0.781884835101551
40
0.791177739399471
40
0.80047064369739
40
0.80976354799531
40
0.828349356591149
40
0.846935165186988
40
0.856228069484908
40
0.865520973782828
40
0.874813878080747
40
0.884106782378667
40
0.902692590974506
40
0.921278399570345
40
0.939864208166184
40
0.958450016762024
40
0.967742921059943
40
0.977035825357863
40
0.986328729655782
40
0.995621633953702
40
1
40
1
40
1
40
1
41
1
10
-0.394976888875277
20
13.8446015176322
30
0
41
1
10
-0.394976888875277
20
13.8443369604552
30
0
41
1
10
-0.394976888875277
20
13.842101166137
30
0
41
1
10
-0.394976888875277
20
13.8370982474882
30
0
41
1
10
-0.394976888875277
20
13.8281310063336
30
0
41
1
10
-0.394976888875277
20
13.8172492272358
30
0
41
1
10
-0.394976888875277
20
13.8044829705053
30
0
41
1
10
-0.394976888875277
20
13.7849758313288
30
0
41
1
10
-0.394976888875277
20
13.7560496751861
30
0
41
1
10
-0.394976888875277
20
13.7142204148031
30
0
41
1
10
-0.394976888875277
20
13.6736219510479
30
0
41
1
10
-0.394976888875277
20
13.6377421071264
30
0
41
1
10
-0.394976888875277
20
13.6091837483775
30
0
41
1
10
-0.394976888875277
20
13.5789821852606
30
0
41
1
10
-0.394976888875277
20
13.5365270016785
30
0
41
1
10
-0.394976888875277
20
13.4909311840823
30
0
41
1
10
-0.394976888875277
20
13.4421262012037
30
0
41
1
10
-0.394976888875277
20
13.4039879614121
30
0
41
1
10
-0.394976888875277
20
13.3643136176474
30
0
41
1
10
-0.394976888875277
20
13.3231185671574
30
0
41
1
10
-0.394976888875277
20
13.2804176635455
30
0
41
1
10
-0.394976888875277
20
13.2214670183476
30
0
41
1
10
-0.394976888875277
20
13.1596507604527
30
0
41
1
10
-0.394976888875277
20
13.094846134259
30
0
41
1
10
-0.394976888875277
20
13.0448282447276
30
0
41
1
10
-0.394976888875277
20
12.9933861020735
30
0
41
1
10
-0.394976888875277
20
12.9405320737836
30
0
41
1
10
-0.394976888875277
20
12.8862769376535
30
0
41
1
10
-0.394976888875277
20
12.8306328717281
30
0
41
1
10
-0.394976888875277
20
12.7736108931729
30
0
41
1
10
-0.394976888875277
20
12.6957215859151
30
0
41
1
10
-0.394976888875277
20
12.6152283382819
30
0
41
1
10
-0.394976888875277
20
12.5319491453114
30
0
41
1
10
-0.394976888875277
20
12.4468991604423
30
0
41
1
10
-0.394976888875277
20
12.3373769122162
30
0
41
1
10
-0.394976888875277
20
12.2235215734124
30
0
41
1
10
-0.394976888875277
20
12.1297946053789
30
0
41
1
10
-0.394976888875277
20
12.0582544060742
30
0
41
1
10
-0.394976888875277
20
11.9854459580753
30
0
41
1
10
-0.394976888875277
20
11.9113764581405
30
0
41
1
10
-0.394976888875277
20
11.8360539668501
30
0
41
1
10
-0.394976888875277
20
11.7722691621604
30
0
41
1
10
-0.394976888875277
20
11.7205808778945
30
0
41
1
10
-0.394976888875277
20
11.6684804259269
30
0
41
1
10
-0.394976888875277
20
11.6026363586083
30
0
41
1
10
-0.394976888875277
20
11.5223699646631
30
0
41
1
10
-0.394976888875277
20
11.4136741241806
30
0
41
1
10
-0.394976888875277
20
11.3026972493618
30
0
41
1
10
-0.394976888875277
20
11.1891707558493
30
0
41
1
10
-0.394976888875277
20
11.102867622286
30
0
41
1
10
-0.394976888875277
20
11.0153746780185
30
0
41
1
10
-0.394976888875277
20
10.9266969759659
30
0
41
1
10
-0.394976888875277
20
10.8368404439692
30
0
41
1
10
-0.394976888875277
20
10.74580988339
30
0
41
1
10
-0.394976888875277
20
10.6536100721469
30
0
41
1
10
-0.394976888875277
20
10.5602461340712
30
0
41
1
10
-0.394976888875277
20
10.4657231550753
30
0
41
1
10
-0.394976888875277
20
10.3380960413352
30
0
41
1
10
-0.394976888875277
20
10.2083399780688
30
0
41
1
10
-0.394976888875277
20
10.0761265525343
30
0
41
1
10
-0.394976888875277
20
9.99261143893298
30
0
41
1
10
-0.394976888875277
20
9.92517900727512
30
0
41
1
10
-0.394976888875277
20
9.85736934874495
30
0
41
1
10
-0.394976888875277
20
9.73773600630287
30
0
41
1
10
-0.394976888875277
20
9.59892076352932
30
0
41
1
10
-0.394976888875277
20
9.45767861814849
30
0
41
1
10
-0.394976888875277
20
9.3149499665038
30
0
41
1
10
-0.394976888875277
20
9.13390678694702
30
0
41
1
10
-0.394976888875277
20
8.94918033853523
30
0
41
1
10
-0.394976888875277
20
8.79907643306458
30
0
41
1
10
-0.394976888875277
20
8.64751154095558
30
0
41
1
10
-0.394976888875277
20
8.49397418950429
30
0
41
1
10
-0.394976888875277
20
8.33804225713789
30
0
41
1
10
-0.394976888875277
20
8.22006379392718
30
0
41
1
10
-0.394976888875277
20
8.10100252302422
30
0
41
1
10
-0.394976888875277
20
7.98086143927398
30
0
41
1
10
-0.394976888875277
20
7.85964213989763
30
0
41
1
10
-0.394976888875277
20
7.69650359349293
30
0
41
1
10
-0.394976888875277
20
7.49008089634199
30
0
41
1
10
-0.394976888875277
20
7.28009509164627
30
0
41
1
10
-0.394976888875277
20
7.10982244878713
30
0
41
1
10
-0.394976888875277
20
6.98112244545175
30
0
41
1
10
-0.394976888875277
20
6.85136200824962
30
0
41
1
10
-0.394976888875277
20
6.67684685573994
30
0
41
1
10
-0.394976888875277
20
6.45627503636445
30
0
41
1
10
-0.394976888875277
20
6.18726433662556
30
0
41
1
10
-0.394976888875277
20
5.91406385279547
30
0
41
1
10
-0.394976888875277
20
5.68302324019061
30
0
41
1
10
-0.394976888875277
20
5.49591838220567
30
0
41
1
10
-0.394976888875277
20
5.35463940810163
30
0
41
1
10
-0.394976888875277
20
5.21232773385495
30
0
41
1
10
-0.394976888875277
20
5.09425517295406
30
0
41
1
10
-0.394976888875277
20
5.02359271293304
30
0
41
1
10
-0.394976888875277
20
5.0009244140283
30
0
0
SPLINE
5
17A
100
AcDbEntity
8
SK1
62
256
6
ByLayer
370
18
48
1
60
0
100
AcDbSpline
70
4
71
3
72
8
73
4
40
0
40
0
40
0
40
0
40
1
40
1
40
1
40
1
41
1
10
-1.30710678118655
20
3.62781725664615
30
0
41
1
10
-1.37345758266253
20
3.29127686428785
30
0
41
1
10
-1.4372955614198
20
2.946602671997
30
0
41
1
10
-1.49503997793931
20
2.59465115838313
30
0
0
SPLINE
5
17B
100
AcDbEntity
8
SK1
62
256
6
ByLayer
370
18
48
1
60
0
100
AcDbSpline
70
4
71
3
72
100
73
96
40
0
40
0
40
0
40
0
40
0.0043783247532282
40
0.0136712309453665
40
0.0229641371375048
40
0.0322570433296431
40
0.0415499495217814
40
0.0601357619060581
40
0.0787215742903348
40
0.0973073866746114
40
0.115893199058888
40
0.125186105251026
40
0.134479011443165
40
0.143771917635303
40
0.153064823827441
40
0.171650636211718
40
0.190236448595995
40
0.199529354788133
40
0.208822260980271
40
0.21811516717241
40
0.227408073364548
40
0.236700979556686
40
0.245993885748825
40
0.264579698133101
40
0.27387260432524
40
0.283165510517378
40
0.301751322901655
40
0.320337135285931
40
0.32963004147807
40
0.338922947670208
40
0.357508760054485
40
0.366801666246623
40
0.371448119342692
40
0.376094572438761
40
0.385387478630899
40
0.394680384823038
40
0.413266197207314
40
0.422559103399453
40
0.431852009591591
40
0.441144915783729
40
0.450437821975868
40
0.459730728168006
40
0.469023634360144
40
0.478316540552283
40
0.487609446744421
40
0.496902352936559
40
0.506195259128698
40
0.524781071512974
40
0.534073977705113
40
0.543366883897251
40
0.552659790089389
40
0.557306243185458
40
0.561952696281528
40
0.571245602473666
40
0.580538508665804
40
0.589831414857943
40
0.599124321050081
40
0.608417227242219
40
0.617710133434358
40
0.636295945818634
40
0.654881758202911
40
0.664174664395049
40
0.673467570587188
40
0.692053382971464
40
0.701346289163602
40
0.710639195355741
40
0.719932101547879
40
0.729225007740017
40
0.738517913932156
40
0.747810820124294
40
0.757103726316433
40
0.766396632508571
40
0.784982444892847
40
0.794275351084986
40
0.803568257277124
40
0.812861163469262
40
0.822154069661401
40
0.831446975853539
40
0.840739882045677
40
0.859325694429954
40
0.868618600622092
40
0.877911506814231
40
0.887204413006369
40
0.896497319198507
40
0.915083131582784
40
0.924376037774922
40
0.933668943967061
40
0.942961850159199
40
0.952254756351337
40
0.961547662543476
40
0.970840568735614
40
0.980133474927752
40
0.98942638111989
40
0.998719287312029
40
1
40
1
40
1
40
1
41
1
10
-0.394976888875306
20
-5.00092508225416
30
0
41
1
10
-0.394976888875306
20
-5.02359314607176
30
0
41
1
10
-0.394976888875306
20
-5.09425535366776
30
0
41
1
10
-0.394976888875306
20
-5.21232773830431
30
0
41
1
10
-0.394976888875306
20
-5.35463943777347
30
0
41
1
10
-0.394976888875306
20
-5.49591839522026
30
0
41
1
10
-0.394976888875306
20
-5.68302324398948
30
0
41
1
10
-0.394976888875306
20
-5.91406388300979
30
0
41
1
10
-0.394976888875306
20
-6.18726435105106
30
0
41
1
10
-0.394976888875306
20
-6.45627504712579
30
0
41
1
10
-0.394976888875306
20
-6.6768468885183
30
0
41
1
10
-0.394976888875306
20
-6.85136201549099
30
0
41
1
10
-0.394976888875306
20
-6.98112245032084
30
0
41
1
10
-0.394976888875306
20
-7.10982246715957
30
0
41
1
10
-0.394976888875306
20
-7.28009512097313
30
0
41
1
10
-0.394976888875306
20
-7.49008091096033
30
0
41
1
10
-0.394976888875306
20
-7.69650359935568
30
0
41
1
10
-0.394976888875306
20
-7.85964216476054
30
0
41
1
10
-0.394976888875306
20
-7.98086146605701
30
0
41
1
10
-0.394976888875306
20
-8.10100253994159
30
0
41
1
10
-0.394976888875306
20
-8.22006380191277
30
0
41
1
10
-0.394976888875306
20
-8.3380422654499
30
0
41
1
10
-0.394976888875306
20
-8.49397420958985
30
0
41
1
10
-0.394976888875306
20
-8.64751156797169
30
0
41
1
10
-0.394976888875306
20
-8.79907644696402
30
0
41
1
10
-0.394976888875306
20
-8.94918034619519
30
0
41
1
10
-0.394976888875306
20
-9.13390680482667
30
0
41
1
10
-0.394976888875306
20
-9.31494999082747
30
0
41
1
10
-0.394976888875306
20
-9.45767863215664
30
0
41
1
10
-0.394976888875306
20
-9.59892077296985
30
0
41
1
10
-0.394976888875306
20
-9.73773602301958
30
0
41
1
10
-0.394976888875306
20
-9.85736937045593
30
0
41
1
10
-0.394976888875306
20
-9.92517902838179
30
0
41
1
10
-0.394976888875306
20
-9.99261145812801
30
0
41
1
10
-0.394976888875306
20
-10.0761265678462
30
0
41
1
10
-0.394976888875306
20
-10.2083399899529
30
0
41
1
10
-0.394976888875306
20
-10.338096057249
30
0
41
1
10
-0.394976888875306
20
-10.4657231753345
30
0
41
1
10
-0.394976888875306
20
-10.5602461538978
30
0
41
1
10
-0.394976888875306
20
-10.6536100894112
30
0
41
1
10
-0.394976888875306
20
-10.7458098983122
30
0
41
1
10
-0.394976888875306
20
-10.8368404586376
30
0
41
1
10
-0.394976888875306
20
-10.9266969919675
30
0
41
1
10
-0.394976888875306
20
-11.0153746961414
30
0
41
1
10
-0.394976888875306
20
-11.1028676417001
30
0
41
1
10
-0.394976888875306
20
-11.1891707748317
30
0
41
1
10
-0.394976888875306
20
-11.3026972665534
30
0
41
1
10
-0.394976888875306
20
-11.413674138825
30
0
41
1
10
-0.394976888875306
20
-11.5223699808134
30
0
41
1
10
-0.394976888875306
20
-11.6026363770329
30
0
41
1
10
-0.394976888875306
20
-11.6684804460587
30
0
41
1
10
-0.394976888875306
20
-11.7205808983271
30
0
41
1
10
-0.394976888875306
20
-11.7722691819395
30
0
41
1
10
-0.394976888875306
20
-11.836053984022
30
0
41
1
10
-0.394976888875306
20
-11.9113764724791
30
0
41
1
10
-0.394976888875306
20
-11.9854459723214
30
0
41
1
10
-0.394976888875306
20
-12.0582544232072
30
0
41
1
10
-0.394976888875306
20
-12.1297946270485
30
0
41
1
10
-0.394976888875306
20
-12.2235215963167
30
0
41
1
10
-0.394976888875306
20
-12.3373769247913
30
0
41
1
10
-0.394976888875306
20
-12.446899173783
30
0
41
1
10
-0.394976888875306
20
-12.5319491682166
30
0
41
1
10
-0.394976888875306
20
-12.6152283642396
30
0
41
1
10
-0.394976888875306
20
-12.6957215996061
30
0
41
1
10
-0.394976888875306
20
-12.773610902979
30
0
41
1
10
-0.394976888875306
20
-12.8306328883531
30
0
41
1
10
-0.394976888875306
20
-12.8862769625636
30
0
41
1
10
-0.394976888875306
20
-12.940532100831
30
0
41
1
10
-0.394976888875306
20
-12.9933861205259
30
0
41
1
10
-0.394976888875306
20
-13.0448282543027
30
0
41
1
10
-0.394976888875306
20
-13.0948461430692
30
0
41
1
10
-0.394976888875306
20
-13.1596507828291
30
0
41
1
10
-0.394976888875306
20
-13.221467049789
30
0
41
1
10
-0.394976888875306
20
-13.2804176772461
30
0
41
1
10
-0.394976888875306
20
-13.3231185723383
30
0
41
1
10
-0.394976888875306
20
-13.3643136307331
30
0
41
1
10
-0.394976888875306
20
-13.4039879870964
30
0
41
1
10
-0.394976888875306
20
-13.4421262291561
30
0
41
1
10
-0.394976888875306
20
-13.490931201485
30
0
41
1
10
-0.394976888875306
20
-13.5365270011545
30
0
41
1
10
-0.394976888875306
20
-13.5789822078612
30
0
41
1
10
-0.394976888875306
20
-13.6091837809887
30
0
41
1
10
-0.394976888875306
20
-13.6377421279937
30
0
41
1
10
-0.394976888875306
20
-13.6736219491958
30
0
41
1
10
-0.394976888875306
20
-13.706079968468
30
0
41
1
10
-0.394976888875306
20
-13.7351343539634
30
0
41
1
10
-0.394976888875306
20
-13.7551609910392
30
0
41
1
10
-0.394976888875306
20
-13.7734119916164
30
0
41
1
10
-0.394976888875306
20
-13.7898613788954
30
0
41
1
10
-0.394976888875306
20
-13.8044829828858
30
0
41
1
10
-0.394976888875306
20
-13.8172491473121
30
0
41
1
10
-0.394976888875306
20
-13.8281307581185
30
0
41
1
10
-0.394976888875306
20
-13.8370980881852
30
0
41
1
10
-0.394976888875306
20
-13.8421014019358
30
0
41
1
10
-0.394976888875306
20
-13.8443373794894
30
0
41
1
10
-0.394976888875306
20
-13.8446019297682
30
0
0
SPLINE
5
17C
100
AcDbEntity
8
SK1
62
256
6
ByLayer
370
18
48
1
60
0
100
AcDbSpline
70
4
71
3
72
117
73
113
40
0
40
0
40
0
40
0
40
0.0001127097075455
40
0.0080343119660709
40
0.0159559142245963
40
0.0238775164831217
40
0.0317991187416471
40
0.0397207210001725
40
0.0476423232586979
40
0.0555639255172233
40
0.0634855277757486
40
0.0793287322927995
40
0.0951719368098502
40
0.111015141326901
40
0.118936743585426
40
0.126858345843952
40
0.134779948102477
40
0.142701550361003
40
0.158544754878053
40
0.166466357136579
40
0.174387959395104
40
0.18230956165363
40
0.190231163912155
40
0.19815276617068
40
0.206074368429206
40
0.221917572946257
40
0.229839175204782
40
0.237760777463307
40
0.245682379721833
40
0.253603981980358
40
0.261525584238884
40
0.269447186497409
40
0.277368788755934
40
0.28529039101446
40
0.30113359553151
40
0.309055197790036
40
0.316976800048561
40
0.332820004565612
40
0.348663209082663
40
0.356584811341188
40
0.364506413599714
40
0.372428015858239
40
0.380349618116764
40
0.38827122037529
40
0.396192822633815
40
0.400153623763078
40
0.404114424892341
40
0.412036027150866
40
0.419957629409391
40
0.427879231667917
40
0.443722436184968
40
0.451644038443493
40
0.459565640702018
40
0.467487242960544
40
0.475408845219069
40
0.483330447477595
40
0.49125204973612
40
0.499173651994645
40
0.507095254253171
40
0.515016856511696
40
0.522938458770222
40
0.538781663287272
40
0.546703265545798
40
0.554624867804323
40
0.558585668933586
40
0.562546470062849
40
0.570468072321374
40
0.586311276838425
40
0.59423287909695
40
0.602154481355475
40
0.617997685872526
40
0.633840890389577
40
0.641762492648102
40
0.649684094906628
40
0.665527299423679
40
0.673448901682204
40
0.681370503940729
40
0.689292106199255
40
0.69721370845778
40
0.705135310716306
40
0.713056912974831
40
0.728900117491882
40
0.744743322008933
40
0.752664924267458
40
0.760586526525983
40
0.768508128784509
40
0.776429731043034
40
0.792272935560085
40
0.808116140077136
40
0.823959344594187
40
0.839802549111237
40
0.847724151369763
40
0.855645753628288
40
0.863567355886813
40
0.871488958145339
40
0.879410560403864
40
0.88733216266239
40
0.895253764920915
40
0.90317536717944
40
0.911096969437966
40
0.919018571696491
40
0.926940173955016
40
0.934861776213542
40
0.942783378472067
40
0.950704980730593
40
0.958626582989118
40
0.966548185247644
40
0.974469787506169
40
0.982391389764694
40
0.99031299202322
40
0.998234594281745
40
1
40
1
40
1
40
1
41
1
10
-1.49503997793931
20
13.8251837283494
30
0
41
1
10
-1.49503997793931
20
13.8251847284494
30
0
41
1
10
-1.49503997793931
20
13.8252108746817
30
0
41
1
10
-1.49503997793928
20
13.8245539604948
30
0
41
1
10
-1.49503997793928
20
13.8215305966481
30
0
41
1
10
-1.49503997793928
20
13.8164982902869
30
0
41
1
10
-1.49503997793928
20
13.8094909095343
30
0
41
1
10
-1.49503997793928
20
13.8005402090708
30
0
41
1
10
-1.49503997793928
20
13.7896781830989
30
0
41
1
10
-1.49503997793928
20
13.7769347476405
30
0
41
1
10
-1.49503997793928
20
13.7574597557179
30
0
41
1
10
-1.49503997793928
20
13.7285859139399
30
0
41
1
10
-1.49503997793928
20
13.6868269300449
30
0
41
1
10
-1.49503997793928
20
13.6462985077496
30
0
41
1
10
-1.49503997793928
20
13.6104729008558
30
0
41
1
10
-1.49503997793928
20
13.5819600687286
30
0
41
1
10
-1.49503997793928
20
13.5518061457236
30
0
41
1
10
-1.49503997793928
20
13.509413016618
30
0
41
1
10
-1.49503997793928
20
13.4638962341071
30
0
41
1
10
-1.49503997793928
20
13.4151607370273
30
0
41
1
10
-1.49503997793928
20
13.3770798968994
30
0
41
1
10
-1.49503997793928
20
13.3374647662751
30
0
41
1
10
-1.49503997793928
20
13.2963307178616
30
0
41
1
10
-1.49503997793928
20
13.2536925499096
30
0
41
1
10
-1.49503997793928
20
13.1948224098965
30
0
41
1
10
-1.49503997793928
20
13.1331066142243
30
0
41
1
10
-1.49503997793928
20
13.0683888145289
30
0
41
1
10
-1.49503997793928
20
13.0184419638584
30
0
41
1
10
-1.49503997793928
20
12.9670724273821
30
0
41
1
10
-1.49503997793928
20
12.9142925944038
30
0
41
1
10
-1.49503997793928
20
12.860113205584
30
0
41
1
10
-1.49503997793928
20
12.8045464062654
30
0
41
1
10
-1.49503997793928
20
12.74760324418
30
0
41
1
10
-1.49503997793928
20
12.6698142834541
30
0
41
1
10
-1.49503997793928
20
12.5894449005116
30
0
41
1
10
-1.49503997793928
20
12.50627175547
30
0
41
1
10
-1.49503997793928
20
12.4213295833849
30
0
41
1
10
-1.49503997793928
20
12.3119621458456
30
0
41
1
10
-1.49503997793928
20
12.1982668977617
30
0
41
1
10
-1.49503997793928
20
12.1046570208051
30
0
41
1
10
-1.49503997793928
20
12.0332119345842
30
0
41
1
10
-1.49503997793928
20
11.9605000871413
30
0
41
1
10
-1.49503997793928
20
11.8865286504803
30
0
41
1
10
-1.49503997793928
20
11.8113057028001
30
0
41
1
10
-1.49503997793928
20
11.7476093345099
30
0
41
1
10
-1.49503997793928
20
11.6959849101866
30
0
41
1
10
-1.49503997793928
20
11.643948764099
30
0
41
1
10
-1.49503997793928
20
11.5781957241672
30
0
41
1
10
-1.49503997793928
20
11.4980348993556
30
0
41
1
10
-1.49503997793928
20
11.3894728900619
30
0
41
1
10
-1.49503997793928
20
11.278660103453
30
0
41
1
10
-1.49503997793928
20
11.1652732784127
30
0
41
1
10
-1.49503997793928
20
11.0790834423827
30
0
41
1
10
-1.49503997793928
20
10.9917054044732
30
0
41
1
10
-1.49503997793928
20
10.9031442025602
30
0
41
1
10
-1.49503997793928
20
10.8134057967923
30
0
41
1
10
-1.49503997793928
20
10.7224950378189
30
0
41
1
10
-1.49503997793928
20
10.6304166849825
30
0
41
1
10
-1.49503997793928
20
10.5371758780398
30
0
41
1
10
-1.49503997793928
20
10.4427777751693
30
0
41
1
10
-1.49503997793928
20
10.3153089364435
30
0
41
1
10
-1.49503997793928
20
10.1857467684219
30
0
41
1
10
-1.49503997793928
20
10.0536983054632
30
0
41
1
10
-1.49503997793928
20
9.97030026745779
30
0
41
1
10
-1.49503997793928
20
9.90295235506755
30
0
41
1
10
-1.49503997793928
20
9.83522786489038
30
0
41
1
10
-1.49503997793928
20
9.71574944153573
30
0
41
1
10
-1.49503997793928
20
9.57714511427093
30
0
41
1
10
-1.49503997793928
20
9.43608246295526
30
0
41
1
10
-1.49503997793928
20
9.29353602958125
30
0
41
1
10
-1.49503997793928
20
9.11275363063515
30
0
41
1
10
-1.49503997793928
20
8.92829537712967
30
0
41
1
10
-1.49503997793928
20
8.77838738443313
30
0
41
1
10
-1.49503997793928
20
8.62702158956
30
0
41
1
10
-1.49503997793928
20
8.47372854841302
30
0
41
1
10
-1.49503997793928
20
8.31800483202281
30
0
41
1
10
-1.49503997793928
20
8.20019570647173
30
0
41
1
10
-1.49503997793928
20
8.08130642958628
30
0
41
1
10
-1.49503997793928
20
7.96134016006346
30
0
41
1
10
-1.49503997793928
20
7.84029852533041
30
0
41
1
10
-1.49503997793928
20
7.67738589461936
30
0
41
1
10
-1.49503997793928
20
7.47128766686797
30
0
41
1
10
-1.49503997793928
20
7.261636811758
30
0
41
1
10
-1.49503997793928
20
7.09160986883526
30
0
41
1
10
-1.49503997793928
20
6.96311018452545
30
0
41
1
10
-1.49503997793928
20
6.83355373772449
30
0
41
1
10
-1.49503997793928
20
6.6592985841524
30
0
41
1
10
-1.49503997793928
20
6.43910149333703
30
0
41
1
10
-1.49503997793928
20
6.17053536578155
30
0
41
1
10
-1.49503997793928
20
5.89779783511918
30
0
41
1
10
-1.49503997793928
20
5.66717892097088
30
0
41
1
10
-1.49503997793928
20
5.48038541909952
30
0
41
1
10
-1.49503997793928
20
5.33936157753735
30
0
41
1
10
-1.49503997793928
20
5.19731095553271
30
0
41
1
10
-1.49503997793928
20
5.05423706888553
30
0
41
1
10
-1.49503997793928
20
4.91014315579861
30
0
41
1
10
-1.49503997793928
20
4.7650332428635
30
0
41
1
10
-1.49503997793928
20
4.61891156596767
30
0
41
1
10
-1.49503997793928
20
4.47178260268984
30
0
41
1
10
-1.49503997793928
20
4.32365113214263
30
0
41
1
10
-1.49503997793928
20
4.17452288947305
30
0
41
1
10
-1.49503997793928
20
4.02440432752809
30
0
41
1
10
-1.49503997793928
20
3.87330192992579
30
0
41
1
10
-1.49503997793928
20
3.7212231412766
30
0
41
1
10
-1.49503997793928
20
3.56817690176541
30
0
41
1
10
-1.49503997793928
20
3.41417271020586
30
0
41
1
10
-1.49503997793928
20
3.25922165821993
30
0
41
1
10
-1.49503997793928
20
3.1033357799555
30
0
41
1
10
-1.49503997793928
20
2.94652918151195
30
0
41
1
10
-1.49503997793928
20
2.78881794429316
30
0
41
1
10
-1.49503997793928
20
2.67130381064959
30
0
41
1
10
-1.49503997793928
20
2.60647323876154
30
0
41
1
10
-1.49503997793931
20
2.59465115838313
30
0
0
SPLINE
5
17D
100
AcDbEntity
8
SK1
62
256
6
ByLayer
370
18
48
1
60
0
100
AcDbSpline
70
4
71
3
72
24
73
20
40
0
40
0
40
0
40
0
40
0.0014544386994859
40
0.0014544386994859
40
0.361956423060053
40
0.361956423060053
40
0.727731599250277
40
0.727731599250277
40
0.782013304695356
40
0.782013304695356
40
0.837002501937681
40
0.837002501937681
40
0.873144196436419
40
0.873144196436419
40
0.909511909647801
40
0.909511909647801
40
0.952113857168661
40
0.952113857168661
40
1
40
1
40
1
40
1
41
1
10
-0.217773520819833
20
13.9477771104646
30
0
41
1
10
-0.217796303830511
20
13.9477385212397
30
0
41
1
10
-0.217819113763113
20
13.9476999169831
30
0
41
1
10
-0.223510113646824
20
13.9380759054837
30
0
41
1
10
-0.230869554015186
20
13.9275300777214
30
0
41
1
10
-0.252993763945881
20
13.9036085654018
30
0
41
1
10
-0.266169306055218
20
13.8900912648142
30
0
41
1
10
-0.299313210098944
20
13.8713678522793
30
0
41
1
10
-0.304168151080091
20
13.8688119846588
30
0
41
1
10
-0.315233613826848
20
13.8635902765912
30
0
41
1
10
-0.321588767727178
20
13.8608655729355
30
0
41
1
10
-0.333434048045547
20
13.8565368608439
30
0
41
1
10
-0.338587345813778
20
13.8548370746726
30
0
41
1
10
-0.349158334685967
20
13.8517865918864
30
0
41
1
10
-0.354704697438706
20
13.8504050227189
30
0
41
1
10
-0.366193697521936
20
13.847969712967
30
0
41
1
10
-0.37221373013341
20
13.8469665678177
30
0
41
1
10
-0.383950527302631
20
13.8454141457692
30
0
41
1
10
-0.389694590782
20
13.8449066720063
30
0
41
1
10
-0.394976888882155
20
13.8446015176357
30
0
0
SPLINE
5
17E
100
AcDbEntity
8
SK1
62
256
6
ByLayer
370
18
48
1
60
0
100
AcDbSpline
70
4
71
3
72
24
73
20
40
0
40
0
40
0
40
0
40
0.408002420194574
40
0.408002420194574
40
0.586477084363329
40
0.586477084363329
40
0.763728221544513
40
0.763728221544513
40
0.83464833042642
40
0.83464833042642
40
0.871680147904128
40
0.871680147904128
40
0.909315863704638
40
0.909315863704638
40
0.941446160303591
40
0.941446160303591
40
0.988233002766673
40
0.988233002766673
40
1
40
1
40
1
40
1
41
1
10
-1.30710678118655
20
3.62781725664615
30
0
41
1
10
-1.25754709276271
20
3.87919081380429
30
0
41
1
10
-1.19771793926938
20
4.12580048883993
30
0
41
1
10
-1.07980138365164
20
4.46640123366592
30
0
41
1
10
-1.03947389583291
20
4.56855181342542
30
0
41
1
10
-0.943165684412492
20
4.76452984977917
30
0
41
1
10
-0.887972849225292
20
4.86076144162979
30
0
41
1
10
-0.781589632759733
20
4.97623115222154
30
0
41
1
10
-0.746942513659576
20
5.00751721259149
30
0
41
1
10
-0.685298347589708
20
5.04425501792002
30
0
41
1
10
-0.662073057062713
20
5.05499571071985
30
0
41
1
10
-0.612858105189787
20
5.06918922724967
30
0
41
1
10
-0.586087478285805
20
5.07253385323432
30
0
41
1
10
-0.537899014579068
20
5.06994558199364
30
0
41
1
10
-0.515734678473706
20
5.06532466911642
30
0
41
1
10
-0.465255653618982
20
5.04798484569733
30
0
41
1
10
-0.437776087568892
20
5.03248974169182
30
0
41
1
10
-0.406986543980821
20
5.01034621255963
30
0
41
1
10
-0.400907252385935
20
5.00570060770795
30
0
41
1
10
-0.394976888875277
20
5.00092441402839
30
0
0
SPLINE
5
17F
100
AcDbEntity
8
SK1
62
256
6
ByLayer
370
18
48
1
60
0
100
AcDbSpline
70
4
71
3
72
24
73
20
40
0
40
0
40
0
40
0
40
0.470757791634908
40
0.470757791634908
40
0.661826126045254
40
0.661826126045254
40
0.85568916651581
40
0.85568916651581
40
0.884460546127643
40
0.884460546127643
40
0.91360691814161
40
0.91360691814161
40
0.932763100125268
40
0.932763100125268
40
0.95203909678233
40
0.95203909678233
40
0.974618894615272
40
0.974618894615272
40
1
40
1
40
1
40
1
41
1
10
-0.199999999999989
20
-5.70317605472911
30
0
41
1
10
-0.199999999999989
20
-5.58107998739831
30
0
41
1
10
-0.203895983734896
20
-5.45705658909691
30
0
41
1
10
-0.223509916035709
20
-5.28128624620587
30
0
41
1
10
-0.23086916609185
20
-5.23019697507434
30
0
41
1
10
-0.252992963272021
20
-5.12819212434212
30
0
41
1
10
-0.266168518183207
20
-5.0748758166919
30
0
41
1
10
-0.299311339940942
20
-5.02202983998879
30
0
41
1
10
-0.304166370278011
20
-5.01525404855027
30
0
41
1
10
-0.315232060467963
20
-5.00279573504582
30
0
41
1
10
-0.321587352348587
20
-4.99699852204864
30
0
41
1
10
-0.333432884234497
20
-4.98975078853741
30
0
41
1
10
-0.33858625385443
20
-4.98746585289803
30
0
41
1
10
-0.3491574393544
20
-4.98479989040243
30
0
41
1
10
-0.354703931885922
20
-4.98441392730476
30
0
41
1
10
-0.366193082216228
20
-4.98556317954746
30
0
41
1
10
-0.372213152675158
20
-4.98741181161262
30
0
41
1
10
-0.383950186909431
20
-4.99285513665984
30
0
41
1
10
-0.3896944310344
20
-4.99667072159761
30
0
41
1
10
-0.394976888882155
20
-5.00092508225598
30
0
0
SPLINE
5
180
100
AcDbEntity
8
SK1
62
256
6
ByLayer
370
18
48
1
60
0
100
AcDbSpline
70
4
71
3
72
22
73
18
40
0
40
0
40
0
40
0
40
0.0557195764028342
40
0.0557195764028342
40
0.112580416271359
40
0.112580416271359
40
0.151496898629161
40
0.151496898629161
40
0.19020443225858
40
0.19020443225858
40
0.253674977810647
40
0.253674977810647
40
0.379229486612329
40
0.379229486612329
40
0.82382006102122
40
0.82382006102122
40
1
40
1
40
1
40
1
41
1
10
-0.394976888875306
20
-13.8446019297682
30
0
41
1
10
-0.389542940031561
20
-13.8449158599001
30
0
41
1
10
-0.383617593481006
20
-13.8454439659091
30
0
41
1
10
-0.370682577094897
20
-13.8471856765741
30
0
41
1
10
-0.363425095790518
20
-13.8484584409772
30
0
41
1
10
-0.350979043087193
20
-13.8513238322133
30
0
41
1
10
-0.345738104843406
20
-13.8527220431424
30
0
41
1
10
-0.335836036111374
20
-13.8557300394867
30
0
41
1
10
-0.331061234651429
20
-13.8573680363077
30
0
41
1
10
-0.319536857691617
20
-13.8617043765564
30
0
41
1
10
-0.313226439154875
20
-13.8644842406524
30
0
41
1
10
-0.296825865103983
20
-13.8724174982475
30
0
41
1
10
-0.288454852011284
20
-13.8774557840676
30
0
41
1
10
-0.256352537857253
20
-13.8987262995108
30
0
41
1
10
-0.243999907013659
20
-13.9124642192994
30
0
41
1
10
-0.229963428239728
20
-13.9295927568019
30
0
41
1
10
-0.22643928003356
20
-13.9342393022239
30
0
41
1
10
-0.223319935549568
20
-13.9386901109158
30
0
0
SPLINE
5
181
100
AcDbEntity
8
SK1
62
256
6
ByLayer
370
18
48
1
60
0
100
AcDbSpline
70
4
71
3
72
32
73
28
40
0
40
0
40
0
40
0
40
0.335339404831972
40
0.335339404831972
40
0.429287156787091
40
0.429287156787091
40
0.47567705376244
40
0.47567705376244
40
0.494539743197707
40
0.494539743197707
40
0.513645880085613
40
0.513645880085613
40
0.520504273461007
40
0.520504273461007
40
0.527488218290634
40
0.527488218290634
40
0.533551201014328
40
0.533551201014328
40
0.540998152878254
40
0.540998152878254
40
0.554393631774451
40
0.554393631774451
40
0.598967269657032
40
0.598967269657032
40
0.809317334416222
40
0.809317334416222
40
1
40
1
40
1
40
1
41
1
10
-1.49503997793931
20
2.59465115838304
30
0
41
1
10
-1.51545804662706
20
2.47020327904033
30
0
41
1
10
-1.5371392192427
20
2.34554891087819
30
0
41
1
10
-1.57392592094843
20
2.19043955590803
30
0
41
1
10
-1.58255890853934
20
2.15670217135892
30
0
41
1
10
-1.5980595693656
20
2.1081468839686
30
0
41
1
10
-1.60359902440038
20
2.09231222948606
30
0
41
1
10
-1.61296122457534
20
2.07152520286885
30
0
41
1
10
-1.6158696741316
20
2.0656737244498
30
0
41
1
10
-1.62242426172162
20
2.05481886173052
30
0
41
1
10
-1.62611615645159
20
2.04963161073078
30
0
41
1
10
-1.63217263701876
20
2.04479089552191
30
0
41
1
10
-1.63391092603902
20
2.04372430879368
30
0
41
1
10
-1.63759701012464
20
2.04243943769597
30
0
41
1
10
-1.63960513001732
20
2.04224314885471
30
0
41
1
10
-1.64327142014687
20
2.04303363449088
30
0
41
1
10
-1.64498274878696
20
2.04388024545895
30
0
41
1
10
-1.64846923771176
20
2.04652261877811
30
0
41
1
10
-1.65023197368771
20
2.04850621085967
30
0
41
1
10
-1.65459297944469
20
2.05462030362457
30
0
41
1
10
-1.65687449353447
20
2.05928542847226
30
0
41
1
10
-1.66535432668744
20
2.07982184742582
30
0
41
1
10
-1.66919635898847
20
2.09736547364699
30
0
41
1
10
-1.68800967157858
20
2.19569498442294
30
0
41
1
10
-1.6917465712958
20
2.27904221250569
30
0
41
1
10
-1.69840552504974
20
2.43548746422863
30
0
41
1
10
-1.69970172620592
20
2.50976932903754
30
0
41
1
10
-1.69999999999999
20
2.58372509632824
30
0
0
SPLINE
5
182
100
AcDbEntity
8
SK1
62
256
6
ByLayer
370
18
48
1
60
0
100
AcDbSpline
70
4
71
3
72
22
73
18
40
0
40
0
40
0
40
0
40
0.0408146055975421
40
0.0408146055975421
40
0.0823243808208714
40
0.0823243808208714
40
0.113722137960843
40
0.113722137960843
40
0.144934004837801
40
0.144934004837801
40
0.197663645148653
40
0.197663645148653
40
0.33040493622216
40
0.33040493622216
40
0.796191409884692
40
0.796191409884692
40
1
40
1
40
1
40
1
41
1
10
-0.394976888875306
20
-5.00092508226666
30
0
41
1
10
-0.415530107853925
20
-5.01747813555136
30
0
41
1
10
-0.438024560131566
20
-5.03261131985604
30
0
41
1
10
-0.487324802537927
20
-5.05682200266617
30
0
41
1
10
-0.514951385379703
20
-5.065973715838
30
0
41
1
10
-0.565001076851473
20
-5.07238571210249
30
0
41
1
10
-0.587551462055302
20
-5.07198375916977
30
0
41
1
10
-0.630654498772856
20
-5.06497384681828
30
0
41
1
10
-0.651690830573216
20
-5.05839846240309
30
0
41
1
10
-0.704063404944179
20
-5.0354696203506
30
0
41
1
10
-0.733646054998758
20
-5.01537181535585
30
0
41
1
10
-0.825717517678271
20
-4.93804001611764
30
0
41
1
10
-0.875568215521128
20
-4.86927174197922
30
0
41
1
10
-1.06893868726922
20
-4.55513362670803
30
0
41
1
10
-1.15213866111816
20
-4.27852588598478
30
0
41
1
10
-1.25478905452405
20
-3.87761185644086
30
0
41
1
10
-1.28234760083203
20
-3.75339907142145
30
0
41
1
10
-1.30710678118763
20
-3.62781610099955
30
0
0
SPLINE
5
183
100
AcDbEntity
8
1
62
256
6
ByLayer
370
18
48
1
60
0
100
AcDbSpline
70
4
71
3
72
12
73
8
40
0
40
0
40
0
40
0
40
0.448677967845759
40
0.448677967845759
40
0.724312599637717
40
0.724312599637717
40
1
40
1
40
1
40
1
41
1
10
37.5712329328533
20
-0.281596146219641
30
0
41
1
10
37.5223438828885
20
-0.29208915435899
30
0
41
1
10
37.4733510984622
20
-0.302111368862683
30
0
41
1
10
37.3941059046493
20
-0.317476792680935
30
0
41
1
10
37.363910600719
20
-0.323130612332449
30
0
41
1
10
37.3034396790315
20
-0.334017789857995
30
0
41
1
10
37.2731625758926
20
-0.339251313573698
30
0
41
1
10
37.2428487312859
20
-0.344257801213189
30
0
0
SPLINE
5
184
100
AcDbEntity
8
1
62
256
6
ByLayer
370
18
48
1
60
0
100
AcDbSpline
70
4
71
3
72
16
73
12
40
0
40
0
40
0
40
0
40
0.46430426715929
40
0.46430426715929
40
0.647533485141967
40
0.647533485141967
40
0.833383675860504
40
0.833383675860504
40
0.950238074309844
40
0.950238074309844
40
1
40
1
40
1
40
1
41
1
10
6.66339745962156
20
6.16973001948568
30
0
41
1
10
6.68070356543041
20
6.10699311212741
30
0
41
1
10
6.70445583204739
20
6.04466199750289
30
0
41
1
10
6.75332706552712
20
5.96658891111872
30
0
41
1
10
6.76920288341026
20
5.94525308185362
30
0
41
1
10
6.80605435144608
20
5.90694983484818
30
0
41
1
10
6.82759190740043
20
5.88959453036586
30
0
41
1
10
6.86713065155234
20
5.86981268651903
30
0
41
1
10
6.8838647446556
20
5.8641686994944
30
0
41
1
10
6.90829201976607
20
5.86046107106307
30
0
41
1
10
6.91575967688848
20
5.85988980456935
30
0
41
1
10
6.92320508075687
20
5.85988980456935
30
0
0
SPLINE
5
185
100
AcDbEntity
8
1
62
256
6
ByLayer
370
18
48
1
60
0
100
AcDbSpline
70
4
71
3
72
8
73
4
40
0
40
0
40
0
40
0
40
1
40
1
40
1
40
1
41
1
10
22.1982357495198
20
11.7578455726485
30
0
41
1
10
22.156999677605
20
12.3427920638994
30
0
41
1
10
22.2159327342126
20
12.9378807789461
30
0
41
1
10
22.3763879568102
20
13.4974202955078
30
0
0
SPLINE
5
186
100
AcDbEntity
8
1
62
256
6
ByLayer
370
18
48
1
60
0
100
AcDbSpline
70
4
71
3
72
8
73
4
40
0
40
0
40
0
40
0
40
1
40
1
40
1
40
1
41
1
10
23.5613694573039
20
15.4363511703276
30
0
41
1
10
23.660502083238
20
15.5241341944756
30
0
41
1
10
23.7650417911098
20
15.6068715450745
30
0
41
1
10
23.8750047784305
20
15.6840162399871
30
0
0
SPLINE
5
187
100
AcDbEntity
8
1
62
256
6
ByLayer
370
18
48
1
60
0
100
AcDbSpline
70
4
71
3
72
11
73
7
40
0
40
0
40
0
40
0
40
0.210887995211288
40
0.577469079618355
40
0.944050164025422
40
1
40
1
40
1
40
1
41
1
10
36.8939895736819
20
-0.390884376668879
30
0
41
1
10
36.6660275978165
20
-0.36562070934545
30
0
41
1
10
36.0136574396224
20
-0.248223360606886
30
0
41
1
10
34.6695997221559
20
0.262600701187921
30
0
41
1
10
34.2904139130404
20
0.497902419318308
30
0
41
1
10
34.0117514375796
20
0.675168235379687
30
0
41
1
10
33.97406247642
20
0.699353536045379
30
0
0
SPLINE
5
188
100
AcDbEntity
8
1
62
256
6
ByLayer
370
18
48
1
60
0
100
AcDbSpline
70
4
71
2
72
6
73
3
40
0
40
0
40
0
40
1
40
1
40
1
41
1.02613459695995
10
33.97406247642
20
0.699353536045391
30
0
41
0.981452249770677
10
33.8125848897252
20
0.493165031292838
30
0
41
0.950055720799281
10
33.580465113029
20
0.351631114211367
30
0
0
SPLINE
5
189
100
AcDbEntity
8
1
62
256
6
ByLayer
370
18
48
1
60
0
100
AcDbSpline
70
4
71
3
72
26
73
22
40
0
40
0
40
0
40
0
40
0.0060411359557957
40
0.0060411359557957
40
0.113005983358393
40
0.113005983358393
40
0.24651941235491
40
0.24651941235491
40
0.417492819129793
40
0.417492819129793
40
0.613990144713949
40
0.613990144713949
40
0.812086997327263
40
0.812086997327263
40
0.859032741682643
40
0.859032741682643
40
0.898703822133512
40
0.898703822133512
40
0.937892539291166
40
0.937892539291166
40
1
40
1
40
1
40
1
41
1
10
26.9661159873546
20
10.6309191381285
30
0
41
1
10
26.963466557664
20
10.6300246887515
30
0
41
1
10
26.9608057174562
20
10.6291362056993
30
0
41
1
10
26.9104695220744
20
10.6117030045114
30
0
41
1
10
26.8630146432987
20
10.5890712154215
30
0
41
1
10
26.763218302749
20
10.5229707418783
30
0
41
1
10
26.711988218517
20
10.4741991313539
30
0
41
1
10
26.6085951695591
20
10.3493560174463
30
0
41
1
10
26.5576715475504
20
10.2682178388343
30
0
41
1
10
26.4562809301638
20
10.0942286583938
30
0
41
1
10
26.4028995153388
20
9.99988244067421
30
0
41
1
10
26.3134152027701
20
9.81817639794241
30
0
41
1
10
26.294318099156
20
9.7202884086756
30
0
41
1
10
26.276438742275
20
9.61114707392207
30
0
41
1
10
26.2715044376484
20
9.5907485464171
30
0
41
1
10
26.2545375614548
20
9.55978033650538
30
0
41
1
10
26.2434080650628
20
9.54810807095095
30
0
41
1
10
26.2170225957486
20
9.5320461798643
30
0
41
1
10
26.2015544489413
20
9.52725226749266
30
0
41
1
10
26.1597111711341
20
9.52153292384392
30
0
41
1
10
26.1316306126195
20
9.52405671344201
30
0
41
1
10
26.103620906876
20
9.52943309084608
30
0
0
SPLINE
5
18A
100
AcDbEntity
8
1
62
256
6
ByLayer
370
18
48
1
60
0
100
AcDbSpline
70
4
71
3
72
8
73
4
40
0
40
0
40
0
40
0
40
1
40
1
40
1
40
1
41
1
10
39.5432740856024
20
5.64276255446114
30
0
41
1
10
39.9036152918524
20
5.35383821934741
30
0
41
1
10
40.2341962212875
20
5.02709215021139
30
0
41
1
10
40.5155322400577
20
4.68178295198817
30
0
0
SPLINE
5
18B
100
AcDbEntity
8
1
62
256
6
ByLayer
370
18
48
1
60
0
100
AcDbSpline
70
4
71
3
72
12
73
8
40
0
40
0
40
0
40
0
40
0.428963983690644
40
0.428963983690644
40
0.714434355702561
40
0.714434355702561
40
1
40
1
40
1
40
1
41
1
10
22.2339949481673
20
11.4100031567943
30
0
41
1
10
22.2272090520849
20
11.4595460663974
30
0
41
1
10
22.2211683150248
20
11.5091962097101
30
0
41
1
10
22.2122943772988
20
11.5920077027668
30
0
41
1
10
22.2090634041114
20
11.6251335065017
30
0
41
1
10
22.2032046576785
20
11.691446619332
30
0
41
1
10
22.2005768256459
20
11.724636680321
30
0
41
1
10
22.1982357495088
20
11.7578455726475
30
0
0
SPLINE
5
18C
100
AcDbEntity
8
1
62
256
6
ByLayer
370
18
48
1
60
0
100
AcDbSpline
70
4
71
3
72
12
73
8
40
0
40
0
40
0
40
0
40
0.413171019201418
40
0.413171019201418
40
0.80694005952156
40
0.80694005952156
40
1
40
1
40
1
40
1
41
1
10
6.9232050807569
20
10.9457877206429
30
0
41
1
10
6.88038677978338
20
10.9651318444263
30
0
41
1
10
6.83806656446751
20
10.9925407650872
30
0
41
1
10
6.7633782730862
20
11.0559851766987
30
0
41
1
10
6.72940750773819
20
11.0925636909433
30
0
41
1
10
6.68714539754129
20
11.1509795078407
30
0
41
1
10
6.67435574375281
20
11.1711960626375
30
0
41
1
10
6.66339745962156
20
11.19157847055
30
0
0
SPLINE
5
18D
100
AcDbEntity
8
1
62
256
6
ByLayer
370
18
48
1
60
0
100
AcDbSpline
70
4
71
3
72
8
73
4
40
0
40
0
40
0
40
0
40
1
40
1
40
1
40
1
41
1
10
20.9704745000533
20
19.7848948018867
30
0
41
1
10
21.0018049287016
20
19.6758503918851
30
0
41
1
10
21.0333694716158
20
19.5668699033126
30
0
41
1
10
21.0651433124846
20
19.457951345279
30
0
0
SPLINE
5
18E
100
AcDbEntity
8
1
62
256
6
ByLayer
370
18
48
1
60
0
100
AcDbSpline
70
4
71
3
72
11
73
7
40
0
40
0
40
0
40
0
40
0.185921722576923
40
0.564100860543387
40
0.942279998509851
40
1
40
1
40
1
40
1
41
1
10
22.2339949487317
20
11.4100031552344
30
0
41
1
10
22.3014226029799
20
11.2236289824032
30
0
41
1
10
22.5527048519136
20
10.6409794871243
30
0
41
1
10
23.3135686906635
20
9.48247593074356
30
0
41
1
10
23.6251382611858
20
9.16392470248169
30
0
41
1
10
23.8583825556927
20
8.93073975524479
30
0
41
1
10
23.8901355045463
20
8.89924600136001
30
0
0
SPLINE
5
18F
100
AcDbEntity
8
1
62
256
6
ByLayer
370
18
48
1
60
0
100
AcDbSpline
70
4
71
2
72
6
73
3
40
0
40
0
40
0
40
1
40
1
40
1
41
0.87672105251409
10
26.1036209068777
20
9.52943309083976
30
0
41
0.86448991691194
10
24.6084327730525
20
9.81642988298985
30
0
41
1.02613459695995
10
23.9452290889601
20
8.96959423992436
30
0
0
SPLINE
5
190
100
AcDbEntity
8
1
62
256
6
ByLayer
370
18
48
1
60
0
100
AcDbSpline
70
4
71
3
72
16
73
12
40
0
40
0
40
0
40
0
40
0.114691258188364
40
0.114691258188364
40
0.256006982052491
40
0.256006982052491
40
0.478481509698431
40
0.478481509698431
40
0.904237458570125
40
0.904237458570125
40
1
40
1
40
1
40
1
41
1
10
9.07679491924313
20
5.85988980456935
30
0
41
1
10
9.09376079941589
20
5.85988980456935
30
0
41
1
10
9.11093746787589
20
5.8629683550426
30
0
41
1
10
9.14653890153815
20
5.87527238052311
30
0
41
1
10
9.1649283126321
20
5.88582364044447
30
0
41
1
10
9.20694798227834
20
5.91775860341619
30
0
41
1
10
9.22859635065211
20
5.94228809980598
30
0
41
1
10
9.28185513895579
20
6.01773563791645
30
0
41
1
10
9.30640600056208
20
6.07398601286488
30
0
41
1
10
9.32912053427441
20
6.14371014971229
30
0
41
1
10
9.33300496589203
20
6.15668833929709
30
0
41
1
10
9.33660254037846
20
6.16973001948568
30
0
0
SPLINE
5
191
100
AcDbEntity
8
1
62
256
6
ByLayer
370
18
48
1
60
0
100
AcDbSpline
70
4
71
2
72
6
73
3
40
0
40
0
40
0
40
1
40
1
40
1
41
1.02613459695995
10
23.8350419201328
20
8.82889776279534
30
0
41
0.98830363590287
10
23.699272354855
20
8.65553547624817
30
0
41
0.959996493052347
10
23.6186517096634
20
8.44273400282612
30
0
0
SPLINE
5
192
100
AcDbEntity
8
1
62
256
6
ByLayer
370
18
48
1
60
0
100
AcDbSpline
70
4
71
3
72
11
73
7
40
0
40
0
40
0
40
0
40
0.514735156016112
40
0.514735156016112
40
0.514735156016112
40
1
40
1
40
1
40
1
41
1
10
23.6186517096633
20
8.44273400282586
30
0
41
1
10
23.28403296828
20
8.81702819531085
30
0
41
1
10
23.0024927250256
20
9.24473596953908
30
0
41
1
10
22.7853803585515
20
9.697425780488
30
0
41
1
10
22.5797304843408
20
10.1262157393007
30
0
41
1
10
22.4005909590649
20
10.5741251535911
30
0
41
1
10
22.2995536676638
20
11.0388230826674
30
0
0
SPLINE
5
193
100
AcDbEntity
8
1
62
256
6
ByLayer
370
18
48
1
60
0
100
AcDbSpline
70
4
71
3
72
10
73
6
40
0
40
0
40
0
40
0
40
0.5
40
0.5
40
1
40
1
40
1
40
1
41
1
10
36.8939895753269
20
-0.390884376851176
30
0
41
1
10
36.3164622354924
20
-0.448853669937165
30
0
41
1
10
35.7453504040078
20
-0.378820059336732
30
0
41
1
10
34.6205538001096
20
-0.129599189951279
30
0
41
1
10
34.0827442579833
20
0.0623582470633437
30
0
41
1
10
33.5804651130165
20
0.351631114203741
30
0
0
SPLINE
5
194
100
AcDbEntity
8
1
62
256
6
ByLayer
370
18
48
1
60
0
100
AcDbSpline
70
4
71
3
72
16
73
12
40
0
40
0
40
0
40
0
40
0.464304267159293
40
0.464304267159293
40
0.647533485141969
40
0.647533485141969
40
0.833383675860506
40
0.833383675860506
40
0.950238074309852
40
0.950238074309852
40
1
40
1
40
1
40
1
41
1
10
6.66339745962156
20
-19.0245744101322
30
0
41
1
10
6.68070356543041
20
-19.0449201888242
30
0
41
1
10
6.70445583204739
20
-19.0647708693882
30
0
41
1
10
6.75332706552712
20
-19.0892734034403
30
0
41
1
10
6.76920288341026
20
-19.0959253431035
30
0
41
1
10
6.80605435144608
20
-19.1078085849622
30
0
41
1
10
6.82759190740043
20
-19.1131587398644
30
0
41
1
10
6.86713065155234
20
-19.1192406569511
30
0
41
1
10
6.8838647446556
20
-19.1209710216544
30
0
41
1
10
6.90829201976607
20
-19.1221075563677
30
0
41
1
10
6.91575967688848
20
-19.1222825906926
30
0
41
1
10
6.92320508075687
20
-19.1222825906926
30
0
0
SPLINE
5
195
100
AcDbEntity
8
1
62
256
6
ByLayer
370
18
48
1
60
0
100
AcDbSpline
70
4
71
3
72
16
73
12
40
0
40
0
40
0
40
0
40
0.114691258188368
40
0.114691258188368
40
0.256006982052502
40
0.256006982052502
40
0.47848150969846
40
0.47848150969846
40
0.904237458570168
40
0.904237458570168
40
1
40
1
40
1
40
1
41
1
10
6.9232050807569
20
-5.85988980456938
30
0
41
1
10
6.90623920058411
20
-5.85988980456938
30
0
41
1
10
6.88906253212411
20
-5.8629683550426
30
0
41
1
10
6.85346109846185
20
-5.87527238052311
30
0
41
1
10
6.8350716873679
20
-5.88582364044447
30
0
41
1
10
6.79305201772166
20
-5.91775860341622
30
0
41
1
10
6.77140364934789
20
-5.94228809980598
30
0
41
1
10
6.71814486104418
20
-6.01773563791645
30
0
41
1
10
6.69359399943792
20
-6.07398601286491
30
0
41
1
10
6.67087946572559
20
-6.14371014971229
30
0
41
1
10
6.66699503410797
20
-6.15668833929709
30
0
41
1
10
6.66339745962154
20
-6.16973001948568
30
0
0
SPLINE
5
196
100
AcDbEntity
8
1
62
256
6
ByLayer
370
18
48
1
60
0
100
AcDbSpline
70
4
71
2
72
6
73
3
40
0
40
0
40
0
40
1
40
1
40
1
41
1.02613459695995
10
27.4509145777196
20
15.3385088920237
30
0
41
0.956794755309315
10
26.9049316181806
20
15.77628220474
30
0
41
0.919449908129888
10
26.3041082468555
20
16.0766112458213
30
0
0
SPLINE
5
197
100
AcDbEntity
8
1
62
256
6
ByLayer
370
18
48
1
60
0
100
AcDbSpline
70
4
71
2
72
6
73
3
40
0
40
0
40
0
40
1
40
1
40
1
41
0.876721052514037
10
34.1296012038637
20
3.09414070483605
30
0
41
0.86448991691229
10
34.7474533293371
20
1.68688565623838
30
0
41
1.02613459695995
10
34.0842496452464
20
0.840050013175107
30
0
0
SPLINE
5
198
100
AcDbEntity
8
1
62
256
6
ByLayer
370
18
48
1
60
0
100
AcDbSpline
70
4
71
3
72
10
73
6
40
0
40
0
40
0
40
0
40
0.5
40
0.5
40
1
40
1
40
1
40
1
41
1
10
17.0803645201175
20
-18.4785397031243
30
0
41
1
10
17.1607362481336
20
-18.8589247873746
30
0
41
1
10
17.5682113664009
20
-19.1459166129717
30
0
41
1
10
18.9669005807707
20
-19.5099726158561
30
0
41
1
10
19.9225318765138
20
-19.5880225669773
30
0
41
1
10
20.92079238
20
-19.5953859168696
30
0
0
SPLINE
5
199
100
AcDbEntity
8
1
62
256
6
ByLayer
370
18
48
1
60
0
100
AcDbSpline
70
4
71
3
72
16
73
12
40
0
40
0
40
0
40
0
40
0.114691258188362
40
0.114691258188362
40
0.256006982052503
40
0.256006982052503
40
0.47848150969845
40
0.47848150969845
40
0.904237458570186
40
0.904237458570186
40
1
40
1
40
1
40
1
41
1
10
9.0767949192431
20
-19.1222825906926
30
0
41
1
10
9.09376079941589
20
-19.1222825906926
30
0
41
1
10
9.11093746787589
20
-19.1213397893258
30
0
41
1
10
9.14653890153815
20
-19.117563257367
30
0
41
1
10
9.1649283126321
20
-19.1143205262483
30
0
41
1
10
9.20694798227834
20
-19.1044641374228
30
0
41
1
10
9.22859635065211
20
-19.0968571256395
30
0
41
1
10
9.28185513895582
20
-19.0732678361841
30
0
41
1
10
9.30640600056208
20
-19.0554522237109
30
0
41
1
10
9.32912053427441
20
-19.0329978954363
30
0
41
1
10
9.33300496589203
20
-19.0288038685174
30
0
41
1
10
9.33660254037846
20
-19.0245744101322
30
0
0
SPLINE
5
19A
100
AcDbEntity
8
1
62
256
6
ByLayer
370
18
48
1
60
0
100
AcDbSpline
70
4
71
3
72
12
73
8
40
0
40
0
40
0
40
0
40
0.426163607627369
40
0.426163607627369
40
0.713030341895341
40
0.713030341895341
40
1
40
1
40
1
40
1
41
1
10
37.2428487312837
20
-0.344257801201195
30
0
41
1
10
37.1935130773681
20
-0.352405838664538
30
0
41
1
10
37.1440736267719
20
-0.35995298754861
30
0
41
1
10
37.061204701714
20
-0.371466704420811
30
0
41
1
10
37.027820619741
20
-0.37579796385387
30
0
41
1
10
36.9609668783332
20
-0.383825228829636
30
0
41
1
10
36.927494176956
20
-0.387521348039059
30
0
41
1
10
36.8939895747056
20
-0.390884371677061
30
0
0
SPLINE
5
19B
100
AcDbEntity
8
1
62
256
6
ByLayer
370
18
48
1
60
0
100
AcDbSpline
70
4
71
3
72
8
73
4
40
0
40
0
40
0
40
0
40
1
40
1
40
1
40
1
41
1
10
21.9790290237747
20
23.7206485639362
30
0
41
1
10
21.6362031314795
20
22.402610129385
30
0
41
1
10
21.2986923352207
20
21.0908814473668
30
0
41
1
10
20.9704745000533
20
19.7848948018867
30
0
0
SPLINE
5
19C
100
AcDbEntity
8
1
62
256
6
ByLayer
370
18
48
1
60
0
100
AcDbSpline
70
4
71
3
72
12
73
8
40
0
40
0
40
0
40
0
40
0.397929944063956
40
0.397929944063956
40
0.698883033424749
40
0.698883033424749
40
1
40
1
40
1
40
1
41
1
10
22.2995536625633
20
11.0388230802212
30
0
41
1
10
22.2889292615414
20
11.0876875845223
30
0
41
1
10
22.2790730444305
20
11.1367253876144
30
0
41
1
10
22.2631172412248
20
11.2230915800545
30
0
41
1
10
22.2566860914327
20
11.2603676319095
30
0
41
1
10
22.2446927647098
20
11.3350747947433
30
0
41
1
10
22.2391302543333
20
11.3725110193099
30
0
41
1
10
22.233994953286
20
11.4100031576161
30
0
0
SPLINE
5
19D
100
AcDbEntity
8
1
62
256
6
ByLayer
370
18
48
1
60
0
100
AcDbSpline
70
4
71
3
72
12
73
8
40
0
40
0
40
0
40
0
40
0.333189360095017
40
0.333189360095017
40
0.663294851950576
40
0.663294851950576
40
1
40
1
40
1
40
1
41
1
10
9.33660254037844
20
11.19157847055
30
0
41
1
10
9.31789308604417
20
11.1567788864642
30
0
41
1
10
9.29377210435143
20
11.122396787119
30
0
41
1
10
9.24032710346995
20
11.0604814754993
30
0
41
1
10
9.21032587479189
20
11.0320255141877
30
0
41
1
10
9.14646741443011
20
10.9827754735935
30
0
41
1
10
9.11182579535785
20
10.9616137013193
30
0
41
1
10
9.07679491924313
20
10.9457877206429
30
0
0
SPLINE
5
19E
100
AcDbEntity
8
1
62
256
6
ByLayer
370
18
48
1
60
0
100
AcDbSpline
70
4
71
3
72
10
73
6
40
0
40
0
40
0
40
0
40
0.425348967069602
40
0.850697934139204
40
1
40
1
40
1
40
1
41
1
10
27.4509145777196
20
15.3385088920237
30
0
41
1
10
27.0582568230365
20
14.825740301844
30
0
41
1
10
26.4655568978985
20
13.6674759305364
30
0
41
1
10
26.5497830262916
20
11.8949597483127
30
0
41
1
10
26.8510118878644
20
10.9048379503921
30
0
41
1
10
26.9661159830233
20
10.6309191484359
30
0
0
SPLINE
5
19F
100
AcDbEntity
8
1
62
256
6
ByLayer
370
18
48
1
60
0
100
AcDbSpline
70
4
71
3
72
8
73
4
40
0
40
0
40
0
40
0
40
1
40
1
40
1
40
1
41
1
10
21.0651433124846
20
-19.7489873158093
30
0
41
1
10
21.030420730192
20
-19.7489873158093
30
0
41
1
10
20.995695084021
20
-19.7488957415293
30
0
41
1
10
20.9609847588647
20
-19.7487125483234
30
0
0
SPLINE
5
1A0
100
AcDbEntity
8
1
62
256
6
ByLayer
370
18
48
1
60
0
100
AcDbSpline
70
4
71
3
72
12
73
8
40
0
40
0
40
0
40
0
40
0.0201031965774064
40
0.330922423726748
40
0.64174165087609
40
0.952560878025432
40
1
40
1
40
1
40
1
41
1.02613459695995
10
37.5712329331979
20
-0.281596146221652
30
0
41
1.02613459695995
10
37.5465851174957
20
-0.2814522820765
30
0
41
1.02613459695995
10
37.1405536030693
20
-0.276708754107046
30
0
41
1.02613459695995
10
36.3455070857878
20
-0.191772169636031
30
0
41
1.02613459695995
10
34.7797868909828
20
0.403297178317365
30
0
41
1.02613459695995
10
34.4006010818673
20
0.638598896447733
30
0
41
1.02613459695995
10
34.1219386064064
20
0.815864712509135
30
0
41
1.02613459695995
10
34.0842496452468
20
0.84005001317483
30
0
0
SPLINE
5
1A1
100
AcDbEntity
8
1
62
256
6
ByLayer
370
18
48
1
60
0
100
AcDbSpline
70
4
71
3
72
12
73
8
40
0
40
0
40
0
40
0
40
0.33318936009506
40
0.33318936009506
40
0.663294851950628
40
0.663294851950628
40
1
40
1
40
1
40
1
41
1
10
6.66339745962156
20
13.2956191778814
30
0
41
1
10
6.68210691395583
20
13.2845901454823
30
0
41
1
10
6.70622789564857
20
13.2798739138028
30
0
41
1
10
6.75967289653005
20
13.2798391068043
30
0
41
1
10
6.78967412520814
20
13.2844211835406
30
0
41
1
10
6.85353258556992
20
13.3010528357657
30
0
41
1
10
6.88817420464216
20
13.3134519127561
30
0
41
1
10
6.9232050807569
20
13.3292778934325
30
0
0
SPLINE
5
1A2
100
AcDbEntity
8
1
62
256
6
ByLayer
370
18
48
1
60
0
100
AcDbSpline
70
4
71
3
72
11
73
7
40
0
40
0
40
0
40
0
40
0.0973263603032977
40
0.516662373058916
40
0.935998385814535
40
1
40
1
40
1
40
1
41
1
10
22.2995536631693
20
11.0388230788464
30
0
41
1
10
22.3399520650152
20
10.9471737060268
30
0
41
1
10
22.576862714354
20
10.4499617169659
30
0
41
1
10
23.2584751062501
20
9.41212769217884
30
0
41
1
10
23.5700446767724
20
9.09357646391697
30
0
41
1
10
23.8032889712793
20
8.86039151668007
30
0
41
1
10
23.8350419201328
20
8.82889776279529
30
0
0
SPLINE
5
1A3
100
AcDbEntity
8
1
62
256
6
ByLayer
370
18
48
1
60
0
100
AcDbSpline
70
4
71
3
72
8
73
4
40
0
40
0
40
0
40
0
40
1
40
1
40
1
40
1
41
1
10
20.9609847588647
20
-19.7487125483234
30
0
41
1
10
20.9475817320637
20
-19.6976046271877
30
0
41
1
10
20.9341842105476
20
-19.6464956774885
30
0
41
1
10
20.92079238
20
-19.5953859168696
30
0
0
SPLINE
5
1A4
100
AcDbEntity
8
1
62
256
6
ByLayer
370
18
48
1
60
0
100
AcDbSpline
70
4
71
3
72
8
73
4
40
0
40
0
40
0
40
0
40
1
40
1
40
1
40
1
41
1
10
40.0871512402977
20
1.08653399897318
30
0
41
1
10
40.8491725828563
20
2.08886195570159
30
0
41
1
10
41.0453410942507
20
3.50874080981052
30
0
41
1
10
40.5155326057904
20
4.6817825030912
30
0
0
SPLINE
5
1A5
100
AcDbEntity
8
1
62
256
6
ByLayer
370
18
48
1
60
0
100
AcDbSpline
70
4
71
3
72
16
73
12
40
0
40
0
40
0
40
0
40
0.223150580815801
40
0.223150580815801
40
0.446272993558188
40
0.446272993558188
40
0.669843465198726
40
0.669843465198726
40
0.897182555479731
40
0.897182555479731
40
1
40
1
40
1
40
1
41
1
10
20.92079238
20
19.5953859168696
30
0
41
1
10
20.4820356516982
20
19.5921495679438
30
0
41
1
10
20.0400194234503
20
19.5740335831371
30
0
41
1
10
19.2227830076886
20
19.5055315827938
30
0
41
1
10
18.8363831801959
20
19.4539599663908
30
0
41
1
10
18.1700045757175
20
19.312705250157
30
0
41
1
10
17.8813325744675
20
19.2207217559237
30
0
41
1
10
17.4314933461893
20
18.9948322134414
30
0
41
1
10
17.2665208540444
20
18.8571253883452
30
0
41
1
10
17.1268994980038
20
18.6313879984429
30
0
41
1
10
17.096843168946
20
18.5565302151828
30
0
41
1
10
17.0803645201174
20
18.4785397031243
30
0
0
SPLINE
5
1A6
100
AcDbEntity
8
1
62
256
6
ByLayer
370
18
48
1
60
0
100
AcDbSpline
70
4
71
3
72
16
73
12
40
0
40
0
40
0
40
0
40
0.114691258188364
40
0.114691258188364
40
0.256006982052499
40
0.256006982052499
40
0.478481509698429
40
0.478481509698429
40
0.904237458570111
40
0.904237458570111
40
1
40
1
40
1
40
1
41
1
10
6.9232050807569
20
19.1222825906926
30
0
41
1
10
6.90623920058411
20
19.1222825906926
30
0
41
1
10
6.88906253212411
20
19.1213397893258
30
0
41
1
10
6.85346109846185
20
19.117563257367
30
0
41
1
10
6.83507168736793
20
19.1143205262483
30
0
41
1
10
6.79305201772169
20
19.1044641374228
30
0
41
1
10
6.77140364934789
20
19.0968571256395
30
0
41
1
10
6.71814486104421
20
19.0732678361841
30
0
41
1
10
6.69359399943792
20
19.0554522237109
30
0
41
1
10
6.67087946572559
20
19.0329978954364
30
0
41
1
10
6.66699503410797
20
19.0288038685174
30
0
41
1
10
6.66339745962154
20
19.0245744101322
30
0
0
SPLINE
5
1A7
100
AcDbEntity
8
1
62
256
6
ByLayer
370
18
48
1
60
0
100
AcDbSpline
70
4
71
3
72
12
73
8
40
0
40
0
40
0
40
0
40
0.413171019201413
40
0.413171019201413
40
0.806940059521574
40
0.806940059521574
40
1
40
1
40
1
40
1
41
1
10
9.07679491924313
20
13.3292778934325
30
0
41
1
10
9.11961322021662
20
13.3099337696491
30
0
41
1
10
9.16193343553249
20
13.2956668911403
30
0
41
1
10
9.2366217269138
20
13.2798753007804
30
0
41
1
10
9.27059249226181
20
13.2775007879803
30
0
41
1
10
9.31285460245871
20
13.2848737084385
30
0
41
1
10
9.32564425624719
20
13.2891593812159
30
0
41
1
10
9.33660254037844
20
13.2956191778814
30
0
0
SPLINE
5
1A8
100
AcDbEntity
8
1
62
256
6
ByLayer
370
18
48
1
60
0
100
AcDbSpline
70
4
71
3
72
8
73
4
40
0
40
0
40
0
40
0
40
1
40
1
40
1
40
1
41
1
10
40.0871512403123
20
1.0865339989893
30
0
41
1
10
39.4311957104627
20
0.363468594244012
30
0
41
1
10
38.5267232573078
20
-0.0765202095594475
30
0
41
1
10
37.5712329333236
20
-0.281596147006553
30
0
0
SPLINE
5
1A9
100
AcDbEntity
8
1
62
256
6
ByLayer
370
18
48
1
60
0
100
AcDbSpline
70
4
71
3
72
8
73
4
40
0
40
0
40
0
40
0
40
1
40
1
40
1
40
1
41
1
10
20.92079238
20
19.5953859168696
30
0
41
1
10
20.9373445056905
20
19.6585569059862
30
0
41
1
10
20.9539053288813
20
19.7217266714747
30
0
41
1
10
20.9704745000533
20
19.7848948018867
30
0
0
SPLINE
5
1AA
100
AcDbEntity
8
1
62
256
6
ByLayer
370
18
48
1
60
0
100
AcDbSpline
70
4
71
3
72
11
73
7
40
0
40
0
40
0
40
0
40
0.277425111838081
40
0.613096454385493
40
0.948767796932904
40
1
40
1
40
1
40
1
41
1
10
37.2428487312881
20
-0.344257801201422
30
0
41
1
10
36.9248582561633
20
-0.327752724891923
30
0
41
1
10
36.1998514067168
20
-0.22770127839965
30
0
41
1
10
34.7246933065694
20
0.33294893975264
30
0
41
1
10
34.3455074974539
20
0.568250657883027
30
0
41
1
10
34.066845021993
20
0.745516473944434
30
0
41
1
10
34.0291560608334
20
0.769701774610127
30
0
0
SPLINE
5
1AB
100
AcDbEntity
8
1
62
256
6
ByLayer
370
18
48
1
60
0
100
AcDbSpline
70
4
71
3
72
10
73
6
40
0
40
0
40
0
40
0
40
0.425348967069603
40
0.850697934139205
40
1
40
1
40
1
40
1
41
1
10
39.5432740856025
20
5.64276255446106
30
0
41
1
10
39.1217664921597
20
5.15312598564668
30
0
41
1
10
38.1074965800879
20
4.33287965409178
30
0
41
1
10
36.3459741526221
20
4.04029878051188
30
0
41
1
10
35.3083073040652
20
4.12371380304438
30
0
41
1
10
35.0145251468581
20
4.17764312545739
30
0
0
SPLINE
5
1AC
100
AcDbEntity
8
1
62
256
6
ByLayer
370
18
48
1
60
0
100
AcDbSpline
70
4
71
3
72
16
73
12
40
0
40
0
40
0
40
0
40
0.464304267159304
40
0.464304267159304
40
0.647533485141974
40
0.647533485141974
40
0.833383675860506
40
0.833383675860506
40
0.950238074309851
40
0.950238074309851
40
1
40
1
40
1
40
1
41
1
10
9.33660254037844
20
-6.16973001948568
30
0
41
1
10
9.31929643456959
20
-6.10699311212741
30
0
41
1
10
9.29554416795261
20
-6.04466199750289
30
0
41
1
10
9.24667293447288
20
-5.96658891111872
30
0
41
1
10
9.23079711658974
20
-5.94525308185362
30
0
41
1
10
9.19394564855392
20
-5.90694983484818
30
0
41
1
10
9.17240809259957
20
-5.88959453036583
30
0
41
1
10
9.13286934844766
20
-5.86981268651903
30
0
41
1
10
9.1161352553444
20
-5.86416869949437
30
0
41
1
10
9.09170798023393
20
-5.86046107106307
30
0
41
1
10
9.08424032311152
20
-5.85988980456935
30
0
41
1
10
9.07679491924313
20
-5.85988980456935
30
0
0
SPLINE
5
1AD
100
AcDbEntity
8
1
62
256
6
ByLayer
370
18
48
1
60
0
100
AcDbSpline
70
4
71
3
72
16
73
12
40
0
40
0
40
0
40
0
40
0.464304267159312
40
0.464304267159312
40
0.64753348514198
40
0.64753348514198
40
0.833383675860513
40
0.833383675860513
40
0.950238074309858
40
0.950238074309858
40
1
40
1
40
1
40
1
41
1
10
9.33660254037844
20
19.0245744101322
30
0
41
1
10
9.31929643456959
20
19.0449201888242
30
0
41
1
10
9.29554416795261
20
19.0647708693882
30
0
41
1
10
9.24667293447288
20
19.0892734034403
30
0
41
1
10
9.23079711658974
20
19.0959253431035
30
0
41
1
10
9.19394564855392
20
19.1078085849622
30
0
41
1
10
9.17240809259957
20
19.1131587398644
30
0
41
1
10
9.13286934844766
20
19.1192406569511
30
0
41
1
10
9.1161352553444
20
19.1209710216544
30
0
41
1
10
9.09170798023393
20
19.1221075563677
30
0
41
1
10
9.08424032311152
20
19.1222825906926
30
0
41
1
10
9.07679491924313
20
19.1222825906926
30
0
0
SPLINE
5
1AE
100
AcDbEntity
8
1
62
256
6
ByLayer
370
18
48
1
60
0
100
AcDbSpline
70
4
71
3
72
11
73
7
40
0
40
0
40
0
40
0
40
0.255482141304139
40
0.601347065858452
40
0.947211990412764
40
1
40
1
40
1
40
1
41
1.02613459695995
10
22.1982357495186
20
11.7578455726524
30
0
41
1.02613459695995
10
22.2788801044704
20
11.4839397418434
30
0
41
1.02613459695995
10
22.5323562893165
20
10.8261971558834
30
0
41
1.02613459695995
10
23.368662275077
20
9.55282416930827
30
0
41
1.02613459695995
10
23.6802318455993
20
9.23427294104641
30
0
41
1.02613459695995
10
23.9134761401062
20
9.00108799380946
30
0
41
1.02613459695995
10
23.9452290889597
20
8.96959423992469
30
0
0
SPLINE
5
1AF
100
AcDbEntity
8
1
62
256
6
ByLayer
370
18
48
1
60
0
100
AcDbSpline
70
4
71
3
72
12
73
8
40
0
40
0
40
0
40
0
40
0.395727144296835
40
0.395727144296835
40
0.84655808950102
40
0.84655808950102
40
1
40
1
40
1
40
1
41
1
10
26.3041082446215
20
16.0766112469379
30
0
41
1
10
25.9792323630519
20
16.1440231475096
30
0
41
1
10
25.6411464970463
20
16.1608844696687
30
0
41
1
10
24.9371453998246
20
16.0970477092652
30
0
41
1
10
24.5644236356684
20
16.0018587401109
30
0
41
1
10
24.1019641940324
20
15.8035988943607
30
0
41
1
10
23.9867050301377
20
15.7467480221158
30
0
41
1
10
23.8750047784304
20
15.6840162399871
30
0
0
SPLINE
5
1B0
100
AcDbEntity
8
1
62
256
6
ByLayer
370
18
48
1
60
0
100
AcDbSpline
70
4
71
3
72
26
73
22
40
0
40
0
40
0
40
0
40
0.0621074607051265
40
0.0621074607051265
40
0.101296177862894
40
0.101296177862894
40
0.140967258313864
40
0.140967258313864
40
0.187913002669375
40
0.187913002669375
40
0.386009855283817
40
0.386009855283817
40
0.582507180869097
40
0.582507180869097
40
0.753480587644396
40
0.753480587644396
40
0.886994016642867
40
0.886994016642867
40
0.993958864044135
40
0.993958864044135
40
1
40
1
40
1
40
1
41
1
10
34.1296012038681
20
3.09414070484129
30
0
41
1
10
34.1180268368461
20
3.12050313972549
30
0
41
1
10
34.1091969452794
20
3.14757443129898
30
0
41
1
10
34.1052158930845
20
3.1900360732146
30
0
41
1
10
34.106338123421
20
3.20633265113222
30
0
41
1
10
34.1158861590114
20
3.23589492535376
30
0
41
1
10
34.1246551828826
20
3.24945983582867
30
0
41
1
10
34.1507797346102
20
3.27308535145789
30
0
41
1
10
34.1694086098652
20
3.28250346749488
30
0
41
1
10
34.2710635856479
20
3.32447287028498
30
0
41
1
10
34.3617930889183
20
3.36492545365246
30
0
41
1
10
34.5187312899376
20
3.49254645272777
30
0
41
1
10
34.5989356104681
20
3.56538585950747
30
0
41
1
10
34.7466324133571
20
3.7022463862557
30
0
41
1
10
34.8148929499192
20
3.76948369418332
30
0
41
1
10
34.9148163782091
20
3.89710877647943
30
0
41
1
10
34.9516350694377
20
3.95743555213536
30
0
41
1
10
34.9952196356632
20
4.06860705624754
30
0
41
1
10
35.0073825955922
20
4.11953617576145
30
0
41
1
10
35.0138929641479
20
4.17210926011359
30
0
41
1
10
35.0142048042697
20
4.17488118939559
30
0
41
1
10
35.0145251358032
20
4.17764312748668
30
0
0
SPLINE
5
1B1
100
AcDbEntity
8
1
62
256
6
ByLayer
370
18
48
1
60
0
100
AcDbSpline
70
4
71
3
72
8
73
4
40
0
40
0
40
0
40
0
40
1
40
1
40
1
40
1
41
1
10
36.5700226281649
20
14.4694061968937
30
0
41
1
10
36.5757884727894
20
14.4526728674939
30
0
41
1
10
36.5834412159687
20
14.4353586747379
30
0
41
1
10
36.593840750475
20
14.4180522379131
30
0
0
SPLINE
5
1B2
100
AcDbEntity
8
1
62
256
6
ByLayer
370
18
48
1
60
0
100
AcDbSpline
70
4
71
3
72
8
73
4
40
0
40
0
40
0
40
0
40
1
40
1
40
1
40
1
41
1
10
35.6500818498219
20
12.8866002642384
30
0
41
1
10
35.6411497658756
20
12.8998171286226
30
0
41
1
10
35.6305366350768
20
12.9138434778396
30
0
41
1
10
35.6177438889757
20
12.9284919839166
30
0
0
SPLINE
5
1B3
100
AcDbEntity
8
1
62
256
6
ByLayer
370
18
48
1
60
0
100
AcDbSpline
70
4
71
3
72
10
73
6
40
0
40
0
40
0
40
0
40
0.123732606265406
40
0.123732606265406
40
1
40
1
40
1
40
1
41
1
10
35.235760406727
20
13.8950748505096
30
0
41
1
10
35.2356066407844
20
13.8976780197762
30
0
41
1
10
35.2354320751169
20
13.9002558933203
30
0
41
1
10
35.2338786586841
20
13.9206991779451
30
0
41
1
10
35.2315738455133
20
13.9373838224168
30
0
41
1
10
35.2286986337785
20
13.9528814408472
30
0
0
SPLINE
5
1B4
100
AcDbEntity
8
1
62
256
6
ByLayer
370
18
48
1
60
0
100
AcDbSpline
70
4
71
3
72
10
73
6
40
0
40
0
40
0
40
0
40
0.516155291935502
40
0.516155291935502
40
1
40
1
40
1
40
1
41
1
10
37.0305650580257
20
13.6683419032332
30
0
41
1
10
37.0249667842804
20
13.6603445408861
30
0
41
1
10
37.0195027938975
20
13.6519020739714
30
0
41
1
10
37.0093509573787
20
13.6345960221505
30
0
41
1
10
37.0046156414173
20
13.6257554970272
30
0
41
1
10
37.000183314221
20
13.6164481601592
30
0
0
SPLINE
5
1B5
100
AcDbEntity
8
1
62
256
6
ByLayer
370
18
48
1
60
0
100
AcDbSpline
70
4
71
3
72
10
73
6
40
0
40
0
40
0
40
0
40
0.629893813379349
40
0.629893813379349
40
1
40
1
40
1
40
1
41
1
10
36.5705946688675
20
12.8769389369149
30
0
41
1
10
36.5591266115242
20
12.8766314538959
30
0
41
1
10
36.5471547847317
20
12.8758939888195
30
0
41
1
10
36.5273521607903
20
12.8738265444058
30
0
41
1
10
36.5198268413666
20
12.8728628790496
30
0
41
1
10
36.5121348834791
20
12.8716680331578
30
0
0
SPLINE
5
1B6
100
AcDbEntity
8
1
62
256
6
ByLayer
370
18
48
1
60
0
100
AcDbSpline
70
4
71
3
72
10
73
6
40
0
40
0
40
0
40
0
40
0.516155291935622
40
0.516155291935622
40
1
40
1
40
1
40
1
41
1
10
35.189539419961
20
13.687664557899
30
0
41
1
10
35.1935000665626
20
13.6938431510455
30
0
41
1
10
35.1973896505964
20
13.7005370625655
30
0
41
1
10
35.2046894896823
20
13.7146756503453
30
0
41
1
10
35.2081291838135
20
13.7220772416495
30
0
41
1
10
35.2114013252275
20
13.7300960616681
30
0
0
SPLINE
5
1B7
100
AcDbEntity
8
1
62
256
6
ByLayer
370
18
48
1
60
0
100
AcDbSpline
70
4
71
3
72
10
73
6
40
0
40
0
40
0
40
0
40
0.629893813379378
40
0.629893813379378
40
1
40
1
40
1
40
1
41
1
10
35.6495098091162
20
14.479067524214
30
0
41
1
10
35.6589797961569
20
14.4771559253494
30
0
41
1
10
35.6690455153115
20
14.4757764434285
30
0
41
1
10
35.6860869951926
20
14.4747773266935
30
0
41
1
10
35.6926454214405
20
14.4746671483881
30
0
41
1
10
35.6994497559696
20
14.4748761886698
30
0
0
SPLINE
5
1B8
100
AcDbEntity
8
1
62
256
6
ByLayer
370
18
48
1
60
0
100
AcDbSpline
70
4
71
3
72
10
73
6
40
0
40
0
40
0
40
0
40
0.123732606265401
40
0.123732606265401
40
1
40
1
40
1
40
1
41
1
10
36.9758242327236
20
13.4514693713201
30
0
41
1
10
36.9762769803952
20
13.4491982549034
30
0
41
1
10
36.9767594695091
20
13.4469623649925
30
0
41
1
10
36.9808436344668
20
13.4293297613513
30
0
41
1
10
36.9857567724421
20
13.4155419550503
30
0
41
1
10
36.9914058442082
20
13.403125020285
30
0
0
SPLINE
5
1B9
100
AcDbEntity
8
1
62
256
6
ByLayer
370
18
48
1
60
0
100
AcDbSpline
70
4
71
3
72
10
73
6
40
0
40
0
40
0
40
0
40
0.315026012182613
40
0.315026012182613
40
1
40
1
40
1
40
1
41
1
10
35.8549060817175
20
14.5347402044265
30
0
41
1
10
35.8602488300217
20
14.5388559261553
30
0
41
1
10
35.8653717435542
20
14.5430504869104
30
0
41
1
10
35.8808986125314
20
14.5564542212396
30
0
41
1
10
35.8905662950864
20
14.5658593657358
30
0
41
1
10
35.8994185546072
20
14.5753038208488
30
0
0
SPLINE
5
1BA
100
AcDbEntity
8
1
62
256
6
ByLayer
370
18
48
1
60
0
100
AcDbSpline
70
4
71
3
72
8
73
4
40
0
40
0
40
0
40
0
40
1
40
1
40
1
40
1
41
1
10
36.7249379947117
20
14.3129374648332
30
0
41
1
10
36.7442403824275
20
14.3064286732555
30
0
41
1
10
36.7629885337105
20
14.3025744269138
30
0
41
1
10
36.780772159822
20
14.3004256105677
30
0
0
SPLINE
5
1BB
100
AcDbEntity
8
1
62
256
6
ByLayer
370
18
48
1
60
0
100
AcDbSpline
70
4
71
3
72
10
73
6
40
0
40
0
40
0
40
0
40
0.315026012182594
40
0.315026012182594
40
1
40
1
40
1
40
1
41
1
10
36.3566785577319
20
12.8118040174018
30
0
41
1
10
36.3520935196776
20
12.8085298181591
30
0
41
1
10
36.3477860462955
20
12.8052408954401
30
0
41
1
10
36.3349736884274
20
12.7948519311204
30
0
41
1
10
36.3273685655593
20
12.7877374912251
30
0
41
1
10
36.3206859233796
20
12.7807026402834
30
0
0
SPLINE
5
1BC
100
AcDbEntity
8
1
62
256
6
ByLayer
370
18
48
1
60
0
100
AcDbSpline
70
4
71
3
72
8
73
4
40
0
40
0
40
0
40
0
40
1
40
1
40
1
40
1
41
1
10
35.486646644739
20
13.0336067569965
30
0
41
1
10
35.469737468618
20
13.042773479322
30
0
41
1
10
35.4539497049545
20
13.0499155692027
30
0
41
1
10
35.4393323181648
20
13.0555808505645
30
0
0
SPLINE
5
1BD
100
AcDbEntity
8
1
62
256
6
ByLayer
370
18
48
1
60
0
100
AcDbSpline
70
4
71
2
72
8
73
5
40
0
40
0
40
0
40
0.14599151027804
40
0.563470207586081
40
1
40
1
40
1
41
1.02393576174182
10
39.2838323685727
20
16.3578272955589
30
0
41
1.02323174907608
10
39.4298658245157
20
16.5788828496867
30
0
41
1.02039724512338
10
39.984941179943
20
17.4305509040987
30
0
41
1.01644464721285
10
40.7366608789662
20
18.7089390327748
30
0
41
1.01495409538129
10
41.1670540164311
20
19.3051340909201
30
0
0
SPLINE
5
1BE
100
AcDbEntity
8
1
62
256
6
ByLayer
370
18
48
1
60
0
100
AcDbSpline
70
4
71
3
72
10
73
6
40
0
40
0
40
0
40
0
40
0.759976532001896
40
0.759976532001896
40
1
40
1
40
1
40
1
41
1
10
40.4697146358306
20
19.8642661395485
30
0
41
1
10
40.7321958508015
20
19.9868162795702
30
0
41
1
10
40.9850269743051
20
20.116651746152
30
0
41
1
10
41.3025605669053
20
20.2959958590678
30
0
41
1
10
41.377696444418
20
20.3397222090565
30
0
41
1
10
41.4516702697684
20
20.3840779043885
30
0
0
SPLINE
5
1BF
100
AcDbEntity
8
1
62
256
6
ByLayer
370
18
48
1
60
0
100
AcDbSpline
70
4
71
3
72
16
73
12
40
0
40
0
40
0
40
0
40
0.346164403850463
40
0.346164403850463
40
0.574058138681869
40
0.574058138681869
40
0.756733946461148
40
0.756733946461148
40
0.941193093213316
40
0.941193093213316
40
1
40
1
40
1
40
1
41
1
10
36.8494834419294
20
5.95148433699799
30
0
41
1
10
36.6229575663912
20
5.81980390198567
30
0
41
1
10
36.4092899483927
20
5.77495543661564
30
0
41
1
10
35.9938983795797
20
5.76471828861264
30
0
41
1
10
35.8065758251734
20
5.7797540962973
30
0
41
1
10
35.4257433338557
20
5.85609475420858
30
0
41
1
10
35.2377488994939
20
5.90939651651138
30
0
41
1
10
34.8528734083184
20
6.06104950316046
30
0
41
1
10
34.6501164616276
20
6.16300180864684
30
0
41
1
10
34.3978559023743
20
6.32019821026333
30
0
41
1
10
34.3367588761617
20
6.3606761326075
30
0
41
1
10
34.2772730154538
20
6.40217965768389
30
0
0
SPLINE
5
1C0
100
AcDbEntity
8
1
62
256
6
ByLayer
370
18
48
1
60
0
100
AcDbSpline
70
4
71
3
72
11
73
7
40
0
40
0
40
0
40
0
40
0.559926195718573
40
0.559926195718573
40
0.559926195718573
40
1
40
1
40
1
40
1
41
1
10
38.5674208207473
20
22.6617324727589
30
0
41
1
10
38.3538697465536
20
22.4315337449648
30
0
41
1
10
38.0837328148153
20
22.1935595248259
30
0
41
1
10
37.7796531225853
20
21.9748595642961
30
0
41
1
10
37.5389372172867
20
21.8017320574849
30
0
41
1
10
37.2735711497971
20
21.6365698296276
30
0
41
1
10
36.9987435908832
20
21.4845912881569
30
0
0
SPLINE
5
1C1
100
AcDbEntity
8
1
62
256
6
ByLayer
370
18
48
1
60
0
100
AcDbSpline
70
4
71
3
72
8
73
4
40
0
40
0
40
0
40
0
40
1
40
1
40
1
40
1
41
1
10
34.4527841945219
20
16.8534605377207
30
0
41
1
10
34.2603120164732
20
16.6966387267243
30
0
41
1
10
34.0864912164451
20
16.5229666644767
30
0
41
1
10
33.9330846800563
20
16.3311457498364
30
0
0
SPLINE
5
1C2
100
AcDbEntity
8
1
62
256
6
ByLayer
370
18
48
1
60
0
100
AcDbSpline
70
4
71
3
72
8
73
4
40
0
40
0
40
0
40
0
40
1
40
1
40
1
40
1
41
1
10
43.4561752124391
20
16.3069732266076
30
0
41
1
10
42.8936234400534
20
14.378789953823
30
0
41
1
10
42.0359517435992
20
12.5444637745875
30
0
41
1
10
40.9039080747906
20
10.8826317508318
30
0
0
SPLINE
5
1C3
100
AcDbEntity
8
1
62
256
6
ByLayer
370
18
48
1
60
0
100
AcDbSpline
70
4
71
2
72
8
73
5
40
0
40
0
40
0
40
0.581603760044148
40
0.872405640066222
40
1
40
1
40
1
41
1.02990374504916
10
33.0645230185321
20
17.5850932846866
30
0
41
1.02669755169729
10
34.621588617984
20
18.43496177585
30
0
41
1.02039724512338
10
37.1916628288348
20
19.4220055783595
30
0
41
1.01761724169577
10
38.50811557781
20
19.788017594062
30
0
41
1.01686274329252
10
38.8561584354996
20
19.9311267501333
30
0
0
SPLINE
5
1C4
100
AcDbEntity
8
1
62
256
6
ByLayer
370
18
48
1
60
0
100
AcDbSpline
70
4
71
3
72
24
73
20
40
0
40
0
40
0
40
0
40
0.142613444608223
40
0.142613444608223
40
0.19079521826949
40
0.19079521826949
40
0.226951176162322
40
0.226951176162322
40
0.263437466712855
40
0.263437466712855
40
0.296119365572354
40
0.296119365572354
40
0.352324850832284
40
0.352324850832284
40
0.4552946485881
40
0.4552946485881
40
0.662705158043624
40
0.662705158043624
40
1
40
1
40
1
40
1
41
1
10
38.8561584354998
20
19.9311267501334
30
0
41
1
10
38.7996329371688
20
19.8699473720337
30
0
41
1
10
38.7465951743403
20
19.8057978476975
30
0
41
1
10
38.7156683091647
20
19.715199237846
30
0
41
1
10
38.7116722705892
20
19.6914316408749
30
0
41
1
10
38.7174191518112
20
19.6507732534662
30
0
41
1
10
38.724227914585
20
19.6333263196374
30
0
41
1
10
38.7483267916995
20
19.6014031228008
30
0
41
1
10
38.7661314898153
20
19.5865886989859
30
0
41
1
10
38.8070655736154
20
19.563367300714
30
0
41
1
10
38.8297918465098
20
19.5541410321719
30
0
41
1
10
38.8950747411306
20
19.5340500918832
30
0
41
1
10
38.9411513701412
20
19.526180282147
30
0
41
1
10
39.0720055043592
20
19.5129074500069
30
0
41
1
10
39.1602356460769
20
19.5141650818805
30
0
41
1
10
39.4182776839614
20
19.5322589946213
30
0
41
1
10
39.5877723790688
20
19.5639193143956
30
0
41
1
10
40.0070383217286
20
19.669839094374
30
0
41
1
10
40.2489466021848
20
19.7612709947318
30
0
41
1
10
40.4697146358306
20
19.8642661395485
30
0
0
SPLINE
5
1C5
100
AcDbEntity
8
1
62
256
6
ByLayer
370
18
48
1
60
0
100
AcDbSpline
70
4
71
3
72
12
73
8
40
0
40
0
40
0
40
0
40
0.307573270173409
40
0.307573270173409
40
0.648852820657659
40
0.648852820657659
40
1
40
1
40
1
40
1
41
1
10
38.0237441917044
20
17.368175633741
30
0
41
1
10
38.1740950076929
20
17.2965091445272
30
0
41
1
10
38.3199746575499
20
17.2136940168343
30
0
41
1
10
38.6131654191404
20
17.0185303324516
30
0
41
1
10
38.7598904400898
20
16.9032702177675
30
0
41
1
10
39.0364008332018
20
16.6485719298451
30
0
41
1
10
39.1665687427629
20
16.5076148216689
30
0
41
1
10
39.2838323688454
20
16.3578272959717
30
0
0
SPLINE
5
1C6
100
AcDbEntity
8
1
62
256
6
ByLayer
370
18
48
1
60
0
100
AcDbSpline
70
4
71
3
72
12
73
8
40
0
40
0
40
0
40
0
40
0.415356444741148
40
0.415356444741148
40
0.825259843212191
40
0.825259843212191
40
1
40
1
40
1
40
1
41
1
10
32.1833430824815
20
12.6896211906511
30
0
41
1
10
32.1416581528339
20
12.522880412746
30
0
41
1
10
32.0769176772495
20
12.3504361228855
30
0
41
1
10
31.9201547886431
20
12.029934387567
30
0
41
1
10
31.8268621607408
20
11.8770880578973
30
0
41
1
10
31.6839690255171
20
11.6766657764815
30
0
41
1
10
31.6395628242778
20
11.6183580555141
30
0
41
1
10
31.5941845545645
20
11.562096989728
30
0
0
SPLINE
5
1C7
100
AcDbEntity
8
1
62
256
6
ByLayer
370
18
48
1
60
0
100
AcDbSpline
70
4
71
3
72
11
73
7
40
0
40
0
40
0
40
0
40
0.717036925638435
40
0.717036925638435
40
0.717036925638435
40
1
40
1
40
1
40
1
41
1
10
28.3502843520408
20
12.9557181622514
30
0
41
1
10
28.1572646474705
20
12.7189183644377
30
0
41
1
10
27.9639327546946
20
12.4360340396217
30
0
41
1
10
27.8128644307513
20
12.1074425835526
30
0
41
1
10
27.7526582559965
20
11.9764870389973
30
0
41
1
10
27.698912173073
20
11.8375403136856
30
0
41
1
10
27.6552046476535
20
11.6922986727138
30
0
0
SPLINE
5
1C8
100
AcDbEntity
8
1
62
256
6
ByLayer
370
18
48
1
60
0
100
AcDbSpline
70
4
71
3
72
8
73
4
40
0
40
0
40
0
40
0
40
1
40
1
40
1
40
1
41
1
10
38.5674208207473
20
22.6617324727589
30
0
41
1
10
38.6080744633926
20
22.7055553233462
30
0
41
1
10
38.649317349065
20
22.7488608688848
30
0
41
1
10
38.6911152343395
20
22.791655326513
30
0
0
SPLINE
5
1C9
100
AcDbEntity
8
1
62
256
6
ByLayer
370
18
48
1
60
0
100
AcDbSpline
70
4
71
3
72
14
73
10
40
0
40
0
40
0
40
0
40
0.304391776008984
40
0.304391776008984
40
0.577373879687166
40
0.577373879687166
40
0.851610378463919
40
0.851610378463919
40
1
40
1
40
1
40
1
41
1
10
43.3115939846415
20
23.4947604273196
30
0
41
1
10
43.145499492404
20
23.5283930781856
30
0
41
1
10
42.9684333320377
20
23.5492240901813
30
0
41
1
10
42.6311279869887
20
23.5553659620828
30
0
41
1
10
42.4672318619609
20
23.5437595056028
30
0
41
1
10
42.1581843990352
20
23.4891386444151
30
0
41
1
10
42.0090373922063
20
23.4450992691573
30
0
41
1
10
41.8082690755436
20
23.3575785672144
30
0
41
1
10
41.7419929376626
20
23.3226128711838
30
0
41
1
10
41.6818075138233
20
23.2847773673754
30
0
0
SPLINE
5
1CA
100
AcDbEntity
8
1
62
256
6
ByLayer
370
18
48
1
60
0
100
AcDbSpline
70
4
71
3
72
8
73
4
40
0
40
0
40
0
40
0
40
1
40
1
40
1
40
1
41
1
10
36.0003180071858
20
9.62914150323806
30
0
41
1
10
36.3788269816532
20
8.4327576836838
30
0
41
1
10
36.6479016099611
20
7.3331881837575
30
0
41
1
10
36.6406110756216
20
6.70391061847769
30
0
0
SPLINE
5
1CB
100
AcDbEntity
8
1
62
256
6
ByLayer
370
18
48
1
60
0
100
AcDbSpline
70
4
71
3
72
10
73
6
40
0
40
0
40
0
40
0
40
0.679966690484309
40
0.679966690484309
40
1
40
1
40
1
40
1
41
1
10
32.2580569374132
20
13.2603400725549
30
0
41
1
10
32.2565903971309
20
13.1325408826567
30
0
41
1
10
32.2445440818883
20
13.0022633890862
30
0
41
1
10
32.2114915659736
20
12.8116148928745
30
0
41
1
10
32.1985491420014
20
12.7504458151535
30
0
41
1
10
32.1833430824815
20
12.6896211906511
30
0
0
SPLINE
5
1CC
100
AcDbEntity
8
1
62
256
6
ByLayer
370
18
48
1
60
0
100
AcDbSpline
70
4
71
3
72
8
73
4
40
0
40
0
40
0
40
0
40
1
40
1
40
1
40
1
41
1
10
31.5941845545645
20
11.562096989728
30
0
41
1
10
31.5659012168235
20
11.5270306300948
30
0
41
1
10
31.5378176851765
20
11.492227133555
30
0
41
1
10
31.5099729533904
20
11.4577346686196
30
0
0
SPLINE
5
1CD
100
AcDbEntity
8
1
62
256
6
ByLayer
370
18
48
1
60
0
100
AcDbSpline
70
4
71
3
72
8
73
4
40
0
40
0
40
0
40
0
40
1
40
1
40
1
40
1
41
1
10
38.1386956757252
20
10.8629022910066
30
0
41
1
10
37.7130102035503
20
10.3306213429856
30
0
41
1
10
37.1517246942221
20
9.97589087702454
30
0
41
1
10
36.5384511995888
20
9.82828721605827
30
0
0
SPLINE
5
1CE
100
AcDbEntity
8
1
62
256
6
ByLayer
370
18
48
1
60
0
100
AcDbSpline
70
4
71
2
72
8
73
5
40
0
40
0
40
0
40
0.145991510275425
40
0.563470207592132
40
1
40
1
40
1
41
1.02393576174177
10
38.0237441913369
20
17.3681756333561
30
0
41
1.02323174907605
10
38.2066297238958
20
17.5596829105891
30
0
41
1.02039724512338
10
38.9123707606115
20
18.2905460694264
30
0
41
1.01644464721292
10
39.9874942242768
20
19.3096265862064
30
0
41
1.01495409538139
10
40.469714635844
20
19.8642661395638
30
0
0
SPLINE
5
1CF
100
AcDbEntity
8
1
62
256
6
ByLayer
370
18
48
1
60
0
100
AcDbSpline
70
4
71
3
72
8
73
4
40
0
40
0
40
0
40
0
40
1
40
1
40
1
40
1
41
1
10
32.2580569374132
20
13.2603400725549
30
0
41
1
10
32.2652801012957
20
13.8897905580802
30
0
41
1
10
32.4914527399978
20
14.5285161890221
30
0
41
1
10
32.9116757594145
20
15.0539668369207
30
0
0
SPLINE
5
1D0
100
AcDbEntity
8
1
62
256
6
ByLayer
370
18
48
1
60
0
100
AcDbSpline
70
4
71
3
72
16
73
12
40
0
40
0
40
0
40
0
40
0.283825424659828
40
0.283825424659828
40
0.572792249827487
40
0.572792249827487
40
0.572792249827487
40
0.894188232602853
40
0.894188232602853
40
0.894188232602853
40
1
40
1
40
1
40
1
41
1
10
34.4527842091908
20
16.8534605496724
30
0
41
1
10
34.7297530684111
20
17.0765497966367
30
0
41
1
10
35.0480953635025
20
17.2599953864076
30
0
41
1
10
35.719591259175
20
17.5269980117361
30
0
41
1
10
36.0816590188628
20
17.6128241624512
30
0
41
1
10
36.4439812282983
20
17.6416801104433
30
0
41
1
10
36.8446097488072
20
17.6735868372485
30
0
41
1
10
37.2605920089598
20
17.635205233848
30
0
41
1
10
37.6459603269138
20
17.5156320538595
30
0
41
1
10
37.7751902438262
20
17.4755342269366
30
0
41
1
10
37.9020050181521
20
17.4261853135254
30
0
41
1
10
38.0237441917044
20
17.368175633741
30
0
0
SPLINE
5
1D1
100
AcDbEntity
8
1
62
256
6
ByLayer
370
18
48
1
60
0
100
AcDbSpline
70
4
71
1
72
4
73
2
40
0
40
0
40
1
40
1
41
1
10
33.064523018532
20
17.5850932846866
30
0
41
1
10
32.2703283768382
20
17.8051019835361
30
0
0
SPLINE
5
1D2
100
AcDbEntity
8
1
62
256
6
ByLayer
370
18
48
1
60
0
100
AcDbSpline
70
4
71
3
72
25
73
21
40
0
40
0
40
0
40
0
40
0.442411593548775
40
0.442411593548775
40
0.442411593548775
40
0.583396916265375
40
0.583396916265375
40
0.651602530488654
40
0.651602530488654
40
0.706341521306447
40
0.706341521306447
40
0.742475286987736
40
0.742475286987736
40
0.77897296874293
40
0.77897296874293
40
0.811539464980178
40
0.811539464980178
40
0.868309796146657
40
0.868309796146657
40
1
40
1
40
1
40
1
41
1
10
41.1670540163895
20
19.3051340908624
30
0
41
1
10
41.1010634565664
20
18.9936745982405
30
0
41
1
10
41.0598095128393
20
18.6479384566767
30
0
41
1
10
41.0777957185743
20
18.2902137013194
30
0
41
1
10
41.0836345465235
20
18.1740861905786
30
0
41
1
10
41.0959164336612
20
18.0550507967873
30
0
41
1
10
41.1304909595895
20
17.8823381050322
30
0
41
1
10
41.1445691420061
20
17.8259166063832
30
0
41
1
10
41.1771060283399
20
17.7295644037123
30
0
41
1
10
41.1944759812564
20
17.687754953535
30
0
41
1
10
41.2289659429895
20
17.6278766914932
30
0
41
1
10
41.244515548554
20
17.6062104721236
30
0
41
1
10
41.277888679559
20
17.5723444695903
30
0
41
1
10
41.2961940391302
20
17.5599470420825
30
0
41
1
10
41.3303737219299
20
17.547447903289
30
0
41
1
10
41.3466645201847
20
17.5459068949042
30
0
41
1
10
41.3891261391022
20
17.5508892732723
30
0
41
1
10
41.4145176095996
20
17.5638143582646
30
0
41
1
10
41.4918696438982
20
17.6205676871632
30
0
41
1
10
41.5379272559078
20
17.6819746855596
30
0
41
1
10
41.5809187174247
20
17.7463931165304
30
0
0
SPLINE
5
1D3
100
AcDbEntity
8
1
62
256
6
ByLayer
370
18
48
1
60
0
100
AcDbSpline
70
4
71
3
72
12
73
8
40
0
40
0
40
0
40
0
40
0.369659083875782
40
0.369659083875782
40
0.727704501586108
40
0.727704501586108
40
1
40
1
40
1
40
1
41
1
10
29.1595513400293
20
12.7022815307196
30
0
41
1
10
29.3872997902768
20
12.7501296200305
30
0
41
1
10
29.6938287399636
20
12.7767389203583
30
0
41
1
10
30.3876288133875
20
12.7927368026277
30
0
41
1
10
30.7802678271182
20
12.7836089791932
30
0
41
1
10
31.5109420583449
20
12.7446695788953
30
0
41
1
10
31.8443386318144
20
12.7200777489189
30
0
41
1
10
32.1833430824815
20
12.6896211906509
30
0
0
SPLINE
5
1D4
100
AcDbEntity
8
1
62
256
6
ByLayer
370
18
48
1
60
0
100
AcDbSpline
70
4
71
3
72
16
73
12
40
0
40
0
40
0
40
0
40
0.151798394921708
40
0.151798394921708
40
0.302355402833642
40
0.302355402833642
40
0.469907609657965
40
0.469907609657965
40
0.750934341340612
40
0.750934341340612
40
1
40
1
40
1
40
1
41
1
10
29.3817803574425
20
10.3274231123244
30
0
41
1
10
29.2460774004947
20
10.4519870295877
30
0
41
1
10
29.1139926783081
20
10.5899054367003
30
0
41
1
10
28.8844054468102
20
10.8696421743407
30
0
41
1
10
28.7831239339179
20
11.0150042316611
30
0
41
1
10
28.605474756033
20
11.312187166347
30
0
41
1
10
28.5308925204683
20
11.4659634196734
30
0
41
1
10
28.3786126789072
20
11.8439828647565
30
0
41
1
10
28.3267686832237
20
12.0503156721106
30
0
41
1
10
28.2914093586616
20
12.4133700044204
30
0
41
1
10
28.3005009297633
20
12.5803027527674
30
0
41
1
10
28.354490632957
20
12.7628345421857
30
0
0
SPLINE
5
1D5
100
AcDbEntity
8
1
62
256
6
ByLayer
370
18
48
1
60
0
100
AcDbSpline
70
4
71
3
72
12
73
8
40
0
40
0
40
0
40
0
40
0.501637567130158
40
0.501637567130158
40
0.886957471304442
40
0.886957471304442
40
1
40
1
40
1
40
1
41
1
10
35.0268543503506
20
8.80975609390373
30
0
41
1
10
35.1557522762401
20
8.96956683005516
30
0
41
1
10
35.3041033780689
20
9.12736933510828
30
0
41
1
10
35.5942397297267
20
9.3768229659909
30
0
41
1
10
35.7326175211851
20
9.4774270948912
30
0
41
1
10
35.9156325774251
20
9.58458632219424
30
0
41
1
10
35.9579749336198
20
9.60770220671822
30
0
41
1
10
36.0003180071859
20
9.62914150323809
30
0
0
SPLINE
5
1D6
100
AcDbEntity
8
1
62
256
6
ByLayer
370
18
48
1
60
0
100
AcDbSpline
70
4
71
3
72
14
73
10
40
0
40
0
40
0
40
0
40
0.262932482489329
40
0.262932482489329
40
0.526305718382448
40
0.526305718382448
40
0.786105451116562
40
0.786105451116562
40
1
40
1
40
1
40
1
41
1
10
44.1781576795976
20
21.2831847120044
30
0
41
1
10
44.2187355641556
20
21.4014633813891
30
0
41
1
10
44.2467491777666
20
21.5371475218942
30
0
41
1
10
44.2705862384411
20
21.8237183346874
30
0
41
1
10
44.2666233588932
20
21.9782986229562
30
0
41
1
10
44.2294780579641
20
22.2816276561312
30
0
41
1
10
44.1964352299011
20
22.4339915889553
30
0
41
1
10
44.1172335331653
20
22.6974835752822
30
0
41
1
10
44.0740177688455
20
22.8130031983595
30
0
41
1
10
44.0257531281899
20
22.9221421640283
30
0
0
SPLINE
5
1D7
100
AcDbEntity
8
1
62
256
6
ByLayer
370
18
48
1
60
0
100
AcDbSpline
70
4
71
2
72
6
73
3
40
0
40
0
40
0
40
1
40
1
40
1
41
0.932817050425109
10
39.5562775535629
20
12.7614405473125
30
0
41
0.929591664905397
10
40.3403951696169
20
11.9899053059156
30
0
41
1.02990374504916
10
40.5455827541244
20
11.5867223724447
30
0
0
SPLINE
5
1D8
100
AcDbEntity
8
1
62
256
6
ByLayer
370
18
48
1
60
0
100
AcDbSpline
70
4
71
3
72
8
73
4
40
0
40
0
40
0
40
0
40
1
40
1
40
1
40
1
41
1
10
29.4481995220094
20
10.2704164423098
30
0
41
1
10
29.4251659383752
20
10.288884945832
30
0
41
1
10
29.4030492206123
20
10.3079000822317
30
0
41
1
10
29.3817803574425
20
10.3274231123244
30
0
0
SPLINE
5
1D9
100
AcDbEntity
8
1
62
256
6
ByLayer
370
18
48
1
60
0
100
AcDbSpline
70
4
71
3
72
8
73
4
40
0
40
0
40
0
40
0
40
1
40
1
40
1
40
1
41
1
10
31.5099729533907
20
11.4577346686201
30
0
41
1
10
30.6980142594634
20
11.0797520033209
30
0
41
1
10
29.981937182784
20
10.7161219340325
30
0
41
1
10
29.5171221692243
20
10.4123557501127
30
0
0
SPLINE
5
1DA
100
AcDbEntity
8
1
62
256
6
ByLayer
370
18
48
1
60
0
100
AcDbSpline
70
4
71
3
72
10
73
6
40
0
40
0
40
0
40
0
40
0.690921703394072
40
0.690921703394072
40
1
40
1
40
1
40
1
41
1
10
36.9430100092857
20
5.93191088163388
30
0
41
1
10
36.7627393057042
20
5.72013758894698
30
0
41
1
10
36.5466416126815
20
5.50367279633304
30
0
41
1
10
36.1727941751602
20
5.22515766057523
30
0
41
1
10
36.0478070359863
20
5.14333255902721
30
0
41
1
10
35.9145961291831
20
5.06985541378381
30
0
0
SPLINE
5
1DB
100
AcDbEntity
8
1
62
256
6
ByLayer
370
18
48
1
60
0
100
AcDbSpline
70
4
71
3
72
8
73
4
40
0
40
0
40
0
40
0
40
1
40
1
40
1
40
1
41
1
10
44.3513287400214
20
18.2532528475114
30
0
41
1
10
44.319269270708
20
18.2026500534893
30
0
41
1
10
44.286590839416
20
18.1524774629188
30
0
41
1
10
44.2532797600113
20
18.1027672889725
30
0
0
SPLINE
5
1DC
100
AcDbEntity
8
1
62
256
6
ByLayer
370
18
48
1
60
0
100
AcDbSpline
70
4
71
3
72
8
73
4
40
0
40
0
40
0
40
0
40
1
40
1
40
1
40
1
41
1
10
34.9426427491768
20
8.70539377279584
30
0
41
1
10
34.970487480963
20
8.73988623773116
30
0
41
1
10
34.9985710126096
20
8.77468973427057
30
0
41
1
10
35.0268543503506
20
8.80975609390373
30
0
0
SPLINE
5
1DD
100
AcDbEntity
8
1
62
256
6
ByLayer
370
18
48
1
60
0
100
AcDbSpline
70
4
71
2
72
6
73
3
40
0
40
0
40
0
40
1
40
1
40
1
41
1.01103575695168
10
39.3901968920215
20
23.0514757031043
30
0
41
1.01163342726563
10
39.0381621737817
20
22.9298260107588
30
0
41
1.01212826498448
10
38.6904659632074
20
22.7913968467008
30
0
0
SPLINE
5
1DE
100
AcDbEntity
8
1
62
256
6
ByLayer
370
18
48
1
60
0
100
AcDbSpline
70
4
71
2
72
6
73
3
40
0
40
0
40
0
40
1
40
1
40
1
41
1.02990374504916
10
33.0645230185321
20
17.5850932846866
30
0
41
0.929591662588769
10
33.519302167336
20
17.4591098499724
30
0
41
0.932817050574084
10
34.4527842091808
20
16.8534605496789
30
0
0
SPLINE
5
1DF
100
AcDbEntity
8
1
62
256
6
ByLayer
370
18
48
1
60
0
100
AcDbSpline
70
4
71
3
72
15
73
11
40
0
40
0
40
0
40
0
40
0.225043240787981
40
0.225043240787981
40
0.52048282722711
40
0.52048282722711
40
0.820975208236874
40
0.820975208236874
40
0.820975208236874
40
1
40
1
40
1
40
1
41
1
10
39.2838323688454
20
16.3578272959717
30
0
41
1
10
39.4586558857141
20
16.134456762252
30
0
41
1
10
39.6005454275749
20
15.8797108090612
30
0
41
1
10
39.8373813644693
20
15.2689203392059
30
0
41
1
10
39.9097214693007
20
14.8959911162089
30
0
41
1
10
39.9397645149744
20
14.1490921490611
30
0
41
1
10
39.8960484623847
20
13.7637557144078
30
0
41
1
10
39.7964986336445
20
13.3985348112317
30
0
41
1
10
39.7367033794155
20
13.1791624925495
30
0
41
1
10
39.6560343617298
20
12.9642670255301
30
0
41
1
10
39.5562775174626
20
12.7614405828334
30
0
0
SPLINE
5
1E0
100
AcDbEntity
8
1
62
256
6
ByLayer
370
18
48
1
60
0
100
AcDbSpline
70
4
71
3
72
8
73
4
40
0
40
0
40
0
40
0
40
1
40
1
40
1
40
1
41
1
10
39.5562775174626
20
12.7614405828334
30
0
41
1
10
39.4469438362609
20
12.5432888711441
30
0
41
1
10
39.3135772349806
20
12.3319847733796
30
0
41
1
10
39.160104596367
20
12.1400812039222
30
0
0
SPLINE
5
1E1
100
AcDbEntity
8
1
62
256
6
ByLayer
370
18
48
1
60
0
100
AcDbSpline
70
4
71
3
72
10
73
6
40
0
40
0
40
0
40
0
40
0.106616270583438
40
0.106616270583438
40
1
40
1
40
1
40
1
41
1
10
41.4516702697684
20
20.3840779043885
30
0
41
1
10
41.4399307428185
20
20.3474176713199
30
0
41
1
10
41.4283602430244
20
20.3105635510915
30
0
41
1
10
41.3215582992198
20
19.9635108696739
30
0
41
1
10
41.2380250750647
20
19.6396244104344
30
0
41
1
10
41.1670540163895
20
19.3051340908624
30
0
0
SPLINE
5
1E2
100
AcDbEntity
8
1
62
256
6
ByLayer
370
18
48
1
60
0
100
AcDbSpline
70
4
71
2
72
8
73
5
40
0
40
0
40
0
40
0.581603760070721
40
0.872405640106081
40
1
40
1
40
1
41
1.02990374504916
10
40.5455827541244
20
11.5867223724447
30
0
41
1.02669755169729
10
41.0398960116414
20
13.2887138199789
30
0
41
1.02039724512338
10
41.4461688309661
20
16.0107101272101
30
0
41
1.01761724169608
10
41.5175894204424
20
17.3749984501591
30
0
41
1.01686274329306
10
41.5809187174246
20
17.7463931165302
30
0
0
SPLINE
5
1E3
100
AcDbEntity
8
1
62
256
6
ByLayer
370
18
48
1
60
0
100
AcDbSpline
70
4
71
3
72
8
73
4
40
0
40
0
40
0
40
0
40
1
40
1
40
1
40
1
41
1
10
39.3957584643526
20
23.053396428817
30
0
41
1
10
38.7619467521036
20
22.056802330605
30
0
41
1
10
39.3023564254702
20
20.9637350566131
30
0
41
1
10
38.8561584354998
20
19.9311267501334
30
0
0
SPLINE
5
1E4
100
AcDbEntity
8
1
62
256
6
ByLayer
370
18
48
1
60
0
100
AcDbSpline
70
4
71
3
72
10
73
6
40
0
40
0
40
0
40
0
40
0.560518156563271
40
0.560518156563271
40
1
40
1
40
1
40
1
41
1
10
43.4561752124391
20
16.3069732266076
30
0
41
1
10
43.5676716834632
20
16.6891347288132
30
0
41
1
10
43.7033226519762
20
17.0628542177629
30
0
41
1
10
43.979391625086
20
17.6564990408686
30
0
41
1
10
44.115154558804
20
17.8966428432593
30
0
41
1
10
44.2532797600113
20
18.1027672889725
30
0
0
SPLINE
5
1E5
100
AcDbEntity
8
1
62
256
6
ByLayer
370
18
48
1
60
0
100
AcDbSpline
70
4
71
3
72
8
73
4
40
0
40
0
40
0
40
0
40
1
40
1
40
1
40
1
41
1
10
32.2703283768382
20
17.8051019835361
30
0
41
1
10
33.6472506699881
20
19.279636266578
30
0
41
1
10
35.2320233887347
20
20.5076020787396
30
0
41
1
10
36.9987435908832
20
21.4845912881569
30
0
0
SPLINE
5
1E6
100
AcDbEntity
8
1
62
256
6
ByLayer
370
18
48
1
60
0
100
AcDbSpline
70
4
71
3
72
12
73
8
40
0
40
0
40
0
40
0
40
0.391502209781614
40
0.391502209781614
40
0.886018843801028
40
0.886018843801028
40
1
40
1
40
1
40
1
41
1
10
34.3338420274855
20
6.55027292877773
30
0
41
1
10
34.4137600092861
20
6.74918491030317
30
0
41
1
10
34.4950263090239
20
6.9919509427238
30
0
41
1
10
34.676292076837
20
7.60428079353076
30
0
41
1
10
34.7776692462012
20
7.99741058056685
30
0
41
1
10
34.8977624772396
20
8.50841929052513
30
0
41
1
10
34.9202944489914
20
8.60634607146446
30
0
41
1
10
34.9426427491777
20
8.70539377279553
30
0
0
SPLINE
5
1E7
100
AcDbEntity
8
1
62
256
6
ByLayer
370
18
48
1
60
0
100
AcDbSpline
70
4
71
3
72
10
73
6
40
0
40
0
40
0
40
0
40
0.20784579536769
40
0.20784579536769
40
1
40
1
40
1
40
1
41
1
10
36.0003180071858
20
9.62914150323806
30
0
41
1
10
36.0367024467682
20
9.6475638028781
30
0
41
1
10
36.073426856045
20
9.66508096633444
30
0
41
1
10
36.2501033086261
20
9.74425382354227
30
0
41
1
10
36.3944387457151
20
9.79362606470815
30
0
41
1
10
36.5384511995888
20
9.82828721605827
30
0
0
SPLINE
5
1E8
100
AcDbEntity
8
1
62
256
6
ByLayer
370
18
48
1
60
0
100
AcDbSpline
70
4
71
2
72
6
73
3
40
0
40
0
40
0
40
1
40
1
40
1
41
1.02990374504916
10
40.5455827541244
20
11.5867223724447
30
0
41
1.02990374504916
10
40.7247454144575
20
11.2346770616382
30
0
41
1.02990374504916
10
40.9039080747907
20
10.8826317508318
30
0
0
SPLINE
5
1E9
100
AcDbEntity
8
1
62
256
6
ByLayer
370
18
48
1
60
0
100
AcDbSpline
70
4
71
3
72
8
73
4
40
0
40
0
40
0
40
0
40
1
40
1
40
1
40
1
41
1
10
34.2071281025311
20
6.45467110946254
30
0
41
1
10
34.2301616861654
20
6.43620260594034
30
0
41
1
10
34.25355152419
20
6.41873023786883
30
0
41
1
10
34.2772730154538
20
6.40217965768389
30
0
0
SPLINE
5
1EA
100
AcDbEntity
8
1
62
256
6
ByLayer
370
18
48
1
60
0
100
AcDbSpline
70
4
71
2
72
6
73
3
40
0
40
0
40
0
40
1
40
1
40
1
41
1.01212826498425
10
44.3512187634599
20
18.2525619571258
30
0
41
1.01163342726426
10
44.4101215776128
20
18.6225478760702
30
0
41
1.01103575694871
10
44.4517234874715
20
18.9931049692978
30
0
0
SPLINE
5
1EB
100
AcDbEntity
8
1
62
256
6
ByLayer
370
18
48
1
60
0
100
AcDbSpline
70
4
71
3
72
8
73
4
40
0
40
0
40
0
40
0
40
1
40
1
40
1
40
1
41
1
10
41.5809187174247
20
17.7463931165304
30
0
41
1
10
42.4722098196582
20
18.4216318988932
30
0
41
1
10
43.6325828906211
20
18.1453286689588
30
0
41
1
10
44.4523796182808
20
18.9989589157692
30
0
0
INSERT
5
1FD
100
AcDbEntity
8
2
62
256
6
ByLayer
370
25
48
1
60
0
100
AcDbBlockReference
2
DimnDraft3D11
10
0
20
0
30
0
41
1
42
1
43
1
50
0
210
0
220
0
230
1
0
LINE
5
72
100
AcDbEntity
8
1
62
256
6
ByLayer
370
18
48
1
60
0
100
AcDbLine
10
43.253749
20
12.983605
30
0
11
43.722032
21
13.503685
31
0
39
0
210
0
220
0
230
1
0
LINE
5
74
100
AcDbEntity
8
1
62
256
6
ByLayer
370
18
48
1
60
0
100
AcDbLine
10
34.966388
20
26.026485
30
0
11
34.498106
21
25.506405
31
0
39
0
210
0
220
0
230
1
0
LINE
5
75
100
AcDbEntity
8
1
62
256
6
ByLayer
370
18
48
1
60
0
100
AcDbLine
10
23.614702
20
14.040393
30
0
11
23.744036
21
14.35775
31
0
39
0
210
0
220
0
230
1
0
LINE
5
76
100
AcDbEntity
8
1
62
256
6
ByLayer
370
18
48
1
60
0
100
AcDbLine
10
22.310102
20
17.918608
30
0
11
21.996931
21
18.057772
31
0
39
0
210
0
220
0
230
1
0
LINE
5
77
100
AcDbEntity
8
1
62
256
6
ByLayer
370
18
48
1
60
0
100
AcDbLine
10
36.940744
20
5.929252
30
0
11
37.274104
21
6.319776
31
0
39
0
210
0
220
0
230
1
0
LINE
5
78
100
AcDbEntity
8
1
62
256
6
ByLayer
370
18
48
1
60
0
100
AcDbLine
10
0.3
20
20
30
0
11
0
21
19.7
31
0
39
0
210
0
220
0
230
1
0
LINE
5
79
100
AcDbEntity
8
1
62
256
6
ByLayer
370
18
48
1
60
0
100
AcDbLine
10
0
20
-19.7
30
0
11
0.3
21
-20
31
0
39
0
210
0
220
0
230
1
0
LINE
5
7A
100
AcDbEntity
8
1
62
256
6
ByLayer
370
18
48
1
60
0
100
AcDbLine
10
0.3
20
-20
30
0
11
20.920792
21
-20
31
0
39
0
210
0
220
0
230
1
0
LINE
5
7B
100
AcDbEntity
8
1
62
256
6
ByLayer
370
18
48
1
60
0
100
AcDbLine
10
20.960985
20
-20.15
30
0
11
21.857226
21
-20.15
31
0
39
0
210
0
220
0
230
1
0
LINE
5
7C
100
AcDbEntity
8
1
62
256
6
ByLayer
370
18
48
1
60
0
100
AcDbLine
10
20.920792
20
-20
30
0
11
20.960985
21
-20.15
31
0
39
0
210
0
220
0
230
1
0
LINE
5
7D
100
AcDbEntity
8
1
62
256
6
ByLayer
370
18
48
1
60
0
100
AcDbLine
10
35.030228
20
13.506238
30
0
11
35.163039
21
13.65374
31
0
39
0
210
0
220
0
230
1
0
LINE
5
7E
100
AcDbEntity
8
1
62
256
6
ByLayer
370
18
48
1
60
0
100
AcDbLine
10
36.31591
20
12.775519
30
0
11
36.183099
21
12.628018
31
0
39
0
210
0
220
0
230
1
0
LINE
5
7F
100
AcDbEntity
8
1
62
256
6
ByLayer
370
18
48
1
60
0
100
AcDbLine
10
35.771383
20
14.432985
30
0
11
35.904298
21
14.580603
31
0
39
0
210
0
220
0
230
1
0
LINE
5
80
100
AcDbEntity
8
1
62
256
6
ByLayer
370
18
48
1
60
0
100
AcDbLine
10
21.917462
20
23.719623
30
0
11
20.920792
21
20
31
0
39
0
210
0
220
0
230
1
0
LINE
5
81
100
AcDbEntity
8
1
62
256
6
ByLayer
370
18
48
1
60
0
100
AcDbLine
10
35.093395
20
8.890032
30
0
11
34.840656
21
8.593955
31
0
39
0
210
0
220
0
230
1
0
LINE
5
82
100
AcDbEntity
8
1
62
256
6
ByLayer
370
18
48
1
60
0
100
AcDbLine
10
21.921376
20
18.064604
30
0
11
16.861015
21
16.02683
31
0
39
0
210
0
220
0
230
1
0
LINE
5
83
100
AcDbEntity
8
1
62
256
6
ByLayer
370
18
48
1
60
0
100
AcDbLine
10
7.426214
20
12.227498
30
0
11
7.298885
21
12.176224
31
0
39
0
210
0
220
0
230
1
0
LINE
5
84
100
AcDbEntity
8
1
62
256
6
ByLayer
370
18
48
1
60
0
100
AcDbLine
10
16.833361
20
11.272335
30
0
11
23.564967
21
13.983108
31
0
39
0
210
0
220
0
230
1
0
LINE
5
85
100
AcDbEntity
8
1
62
256
6
ByLayer
370
18
48
1
60
0
100
AcDbLine
10
38.281521
20
11.307338
30
0
11
38.44493
21
11.488822
31
0
39
0
210
0
220
0
230
1
0
LINE
5
86
100
AcDbEntity
8
1
62
256
6
ByLayer
370
18
48
1
60
0
100
AcDbLine
10
33.688803
20
15.771258
30
0
11
33.525394
21
15.589774
31
0
39
0
210
0
220
0
230
1
0
LINE
5
87
100
AcDbEntity
8
1
62
256
6
ByLayer
370
18
48
1
60
0
100
AcDbLine
10
37.057066
20
13.702267
30
0
11
36.924255
21
13.554765
31
0
39
0
210
0
220
0
230
1
0
LINE
5
88
100
AcDbEntity
8
1
62
256
6
ByLayer
370
18
48
1
60
0
100
AcDbLine
10
20.920792
20
20
30
0
11
0.3
21
20
31
0
39
0
210
0
220
0
230
1
0
LINE
5
89
100
AcDbEntity
8
1
62
256
6
ByLayer
370
18
48
1
60
0
100
AcDbLine
10
34.328259
20
24.767112
30
0
11
34.320309
21
24.758283
31
0
39
0
210
0
220
0
230
1
0
LINE
5
8A
100
AcDbEntity
8
80
62
256
6
ByLayer
370
18
48
1
60
0
100
AcDbLine
10
0
20
0
30
0
11
-5
21
0
31
0
39
0
210
0
220
0
230
1
0
LINE
5
8B
100
AcDbEntity
8
4
62
256
6
ByLayer
370
18
48
0.05
60
0
100
AcDbLine
10
0
20
0
30
0
11
50
21
0
31
0
39
0
210
0
220
0
230
1
0
LINE
5
8D
100
AcDbEntity
8
81
62
256
6
ByLayer
370
18
48
1
60
0
100
AcDbLine
10
50
20
27
30
0
11
60
21
27
31
0
39
0
210
0
220
0
230
1
0
LINE
5
8E
100
AcDbEntity
8
SK4
62
256
6
ByLayer
370
18
48
0.05
60
0
100
AcDbLine
10
-29
20
0
30
0
11
50
21
0
31
0
39
0
210
0
220
0
230
1
0
LINE
5
90
100
AcDbEntity
8
SK1
62
256
6
ByLayer
370
18
48
1
60
0
100
AcDbLine
10
-0.2
20
-14.083485
30
0
11
-0.2
21
-5.703176
31
0
39
0
210
0
220
0
230
1
0
LINE
5
92
100
AcDbEntity
8
SK1
62
256
6
ByLayer
370
18
48
1
60
0
100
AcDbLine
10
-0.2
20
5.703176
30
0
11
-0.2
21
14.083485
31
0
39
0
210
0
220
0
230
1
0
LINE
5
93
100
AcDbEntity
8
SK1
62
256
6
ByLayer
370
18
48
1
60
0
100
AcDbLine
10
-1.307107
20
-3.627816
30
0
11
-1.307107
21
3.627817
31
0
39
0
210
0
220
0
230
1
0
LINE
5
94
100
AcDbEntity
8
1
62
256
6
ByLayer
370
18
48
1
60
0
100
AcDbLine
10
48.018064
20
7.334949
30
0
11
41.155268
21
0.124798
31
0
39
0
210
0
220
0
230
1
0
LINE
5
95
100
AcDbEntity
8
1
62
256
6
ByLayer
370
18
48
1
60
0
100
AcDbLine
10
35.014525
20
4.177643
30
0
11
34.006588
21
4.985815
31
0
39
0
210
0
220
0
230
1
0
LINE
5
96
100
AcDbEntity
8
1
62
256
6
ByLayer
370
18
48
1
60
0
100
AcDbLine
10
27.990402
20
9.809639
30
0
11
26.966116
21
10.630919
31
0
39
0
210
0
220
0
230
1
0
LINE
5
97
100
AcDbEntity
8
1
62
256
6
ByLayer
370
18
48
1
60
0
100
AcDbLine
10
37.062312
20
21.52181
30
0
11
35.15245
21
24.411038
31
0
39
0
210
0
220
0
230
1
0
LINE
5
98
100
AcDbEntity
8
1
62
256
6
ByLayer
370
18
48
1
60
0
100
AcDbLine
10
23.890136
20
8.899246
30
0
11
23.835042
21
8.828898
31
0
39
0
210
0
220
0
230
1
0
LINE
5
99
100
AcDbEntity
8
1
62
256
6
ByLayer
370
18
48
1
60
0
100
AcDbLine
10
17.080365
20
11.371798
30
0
11
17.080365
21
-18.47854
31
0
39
0
210
0
220
0
230
1
0
LINE
5
9A
100
AcDbEntity
8
1
62
256
6
ByLayer
370
18
48
1
60
0
100
AcDbLine
10
9.336603
20
13.295619
30
0
11
9.336603
21
19.024574
31
0
39
0
210
0
220
0
230
1
0
LINE
5
9B
100
AcDbEntity
8
1
62
256
6
ByLayer
370
18
48
1
60
0
100
AcDbLine
10
26.103621
20
9.529433
30
0
11
34.129601
21
3.094141
31
0
39
0
210
0
220
0
230
1
0
LINE
5
9C
100
AcDbEntity
8
1
62
256
6
ByLayer
370
18
48
1
60
0
100
AcDbLine
10
22.23892
20
-19.748987
30
0
11
41.155268
21
0.124798
31
0
39
0
210
0
220
0
230
1
0
LINE
5
9D
100
AcDbEntity
8
1
62
256
6
ByLayer
370
18
48
1
60
0
100
AcDbLine
10
9.076795
20
19.122283
30
0
11
6.923205
21
19.122283
31
0
39
0
210
0
220
0
230
1
0
LINE
5
9E
100
AcDbEntity
8
1
62
256
6
ByLayer
370
18
48
1
60
0
100
AcDbLine
10
34.08425
20
0.84005
30
0
11
34.029156
21
0.769702
31
0
39
0
210
0
220
0
230
1
0
LINE
5
9F
100
AcDbEntity
8
1
62
256
6
ByLayer
370
18
48
1
60
0
100
AcDbLine
10
9.336603
20
6.16973
30
0
11
9.336603
21
11.191578
31
0
39
0
210
0
220
0
230
1
0
LINE
5
A0
100
AcDbEntity
8
1
62
256
6
ByLayer
370
18
48
1
60
0
100
AcDbLine
10
6.923205
20
-19.122283
30
0
11
6.923205
21
-5.85989
31
0
39
0
210
0
220
0
230
1
0
LINE
5
A1
100
AcDbEntity
8
1
62
256
6
ByLayer
370
18
48
1
60
0
100
AcDbLine
10
35.25082
20
24.416194
30
0
11
36.596485
21
22.380478
31
0
39
0
210
0
220
0
230
1
0
LINE
5
A2
100
AcDbEntity
8
1
62
256
6
ByLayer
370
18
48
1
60
0
100
AcDbLine
10
23.618652
20
8.442734
30
0
11
33.580465
21
0.351631
31
0
39
0
210
0
220
0
230
1
0
LINE
5
A3
100
AcDbEntity
8
1
62
256
6
ByLayer
370
18
48
1
60
0
100
AcDbLine
10
21.065143
20
19.457951
30
0
11
21.065143
21
17.719369
31
0
39
0
210
0
220
0
230
1
0
LINE
5
A4
100
AcDbEntity
8
1
62
256
6
ByLayer
370
18
48
1
60
0
100
AcDbLine
10
21.065143
20
12.975942
30
0
11
21.065143
21
-19.748987
31
0
39
0
210
0
220
0
230
1
0
LINE
5
A5
100
AcDbEntity
8
1
62
256
6
ByLayer
370
18
48
1
60
0
100
AcDbLine
10
44.613138
20
13.557658
30
0
11
44.51647
21
15.032146
31
0
39
0
210
0
220
0
230
1
0
LINE
5
A6
100
AcDbEntity
8
1
62
256
6
ByLayer
370
18
48
1
60
0
100
AcDbLine
10
39.663607
20
5.790917
30
0
11
39.543274
21
5.642763
31
0
39
0
210
0
220
0
230
1
0
LINE
5
A7
100
AcDbEntity
8
1
62
256
6
ByLayer
370
18
48
1
60
0
100
AcDbLine
10
20.920792
20
20
30
0
11
20.920792
21
19.595386
31
0
39
0
210
0
220
0
230
1
0
LINE
5
A8
100
AcDbEntity
8
1
62
256
6
ByLayer
370
18
48
1
60
0
100
AcDbLine
10
20.920792
20
-19.595386
30
0
11
20.920792
21
-20
31
0
39
0
210
0
220
0
230
1
0
LINE
5
A9
100
AcDbEntity
8
1
62
256
6
ByLayer
370
18
48
1
60
0
100
AcDbLine
10
44.449429
20
13.533137
30
0
11
44.370346
21
14.739392
31
0
39
0
210
0
220
0
230
1
0
LINE
5
AA
100
AcDbEntity
8
1
62
256
6
ByLayer
370
18
48
1
60
0
100
AcDbLine
10
37.073598
20
21.528601
30
0
11
36.988976
21
21.656616
31
0
39
0
210
0
220
0
230
1
0
LINE
5
AB
100
AcDbEntity
8
1
62
256
6
ByLayer
370
18
48
1
60
0
100
AcDbLine
10
43.379461
20
12.28481
30
0
11
43.180858
21
12.273967
31
0
39
0
210
0
220
0
230
1
0
LINE
5
AC
100
AcDbEntity
8
1
62
256
6
ByLayer
370
18
48
1
60
0
100
AcDbLine
10
9.076795
20
-19.122283
30
0
11
9.076795
21
-5.85989
31
0
39
0
210
0
220
0
230
1
0
LINE
5
AD
100
AcDbEntity
8
1
62
256
6
ByLayer
370
18
48
1
60
0
100
AcDbLine
10
48.018064
20
7.334949
30
0
11
48.523552
21
19.498132
31
0
39
0
210
0
220
0
230
1
0
LINE
5
AE
100
AcDbEntity
8
1
62
256
6
ByLayer
370
18
48
1
60
0
100
AcDbLine
10
29.290039
20
14.108524
30
0
11
27.571248
21
15.486664
31
0
39
0
210
0
220
0
230
1
0
LINE
5
AF
100
AcDbEntity
8
1
62
256
6
ByLayer
370
18
48
1
60
0
100
AcDbLine
10
45.390028
20
16.782187
30
0
11
45.464154
21
16.497224
31
0
39
0
210
0
220
0
230
1
0
LINE
5
B0
100
AcDbEntity
8
1
62
256
6
ByLayer
370
18
48
1
60
0
100
AcDbLine
10
6.923205
20
5.85989
30
0
11
9.076795
21
5.85989
31
0
39
0
210
0
220
0
230
1
0
LINE
5
B1
100
AcDbEntity
8
1
62
256
6
ByLayer
370
18
48
1
60
0
100
AcDbLine
10
44.613138
20
13.557658
30
0
11
45.577751
21
14.764534
31
0
39
0
210
0
220
0
230
1
0
LINE
5
B2
100
AcDbEntity
8
1
62
256
6
ByLayer
370
18
48
1
60
0
100
AcDbLine
10
40.087151
20
1.086534
30
0
11
41.155268
21
0.124798
31
0
39
0
210
0
220
0
230
1
0
LINE
5
B3
100
AcDbEntity
8
1
62
256
6
ByLayer
370
18
48
1
60
0
100
AcDbLine
10
45.577751
20
14.764534
30
0
11
45.464154
21
16.497224
31
0
39
0
210
0
220
0
230
1
0
LINE
5
B4
100
AcDbEntity
8
1
62
256
6
ByLayer
370
18
48
1
60
0
100
AcDbLine
10
23.303626
20
16.198488
30
0
11
23.875005
21
15.684016
31
0
39
0
210
0
220
0
230
1
0
LINE
5
B5
100
AcDbEntity
8
1
62
256
6
ByLayer
370
18
48
1
60
0
100
AcDbLine
10
6.923205
20
-19.122283
30
0
11
9.076795
21
-19.122283
31
0
39
0
210
0
220
0
230
1
0
LINE
5
B6
100
AcDbEntity
8
1
62
256
6
ByLayer
370
18
48
1
60
0
100
AcDbLine
10
6.923205
20
13.329278
30
0
11
6.923205
21
19.122283
31
0
39
0
210
0
220
0
230
1
0
LINE
5
B7
100
AcDbEntity
8
1
62
256
6
ByLayer
370
18
48
1
60
0
100
AcDbLine
10
44.449429
20
13.533137
30
0
11
44.613138
21
13.557658
31
0
39
0
210
0
220
0
230
1
0
LINE
5
B8
100
AcDbEntity
8
1
62
256
6
ByLayer
370
18
48
1
60
0
100
AcDbLine
10
6.663397
20
13.295619
30
0
11
6.663397
21
19.024574
31
0
39
0
210
0
220
0
230
1
0
LINE
5
B9
100
AcDbEntity
8
1
62
256
6
ByLayer
370
18
48
1
60
0
100
AcDbLine
10
9.076795
20
5.85989
30
0
11
9.076795
21
10.945788
31
0
39
0
210
0
220
0
230
1
0
LINE
5
BA
100
AcDbEntity
8
1
62
256
6
ByLayer
370
18
48
1
60
0
100
AcDbLine
10
35.15245
20
24.411038
30
0
11
22.080596
21
23.725971
31
0
39
0
210
0
220
0
230
1
0
LINE
5
BB
100
AcDbEntity
8
1
62
256
6
ByLayer
370
18
48
1
60
0
100
AcDbLine
10
39.663607
20
5.790917
30
0
11
37.950914
21
7.164168
31
0
39
0
210
0
220
0
230
1
0
LINE
5
BC
100
AcDbEntity
8
1
62
256
6
ByLayer
370
18
48
1
60
0
100
AcDbLine
10
35.15245
20
24.411038
30
0
11
35.25082
21
24.416194
31
0
39
0
210
0
220
0
230
1
0
LINE
5
BD
100
AcDbEntity
8
1
62
256
6
ByLayer
370
18
48
1
60
0
100
AcDbLine
10
0.3
20
-20
30
0
11
0.3
21
20
31
0
39
0
210
0
220
0
230
1
0
LINE
5
BE
100
AcDbEntity
8
1
62
256
6
ByLayer
370
18
48
1
60
0
100
AcDbLine
10
22.080596
20
18.020655
30
0
11
22.080596
21
23.725971
31
0
39
0
210
0
220
0
230
1
0
LINE
5
BF
100
AcDbEntity
8
1
62
256
6
ByLayer
370
18
48
1
60
0
100
AcDbLine
10
22.23892
20
-19.748987
30
0
11
21.065143
21
-19.748987
31
0
39
0
210
0
220
0
230
1
0
LINE
5
C0
100
AcDbEntity
8
1
62
256
6
ByLayer
370
18
48
1
60
0
100
AcDbLine
10
34.029156
20
0.769702
30
0
11
33.974062
21
0.699354
31
0
39
0
210
0
220
0
230
1
0
LINE
5
C1
100
AcDbEntity
8
1
62
256
6
ByLayer
370
18
48
1
60
0
100
AcDbLine
10
45.464154
20
16.497224
30
0
11
47.42562
21
20.470415
31
0
39
0
210
0
220
0
230
1
0
LINE
5
C2
100
AcDbEntity
8
1
62
256
6
ByLayer
370
18
48
1
60
0
100
AcDbLine
10
6.663397
20
6.16973
30
0
11
6.663397
21
11.191578
31
0
39
0
210
0
220
0
230
1
0
LINE
5
C3
100
AcDbEntity
8
1
62
256
6
ByLayer
370
18
48
1
60
0
100
AcDbLine
10
9.076795
20
13.329278
30
0
11
9.076795
21
19.122283
31
0
39
0
210
0
220
0
230
1
0
LINE
5
C4
100
AcDbEntity
8
1
62
256
6
ByLayer
370
18
48
1
60
0
100
AcDbLine
10
23.945229
20
8.969594
30
0
11
23.890136
21
8.899246
31
0
39
0
210
0
220
0
230
1
0
LINE
5
C5
100
AcDbEntity
8
1
62
256
6
ByLayer
370
18
48
1
60
0
100
AcDbLine
10
6.923205
20
5.85989
30
0
11
6.923205
21
10.945788
31
0
39
0
210
0
220
0
230
1
0
LINE
5
C6
100
AcDbEntity
8
1
62
256
6
ByLayer
370
18
48
1
60
0
100
AcDbLine
10
47.42562
20
20.470415
30
0
11
47.290701
21
20.589893
31
0
39
0
210
0
220
0
230
1
0
LINE
5
C7
100
AcDbEntity
8
1
62
256
6
ByLayer
370
18
48
1
60
0
100
AcDbLine
10
22.23892
20
-19.748987
30
0
11
21.857226
21
-20.15
31
0
39
0
210
0
220
0
230
1
0
LINE
5
C8
100
AcDbEntity
8
1
62
256
6
ByLayer
370
18
48
1
60
0
100
AcDbLine
10
6.663397
20
-19.024574
30
0
11
6.663397
21
-6.16973
31
0
39
0
210
0
220
0
230
1
0
LINE
5
C9
100
AcDbEntity
8
1
62
256
6
ByLayer
370
18
48
1
60
0
100
AcDbLine
10
0
20
-19.7
30
0
11
0
21
19.7
31
0
39
0
210
0
220
0
230
1
0
LINE
5
CA
100
AcDbEntity
8
1
62
256
6
ByLayer
370
18
48
1
60
0
100
AcDbLine
10
20.960985
20
-20.15
30
0
11
20.960985
21
-19.748713
31
0
39
0
210
0
220
0
230
1
0
LINE
5
CB
100
AcDbEntity
8
1
62
256
6
ByLayer
370
18
48
1
60
0
100
AcDbLine
10
9.336603
20
-19.024574
30
0
11
9.336603
21
-6.16973
31
0
39
0
210
0
220
0
230
1
0
LINE
5
CC
100
AcDbEntity
8
1
62
256
6
ByLayer
370
18
48
1
60
0
100
AcDbLine
10
48.523552
20
19.498132
30
0
11
47.42562
21
20.470415
31
0
39
0
210
0
220
0
230
1
0
LINE
5
CD
100
AcDbEntity
8
1
62
256
6
ByLayer
370
18
48
1
60
0
100
AcDbLine
10
27.571248
20
15.486664
30
0
11
27.450915
21
15.338509
31
0
39
0
210
0
220
0
230
1
0
LINE
5
CE
100
AcDbEntity
8
1
62
256
6
ByLayer
370
18
48
1
60
0
100
AcDbLine
10
9.076795
20
-5.85989
30
0
11
6.923205
21
-5.85989
31
0
39
0
210
0
220
0
230
1
0
LINE
5
CF
100
AcDbEntity
8
1
62
256
6
ByLayer
370
18
48
1
60
0
100
AcDbLine
10
17.080365
20
18.47854
30
0
11
17.080365
21
16.115185
31
0
39
0
210
0
220
0
230
1
0
LINE
5
D0
100
AcDbEntity
8
1
62
256
6
ByLayer
370
18
48
1
60
0
100
AcDbLine
10
22.080596
20
23.725971
30
0
11
21.979029
21
23.720649
31
0
39
0
210
0
220
0
230
1
0
LINE
5
D1
100
AcDbEntity
8
1
62
256
6
ByLayer
370
18
48
1
60
0
100
AcDbLine
10
37.000183
20
13.616448
30
0
11
36.871632
21
13.473678
31
0
39
0
210
0
220
0
230
1
0
LINE
5
D2
100
AcDbEntity
8
1
62
256
6
ByLayer
370
18
48
1
60
0
100
AcDbLine
10
36.404961
20
14.465455
30
0
11
36.537773
21
14.612957
31
0
39
0
210
0
220
0
230
1
0
LINE
5
D3
100
AcDbEntity
8
1
62
256
6
ByLayer
370
18
48
1
60
0
100
AcDbLine
10
36.596387
20
14.170167
30
0
11
36.724938
21
14.312937
31
0
39
0
210
0
220
0
230
1
0
LINE
5
D4
100
AcDbEntity
8
1
62
256
6
ByLayer
370
18
48
1
60
0
100
AcDbLine
10
36.847273
20
13.308699
30
0
11
36.975824
21
13.451469
31
0
39
0
210
0
220
0
230
1
0
LINE
5
D5
100
AcDbEntity
8
1
62
256
6
ByLayer
370
18
48
1
60
0
100
AcDbLine
10
34.955317
20
13.449201
30
0
11
35.0815
21
13.589341
31
0
39
0
210
0
220
0
230
1
0
LINE
5
D6
100
AcDbEntity
8
1
62
256
6
ByLayer
370
18
48
1
60
0
100
AcDbLine
10
36.933337
20
13.128436
30
0
11
37.066149
21
13.275938
31
0
39
0
210
0
220
0
230
1
0
LINE
5
D7
100
AcDbEntity
8
1
62
256
6
ByLayer
370
18
48
1
60
0
100
AcDbLine
10
36.794909
20
14.152792
30
0
11
36.92772
21
14.300294
31
0
39
0
210
0
220
0
230
1
0
LINE
5
D8
100
AcDbEntity
8
1
62
256
6
ByLayer
370
18
48
1
60
0
100
AcDbLine
10
36.593841
20
14.418052
30
0
11
36.46529
21
14.275282
31
0
39
0
210
0
220
0
230
1
0
LINE
5
D9
100
AcDbEntity
8
1
62
256
6
ByLayer
370
18
48
1
60
0
100
AcDbLine
10
36.11567
20
12.506145
30
0
11
36.248481
21
12.653647
31
0
39
0
210
0
220
0
230
1
0
LINE
5
DA
100
AcDbEntity
8
1
62
256
6
ByLayer
370
18
48
1
60
0
100
AcDbLine
10
35.376409
20
14.376793
30
0
11
35.509221
21
14.524295
31
0
39
0
210
0
220
0
230
1
0
LINE
5
DB
100
AcDbEntity
8
1
62
256
6
ByLayer
370
18
48
1
60
0
100
AcDbLine
10
38.281521
20
11.307338
30
0
11
38.281672
21
11.307507
31
0
39
0
210
0
220
0
230
1
0
LINE
5
DC
100
AcDbEntity
8
1
62
256
6
ByLayer
370
18
48
1
60
0
100
AcDbLine
10
35.726355
20
14.39197
30
0
11
35.854906
21
14.53474
31
0
39
0
210
0
220
0
230
1
0
LINE
5
DD
100
AcDbEntity
8
1
62
256
6
ByLayer
370
18
48
1
60
0
100
AcDbLine
10
35.69945
20
14.474876
30
0
11
35.570899
21
14.332106
31
0
39
0
210
0
220
0
230
1
0
LINE
5
DE
100
AcDbEntity
8
1
62
256
6
ByLayer
370
18
48
1
60
0
100
AcDbLine
10
29.397777
20
14.24072
30
0
11
29.439993
21
14.266025
31
0
39
0
210
0
220
0
230
1
0
LINE
5
DF
100
AcDbEntity
8
1
62
256
6
ByLayer
370
18
48
1
60
0
100
AcDbLine
10
29.397777
20
14.24072
30
0
11
28.355479
21
12.962091
31
0
39
0
210
0
220
0
230
1
0
LINE
5
E0
100
AcDbEntity
8
1
62
256
6
ByLayer
370
18
48
1
60
0
100
AcDbLine
10
28.66438
20
13.323674
30
0
11
28.350284
21
12.955718
31
0
39
0
210
0
220
0
230
1
0
LINE
5
E1
100
AcDbEntity
8
1
62
256
6
ByLayer
370
18
48
1
60
0
100
AcDbLine
10
39.160105
20
12.140081
30
0
11
38.138696
21
10.862902
31
0
39
0
210
0
220
0
230
1
0
LINE
5
E2
100
AcDbEntity
8
1
62
256
6
ByLayer
370
18
48
1
60
0
100
AcDbLine
10
30.485419
20
10.194768
30
0
11
33.918089
21
7.442427
31
0
39
0
210
0
220
0
230
1
0
LINE
5
E3
100
AcDbEntity
8
1
62
256
6
ByLayer
370
18
48
1
60
0
100
AcDbLine
10
44.453826
20
18.98691
30
0
11
44.178158
21
21.283185
31
0
39
0
210
0
220
0
230
1
0
LINE
5
E4
100
AcDbEntity
8
1
62
256
6
ByLayer
370
18
48
1
60
0
100
AcDbLine
10
39.160105
20
12.140081
30
0
11
38.939422
21
11.881557
31
0
39
0
210
0
220
0
230
1
0
LINE
5
E5
100
AcDbEntity
8
1
62
256
6
ByLayer
370
18
48
1
60
0
100
AcDbLine
10
29.4482
20
10.270416
30
0
11
34.207128
21
6.454671
31
0
39
0
210
0
220
0
230
1
0
LINE
5
E6
100
AcDbEntity
8
1
62
256
6
ByLayer
370
18
48
1
60
0
100
AcDbLine
10
38.138696
20
10.862902
30
0
11
37.923031
21
10.610256
31
0
39
0
210
0
220
0
230
1
0
LINE
5
E7
100
AcDbEntity
8
1
62
256
6
ByLayer
370
18
48
1
60
0
100
AcDbLine
10
37.32407
20
6.380269
30
0
11
38.057467
21
7.297314
31
0
39
0
210
0
220
0
230
1
0
LINE
5
E8
100
AcDbEntity
8
1
62
256
6
ByLayer
370
18
48
1
60
0
100
AcDbLine
10
29.4482
20
10.270416
30
0
11
28.535973
21
9.201765
31
0
39
0
210
0
220
0
230
1
0
LINE
5
E9
100
AcDbEntity
8
1
62
256
6
ByLayer
370
18
48
1
60
0
100
AcDbLine
10
29.397777
20
14.24072
30
0
11
28.66438
21
13.323674
31
0
39
0
210
0
220
0
230
1
0
LINE
5
EA
100
AcDbEntity
8
1
62
256
6
ByLayer
370
18
48
1
60
0
100
AcDbLine
10
32.911676
20
15.053967
30
0
11
33.933085
21
16.331146
31
0
39
0
210
0
220
0
230
1
0
LINE
5
EB
100
AcDbEntity
8
1
62
256
6
ByLayer
370
18
48
1
60
0
100
AcDbLine
10
41.45167
20
20.384078
30
0
11
43.739975
21
23.293233
31
0
39
0
210
0
220
0
230
1
0
LINE
5
EC
100
AcDbEntity
8
1
62
256
6
ByLayer
370
18
48
1
60
0
100
AcDbLine
10
38.036136
20
10.751728
30
0
11
38.939422
21
11.881557
31
0
39
0
210
0
220
0
230
1
0
LINE
5
ED
100
AcDbEntity
8
1
62
256
6
ByLayer
370
18
48
1
60
0
100
AcDbLine
10
34.207128
20
6.454671
30
0
11
33.294901
21
5.386019
31
0
39
0
210
0
220
0
230
1
0
LINE
5
EE
100
AcDbEntity
8
1
62
256
6
ByLayer
370
18
48
1
60
0
100
AcDbLine
10
32.270328
20
17.805102
30
0
11
29.439993
21
14.266025
31
0
39
0
210
0
220
0
230
1
0
LINE
5
EF
100
AcDbEntity
8
1
62
256
6
ByLayer
370
18
48
1
60
0
100
AcDbLine
10
41.681808
20
23.284777
30
0
11
39.3837
21
23.052176
31
0
39
0
210
0
220
0
230
1
0
LINE
5
F0
100
AcDbEntity
8
1
62
256
6
ByLayer
370
18
48
1
60
0
100
AcDbLine
10
35.026854
20
8.809756
30
0
11
34.780852
21
8.521571
31
0
39
0
210
0
220
0
230
1
0
LINE
5
F1
100
AcDbEntity
8
1
62
256
6
ByLayer
370
18
48
1
60
0
100
AcDbLine
10
36.640611
20
6.703911
30
0
11
40.545583
21
11.586722
31
0
39
0
210
0
220
0
230
1
0
LINE
5
F2
100
AcDbEntity
8
1
62
256
6
ByLayer
370
18
48
1
60
0
100
AcDbLine
10
29.159551
20
12.702282
30
0
11
33.064523
21
17.585093
31
0
39
0
210
0
220
0
230
1
0
LINE
5
F3
100
AcDbEntity
8
1
62
256
6
ByLayer
370
18
48
1
60
0
100
AcDbLine
10
38.057467
20
7.297314
30
0
11
38.073573
21
7.343555
31
0
39
0
210
0
220
0
230
1
0
LINE
5
F4
100
AcDbEntity
8
1
62
256
6
ByLayer
370
18
48
1
60
0
100
AcDbLine
10
33.294901
20
5.386019
30
0
11
28.535973
21
9.201765
31
0
39
0
210
0
220
0
230
1
0
LINE
5
F5
100
AcDbEntity
8
1
62
256
6
ByLayer
370
18
48
1
60
0
100
AcDbLine
10
40.903908
20
10.882632
30
0
11
38.073573
21
7.343555
31
0
39
0
210
0
220
0
230
1
0
LINE
5
F6
100
AcDbEntity
8
1
62
256
6
ByLayer
370
18
48
1
60
0
100
AcDbLine
10
34.780852
20
8.521571
30
0
11
33.918089
21
7.442427
31
0
39
0
210
0
220
0
230
1
0
LINE
5
F7
100
AcDbEntity
8
1
62
256
6
ByLayer
370
18
48
1
60
0
100
AcDbLine
10
34.898498
20
25.065323
30
0
11
34.430216
21
24.545243
31
0
39
0
210
0
220
0
230
1
0
LINE
5
F8
100
AcDbEntity
8
1
62
256
6
ByLayer
370
18
48
1
60
0
100
AcDbLine
10
34.898498
20
25.065323
30
0
11
37.190806
21
21.597532
31
0
39
0
210
0
220
0
230
1
0
LINE
5
F9
100
AcDbEntity
8
1
62
256
6
ByLayer
370
18
48
1
60
0
100
AcDbLine
10
42.452366
20
13.637872
30
0
11
42.474028
21
13.605103
31
0
39
0
210
0
220
0
230
1
0
LINE
5
FA
100
AcDbEntity
8
1
62
256
6
ByLayer
370
18
48
1
60
0
100
AcDbLine
10
34.430216
20
24.545243
30
0
11
34.540179
21
24.378891
31
0
39
0
210
0
220
0
230
1
0
LINE
5
FB
100
AcDbEntity
8
1
62
256
6
ByLayer
370
18
48
1
60
0
100
AcDbLine
10
42.391785
20
13.513764
30
0
11
42.474028
21
13.605103
31
0
39
0
210
0
220
0
230
1
0
LINE
5
FC
100
AcDbEntity
8
1
62
256
6
ByLayer
370
18
48
1
60
0
100
AcDbLine
10
43.839868
20
13.676683
30
0
11
49.917579
21
25.85244
31
0
39
0
210
0
220
0
230
1
0
LINE
5
FD
100
AcDbEntity
8
1
62
256
6
ByLayer
370
18
48
1
60
0
100
AcDbLine
10
49.15974
20
26.998895
30
0
11
35.506499
21
26.283359
31
0
39
0
210
0
220
0
230
1
0
MTEXT
5
1EC
100
AcDbEntity
8
SK6
62
256
6
ByLayer
370
18
48
1
60
0
100
AcDbMText
10
-8.625
20
-30.950011
30
0
210
0
220
0
230
1
1
\W0.7495;C4-DTJNR-27050-16
40
3.5
41
0
44
1.084337
50
0
71
7
72
5
7
iso_b_vert
0
DIMENSION
5
20B
100
AcDbEntity
8
2
62
256
6
ByLayer
370
13
48
1
60
0
100
AcDbDimension
2
DimnDraft3D2
10
48.166079
20
26.946576
30
0
11
37.711865
21
38.703693
31
0
70
34
71
5
72
1
41
1
210
0
220
0
230
1
3
Standard
100
AcDb2LineAngularDimension
13
50
23
27
33
0
14
50
24
25.4125
34
0
15
49.164708
25
26.998912
35
0
16
40.976049
26
35.606097
36
0
40
0
0
DIMENSION
5
221
100
AcDbEntity
8
SK2
62
256
6
ByLayer
370
13
48
1
60
0
100
AcDbDimension
2
DimnDraft3D3
10
-31.75
20
20
30
0
11
-31.75
21
-2.925
31
0
70
32
71
5
72
1
41
1
210
0
220
0
230
1
3
Standard
100
AcDbAlignedDimension
13
-2
23
-20
33
0
14
-2
24
20
34
0
50
90
100
AcDbRotatedDimension
1001
ACAD
1000
DSTYLE
1002
{
1070
    74
1070
     0
1070
   279
1070
     0
1070
   172
1070
     1
1070
   173
1070
     1
1070
   340
1005
1ED
1070
    77
1070
     1
1070
    73
1070
     0
1070
   171
1070
     3
1070
   274
1070
     4
1070
   177
1070
     2
1070
   176
1070
     2
1070
   178
1070
     7
1070
    78
1070
     8
1070
    41
1041
3.175
1070
   147
1041
2.25
1070
    42
1041
2.0
1070
    44
1041
2.0
1070
   140
1041
4.5
1070
   343
1005
20C
1070
   344
1005
20C
1002
}
0
DIMENSION
5
22F
100
AcDbEntity
8
2
62
256
6
ByLayer
370
13
48
1
60
0
100
AcDbDimension
2
DimnDraft3D4
10
72.25
20
27
30
0
11
72.25
21
8.218421
31
0
70
32
71
5
72
1
41
1
210
0
220
0
230
1
3
Standard
100
AcDbAlignedDimension
13
52
23
0
33
0
14
52
24
27
34
0
50
90
100
AcDbRotatedDimension
1001
ACAD
1000
DSTYLE
1002
{
1070
    74
1070
     0
1070
   279
1070
     0
1070
   172
1070
     1
1070
   173
1070
     1
1070
   340
1005
1ED
1070
    77
1070
     1
1070
    73
1070
     0
1070
   171
1070
     3
1070
   274
1070
     4
1070
   177
1070
     2
1070
   176
1070
     2
1070
   178
1070
     7
1070
    78
1070
     8
1070
    41
1041
3.175
1070
   147
1041
2.25
1070
    42
1041
2.0
1070
    44
1041
2.0
1070
   140
1041
4.5
1070
   343
1005
20C
1070
   344
1005
20C
1002
}
0
ENDSEC
0
SECTION
2
OBJECTS
0
DICTIONARY
5
29a
330
0
100
AcDbDictionary
280
0
281
1
3
ACAD_GROUP
350
29b
3
ACAD_MLINESTYLE
350
29c
0
DICTIONARY
5
29b
330
0
100
AcDbDictionary
280
0
281
1
0
DICTIONARY
5
29c
330
0
100
AcDbDictionary
280
0
281
1
3
Standard
350
18
0
MLINESTYLE
5
18
330
29c
100
AcDbMlineStyle
2
Standard
70
0
3

62
256
51
90
52
90
71
2
49
-0.5
62
256
6
ByLayer
49
0.5
62
256
6
ByLayer
0
RASTERVARIABLES
5
288
330

100
AcDbRasterVariables
90
0
70
1
71
1
72
1
0
ENDSEC
0
EOF
