0
SECTION
2
HEADER
9
$ACADVER
1
AC1015
9
$DWGCODEPAGE
3
ANSI_1252
9
$HANDSEED
5
2a9
9
$ANGBASE
50
0
9
$ANGDIR
70
0
9
$ATTMODE
70
1
9
$AUNITS
70
0
9
$AUPREC
70
0
9
$CECOLOR
62
256
9
$CELTSCALE
40
1
9
$CELTYPE
6
ByLayer
9
$CELWEIGHT
370
18
9
$CLAYER
8
0
9
$CMLJUST
70
0
9
$CMLSCALE
40
1
9
$CMLSTYLE
2
Standard
9
$DIMSTYLE
2
Standard
9
$TEXTSIZE
40
0.2
9
$TEXTSTYLE
7
Standard
9
$LUNITS
70
2
9
$LUPREC
70
4
9
$EXTNAMES
290
1
9
$INSUNITS
70
4
9
$LTSCALE
40
1
9
$LWDISPLAY
290
1
9
$PDMODE
70
0
9
$PDSIZE
40
0
9
$PLINEGEN
70
0
0
ENDSEC
0
SECTION
2
CLASSES
0
CLASS
1
RASTERVARIABLES
2
AcDbRasterVariables
3
ISM
90
0
280
0
281
0
0
ENDSEC
0
SECTION
2
TABLES
0
TABLE
2
VPORT
5
29f
100
AcDbSymbolTable
0
VPORT
5
1
100
AcDbSymbolTableRecord
100
AcDbViewportTableRecord
2
*Active
70
0
10
0
20
0
11
1
21
1
12
-1
22
1
13
0
23
0
14
0.5
24
0.5
15
10
25
10
16
0
26
0
36
1
17
0
27
0
37
0
0
ENDTAB
0
TABLE
2
LTYPE
5
2a0
100
AcDbSymbolTable
0
LTYPE
5
14
100
AcDbSymbolTableRecord
100
AcDbLinetypeTableRecord
70
0
2
ByBlock
3

72
65
73
0
40
0
0
LTYPE
5
15
100
AcDbSymbolTableRecord
100
AcDbLinetypeTableRecord
70
0
2
ByLayer
3

72
65
73
0
40
0
0
LTYPE
5
16
100
AcDbSymbolTableRecord
100
AcDbLinetypeTableRecord
70
0
2
CONTINUOUS
3
Solid line
72
65
73
0
40
0
0
LTYPE
5
6A
100
AcDbSymbolTableRecord
100
AcDbLinetypeTableRecord
70
0
2
CENTER
3
____ _ ____ _ ____ _ ____
72
65
73
4
40
47.5
49
22
74
0
49
-8.5
74
0
49
8.5
74
0
49
-8.5
74
0
0
LTYPE
5
6B
100
AcDbSymbolTableRecord
100
AcDbLinetypeTableRecord
70
0
2
DASHED
3
__ __ __ __ __ __ __ __ __
72
65
73
2
40
25.72
49
12.86
74
0
49
-12.86
74
0
0
ENDTAB
0
TABLE
2
LAYER
5
2a1
100
AcDbSymbolTable
0
LAYER
5
10
100
AcDbSymbolTableRecord
100
AcDbLayerTableRecord
2
0
70
0
62
7
6
CONTINUOUS
290
1
370
-3
390
0
0
LAYER
5
6D
100
AcDbSymbolTableRecord
100
AcDbLayerTableRecord
2
2
70
0
62
7
6
CONTINUOUS
290
1
370
-3
390
0
0
LAYER
5
6F
100
AcDbSymbolTableRecord
100
AcDbLayerTableRecord
2
80
70
0
62
-6
6
CONTINUOUS
290
1
370
-3
390
0
0
LAYER
5
71
100
AcDbSymbolTableRecord
100
AcDbLayerTableRecord
2
81
70
0
62
-3
6
CONTINUOUS
290
1
370
-3
390
0
0
LAYER
5
73
100
AcDbSymbolTableRecord
100
AcDbLayerTableRecord
2
1
70
0
62
4
6
CONTINUOUS
290
1
370
-3
390
0
0
LAYER
5
8B
100
AcDbSymbolTableRecord
100
AcDbLayerTableRecord
2
4
70
0
62
-2
6
CENTER
290
1
370
-3
390
0
0
LAYER
5
28b
100
AcDbSymbolTableRecord
100
AcDbLayerTableRecord
2
SK4
70
0
62
2
6
CENTER
290
1
370
-3
390
0
0
LAYER
5
28c
100
AcDbSymbolTableRecord
100
AcDbLayerTableRecord
2
SK1
70
0
62
4
6
CONTINUOUS
290
1
370
-3
390
0
0
LAYER
5
28d
100
AcDbSymbolTableRecord
100
AcDbLayerTableRecord
2
SK6
70
0
62
5
6
CONTINUOUS
290
1
370
-3
390
0
0
LAYER
5
28e
100
AcDbSymbolTableRecord
100
AcDbLayerTableRecord
2
SK2
70
0
62
7
6
CONTINUOUS
290
1
370
-3
390
0
0
ENDTAB
0
TABLE
2
STYLE
5
2a2
100
AcDbSymbolTable
0
STYLE
5
11
100
AcDbSymbolTableRecord
100
AcDbTextStyleTableRecord
2
Standard
3
txt
70
0
71
0
40
0
41
1
42
0
50
0
0
STYLE
5
1EF
100
AcDbSymbolTableRecord
100
AcDbTextStyleTableRecord
2
iso_b_vert
3
simplex.shx
70
0
71
0
40
0
41
1
42
0
50
0
0
STYLE
5
1F0
100
AcDbSymbolTableRecord
100
AcDbTextStyleTableRecord
2
DWGDirectTextStyle
3
simplex
70
0
71
0
40
0
41
1
42
0
50
0
0
ENDTAB
0
TABLE
2
DIMSTYLE
5
2a3
100
AcDbSymbolTable
100
AcDbDimStyleTable
0
DIMSTYLE
105
27
100
AcDbSymbolTableRecord
100
AcDbDimStyleTableRecord
2
Standard
70
0
3
<>
41
0.18
42
0.0625
44
0.18
140
0.18
147
0.09
73
0
74
0
77
1
271
2
275
0
278
52
280
0
340
11
0
ENDTAB
0
TABLE
2
VIEW
5
2a4
100
AcDbSymbolTable
0
ENDTAB
0
TABLE
2
UCS
5
2a5
100
AcDbSymbolTable
0
ENDTAB
0
TABLE
2
APPID
5
2a6
100
AcDbSymbolTable
0
APPID
5
12
100
AcDbSymbolTableRecord
100
AcDbRegAppTableRecord
2
ACAD
70
0
0
ENDTAB
0
TABLE
2
BLOCK_RECORD
5
2a7
100
AcDbSymbolTable
0
BLOCK_RECORD
5
1F
100
AcDbSymbolTableRecord
100
AcDbBlockTableRecord
2
*Model_Space
340
0
70
0
0
BLOCK_RECORD
5
1B
100
AcDbSymbolTableRecord
100
AcDbBlockTableRecord
2
*Paper_Space
340
0
70
0
0
BLOCK_RECORD
5
23
100
AcDbSymbolTableRecord
100
AcDbBlockTableRecord
2
*Paper_Space0
340
0
70
0
0
BLOCK_RECORD
5
1F2
100
AcDbSymbolTableRecord
100
AcDbBlockTableRecord
2
DimnDraft3D11
340
0
70
0
0
BLOCK_RECORD
5
200
100
AcDbSymbolTableRecord
100
AcDbBlockTableRecord
2
DimnDraft3D2
340
0
70
0
0
BLOCK_RECORD
5
20E
100
AcDbSymbolTableRecord
100
AcDbBlockTableRecord
2
_CLOSED
340
0
70
0
0
BLOCK_RECORD
5
215
100
AcDbSymbolTableRecord
100
AcDbBlockTableRecord
2
DimnDraft3D3
340
0
70
0
0
BLOCK_RECORD
5
224
100
AcDbSymbolTableRecord
100
AcDbBlockTableRecord
2
DimnDraft3D4
340
0
70
0
0
ENDTAB
0
ENDSEC
0
SECTION
2
BLOCKS
0
BLOCK
5
20
100
AcDbEntity
8
0
100
AcDbBlockBegin
2
*Model_Space
70
0
10
0
20
0
30
0
3
*Model_Space
0
ENDBLK
5
21
100
AcDbEntity
8
0
100
AcDbBlockEnd
0
BLOCK
5
1C
100
AcDbEntity
8
0
100
AcDbBlockBegin
2
*Paper_Space
70
0
10
0
20
0
30
0
3
*Paper_Space
0
ENDBLK
5
1D
100
AcDbEntity
8
0
100
AcDbBlockEnd
0
BLOCK
5
24
100
AcDbEntity
8
0
100
AcDbBlockBegin
2
*Paper_Space0
70
0
10
0
20
0
30
0
3
*Paper_Space0
0
ENDBLK
5
25
100
AcDbEntity
8
0
100
AcDbBlockEnd
0
BLOCK
5
1F3
100
AcDbEntity
8
0
100
AcDbBlockBegin
2
DimnDraft3D11
70
0
10
0
20
0
30
0
3
DimnDraft3D11
0
LINE
5
1F5
100
AcDbEntity
8
2
62
256
6
ByLayer
370
25
48
1
60
0
100
AcDbLine
10
50
20
2.4817
30
0
11
50
21
33.2317
31
0
39
0
210
0
220
0
230
1
0
LINE
5
1F6
100
AcDbEntity
8
2
62
256
6
ByLayer
370
25
48
1
60
0
100
AcDbLine
10
0
20
22
30
0
11
0
21
33.2317
31
0
39
0
210
0
220
0
230
1
0
LINE
5
1F7
100
AcDbEntity
8
2
62
256
6
ByLayer
370
25
48
1
60
0
100
AcDbLine
10
50
20
31.2317
30
0
11
0
21
31.2317
31
0
39
0
210
0
220
0
230
1
0
LINE
5
1F8
100
AcDbEntity
8
2
62
256
6
ByLayer
370
25
48
1
60
0
100
AcDbLine
10
50
20
31.2317
30
0
11
46.825002
21
30.813703
31
0
39
0
210
0
220
0
230
1
0
LINE
5
1F9
100
AcDbEntity
8
2
62
256
6
ByLayer
370
25
48
1
60
0
100
AcDbLine
10
50
20
31.2317
30
0
11
46.824998
21
31.649697
31
0
39
0
210
0
220
0
230
1
0
LINE
5
1FA
100
AcDbEntity
8
2
62
256
6
ByLayer
370
25
48
1
60
0
100
AcDbLine
10
46.825002
20
30.813703
30
0
11
46.824998
21
31.649697
31
0
39
0
210
0
220
0
230
1
0
LINE
5
1FB
100
AcDbEntity
8
2
62
256
6
ByLayer
370
25
48
1
60
0
100
AcDbLine
10
0
20
31.2317
30
0
11
3.174998
21
31.649697
31
0
39
0
210
0
220
0
230
1
0
LINE
5
1FC
100
AcDbEntity
8
2
62
256
6
ByLayer
370
25
48
1
60
0
100
AcDbLine
10
0
20
31.2317
30
0
11
3.175002
21
30.813703
31
0
39
0
210
0
220
0
230
1
0
LINE
5
1FD
100
AcDbEntity
8
2
62
256
6
ByLayer
370
25
48
1
60
0
100
AcDbLine
10
3.174998
20
31.649697
30
0
11
3.175002
21
30.813703
31
0
39
0
210
0
220
0
230
1
0
MTEXT
5
1FE
100
AcDbEntity
8
2
62
256
6
ByLayer
370
18
48
1
60
0
100
AcDbMText
10
20.843421
20
32.3567
30
0
210
0
220
0
230
1
1
\W0.7346;50.0
40
4.5
41
0
44
1.084337
50
0
71
7
72
5
7
iso_b_vert
0
ENDBLK
5
1F4
100
AcDbEntity
8
0
100
AcDbBlockEnd
0
BLOCK
5
20B
100
AcDbEntity
8
0
100
AcDbBlockBegin
2
DimnDraft3D2
70
0
10
0
20
0
30
0
3
DimnDraft3D2
0
MTEXT
5
201
100
AcDbEntity
8
2
62
256
6
ByLayer
370
18
48
1
60
0
100
AcDbMText
10
32.543953
20
15.743255
30
0
210
0
220
0
230
1
1
\W0.7645;62%%d30'
40
4.5
41
0
44
1.084337
50
31.069587815
71
7
72
5
7
iso_b_vert
0
LINE
5
202
100
AcDbEntity
8
2
62
256
6
ByLayer
370
13
48
1
60
0
100
AcDbLine
10
50
20
2.4817
30
0
11
50
21
23.437544
31
0
39
0
210
0
220
0
230
1
0
LINE
5
203
100
AcDbEntity
8
2
62
256
6
ByLayer
370
13
48
1
60
0
100
AcDbLine
10
41.307466
20
5.076553
30
0
11
29.705074
21
11.20955
31
0
39
0
210
0
220
0
230
1
0
ARC
5
204
100
AcDbEntity
8
2
62
256
6
ByLayer
370
13
48
1
60
0
100
AcDbCircle
39
0
10
50
20
0.4817
30
0
40
20.9558441220057
210
0
220
0
230
1
100
AcDbArc
50
90
51
152.139176
0
LINE
5
205
100
AcDbEntity
8
2
62
256
6
ByLayer
370
13
48
1
60
0
100
AcDbLine
10
50
20
21.437544
30
0
11
46.843069
21
20.899844
31
0
39
0
210
0
220
0
230
1
0
LINE
5
206
100
AcDbEntity
8
2
62
256
6
ByLayer
370
13
48
1
60
0
100
AcDbLine
10
50
20
21.437544
30
0
11
46.811468
21
21.73524
31
0
39
0
210
0
220
0
230
1
0
LINE
5
207
100
AcDbEntity
8
2
62
256
6
ByLayer
370
13
48
1
60
0
100
AcDbLine
10
46.843069
20
20.899844
30
0
11
46.811468
21
21.73524
31
0
39
0
210
0
220
0
230
1
0
LINE
5
208
100
AcDbEntity
8
2
62
256
6
ByLayer
370
13
48
1
60
0
100
AcDbLine
10
31.473245
20
10.274899
30
0
11
32.700137
21
13.232951
31
0
39
0
210
0
220
0
230
1
0
LINE
5
209
100
AcDbEntity
8
2
62
256
6
ByLayer
370
13
48
1
60
0
100
AcDbLine
10
31.473245
20
10.274899
30
0
11
33.423934
21
12.814617
31
0
39
0
210
0
220
0
230
1
0
LINE
5
20A
100
AcDbEntity
8
2
62
256
6
ByLayer
370
13
48
1
60
0
100
AcDbLine
10
32.700137
20
13.232951
30
0
11
33.423934
21
12.814617
31
0
39
0
210
0
220
0
230
1
0
ENDBLK
5
20C
100
AcDbEntity
8
0
100
AcDbBlockEnd
0
BLOCK
5
20F
100
AcDbEntity
8
0
100
AcDbBlockBegin
2
_CLOSED
70
0
10
0
20
0
30
0
3
_CLOSED
0
LINE
5
211
100
AcDbEntity
8
0
62
256
6
ByLayer
370
-2
48
1
60
0
100
AcDbLine
10
-1
20
0.166667
30
0
11
0
21
0
31
0
39
0
210
0
220
0
230
1
0
LINE
5
212
100
AcDbEntity
8
0
62
256
6
ByLayer
370
-2
48
1
60
0
100
AcDbLine
10
0
20
0
30
0
11
-1
21
-0.166667
31
0
39
0
210
0
220
0
230
1
0
LINE
5
213
100
AcDbEntity
8
0
62
256
6
ByLayer
370
-2
48
1
60
0
100
AcDbLine
10
-1
20
0.166667
30
0
11
-1
21
-0.166667
31
0
39
0
210
0
220
0
230
1
0
LINE
5
214
100
AcDbEntity
8
0
62
256
6
ByLayer
370
-2
48
1
60
0
100
AcDbLine
10
0
20
0
30
0
11
-1
21
0
31
0
39
0
210
0
220
0
230
1
0
ENDBLK
5
210
100
AcDbEntity
8
0
100
AcDbBlockEnd
0
BLOCK
5
221
100
AcDbEntity
8
0
100
AcDbBlockBegin
2
DimnDraft3D3
70
0
10
0
20
0
30
0
3
DimnDraft3D3
0
MTEXT
5
216
100
AcDbEntity
8
SK2
62
256
6
ByLayer
370
18
48
1
60
0
100
AcDbMText
10
-32.875
20
-1.8
30
0
210
0
220
0
230
1
1
\W0.7361;40
40
4.5
41
0
44
1.084337
50
90
71
7
72
5
7
iso_b_vert
0
LINE
5
218
100
AcDbEntity
8
SK2
62
256
6
ByLayer
370
13
48
1
60
0
100
AcDbLine
10
-2
20
-20
30
0
11
-33.75
21
-20
31
0
39
0
210
0
220
0
230
1
0
LINE
5
219
100
AcDbEntity
8
SK2
62
256
6
ByLayer
370
13
48
1
60
0
100
AcDbLine
10
-2
20
20
30
0
11
-33.75
21
20
31
0
39
0
210
0
220
0
230
1
0
LINE
5
21A
100
AcDbEntity
8
SK2
62
256
6
ByLayer
370
13
48
1
60
0
100
AcDbLine
10
-31.75
20
-20
30
0
11
-31.75
21
20
31
0
39
0
210
0
220
0
230
1
0
LINE
5
21B
100
AcDbEntity
8
SK2
62
256
6
ByLayer
370
13
48
1
60
0
100
AcDbLine
10
-31.75
20
-20
30
0
11
-32.167997
21
-16.825002
31
0
39
0
210
0
220
0
230
1
0
LINE
5
21C
100
AcDbEntity
8
SK2
62
256
6
ByLayer
370
13
48
1
60
0
100
AcDbLine
10
-31.75
20
-20
30
0
11
-31.332003
21
-16.824998
31
0
39
0
210
0
220
0
230
1
0
LINE
5
21D
100
AcDbEntity
8
SK2
62
256
6
ByLayer
370
13
48
1
60
0
100
AcDbLine
10
-32.167997
20
-16.825002
30
0
11
-31.332003
21
-16.824998
31
0
39
0
210
0
220
0
230
1
0
LINE
5
21E
100
AcDbEntity
8
SK2
62
256
6
ByLayer
370
13
48
1
60
0
100
AcDbLine
10
-31.75
20
20
30
0
11
-31.332003
21
16.825002
31
0
39
0
210
0
220
0
230
1
0
LINE
5
21F
100
AcDbEntity
8
SK2
62
256
6
ByLayer
370
13
48
1
60
0
100
AcDbLine
10
-31.75
20
20
30
0
11
-32.167997
21
16.824998
31
0
39
0
210
0
220
0
230
1
0
LINE
5
220
100
AcDbEntity
8
SK2
62
256
6
ByLayer
370
13
48
1
60
0
100
AcDbLine
10
-31.332003
20
16.825002
30
0
11
-32.167997
21
16.824998
31
0
39
0
210
0
220
0
230
1
0
ENDBLK
5
222
100
AcDbEntity
8
0
100
AcDbBlockEnd
0
BLOCK
5
22F
100
AcDbEntity
8
0
100
AcDbBlockBegin
2
DimnDraft3D4
70
0
10
0
20
0
30
0
3
DimnDraft3D4
0
MTEXT
5
225
100
AcDbEntity
8
2
62
256
6
ByLayer
370
18
48
1
60
0
100
AcDbMText
10
71.125
20
11.8617
30
0
210
0
220
0
230
1
1
\W0.7121;0.5
40
4.5
41
0
44
1.084337
50
90
71
7
72
5
7
iso_b_vert
0
LINE
5
226
100
AcDbEntity
8
2
62
256
6
ByLayer
370
13
48
1
60
0
100
AcDbLine
10
52
20
0
30
0
11
74.25
21
0
31
0
39
0
210
0
220
0
230
1
0
LINE
5
227
100
AcDbEntity
8
2
62
256
6
ByLayer
370
13
48
1
60
0
100
AcDbLine
10
52
20
0.4817
30
0
11
74.25
21
0.4817
31
0
39
0
210
0
220
0
230
1
0
LINE
5
228
100
AcDbEntity
8
2
62
256
6
ByLayer
370
13
48
1
60
0
100
AcDbLine
10
72.25
20
17.9367
30
0
11
72.25
21
-11.25
31
0
39
0
210
0
220
0
230
1
0
LINE
5
229
100
AcDbEntity
8
2
62
256
6
ByLayer
370
13
48
1
60
0
100
AcDbLine
10
72.25
20
0
30
0
11
72.667997
21
-3.174998
31
0
39
0
210
0
220
0
230
1
0
LINE
5
22A
100
AcDbEntity
8
2
62
256
6
ByLayer
370
13
48
1
60
0
100
AcDbLine
10
72.25
20
0
30
0
11
71.832003
21
-3.175002
31
0
39
0
210
0
220
0
230
1
0
LINE
5
22B
100
AcDbEntity
8
2
62
256
6
ByLayer
370
13
48
1
60
0
100
AcDbLine
10
72.667997
20
-3.174998
30
0
11
71.832003
21
-3.175002
31
0
39
0
210
0
220
0
230
1
0
LINE
5
22C
100
AcDbEntity
8
2
62
256
6
ByLayer
370
13
48
1
60
0
100
AcDbLine
10
72.25
20
0.4817
30
0
11
71.832003
21
3.656698
31
0
39
0
210
0
220
0
230
1
0
LINE
5
22D
100
AcDbEntity
8
2
62
256
6
ByLayer
370
13
48
1
60
0
100
AcDbLine
10
72.25
20
0.4817
30
0
11
72.667997
21
3.656702
31
0
39
0
210
0
220
0
230
1
0
LINE
5
22E
100
AcDbEntity
8
2
62
256
6
ByLayer
370
13
48
1
60
0
100
AcDbLine
10
71.832003
20
3.656698
30
0
11
72.667997
21
3.656702
31
0
39
0
210
0
220
0
230
1
0
ENDBLK
5
230
100
AcDbEntity
8
0
100
AcDbBlockEnd
0
ENDSEC
0
SECTION
2
ENTITIES
0
ARC
5
109
100
AcDbEntity
8
1
62
256
6
ByLayer
370
18
48
1
60
0
100
AcDbCircle
39
0
10
-16.197041
20
-8.803425
30
0
40
0.25
210
0
220
0
230
-1
100
AcDbArc
50
94.974861
51
130
0
ARC
5
10A
100
AcDbEntity
8
1
62
256
6
ByLayer
370
18
48
1
60
0
100
AcDbCircle
39
0
10
-16.77008
20
-5.553559
30
0
40
0.25
210
0
220
0
230
-1
100
AcDbArc
50
250
51
341.872932
0
ARC
5
10B
100
AcDbEntity
8
SK1
62
256
6
ByLayer
370
18
48
1
60
0
100
AcDbCircle
39
0
10
0.6
20
-15
30
0
40
0.999999999999989
210
0
220
0
230
-1
100
AcDbArc
50
113.578178
51
126.869898
0
ARC
5
10C
100
AcDbEntity
8
SK1
62
256
6
ByLayer
370
18
48
1
60
0
100
AcDbCircle
39
0
10
0.6
20
15
30
0
40
0.999999999999989
210
0
220
0
230
-1
100
AcDbArc
50
233.130102
51
246.421822
0
ARC
5
10D
100
AcDbEntity
8
1
62
256
6
ByLayer
370
18
48
1
60
0
100
AcDbCircle
39
0
10
13.443789
20
-6.642498
30
0
40
3.25
210
0
220
0
230
1
100
AcDbArc
50
18.127068
51
29.823393
0
ELLIPSE
5
10E
100
AcDbEntity
8
1
62
256
6
ByLayer
370
18
48
1
60
0
100
AcDbEllipse
10
16.612421
20
-7.201214
30
0
11
-0.00602518911768116
21
4.56994701461113
31
0
210
0
220
0
230
1
40
0.086139
41
-1.2458761970618
42
1.55549167893951
0
ELLIPSE
5
10F
100
AcDbEntity
8
1
62
256
6
ByLayer
370
18
48
1
60
0
100
AcDbEllipse
10
39.927277
20
4.1E-05
30
0
11
1.16643755201581E-16
21
1.905
31
0
210
0
220
0
230
1
40
0.984808
41
1.57079649927685
42
-2.93198914595409
0
ELLIPSE
5
110
100
AcDbEntity
8
1
62
256
6
ByLayer
370
18
48
1
60
0
100
AcDbEllipse
10
39.927277
20
4.1E-05
30
0
11
1.16643755201581E-16
21
1.905
31
0
210
0
220
0
230
1
40
0.984808
41
-2.93198967862804
42
-2.65052253472914
0
ELLIPSE
5
111
100
AcDbEntity
8
1
62
256
6
ByLayer
370
18
48
1
60
0
100
AcDbEllipse
10
31.534652
20
-1.59518
30
0
11
-3.37098916312685E-16
21
-1.83514163693225
31
0
210
0
220
0
230
1
40
0.984808
41
-1.31212278828703
42
-1.09083078249592
0
ELLIPSE
5
112
100
AcDbEntity
8
1
62
256
6
ByLayer
370
18
48
1
60
0
100
AcDbEllipse
10
30.317695
20
-1.987676
30
0
11
-3.48692195176616E-16
21
-1.89825459197964
31
0
210
0
220
0
230
1
40
0.984808
41
0.447715014885839
42
0.479965544300046
0
ELLIPSE
5
113
100
AcDbEntity
8
1
62
256
6
ByLayer
370
18
48
1
60
0
100
AcDbEllipse
10
30.291648
20
-1.987676
30
0
11
-3.21138552215612E-16
21
-1.74825459197964
31
0
210
0
220
0
230
1
40
0.984808
41
0.375335898942746
42
0.479965544300041
0
ELLIPSE
5
114
100
AcDbEntity
8
1
62
256
6
ByLayer
370
18
48
1
60
0
100
AcDbEllipse
10
28.00867
20
10.035656
30
0
11
-0.0874371315969258
21
-2.99872552062007
31
0
210
0
220
0
230
1
40
0.981784
41
-0.29422094963722
42
-0.103253856402811
0
ELLIPSE
5
115
100
AcDbEntity
8
1
62
256
6
ByLayer
370
18
48
1
60
0
100
AcDbEllipse
10
31.31159
20
3.424654
30
0
11
0.0976381302832402
21
3.34857683135908
31
0
210
0
220
0
230
1
40
0.981784
41
3.03846880500977
42
-0.294220949637214
0
ELLIPSE
5
116
100
AcDbEntity
8
1
62
256
6
ByLayer
370
18
48
1
60
0
100
AcDbEllipse
10
30.177292
20
4.361696
30
0
11
1.77567921304245E-17
21
0.29
31
0
210
0
220
0
230
1
40
0.984808
41
-0.715642636223824
42
-0.422883154893859
0
ELLIPSE
5
117
100
AcDbEntity
8
1
62
256
6
ByLayer
370
18
48
1
60
0
100
AcDbEllipse
10
30.673508
20
3.642698
30
0
11
-5.87811049834741E-16
21
-3.2
31
0
210
0
220
0
230
1
40
0.984808
41
-3.14150537188134
42
-2.81837430398909E-16
0
ELLIPSE
5
118
100
AcDbEntity
8
1
62
256
6
ByLayer
370
18
48
1
60
0
100
AcDbEllipse
10
30.742967
20
3.642698
30
0
11
-1.65321857766021E-16
21
-0.9
31
0
210
0
220
0
230
1
40
0.984808
41
0.0342522838734598
42
2.97861186410942
0
ELLIPSE
5
119
100
AcDbEntity
8
1
62
256
6
ByLayer
370
18
48
1
60
0
100
AcDbEllipse
10
30.803744
20
3.642698
30
0
11
-1.65321857766021E-16
21
-0.9
31
0
210
0
220
0
230
1
40
0.984808
41
2.38859999146769
42
3.01323567210774
0
ELLIPSE
5
11A
100
AcDbEntity
8
1
62
256
6
ByLayer
370
18
48
1
60
0
100
AcDbEllipse
10
30.803744
20
3.642698
30
0
11
-1.65321857766021E-16
21
-0.9
31
0
210
0
220
0
230
1
40
0.984808
41
-0.396326372913574
42
0.107220838887418
0
ELLIPSE
5
11B
100
AcDbEntity
8
1
62
256
6
ByLayer
370
18
48
1
60
0
100
AcDbEllipse
10
30.803744
20
3.642698
30
0
11
-1.65321857766021E-16
21
-0.9
31
0
210
0
220
0
230
1
40
0.984808
41
-1.59453242407473
42
-1.00837763207453
0
ELLIPSE
5
11C
100
AcDbEntity
8
1
62
256
6
ByLayer
370
18
48
1
60
0
100
AcDbEllipse
10
30.803744
20
3.642698
30
0
11
-1.65321857766021E-16
21
-0.9
31
0
210
0
220
0
230
1
40
0.984808
41
-2.84738776451528
42
-2.30979458598398
0
ELLIPSE
5
11D
100
AcDbEntity
8
1
62
256
6
ByLayer
370
18
48
1
60
0
100
AcDbEllipse
10
30.503759
20
2.732307
30
0
11
1.77567921304245E-17
21
0.29
31
0
210
0
220
0
230
1
40
0.984808
41
-2.71871634513698
42
-2.02452428940411
0
ELLIPSE
5
11E
100
AcDbEntity
8
1
62
256
6
ByLayer
370
18
48
1
60
0
100
AcDbEllipse
10
31.103728
20
4.553089
30
0
11
1.77567921304245E-17
21
0.29
31
0
210
0
220
0
230
1
40
0.984808
41
-1.76284018742043
42
-0.422872206721253
0
ELLIPSE
5
11F
100
AcDbEntity
8
1
62
256
6
ByLayer
370
18
48
1
60
0
100
AcDbEllipse
10
31.430195
20
2.923701
30
0
11
1.77567921304245E-17
21
0.29
31
0
210
0
220
0
230
1
40
0.984808
41
-2.71868058541545
42
-0.977326738207501
0
ELLIPSE
5
120
100
AcDbEntity
8
1
62
256
6
ByLayer
370
18
48
1
60
0
100
AcDbEllipse
10
31.688584
20
4.437615
30
0
11
-5.78626502181073E-17
21
-0.315
31
0
210
0
220
0
230
1
40
0.984808
41
-0.576485033401911
42
-5.53146720551904E-06
0
ELLIPSE
5
121
100
AcDbEntity
8
1
62
256
6
ByLayer
370
18
48
1
60
0
100
AcDbEllipse
10
31.73018
20
3.834091
30
0
11
1.77567921304245E-17
21
0.29
31
0
210
0
220
0
230
1
40
0.984808
41
-2.81003773861702
42
-0.100944396600981
0
ELLIPSE
5
122
100
AcDbEntity
8
1
62
256
6
ByLayer
370
18
48
1
60
0
100
AcDbEllipse
10
39.927277
20
4.016339
30
0
11
6.12303176911189E-17
21
1
31
0
210
0
220
0
230
1
40
0.984808
41
-0.479965544296824
42
0.0322172223397461
0
ELLIPSE
5
123
100
AcDbEntity
8
1
62
256
6
ByLayer
370
18
48
1
60
0
100
AcDbEllipse
10
39.927277
20
-4.016258
30
0
11
6.12303176911189E-17
21
1
31
0
210
0
220
0
230
1
40
0.984808
41
3.11346957334873
42
-2.66162710928975
0
ELLIPSE
5
124
100
AcDbEntity
8
1
62
256
6
ByLayer
370
18
48
1
60
0
100
AcDbEllipse
10
40.753842
20
4.1E-05
30
0
11
-3.49931265604744E-16
21
-1.905
31
0
210
0
220
0
230
1
40
0.984808
41
-0.227078368194607
42
-2.48698357948431E-16
0
ELLIPSE
5
125
100
AcDbEntity
8
1
62
256
6
ByLayer
370
18
48
1
60
0
100
AcDbEllipse
10
40.753842
20
4.1E-05
30
0
11
-3.49931265604744E-16
21
-1.905
31
0
210
0
220
0
230
1
40
0.984808
41
0
42
2.71639752372619
0
ELLIPSE
5
126
100
AcDbEntity
8
1
62
256
6
ByLayer
370
18
48
1
60
0
100
AcDbEllipse
10
49.217776
20
4.1E-05
30
0
11
4.86168722467484E-17
21
0.794
31
0
210
0
220
0
230
1
40
0.984808
41
-2.66162710928978
42
-0.479965544296869
0
ELLIPSE
5
127
100
AcDbEntity
8
1
62
256
6
ByLayer
370
18
48
1
60
0
100
AcDbEllipse
10
39.797509
20
-3.968459
30
0
11
4.86168722467484E-17
21
0.794
31
0
210
0
220
0
230
1
40
0.984808
41
2.66162710929291
42
-3.14159265358823
0
ELLIPSE
5
128
100
AcDbEntity
8
1
62
256
6
ByLayer
370
18
48
1
60
0
100
AcDbEllipse
10
41.710175
20
-3.968459
30
0
11
4.86168722467484E-17
21
0.794
31
0
210
0
220
0
230
1
40
0.984808
41
-3.14159265358822
42
-2.66162710928978
0
ELLIPSE
5
129
100
AcDbEntity
8
1
62
256
6
ByLayer
370
18
48
1
60
0
100
AcDbEllipse
10
41.710175
20
3.968541
30
0
11
4.86168722467484E-17
21
0.794
31
0
210
0
220
0
230
1
40
0.984808
41
-0.479965544296875
42
1.57204233217972E-12
0
ELLIPSE
5
12A
100
AcDbEntity
8
1
62
256
6
ByLayer
370
18
48
1
60
0
100
AcDbEllipse
10
39.797509
20
3.968541
30
0
11
4.86168722467484E-17
21
0.794
31
0
210
0
220
0
230
1
40
0.984808
41
0
42
0.47996554430001
0
ELLIPSE
5
12B
100
AcDbEntity
8
1
62
256
6
ByLayer
370
18
48
1
60
0
100
AcDbEllipse
10
29.917789
20
4.023355
30
0
11
-5.78626502181073E-17
21
-0.315
31
0
210
0
220
0
230
1
40
0.984808
41
1.69106564761703
42
2.16426591538229
0
ELLIPSE
5
12C
100
AcDbEntity
8
1
62
256
6
ByLayer
370
18
48
1
60
0
100
AcDbEllipse
10
32.158549
20
3.262041
30
0
11
-5.78626502181073E-17
21
-0.315
31
0
210
0
220
0
230
1
40
0.984808
41
-1.45052700597276
42
-0.977326738207494
0
ELLIPSE
5
12D
100
AcDbEntity
8
1
62
256
6
ByLayer
370
18
48
1
60
0
100
AcDbEllipse
10
31.924123
20
3.262041
30
0
11
-5.78626502181073E-17
21
-0.315
31
0
210
0
220
0
230
1
40
0.984808
41
-2.81003773861701
42
-2.163681892226
0
ELLIPSE
5
12E
100
AcDbEntity
8
1
62
256
6
ByLayer
370
18
48
1
60
0
100
AcDbEllipse
10
30.738184
20
2.732307
30
0
11
1.77567921304245E-17
21
0.29
31
0
210
0
220
0
230
1
40
0.984808
41
1.37875246616935
42
-2.02452428940411
0
ELLIPSE
5
12F
100
AcDbEntity
8
1
62
256
6
ByLayer
370
18
48
1
60
0
100
AcDbEllipse
10
31.038169
20
3.642698
30
0
11
-1.69914131592855E-16
21
-0.925
31
0
210
0
220
0
230
1
40
0.984808
41
0.0541678331927896
42
0.34725789476914
0
ELLIPSE
5
130
100
AcDbEntity
8
1
62
256
6
ByLayer
370
18
48
1
60
0
100
AcDbEllipse
10
31.273708
20
2.467124
30
0
11
-5.78626502181073E-17
21
-0.315
31
0
210
0
220
0
230
1
40
0.984808
41
-2.49772455716931
42
-2.0245242894041
0
ELLIPSE
5
131
100
AcDbEntity
8
1
62
256
6
ByLayer
370
18
48
1
60
0
100
AcDbEllipse
10
30.153329
20
2.847781
30
0
11
-5.78626502181073E-17
21
-0.315
31
0
210
0
220
0
230
1
40
0.984808
41
1.37875246616934
42
1.8519527339346
0
ELLIPSE
5
132
100
AcDbEntity
8
1
62
256
6
ByLayer
370
18
48
1
60
0
100
AcDbEllipse
10
31.923009
20
4.437615
30
0
11
-5.78626502181073E-17
21
-0.315
31
0
210
0
220
0
230
1
40
0.984808
41
-1.76284018742043
42
-1.28963991965521
0
ELLIPSE
5
133
100
AcDbEntity
8
1
62
256
6
ByLayer
370
18
48
1
60
0
100
AcDbEllipse
10
30.153329
20
2.847781
30
0
11
-5.78626502181073E-17
21
-0.315
31
0
210
0
220
0
230
1
40
0.984808
41
2.73826319881368
42
-3.07172184060066
0
ELLIPSE
5
134
100
AcDbEntity
8
1
62
256
6
ByLayer
370
18
48
1
60
0
100
AcDbEllipse
10
30.111733
20
3.451305
30
0
11
1.77567921304245E-17
21
0.29
31
0
210
0
220
0
230
1
40
0.984808
41
0.331554914972807
42
-3.07172184060065
0
ELLIPSE
5
135
100
AcDbEntity
8
1
62
256
6
ByLayer
370
18
48
1
60
0
100
AcDbEllipse
10
31.039283
20
2.467124
30
0
11
-5.78626502181073E-17
21
-0.315
31
0
210
0
220
0
230
1
40
0.984808
41
-2.67088013579511
42
-2.0245242894041
0
ELLIPSE
5
136
100
AcDbEntity
8
1
62
256
6
ByLayer
370
18
48
1
60
0
100
AcDbEllipse
10
30.961941
20
3.642698
30
0
11
1.9593701661158E-16
21
3.2
31
0
210
0
220
0
230
1
40
0.984808
41
0
42
6.28318530717959
0
ELLIPSE
5
137
100
AcDbEntity
8
1
62
256
6
ByLayer
370
18
48
1
60
0
100
AcDbEllipse
10
29.917789
20
4.023355
30
0
11
-5.78626502181073E-17
21
-0.315
31
0
210
0
220
0
230
1
40
0.984808
41
0.3315549149728
42
0.804755182738028
0
ELLIPSE
5
138
100
AcDbEntity
8
1
62
256
6
ByLayer
370
18
48
1
60
0
100
AcDbEllipse
10
31.338153
20
4.553089
30
0
11
1.77567921304245E-17
21
0.29
31
0
210
0
220
0
230
1
40
0.984808
41
-1.76284018742044
42
1.1170683641857
0
ELLIPSE
5
139
100
AcDbEntity
8
1
62
256
6
ByLayer
370
18
48
1
60
0
100
AcDbEllipse
10
31.03065
20
3.642698
30
0
11
-1.65321857766021E-16
21
-0.9
31
0
210
0
220
0
230
1
40
0.984808
41
1.15441839008398
42
1.34140244027106
0
ELLIPSE
5
13A
100
AcDbEntity
8
1
62
256
6
ByLayer
370
18
48
1
60
0
100
AcDbEllipse
10
31.273708
20
2.467124
30
0
11
-5.78626502181073E-17
21
-0.315
31
0
210
0
220
0
230
1
40
0.984808
41
2.42595001736598
42
2.89915028513125
0
ELLIPSE
5
13B
100
AcDbEntity
8
1
62
256
6
ByLayer
370
18
48
1
60
0
100
AcDbEllipse
10
31.03065
20
3.642698
30
0
11
-1.65321857766021E-16
21
-0.9
31
0
210
0
220
0
230
1
40
0.984808
41
2.2016159412755
42
2.38859999147549
0
ELLIPSE
5
13C
100
AcDbEntity
8
1
62
256
6
ByLayer
370
18
48
1
60
0
100
AcDbEllipse
10
31.038169
20
3.642698
30
0
11
1.16337603613126E-16
21
1.9
31
0
210
0
220
0
230
1
40
0.984808
41
0
42
6.28318530717959
0
ELLIPSE
5
13D
100
AcDbEntity
8
1
62
256
6
ByLayer
370
18
48
1
60
0
100
AcDbEllipse
10
30.802629
20
4.818272
30
0
11
-5.78626502181073E-17
21
-0.315
31
0
210
0
220
0
230
1
40
0.984808
41
-0.715642636223823
42
-0.242442368458577
0
ELLIPSE
5
13E
100
AcDbEntity
8
1
62
256
6
ByLayer
370
18
48
1
60
0
100
AcDbEllipse
10
31.038169
20
3.642698
30
0
11
-1.69914131592855E-16
21
-0.925
31
0
210
0
220
0
230
1
40
0.984808
41
-0.993029718003845
42
-0.699939656427479
0
ELLIPSE
5
13F
100
AcDbEntity
8
1
62
256
6
ByLayer
370
18
48
1
60
0
100
AcDbEllipse
10
31.688584
20
4.437615
30
0
11
-5.78626502181073E-17
21
-0.315
31
0
210
0
220
0
230
1
40
0.984808
41
-1.76284018742043
42
-1.11648434102942
0
ELLIPSE
5
140
100
AcDbEntity
8
1
62
256
6
ByLayer
370
18
48
1
60
0
100
AcDbEllipse
10
30.802629
20
4.818272
30
0
11
-5.78626502181073E-17
21
-0.315
31
0
210
0
220
0
230
1
40
0.984808
41
0.643868096420457
42
1.11706836418568
0
ELLIPSE
5
141
100
AcDbEntity
8
1
62
256
6
ByLayer
370
18
48
1
60
0
100
AcDbEllipse
10
31.03065
20
3.642698
30
0
11
-1.65321857766021E-16
21
-0.9
31
0
210
0
220
0
230
1
40
0.984808
41
0.107220838887261
42
0.294204889084244
0
ELLIPSE
5
142
100
AcDbEntity
8
1
62
256
6
ByLayer
370
18
48
1
60
0
100
AcDbEllipse
10
30.803744
20
3.642698
30
0
11
-1.65321857766021E-16
21
-0.9
31
0
210
0
220
0
230
1
40
0.984808
41
1.34140244027107
42
2.20161594128058
0
ELLIPSE
5
143
100
AcDbEntity
8
1
62
256
6
ByLayer
370
18
48
1
60
0
100
AcDbEllipse
10
31.964605
20
3.834091
30
0
11
1.77567921304245E-17
21
0.29
31
0
210
0
220
0
230
1
40
0.984808
41
-2.81003773861701
42
0.069870812989124
0
ELLIPSE
5
144
100
AcDbEntity
8
1
62
256
6
ByLayer
370
18
48
1
60
0
100
AcDbEllipse
10
31.038169
20
3.642698
30
0
11
-1.69914131592855E-16
21
-0.925
31
0
210
0
220
0
230
1
40
0.984808
41
-2.04022726920044
42
-1.7471372076241
0
ELLIPSE
5
145
100
AcDbEntity
8
1
62
256
6
ByLayer
370
18
48
1
60
0
100
AcDbEllipse
10
31.038169
20
3.642698
30
0
11
-1.69914131592855E-16
21
-0.925
31
0
210
0
220
0
230
1
40
0.984808
41
1.10136538438934
42
1.39445544596569
0
ELLIPSE
5
146
100
AcDbEntity
8
1
62
256
6
ByLayer
370
18
48
1
60
0
100
AcDbEllipse
10
31.038169
20
3.642698
30
0
11
-1.69914131592855E-16
21
-0.925
31
0
210
0
220
0
230
1
40
0.984808
41
2.14856293558595
42
2.44165299716232
0
ELLIPSE
5
147
100
AcDbEntity
8
1
62
256
6
ByLayer
370
18
48
1
60
0
100
AcDbEllipse
10
30.803744
20
3.642698
30
0
11
-1.65321857766021E-16
21
-0.9
31
0
210
0
220
0
230
1
40
0.984808
41
0.294204889074511
42
1.15441839008397
0
ELLIPSE
5
148
100
AcDbEntity
8
1
62
256
6
ByLayer
370
18
48
1
60
0
100
AcDbEllipse
10
31.03065
20
3.642698
30
0
11
-1.65321857766021E-16
21
-0.9
31
0
210
0
220
0
230
1
40
0.984808
41
-1.98717426350582
42
-1.80019021331873
0
ELLIPSE
5
149
100
AcDbEntity
8
1
62
256
6
ByLayer
370
18
48
1
60
0
100
AcDbEllipse
10
31.66462
20
2.923701
30
0
11
1.77567921304245E-17
21
0.29
31
0
210
0
220
0
230
1
40
0.984808
41
2.42595001736599
42
-0.977326738207502
0
ELLIPSE
5
14A
100
AcDbEntity
8
1
62
256
6
ByLayer
370
18
48
1
60
0
100
AcDbEllipse
10
31.923009
20
4.437615
30
0
11
-5.78626502181073E-17
21
-0.315
31
0
210
0
220
0
230
1
40
0.984808
41
-0.403329454776107
42
0.0698708129891418
0
ELLIPSE
5
14B
100
AcDbEntity
8
1
62
256
6
ByLayer
370
18
48
1
60
0
100
AcDbEllipse
10
30.568204
20
4.818272
30
0
11
-5.78626502181073E-17
21
-0.315
31
0
210
0
220
0
230
1
40
0.984808
41
-0.71564263622381
42
-0.0692867898328079
0
ELLIPSE
5
14C
100
AcDbEntity
8
1
62
256
6
ByLayer
370
18
48
1
60
0
100
AcDbEllipse
10
31.03065
20
3.642698
30
0
11
-1.65321857766021E-16
21
-0.9
31
0
210
0
220
0
230
1
40
0.984808
41
-3.03437181470255
42
-2.84738776450556
0
ELLIPSE
5
14D
100
AcDbEntity
8
1
62
256
6
ByLayer
370
18
48
1
60
0
100
AcDbEllipse
10
31.924123
20
3.262041
30
0
11
-5.78626502181073E-17
21
-0.315
31
0
210
0
220
0
230
1
40
0.984808
41
-1.62368258459856
42
-0.977326738207494
0
ELLIPSE
5
14E
100
AcDbEntity
8
1
62
256
6
ByLayer
370
18
48
1
60
0
100
AcDbEllipse
10
31.03065
20
3.642698
30
0
11
-1.65321857766021E-16
21
-0.9
31
0
210
0
220
0
230
1
40
0.984808
41
-0.939976712309217
42
-0.752992662122115
0
ELLIPSE
5
14F
100
AcDbEntity
8
1
62
256
6
ByLayer
370
18
48
1
60
0
100
AcDbEllipse
10
30.411717
20
4.361696
30
0
11
1.77567921304245E-17
21
0.29
31
0
210
0
220
0
230
1
40
0.984808
41
-0.715642636223819
42
2.16426591538229
0
ELLIPSE
5
150
100
AcDbEntity
8
1
62
256
6
ByLayer
370
18
48
1
60
0
100
AcDbEllipse
10
32.158549
20
3.262041
30
0
11
-5.78626502181073E-17
21
-0.315
31
0
210
0
220
0
230
1
40
0.984808
41
-2.81003773861699
42
-2.33683747085176
0
ELLIPSE
5
151
100
AcDbEntity
8
1
62
256
6
ByLayer
370
18
48
1
60
0
100
AcDbEllipse
10
31.038169
20
3.642698
30
0
11
-1.69914131592855E-16
21
-0.925
31
0
210
0
220
0
230
1
40
0.984808
41
-3.08742482039701
42
-2.79433475882065
0
ELLIPSE
5
152
100
AcDbEntity
8
1
62
256
6
ByLayer
370
18
48
1
60
0
100
AcDbEllipse
10
27.382038
20
2.294119
30
0
11
4.27394910902625
21
-1.40831779561778
31
0
210
0
220
0
230
1
40
0.055099
41
1.92451967262803
42
2.36339624145741
0
ELLIPSE
5
153
100
AcDbEntity
8
1
62
256
6
ByLayer
370
18
48
1
60
0
100
AcDbEllipse
10
41.129741
20
-0.02693
30
0
11
-0.934257842325611
21
-1.46924393666625
31
0
210
0
220
0
230
1
40
0.803719
41
1.43928809406544
42
1.72037177900016
0
ELLIPSE
5
154
100
AcDbEntity
8
1
62
256
6
ByLayer
370
18
48
1
60
0
100
AcDbEllipse
10
41.129741
20
-0.02693
30
0
11
-0.393236167150712
21
1.62059057866887
31
0
210
0
220
0
230
1
40
0.788684
41
-2.08277001316252
42
-1.80168632820724
0
ELLIPSE
5
155
100
AcDbEntity
8
1
62
256
6
ByLayer
370
18
48
1
60
0
100
AcDbEllipse
10
29.158758
20
7.686092
30
0
11
-4.22655109091521
21
1.5519972520418
31
0
210
0
220
0
230
1
40
0.141766
41
0.567658068744793
42
0.62930624692689
0
ELLIPSE
5
156
100
AcDbEntity
8
1
62
256
6
ByLayer
370
18
48
1
60
0
100
AcDbEllipse
10
24.383149
20
2.210201
30
0
11
-0.557826448931807
21
2.44022527944035
31
0
210
0
220
0
230
1
40
0.989691
41
1.02315838605773
42
2.13695278216983
0
ELLIPSE
5
157
100
AcDbEntity
8
1
62
256
6
ByLayer
370
18
48
1
60
0
100
AcDbEllipse
10
26.289302
20
7.994975
30
0
11
-0.557826448924479
21
2.44022527944258
31
0
210
0
220
0
230
1
40
0.989691
41
-0.0906360100507255
42
1.02315838606104
0
ELLIPSE
5
158
100
AcDbEntity
8
1
62
256
6
ByLayer
370
18
48
1
60
0
100
AcDbEllipse
10
26.981078
20
8.076045
30
0
11
-1.19742440484272
21
-1.34394002644725
31
0
210
0
220
0
230
1
40
0.791846
41
-2.70320272344458
42
-1.27297291699578
0
ELLIPSE
5
159
100
AcDbEntity
8
1
62
256
6
ByLayer
370
18
48
1
60
0
100
AcDbEllipse
10
29.315924
20
7.585992
30
0
11
-2.52972674500201
21
2.59675835978678
31
0
210
0
220
0
230
1
40
0.392669
41
-0.656933582407946
42
-0.365309718881678
0
ELLIPSE
5
15A
100
AcDbEntity
8
1
62
256
6
ByLayer
370
18
48
1
60
0
100
AcDbEllipse
10
20.180996
20
1.290772
30
0
11
5.698598812035
21
-1.8777570608237
31
0
210
0
220
0
230
1
40
0.055099
41
-0.830796425857792
42
-0.82890730478061
0
ELLIPSE
5
15B
100
AcDbEntity
8
1
62
256
6
ByLayer
370
18
48
1
60
0
100
AcDbEllipse
10
26.545527
20
-0.544565
30
0
11
-2.61794167607614
21
0.679804365228415
31
0
210
0
220
0
230
1
40
0.382121
41
-0.649118974622842
42
0.09237190910634
0
ELLIPSE
5
15C
100
AcDbEntity
8
1
62
256
6
ByLayer
370
18
48
1
60
0
100
AcDbEllipse
10
28.756968
20
6.466743
30
0
11
4.27394910902625
21
-1.40831779561778
31
0
210
0
220
0
230
1
40
0.055099
41
1.92451967262803
42
2.3633962414574
0
ELLIPSE
5
15D
100
AcDbEntity
8
1
62
256
6
ByLayer
370
18
48
1
60
0
100
AcDbEllipse
10
29.791218
20
9.305428
30
0
11
-2.51391270389957
21
0.996990225495489
31
0
210
0
220
0
230
1
40
0.272385
41
-0.100793375141385
42
0.640697508587642
0
ELLIPSE
5
15E
100
AcDbEntity
8
1
62
256
6
ByLayer
370
18
48
1
60
0
100
AcDbEllipse
10
26.980248
20
1.074771
30
0
11
-4.32332224738692
21
1.25791634140913
31
0
210
0
220
0
230
1
40
0.25183
41
-0.633398701236466
42
-0.571750523397596
0
ELLIPSE
5
15F
100
AcDbEntity
8
1
62
256
6
ByLayer
370
18
48
1
60
0
100
AcDbEllipse
10
27.409771
20
1.801217
30
0
11
-3.7092590580392
21
-1.44408471804862
31
0
210
0
220
0
230
1
40
0.457071
41
0.206595772660007
42
0.498219636185112
0
ELLIPSE
5
160
100
AcDbEntity
8
1
62
256
6
ByLayer
370
18
48
1
60
0
100
AcDbEllipse
10
25.051777
20
2.221022
30
0
11
0.379528683986434
21
-1.75953345464971
31
0
210
0
220
0
230
1
40
0.760282
41
-2.02463207849776
42
-0.594402272048958
0
ELLIPSE
5
161
100
AcDbEntity
8
1
62
256
6
ByLayer
370
18
48
1
60
0
100
AcDbEllipse
10
31.604646
20
-1.810274
30
0
11
-3.31731626616484E-16
21
-1.80592250770242
31
0
210
0
220
0
230
1
40
0.984808
41
-1.17926133044415
42
-1.09083078249653
0
ELLIPSE
5
162
100
AcDbEntity
8
1
62
256
6
ByLayer
370
18
48
1
60
0
100
AcDbEllipse
10
-0.948929
20
0
30
0
11
-9.36741787978211
21
19.7417491527504
31
0
210
0
220
0
230
1
40
0.341999
41
-2.98886640869145
42
-2.0452731260899
0
ELLIPSE
5
163
100
AcDbEntity
8
1
62
256
6
ByLayer
370
18
48
1
60
0
100
AcDbEllipse
10
16.948929
20
0
30
0
11
-9.36741787978284
21
19.7417491527512
31
0
210
0
220
0
230
1
40
0.341999
41
0.152726244898339
42
1.09631952749986
0
ELLIPSE
5
164
100
AcDbEntity
8
1
62
256
6
ByLayer
370
18
48
1
60
0
100
AcDbEllipse
10
32.165249
20
-20.696466
30
0
11
-10.3573514412346
21
1.26836783837072E-15
31
0
210
0
220
0
230
1
40
0.984808
41
-1.09083078249488
42
-0.0866104386217614
0
ELLIPSE
5
165
100
AcDbEntity
8
1
62
256
6
ByLayer
370
18
48
1
60
0
100
AcDbEllipse
10
-0.948929
20
0
30
0
11
-9.36741787978245
21
-19.7417491527508
31
0
210
0
220
0
230
1
40
0.341999
41
2.04527312608992
42
2.98886640869145
0
ELLIPSE
5
166
100
AcDbEntity
8
1
62
256
6
ByLayer
370
18
48
1
60
0
100
AcDbEllipse
10
17.096157
20
1.230025
30
0
11
-0.0222376428764452
21
-3.25169852061401
31
0
210
0
220
0
230
1
40
0.026893
41
-2.7166472614483
42
-2.10717442578549
0
ELLIPSE
5
167
100
AcDbEntity
8
1
62
256
6
ByLayer
370
18
48
1
60
0
100
AcDbEllipse
10
17.749773
20
0
30
0
11
-1.07860425662218E-08
21
-20.000000303289
31
0
210
0
220
0
230
1
40
0.087489
41
-0.438961882322205
42
-0.392575060491177
0
ELLIPSE
5
168
100
AcDbEntity
8
1
62
256
6
ByLayer
370
18
48
1
60
0
100
AcDbEllipse
10
16.948929
20
0
30
0
11
-9.36741787978228
21
-19.7417491527506
31
0
210
0
220
0
230
1
40
0.341999
41
-1.09631952749989
42
-0.152726244898338
0
ELLIPSE
5
169
100
AcDbEntity
8
1
62
256
6
ByLayer
370
18
48
1
60
0
100
AcDbEllipse
10
17.749773
20
0
30
0
11
1.22460635382237E-15
21
19.9999999999998
31
0
210
0
220
0
230
1
40
0.087489
41
0.39257506339553
42
2.07615683707907
0
ELLIPSE
5
16A
100
AcDbEntity
8
1
62
256
6
ByLayer
370
18
48
1
60
0
100
AcDbEllipse
10
31.695593
20
-1.987676
30
0
11
-3.31731626616486E-16
21
-1.80592250770243
31
0
210
0
220
0
230
1
40
0.984808
41
-1.09083078249653
42
0.479965544299496
0
ELLIPSE
5
16B
100
AcDbEntity
8
1
62
256
6
ByLayer
370
18
48
1
60
0
100
AcDbEllipse
10
21.065143
20
20.908518
30
0
11
-3.27299716089822
21
-17.3678965654972
31
0
210
0
220
0
230
1
40
0.132397
41
-0.287055744367408
42
0.958358949189161
0
POINT
5
6C
100
AcDbEntity
8
2
62
256
6
ByLayer
370
18
48
1
60
0
100
AcDbPoint
10
50
20
0.4817
30
0
39
0
210
0
220
0
230
1
50
360
0
POINT
5
6E
100
AcDbEntity
8
80
62
256
6
ByLayer
370
18
48
1
60
0
100
AcDbPoint
10
0
20
0
30
0
39
0
210
0
220
0
230
1
50
360
0
POINT
5
70
100
AcDbEntity
8
81
62
256
6
ByLayer
370
18
48
1
60
0
100
AcDbPoint
10
50
20
0.4817
30
0
39
0
210
0
220
0
230
1
50
360
0
SPLINE
5
16C
100
AcDbEntity
8
SK1
62
256
6
ByLayer
370
18
48
1
60
0
100
AcDbSpline
70
4
71
2
72
6
73
3
40
0
40
0
40
0
40
1
40
1
40
1
41
1
10
-22.5
20
-13.4933966698402
30
0
41
1
10
-12.0999999999449
20
-13.7545973909208
30
0
41
1
10
-1.69999999999999
20
-14.0157977997179
30
0
0
SPLINE
5
16D
100
AcDbEntity
8
SK1
62
256
6
ByLayer
370
18
48
1
60
0
100
AcDbSpline
70
4
71
2
72
6
73
3
40
0
40
0
40
0
40
1
40
1
40
1
41
1
10
-1.69999999999999
20
14.0157970602974
30
0
41
1
10
-12.099999999963
20
13.7545958471854
30
0
41
1
10
-22.5
20
13.493394380475
30
0
0
SPLINE
5
16E
100
AcDbEntity
8
SK1
62
256
6
ByLayer
370
18
48
1
60
0
100
AcDbSpline
70
4
71
3
72
13
73
9
40
0
40
0
40
0
40
0
40
0.239456136997449
40
0.368359723417175
40
0.499998985516726
40
0.631638416576567
40
0.760542468702411
40
1
40
1
40
1
40
1
41
1
10
-1.69999999999999
20
-14.0200984156386
30
0
41
1
10
-1.6990919864528
20
-13.9940409390257
30
0
41
1
10
-1.69103284110332
20
-13.9566683539303
30
0
41
1
10
-1.66563592205637
20
-13.9104491790265
30
0
41
1
10
-1.63886378681673
20
-13.8791676243502
30
0
41
1
10
-1.60627712752267
20
-13.8540002532836
30
0
41
1
10
-1.5588406423667
20
-13.830956449625
30
0
41
1
10
-1.52111030874428
20
-13.8247841935567
30
0
41
1
10
-1.49503997793931
20
-13.8251858327438
30
0
0
SPLINE
5
16F
100
AcDbEntity
8
SK1
62
256
6
ByLayer
370
18
48
1
60
0
100
AcDbSpline
70
4
71
3
72
13
73
9
40
0
40
0
40
0
40
0
40
0.239457531274807
40
0.368361583394193
40
0.500001014452292
40
0.631640276555059
40
0.760543862982143
40
1
40
1
40
1
40
1
41
1
10
-1.49503997793928
20
13.8251858293361
30
0
41
1
10
-1.52111030874488
20
13.8247841901529
30
0
41
1
10
-1.5588406423679
20
13.8309564462263
30
0
41
1
10
-1.60627712752327
20
13.8540002498915
30
0
41
1
10
-1.63886378681727
20
13.8791676209635
30
0
41
1
10
-1.66563592205674
20
13.9104491756451
30
0
41
1
10
-1.69103284110358
20
13.9566683505561
30
0
41
1
10
-1.69909198645305
20
13.9940409356568
30
0
41
1
10
-1.69999999999999
20
14.0200984122732
30
0
0
SPLINE
5
170
100
AcDbEntity
8
SK1
62
256
6
ByLayer
370
18
48
1
60
0
100
AcDbSpline
70
4
71
2
72
6
73
3
40
0
40
0
40
0
40
1
40
1
40
1
41
1
10
-24
20
-12.6310964932104
30
0
41
1
10
-23.2499999989322
20
-13.0640911753538
30
0
41
1
10
-22.5
20
-13.4970856697526
30
0
0
SPLINE
5
171
100
AcDbEntity
8
SK1
62
256
6
ByLayer
370
18
48
1
60
0
100
AcDbSpline
70
4
71
2
72
6
73
3
40
0
40
0
40
0
40
1
40
1
40
1
41
1
10
-22.5
20
13.4970852847173
30
0
41
1
10
-23.2499999989318
20
13.0640908004416
30
0
41
1
10
-24
20
12.6310961283886
30
0
0
SPLINE
5
172
100
AcDbEntity
8
SK1
62
256
6
ByLayer
370
18
48
1
60
0
100
AcDbSpline
70
4
71
2
72
6
73
3
40
0
40
0
40
0
40
1
40
1
40
1
41
1
10
-1.49503997793931
20
-13.7129410868425
30
0
41
1
10
-0.945008433407281
20
-13.7266599565288
30
0
41
1
10
-0.394976888875306
20
-13.7403788260786
30
0
0
SPLINE
5
173
100
AcDbEntity
8
SK1
62
256
6
ByLayer
370
18
48
1
60
0
100
AcDbSpline
70
4
71
2
72
6
73
3
40
0
40
0
40
0
40
1
40
1
40
1
41
1
10
-0.394976888875277
20
13.740379899128
30
0
41
1
10
-0.945008433407281
20
13.7266611372792
30
0
41
1
10
-1.49503997793928
20
13.7129423752897
30
0
0
SPLINE
5
174
100
AcDbEntity
8
1
62
256
6
ByLayer
370
18
48
1
60
0
100
AcDbSpline
70
4
71
2
72
6
73
3
40
0
40
0
40
0
40
1
40
1
40
1
41
1.02613459695995
10
17.9413658400847
20
0.828640496846217
30
0
41
0.91937629438825
10
17.3385343564118
20
1.08023751094422
30
0
41
0.888461719180875
10
17.0057021714743
20
1.84795740698165
30
0
0
SPLINE
5
175
100
AcDbEntity
8
SK1
62
256
6
ByLayer
370
18
48
1
60
0
100
AcDbSpline
70
4
71
3
72
24
73
20
40
0
40
0
40
0
40
0
40
0.0014544386989002
40
0.0014544386989002
40
0.361956423059679
40
0.361956423059679
40
0.727731599250117
40
0.727731599250117
40
0.782013304695228
40
0.782013304695228
40
0.837002501937585
40
0.837002501937585
40
0.873144196436345
40
0.873144196436345
40
0.909511909647748
40
0.909511909647748
40
0.952113857168632
40
0.952113857168632
40
1
40
1
40
1
40
1
41
1
10
-0.21777352081989
20
13.9477771104646
30
0
41
1
10
-0.217796303830539
20
13.9477385212396
30
0
41
1
10
-0.217819113763113
20
13.9476999169831
30
0
41
1
10
-0.223510113646824
20
13.9380759054837
30
0
41
1
10
-0.230869554015186
20
13.9275300777214
30
0
41
1
10
-0.252993763945881
20
13.9036085654018
30
0
41
1
10
-0.266169306055218
20
13.8900912648142
30
0
41
1
10
-0.299313210098944
20
13.8713678522793
30
0
41
1
10
-0.304168151080091
20
13.8688119846588
30
0
41
1
10
-0.315233613826848
20
13.8635902765912
30
0
41
1
10
-0.321588767727178
20
13.8608655729355
30
0
41
1
10
-0.333434048045547
20
13.8565368608439
30
0
41
1
10
-0.338587345813778
20
13.8548370746726
30
0
41
1
10
-0.349158334685967
20
13.8517865918864
30
0
41
1
10
-0.354704697438706
20
13.8504050227189
30
0
41
1
10
-0.366193697521936
20
13.847969712967
30
0
41
1
10
-0.37221373013341
20
13.8469665678177
30
0
41
1
10
-0.383950527302631
20
13.8454141457692
30
0
41
1
10
-0.389694590782
20
13.8449066720063
30
0
41
1
10
-0.394976888882155
20
13.8446015176357
30
0
0
SPLINE
5
176
100
AcDbEntity
8
SK1
62
256
6
ByLayer
370
18
48
1
60
0
100
AcDbSpline
70
4
71
3
72
22
73
18
40
0
40
0
40
0
40
0
40
0.055719576402834
40
0.055719576402834
40
0.112580416271358
40
0.112580416271358
40
0.15149689862916
40
0.15149689862916
40
0.190204432258579
40
0.190204432258579
40
0.253674977810646
40
0.253674977810646
40
0.379229486612327
40
0.379229486612327
40
0.823820061021217
40
0.823820061021217
40
1
40
1
40
1
40
1
41
1
10
-0.394976888875306
20
-13.8446019297682
30
0
41
1
10
-0.389542940031561
20
-13.8449158599001
30
0
41
1
10
-0.383617593481006
20
-13.8454439659091
30
0
41
1
10
-0.370682577094897
20
-13.8471856765741
30
0
41
1
10
-0.363425095790518
20
-13.8484584409772
30
0
41
1
10
-0.350979043087193
20
-13.8513238322133
30
0
41
1
10
-0.345738104843406
20
-13.8527220431424
30
0
41
1
10
-0.335836036111374
20
-13.8557300394867
30
0
41
1
10
-0.331061234651429
20
-13.8573680363077
30
0
41
1
10
-0.319536857691617
20
-13.8617043765564
30
0
41
1
10
-0.313226439154875
20
-13.8644842406524
30
0
41
1
10
-0.296825865103983
20
-13.8724174982475
30
0
41
1
10
-0.288454852011284
20
-13.8774557840676
30
0
41
1
10
-0.256352537857253
20
-13.8987262995108
30
0
41
1
10
-0.243999907013659
20
-13.9124642192994
30
0
41
1
10
-0.229963428239728
20
-13.9295927568019
30
0
41
1
10
-0.22643928003356
20
-13.9342393022239
30
0
41
1
10
-0.223319935549568
20
-13.9386901109158
30
0
0
SPLINE
5
177
100
AcDbEntity
8
SK1
62
256
6
ByLayer
370
18
48
1
60
0
100
AcDbSpline
70
4
71
3
72
118
73
114
40
0
40
0
40
0
40
0
40
0.0076461636547226
40
0.0154178034521852
40
0.0231894432496478
40
0.0309610830471103
40
0.0387327228445729
40
0.0465043626420355
40
0.054276002439498
40
0.0620476422369606
40
0.0698192820344232
40
0.0775909218318857
40
0.0931342014268108
40
0.108677481021736
40
0.124220760616661
40
0.131992400414124
40
0.139764040211586
40
0.147535680009049
40
0.155307319806511
40
0.170850599401436
40
0.178622239198899
40
0.186393878996362
40
0.194165518793824
40
0.201937158591287
40
0.209708798388749
40
0.217480438186212
40
0.233023717781137
40
0.2407953575786
40
0.248566997376062
40
0.256338637173525
40
0.264110276970987
40
0.27188191676845
40
0.279653556565913
40
0.287425196363375
40
0.295196836160837
40
0.310740115755763
40
0.318511755553225
40
0.326283395350688
40
0.341826674945613
40
0.357369954540538
40
0.365141594338001
40
0.372913234135463
40
0.380684873932926
40
0.388456513730388
40
0.396228153527851
40
0.403999793325313
40
0.407885613224045
40
0.411771433122776
40
0.419543072920239
40
0.427314712717701
40
0.435086352515164
40
0.450629632110089
40
0.458401271907551
40
0.466172911705014
40
0.473944551502477
40
0.481716191299939
40
0.489487831097402
40
0.497259470894864
40
0.505031110692327
40
0.512802750489789
40
0.520574390287252
40
0.528346030084714
40
0.54388930967964
40
0.551660949477102
40
0.559432589274565
40
0.563318409173296
40
0.567204229072027
40
0.57497586886949
40
0.590519148464415
40
0.598290788261878
40
0.60606242805934
40
0.621605707654265
40
0.63714898724919
40
0.644920627046653
40
0.652692266844115
40
0.668235546439041
40
0.676007186236503
40
0.683778826033966
40
0.691550465831428
40
0.699322105628891
40
0.707093745426354
40
0.714865385223816
40
0.730408664818741
40
0.745951944413666
40
0.753723584211129
40
0.761495224008591
40
0.769266863806054
40
0.777038503603516
40
0.792581783198442
40
0.808125062793367
40
0.823668342388292
40
0.839211621983217
40
0.84698326178068
40
0.854754901578142
40
0.862526541375605
40
0.870298181173067
40
0.87806982097053
40
0.885841460767992
40
0.893613100565455
40
0.901384740362917
40
0.90915638016038
40
0.916928019957843
40
0.924699659755305
40
0.932471299552768
40
0.94024293935023
40
0.948014579147693
40
0.955786218945155
40
0.963557858742618
40
0.971329498540081
40
0.979101138337543
40
0.986872778135006
40
0.994644417932468
40
1
40
1
40
1
40
1
41
1
10
-1.69999999999999
20
14.0157582213644
30
0
41
1
10
-1.69999999999996
20
14.017180869842
30
0
41
1
10
-1.70000000000002
20
14.0193350222464
30
0
41
1
10
-1.69999999999999
20
14.0204498319149
30
0
41
1
10
-1.69999999999999
20
14.0194577493028
30
0
41
1
10
-1.69999999999999
20
14.0163929237538
30
0
41
1
10
-1.69999999999999
20
14.0112928179987
30
0
41
1
10
-1.69999999999999
20
14.0041925984504
30
0
41
1
10
-1.69999999999999
20
13.9951252442004
30
0
41
1
10
-1.69999999999999
20
13.9841239086368
30
0
41
1
10
-1.69999999999999
20
13.9712195253815
30
0
41
1
10
-1.69999999999999
20
13.9515178138587
30
0
41
1
10
-1.69999999999999
20
13.9222750232465
30
0
41
1
10
-1.69999999999999
20
13.8800204120324
30
0
41
1
10
-1.69999999999999
20
13.838998019961
30
0
41
1
10
-1.69999999999999
20
13.8027899045868
30
0
41
1
10
-1.69999999999999
20
13.773955994413
30
0
41
1
10
-1.69999999999999
20
13.7434660879001
30
0
41
1
10
-1.69999999999999
20
13.7006353174901
30
0
41
1
10
-1.69999999999999
20
13.6545611373555
30
0
41
1
10
-1.69999999999999
20
13.6053355893185
30
0
41
1
10
-1.69999999999999
20
13.5668499361124
30
0
41
1
10
-1.69999999999999
20
13.5268172028035
30
0
41
1
10
-1.69999999999999
20
13.485252935173
30
0
41
1
10
-1.69999999999999
20
13.4421723218484
30
0
41
1
10
-1.69999999999999
20
13.3827344162836
30
0
41
1
10
-1.69999999999999
20
13.3203101073726
30
0
41
1
10
-1.69999999999999
20
13.254979960848
30
0
41
1
10
-1.69999999999999
20
13.2045321061977
30
0
41
1
10
-1.69999999999999
20
13.1526505121852
30
0
41
1
10
-1.69999999999999
20
13.099347414251
30
0
41
1
10
-1.69999999999999
20
13.0446338149516
30
0
41
1
10
-1.69999999999999
20
12.9885220902628
30
0
41
1
10
-1.69999999999999
20
12.9310230723471
30
0
41
1
10
-1.69999999999999
20
12.8525264142953
30
0
41
1
10
-1.69999999999999
20
12.7712834714132
30
0
41
1
10
-1.69999999999999
20
12.6873624197502
30
0
41
1
10
-1.69999999999999
20
12.6016598943421
30
0
41
1
10
-1.69999999999999
20
12.4912006491746
30
0
41
1
10
-1.69999999999999
20
12.3763763558488
30
0
41
1
10
-1.69999999999999
20
12.2819406900945
30
0
41
1
10
-1.69999999999999
20
12.209824815618
30
0
41
1
10
-1.69999999999999
20
12.1364316894724
30
0
41
1
10
-1.69999999999999
20
12.0617686582407
30
0
41
1
10
-1.69999999999999
20
11.9858436758677
30
0
41
1
10
-1.69999999999999
20
11.9215236068653
30
0
41
1
10
-1.69999999999999
20
11.8694488081267
30
0
41
1
10
-1.69999999999999
20
11.8169591426362
30
0
41
1
10
-1.69999999999999
20
11.7505641289662
30
0
41
1
10
-1.69999999999999
20
11.6696587742526
30
0
41
1
10
-1.69999999999999
20
11.5601529159528
30
0
41
1
10
-1.69999999999999
20
11.448182891669
30
0
41
1
10
-1.69999999999999
20
11.3338110499831
30
0
41
1
10
-1.69999999999999
20
11.2468221792499
30
0
41
1
10
-1.69999999999999
20
11.1586337603462
30
0
41
1
10
-1.69999999999999
20
11.0692509372408
30
0
41
1
10
-1.69999999999999
20
10.9786794422307
30
0
41
1
10
-1.69999999999999
20
10.8869237783616
30
0
41
1
10
-1.69999999999999
20
10.7939888359847
30
0
41
1
10
-1.69999999999999
20
10.6998796425436
30
0
41
1
10
-1.69999999999999
20
10.6046008465563
30
0
41
1
10
-1.69999999999999
20
10.4760157679139
30
0
41
1
10
-1.69999999999999
20
10.3450861470912
30
0
41
1
10
-1.69999999999999
20
10.2118742799613
30
0
41
1
10
-1.69999999999999
20
10.1276505623382
30
0
41
1
10
-1.69999999999999
20
10.0597065749413
30
0
41
1
10
-1.69999999999999
20
9.9913814320609
30
0
41
1
10
-1.69999999999999
20
9.87081043657869
30
0
41
1
10
-1.69999999999999
20
9.73071862052217
30
0
41
1
10
-1.69999999999999
20
9.58839008121353
30
0
41
1
10
-1.69999999999999
20
9.44455854729449
30
0
41
1
10
-1.69999999999999
20
9.26193698423123
30
0
41
1
10
-1.69999999999999
20
9.07558727703642
30
0
41
1
10
-1.69999999999999
20
8.92429760284432
30
0
41
1
10
-1.69999999999999
20
8.77152766795061
30
0
41
1
10
-1.69999999999999
20
8.61651162008161
30
0
41
1
10
-1.69999999999999
20
8.45931945344486
30
0
41
1
10
-1.69999999999999
20
8.34031606829598
30
0
41
1
10
-1.69999999999999
20
8.22021379775831
30
0
41
1
10
-1.69999999999999
20
8.09901464495698
30
0
41
1
10
-1.69999999999999
20
7.9767200242907
30
0
41
1
10
-1.69999999999999
20
7.81221411547432
30
0
41
1
10
-1.69999999999999
20
7.60382755625838
30
0
41
1
10
-1.69999999999999
20
7.39181445781463
30
0
41
1
10
-1.69999999999999
20
7.22005470774221
30
0
41
1
10
-1.69999999999999
20
7.09014226669851
30
0
41
1
10
-1.69999999999999
20
6.95914717066265
30
0
41
1
10
-1.69999999999999
20
6.7830583657493
30
0
41
1
10
-1.69999999999999
20
6.56021848903171
30
0
41
1
10
-1.69999999999999
20
6.28851700104784
30
0
41
1
10
-1.69999999999999
20
6.01251447744062
30
0
41
1
10
-1.69999999999999
20
5.77892152059965
30
0
41
1
10
-1.69999999999999
20
5.58993216915877
30
0
41
1
10
-1.69999999999999
20
5.44710899667646
30
0
41
1
10
-1.69999999999999
20
5.30321729486519
30
0
41
1
10
-1.69999999999999
20
5.15825857839869
30
0
41
1
10
-1.69999999999999
20
5.01223405348068
30
0
41
1
10
-1.69999999999999
20
4.86514556778678
30
0
41
1
10
-1.69999999999999
20
4.71699468615466
30
0
41
1
10
-1.69999999999999
20
4.56778337246482
30
0
41
1
10
-1.69999999999999
20
4.41751381174834
30
0
41
1
10
-1.69999999999999
20
4.26618872973953
30
0
41
1
10
-1.69999999999999
20
4.11381092681606
30
0
41
1
10
-1.69999999999999
20
3.96038358832212
30
0
41
1
10
-1.69999999999999
20
3.80591077742719
30
0
41
1
10
-1.69999999999999
20
3.65039714326571
30
0
41
1
10
-1.69999999999999
20
3.49384789900154
30
0
41
1
10
-1.69999999999999
20
3.33626943234705
30
0
41
1
10
-1.69999999999999
20
3.17766893265431
30
0
41
1
10
-1.69999999999999
20
3.01805527431182
30
0
41
1
10
-1.69999999999999
20
2.85743846779499
30
0
41
1
10
-1.69999999999999
20
2.71257747642741
30
0
41
1
10
-1.69999999999999
20
2.62111404232408
30
0
41
1
10
-1.69999999999999
20
2.58372509632827
30
0
0
SPLINE
5
178
100
AcDbEntity
8
SK1
62
256
6
ByLayer
370
18
48
1
60
0
100
AcDbSpline
70
4
71
3
72
120
73
116
40
0
40
0
40
0
40
0
40
0.0053555999395639
40
0.0131272595841444
40
0.0208989192287249
40
0.0286705788733054
40
0.0364422385178859
40
0.0442138981624664
40
0.0519855578070469
40
0.0597572174516274
40
0.0675288770962079
40
0.0753005367407884
40
0.0830721963853689
40
0.0908438560299494
40
0.0986155156745299
40
0.10638717531911
40
0.114158834963691
40
0.121930494608271
40
0.129702154252852
40
0.137473813897432
40
0.145245473542013
40
0.153017133186593
40
0.160788792831174
40
0.176332112120335
40
0.191875431409496
40
0.207418750698657
40
0.222962069987818
40
0.230733729632398
40
0.238505389276979
40
0.246277048921559
40
0.25404870856614
40
0.269592027855301
40
0.285135347144462
40
0.292907006789042
40
0.300678666433623
40
0.308450326078203
40
0.316221985722784
40
0.323993645367364
40
0.331765305011945
40
0.347308624301106
40
0.355080283945686
40
0.362851943590267
40
0.378395262879428
40
0.393938582168589
40
0.401710241813169
40
0.40948190145775
40
0.425025220746911
40
0.432796880391491
40
0.436682710213782
40
0.440568540036072
40
0.448340199680652
40
0.456111859325233
40
0.471655178614394
40
0.479426838258974
40
0.487198497903555
40
0.494970157548135
40
0.502741817192716
40
0.510513476837296
40
0.518285136481877
40
0.526056796126457
40
0.533828455771038
40
0.541600115415618
40
0.549371775060199
40
0.56491509434936
40
0.57268675399394
40
0.580458413638521
40
0.588230073283101
40
0.592115903105392
40
0.596001732927682
40
0.603773392572262
40
0.611545052216843
40
0.619316711861423
40
0.627088371506004
40
0.634860031150584
40
0.642631690795165
40
0.658175010084326
40
0.673718329373487
40
0.681489989018067
40
0.689261648662648
40
0.704804967951809
40
0.712576627596389
40
0.72034828724097
40
0.72811994688555
40
0.735891606530131
40
0.743663266174711
40
0.751434925819292
40
0.759206585463872
40
0.766978245108453
40
0.782521564397614
40
0.790293224042194
40
0.798064883686775
40
0.805836543331355
40
0.813608202975936
40
0.821379862620516
40
0.829151522265097
40
0.844694841554258
40
0.852466501198838
40
0.860238160843419
40
0.868009820487999
40
0.87578148013258
40
0.891324799421741
40
0.899096459066321
40
0.906868118710902
40
0.914639778355482
40
0.922411438000063
40
0.930183097644643
40
0.937954757289224
40
0.945726416933804
40
0.953498076578385
40
0.961269736222965
40
0.969041395867545
40
0.976813055512126
40
0.984584715156706
40
0.992356374801287
40
1
40
1
40
1
40
1
41
1
10
-1.69999999999999
20
-2.5837250319525
30
0
41
1
10
-1.69999999999999
20
-2.62111400924692
30
0
41
1
10
-1.69999999999999
20
-2.71257747842986
30
0
41
1
10
-1.69999999999999
20
-2.85743848960826
30
0
41
1
10
-1.69999999999999
20
-3.01805529196176
30
0
41
1
10
-1.69999999999999
20
-3.17766896347746
30
0
41
1
10
-1.69999999999999
20
-3.33626946559076
30
0
41
1
10
-1.69999999999999
20
-3.49384788295134
30
0
41
1
10
-1.69999999999999
20
-3.65039703338328
30
0
41
1
10
-1.69999999999999
20
-3.80591068333541
30
0
41
1
10
-1.69999999999999
20
-3.9603838288908
30
0
41
1
10
-1.69999999999999
20
-4.11381118090259
30
0
41
1
10
-1.69999999999999
20
-4.26618881241484
30
0
41
1
10
-1.69999999999999
20
-4.41751369191317
30
0
41
1
10
-1.69999999999999
20
-4.56778315161375
30
0
41
1
10
-1.69999999999999
20
-4.7169946256985
30
0
41
1
10
-1.69999999999999
20
-4.86514572624662
30
0
41
1
10
-1.69999999999999
20
-5.01223421717728
30
0
41
1
10
-1.69999999999999
20
-5.15825863689906
30
0
41
1
10
-1.69999999999999
20
-5.30321731736851
30
0
41
1
10
-1.69999999999999
20
-5.44710902267545
30
0
41
1
10
-1.69999999999999
20
-5.58993219435266
30
0
41
1
10
-1.69999999999999
20
-5.77892152593586
30
0
41
1
10
-1.69999999999999
20
-6.01251450148573
30
0
41
1
10
-1.69999999999999
20
-6.28851702131561
30
0
41
1
10
-1.69999999999999
20
-6.56021849497904
30
0
41
1
10
-1.69999999999999
20
-6.78305839594086
30
0
41
1
10
-1.69999999999999
20
-6.95914718913937
30
0
41
1
10
-1.69999999999999
20
-7.0901422748378
30
0
41
1
10
-1.69999999999999
20
-7.22005471809891
30
0
41
1
10
-1.69999999999999
20
-7.391814483107
30
0
41
1
10
-1.69999999999999
20
-7.60382757721297
30
0
41
1
10
-1.69999999999999
20
-7.81221412115067
30
0
41
1
10
-1.69999999999999
20
-7.97672004102665
30
0
41
1
10
-1.69999999999999
20
-8.09901466976936
30
0
41
1
10
-1.69999999999999
20
-8.22021382021134
30
0
41
1
10
-1.69999999999999
20
-8.34031608257325
30
0
41
1
10
-1.69999999999999
20
-8.45931946186533
30
0
41
1
10
-1.69999999999999
20
-8.61651163422607
30
0
41
1
10
-1.69999999999999
20
-8.77152769372714
30
0
41
1
10
-1.69999999999999
20
-8.92429762219672
30
0
41
1
10
-1.69999999999999
20
-9.07558728630886
30
0
41
1
10
-1.69999999999999
20
-9.26193699842017
30
0
41
1
10
-1.69999999999999
20
-9.44455857133374
30
0
41
1
10
-1.69999999999999
20
-9.58839009925038
30
0
41
1
10
-1.69999999999999
20
-9.73071863089592
30
0
41
1
10
-1.69999999999999
20
-9.87081045044334
30
0
41
1
10
-1.69999999999999
20
-9.99138145148612
30
0
41
1
10
-1.69999999999999
20
-10.059706595653
30
0
41
1
10
-1.69999999999999
20
-10.127650582945
30
0
41
1
10
-1.69999999999999
20
-10.2118742978003
30
0
41
1
10
-1.69999999999999
20
-10.3450861597474
30
0
41
1
10
-1.69999999999999
20
-10.4760157822056
30
0
41
1
10
-1.69999999999999
20
-10.6046008653873
30
0
41
1
10
-1.69999999999999
20
-10.6998796625668
30
0
41
1
10
-1.69999999999999
20
-10.7939888545435
30
0
41
1
10
-1.69999999999999
20
-10.8869237943964
30
0
41
1
10
-1.69999999999999
20
-10.9786794570574
30
0
41
1
10
-1.69999999999999
20
-11.069250952524
30
0
41
1
10
-1.69999999999999
20
-11.1586337774266
30
0
41
1
10
-1.69999999999999
20
-11.2468221981049
30
0
41
1
10
-1.69999999999999
20
-11.3338110691597
30
0
41
1
10
-1.69999999999999
20
-11.4481829097131
30
0
41
1
10
-1.69999999999999
20
-11.5601529310588
30
0
41
1
10
-1.69999999999999
20
-11.6696587897978
30
0
41
1
10
-1.69999999999999
20
-11.7505641463283
30
0
41
1
10
-1.69999999999999
20
-11.8169591619061
30
0
41
1
10
-1.69999999999999
20
-11.869448828233
30
0
41
1
10
-1.69999999999999
20
-11.9215236271769
30
0
41
1
10
-1.69999999999999
20
-11.9858436943514
30
0
41
1
10
-1.69999999999999
20
-12.0617686735772
30
0
41
1
10
-1.69999999999999
20
-12.1364317035572
30
0
41
1
10
-1.69999999999999
20
-12.2098248313331
30
0
41
1
10
-1.69999999999999
20
-12.2819407102379
30
0
41
1
10
-1.69999999999999
20
-12.3763763795169
30
0
41
1
10
-1.69999999999999
20
-12.4912006631364
30
0
41
1
10
-1.69999999999999
20
-12.6016599065257
30
0
41
1
10
-1.69999999999999
20
-12.687362440577
30
0
41
1
10
-1.69999999999999
20
-12.7712834981639
30
0
41
1
10
-1.69999999999999
20
-12.8525264302737
30
0
41
1
10
-1.69999999999999
20
-12.9310230820619
30
0
41
1
10
-1.69999999999999
20
-12.9885221046098
30
0
41
1
10
-1.69999999999999
20
-13.0446338377524
30
0
41
1
10
-1.69999999999999
20
-13.0993474417035
30
0
41
1
10
-1.69999999999999
20
-13.1526505331688
30
0
41
1
10
-1.69999999999999
20
-13.2045321176789
30
0
41
1
10
-1.69999999999999
20
-13.2549799687684
30
0
41
1
10
-1.69999999999999
20
-13.3203101272292
30
0
41
1
10
-1.69999999999999
20
-13.3827344481881
30
0
41
1
10
-1.69999999999999
20
-13.4421723383994
30
0
41
1
10
-1.69999999999999
20
-13.4852529409442
30
0
41
1
10
-1.69999999999999
20
-13.5268172136993
30
0
41
1
10
-1.69999999999999
20
-13.5668499598694
30
0
41
1
10
-1.69999999999999
20
-13.6053356175566
30
0
41
1
10
-1.69999999999999
20
-13.6545611570253
30
0
41
1
10
-1.69999999999999
20
-13.7006353167884
30
0
41
1
10
-1.69999999999999
20
-13.7434661079967
30
0
41
1
10
-1.69999999999999
20
-13.7739560268625
30
0
41
1
10
-1.69999999999999
20
-13.8027899277569
30
0
41
1
10
-1.69999999999999
20
-13.8389980176944
30
0
41
1
10
-1.69999999999999
20
-13.8718187984145
30
0
41
1
10
-1.69999999999999
20
-13.9011479145568
30
0
41
1
10
-1.69999999999999
20
-13.9213794981548
30
0
41
1
10
-1.69999999999999
20
-13.9398197437578
30
0
41
1
10
-1.69999999999999
20
-13.9564420504847
30
0
41
1
10
-1.69999999999999
20
-13.9712195410175
30
0
41
1
10
-1.69999999999999
20
-13.9841238377961
30
0
41
1
10
-1.69999999999999
20
-13.9951249982352
30
0
41
1
10
-1.69999999999999
20
-14.0041924220526
30
0
41
1
10
-1.69999999999999
20
-14.0112932507837
30
0
41
1
10
-1.69999999999999
20
-14.0163938901866
30
0
41
1
10
-1.69999999999999
20
-14.019458382701
30
0
41
1
10
-1.69999999999999
20
-14.0204497516689
30
0
41
1
10
-1.70000000000002
20
-14.01933473688
30
0
41
1
10
-1.69999999999999
20
-14.0171811879214
30
0
41
1
10
-1.69999999999999
20
-14.0157592852635
30
0
0
SPLINE
5
179
100
AcDbEntity
8
SK1
62
256
6
ByLayer
370
18
48
1
60
0
100
AcDbSpline
70
4
71
3
72
287
73
283
40
0
40
0
40
0
40
0
40
0.001153018959792
40
0.004641462748557
40
0.0081299065373219
40
0.0116183503260868
40
0.0151067941148517
40
0.0185952379036166
40
0.0220836816923816
40
0.0255721254811465
40
0.0290605692699114
40
0.0325490130586763
40
0.0395259006362061
40
0.0465027882137359
40
0.0534796757912658
40
0.0569681195800307
40
0.0604565633687957
40
0.0639450071575605
40
0.0674334509463255
40
0.0744103385238553
40
0.0778987823126202
40
0.0813872261013851
40
0.0848756698901501
40
0.088364113678915
40
0.0918525574676799
40
0.0953410012564448
40
0.102317888833975
40
0.10580633262274
40
0.109294776411504
40
0.112783220200269
40
0.116271663989034
40
0.119760107777799
40
0.123248551566564
40
0.126736995355329
40
0.130225439144094
40
0.137202326721624
40
0.140690770510389
40
0.144179214299154
40
0.151156101876683
40
0.158132989454213
40
0.161621433242978
40
0.165109877031743
40
0.168598320820508
40
0.172086764609273
40
0.175575208398038
40
0.179063652186803
40
0.180807874081185
40
0.182552095975568
40
0.186040539764333
40
0.189528983553097
40
0.193017427341863
40
0.199994314919392
40
0.203482758708157
40
0.206971202496922
40
0.210459646285687
40
0.213948090074452
40
0.217436533863217
40
0.220924977651982
40
0.224413421440747
40
0.227901865229512
40
0.231390309018277
40
0.234878752807042
40
0.241855640384571
40
0.245344084173336
40
0.248832527962101
40
0.250576749856484
40
0.252320971750866
40
0.255809415539631
40
0.262786303117161
40
0.266274746905926
40
0.269763190694691
40
0.27674007827222
40
0.28371696584975
40
0.287205409638515
40
0.29069385342728
40
0.29767074100481
40
0.301159184793575
40
0.30464762858234
40
0.308136072371105
40
0.31162451615987
40
0.315112959948634
40
0.318601403737399
40
0.325578291314929
40
0.332555178892459
40
0.336043622681224
40
0.339532066469989
40
0.343020510258754
40
0.346508954047519
40
0.353485841625049
40
0.360462729202578
40
0.367439616780108
40
0.374416504357638
40
0.377904948146403
40
0.381393391935168
40
0.384881835723933
40
0.388370279512698
40
0.391858723301463
40
0.395347167090228
40
0.398835610878993
40
0.402324054667757
40
0.405812498456522
40
0.409300942245287
40
0.412789386034052
40
0.416277829822817
40
0.419766273611582
40
0.423254717400347
40
0.426743161189112
40
0.430231604977877
40
0.433720048766642
40
0.437208492555407
40
0.440696936344172
40
0.444185380132937
40
0.447673823921701
40
0.449418045816084
40
0.451162267710466
40
0.454650711499231
40
0.456394933393614
40
0.458139155287996
40
0.459883377182379
40
0.461627599076761
40
0.463371820971143
40
0.465116042865526
40
0.466860264759908
40
0.468604486654291
40
0.472092930443056
40
0.473837152337438
40
0.475581374231821
40
0.477325596126203
40
0.479069818020586
40
0.480814039914968
40
0.482558261809351
40
0.484302483703733
40
0.486046705598115
40
0.487790927492498
40
0.48953514938688
40
0.491279371281263
40
0.493023593175645
40
0.494767815070028
40
0.49651203696441
40
0.498256258858793
40
0.500000480753175
40
0.501744702647558
40
0.50348892454194
40
0.505233146436322
40
0.506977368330705
40
0.508721590225088
40
0.51046581211947
40
0.512210034013852
40
0.513954255908235
40
0.515698477802617
40
0.517442699697
40
0.519186921591382
40
0.520931143485765
40
0.522675365380147
40
0.52441958727453
40
0.526163809168912
40
0.527908031063295
40
0.531396474852059
40
0.533140696746442
40
0.534884918640824
40
0.536629140535207
40
0.538373362429589
40
0.540117584323972
40
0.541861806218354
40
0.543606028112737
40
0.545350250007119
40
0.548838693795884
40
0.550582915690266
40
0.552327137584649
40
0.555815581373414
40
0.559304025162179
40
0.562792468950943
40
0.566280912739709
40
0.569769356528473
40
0.573257800317238
40
0.576746244106003
40
0.580234687894768
40
0.583723131683533
40
0.587211575472298
40
0.590700019261063
40
0.594188463049828
40
0.597676906838593
40
0.601165350627358
40
0.604653794416123
40
0.608142238204887
40
0.611630681993652
40
0.615119125782417
40
0.618607569571182
40
0.622096013359947
40
0.625584457148712
40
0.632561344726242
40
0.639538232303772
40
0.646515119881302
40
0.653492007458832
40
0.656980451247596
40
0.660468895036361
40
0.663957338825126
40
0.667445782613891
40
0.674422670191421
40
0.681399557768951
40
0.684888001557715
40
0.688376445346481
40
0.691864889135246
40
0.69535333292401
40
0.698841776712775
40
0.70233022050154
40
0.70930710807907
40
0.712795551867835
40
0.7162839956566
40
0.72326088323413
40
0.73023777081166
40
0.733726214600424
40
0.737214658389189
40
0.744191545966719
40
0.747679989755484
40
0.749424211649867
40
0.751168433544249
40
0.754656877333014
40
0.758145321121779
40
0.765122208699309
40
0.768610652488074
40
0.772099096276838
40
0.775587540065603
40
0.779075983854369
40
0.782564427643133
40
0.786052871431898
40
0.789541315220663
40
0.793029759009428
40
0.796518202798193
40
0.800006646586958
40
0.806983534164488
40
0.810471977953253
40
0.813960421742018
40
0.817448865530783
40
0.819193087425165
40
0.820937309319547
40
0.824425753108312
40
0.827914196897077
40
0.831402640685842
40
0.834891084474607
40
0.838379528263372
40
0.841867972052137
40
0.848844859629667
40
0.855821747207197
40
0.859310190995961
40
0.862798634784726
40
0.869775522362256
40
0.873263966151021
40
0.876752409939786
40
0.880240853728551
40
0.883729297517316
40
0.887217741306081
40
0.890706185094846
40
0.894194628883611
40
0.897683072672376
40
0.904659960249905
40
0.90814840403867
40
0.911636847827435
40
0.9151252916162
40
0.918613735404965
40
0.92210217919373
40
0.925590622982495
40
0.932567510560025
40
0.93605595434879
40
0.939544398137555
40
0.943032841926319
40
0.946521285715084
40
0.953498173292614
40
0.956986617081379
40
0.960475060870144
40
0.963963504658909
40
0.967451948447674
40
0.970940392236439
40
0.974428836025204
40
0.977917279813969
40
0.981405723602734
40
0.984894167391498
40
0.988382611180263
40
0.991871054969028
40
0.995359498757793
40
0.998847942546558
40
1
40
1
40
1
40
1
41
1
10
-22.5
20
13.4956358883042
30
0
41
1
10
-22.5
20
13.4959444121204
30
0
41
1
10
-22.5
20
13.4970336946428
30
0
41
1
10
-22.5
20
13.4978716184631
30
0
41
1
10
-22.5
20
13.4969161903089
30
0
41
1
10
-22.5
20
13.4939625245411
30
0
41
1
10
-22.5
20
13.4890441905268
30
0
41
1
10
-22.5
20
13.4821928739338
30
0
41
1
10
-22.5
20
13.4734382711797
30
0
41
1
10
-22.5
20
13.4628104278487
30
0
41
1
10
-22.5
20
13.4503375493538
30
0
41
1
10
-22.5
20
13.4312436783152
30
0
41
1
10
-22.5
20
13.402990048048
30
0
41
1
10
-22.5
20
13.3620642251226
30
0
41
1
10
-22.5
20
13.3223661774289
30
0
41
1
10
-22.5
20
13.2871835761246
30
0
41
1
10
-22.5
20
13.2592104836088
30
0
41
1
10
-22.5
20
13.2296213566399
30
0
41
1
10
-22.5
20
13.1879639126742
30
0
41
1
10
-22.5
20
13.1433841284413
30
0
41
1
10
-22.5
20
13.0954724183383
30
0
41
1
10
-22.5
20
13.0580720783436
30
0
41
1
10
-22.5
20
13.0191589474766
30
0
41
1
10
-22.5
20
12.9787481075025
30
0
41
1
10
-22.5
20
12.9368537004399
30
0
41
1
10
-22.5
20
12.8789379874313
30
0
41
1
10
-22.5
20
12.8184132188765
30
0
41
1
10
-22.5
20
12.7547247883428
30
0
41
1
10
-22.5
20
12.7056201369325
30
0
41
1
10
-22.5
20
12.6551113810006
30
0
41
1
10
-22.5
20
12.6032111684974
30
0
41
1
10
-22.5
20
12.5499297998313
30
0
41
1
10
-22.5
20
12.4952790326449
30
0
41
1
10
-22.5
20
12.4392702770472
30
0
41
1
10
-22.5
20
12.3626709718699
30
0
41
1
10
-22.5
20
12.2837700633604
30
0
41
1
10
-22.5
20
12.2018541666219
30
0
41
1
10
-22.5
20
12.1181901660327
30
0
41
1
10
-22.5
20
12.0106580823312
30
0
41
1
10
-22.5
20
11.8988607853737
30
0
41
1
10
-22.5
20
11.8066390784571
30
0
41
1
10
-22.5
20
11.7363216027856
30
0
41
1
10
-22.5
20
11.6647550005754
30
0
41
1
10
-22.5
20
11.59194615036
30
0
41
1
10
-22.5
20
11.5179033392113
30
0
41
1
10
-22.5
20
11.4552554262223
30
0
41
1
10
-22.5
20
11.4043880916922
30
0
41
1
10
-22.5
20
11.3531143221947
30
0
41
1
10
-22.5
20
11.2884404549429
30
0
41
1
10
-22.5
20
11.2095312020912
30
0
41
1
10
-22.5
20
11.1025558247745
30
0
41
1
10
-22.5
20
10.9936883814227
30
0
41
1
10
-22.5
20
10.881957392112
30
0
41
1
10
-22.5
20
10.7971107518715
30
0
41
1
10
-22.5
20
10.7110949831286
30
0
41
1
10
-22.5
20
10.6239149454148
30
0
41
1
10
-22.5
20
10.5355769819029
30
0
41
1
10
-22.5
20
10.4460865275718
30
0
41
1
10
-22.5
20
10.3554481215356
30
0
41
1
10
-22.5
20
10.2636670923514
30
0
41
1
10
-22.5
20
10.1707494549495
30
0
41
1
10
-22.5
20
10.0451570413025
30
0
41
1
10
-22.5
20
9.9178935930201
30
0
41
1
10
-22.5
20
9.78780083934149
30
0
41
1
10
-22.5
20
9.70579078784203
30
0
41
1
10
-22.5
20
9.63944489130404
30
0
41
1
10
-22.5
20
9.57273011219269
30
0
41
1
10
-22.5
20
9.45508832781687
30
0
41
1
10
-22.5
20
9.31898450356377
30
0
41
1
10
-22.5
20
9.18004983919923
30
0
41
1
10
-22.5
20
9.03966368952015
30
0
41
1
10
-22.5
20
8.86197296792949
30
0
41
1
10
-22.5
20
8.68069429175796
30
0
41
1
10
-22.5
20
8.53310893756458
30
0
41
1
10
-22.5
20
8.38410353449396
30
0
41
1
10
-22.5
20
8.23370690743869
30
0
41
1
10
-22.5
20
8.08045168982594
30
0
41
1
10
-22.5
20
7.96465014223952
30
0
41
1
10
-22.5
20
7.84779993569691
30
0
41
1
10
-22.5
20
7.72990617143802
30
0
41
1
10
-22.5
20
7.61097083499584
30
0
41
1
10
-22.5
20
7.45073654157579
30
0
41
1
10
-22.5
20
7.24848505186407
30
0
41
1
10
-22.5
20
7.04280518235291
30
0
41
1
10
-22.5
20
6.87569112826711
30
0
41
1
10
-22.5
20
6.74956632065386
30
0
41
1
10
-22.5
20
6.62242827644155
30
0
41
1
10
-22.5
20
6.4512555331213
30
0
41
1
10
-22.5
20
6.23550102644131
30
0
41
1
10
-22.5
20
5.97220551217549
30
0
41
1
10
-22.5
20
5.70495651005669
30
0
41
1
10
-22.5
20
5.47933703035866
30
0
41
1
10
-22.5
20
5.29623480232564
30
0
41
1
10
-22.5
20
5.15823567759486
30
0
41
1
10
-22.5
20
5.01927995326392
30
0
41
1
10
-22.5
20
4.87937450907222
30
0
41
1
10
-22.5
20
4.73852599905979
30
0
41
1
10
-22.5
20
4.59674211262629
30
0
41
1
10
-22.5
20
4.45403157575558
30
0
41
1
10
-22.5
20
4.31040309161111
30
0
41
1
10
-22.5
20
4.16586580001649
30
0
41
1
10
-22.5
20
4.02043049501106
30
0
41
1
10
-22.5
20
3.87410976932693
30
0
41
1
10
-22.5
20
3.72691565105669
30
0
41
1
10
-22.5
20
3.57886126909133
30
0
41
1
10
-22.5
20
3.4299627769704
30
0
41
1
10
-22.5
20
3.28023687778401
30
0
41
1
10
-22.5
20
3.12970257053468
30
0
41
1
10
-22.5
20
2.97838003358396
30
0
41
1
10
-22.5
20
2.8262921676581
30
0
41
1
10
-22.5
20
2.67346525953189
30
0
41
1
10
-22.5
20
2.51992549648591
30
0
41
1
10
-22.5
20
2.39172828921559
30
0
41
1
10
-22.5
20
2.2882368400623
30
0
41
1
10
-22.5
20
2.18454587114542
30
0
41
1
10
-22.5
20
2.08161602870015
30
0
41
1
10
-22.5
20
1.97729727415896
30
0
41
1
10
-22.5
20
1.89920682890118
30
0
41
1
10
-22.5
20
1.82098464012651
30
0
41
1
10
-22.5
20
1.74263823347056
30
0
41
1
10
-22.5
20
1.66417084854152
30
0
41
1
10
-22.5
20
1.58559123041411
30
0
41
1
10
-22.5
20
1.50690426712365
30
0
41
1
10
-22.5
20
1.40144074045128
30
0
41
1
10
-22.5
20
1.29707563275716
30
0
41
1
10
-22.5
20
1.1912185842138
30
0
41
1
10
-22.5
20
1.11209553564783
30
0
41
1
10
-22.5
20
1.03290644237791
30
0
41
1
10
-22.5
20
0.95365606681014
30
0
41
1
10
-22.5
20
0.874352168955852
30
0
41
1
10
-22.5
20
0.795000198505278
30
0
41
1
10
-22.5
20
0.71560660892132
30
0
41
1
10
-22.5
20
0.63617666680787
30
0
41
1
10
-22.5
20
0.556715993884097
30
0
41
1
10
-22.5
20
0.477229338262958
30
0
41
1
10
-22.5
20
0.397721593521055
30
0
41
1
10
-22.5
20
0.318196568076161
30
0
41
1
10
-22.5
20
0.238658582119825
30
0
41
1
10
-22.5
20
0.159110826532412
30
0
41
1
10
-22.5
20
0.0795570008675952
30
0
41
1
10
-22.5
20
-4.3520458E-09
30
0
41
1
10
-22.5
20
-0.0795570195282949
30
0
41
1
10
-22.5
20
-0.159110863620981
30
0
41
1
10
-22.5
20
-0.238658616598514
30
0
41
1
10
-22.5
20
-0.318196574925025
30
0
41
1
10
-22.5
20
-0.397721596430074
30
0
41
1
10
-22.5
20
-0.477229377934975
30
0
41
1
10
-22.5
20
-0.556716044364009
30
0
41
1
10
-22.5
20
-0.63617667254502
30
0
41
1
10
-22.5
20
-0.715606595157226
30
0
41
1
10
-22.5
20
-0.795000235128668
30
0
41
1
10
-22.5
20
-0.874352236673616
30
0
41
1
10
-22.5
20
-0.953656082911976
30
0
41
1
10
-22.5
20
-1.03290641330759
30
0
41
1
10
-22.5
20
-1.11209555133374
30
0
41
1
10
-22.5
20
-1.19121866112906
30
0
41
1
10
-22.5
20
-1.29707565327635
30
0
41
1
10
-22.5
20
-1.40144071039387
30
0
41
1
10
-22.5
20
-1.50690430877853
30
0
41
1
10
-22.5
20
-1.58559131690836
30
0
41
1
10
-22.5
20
-1.66417088377818
30
0
41
1
10
-22.5
20
-1.74263820265682
30
0
41
1
10
-22.5
20
-1.82098461234611
30
0
41
1
10
-22.5
20
-1.89920687090043
30
0
41
1
10
-22.5
20
-1.97729736527978
30
0
41
1
10
-22.5
20
-2.08161605220536
30
0
41
1
10
-22.5
20
-2.18454583019769
30
0
41
1
10
-22.5
20
-2.28823685042076
30
0
41
1
10
-22.5
20
-2.39172837491469
30
0
41
1
10
-22.5
20
-2.51992552331163
30
0
41
1
10
-22.5
20
-2.67346522993279
30
0
41
1
10
-22.5
20
-2.82629223006825
30
0
41
1
10
-22.5
20
-2.9783800820847
30
0
41
1
10
-22.5
20
-3.12970236953149
30
0
41
1
10
-22.5
20
-3.2802363758513
30
0
41
1
10
-22.5
20
-3.42996282061054
30
0
41
1
10
-22.5
20
-3.57886234252629
30
0
41
1
10
-22.5
20
-3.72691655621918
30
0
41
1
10
-22.5
20
-3.87410940415094
30
0
41
1
10
-22.5
20
-4.02042950258553
30
0
41
1
10
-22.5
20
-4.1658649918152
30
0
41
1
10
-22.5
20
-4.31040320562681
30
0
41
1
10
-22.5
20
-4.45403251641869
30
0
41
1
10
-22.5
20
-4.59674271442694
30
0
41
1
10
-22.5
20
-4.73852585442467
30
0
41
1
10
-22.5
20
-4.87937424460151
30
0
41
1
10
-22.5
20
-5.01927991936705
30
0
41
1
10
-22.5
20
-5.15823571506778
30
0
41
1
10
-22.5
20
-5.29623478947158
30
0
41
1
10
-22.5
20
-5.47933703089231
30
0
41
1
10
-22.5
20
-5.70495655337433
30
0
41
1
10
-22.5
20
-5.97220551419213
30
0
41
1
10
-22.5
20
-6.23550104742759
30
0
41
1
10
-22.5
20
-6.451255571394
30
0
41
1
10
-22.5
20
-6.6224282598192
30
0
41
1
10
-22.5
20
-6.74956631857705
30
0
41
1
10
-22.5
20
-6.87569116366484
30
0
41
1
10
-22.5
20
-7.04280522024894
30
0
41
1
10
-22.5
20
-7.24848505302427
30
0
41
1
10
-22.5
20
-7.4507365478344
30
0
41
1
10
-22.5
20
-7.6109708771202
30
0
41
1
10
-22.5
20
-7.72990620240671
30
0
41
1
10
-22.5
20
-7.84779994085653
30
0
41
1
10
-22.5
20
-7.96465013686171
30
0
41
1
10
-22.5
20
-8.08045169790759
30
0
41
1
10
-22.5
20
-8.23370694014301
30
0
41
1
10
-22.5
20
-8.38410356414289
30
0
41
1
10
-22.5
20
-8.53310893988203
30
0
41
1
10
-22.5
20
-8.68069429599308
30
0
41
1
10
-22.5
20
-8.8619729936481
30
0
41
1
10
-22.5
20
-9.0396637144479
30
0
41
1
10
-22.5
20
-9.18004984465043
30
0
41
1
10
-22.5
20
-9.31898451102214
30
0
41
1
10
-22.5
20
-9.45508835059124
30
0
41
1
10
-22.5
20
-9.57273013875857
30
0
41
1
10
-22.5
20
-9.63944491324963
30
0
41
1
10
-22.5
20
-9.70579080403837
30
0
41
1
10
-22.5
20
-9.7878008492857
30
0
41
1
10
-22.5
20
-9.91789360326428
30
0
41
1
10
-22.5
20
-10.0451570606616
30
0
41
1
10
-22.5
20
-10.1707494782419
30
0
41
1
10
-22.5
20
-10.2636671117607
30
0
41
1
10
-22.5
20
-10.3554481360506
30
0
41
1
10
-22.5
20
-10.4460865401309
30
0
41
1
10
-22.5
20
-10.5355769962349
30
0
41
1
10
-22.5
20
-10.6239149629423
30
0
41
1
10
-22.5
20
-10.7110950034658
30
0
41
1
10
-22.5
20
-10.7971107724731
30
0
41
1
10
-22.5
20
-10.881957410682
30
0
41
1
10
-22.5
20
-10.9936883968037
30
0
41
1
10
-22.5
20
-11.1025558384385
30
0
41
1
10
-22.5
20
-11.2095312195267
30
0
41
1
10
-22.5
20
-11.2884404756242
30
0
41
1
10
-22.5
20
-11.3531143441571
30
0
41
1
10
-22.5
20
-11.4043881128182
30
0
41
1
10
-22.5
20
-11.4552554448703
30
0
41
1
10
-22.5
20
-11.5179033535968
30
0
41
1
10
-22.5
20
-11.5919461625789
30
0
41
1
10
-22.5
20
-11.664755015164
30
0
41
1
10
-22.5
20
-11.7363216229303
30
0
41
1
10
-22.5
20
-11.8066391033683
30
0
41
1
10
-22.5
20
-11.8988608066557
30
0
41
1
10
-22.5
20
-12.0106580919609
30
0
41
1
10
-22.5
20
-12.1181901818312
30
0
41
1
10
-22.5
20
-12.2018541939414
30
0
41
1
10
-22.5
20
-12.2837700876339
30
0
41
1
10
-22.5
20
-12.3626709807027
30
0
41
1
10
-22.5
20
-12.4392702870471
30
0
41
1
10
-22.5
20
-12.4952790541085
30
0
41
1
10
-22.5
20
-12.5499298292215
30
0
41
1
10
-22.5
20
-12.6032111946844
30
0
41
1
10
-22.5
20
-12.6551113940766
30
0
41
1
10
-22.5
20
-12.7056201424592
30
0
41
1
10
-22.5
20
-12.7547247990428
30
0
41
1
10
-22.5
20
-12.8184132466048
30
0
41
1
10
-22.5
20
-12.8789380178894
30
0
41
1
10
-22.5
20
-12.9368537080862
30
0
41
1
10
-22.5
20
-12.9787481114295
30
0
41
1
10
-22.5
20
-13.0191589652135
30
0
41
1
10
-22.5
20
-13.0580721081213
30
0
41
1
10
-22.5
20
-13.0954724456838
30
0
41
1
10
-22.5
20
-13.143384141029
30
0
41
1
10
-22.5
20
-13.187963912528
30
0
41
1
10
-22.5
20
-13.2296213845592
30
0
41
1
10
-22.5
20
-13.2592105165633
30
0
41
1
10
-22.5
20
-13.2871835921006
30
0
41
1
10
-22.5
20
-13.3223661764574
30
0
41
1
10
-22.5
20
-13.3540536969874
30
0
41
1
10
-22.5
20
-13.3825245595672
30
0
41
1
10
-22.5
20
-13.4021158939438
30
0
41
1
10
-22.5
20
-13.4199649415155
30
0
41
1
10
-22.5
20
-13.4360470510206
30
0
41
1
10
-22.5
20
-13.4503375548199
30
0
41
1
10
-22.5
20
-13.4628103286331
30
0
41
1
10
-22.5
20
-13.4734380181859
30
0
41
1
10
-22.5
20
-13.4821927509398
30
0
41
1
10
-22.5
20
-13.4890446841776
30
0
41
1
10
-22.5
20
-13.4939634903146
30
0
41
1
10
-22.5
20
-13.4969168014739
30
0
41
1
10
-22.5
20
-13.4978715423881
30
0
41
1
10
-22.5
20
-13.4970334654345
30
0
41
1
10
-22.5
20
-13.4959444883071
30
0
41
1
10
-22.5
20
-13.4956362783113
30
0
0
SPLINE
5
17A
100
AcDbEntity
8
SK1
62
256
6
ByLayer
370
18
48
1
60
0
100
AcDbSpline
70
4
71
3
72
119
73
115
40
0
40
0
40
0
40
0
40
0.0017654123580965
40
0.0096870353220259
40
0.0176086582859554
40
0.0255302812498848
40
0.0334519042138142
40
0.0413735271777437
40
0.0492951501416731
40
0.0572167731056025
40
0.065138396069532
40
0.0730600190334614
40
0.0809816419973908
40
0.0889032649613203
40
0.0968248879252497
40
0.104746510889179
40
0.112668133853109
40
0.120589756817038
40
0.128511379780967
40
0.136433002744897
40
0.144354625708826
40
0.152276248672756
40
0.160197871636685
40
0.176041117564544
40
0.191884363492403
40
0.207727609420262
40
0.223570855348121
40
0.23149247831205
40
0.23941410127598
40
0.247335724239909
40
0.255257347203838
40
0.271100593131697
40
0.286943839059556
40
0.294865462023486
40
0.302787084987415
40
0.310708707951344
40
0.318630330915274
40
0.326551953879203
40
0.334473576843133
40
0.350316822770992
40
0.358238445734921
40
0.36616006869885
40
0.382003314626709
40
0.397846560554568
40
0.405768183518498
40
0.413689806482427
40
0.429533052410286
40
0.437454675374215
40
0.44141548685618
40
0.445376298338145
40
0.453297921302074
40
0.461219544266003
40
0.477062790193862
40
0.484984413157792
40
0.492906036121721
40
0.500827659085651
40
0.50874928204958
40
0.51667090501351
40
0.524592527977439
40
0.532514150941368
40
0.540435773905298
40
0.548357396869227
40
0.556279019833157
40
0.572122265761016
40
0.580043888724945
40
0.587965511688874
40
0.595887134652804
40
0.599847946134769
40
0.603808757616733
40
0.611730380580663
40
0.619652003544592
40
0.627573626508522
40
0.635495249472451
40
0.64341687243638
40
0.65133849540031
40
0.667181741328169
40
0.683024987256028
40
0.690946610219957
40
0.698868233183886
40
0.714711479111745
40
0.722633102075675
40
0.730554725039604
40
0.738476348003534
40
0.746397970967463
40
0.754319593931392
40
0.762241216895322
40
0.770162839859251
40
0.778084462823181
40
0.79392770875104
40
0.801849331714969
40
0.809770954678899
40
0.817692577642828
40
0.825614200606757
40
0.833535823570687
40
0.841457446534616
40
0.857300692462475
40
0.865222315426404
40
0.873143938390334
40
0.881065561354263
40
0.888987184318193
40
0.904830430246052
40
0.912752053209981
40
0.92067367617391
40
0.92859529913784
40
0.936516922101769
40
0.944438545065699
40
0.952360168029628
40
0.960281790993558
40
0.968203413957487
40
0.976125036921417
40
0.984046659885346
40
0.991968282849276
40
0.999889905813205
40
1
40
1
40
1
40
1
41
1
10
-1.49503997793931
20
-2.59465115086957
30
0
41
1
10
-1.49503997793931
20
-2.606473243442
30
0
41
1
10
-1.49503997793931
20
-2.67130382016646
30
0
41
1
10
-1.49503997793931
20
-2.78881794693001
30
0
41
1
10
-1.49503997793931
20
-2.94652921585708
30
0
41
1
10
-1.49503997793931
20
-3.10333581737226
30
0
41
1
10
-1.49503997793931
20
-3.25922160409144
30
0
41
1
10
-1.49503997793931
20
-3.4141725129254
30
0
41
1
10
-1.49503997793931
20
-3.56817684914566
30
0
41
1
10
-1.49503997793931
20
-3.72122348266291
30
0
41
1
10
-1.49503997793931
20
-3.87330241838259
30
0
41
1
10
-1.49503997793931
20
-4.02440435063471
30
0
41
1
10
-1.49503997793931
20
-4.17452257114442
30
0
41
1
10
-1.49503997793931
20
-4.32365075555242
30
0
41
1
10
-1.49503997793931
20
-4.47178250674139
30
0
41
1
10
-1.49503997793931
20
-4.61891187892093
30
0
41
1
10
-1.49503997793931
20
-4.7650335666859
30
0
41
1
10
-1.49503997793931
20
-4.91014320448997
30
0
41
1
10
-1.49503997793931
20
-5.05423700692032
30
0
41
1
10
-1.49503997793931
20
-5.19731095699922
30
0
41
1
10
-1.49503997793931
20
-5.33936160781602
30
0
41
1
10
-1.49503997793931
20
-5.48038543010182
30
0
41
1
10
-1.49503997793931
20
-5.66717892451575
30
0
41
1
10
-1.49503997793931
20
-5.89779786635279
30
0
41
1
10
-1.49503997793931
20
-6.17053537924178
30
0
41
1
10
-1.49503997793931
20
-6.43910150489376
30
0
41
1
10
-1.49503997793931
20
-6.65929861735816
30
0
41
1
10
-1.49503997793931
20
-6.83355374310952
30
0
41
1
10
-1.49503997793931
20
-6.96311018885424
30
0
41
1
10
-1.49503997793931
20
-7.09160988853208
30
0
41
1
10
-1.49503997793931
20
-7.26163684175143
30
0
41
1
10
-1.49503997793931
20
-7.47128768043942
30
0
41
1
10
-1.49503997793931
20
-7.67738590051292
30
0
41
1
10
-1.49503997793931
20
-7.84029855153605
30
0
41
1
10
-1.49503997793931
20
-7.96134018717205
30
0
41
1
10
-1.49503997793931
20
-8.08130644558901
30
0
41
1
10
-1.49503997793931
20
-8.2001957134178
30
0
41
1
10
-1.49503997793931
20
-8.31800484031689
30
0
41
1
10
-1.49503997793931
20
-8.47372856948019
30
0
41
1
10
-1.49503997793931
20
-8.62702161678089
30
0
41
1
10
-1.49503997793931
20
-8.7783873974316
30
0
41
1
10
-1.49503997793931
20
-8.92829538452324
30
0
41
1
10
-1.49503997793931
20
-9.11275364912453
30
0
41
1
10
-1.49503997793931
20
-9.2935360539519
30
0
41
1
10
-1.49503997793931
20
-9.43608247629777
30
0
41
1
10
-1.49503997793931
20
-9.57714512355727
30
0
41
1
10
-1.49503997793931
20
-9.71574945872365
30
0
41
1
10
-1.49503997793931
20
-9.835227886979
30
0
41
1
10
-1.49503997793931
20
-9.90295237623948
30
0
41
1
10
-1.49503997793931
20
-9.97030028641953
30
0
41
1
10
-1.49503997793931
20
-10.0536983203575
30
0
41
1
10
-1.49503997793931
20
-10.1857467801784
30
0
41
1
10
-1.49503997793931
20
-10.3153089526253
30
0
41
1
10
-1.49503997793931
20
-10.4427777956644
30
0
41
1
10
-1.49503997793931
20
-10.537175897834
30
0
41
1
10
-1.49503997793931
20
-10.630416702033
30
0
41
1
10
-1.49503997793931
20
-10.7224950525573
30
0
41
1
10
-1.49503997793931
20
-10.8134058114344
30
0
41
1
10
-1.49503997793931
20
-10.9031442186804
30
0
41
1
10
-1.49503997793931
20
-10.9917054227684
30
0
41
1
10
-1.49503997793931
20
-11.0790834618892
30
0
41
1
10
-1.49503997793931
20
-11.165273297363
30
0
41
1
10
-1.49503997793931
20
-11.2786601205037
30
0
41
1
10
-1.49503997793931
20
-11.3894729046301
30
0
41
1
10
-1.49503997793931
20
-11.4980349156059
30
0
41
1
10
-1.49503997793931
20
-11.5781957427673
30
0
41
1
10
-1.49503997793931
20
-11.6439487843731
30
0
41
1
10
-1.49503997793931
20
-11.6959849306732
30
0
41
1
10
-1.49503997793931
20
-11.747609354201
30
0
41
1
10
-1.49503997793931
20
-11.8113057197552
30
0
41
1
10
-1.49503997793931
20
-11.886528664654
30
0
41
1
10
-1.49503997793931
20
-11.960500101414
30
0
41
1
10
-1.49503997793931
20
-12.0332119519516
30
0
41
1
10
-1.49503997793931
20
-12.1046570427268
30
0
41
1
10
-1.49503997793931
20
-12.1982669205398
30
0
41
1
10
-1.49503997793931
20
-12.3119621581916
30
0
41
1
10
-1.49503997793931
20
-12.4213295969168
30
0
41
1
10
-1.49503997793931
20
-12.5062717787185
30
0
41
1
10
-1.49503997793931
20
-12.5894449263383
30
0
41
1
10
-1.49503997793931
20
-12.6698142967672
30
0
41
1
10
-1.49503997793931
20
-12.7476032540011
30
0
41
1
10
-1.49503997793931
20
-12.8045464232669
30
0
41
1
10
-1.49503997793931
20
-12.8601132308426
30
0
41
1
10
-1.49503997793931
20
-12.9142926213842
30
0
41
1
10
-1.49503997793931
20
-12.9670724454163
30
0
41
1
10
-1.49503997793931
20
-13.0184419731185
30
0
41
1
10
-1.49503997793931
20
-13.0683888234861
30
0
41
1
10
-1.49503997793931
20
-13.133106637017
30
0
41
1
10
-1.49503997793931
20
-13.1948224412614
30
0
41
1
10
-1.49503997793931
20
-13.2536925631392
30
0
41
1
10
-1.49503997793931
20
-13.296330722945
30
0
41
1
10
-1.49503997793931
20
-13.3374647797226
30
0
41
1
10
-1.49503997793931
20
-13.3770799229021
30
0
41
1
10
-1.49503997793931
20
-13.4151607649325
30
0
41
1
10
-1.49503997793931
20
-13.4638962511352
30
0
41
1
10
-1.49503997793931
20
-13.5094130161235
30
0
41
1
10
-1.49503997793931
20
-13.551806168738
30
0
41
1
10
-1.49503997793931
20
-13.5819601013665
30
0
41
1
10
-1.49503997793931
20
-13.6104729213425
30
0
41
1
10
-1.49503997793931
20
-13.646298505966
30
0
41
1
10
-1.49503997793931
20
-13.6786965897716
30
0
41
1
10
-1.49503997793931
20
-13.7077055842542
30
0
41
1
10
-1.49503997793931
20
-13.7276983600542
30
0
41
1
10
-1.49503997793931
20
-13.7459180935577
30
0
41
1
10
-1.49503997793931
20
-13.7623389110759
30
0
41
1
10
-1.49503997793931
20
-13.7769347594832
30
0
41
1
10
-1.49503997793931
20
-13.7896781016746
30
0
41
1
10
-1.49503997793931
20
-13.800539960484
30
0
41
1
10
-1.49503997793931
20
-13.8094907530557
30
0
41
1
10
-1.49503997793931
20
-13.8164987457743
30
0
41
1
10
-1.49503997793931
20
-13.821531562835
30
0
41
1
10
-1.49503997793931
20
-13.8245545856003
30
0
41
1
10
-1.49503997793931
20
-13.8252109196352
30
0
41
1
10
-1.49503997793934
20
-13.8251847303269
30
0
41
1
10
-1.4950399779393
20
-13.8251837302269
30
0
0
SPLINE
5
17B
100
AcDbEntity
8
SK1
62
256
6
ByLayer
370
18
48
1
60
0
100
AcDbSpline
70
4
71
3
72
117
73
113
40
0
40
0
40
0
40
0
40
0.0001126815611526
40
0.0080342840426677
40
0.0159558865241828
40
0.0238774890056978
40
0.0317990914872129
40
0.0397206939687279
40
0.047642296450243
40
0.055563898931758
40
0.0634855014132731
40
0.0793287063763032
40
0.0951719113393333
40
0.111015116302363
40
0.118936718783879
40
0.126858321265394
40
0.134779923746909
40
0.142701526228424
40
0.158544731191454
40
0.166466333672969
40
0.174387936154484
40
0.182309538635999
40
0.190231141117514
40
0.198152743599029
40
0.206074346080544
40
0.221917551043574
40
0.229839153525089
40
0.237760756006604
40
0.245682358488119
40
0.253603960969634
40
0.26152556345115
40
0.269447165932665
40
0.27736876841418
40
0.285290370895695
40
0.301133575858725
40
0.30905517834024
40
0.316976780821755
40
0.332819985784785
40
0.348663190747815
40
0.35658479322933
40
0.364506395710845
40
0.37242799819236
40
0.380349600673875
40
0.38827120315539
40
0.396192805636906
40
0.400153606877663
40
0.404114408118421
40
0.412036010599936
40
0.419957613081451
40
0.427879215562966
40
0.443722420525996
40
0.451644023007511
40
0.459565625489026
40
0.467487227970541
40
0.475408830452056
40
0.483330432933571
40
0.491252035415086
40
0.499173637896601
40
0.507095240378116
40
0.515016842859631
40
0.522938445341146
40
0.538781650304177
40
0.546703252785692
40
0.554624855267207
40
0.558585656507964
40
0.562546457748722
40
0.570468060230237
40
0.586311265193267
40
0.594232867674782
40
0.602154470156297
40
0.617997675119327
40
0.633840880082357
40
0.641762482563872
40
0.649684085045387
40
0.665527290008418
40
0.673448892489933
40
0.681370494971448
40
0.689292097452963
40
0.697213699934478
40
0.705135302415993
40
0.713056904897508
40
0.728900109860538
40
0.744743314823568
40
0.752664917305083
40
0.760586519786598
40
0.768508122268113
40
0.776429724749628
40
0.792272929712658
40
0.808116134675689
40
0.823959339638719
40
0.839802544601749
40
0.847724147083264
40
0.855645749564779
40
0.863567352046294
40
0.871488954527809
40
0.879410557009324
40
0.887332159490839
40
0.895253761972354
40
0.903175364453869
40
0.911096966935384
40
0.919018569416899
40
0.926940171898414
40
0.934861774379929
40
0.942783376861444
40
0.95070497934296
40
0.958626581824475
40
0.96654818430599
40
0.974469786787505
40
0.98239138926902
40
0.990312991750535
40
0.99823459423205
40
1
40
1
40
1
40
1
41
1
10
-1.49503997793926
20
13.8251837286072
30
0
41
1
10
-1.49503997793926
20
13.8251847287072
30
0
41
1
10
-1.49503997793926
20
13.8252108735228
30
0
41
1
10
-1.49503997793928
20
13.8245539604948
30
0
41
1
10
-1.49503997793928
20
13.8215305966481
30
0
41
1
10
-1.49503997793928
20
13.8164982902869
30
0
41
1
10
-1.49503997793928
20
13.8094909095343
30
0
41
1
10
-1.49503997793928
20
13.8005402090708
30
0
41
1
10
-1.49503997793928
20
13.7896781830989
30
0
41
1
10
-1.49503997793928
20
13.7769347476405
30
0
41
1
10
-1.49503997793928
20
13.7574597557179
30
0
41
1
10
-1.49503997793928
20
13.7285859139399
30
0
41
1
10
-1.49503997793928
20
13.6868269300449
30
0
41
1
10
-1.49503997793928
20
13.6462985077496
30
0
41
1
10
-1.49503997793928
20
13.6104729008558
30
0
41
1
10
-1.49503997793928
20
13.5819600687286
30
0
41
1
10
-1.49503997793928
20
13.5518061457236
30
0
41
1
10
-1.49503997793928
20
13.509413016618
30
0
41
1
10
-1.49503997793928
20
13.4638962341071
30
0
41
1
10
-1.49503997793928
20
13.4151607370273
30
0
41
1
10
-1.49503997793928
20
13.3770798968994
30
0
41
1
10
-1.49503997793928
20
13.3374647662751
30
0
41
1
10
-1.49503997793928
20
13.2963307178616
30
0
41
1
10
-1.49503997793928
20
13.2536925499096
30
0
41
1
10
-1.49503997793928
20
13.1948224098965
30
0
41
1
10
-1.49503997793928
20
13.1331066142243
30
0
41
1
10
-1.49503997793928
20
13.0683888145289
30
0
41
1
10
-1.49503997793928
20
13.0184419638584
30
0
41
1
10
-1.49503997793928
20
12.9670724273821
30
0
41
1
10
-1.49503997793928
20
12.9142925944038
30
0
41
1
10
-1.49503997793928
20
12.860113205584
30
0
41
1
10
-1.49503997793928
20
12.8045464062654
30
0
41
1
10
-1.49503997793928
20
12.74760324418
30
0
41
1
10
-1.49503997793928
20
12.6698142834541
30
0
41
1
10
-1.49503997793928
20
12.5894449005116
30
0
41
1
10
-1.49503997793928
20
12.50627175547
30
0
41
1
10
-1.49503997793928
20
12.4213295833849
30
0
41
1
10
-1.49503997793928
20
12.3119621458456
30
0
41
1
10
-1.49503997793928
20
12.1982668977617
30
0
41
1
10
-1.49503997793928
20
12.1046570208051
30
0
41
1
10
-1.49503997793928
20
12.0332119345842
30
0
41
1
10
-1.49503997793928
20
11.9605000871413
30
0
41
1
10
-1.49503997793928
20
11.8865286504803
30
0
41
1
10
-1.49503997793928
20
11.8113057028001
30
0
41
1
10
-1.49503997793928
20
11.7476093345099
30
0
41
1
10
-1.49503997793928
20
11.6959849101866
30
0
41
1
10
-1.49503997793928
20
11.643948764099
30
0
41
1
10
-1.49503997793928
20
11.5781957241672
30
0
41
1
10
-1.49503997793928
20
11.4980348993556
30
0
41
1
10
-1.49503997793928
20
11.3894728900619
30
0
41
1
10
-1.49503997793928
20
11.278660103453
30
0
41
1
10
-1.49503997793928
20
11.1652732784127
30
0
41
1
10
-1.49503997793928
20
11.0790834423827
30
0
41
1
10
-1.49503997793928
20
10.9917054044732
30
0
41
1
10
-1.49503997793928
20
10.9031442025602
30
0
41
1
10
-1.49503997793928
20
10.8134057967923
30
0
41
1
10
-1.49503997793928
20
10.7224950378189
30
0
41
1
10
-1.49503997793928
20
10.6304166849825
30
0
41
1
10
-1.49503997793928
20
10.5371758780398
30
0
41
1
10
-1.49503997793928
20
10.4427777751693
30
0
41
1
10
-1.49503997793928
20
10.3153089364435
30
0
41
1
10
-1.49503997793928
20
10.1857467684219
30
0
41
1
10
-1.49503997793928
20
10.0536983054632
30
0
41
1
10
-1.49503997793928
20
9.97030026745779
30
0
41
1
10
-1.49503997793928
20
9.90295235506755
30
0
41
1
10
-1.49503997793928
20
9.83522786489038
30
0
41
1
10
-1.49503997793928
20
9.71574944153573
30
0
41
1
10
-1.49503997793928
20
9.57714511427093
30
0
41
1
10
-1.49503997793928
20
9.43608246295526
30
0
41
1
10
-1.49503997793928
20
9.29353602958125
30
0
41
1
10
-1.49503997793928
20
9.11275363063515
30
0
41
1
10
-1.49503997793928
20
8.92829537712967
30
0
41
1
10
-1.49503997793928
20
8.77838738443313
30
0
41
1
10
-1.49503997793928
20
8.62702158956
30
0
41
1
10
-1.49503997793928
20
8.47372854841302
30
0
41
1
10
-1.49503997793928
20
8.31800483202281
30
0
41
1
10
-1.49503997793928
20
8.20019570647173
30
0
41
1
10
-1.49503997793928
20
8.08130642958628
30
0
41
1
10
-1.49503997793928
20
7.96134016006346
30
0
41
1
10
-1.49503997793928
20
7.84029852533041
30
0
41
1
10
-1.49503997793928
20
7.67738589461936
30
0
41
1
10
-1.49503997793928
20
7.47128766686797
30
0
41
1
10
-1.49503997793928
20
7.261636811758
30
0
41
1
10
-1.49503997793928
20
7.09160986883526
30
0
41
1
10
-1.49503997793928
20
6.96311018452545
30
0
41
1
10
-1.49503997793928
20
6.83355373772449
30
0
41
1
10
-1.49503997793928
20
6.6592985841524
30
0
41
1
10
-1.49503997793928
20
6.43910149333703
30
0
41
1
10
-1.49503997793928
20
6.17053536578155
30
0
41
1
10
-1.49503997793928
20
5.89779783511918
30
0
41
1
10
-1.49503997793928
20
5.66717892097088
30
0
41
1
10
-1.49503997793928
20
5.48038541909952
30
0
41
1
10
-1.49503997793928
20
5.33936157753735
30
0
41
1
10
-1.49503997793928
20
5.19731095553271
30
0
41
1
10
-1.49503997793928
20
5.05423706888553
30
0
41
1
10
-1.49503997793928
20
4.91014315579861
30
0
41
1
10
-1.49503997793928
20
4.7650332428635
30
0
41
1
10
-1.49503997793928
20
4.61891156596767
30
0
41
1
10
-1.49503997793928
20
4.47178260268984
30
0
41
1
10
-1.49503997793928
20
4.32365113214263
30
0
41
1
10
-1.49503997793928
20
4.17452288947305
30
0
41
1
10
-1.49503997793928
20
4.02440432752809
30
0
41
1
10
-1.49503997793928
20
3.87330192992579
30
0
41
1
10
-1.49503997793928
20
3.7212231412766
30
0
41
1
10
-1.49503997793928
20
3.56817690176541
30
0
41
1
10
-1.49503997793928
20
3.41417271020586
30
0
41
1
10
-1.49503997793928
20
3.25922165821993
30
0
41
1
10
-1.49503997793928
20
3.1033357799555
30
0
41
1
10
-1.49503997793928
20
2.94652918151195
30
0
41
1
10
-1.49503997793928
20
2.78881794429316
30
0
41
1
10
-1.49503997793928
20
2.67130381064959
30
0
41
1
10
-1.49503997793928
20
2.60647323876154
30
0
41
1
10
-1.49503997793931
20
2.59465115838313
30
0
0
SPLINE
5
17C
100
AcDbEntity
8
SK1
62
256
6
ByLayer
370
18
48
1
60
0
100
AcDbSpline
70
4
71
3
72
287
73
283
40
0
40
0
40
0
40
0
40
0.0005770558813327
40
0.0040695211069011
40
0.0075619863324696
40
0.011054451558038
40
0.0145469167836064
40
0.0180393820091748
40
0.0215318472347433
40
0.0250243124603117
40
0.0285167776858801
40
0.0320092429114485
40
0.0389941733625853
40
0.0459791038137221
40
0.052964034264859
40
0.0564564994904274
40
0.0599489647159958
40
0.0634414299415642
40
0.0669338951671326
40
0.0739188256182695
40
0.0774112908438379
40
0.0809037560694063
40
0.0843962212949747
40
0.0878886865205431
40
0.0913811517461116
40
0.09487361697168
40
0.101858547422817
40
0.105351012648385
40
0.108843477873954
40
0.112335943099522
40
0.115828408325091
40
0.119320873550659
40
0.122813338776227
40
0.126305804001796
40
0.129798269227364
40
0.136783199678501
40
0.140275664904069
40
0.143768130129638
40
0.150753060580775
40
0.157737991031911
40
0.16123045625748
40
0.164722921483048
40
0.168215386708617
40
0.171707851934185
40
0.175200317159754
40
0.178692782385322
40
0.180439014998106
40
0.18218524761089
40
0.185677712836459
40
0.189170178062027
40
0.192662643287596
40
0.199647573738732
40
0.203140038964301
40
0.206632504189869
40
0.210124969415438
40
0.213617434641006
40
0.217109899866575
40
0.220602365092143
40
0.224094830317711
40
0.22758729554328
40
0.231079760768848
40
0.234572225994416
40
0.241557156445554
40
0.245049621671122
40
0.24854208689669
40
0.250288319509475
40
0.252034552122259
40
0.255527017347827
40
0.262511947798964
40
0.266004413024532
40
0.269496878250101
40
0.276481808701238
40
0.283466739152374
40
0.286959204377943
40
0.290451669603511
40
0.297436600054648
40
0.300929065280216
40
0.304421530505785
40
0.307913995731353
40
0.311406460956922
40
0.31489892618249
40
0.318391391408059
40
0.325376321859195
40
0.332361252310332
40
0.335853717535901
40
0.339346182761469
40
0.342838647987038
40
0.346331113212606
40
0.353316043663743
40
0.360300974114879
40
0.367285904566016
40
0.374270835017153
40
0.377763300242722
40
0.38125576546829
40
0.384748230693858
40
0.388240695919427
40
0.391733161144995
40
0.395225626370564
40
0.398718091596132
40
0.402210556821701
40
0.405703022047269
40
0.409195487272837
40
0.412687952498406
40
0.416180417723974
40
0.419672882949543
40
0.423165348175111
40
0.426657813400679
40
0.430150278626248
40
0.433642743851816
40
0.437135209077385
40
0.440627674302953
40
0.444120139528521
40
0.44761260475409
40
0.449358837366874
40
0.451105069979658
40
0.454597535205227
40
0.456343767818011
40
0.458090000430795
40
0.459836233043579
40
0.461582465656364
40
0.463328698269148
40
0.465074930881932
40
0.466821163494716
40
0.4685673961075
40
0.472059861333069
40
0.473806093945853
40
0.475552326558637
40
0.477298559171422
40
0.479044791784206
40
0.48079102439699
40
0.482537257009774
40
0.484283489622558
40
0.486029722235343
40
0.487775954848127
40
0.489522187460911
40
0.491268420073695
40
0.493014652686479
40
0.494760885299264
40
0.496507117912048
40
0.498253350524832
40
0.499999583137616
40
0.5017458157504
40
0.503492048363185
40
0.505238280975969
40
0.506984513588753
40
0.508730746201537
40
0.510476978814322
40
0.512223211427106
40
0.51396944403989
40
0.515715676652674
40
0.517461909265458
40
0.519208141878242
40
0.520954374491027
40
0.522700607103811
40
0.524446839716595
40
0.526193072329379
40
0.527939304942164
40
0.531431770167732
40
0.533178002780516
40
0.5349242353933
40
0.536670468006085
40
0.538416700618869
40
0.540162933231653
40
0.541909165844437
40
0.543655398457221
40
0.545401631070006
40
0.548894096295574
40
0.550640328908358
40
0.552386561521142
40
0.555879026746711
40
0.559371491972279
40
0.562863957197848
40
0.566356422423416
40
0.569848887648984
40
0.573341352874553
40
0.576833818100121
40
0.58032628332569
40
0.583818748551258
40
0.587311213776827
40
0.590803679002395
40
0.594296144227963
40
0.597788609453532
40
0.6012810746791
40
0.604773539904669
40
0.608266005130237
40
0.611758470355806
40
0.615250935581374
40
0.618743400806942
40
0.622235866032511
40
0.625728331258079
40
0.632713261709216
40
0.639698192160353
40
0.64668312261149
40
0.653668053062626
40
0.657160518288195
40
0.660652983513763
40
0.664145448739332
40
0.6676379139649
40
0.674622844416037
40
0.681607774867174
40
0.685100240092742
40
0.688592705318311
40
0.692085170543879
40
0.695577635769448
40
0.699070100995016
40
0.702562566220584
40
0.709547496671721
40
0.713039961897289
40
0.716532427122858
40
0.723517357573995
40
0.730502288025132
40
0.7339947532507
40
0.737487218476269
40
0.744472148927405
40
0.747964614152974
40
0.749710846765758
40
0.751457079378542
40
0.754949544604111
40
0.758442009829679
40
0.765426940280816
40
0.768919405506384
40
0.772411870731953
40
0.775904335957521
40
0.779396801183089
40
0.782889266408658
40
0.786381731634226
40
0.789874196859795
40
0.793366662085363
40
0.796859127310932
40
0.8003515925365
40
0.807336522987637
40
0.810828988213205
40
0.814321453438774
40
0.817813918664342
40
0.819560151277126
40
0.821306383889911
40
0.824798849115479
40
0.828291314341047
40
0.831783779566616
40
0.835276244792184
40
0.838768710017752
40
0.842261175243321
40
0.849246105694458
40
0.856231036145594
40
0.859723501371163
40
0.863215966596732
40
0.870200897047868
40
0.873693362273437
40
0.877185827499005
40
0.880678292724574
40
0.884170757950142
40
0.88766322317571
40
0.891155688401279
40
0.894648153626847
40
0.898140618852416
40
0.905125549303552
40
0.908618014529121
40
0.912110479754689
40
0.915602944980258
40
0.919095410205826
40
0.922587875431394
40
0.926080340656963
40
0.9330652711081
40
0.936557736333668
40
0.940050201559237
40
0.943542666784805
40
0.947035132010374
40
0.95402006246151
40
0.957512527687079
40
0.961004992912647
40
0.964497458138216
40
0.967989923363784
40
0.971482388589352
40
0.974974853814921
40
0.978467319040489
40
0.981959784266058
40
0.985452249491626
40
0.988944714717194
40
0.992437179942763
40
0.995929645168331
40
0.9994221103939
40
1
40
1
40
1
40
1
41
1
10
-24
20
12.6301466081428
30
0
41
1
10
-24
20
12.6302729697404
30
0
41
1
10
-24
20
12.6311019480127
30
0
41
1
10
-24
20
12.6318299492432
30
0
41
1
10
-24
20
12.6309352666138
30
0
41
1
10
-24
20
12.6281658201647
30
0
41
1
10
-24
20
12.623548726994
30
0
41
1
10
-24
20
12.6171099043118
30
0
41
1
10
-24
20
12.6088736083307
30
0
41
1
10
-24
20
12.5988647342338
30
0
41
1
10
-24
20
12.5871069661155
30
0
41
1
10
-24
20
12.569020437469
30
0
41
1
10
-24
20
12.5424060911485
30
0
41
1
10
-24
20
12.5036823998811
30
0
41
1
10
-24
20
12.466179119183
30
0
41
1
10
-24
20
12.4326960489613
30
0
41
1
10
-24
20
12.4061495447384
30
0
41
1
10
-24
20
12.3780532328159
30
0
41
1
10
-24
20
12.3383402816863
30
0
41
1
10
-24
20
12.2962370819873
30
0
41
1
10
-24
20
12.2505027270978
30
0
41
1
10
-24
20
12.2149010201899
30
0
41
1
10
-24
20
12.1778433481664
30
0
41
1
10
-24
20
12.1393440238031
30
0
41
1
10
-24
20
12.0994154546281
30
0
41
1
10
-24
20
12.0440223921018
30
0
41
1
10
-24
20
11.9866456328948
30
0
41
1
10
-24
20
11.9256779328098
30
0
41
1
10
-24
20
11.8787993022056
30
0
41
1
10
-24
20
11.8305656793587
30
0
41
1
10
-24
20
11.78099039585
30
0
41
1
10
-24
20
11.7300825884547
30
0
41
1
10
-24
20
11.6778529900837
30
0
41
1
10
-24
20
11.6243139686469
30
0
41
1
10
-24
20
11.5508590476175
30
0
41
1
10
-24
20
11.4758394707542
30
0
41
1
10
-24
20
11.3972466128896
30
0
41
1
10
-24
20
11.3169609533628
30
0
41
1
10
-24
20
11.2142799019792
30
0
41
1
10
-24
20
11.1074990885262
30
0
41
1
10
-24
20
11.0189464603389
30
0
41
1
10
-24
20
10.9516093773873
30
0
41
1
10
-24
20
10.8830697782116
30
0
41
1
10
-24
20
10.8133337656712
30
0
41
1
10
-24
20
10.7424101789121
30
0
41
1
10
-24
20
10.6825334430363
30
0
41
1
10
-24
20
10.6336671760819
30
0
41
1
10
-24
20
10.5844084477176
30
0
41
1
10
-24
20
10.5225869468266
30
0
41
1
10
-24
20
10.4469857296791
30
0
41
1
10
-24
20
10.3442039867663
30
0
41
1
10
-24
20
10.2404782892815
30
0
41
1
10
-24
20
10.133123847137
30
0
41
1
10
-24
20
10.0518274139735
30
0
41
1
10
-24
20
9.96941226524035
30
0
41
1
10
-24
20
9.8858827890852
30
0
41
1
10
-24
20
9.80124634105394
30
0
41
1
10
-24
20
9.71550990056983
30
0
41
1
10
-24
20
9.62867742465991
30
0
41
1
10
-24
20
9.54075474090101
30
0
41
1
10
-24
20
9.4517501287076
30
0
41
1
10
-24
20
9.33111730296773
30
0
41
1
10
-24
20
9.20992961158598
30
0
41
1
10
-24
20
9.08500600225796
30
0
41
1
10
-24
20
9.00666454438806
30
0
41
1
10
-24
20
8.94296708063843
30
0
41
1
10
-24
20
8.87892107357061
30
0
41
1
10
-24
20
8.76613371827506
30
0
41
1
10
-24
20
8.63663898523424
30
0
41
1
10
-24
20
8.50332881313912
30
0
41
1
10
-24
20
8.36865251940401
30
0
41
1
10
-24
20
8.19913342470036
30
0
41
1
10
-24
20
8.02625870426021
30
0
41
1
10
-24
20
7.88481232676438
30
0
41
1
10
-24
20
7.74204568631339
30
0
41
1
10
-24
20
7.59930458489882
30
0
41
1
10
-24
20
7.45257386795717
30
0
41
1
10
-24
20
7.34207855908448
30
0
41
1
10
-24
20
7.23061782890775
30
0
41
1
10
-24
20
7.11820191301106
30
0
41
1
10
-24
20
7.00483374343872
30
0
41
1
10
-24
20
6.8516785758469
30
0
41
1
10
-24
20
6.65959441745028
30
0
41
1
10
-24
20
6.46441027855923
30
0
41
1
10
-24
20
6.30499529459036
30
0
41
1
10
-24
20
6.18514753468799
30
0
41
1
10
-24
20
6.06440158167572
30
0
41
1
10
-24
20
5.90137597131746
30
0
41
1
10
-24
20
5.69736367955667
30
0
41
1
10
-24
20
5.44799894794272
30
0
41
1
10
-24
20
5.19525670130326
30
0
41
1
10
-24
20
4.98285125019774
30
0
41
1
10
-24
20
4.80950544532163
30
0
41
1
10
-24
20
4.67950096380329
30
0
41
1
10
-24
20
4.54872537799758
30
0
41
1
10
-24
20
4.41719445888799
30
0
41
1
10
-24
20
4.28492388892991
30
0
41
1
10
-24
20
4.15193103870837
30
0
41
1
10
-24
20
4.01823650200188
30
0
41
1
10
-24
20
3.88386015063671
30
0
41
1
10
-24
20
3.74882265025218
30
0
41
1
10
-24
20
3.61314816606938
30
0
41
1
10
-24
20
3.47686551917991
30
0
41
1
10
-24
20
3.34000139230267
30
0
41
1
10
-24
20
3.20258393847712
30
0
41
1
10
-24
20
3.06464837689458
30
0
41
1
10
-24
20
2.9262304523017
30
0
41
1
10
-24
20
2.78737006373561
30
0
41
1
10
-24
20
2.64810891556724
30
0
41
1
10
-24
20
2.50849315364215
30
0
41
1
10
-24
20
2.36857603859875
30
0
41
1
10
-24
20
2.22840727338092
30
0
41
1
10
-24
20
2.11231267734073
30
0
41
1
10
-24
20
2.01771125590744
30
0
41
1
10
-24
20
1.92310511773127
30
0
41
1
10
-24
20
1.8313714962141
30
0
41
1
10
-24
20
1.73663368976398
30
0
41
1
10
-24
20
1.66636839269287
30
0
41
1
10
-24
20
1.59612143913762
30
0
41
1
10
-24
20
1.52590617425699
30
0
41
1
10
-24
20
1.45572440081648
30
0
41
1
10
-24
20
1.38559146347791
30
0
41
1
10
-24
20
1.31551245865842
30
0
41
1
10
-24
20
1.22103102890804
30
0
41
1
10
-24
20
1.13019491172784
30
0
41
1
10
-24
20
1.03590357373665
30
0
41
1
10
-24
20
0.966211278320685
30
0
41
1
10
-24
20
0.896616942008535
30
0
41
1
10
-24
20
0.827119549474418
30
0
41
1
10
-24
20
0.757724503129253
30
0
41
1
10
-24
20
0.688430802184314
30
0
41
1
10
-24
20
0.619238394305086
30
0
41
1
10
-24
20
0.550143822342449
30
0
41
1
10
-24
20
0.481142957404018
30
0
41
1
10
-24
20
0.412229055265982
30
0
41
1
10
-24
20
0.343394373554958
30
0
41
1
10
-24
20
0.274627961865065
30
0
41
1
10
-24
20
0.205919183520024
30
0
41
1
10
-24
20
0.137254128872428
30
0
41
1
10
-24
20
0.068619580615092
30
0
41
1
10
-24
20
1.20069785E-08
30
0
41
1
10
-24
20
-0.0686195837654395
30
0
41
1
10
-24
20
-0.1372541822264
30
0
41
1
10
-24
20
-0.205919229600312
30
0
41
1
10
-24
20
-0.274627932715674
30
0
41
1
10
-24
20
-0.343394334295567
30
0
41
1
10
-24
20
-0.412229116407673
30
0
41
1
10
-24
20
-0.48114304712405
30
0
41
1
10
-24
20
-0.55014378989776
30
0
41
1
10
-24
20
-0.619238310392774
30
0
41
1
10
-24
20
-0.688430856535206
30
0
41
1
10
-24
20
-0.757724640342815
30
0
41
1
10
-24
20
-0.827119544713668
30
0
41
1
10
-24
20
-0.896616816711344
30
0
41
1
10
-24
20
-0.966211277672699
30
0
41
1
10
-24
20
-1.03590373801057
30
0
41
1
10
-24
20
-1.13019491751669
30
0
41
1
10
-24
20
-1.22103090337816
30
0
41
1
10
-24
20
-1.31551253110209
30
0
41
1
10
-24
20
-1.38559165365194
30
0
41
1
10
-24
20
-1.45572444737027
30
0
41
1
10
-24
20
-1.52590604398472
30
0
41
1
10
-24
20
-1.59612132289769
30
0
41
1
10
-24
20
-1.66636846888792
30
0
41
1
10
-24
20
-1.73663389391052
30
0
41
1
10
-24
20
-1.83137150908334
30
0
41
1
10
-24
20
-1.923104963833
30
0
41
1
10
-24
20
-2.01771124909399
30
0
41
1
10
-24
20
-2.11231287096447
30
0
41
1
10
-24
20
-2.22840729138045
30
0
41
1
10
-24
20
-2.36857592379664
30
0
41
1
10
-24
20
-2.50849329023109
30
0
41
1
10
-24
20
-2.64810899336408
30
0
41
1
10
-24
20
-2.7873694745272
30
0
41
1
10
-24
20
-2.92622914514115
30
0
41
1
10
-24
20
-3.06464867495961
30
0
41
1
10
-24
20
-3.20258694679336
30
0
41
1
10
-24
20
-3.34000339886188
30
0
41
1
10
-24
20
-3.47686412773234
30
0
41
1
10
-24
20
-3.61314539193521
30
0
41
1
10
-24
20
-3.74882070125756
30
0
41
1
10
-24
20
-3.88386081960974
30
0
41
1
10
-24
20
-4.01823910176785
30
0
41
1
10
-24
20
-4.15193237523465
30
0
41
1
10
-24
20
-4.28492323331267
30
0
41
1
10
-24
20
-4.41719365917405
30
0
41
1
10
-24
20
-4.54872525063161
30
0
41
1
10
-24
20
-4.67950102029136
30
0
41
1
10
-24
20
-4.8095053694127
30
0
41
1
10
-24
20
-4.98285124277228
30
0
41
1
10
-24
20
-5.19525677656026
30
0
41
1
10
-24
20
-5.44799891971269
30
0
41
1
10
-24
20
-5.69736372546623
30
0
41
1
10
-24
20
-5.90137602298265
30
0
41
1
10
-24
20
-6.0644015068855
30
0
41
1
10
-24
20
-6.1851475156806
30
0
41
1
10
-24
20
-6.30499537148731
30
0
41
1
10
-24
20
-6.46441033734266
30
0
41
1
10
-24
20
-6.65959438580623
30
0
41
1
10
-24
20
-6.85167858307042
30
0
41
1
10
-24
20
-7.00483382763792
30
0
41
1
10
-24
20
-7.11820195418233
30
0
41
1
10
-24
20
-7.2306178054078
30
0
41
1
10
-24
20
-7.34207852113332
30
0
41
1
10
-24
20
-7.45257387547733
30
0
41
1
10
-24
20
-7.59930464836137
30
0
41
1
10
-24
20
-7.74204572237986
30
0
41
1
10
-24
20
-7.88481230085068
30
0
41
1
10
-24
20
-8.02625870014725
30
0
41
1
10
-24
20
-8.19913346952643
30
0
41
1
10
-24
20
-8.36865254580422
30
0
41
1
10
-24
20
-8.50332879773273
30
0
41
1
10
-24
20
-8.63663898786112
30
0
41
1
10
-24
20
-8.76613375581505
30
0
41
1
10
-24
20
-8.87892111197036
30
0
41
1
10
-24
20
-8.94296710462893
30
0
41
1
10
-24
20
-9.00666455327519
30
0
41
1
10
-24
20
-9.08500599911847
30
0
41
1
10
-24
20
-9.20992961783276
30
0
41
1
10
-24
20
-9.33111733072479
30
0
41
1
10
-24
20
-9.45175015939358
30
0
41
1
10
-24
20
-9.54075475929304
30
0
41
1
10
-24
20
-9.62867743247332
30
0
41
1
10
-24
20
-9.71550990736878
30
0
41
1
10
-24
20
-9.80124635456616
30
0
41
1
10
-24
20
-9.88588281033205
30
0
41
1
10
-24
20
-9.9694122909747
30
0
41
1
10
-24
20
-10.0518274374696
30
0
41
1
10
-24
20
-10.1331238647016
30
0
41
1
10
-24
20
-10.240478300249
30
0
41
1
10
-24
20
-10.3442039980406
30
0
41
1
10
-24
20
-10.4469857502475
30
0
41
1
10
-24
20
-10.5225869730086
30
0
41
1
10
-24
20
-10.5844084741421
30
0
41
1
10
-24
20
-10.6336671988976
30
0
41
1
10
-24
20
-10.6825334589273
30
0
41
1
10
-24
20
-10.7424101865055
30
0
41
1
10
-24
20
-10.8133337727233
30
0
41
1
10
-24
20
-10.8830697936353
30
0
41
1
10
-24
20
-10.951609404873
30
0
41
1
10
-24
20
-11.0189464931514
30
0
41
1
10
-24
20
-11.1074991058536
30
0
41
1
10
-24
20
-11.2142799044294
30
0
41
1
10
-24
20
-11.3169609751522
30
0
41
1
10
-24
20
-11.3972466509688
30
0
41
1
10
-24
20
-11.4758394909226
30
0
41
1
10
-24
20
-11.5508590446085
30
0
41
1
10
-24
20
-11.6243139791192
30
0
41
1
10
-24
20
-11.6778530233414
30
0
41
1
10
-24
20
-11.7300826287653
30
0
41
1
10
-24
20
-11.7809904199398
30
0
41
1
10
-24
20
-11.8305656793297
30
0
41
1
10
-24
20
-11.8787992978642
30
0
41
1
10
-24
20
-11.9256779481161
30
0
41
1
10
-24
20
-11.9866456736684
30
0
41
1
10
-24
20
-12.0440224201629
30
0
41
1
10
-24
20
-12.099415447517
30
0
41
1
10
-24
20
-12.1393440246738
30
0
41
1
10
-24
20
-12.1778433772408
30
0
41
1
10
-24
20
-12.2149010599454
30
0
41
1
10
-24
20
-12.250502752964
30
0
41
1
10
-24
20
-12.2962370828382
30
0
41
1
10
-24
20
-12.3383402824608
30
0
41
1
10
-24
20
-12.3780532736994
30
0
41
1
10
-24
20
-12.4061495785297
30
0
41
1
10
-24
20
-12.4326960530149
30
0
41
1
10
-24
20
-12.4661791203578
30
0
41
1
10
-24
20
-12.4959885477691
30
0
41
1
10
-24
20
-12.523037071398
30
0
41
1
10
-24
20
-12.5415673540695
30
0
41
1
10
-24
20
-12.55843663992
30
0
41
1
10
-24
20
-12.5736235086905
30
0
41
1
10
-24
20
-12.5871069547276
30
0
41
1
10
-24
20
-12.5988645879939
30
0
41
1
10
-24
20
-12.6088733436887
30
0
41
1
10
-24
20
-12.617109869821
30
0
41
1
10
-24
20
-12.6235493215145
30
0
41
1
10
-24
20
-12.6281667848456
30
0
41
1
10
-24
20
-12.630935840933
30
0
41
1
10
-24
20
-12.6318298800803
30
0
41
1
10
-24
20
-12.6311015703818
30
0
41
1
10
-24
20
-12.6302722766683
30
0
41
1
10
-24
20
-12.6301457002803
30
0
0
SPLINE
5
17D
100
AcDbEntity
8
1
62
256
6
ByLayer
370
18
48
1
60
0
100
AcDbSpline
70
4
71
3
72
8
73
4
40
0
40
0
40
0
40
0
40
1
40
1
40
1
40
1
41
1
10
20.9609906261113
20
20.1500000808456
30
0
41
1
10
20.9607946807137
20
20.154157746832
30
0
41
1
10
20.9665788281517
20
20.0424848716833
30
0
41
1
10
20.978104963802
20
19.8139827378787
30
0
0
SPLINE
5
17E
100
AcDbEntity
8
1
62
256
6
ByLayer
370
18
48
1
60
0
100
AcDbSpline
70
4
71
3
72
8
73
4
40
0
40
0
40
0
40
0
40
1
40
1
40
1
40
1
41
1
10
20.978104963802
20
-19.8139827378787
30
0
41
1
10
20.966554377728
20
-20.0429695938971
30
0
41
1
10
20.9607739081127
20
-20.1546208498125
30
0
41
1
10
20.9609920099219
20
-20.1500005646652
30
0
0
SPLINE
5
17F
100
AcDbEntity
8
1
62
256
6
ByLayer
370
18
48
1
60
0
100
AcDbSpline
70
4
71
3
72
8
73
4
40
0
40
0
40
0
40
0
40
1
40
1
40
1
40
1
41
1
10
21.8078971409241
20
19.814143145618
30
0
41
1
10
21.5743214976984
20
20.0384787555856
30
0
41
1
10
21.3390259517467
20
20.1502100583615
30
0
41
1
10
21.1028582017663
20
20.150080080026
30
0
0
SPLINE
5
180
100
AcDbEntity
8
1
62
256
6
ByLayer
370
18
48
1
60
0
100
AcDbSpline
70
4
71
3
72
8
73
4
40
0
40
0
40
0
40
0
40
1
40
1
40
1
40
1
41
1
10
21.8467200159291
20
-19.8141431456198
30
0
41
1
10
21.5946022456657
20
-20.037383532796
30
0
41
1
10
21.3530192411551
20
-20.1497634086823
30
0
41
1
10
21.1173723579387
20
-20.1499463793212
30
0
0
SPLINE
5
181
100
AcDbEntity
8
1
62
256
6
ByLayer
370
18
48
1
60
0
100
AcDbSpline
70
4
71
3
72
10
73
6
40
0
40
0
40
0
40
0
40
0.469760412964861
40
0.469760412964861
40
1
40
1
40
1
40
1
41
1
10
26.781109931809
20
10.4512663792334
30
0
41
1
10
26.6593867978299
20
10.4678915932207
30
0
41
1
10
26.5337727895954
20
10.4796990952975
30
0
41
1
10
26.2580949723807
20
10.4911074861827
30
0
41
1
10
26.1062714033337
20
10.4887146602552
30
0
41
1
10
25.9523580568706
20
10.4751534287759
30
0
0
SPLINE
5
182
100
AcDbEntity
8
1
62
256
6
ByLayer
370
18
48
1
60
0
100
AcDbSpline
70
4
71
3
72
10
73
6
40
0
40
0
40
0
40
0
40
0.629893813379421
40
0.629893813379421
40
1
40
1
40
1
40
1
41
1
10
31.6249749339497
20
4.35021311232873
30
0
41
1
10
31.6260923802063
20
4.34008424449902
30
0
41
1
10
31.6279297428362
20
4.32960243809396
30
0
41
1
10
31.6323750307868
20
4.31244441497026
30
0
41
1
10
31.6343597864668
20
4.30596184639023
30
0
41
1
10
31.6367424133299
20
4.29937924437385
30
0
0
SPLINE
5
183
100
AcDbEntity
8
1
62
256
6
ByLayer
370
18
48
1
60
0
100
AcDbSpline
70
4
71
3
72
8
73
4
40
0
40
0
40
0
40
0
40
1
40
1
40
1
40
1
41
1
10
31.841248607439
20
3.27869266392133
30
0
41
1
10
31.8423325003153
20
3.25896872155235
30
0
41
1
10
31.8458065708465
20
3.24083368498972
30
0
41
1
10
31.8505749448989
20
3.22424768755673
30
0
0
SPLINE
5
184
100
AcDbEntity
8
1
62
256
6
ByLayer
370
18
48
1
60
0
100
AcDbSpline
70
4
71
3
72
8
73
4
40
0
40
0
40
0
40
0
40
1
40
1
40
1
40
1
41
1
10
31.9349890790753
20
3.48042687855664
30
0
41
1
10
31.9207881422699
20
3.46838702655506
30
0
41
1
10
31.9067393927348
20
3.4544301304247
30
0
41
1
10
31.8937586191013
20
3.43804953511713
30
0
0
SPLINE
5
185
100
AcDbEntity
8
1
62
256
6
ByLayer
370
18
48
1
60
0
100
AcDbSpline
70
4
71
3
72
10
73
6
40
0
40
0
40
0
40
0
40
0.123732606265423
40
0.123732606265423
40
1
40
1
40
1
40
1
41
1
10
30.9357987724233
20
4.53752974711276
30
0
41
1
10
30.93822841546
20
4.53864883120551
30
0
41
1
10
30.9406289955254
20
4.53978135172781
30
0
41
1
10
30.9596247424097
20
4.54894663889544
30
0
41
1
10
30.9748727495745
20
4.55755534724946
30
0
41
1
10
30.988848790746
20
4.5663414170387
30
0
0
SPLINE
5
186
100
AcDbEntity
8
1
62
256
6
ByLayer
370
18
48
1
60
0
100
AcDbSpline
70
4
71
3
72
8
73
4
40
0
40
0
40
0
40
0
40
1
40
1
40
1
40
1
41
1
10
30.1413483173658
20
3.80496938454647
30
0
41
1
10
30.1499605227963
20
3.81700923654805
30
0
41
1
10
30.158783889949
20
3.83096613267841
30
0
41
1
10
30.1675404040217
20
3.84734672798595
30
0
0
SPLINE
5
187
100
AcDbEntity
8
1
62
256
6
ByLayer
370
18
48
1
60
0
100
AcDbSpline
70
4
71
3
72
10
73
6
40
0
40
0
40
0
40
0
40
0.516155291935602
40
0.516155291935602
40
1
40
1
40
1
40
1
41
1
10
30.728154553113
20
4.51248436531347
30
0
41
1
10
30.7349700690495
20
4.51040989562779
30
0
41
1
10
30.7422532479507
20
4.50859632920969
30
0
41
1
10
30.7574099763079
20
4.50576050871172
30
0
41
1
10
30.765250123557
20
4.50469074489482
30
0
41
1
10
30.7736333057894
20
4.50402784079989
30
0
0
SPLINE
5
188
100
AcDbEntity
8
1
62
256
6
ByLayer
370
18
48
1
60
0
100
AcDbSpline
70
4
71
3
72
10
73
6
40
0
40
0
40
0
40
0
40
0.123732606265416
40
0.123732606265416
40
1
40
1
40
1
40
1
41
1
10
31.1255002506997
20
2.74786651599032
30
0
41
1
10
31.1235983405346
20
2.7467474318976
30
0
41
1
10
31.1217412763727
20
2.7456149113753
30
0
41
1
10
31.1072125555863
20
2.73644962420769
30
0
41
1
10
31.0965685044683
20
2.72784091585368
30
0
41
1
10
31.087488605695
20
2.71905484606444
30
0
0
SPLINE
5
189
100
AcDbEntity
8
1
62
256
6
ByLayer
370
18
48
1
60
0
100
AcDbSpline
70
4
71
3
72
10
73
6
40
0
40
0
40
0
40
0
40
0.315026012182603
40
0.315026012182603
40
1
40
1
40
1
40
1
41
1
10
31.7463978683007
20
4.17352427947776
30
0
41
1
10
31.7522297714238
20
4.17011561696305
30
0
41
1
10
31.7580700234989
20
4.1669570578473
30
0
41
1
10
31.7764611386954
20
4.1576883168924
30
0
41
1
10
31.7889708023805
20
4.15238411574276
30
0
41
1
10
31.8012550374244
20
4.14789097304387
30
0
0
SPLINE
5
18A
100
AcDbEntity
8
1
62
256
6
ByLayer
370
18
48
1
60
0
100
AcDbSpline
70
4
71
3
72
8
73
4
40
0
40
0
40
0
40
0
40
1
40
1
40
1
40
1
41
1
10
30.2200504156839
20
4.00670359918178
30
0
41
1
10
30.2231907823684
20
4.02642754155073
30
0
41
1
10
30.2249420942198
20
4.04456257811339
30
0
41
1
10
30.2257624515421
20
4.06114857554638
30
0
0
SPLINE
5
18B
100
AcDbEntity
8
1
62
256
6
ByLayer
370
18
48
1
60
0
100
AcDbSpline
70
4
71
3
72
10
73
6
40
0
40
0
40
0
40
0
40
0.315026012182591
40
0.315026012182591
40
1
40
1
40
1
40
1
41
1
10
30.31490115482
20
3.11187198362535
30
0
41
1
10
30.3104066866209
20
3.11528064614006
30
0
41
1
10
30.30600576856
20
3.11843920525581
30
0
41
1
10
30.2924060389352
20
3.1277079462107
30
0
41
1
10
30.2835370008831
20
3.13301214736037
30
0
41
1
10
30.2750823590166
20
3.13750529005927
30
0
0
SPLINE
5
18C
100
AcDbEntity
8
1
62
256
6
ByLayer
370
18
48
1
60
0
100
AcDbSpline
70
4
71
3
72
10
73
6
40
0
40
0
40
0
40
0
40
0.516155291935501
40
0.516155291935501
40
1
40
1
40
1
40
1
41
1
10
31.3481828433281
20
2.77291189778964
30
0
41
1
10
31.3384767505056
20
2.77498636747532
30
0
41
1
10
31.3284145857902
20
2.77679993389342
30
0
41
1
10
31.3082237946492
20
2.77963575439139
30
0
41
1
10
31.2980967443469
20
2.78070551820826
30
0
41
1
10
31.2876657173297
20
2.78136842230319
30
0
0
SPLINE
5
18D
100
AcDbEntity
8
1
62
256
6
ByLayer
370
18
48
1
60
0
100
AcDbSpline
70
4
71
3
72
10
73
6
40
0
40
0
40
0
40
0
40
0.629893813379296
40
0.629893813379296
40
1
40
1
40
1
40
1
41
1
10
30.4513624624861
20
2.93518315077438
30
0
41
1
10
30.4467182208567
20
2.94531201860411
30
0
41
1
10
30.4415163862215
20
2.95579382500915
30
0
41
1
10
30.4321974008424
20
2.97295184813285
30
0
41
1
10
30.4285059813007
20
2.97943441671288
30
0
41
1
10
30.4245566097897
20
2.98601701872929
30
0
0
SPLINE
5
18E
100
AcDbEntity
8
1
62
256
6
ByLayer
370
18
48
1
60
0
100
AcDbSpline
70
4
71
2
72
8
73
5
40
0
40
0
40
0
40
0.581603760044147
40
0.87240564006622
40
1
40
1
40
1
41
1.02990374504916
10
33.5165530815267
20
7.68979048597912
30
0
41
1.02669755169729
10
34.8661821006028
20
6.54132897502362
30
0
41
1.02039724512338
10
36.693888079094
20
4.48505230145668
30
0
41
1.01761724169577
10
37.498175742374
20
3.38132481556691
30
0
41
1.01686274329252
10
37.751975441399
20
3.10241993675543
30
0
0
SPLINE
5
18F
100
AcDbEntity
8
1
62
256
6
ByLayer
370
18
48
1
60
0
100
AcDbSpline
70
4
71
3
72
8
73
4
40
0
40
0
40
0
40
0
40
1
40
1
40
1
40
1
41
1
10
31.3483279396421
20
0.0411361982965275
30
0
41
1
10
31.1058360372757
20
0.0674843175128785
30
0
41
1
10
30.8619449129083
20
0.119600612555416
30
0
41
1
10
30.6299454713317
20
0.198424044886053
30
0
0
SPLINE
5
190
100
AcDbEntity
8
1
62
256
6
ByLayer
370
18
48
1
60
0
100
AcDbSpline
70
4
71
3
72
8
73
4
40
0
40
0
40
0
40
0
40
1
40
1
40
1
40
1
41
1
10
36.6605932766785
20
-0.209696010631376
30
0
41
1
10
37.5502508886022
20
-0.888528777462966
30
0
41
1
10
37.6388289082982
20
-2.15740411172564
30
0
41
1
10
38.6724231853137
20
-2.70427240415739
30
0
0
SPLINE
5
191
100
AcDbEntity
8
1
62
256
6
ByLayer
370
18
48
1
60
0
100
AcDbSpline
70
4
71
3
72
8
73
4
40
0
40
0
40
0
40
0
40
1
40
1
40
1
40
1
41
1
10
27.47829279312
20
7.13567751984473
30
0
41
1
10
27.4349950787399
20
7.14910392461096
30
0
41
1
10
27.3919757940281
20
7.162379861061
30
0
41
1
10
27.3492949535121
20
7.17548746833006
30
0
0
SPLINE
5
192
100
AcDbEntity
8
1
62
256
6
ByLayer
370
18
48
1
60
0
100
AcDbSpline
70
4
71
3
72
8
73
4
40
0
40
0
40
0
40
0
40
1
40
1
40
1
40
1
41
1
10
37.9425706197603
20
-2.86422252093925
30
0
41
1
10
37.8857439994315
20
-2.84925454601554
30
0
41
1
10
37.8291049655207
20
-2.83355497085395
30
0
41
1
10
37.7726783911195
20
-2.81710047834488
30
0
0
SPLINE
5
193
100
AcDbEntity
8
1
62
256
6
ByLayer
370
18
48
1
60
0
100
AcDbSpline
70
4
71
3
72
16
73
12
40
0
40
0
40
0
40
0
40
0.346164403850463
40
0.346164403850463
40
0.574058138681869
40
0.574058138681869
40
0.756733946461147
40
0.756733946461147
40
0.941193093213316
40
0.941193093213316
40
1
40
1
40
1
40
1
41
1
10
23.9147851190183
20
0.0400664415139431
30
0
41
1
10
23.724583216747
20
0.224350468941168
30
0
41
1
10
23.621789170143
20
0.42922211746253
30
0
41
1
10
23.487795935754
20
0.84526962702617
30
0
41
1
10
23.4442344242367
20
1.03749098088338
30
0
41
1
10
23.3941458541532
20
1.43782856173476
30
0
41
1
10
23.3826624070109
20
1.63887772560599
30
0
41
1
10
23.3961842072907
20
2.06122751351427
30
0
41
1
10
23.4226047473532
20
2.28943172751252
30
0
41
1
10
23.4817965341557
20
2.58086543628951
30
0
41
1
10
23.4982081751796
20
2.65203045556331
30
0
41
1
10
23.515939924777
20
2.7217459810509
30
0
0
SPLINE
5
194
100
AcDbEntity
8
1
62
256
6
ByLayer
370
18
48
1
60
0
100
AcDbSpline
70
4
71
3
72
8
73
4
40
0
40
0
40
0
40
0
40
1
40
1
40
1
40
1
41
1
10
25.974364976463
20
3.00286338542034
30
0
41
1
10
26.017045816979
20
2.98975577815128
30
0
41
1
10
26.0600651016903
20
2.97647984170149
30
0
41
1
10
26.1033628160704
20
2.96305343693527
30
0
0
SPLINE
5
195
100
AcDbEntity
8
1
62
256
6
ByLayer
370
18
48
1
60
0
100
AcDbSpline
70
4
71
3
72
8
73
4
40
0
40
0
40
0
40
0
40
1
40
1
40
1
40
1
41
1
10
29.0859158556886
20
0.723018902089251
30
0
41
1
10
28.4424214014068
20
0.941650642008597
30
0
41
1
10
27.9239819930968
20
1.35832848038649
30
0
41
1
10
27.5810090780537
20
1.89550416313298
30
0
0
SPLINE
5
196
100
AcDbEntity
8
1
62
256
6
ByLayer
370
18
48
1
60
0
100
AcDbSpline
70
4
71
2
72
8
73
5
40
0
40
0
40
0
40
0.145991510275425
40
0.563470207592131
40
1
40
1
40
1
41
1.02393576174177
10
35.1280353483671
20
3.08634215937091
30
0
41
1.02323174907605
10
35.3681029907962
20
2.9771273852641
30
0
41
1.02039724512338
10
36.2854617753195
20
2.55076583246802
30
0
41
1.01644464721292
10
37.589546531027
20
1.86088638798131
30
0
41
1.01495409538139
10
38.260163267214
20
1.57721974877902
30
0
0
SPLINE
5
197
100
AcDbEntity
8
1
62
256
6
ByLayer
370
18
48
1
60
0
100
AcDbSpline
70
4
71
2
72
6
73
3
40
0
40
0
40
0
40
1
40
1
40
1
41
0.932817050425109
10
31.3483279177362
20
0.0411361502349109
30
0
41
0.929591664905397
10
30.8725205329987
20
-1.0027885487578
30
0
41
1.02990374504916
10
30.5200710711709
20
-1.40390389054868
30
0
0
SPLINE
5
198
100
AcDbEntity
8
1
62
256
6
ByLayer
370
18
48
1
60
0
100
AcDbSpline
70
4
71
3
72
8
73
4
40
0
40
0
40
0
40
0
40
1
40
1
40
1
40
1
41
1
10
27.3492949535126
20
7.17548746832981
30
0
41
1
10
26.699557000148
20
7.78687136575491
30
0
41
1
10
26.087841054741
20
8.3003560040747
30
0
41
1
10
25.6123609146061
20
8.58811367535048
30
0
0
SPLINE
5
199
100
AcDbEntity
8
1
62
256
6
ByLayer
370
18
48
1
60
0
100
AcDbSpline
70
4
71
3
72
8
73
4
40
0
40
0
40
0
40
0
40
1
40
1
40
1
40
1
41
1
10
33.3924936469863
20
6.24475040670356
30
0
41
1
10
33.1783115474158
20
6.3703010380311
30
0
41
1
10
32.9554883625354
20
6.47340305249347
30
0
41
1
10
32.7235888454755
20
6.55219253477091
30
0
0
SPLINE
5
19A
100
AcDbEntity
8
1
62
256
6
ByLayer
370
18
48
1
60
0
100
AcDbSpline
70
4
71
2
72
6
73
3
40
0
40
0
40
0
40
1
40
1
40
1
41
1.02990374504916
10
33.5165530815267
20
7.68979048597912
30
0
41
0.929591662588769
10
33.6046578566438
20
7.28867513392587
30
0
41
0.932817050574084
10
33.392493663312
20
6.24475039714609
30
0
0
SPLINE
5
19B
100
AcDbEntity
8
1
62
256
6
ByLayer
370
18
48
1
60
0
100
AcDbSpline
70
4
71
3
72
15
73
11
40
0
40
0
40
0
40
0
40
0.225043240787981
40
0.225043240787981
40
0.52048282722711
40
0.52048282722711
40
0.820975208236874
40
0.820975208236874
40
0.820975208236874
40
1
40
1
40
1
40
1
41
1
10
34.6233165405924
20
1.55462644301167
30
0
41
1
10
34.4761990493606
20
1.3142845965474
30
0
41
1
10
34.287256650979
20
1.0924904790306
30
0
41
1
10
33.7969853715356
20
0.655909380762466
30
0
41
1
10
33.471625830159
20
0.455948362459168
30
0
41
1
10
32.7804999658956
20
0.164005741951627
30
0
41
1
10
32.4036125987354
20
0.0694161811454137
30
0
41
1
10
32.0271428356666
20
0.0357625157067218
30
0
41
1
10
31.8010138158871
20
0.0155482219594205
30
0
41
1
10
31.5721654801974
20
0.0170161571560072
30
0
41
1
10
31.3483279396421
20
0.0411361982965275
30
0
0
SPLINE
5
19C
100
AcDbEntity
8
1
62
256
6
ByLayer
370
18
48
1
60
0
100
AcDbSpline
70
4
71
3
72
8
73
4
40
0
40
0
40
0
40
0
40
1
40
1
40
1
40
1
41
1
10
29.2954886915258
20
7.09859017059776
30
0
41
1
10
29.877445890686
20
7.29677423730789
30
0
41
1
10
30.5443221822192
20
7.29261362024505
30
0
41
1
10
31.1795592298323
20
7.07678739197414
30
0
0
SPLINE
5
19D
100
AcDbEntity
8
1
62
256
6
ByLayer
370
18
48
1
60
0
100
AcDbSpline
70
4
71
3
72
25
73
21
40
0
40
0
40
0
40
0
40
0.442411593548776
40
0.442411593548776
40
0.442411593548776
40
0.583396916265376
40
0.583396916265376
40
0.651602530488654
40
0.651602530488654
40
0.706341521306449
40
0.706341521306449
40
0.742475286987737
40
0.742475286987737
40
0.778972968742934
40
0.778972968742934
40
0.811539464980183
40
0.811539464980183
40
0.868309796146663
40
0.868309796146663
40
1
40
1
40
1
40
1
41
1
10
37.980849241802
20
0.729560269027701
30
0
41
1
10
37.6729147384268
20
0.692672357095063
30
0
41
1
10
37.3405882978014
20
0.619273390025199
30
0
41
1
10
37.0147442983971
20
0.48180068864329
30
0
41
1
10
36.9089661771629
20
0.437173185605786
30
0
41
1
10
36.802408129614
20
0.385042296400087
30
0
41
1
10
36.6527716675952
20
0.292412517106612
30
0
41
1
10
36.6047147515278
20
0.259329580169293
30
0
41
1
10
36.5251681847503
20
0.194217738207783
30
0
41
1
10
36.4916160649482
20
0.162666780656991
30
0
41
1
10
36.446416757793
20
0.107731264530202
30
0
41
1
10
36.4309730160146
20
0.0847402747443482
30
0
41
1
10
36.4095244330967
20
0.039607449793607
30
0
41
1
10
36.4034796131294
20
0.0169110907946219
30
0
41
1
10
36.4020518701029
20
-0.0219179662869635
30
0
41
1
10
36.4054600470654
20
-0.0389527564087757
30
0
41
1
10
36.4226746580309
20
-0.0803541501243785
30
0
41
1
10
36.442176493569
20
-0.10179665229262
30
0
41
1
10
36.5176756221938
20
-0.161326216442461
30
0
41
1
10
36.5881954473073
20
-0.18756773326507
30
0
41
1
10
36.6605932766785
20
-0.209696010631376
30
0
0
SPLINE
5
19E
100
AcDbEntity
8
1
62
256
6
ByLayer
370
18
48
1
60
0
100
AcDbSpline
70
4
71
3
72
11
73
7
40
0
40
0
40
0
40
0
40
0.559926195718573
40
0.559926195718573
40
0.559926195718573
40
1
40
1
40
1
40
1
41
1
10
40.0501062726088
20
4.09441544174842
30
0
41
1
10
39.7691498968533
20
4.22773415164255
30
0
41
1
10
39.4593648726799
20
4.40877078986094
30
0
41
1
10
39.1534773107662
20
4.62498745383368
30
0
41
1
10
38.9113302576511
20
4.79614913065319
30
0
41
1
10
38.6667103008888
20
4.99126050036404
30
0
41
1
10
38.4298548814974
20
5.19797209667334
30
0
0
SPLINE
5
19F
100
AcDbEntity
8
1
62
256
6
ByLayer
370
18
48
1
60
0
100
AcDbSpline
70
4
71
3
72
14
73
10
40
0
40
0
40
0
40
0
40
0.304391776008984
40
0.304391776008984
40
0.577373879687164
40
0.577373879687164
40
0.851610378463918
40
0.851610378463918
40
1
40
1
40
1
40
1
41
1
10
42.4639462436155
20
-0.095883807803915
30
0
41
1
10
42.4352484777542
20
0.0683462174190197
30
0
41
1
10
42.3913933446747
20
0.239363927553882
30
0
41
1
10
42.2782431210838
20
0.556081109715336
30
0
41
1
10
42.2103837286451
20
0.706029568200762
30
0
41
1
10
42.0535291593379
20
0.979928467675052
30
0
41
1
10
41.9622246138615
20
1.10733397615471
30
0
41
1
10
41.8143910420351
20
1.27120283417077
30
0
41
1
10
41.7602275450259
20
1.32365618238288
30
0
41
1
10
41.7056718011029
20
1.36964484037094
30
0
0
SPLINE
5
1A0
100
AcDbEntity
8
1
62
256
6
ByLayer
370
18
48
1
60
0
100
AcDbSpline
70
4
71
3
72
8
73
4
40
0
40
0
40
0
40
0
40
1
40
1
40
1
40
1
41
1
10
33.3626930365144
20
8.39027040934326
30
0
41
1
10
35.2138219470921
20
7.59853534637679
30
0
41
1
10
36.9072373678798
20
6.52681100446424
30
0
41
1
10
38.4298548814974
20
5.19797209667334
30
0
0
SPLINE
5
1A1
100
AcDbEntity
8
1
62
256
6
ByLayer
370
18
48
1
60
0
100
AcDbSpline
70
4
71
3
72
12
73
8
40
0
40
0
40
0
40
0
40
0.41535644474115
40
0.41535644474115
40
0.825259843212191
40
0.825259843212191
40
1
40
1
40
1
40
1
41
1
10
28.7426914768525
20
6.98084212241014
30
0
41
1
10
28.5739242281634
20
6.96457471749932
30
0
41
1
10
28.3906305581899
20
6.96627094635579
30
0
41
1
10
28.0354544042044
20
7.00096838985203
30
0
41
1
10
27.8586862063303
20
7.03355161000752
30
0
41
1
10
27.6187065120225
20
7.09407544597525
30
0
41
1
10
27.5477603849262
20
7.11413596692259
30
0
41
1
10
27.47829279312
20
7.13567751984473
30
0
0
SPLINE
5
1A2
100
AcDbEntity
8
1
62
256
6
ByLayer
370
18
48
1
60
0
100
AcDbSpline
70
4
71
3
72
8
73
4
40
0
40
0
40
0
40
0
40
1
40
1
40
1
40
1
41
1
10
40.0501062726089
20
4.0944154417484
30
0
41
1
10
40.1035918387293
20
4.06903560598579
30
0
41
1
10
40.1568004450747
20
4.04292540272928
30
0
41
1
10
40.2097264163995
20
4.01611977624529
30
0
0
SPLINE
5
1A3
100
AcDbEntity
8
1
62
256
6
ByLayer
370
18
48
1
60
0
100
AcDbSpline
70
4
71
3
72
10
73
6
40
0
40
0
40
0
40
0
40
0.106616270583439
40
0.106616270583439
40
1
40
1
40
1
40
1
41
1
10
39.0642062179881
20
0.800538853120628
30
0
41
1
10
39.0267820286877
20
0.800225273374735
30
0
41
1
10
38.9892285029344
20
0.799675652369643
30
0
41
1
10
38.636229626035
20
0.792312766942757
30
0
41
1
10
38.311583843942
20
0.769073589864831
30
0
41
1
10
37.980849241802
20
0.729560269027701
30
0
0
SPLINE
5
1A4
100
AcDbEntity
8
1
62
256
6
ByLayer
370
18
48
1
60
0
100
AcDbSpline
70
4
71
3
72
12
73
8
40
0
40
0
40
0
40
0
40
0.369659083875782
40
0.369659083875782
40
0.727704501586108
40
0.727704501586108
40
1
40
1
40
1
40
1
41
1
10
27.6135383359072
20
9.69538101751624
30
0
41
1
10
27.7533836103935
20
9.52126425765812
30
0
41
1
10
27.8996599359947
20
9.26414384427835
30
0
41
1
10
28.1806880827122
20
8.65410829970295
30
0
41
1
10
28.3191558002143
20
8.29734020515266
30
0
41
1
10
28.5513864983092
20
7.6186048199919
30
0
41
1
10
28.649443063497
20
7.30430742224857
30
0
41
1
10
28.7426914768524
20
6.98084212241011
30
0
0
SPLINE
5
1A5
100
AcDbEntity
8
1
62
256
6
ByLayer
370
18
48
1
60
0
100
AcDbSpline
70
4
71
3
72
10
73
6
40
0
40
0
40
0
40
0
40
0.207845795367687
40
0.207845795367687
40
1
40
1
40
1
40
1
41
1
10
27.2138309811342
20
2.34107120292507
30
0
41
1
10
27.24335762216
20
2.31276037825336
30
0
41
1
10
27.272141459992
20
2.28379471223789
30
0
41
1
10
27.4057863642276
20
2.14258538290156
30
0
41
1
10
27.50047018058
20
2.02164688560612
30
0
41
1
10
27.5810090780537
20
1.89550416313298
30
0
0
SPLINE
5
1A6
100
AcDbEntity
8
1
62
256
6
ByLayer
370
18
48
1
60
0
100
AcDbSpline
70
4
71
3
72
12
73
8
40
0
40
0
40
0
40
0
40
0.501637567130155
40
0.501637567130155
40
0.886957471304442
40
0.886957471304442
40
1
40
1
40
1
40
1
41
1
10
26.1033628160704
20
2.96305343693527
30
0
41
1
10
26.3006869660859
20
2.9018642045198
30
0
41
1
10
26.5021806961551
20
2.8206510800423
30
0
41
1
10
26.8383223976922
20
2.63748817640445
30
0
41
1
10
26.980658498819
20
2.54257908036621
30
0
41
1
10
27.1434534339298
20
2.40625807459938
30
0
41
1
10
27.1794687991832
20
2.37401845580442
30
0
41
1
10
27.2138309811342
20
2.34107120292507
30
0
0
SPLINE
5
1A7
100
AcDbEntity
8
1
62
256
6
ByLayer
370
18
48
1
60
0
100
AcDbSpline
70
4
71
3
72
12
73
8
40
0
40
0
40
0
40
0
40
0.307573270173409
40
0.307573270173409
40
0.648852820657659
40
0.648852820657659
40
1
40
1
40
1
40
1
41
1
10
35.1280353488496
20
3.08634215915143
30
0
41
1
10
35.1131104153277
20
2.91993141465281
30
0
41
1
10
35.0863188776416
20
2.75401985735002
30
0
41
1
10
35.0058648831159
20
2.41096913154658
30
0
41
1
10
34.9493046565372
20
2.23341248540387
30
0
41
1
10
34.8079884467195
20
1.88627213062452
30
0
41
1
10
34.7219562554701
20
1.71581833590986
30
0
41
1
10
34.6233165405924
20
1.55462644301167
30
0
0
SPLINE
5
1A8
100
AcDbEntity
8
1
62
256
6
ByLayer
370
18
48
1
60
0
100
AcDbSpline
70
4
71
3
72
10
73
6
40
0
40
0
40
0
40
0
40
0.759976532001899
40
0.759976532001899
40
1
40
1
40
1
40
1
41
1
10
38.2601632671953
20
1.57721974878689
30
0
41
1
10
38.4606125022442
20
1.3651770250255
30
0
41
1
10
38.6641005264301
20
1.16411711761396
30
0
41
1
10
38.9340365182151
20
0.916004715426425
30
0
41
1
10
38.9990478399563
20
0.857644025570664
30
0
41
1
10
39.0642062179881
20
0.800538853120628
30
0
0
SPLINE
5
1A9
100
AcDbEntity
8
1
62
256
6
ByLayer
370
18
48
1
60
0
100
AcDbSpline
70
4
71
2
72
6
73
3
40
0
40
0
40
0
40
1
40
1
40
1
41
1.01103575695168
10
40.6940974916633
20
3.44694390783359
30
0
41
1.01163342726563
10
40.4587446051573
20
3.73670486002212
30
0
41
1.01212826498448
10
40.209260556953
20
4.01664252385344
30
0
0
SPLINE
5
1AA
100
AcDbEntity
8
1
62
256
6
ByLayer
370
18
48
1
60
0
100
AcDbSpline
70
4
71
3
72
8
73
4
40
0
40
0
40
0
40
0
40
1
40
1
40
1
40
1
41
1
10
40.6978146195272
20
3.4423657690316
30
0
41
1
10
39.5952783438033
20
3.76499095317897
30
0
41
1
10
38.8203516610438
20
2.96476835985234
30
0
41
1
10
37.7519754413991
20
3.10241993675533
30
0
0
SPLINE
5
1AB
100
AcDbEntity
8
1
62
256
6
ByLayer
370
18
48
1
60
0
100
AcDbSpline
70
4
71
3
72
24
73
20
40
0
40
0
40
0
40
0
40
0.142613444608223
40
0.142613444608223
40
0.190795218269491
40
0.190795218269491
40
0.226951176162323
40
0.226951176162323
40
0.263437466712856
40
0.263437466712856
40
0.296119365572354
40
0.296119365572354
40
0.352324850832284
40
0.352324850832284
40
0.455294648588102
40
0.455294648588102
40
0.662705158043624
40
0.662705158043624
40
1
40
1
40
1
40
1
41
1
10
37.7519754413991
20
3.10241993675533
30
0
41
1
10
37.6780996664153
20
3.13868018842717
30
0
41
1
10
37.6028280546532
20
3.1708799169314
30
0
41
1
10
37.5119813279839
20
3.17527793103491
30
0
41
1
10
37.4895959821801
20
3.17258597622578
30
0
41
1
10
37.4557253427541
20
3.15622812766037
30
0
41
1
10
37.4427176834472
20
3.14515253045838
30
0
41
1
10
37.4230091746824
20
3.11401430084817
30
0
41
1
10
37.4161907068821
20
3.09337962069552
30
0
41
1
10
37.4100816600652
20
3.04886872744848
30
0
41
1
10
37.409926151631
20
3.02514758175562
30
0
41
1
10
37.4151397504182
20
2.95874006839992
30
0
41
1
10
37.424389922204
20
2.91357538547936
30
0
41
1
10
37.4586721993091
20
2.78776459069897
30
0
41
1
10
37.4907976314373
20
2.70569396004163
30
0
41
1
10
37.5974785888034
20
2.46956292778773
30
0
41
1
10
37.6850083952629
20
2.31980576593668
30
0
41
1
10
37.9258913814747
20
1.95682446467208
30
0
41
1
10
38.0916393325444
20
1.75558639645797
30
0
41
1
10
38.2601632671954
20
1.57721974878689
30
0
0
SPLINE
5
1AC
100
AcDbEntity
8
1
62
256
6
ByLayer
370
18
48
1
60
0
100
AcDbSpline
70
4
71
3
72
14
73
10
40
0
40
0
40
0
40
0
40
0.262932482489329
40
0.262932482489329
40
0.526305718382448
40
0.526305718382448
40
0.786105451116562
40
0.786105451116562
40
1
40
1
40
1
40
1
41
1
10
40.7057775845515
20
-1.66482437477819
30
0
41
1
10
40.8273229776461
20
-1.66655295207082
30
0
41
1
10
40.961253505452
20
-1.64973822600328
30
0
41
1
10
41.2336355647238
20
-1.57839630640046
30
0
41
1
10
41.3755700651452
20
-1.52285469974794
30
0
41
1
10
41.6453683304972
20
-1.38408245444708
30
0
41
1
10
41.7766204698254
20
-1.29978841568914
30
0
41
1
10
41.9970558934175
20
-1.13164303425694
30
0
41
1
10
42.091178363713
20
-1.04931267264246
30
0
41
1
10
42.1778951891113
20
-0.963988757793146
30
0
0
SPLINE
5
1AD
100
AcDbEntity
8
1
62
256
6
ByLayer
370
18
48
1
60
0
100
AcDbSpline
70
4
71
3
72
16
73
12
40
0
40
0
40
0
40
0
40
0.283825424659828
40
0.283825424659828
40
0.572792249827486
40
0.572792249827486
40
0.572792249827486
40
0.894188232602853
40
0.894188232602853
40
0.894188232602853
40
1
40
1
40
1
40
1
41
1
10
33.3924936633097
20
6.24475039713499
30
0
41
1
10
33.6967855293643
20
6.0609831861772
30
0
41
1
10
33.9794702540176
20
5.8261643880798
30
0
41
1
10
34.4652619449819
20
5.29168679598376
30
0
41
1
10
34.6736202200897
20
4.98448298691875
30
0
41
1
10
34.828756275705
20
4.65722100027906
30
0
41
1
10
35.0002940032308
20
4.29535942483074
30
0
41
1
10
35.1114374414825
20
3.89467790323775
30
0
41
1
10
35.1343816056801
20
3.492207326748
30
0
41
1
10
35.142075731779
20
3.35724231603936
30
0
41
1
10
35.1401001429395
20
3.2210750308499
30
0
41
1
10
35.1280353488496
20
3.08634215915143
30
0
0
SPLINE
5
1AE
100
AcDbEntity
8
1
62
256
6
ByLayer
370
18
48
1
60
0
100
AcDbSpline
70
4
71
3
72
8
73
4
40
0
40
0
40
0
40
0
40
1
40
1
40
1
40
1
41
1
10
25.4464965922619
20
8.59021453608815
30
0
41
1
10
25.45572252033
20
8.61821329259715
30
0
41
1
10
25.4658429946411
20
8.64563467443898
30
0
41
1
10
25.4767925579633
20
8.67252242555494
30
0
0
SPLINE
5
1AF
100
AcDbEntity
8
1
62
256
6
ByLayer
370
18
48
1
60
0
100
AcDbSpline
70
4
71
3
72
10
73
6
40
0
40
0
40
0
40
0
40
0.715855354518051
40
0.715855354518051
40
1
40
1
40
1
40
1
41
1
10
23.9470871702451
20
-0.207247880798377
30
0
41
1
10
23.6470502997961
20
-0.124843263989192
30
0
41
1
10
23.3225618637956
20
-0.0028627660921359
30
0
41
1
10
22.8854730848043
20
0.255907479236583
30
0
41
1
10
22.7621845831138
20
0.340112597383836
30
0
41
1
10
22.6441211404961
20
0.435348304404727
30
0
0
SPLINE
5
1B0
100
AcDbEntity
8
1
62
256
6
ByLayer
370
18
48
1
60
0
100
AcDbSpline
70
4
71
2
72
6
73
3
40
0
40
0
40
0
40
1
40
1
40
1
41
1.02990374504916
10
30.5200710711709
20
-1.40390389054868
30
0
41
1.02990374504916
10
30.21232446279
20
-1.7541438522314
30
0
41
1.02990374504916
10
29.9045778544092
20
-2.10438381391408
30
0
0
SPLINE
5
1B1
100
AcDbEntity
8
1
62
256
6
ByLayer
370
18
48
1
60
0
100
AcDbSpline
70
4
71
2
72
8
73
5
40
0
40
0
40
0
40
0.145991510278041
40
0.563470207586081
40
1
40
1
40
1
41
1.02393576174182
10
34.6233165401165
20
1.55462644313198
30
0
41
1.02323174907608
10
34.8781450036892
20
1.49020766501578
30
0
41
1.02039724512338
10
35.8558517896382
20
1.24698963828458
30
0
41
1.01644464721285
10
37.289473482203
20
0.950227626317732
30
0
41
1.01495409538129
10
37.9808492418689
20
0.729560269006344
30
0
0
SPLINE
5
1B2
100
AcDbEntity
8
1
62
256
6
ByLayer
370
18
48
1
60
0
100
AcDbSpline
70
4
71
2
72
6
73
3
40
0
40
0
40
0
40
1
40
1
40
1
41
1.01212826498425
10
37.9418887498863
20
-2.86435531951535
30
0
41
1.01163342726426
10
38.3070468140662
20
-2.79324661021993
30
0
41
1.01103575694871
10
38.6667412196611
20
-2.70565713534232
30
0
0
SPLINE
5
1B3
100
AcDbEntity
8
1
62
256
6
ByLayer
370
18
48
1
60
0
100
AcDbSpline
70
4
71
3
72
8
73
4
40
0
40
0
40
0
40
0
40
1
40
1
40
1
40
1
41
1
10
27.2138309811342
20
2.34107120292507
30
0
41
1
10
26.2149276973683
20
1.55314269566307
30
0
41
1
10
25.2509394932983
20
0.875927340748916
30
0
41
1
10
24.6170563255514
20
0.601686640988447
30
0
0
SPLINE
5
1B4
100
AcDbEntity
8
1
62
256
6
ByLayer
370
18
48
1
60
0
100
AcDbSpline
70
4
71
3
72
8
73
4
40
0
40
0
40
0
40
0
40
1
40
1
40
1
40
1
41
1
10
23.540343669534
20
2.80544023932725
30
0
41
1
10
23.5311177414658
20
2.77744148281826
30
0
41
1
10
23.5230109083378
20
2.74954680983819
30
0
41
1
10
23.515939924777
20
2.7217459810509
30
0
0
SPLINE
5
1B5
100
AcDbEntity
8
1
62
256
6
ByLayer
370
18
48
1
60
0
100
AcDbSpline
70
4
71
3
72
12
73
8
40
0
40
0
40
0
40
0
40
0.391502209781614
40
0.391502209781614
40
0.886018843801028
40
0.886018843801028
40
1
40
1
40
1
40
1
41
1
10
23.6830601317858
20
2.73309047857194
30
0
41
1
10
23.9082864813589
20
2.74373488514274
30
0
41
1
10
24.1740418568116
20
2.76693921596166
30
0
41
1
10
24.8303374333479
20
2.83929820238717
30
0
41
1
10
25.2428211531965
20
2.89449664066243
30
0
41
1
10
25.7714909524393
20
2.9721975594679
30
0
41
1
10
25.8724940787002
20
2.98733500803832
30
0
41
1
10
25.974364976463
20
3.00286338541943
30
0
0
SPLINE
5
1B6
100
AcDbEntity
8
1
62
256
6
ByLayer
370
18
48
1
60
0
100
AcDbSpline
70
4
71
3
72
10
73
6
40
0
40
0
40
0
40
0
40
0.679966690484308
40
0.679966690484308
40
1
40
1
40
1
40
1
41
1
10
29.2954886915258
20
7.09859017059776
30
0
41
1
10
29.1773322037346
20
7.05835227459369
30
0
41
1
10
29.0529592871413
20
7.02687335126473
30
0
41
1
10
28.8653149605479
20
6.99489941641568
30
0
41
1
10
28.8042553285916
20
6.98677623647487
30
0
41
1
10
28.7426914768525
20
6.98084212241014
30
0
0
SPLINE
5
1B7
100
AcDbEntity
8
1
62
256
6
ByLayer
370
18
48
1
60
0
100
AcDbSpline
70
4
71
1
72
4
73
2
40
0
40
0
40
1
40
1
41
1
10
33.5165530815267
20
7.6897904859791
30
0
41
1
10
33.3626930365144
20
8.39027040934326
30
0
0
SPLINE
5
1B8
100
AcDbEntity
8
1
62
256
6
ByLayer
370
18
48
1
60
0
100
AcDbSpline
70
4
71
3
72
10
73
6
40
0
40
0
40
0
40
0
40
0.560518156563273
40
0.560518156563273
40
1
40
1
40
1
40
1
41
1
10
35.8433793859153
20
-2.65143850813399
30
0
41
1
10
36.2381094359496
20
-2.62567169852608
30
0
41
1
10
36.6313291961108
20
-2.62847794077774
30
0
41
1
10
37.2726276384544
20
-2.69629149240782
30
0
41
1
10
37.5387042275107
20
-2.74887152481952
30
0
41
1
10
37.7726783911195
20
-2.81710047834488
30
0
0
SPLINE
5
1B9
100
AcDbEntity
8
1
62
256
6
ByLayer
370
18
48
1
60
0
100
AcDbSpline
70
4
71
3
72
8
73
4
40
0
40
0
40
0
40
0
40
1
40
1
40
1
40
1
41
1
10
35.8433793859153
20
-2.65143850813399
30
0
41
1
10
33.8517819190097
20
-2.78144409737382
30
0
41
1
10
31.8453605026033
20
-2.60154846150769
30
0
41
1
10
29.9045778544092
20
-2.1043838139141
30
0
0
SPLINE
5
1BA
100
AcDbEntity
8
1
62
256
6
ByLayer
370
18
48
1
60
0
100
AcDbSpline
70
4
71
2
72
8
73
5
40
0
40
0
40
0
40
0.58160376007072
40
0.87240564010608
40
1
40
1
40
1
41
1.02990374504916
10
30.5200710711709
20
-1.40390389054868
30
0
41
1.02669755169729
10
32.2953775196831
20
-1.26052369212042
30
0
41
1.02039724512338
10
34.9897778131954
20
-0.686564912247998
30
0
41
1.01761724169608
10
36.2927537101101
20
-0.276878209976742
30
0
41
1.01686274329306
10
36.6605932766784
20
-0.20969601063143
30
0
0
SPLINE
5
1BB
100
AcDbEntity
8
1
62
256
6
ByLayer
370
18
48
1
60
0
100
AcDbSpline
70
4
71
3
72
16
73
12
40
0
40
0
40
0
40
0
40
0.151798394921707
40
0.151798394921707
40
0.302355402833642
40
0.302355402833642
40
0.469907609657965
40
0.469907609657965
40
0.750934341340612
40
0.750934341340612
40
1
40
1
40
1
40
1
41
1
10
25.4767925579633
20
8.67252242555494
30
0
41
1
10
25.5466546896739
20
8.84407589801739
30
0
41
1
10
25.6289737821156
20
9.01497649322798
30
0
41
1
10
25.8074804847019
20
9.32299831483692
30
0
41
1
10
25.9056211943893
20
9.46483150902716
30
0
41
1
10
26.1148368957284
20
9.72474170122553
30
0
41
1
10
26.2281066421449
20
9.84144698418413
30
0
41
1
10
26.5148777482216
20
10.0955310986383
30
0
41
1
10
26.6794034376769
20
10.2006228280951
30
0
41
1
10
26.9868355040159
20
10.3308752551403
30
0
41
1
10
27.1365292801238
20
10.3662464249575
30
0
41
1
10
27.3173903687913
20
10.366259663587
30
0
0
SPLINE
5
1BC
100
AcDbEntity
8
1
62
256
6
ByLayer
370
18
48
1
60
0
100
AcDbSpline
70
4
71
3
72
10
73
6
40
0
40
0
40
0
40
0
40
0.0599412081889103
40
0.875521215912919
40
1
40
1
40
1
40
1
41
1
10
22.6005654677443
20
14.0727270333335
30
0
41
1
10
22.5838032607403
20
14.047754505833
30
0
41
1
10
22.3478261384091
20
13.6921527622022
30
0
41
1
10
22.2392491416392
20
13.4615532427397
30
0
41
1
10
22.1016098036128
20
13.1604871845224
30
0
41
1
10
22.0831126266543
20
13.119596671061
30
0
0
SPLINE
5
1BD
100
AcDbEntity
8
1
62
256
6
ByLayer
370
18
48
1
60
0
100
AcDbSpline
70
4
71
3
72
8
73
4
40
0
40
0
40
0
40
0
40
1
40
1
40
1
40
1
41
1
10
20.978104963802
20
-19.8139827378787
30
0
41
1
10
20.9589895496646
20
-19.7411191640978
30
0
41
1
10
20.9398851766948
20
-19.6682533463929
30
0
41
1
10
20.92079238
20
-19.5953859168696
30
0
0
SPLINE
5
1BE
100
AcDbEntity
8
1
62
256
6
ByLayer
370
18
48
1
60
0
100
AcDbSpline
70
4
71
3
72
16
73
12
40
0
40
0
40
0
40
0
40
0.224637391839864
40
0.224637391839864
40
0.450554726787358
40
0.450554726787358
40
0.694204152224215
40
0.694204152224215
40
0.955378038475699
40
0.955378038475699
40
1
40
1
40
1
40
1
41
1
10
23.9050364387435
20
-2.41781195105145
30
0
41
1
10
23.8061231551219
20
-2.6548101592152
30
0
41
1
10
23.6645675886489
20
-2.87762008342622
30
0
41
1
10
23.3209505851372
20
-3.26177134167969
30
0
41
1
10
23.1146742033292
20
-3.42795132748344
30
0
41
1
10
22.6507880071652
20
-3.6990354646299
30
0
41
1
10
22.384391053038
20
-3.80196064630044
30
0
41
1
10
21.8206322307141
20
-3.92441249191984
30
0
41
1
10
21.5144361349526
20
-3.93862581414231
30
0
41
1
10
21.1671067287348
20
-3.89660128914844
30
0
41
1
10
21.1159880738074
20
-3.88893953016108
30
0
41
1
10
21.0651433124845
20
-3.87986180040019
30
0
0
SPLINE
5
1BF
100
AcDbEntity
8
1
62
256
6
ByLayer
370
18
48
1
60
0
100
AcDbSpline
70
4
71
3
72
12
73
8
40
0
40
0
40
0
40
0
40
0.499841012987013
40
0.499841012987013
40
0.74989786080731
40
0.74989786080731
40
1
40
1
40
1
40
1
41
1
10
18.2107472081675
20
-2.5727524627747
30
0
41
1
10
18.1948023109134
20
-2.55940273397172
30
0
41
1
10
18.1789019202045
20
-2.54627758314464
30
0
41
1
10
18.1551225545911
20
-2.5269570595419
30
0
41
1
10
18.1472050983693
20
-2.52057582805401
30
0
41
1
10
18.1313949271862
20
-2.5079413808264
30
0
41
1
10
18.1235018567914
20
-2.50168790120466
30
0
41
1
10
18.1156224764163
20
-2.49550188149018
30
0
0
SPLINE
5
1C0
100
AcDbEntity
8
1
62
256
6
ByLayer
370
18
48
1
60
0
100
AcDbSpline
70
4
71
3
72
10
73
6
40
0
40
0
40
0
40
0
40
0.328620403626629
40
0.825566552618601
40
1
40
1
40
1
40
1
41
1
10
23.9050364350725
20
-2.41781194931807
30
0
41
1
10
23.5161876716639
20
-2.23419955019287
30
0
41
1
10
22.6061374695203
20
-1.63308306352462
30
0
41
1
10
21.8124360546326
20
-0.35486659414525
30
0
41
1
10
21.5111352359746
20
0.622027958697345
30
0
41
1
10
21.4548624120827
20
0.910122865816305
30
0
0
SPLINE
5
1C1
100
AcDbEntity
8
1
62
256
6
ByLayer
370
18
48
1
60
0
100
AcDbSpline
70
4
71
3
72
26
73
22
40
0
40
0
40
0
40
0
40
0.00604113595591
40
0.00604113595591
40
0.113005983357984
40
0.113005983357984
40
0.246519412354429
40
0.246519412354429
40
0.417492819129022
40
0.417492819129022
40
0.61399014471355
40
0.61399014471355
40
0.812086997327235
40
0.812086997327235
40
0.859032741682513
40
0.859032741682513
40
0.898703822133309
40
0.898703822133309
40
0.937892539290896
40
0.937892539290896
40
1
40
1
40
1
40
1
41
1
10
24.6785919453102
20
10.6934658253881
30
0
41
1
10
24.6767620593085
20
10.6955392818567
30
0
41
1
10
24.6749342924441
20
10.6976262724209
30
0
41
1
10
24.6397702452888
20
10.7368859239646
30
0
41
1
10
24.6008835123425
20
10.7718347055099
30
0
41
1
10
24.5019445768358
20
10.8391219077428
30
0
41
1
10
24.4373754064318
20
10.8686574000487
30
0
41
1
10
24.282801080846
20
10.9197437026436
30
0
41
1
10
24.1886533265769
20
10.9386127267916
30
0
41
1
10
23.9905567401498
20
10.973311057443
30
0
41
1
10
23.8843512401245
20
10.9915867391284
30
0
41
1
10
23.6856738581105
20
11.0160716206782
30
0
41
1
10
23.5892350248808
20
11.0025979501236
30
0
41
1
10
23.4835992830504
20
10.9853969042882
30
0
41
1
10
23.4633668217729
20
10.9837731198527
30
0
41
1
10
23.4296080880598
20
10.9905806924781
30
0
41
1
10
23.4153634501703
20
10.9977790237379
30
0
41
1
10
23.3922035551801
20
11.0185124596908
30
0
41
1
10
23.3828504575547
20
11.0321271360608
30
0
41
1
10
23.3641695647189
20
11.0712401542843
30
0
41
1
10
23.3574431044987
20
11.0994921256811
30
0
41
1
10
23.3533427282598
20
11.1285705404503
30
0
0
SPLINE
5
1C2
100
AcDbEntity
8
1
62
256
6
ByLayer
370
18
48
1
60
0
100
AcDbSpline
70
4
71
3
72
16
73
12
40
0
40
0
40
0
40
0
40
0.46430426715929
40
0.46430426715929
40
0.647533485141967
40
0.647533485141967
40
0.833383675860504
40
0.833383675860504
40
0.950238074309844
40
0.950238074309844
40
1
40
1
40
1
40
1
41
1
10
6.66339745962156
20
6.16973001948568
30
0
41
1
10
6.68070356543041
20
6.10699311212741
30
0
41
1
10
6.70445583204739
20
6.04466199750289
30
0
41
1
10
6.75332706552712
20
5.96658891111872
30
0
41
1
10
6.76920288341026
20
5.94525308185362
30
0
41
1
10
6.80605435144608
20
5.90694983484818
30
0
41
1
10
6.82759190740043
20
5.88959453036586
30
0
41
1
10
6.86713065155234
20
5.86981268651903
30
0
41
1
10
6.8838647446556
20
5.8641686994944
30
0
41
1
10
6.90829201976607
20
5.86046107106307
30
0
41
1
10
6.91575967688848
20
5.85988980456935
30
0
41
1
10
6.92320508075687
20
5.85988980456935
30
0
0
SPLINE
5
1C3
100
AcDbEntity
8
1
62
256
6
ByLayer
370
18
48
1
60
0
100
AcDbSpline
70
4
71
3
72
16
73
12
40
0
40
0
40
0
40
0
40
0.464304267159304
40
0.464304267159304
40
0.647533485141974
40
0.647533485141974
40
0.833383675860506
40
0.833383675860506
40
0.950238074309851
40
0.950238074309851
40
1
40
1
40
1
40
1
41
1
10
9.33660254037844
20
-6.16973001948568
30
0
41
1
10
9.31929643456959
20
-6.10699311212741
30
0
41
1
10
9.29554416795261
20
-6.04466199750289
30
0
41
1
10
9.24667293447288
20
-5.96658891111872
30
0
41
1
10
9.23079711658974
20
-5.94525308185362
30
0
41
1
10
9.19394564855392
20
-5.90694983484818
30
0
41
1
10
9.17240809259957
20
-5.88959453036583
30
0
41
1
10
9.13286934844766
20
-5.86981268651903
30
0
41
1
10
9.1161352553444
20
-5.86416869949437
30
0
41
1
10
9.09170798023393
20
-5.86046107106307
30
0
41
1
10
9.08424032311152
20
-5.85988980456935
30
0
41
1
10
9.07679491924313
20
-5.85988980456935
30
0
0
SPLINE
5
1C4
100
AcDbEntity
8
1
62
256
6
ByLayer
370
18
48
1
60
0
100
AcDbSpline
70
4
71
3
72
12
73
8
40
0
40
0
40
0
40
0
40
0.25
40
0.25
40
0.5
40
0.5
40
1
40
1
40
1
40
1
41
1
10
26.5562144309162
20
11.8746394871659
30
0
41
1
10
26.2085477445976
20
12.0282544461774
30
0
41
1
10
25.8345937300131
20
12.1976498533506
30
0
41
1
10
25.0129990690396
20
12.6028222241898
30
0
41
1
10
24.5971256871834
20
12.830630394492
30
0
41
1
10
23.5954611128736
20
13.4152981122325
30
0
41
1
10
23.110295092583
20
13.7310147327262
30
0
41
1
10
22.6717712493474
20
14.024989108274
30
0
0
SPLINE
5
1C5
100
AcDbEntity
8
1
62
256
6
ByLayer
370
18
48
1
60
0
100
AcDbSpline
70
4
71
3
72
17
73
13
40
0
40
0
40
0
40
0
40
0.0951874917952554
40
0.0951874917952554
40
0.230449508663757
40
0.230449508663757
40
0.425399601489458
40
0.425399601489458
40
0.76673146426929
40
0.76673146426929
40
0.76673146426929
40
1
40
1
40
1
40
1
41
1
10
17.0803645201175
20
-1.36359684015775
30
0
41
1
10
17.0698945567777
20
-1.29700759250588
30
0
41
1
10
17.0602443780783
20
-1.21096025114963
30
0
41
1
10
17.0400207928943
20
-0.974117055100891
30
0
41
1
10
17.0304030852269
20
-0.807950538016627
30
0
41
1
10
17.0125620577216
20
-0.381045714083797
30
0
41
1
10
17.0063471727821
20
-0.103781428190416
30
0
41
1
10
16.9975638180692
20
0.656102325368522
30
0
41
1
10
17.0006411724549
20
1.15308413628247
30
0
41
1
10
17.0074325766405
20
1.63412218811624
30
0
41
1
10
17.0121047982349
20
1.96505763416621
30
0
41
1
10
17.0186639736209
20
2.29257132360257
30
0
41
1
10
17.0260677524766
20
2.61687943882021
30
0
0
SPLINE
5
1C6
100
AcDbEntity
8
1
62
256
6
ByLayer
370
18
48
1
60
0
100
AcDbSpline
70
4
71
3
72
11
73
7
40
0
40
0
40
0
40
0
40
0.255231077817542
40
0.601212633629039
40
0.947194189440536
40
1
40
1
40
1
40
1
41
1
10
18.0233653259377
20
-2.4258500236208
30
0
41
1
10
17.9378886894687
20
-2.15741459190497
30
0
41
1
10
17.7834009696379
20
-1.47872144737227
30
0
41
1
10
17.7785926640455
20
0.029124761847612
30
0
41
1
10
17.8646475292996
20
0.463931514607225
30
0
41
1
10
17.9320485841321
20
0.78512004061875
30
0
41
1
10
17.9413658400847
20
0.828640496846276
30
0
0
SPLINE
5
1C7
100
AcDbEntity
8
1
62
256
6
ByLayer
370
18
48
1
60
0
100
AcDbSpline
70
4
71
3
72
12
73
8
40
0
40
0
40
0
40
0
40
0.499806156046827
40
0.499806156046827
40
0.749875499338952
40
0.749875499338952
40
1
40
1
40
1
40
1
41
1
10
18.1156224764163
20
-2.49550188149013
30
0
41
1
10
18.1001417606019
20
-2.48334813225307
30
0
41
1
10
18.0847115884529
20
-2.47145296906606
30
0
41
1
10
18.0616489134021
20
-2.45403141822854
30
0
41
1
10
18.0539717281536
20
-2.44829196465935
30
0
41
1
10
18.0386463509371
20
-2.43695955262703
30
0
41
1
10
18.030997740789
20
-2.43136631341645
30
0
41
1
10
18.0233653259377
20
-2.4258500236208
30
0
0
SPLINE
5
1C8
100
AcDbEntity
8
1
62
256
6
ByLayer
370
18
48
1
60
0
100
AcDbSpline
70
4
71
3
72
16
73
12
40
0
40
0
40
0
40
0
40
0.114691258188364
40
0.114691258188364
40
0.256006982052499
40
0.256006982052499
40
0.478481509698429
40
0.478481509698429
40
0.904237458570111
40
0.904237458570111
40
1
40
1
40
1
40
1
41
1
10
6.9232050807569
20
19.1222825906926
30
0
41
1
10
6.90623920058411
20
19.1222825906926
30
0
41
1
10
6.88906253212411
20
19.1213397893258
30
0
41
1
10
6.85346109846185
20
19.117563257367
30
0
41
1
10
6.83507168736793
20
19.1143205262483
30
0
41
1
10
6.79305201772169
20
19.1044641374228
30
0
41
1
10
6.77140364934789
20
19.0968571256395
30
0
41
1
10
6.71814486104421
20
19.0732678361841
30
0
41
1
10
6.69359399943792
20
19.0554522237109
30
0
41
1
10
6.67087946572559
20
19.0329978954364
30
0
41
1
10
6.66699503410797
20
19.0288038685174
30
0
41
1
10
6.66339745962154
20
19.0245744101322
30
0
0
SPLINE
5
1C9
100
AcDbEntity
8
1
62
256
6
ByLayer
370
18
48
1
60
0
100
AcDbSpline
70
4
71
3
72
18
73
14
40
0
40
0
40
0
40
0
40
0.159442046591594
40
0.159442046591594
40
0.276774212016038
40
0.276774212016038
40
0.394851609433582
40
0.394851609433582
40
0.504565379205413
40
0.504565379205413
40
0.690999004455533
40
0.690999004455533
40
1
40
1
40
1
40
1
41
1
10
17.2750281182364
20
4.37397675707129
30
0
41
1
10
17.2631790221802
20
4.4233955255913
30
0
41
1
10
17.2497381141232
20
4.46928844610051
30
0
41
1
10
17.2245800656092
20
4.53181682306703
30
0
41
1
10
17.2131133481565
20
4.55329776140357
30
0
41
1
10
17.1904945729063
20
4.57991144674736
30
0
41
1
10
17.1790804453112
20
4.58515154655339
30
0
41
1
10
17.159125897081
20
4.57963069091895
30
0
41
1
10
17.1502044636527
20
4.57010041796474
30
0
41
1
10
17.129045018463
20
4.53168349018509
30
0
41
1
10
17.1183501884994
20
4.49378949561483
30
0
41
1
10
17.0956459086436
20
4.37773911463668
30
0
41
1
10
17.0866640297648
20
4.28779040183059
30
0
41
1
10
17.0803645201175
20
4.19276785476032
30
0
0
SPLINE
5
1CA
100
AcDbEntity
8
1
62
256
6
ByLayer
370
18
48
1
60
0
100
AcDbSpline
70
4
71
2
72
6
73
3
40
0
40
0
40
0
40
1
40
1
40
1
41
0.876721052514041
10
20.1385969000676
20
1.37249125857812
30
0
41
0.864489916912265
10
19.0733520919414
20
0.356196092928408
30
0
41
1.02613459695995
10
18.1026431034148
20
0.761330014573267
30
0
0
SPLINE
5
1CB
100
AcDbEntity
8
1
62
256
6
ByLayer
370
18
48
1
60
0
100
AcDbSpline
70
4
71
3
72
8
73
4
40
0
40
0
40
0
40
0
40
1
40
1
40
1
40
1
41
1
10
18.0233653259377
20
-2.4258500236208
30
0
41
1
10
17.4908344125064
20
-2.0409659599473
30
0
41
1
10
17.1496429130416
20
-1.80420927724546
30
0
41
1
10
17.0803645201175
20
-1.36359684015773
30
0
0
SPLINE
5
1CC
100
AcDbEntity
8
1
62
256
6
ByLayer
370
18
48
1
60
0
100
AcDbSpline
70
4
71
3
72
16
73
12
40
0
40
0
40
0
40
0
40
0.114691258188364
40
0.114691258188364
40
0.256006982052491
40
0.256006982052491
40
0.478481509698431
40
0.478481509698431
40
0.904237458570125
40
0.904237458570125
40
1
40
1
40
1
40
1
41
1
10
9.07679491924313
20
5.85988980456935
30
0
41
1
10
9.09376079941589
20
5.85988980456935
30
0
41
1
10
9.11093746787589
20
5.8629683550426
30
0
41
1
10
9.14653890153815
20
5.87527238052311
30
0
41
1
10
9.1649283126321
20
5.88582364044447
30
0
41
1
10
9.20694798227834
20
5.91775860341619
30
0
41
1
10
9.22859635065211
20
5.94228809980598
30
0
41
1
10
9.28185513895579
20
6.01773563791645
30
0
41
1
10
9.30640600056208
20
6.07398601286488
30
0
41
1
10
9.32912053427441
20
6.14371014971229
30
0
41
1
10
9.33300496589203
20
6.15668833929709
30
0
41
1
10
9.33660254037846
20
6.16973001948568
30
0
0
SPLINE
5
1CD
100
AcDbEntity
8
1
62
256
6
ByLayer
370
18
48
1
60
0
100
AcDbSpline
70
4
71
3
72
8
73
4
40
0
40
0
40
0
40
0
40
1
40
1
40
1
40
1
41
1
10
20.92079238
20
19.5953859168696
30
0
41
1
10
20.9398851766948
20
19.6682533463929
30
0
41
1
10
20.9589895496646
20
19.7411191640978
30
0
41
1
10
20.978104963802
20
19.8139827378787
30
0
0
SPLINE
5
1CE
100
AcDbEntity
8
1
62
256
6
ByLayer
370
18
48
1
60
0
100
AcDbSpline
70
4
71
3
72
8
73
4
40
0
40
0
40
0
40
0
40
1
40
1
40
1
40
1
41
1
10
20.978104963802
20
19.8139827378787
30
0
41
1
10
21.0071124466797
20
19.814089682587
30
0
41
1
10
21.0361287628465
20
19.814143145618
30
0
41
1
10
21.0651433124845
20
19.814143145618
30
0
0
SPLINE
5
1CF
100
AcDbEntity
8
1
62
256
6
ByLayer
370
18
48
1
60
0
100
AcDbSpline
70
4
71
3
72
10
73
6
40
0
40
0
40
0
40
0
40
0.049176297090811
40
0.874095769913185
40
1
40
1
40
1
40
1
41
1.02613459695995
10
22.6717712499109
20
14.0249891080388
30
0
41
1.02613459695995
10
22.6583624520714
20
14.0049281482923
30
0
41
1.02613459695995
10
22.4272354972721
20
13.6558867496693
30
0
41
1.02613459695995
10
22.3198877733042
20
13.4278980016029
30
0
41
1.02613459695995
10
22.1822484352777
20
13.1268319433856
30
0
41
1.02613459695995
10
22.1637512583193
20
13.0859414299242
30
0
0
SPLINE
5
1D0
100
AcDbEntity
8
1
62
256
6
ByLayer
370
18
48
1
60
0
100
AcDbSpline
70
4
71
3
72
16
73
12
40
0
40
0
40
0
40
0
40
0.223150580815801
40
0.223150580815801
40
0.446272993558188
40
0.446272993558188
40
0.669843465198726
40
0.669843465198726
40
0.897182555479731
40
0.897182555479731
40
1
40
1
40
1
40
1
41
1
10
20.92079238
20
19.5953859168696
30
0
41
1
10
20.4820356516982
20
19.5921495679438
30
0
41
1
10
20.0400194234503
20
19.5740335831371
30
0
41
1
10
19.2227830076886
20
19.5055315827938
30
0
41
1
10
18.8363831801959
20
19.4539599663908
30
0
41
1
10
18.1700045757175
20
19.312705250157
30
0
41
1
10
17.8813325744675
20
19.2207217559237
30
0
41
1
10
17.4314933461893
20
18.9948322134414
30
0
41
1
10
17.2665208540444
20
18.8571253883452
30
0
41
1
10
17.1268994980038
20
18.6313879984429
30
0
41
1
10
17.096843168946
20
18.5565302151828
30
0
41
1
10
17.0803645201174
20
18.4785397031243
30
0
0
SPLINE
5
1D1
100
AcDbEntity
8
1
62
256
6
ByLayer
370
18
48
1
60
0
100
AcDbSpline
70
4
71
3
72
16
73
12
40
0
40
0
40
0
40
0
40
0.114691258188368
40
0.114691258188368
40
0.256006982052502
40
0.256006982052502
40
0.47848150969846
40
0.47848150969846
40
0.904237458570168
40
0.904237458570168
40
1
40
1
40
1
40
1
41
1
10
6.9232050807569
20
-5.85988980456938
30
0
41
1
10
6.90623920058411
20
-5.85988980456938
30
0
41
1
10
6.88906253212411
20
-5.8629683550426
30
0
41
1
10
6.85346109846185
20
-5.87527238052311
30
0
41
1
10
6.8350716873679
20
-5.88582364044447
30
0
41
1
10
6.79305201772166
20
-5.91775860341622
30
0
41
1
10
6.77140364934789
20
-5.94228809980598
30
0
41
1
10
6.71814486104418
20
-6.01773563791645
30
0
41
1
10
6.69359399943792
20
-6.07398601286491
30
0
41
1
10
6.67087946572559
20
-6.14371014971229
30
0
41
1
10
6.66699503410797
20
-6.15668833929709
30
0
41
1
10
6.66339745962154
20
-6.16973001948568
30
0
0
SPLINE
5
1D2
100
AcDbEntity
8
1
62
256
6
ByLayer
370
18
48
1
60
0
100
AcDbSpline
70
4
71
3
72
12
73
8
40
0
40
0
40
0
40
0
40
0.249999997101345
40
0.249999997101345
40
0.62499999667598
40
0.62499999667598
40
1
40
1
40
1
40
1
41
1
10
22.6005654677428
20
14.0727270333352
30
0
41
1
10
22.5946329060557
20
14.0767046444905
30
0
41
1
10
22.5887006653382
20
14.0806821127025
30
0
41
1
10
22.5738708614329
20
14.0906254277972
30
0
41
1
10
22.564973697239
20
14.0965910969821
30
0
41
1
10
22.547180793664
20
14.1085218006979
30
0
41
1
10
22.5382850542615
20
14.1144868352436
30
0
41
1
10
22.5293900217538
20
14.1204515548975
30
0
0
SPLINE
5
1D3
100
AcDbEntity
8
1
62
256
6
ByLayer
370
18
48
1
60
0
100
AcDbSpline
70
4
71
3
72
12
73
8
40
0
40
0
40
0
40
0
40
0.249999991401469
40
0.249999991401469
40
0.624999993741115
40
0.624999993741115
40
1
40
1
40
1
40
1
41
1
10
22.6717712531536
20
14.0249891118852
30
0
41
1
10
22.6658361346323
20
14.0289678528091
30
0
41
1
10
22.6599013406662
20
14.0329464438863
30
0
41
1
10
22.645065181471
20
14.0428925670763
30
0
41
1
10
22.6361642204655
20
14.0488599138588
30
0
41
1
10
22.6183637548589
20
14.0607939587532
30
0
41
1
10
22.6094642502353
20
14.0667606568807
30
0
41
1
10
22.6005654677582
20
14.0727270333495
30
0
0
SPLINE
5
1D4
100
AcDbEntity
8
1
62
256
6
ByLayer
370
18
48
1
60
0
100
AcDbSpline
70
4
71
3
72
26
73
22
40
0
40
0
40
0
40
0
40
0.0621074607051111
40
0.0621074607051111
40
0.101296177862894
40
0.101296177862894
40
0.140967258313873
40
0.140967258313873
40
0.187913002669425
40
0.187913002669425
40
0.386009855283715
40
0.386009855283715
40
0.582507180868845
40
0.582507180868845
40
0.753480587644225
40
0.753480587644225
40
0.88699401664272
40
0.88699401664272
40
0.993958864044134
40
0.993958864044134
40
1
40
1
40
1
40
1
41
1
10
20.1385969000735
20
1.37249125857539
30
0
41
1
10
20.1585523778797
20
1.39152975138759
30
0
41
1
10
20.1800630402814
20
1.40814473256208
30
0
41
1
10
20.2170985226193
20
1.42473404352398
30
0
41
1
10
20.2321977688048
20
1.42855772275433
30
0
41
1
10
20.2621017707847
20
1.42829123691027
30
0
41
1
10
20.2772918781258
20
1.42396220711945
30
0
41
1
10
20.3073825740255
20
1.40602290911696
30
0
41
1
10
20.3221297784039
20
1.39100008941955
30
0
41
1
10
20.3942098284182
20
1.30636664904293
30
0
41
1
10
20.461956844644
20
1.23276667322202
30
0
41
1
10
20.6336160807782
20
1.12628738609925
30
0
41
1
10
20.7290778683812
20
1.07540679075245
30
0
41
1
10
20.9086268617225
20
0.984420405522712
30
0
41
1
10
20.9958304457256
20
0.944477281186551
30
0
41
1
10
21.1517945016824
20
0.897608518762922
30
0
41
1
10
21.2221360467782
20
0.885590972864151
30
0
41
1
10
21.3435901842066
20
0.886632685802681
30
0
41
1
10
21.3966128288419
20
0.894583431231638
30
0
41
1
10
21.4493309801637
20
0.908596803706928
30
0
41
1
10
21.452099621278
20
0.90936516915167
30
0
41
1
10
21.4548624099651
20
0.910122876657113
30
0
0
SPLINE
5
1D5
100
AcDbEntity
8
1
62
256
6
ByLayer
370
18
48
1
60
0
100
AcDbSpline
70
4
71
3
72
8
73
4
40
0
40
0
40
0
40
0
40
1
40
1
40
1
40
1
41
1
10
22.529390021739
20
14.1204515548839
30
0
41
1
10
22.4943574507057
20
14.1439432582353
30
0
41
1
10
22.4598562823017
20
14.1671986291945
30
0
41
1
10
22.4259169805619
20
14.1902018550908
30
0
0
SPLINE
5
1D6
100
AcDbEntity
8
1
62
256
6
ByLayer
370
18
48
1
60
0
100
AcDbSpline
70
4
71
3
72
16
73
12
40
0
40
0
40
0
40
0
40
0.114691258188362
40
0.114691258188362
40
0.256006982052503
40
0.256006982052503
40
0.47848150969845
40
0.47848150969845
40
0.904237458570186
40
0.904237458570186
40
1
40
1
40
1
40
1
41
1
10
9.0767949192431
20
-19.1222825906926
30
0
41
1
10
9.09376079941589
20
-19.1222825906926
30
0
41
1
10
9.11093746787589
20
-19.1213397893258
30
0
41
1
10
9.14653890153815
20
-19.117563257367
30
0
41
1
10
9.1649283126321
20
-19.1143205262483
30
0
41
1
10
9.20694798227834
20
-19.1044641374228
30
0
41
1
10
9.22859635065211
20
-19.0968571256395
30
0
41
1
10
9.28185513895582
20
-19.0732678361841
30
0
41
1
10
9.30640600056208
20
-19.0554522237109
30
0
41
1
10
9.32912053427441
20
-19.0329978954363
30
0
41
1
10
9.33300496589203
20
-19.0288038685174
30
0
41
1
10
9.33660254037846
20
-19.0245744101322
30
0
0
SPLINE
5
1D7
100
AcDbEntity
8
1
62
256
6
ByLayer
370
18
48
1
60
0
100
AcDbSpline
70
4
71
2
72
6
73
3
40
0
40
0
40
0
40
1
40
1
40
1
41
1.02613459695995
10
22.0024739949893
20
13.1532519121979
30
0
41
1.00903627783253
10
21.9145040733192
20
13.1899669316056
30
0
41
0.993883422646065
10
21.8226513786216
20
13.2138837686767
30
0
0
SPLINE
5
1D8
100
AcDbEntity
8
1
62
256
6
ByLayer
370
18
48
1
60
0
100
AcDbSpline
70
4
71
3
72
16
73
12
40
0
40
0
40
0
40
0
40
0.464304267159293
40
0.464304267159293
40
0.647533485141969
40
0.647533485141969
40
0.833383675860506
40
0.833383675860506
40
0.950238074309852
40
0.950238074309852
40
1
40
1
40
1
40
1
41
1
10
6.66339745962156
20
-19.0245744101322
30
0
41
1
10
6.68070356543041
20
-19.0449201888242
30
0
41
1
10
6.70445583204739
20
-19.0647708693882
30
0
41
1
10
6.75332706552712
20
-19.0892734034403
30
0
41
1
10
6.76920288341026
20
-19.0959253431035
30
0
41
1
10
6.80605435144608
20
-19.1078085849622
30
0
41
1
10
6.82759190740043
20
-19.1131587398644
30
0
41
1
10
6.86713065155234
20
-19.1192406569511
30
0
41
1
10
6.8838647446556
20
-19.1209710216544
30
0
41
1
10
6.90829201976607
20
-19.1221075563677
30
0
41
1
10
6.91575967688848
20
-19.1222825906926
30
0
41
1
10
6.92320508075687
20
-19.1222825906926
30
0
0
SPLINE
5
1D9
100
AcDbEntity
8
1
62
256
6
ByLayer
370
18
48
1
60
0
100
AcDbSpline
70
4
71
3
72
16
73
12
40
0
40
0
40
0
40
0
40
0.464304267159312
40
0.464304267159312
40
0.64753348514198
40
0.64753348514198
40
0.833383675860513
40
0.833383675860513
40
0.950238074309858
40
0.950238074309858
40
1
40
1
40
1
40
1
41
1
10
9.33660254037844
20
19.0245744101322
30
0
41
1
10
9.31929643456959
20
19.0449201888242
30
0
41
1
10
9.29554416795261
20
19.0647708693882
30
0
41
1
10
9.24667293447288
20
19.0892734034403
30
0
41
1
10
9.23079711658974
20
19.0959253431035
30
0
41
1
10
9.19394564855392
20
19.1078085849622
30
0
41
1
10
9.17240809259957
20
19.1131587398644
30
0
41
1
10
9.13286934844766
20
19.1192406569511
30
0
41
1
10
9.1161352553444
20
19.1209710216544
30
0
41
1
10
9.09170798023393
20
19.1221075563677
30
0
41
1
10
9.08424032311152
20
19.1222825906926
30
0
41
1
10
9.07679491924313
20
19.1222825906926
30
0
0
SPLINE
5
1DA
100
AcDbEntity
8
1
62
256
6
ByLayer
370
18
48
1
60
0
100
AcDbSpline
70
4
71
3
72
11
73
7
40
0
40
0
40
0
40
0
40
0.273680679777993
40
0.611091493980562
40
0.948502308183132
40
1
40
1
40
1
40
1
41
1.02613459695995
10
18.2107472081675
20
-2.57275246277471
30
0
41
1.02613459695995
10
18.1124906311666
20
-2.28157831129382
30
0
41
1.02613459695995
10
17.9448071803236
20
-1.58646878994233
30
0
41
1.02613459695995
10
17.9398699273755
20
-0.0381857204259738
30
0
41
1.02613459695995
10
18.0259247926296
20
0.396621032333655
30
0
41
1.02613459695995
10
18.0933258474622
20
0.717809558345185
30
0
41
1.02613459695995
10
18.1026431034147
20
0.761330014572713
30
0
0
SPLINE
5
1DB
100
AcDbEntity
8
1
62
256
6
ByLayer
370
18
48
1
60
0
100
AcDbSpline
70
4
71
3
72
8
73
4
40
0
40
0
40
0
40
0
40
1
40
1
40
1
40
1
41
1
10
21.0651433124845
20
-19.814143145618
30
0
41
1
10
21.0361287628465
20
-19.814143145618
30
0
41
1
10
21.0071124466797
20
-19.814089682587
30
0
41
1
10
20.978104963802
20
-19.8139827378787
30
0
0
SPLINE
5
1DC
100
AcDbEntity
8
1
62
256
6
ByLayer
370
18
48
1
60
0
100
AcDbSpline
70
4
71
3
72
8
73
4
40
0
40
0
40
0
40
0
40
1
40
1
40
1
40
1
41
1
10
21.8226513786082
20
13.2138837686802
30
0
41
1
10
21.9854495446403
20
13.5600688839932
30
0
41
1
10
22.1821585328792
20
13.895364279284
30
0
41
1
10
22.4259169805988
20
14.190201855066
30
0
0
SPLINE
5
1DD
100
AcDbEntity
8
1
62
256
6
ByLayer
370
18
48
1
60
0
100
AcDbSpline
70
4
71
3
72
11
73
7
40
0
40
0
40
0
40
0
40
0.263658811917876
40
0.605725273437496
40
0.947791734957116
40
1
40
1
40
1
40
1
41
1
10
18.1156224764163
20
-2.49550188149013
30
0
41
1
10
18.0244642386878
20
-2.21680981051296
30
0
41
1
10
17.8640977024581
20
-1.53059674647426
30
0
41
1
10
17.8592312957105
20
-0.0045304792891727
30
0
41
1
10
17.9452861609646
20
0.43027627347044
30
0
41
1
10
18.0126872157972
20
0.751464799481994
30
0
41
1
10
18.0220044717497
20
0.79498525570952
30
0
0
SPLINE
5
1DE
100
AcDbEntity
8
1
62
256
6
ByLayer
370
18
48
1
60
0
100
AcDbSpline
70
4
71
2
72
6
73
3
40
0
40
0
40
0
40
1
40
1
40
1
41
0.876721052514087
10
23.3533427282544
20
11.1285705404466
30
0
41
0.864489916911963
10
23.1344602468477
20
12.680807508278
30
0
41
1.02613459695995
10
22.1637512583191
20
13.0859414299238
30
0
0
SPLINE
5
1DF
100
AcDbEntity
8
1
62
256
6
ByLayer
370
18
48
1
60
0
100
AcDbSpline
70
4
71
3
72
9
73
5
40
0
40
0
40
0
40
0
40
0.631794023164697
40
1
40
1
40
1
40
1
41
1
10
26.5562144317214
20
11.87463948886
30
0
41
1
10
26.1404872067933
20
11.7112921526415
30
0
41
1
10
25.4896579590885
20
11.3614856622413
30
0
41
1
10
24.8986410796108
20
10.9023976503116
30
0
41
1
10
24.6785919535905
20
10.6934658332501
30
0
0
SPLINE
5
1E0
100
AcDbEntity
8
1
62
256
6
ByLayer
370
18
48
1
60
0
100
AcDbSpline
70
4
71
3
72
10
73
6
40
0
40
0
40
0
40
0
40
0.0703575584637768
40
0.876900506897867
40
1
40
1
40
1
40
1
41
1
10
22.5293900217405
20
14.1204515548822
30
0
41
1
10
22.5092276517163
20
14.0905367119128
30
0
41
1
10
22.2684040777392
20
13.7283917982053
30
0
41
1
10
22.1586105099742
20
13.4952084838765
30
0
41
1
10
22.0209711719478
20
13.1941424256592
30
0
41
1
10
22.0024739949893
20
13.1532519121979
30
0
0
SPLINE
5
1E1
100
AcDbEntity
8
1
62
256
6
ByLayer
370
18
48
1
60
0
100
AcDbSpline
70
4
71
3
72
10
73
6
40
0
40
0
40
0
40
0
40
0.5
40
0.5
40
1
40
1
40
1
40
1
41
1
10
17.0803645201175
20
-18.4785397031243
30
0
41
1
10
17.1607362481336
20
-18.8589247873746
30
0
41
1
10
17.5682113664009
20
-19.1459166129717
30
0
41
1
10
18.9669005807707
20
-19.5099726158561
30
0
41
1
10
19.9225318765138
20
-19.5880225669773
30
0
41
1
10
20.92079238
20
-19.5953859168696
30
0
0
SPLINE
5
1E2
100
AcDbEntity
8
1
62
256
6
ByLayer
370
18
48
1
60
0
100
AcDbSpline
70
4
71
3
72
12
73
8
40
0
40
0
40
0
40
0
40
0.3570267945705
40
0.3570267945705
40
0.715603767359934
40
0.715603767359934
40
1
40
1
40
1
40
1
41
1
10
21.0651433124845
20
-3.87986180040019
30
0
41
1
10
20.6626493306773
20
-3.8080012684168
30
0
41
1
10
20.261035188312
20
-3.70137695804519
30
0
41
1
10
19.5235974729972
20
-3.421510807891
30
0
41
1
10
19.1791086854791
20
-3.24603184691193
30
0
41
1
10
18.6310554070516
20
-2.90243632752666
30
0
41
1
10
18.4090088153331
20
-2.7387452970676
30
0
41
1
10
18.2107472081675
20
-2.57275246277473
30
0
0
SPLINE
5
1E3
100
AcDbEntity
8
SK1
62
256
6
ByLayer
370
18
48
1
60
0
100
AcDbSpline
70
4
71
3
72
22
73
18
40
0
40
0
40
0
40
0
40
0.0408146055975421
40
0.0408146055975421
40
0.0823243808208714
40
0.0823243808208714
40
0.113722137960843
40
0.113722137960843
40
0.144934004837801
40
0.144934004837801
40
0.197663645148653
40
0.197663645148653
40
0.33040493622216
40
0.33040493622216
40
0.796191409884692
40
0.796191409884692
40
1
40
1
40
1
40
1
41
1
10
-0.394976888875306
20
-5.00092508226666
30
0
41
1
10
-0.415530107853925
20
-5.01747813555136
30
0
41
1
10
-0.438024560131566
20
-5.03261131985604
30
0
41
1
10
-0.487324802537927
20
-5.05682200266617
30
0
41
1
10
-0.514951385379703
20
-5.065973715838
30
0
41
1
10
-0.565001076851473
20
-5.07238571210249
30
0
41
1
10
-0.587551462055302
20
-5.07198375916977
30
0
41
1
10
-0.630654498772856
20
-5.06497384681828
30
0
41
1
10
-0.651690830573216
20
-5.05839846240309
30
0
41
1
10
-0.704063404944179
20
-5.0354696203506
30
0
41
1
10
-0.733646054998758
20
-5.01537181535585
30
0
41
1
10
-0.825717517678271
20
-4.93804001611764
30
0
41
1
10
-0.875568215521128
20
-4.86927174197922
30
0
41
1
10
-1.06893868726922
20
-4.55513362670803
30
0
41
1
10
-1.15213866111816
20
-4.27852588598478
30
0
41
1
10
-1.25478905452405
20
-3.87761185644086
30
0
41
1
10
-1.28234760083203
20
-3.75339907142145
30
0
41
1
10
-1.30710678118763
20
-3.62781610099955
30
0
0
SPLINE
5
1E4
100
AcDbEntity
8
SK1
62
256
6
ByLayer
370
18
48
1
60
0
100
AcDbSpline
70
4
71
3
72
10
73
6
40
0
40
0
40
0
40
0
40
0.5
40
0.5
40
1
40
1
40
1
40
1
41
1
10
-1.69999999999999
20
2.58372509632821
30
0
41
1
10
-1.83222262461143
20
1.751855044526
30
0
41
1
10
-1.92871617486691
20
0.884329181036094
30
0
41
1
10
-1.92842303871006
20
-0.888588835776119
30
0
41
1
10
-1.83224326233341
20
-1.75172436897285
30
0
41
1
10
-1.69999999999999
20
-2.58372503195247
30
0
0
SPLINE
5
1E5
100
AcDbEntity
8
SK1
62
256
6
ByLayer
370
18
48
1
60
0
100
AcDbSpline
70
4
71
3
72
8
73
4
40
0
40
0
40
0
40
0
40
1
40
1
40
1
40
1
41
1
10
-1.30710678118655
20
3.62781725664615
30
0
41
1
10
-1.37345758266253
20
3.29127686428785
30
0
41
1
10
-1.4372955614198
20
2.946602671997
30
0
41
1
10
-1.49503997793931
20
2.59465115838313
30
0
0
SPLINE
5
1E6
100
AcDbEntity
8
SK1
62
256
6
ByLayer
370
18
48
1
60
0
100
AcDbSpline
70
4
71
3
72
24
73
20
40
0
40
0
40
0
40
0
40
0.408002420194574
40
0.408002420194574
40
0.586477084363329
40
0.586477084363329
40
0.763728221544513
40
0.763728221544513
40
0.83464833042642
40
0.83464833042642
40
0.871680147904128
40
0.871680147904128
40
0.909315863704638
40
0.909315863704638
40
0.941446160303591
40
0.941446160303591
40
0.988233002766673
40
0.988233002766673
40
1
40
1
40
1
40
1
41
1
10
-1.30710678118655
20
3.62781725664615
30
0
41
1
10
-1.25754709276271
20
3.87919081380429
30
0
41
1
10
-1.19771793926938
20
4.12580048883993
30
0
41
1
10
-1.07980138365164
20
4.46640123366592
30
0
41
1
10
-1.03947389583291
20
4.56855181342542
30
0
41
1
10
-0.943165684412492
20
4.76452984977917
30
0
41
1
10
-0.887972849225292
20
4.86076144162979
30
0
41
1
10
-0.781589632759733
20
4.97623115222154
30
0
41
1
10
-0.746942513659576
20
5.00751721259149
30
0
41
1
10
-0.685298347589708
20
5.04425501792002
30
0
41
1
10
-0.662073057062713
20
5.05499571071985
30
0
41
1
10
-0.612858105189787
20
5.06918922724967
30
0
41
1
10
-0.586087478285805
20
5.07253385323432
30
0
41
1
10
-0.537899014579068
20
5.06994558199364
30
0
41
1
10
-0.515734678473706
20
5.06532466911642
30
0
41
1
10
-0.465255653618982
20
5.04798484569733
30
0
41
1
10
-0.437776087568892
20
5.03248974169182
30
0
41
1
10
-0.406986543980821
20
5.01034621255963
30
0
41
1
10
-0.400907252385935
20
5.00570060770795
30
0
41
1
10
-0.394976888875277
20
5.00092441402839
30
0
0
SPLINE
5
1E7
100
AcDbEntity
8
SK1
62
256
6
ByLayer
370
18
48
1
60
0
100
AcDbSpline
70
4
71
3
72
24
73
20
40
0
40
0
40
0
40
0
40
0.470757791634908
40
0.470757791634908
40
0.661826126045254
40
0.661826126045254
40
0.85568916651581
40
0.85568916651581
40
0.884460546127643
40
0.884460546127643
40
0.91360691814161
40
0.91360691814161
40
0.932763100125268
40
0.932763100125268
40
0.95203909678233
40
0.95203909678233
40
0.974618894615272
40
0.974618894615272
40
1
40
1
40
1
40
1
41
1
10
-0.199999999999989
20
-5.70317605472911
30
0
41
1
10
-0.199999999999989
20
-5.58107998739831
30
0
41
1
10
-0.203895983734896
20
-5.45705658909691
30
0
41
1
10
-0.223509916035709
20
-5.28128624620587
30
0
41
1
10
-0.23086916609185
20
-5.23019697507434
30
0
41
1
10
-0.252992963272021
20
-5.12819212434212
30
0
41
1
10
-0.266168518183207
20
-5.0748758166919
30
0
41
1
10
-0.299311339940942
20
-5.02202983998879
30
0
41
1
10
-0.304166370278011
20
-5.01525404855027
30
0
41
1
10
-0.315232060467963
20
-5.00279573504582
30
0
41
1
10
-0.321587352348587
20
-4.99699852204864
30
0
41
1
10
-0.333432884234497
20
-4.98975078853741
30
0
41
1
10
-0.33858625385443
20
-4.98746585289803
30
0
41
1
10
-0.3491574393544
20
-4.98479989040243
30
0
41
1
10
-0.354703931885922
20
-4.98441392730476
30
0
41
1
10
-0.366193082216228
20
-4.98556317954746
30
0
41
1
10
-0.372213152675158
20
-4.98741181161262
30
0
41
1
10
-0.383950186909431
20
-4.99285513665984
30
0
41
1
10
-0.3896944310344
20
-4.99667072159761
30
0
41
1
10
-0.394976888882155
20
-5.00092508225598
30
0
0
SPLINE
5
1E8
100
AcDbEntity
8
SK1
62
256
6
ByLayer
370
18
48
1
60
0
100
AcDbSpline
70
4
71
3
72
8
73
4
40
0
40
0
40
0
40
0
40
1
40
1
40
1
40
1
41
1
10
-1.49503997793931
20
-2.59465115086957
30
0
41
1
10
-1.43729564430089
20
-2.94660231507382
30
0
41
1
10
-1.37345704405578
20
-3.29127575598179
30
0
41
1
10
-1.30710678118655
20
-3.6278161010051
30
0
0
SPLINE
5
1E9
100
AcDbEntity
8
SK1
62
256
6
ByLayer
370
18
48
1
60
0
100
AcDbSpline
70
4
71
3
72
30
73
26
40
0
40
0
40
0
40
0
40
0.337353368376273
40
0.337353368376273
40
0.421572476570396
40
0.421572476570396
40
0.437870507614647
40
0.437870507614647
40
0.454360744150349
40
0.454360744150349
40
0.46102437321649
40
0.46102437321649
40
0.467802724987302
40
0.467802724987302
40
0.473791453396888
40
0.473791453396888
40
0.481264268969724
40
0.481264268969724
40
0.494804301393218
40
0.494804301393218
40
0.541069262252274
40
0.541069262252274
40
0.762218024196531
40
0.762218024196531
40
1
40
1
40
1
40
1
41
1
10
-1.69999999999999
20
-2.5837250319525
30
0
41
1
10
-1.69946915813009
20
-2.45210484593008
30
0
41
1
10
-1.69760670671556
20
-2.31884997747196
30
0
41
1
10
-1.67915375522099
20
-2.15294187932722
30
0
41
1
10
-1.67485152519237
20
-2.11932442567118
30
0
41
1
10
-1.66472347048304
20
-2.08095979549279
30
0
41
1
10
-1.66287560510222
20
-2.07475454077749
30
0
41
1
10
-1.65846712486041
20
-2.06274931231133
30
0
41
1
10
-1.65588139752759
20
-2.05680133794195
30
0
41
1
10
-1.65120237663186
20
-2.0497680665317
30
0
41
1
10
-1.64969999009787
20
-2.04787870491481
30
0
41
1
10
-1.64639510213217
20
-2.0447894938039
30
0
41
1
10
-1.64453557847699
20
-2.04357912964019
30
0
41
1
10
-1.64096575658939
20
-2.04240828386776
30
0
41
1
10
-1.63922229186966
20
-2.04230771235822
30
0
41
1
10
-1.63551182442282
20
-2.04297037181766
30
0
41
1
10
-1.63353448434609
20
-2.04393506875687
30
0
41
1
10
-1.62845259442082
20
-2.04750201060256
30
0
41
1
10
-1.62558657915471
20
-2.0508033417303
30
0
41
1
10
-1.61425491864986
20
-2.06649024761731
30
0
41
1
10
-1.60795428020356
20
-2.08189579117942
30
0
41
1
10
-1.57473680217674
20
-2.17064161742221
30
0
41
1
10
-1.55852136531561
20
-2.25243693059593
30
0
41
1
10
-1.5247433730911
20
-2.41950302647342
30
0
41
1
10
-1.50941945205861
20
-2.5070083929059
30
0
41
1
10
-1.49503997793928
20
-2.59465115086951
30
0
0
SPLINE
5
1EA
100
AcDbEntity
8
SK1
62
256
6
ByLayer
370
18
48
1
60
0
100
AcDbSpline
70
4
71
3
72
98
73
94
40
0
40
0
40
0
40
0
40
0.0012808740763045
40
0.0105737783742241
40
0.0198666826721437
40
0.0291595869700633
40
0.0384524912679829
40
0.0477453955659025
40
0.0663312041617417
40
0.0849170127575809
40
0.10350282135342
40
0.11279572565134
40
0.122088629949259
40
0.131381534247179
40
0.140674438545099
40
0.159260247140938
40
0.168553151438857
40
0.177846055736777
40
0.187138960034696
40
0.196431864332616
40
0.205724768630536
40
0.215017672928455
40
0.233603481524295
40
0.242896385822214
40
0.252189290120134
40
0.261482194418053
40
0.270775098715973
40
0.280068003013893
40
0.289360907311812
40
0.298653811609732
40
0.307946715907651
40
0.326532524503491
40
0.33582542880141
40
0.34511833309933
40
0.363704141695169
40
0.382289950291008
40
0.391582854588928
40
0.400875758886847
40
0.410168663184767
40
0.419461567482687
40
0.428754471780606
40
0.438047376078526
40
0.442693828227486
40
0.447340280376445
40
0.456633184674365
40
0.465926088972284
40
0.475218993270204
40
0.493804801866043
40
0.503097706163963
40
0.512390610461883
40
0.521683514759802
40
0.530976419057722
40
0.540269323355641
40
0.549562227653561
40
0.558855131951481
40
0.5681480362494
40
0.57744094054732
40
0.586733844845239
40
0.605319653441079
40
0.614612557738998
40
0.623905462036918
40
0.628551914185878
40
0.633198366334837
40
0.642491270632757
40
0.661077079228596
40
0.670369983526516
40
0.679662887824435
40
0.698248696420275
40
0.716834505016114
40
0.726127409314034
40
0.735420313611953
40
0.754006122207792
40
0.763299026505712
40
0.772591930803632
40
0.781884835101551
40
0.791177739399471
40
0.80047064369739
40
0.80976354799531
40
0.828349356591149
40
0.846935165186988
40
0.856228069484908
40
0.865520973782828
40
0.874813878080747
40
0.884106782378667
40
0.902692590974506
40
0.921278399570345
40
0.939864208166184
40
0.958450016762024
40
0.967742921059943
40
0.977035825357863
40
0.986328729655782
40
0.995621633953702
40
1
40
1
40
1
40
1
41
1
10
-0.394976888875277
20
13.8446015176322
30
0
41
1
10
-0.394976888875277
20
13.8443369604552
30
0
41
1
10
-0.394976888875277
20
13.842101166137
30
0
41
1
10
-0.394976888875277
20
13.8370982474882
30
0
41
1
10
-0.394976888875277
20
13.8281310063336
30
0
41
1
10
-0.394976888875277
20
13.8172492272358
30
0
41
1
10
-0.394976888875277
20
13.8044829705053
30
0
41
1
10
-0.394976888875277
20
13.7849758313288
30
0
41
1
10
-0.394976888875277
20
13.7560496751861
30
0
41
1
10
-0.394976888875277
20
13.7142204148031
30
0
41
1
10
-0.394976888875277
20
13.6736219510479
30
0
41
1
10
-0.394976888875277
20
13.6377421071264
30
0
41
1
10
-0.394976888875277
20
13.6091837483775
30
0
41
1
10
-0.394976888875277
20
13.5789821852606
30
0
41
1
10
-0.394976888875277
20
13.5365270016785
30
0
41
1
10
-0.394976888875277
20
13.4909311840823
30
0
41
1
10
-0.394976888875277
20
13.4421262012037
30
0
41
1
10
-0.394976888875277
20
13.4039879614121
30
0
41
1
10
-0.394976888875277
20
13.3643136176474
30
0
41
1
10
-0.394976888875277
20
13.3231185671574
30
0
41
1
10
-0.394976888875277
20
13.2804176635455
30
0
41
1
10
-0.394976888875277
20
13.2214670183476
30
0
41
1
10
-0.394976888875277
20
13.1596507604527
30
0
41
1
10
-0.394976888875277
20
13.094846134259
30
0
41
1
10
-0.394976888875277
20
13.0448282447276
30
0
41
1
10
-0.394976888875277
20
12.9933861020735
30
0
41
1
10
-0.394976888875277
20
12.9405320737836
30
0
41
1
10
-0.394976888875277
20
12.8862769376535
30
0
41
1
10
-0.394976888875277
20
12.8306328717281
30
0
41
1
10
-0.394976888875277
20
12.7736108931729
30
0
41
1
10
-0.394976888875277
20
12.6957215859151
30
0
41
1
10
-0.394976888875277
20
12.6152283382819
30
0
41
1
10
-0.394976888875277
20
12.5319491453114
30
0
41
1
10
-0.394976888875277
20
12.4468991604423
30
0
41
1
10
-0.394976888875277
20
12.3373769122162
30
0
41
1
10
-0.394976888875277
20
12.2235215734124
30
0
41
1
10
-0.394976888875277
20
12.1297946053789
30
0
41
1
10
-0.394976888875277
20
12.0582544060742
30
0
41
1
10
-0.394976888875277
20
11.9854459580753
30
0
41
1
10
-0.394976888875277
20
11.9113764581405
30
0
41
1
10
-0.394976888875277
20
11.8360539668501
30
0
41
1
10
-0.394976888875277
20
11.7722691621604
30
0
41
1
10
-0.394976888875277
20
11.7205808778945
30
0
41
1
10
-0.394976888875277
20
11.6684804259269
30
0
41
1
10
-0.394976888875277
20
11.6026363586083
30
0
41
1
10
-0.394976888875277
20
11.5223699646631
30
0
41
1
10
-0.394976888875277
20
11.4136741241806
30
0
41
1
10
-0.394976888875277
20
11.3026972493618
30
0
41
1
10
-0.394976888875277
20
11.1891707558493
30
0
41
1
10
-0.394976888875277
20
11.102867622286
30
0
41
1
10
-0.394976888875277
20
11.0153746780185
30
0
41
1
10
-0.394976888875277
20
10.9266969759659
30
0
41
1
10
-0.394976888875277
20
10.8368404439692
30
0
41
1
10
-0.394976888875277
20
10.74580988339
30
0
41
1
10
-0.394976888875277
20
10.6536100721469
30
0
41
1
10
-0.394976888875277
20
10.5602461340712
30
0
41
1
10
-0.394976888875277
20
10.4657231550753
30
0
41
1
10
-0.394976888875277
20
10.3380960413352
30
0
41
1
10
-0.394976888875277
20
10.2083399780688
30
0
41
1
10
-0.394976888875277
20
10.0761265525343
30
0
41
1
10
-0.394976888875277
20
9.99261143893298
30
0
41
1
10
-0.394976888875277
20
9.92517900727512
30
0
41
1
10
-0.394976888875277
20
9.85736934874495
30
0
41
1
10
-0.394976888875277
20
9.73773600630287
30
0
41
1
10
-0.394976888875277
20
9.59892076352932
30
0
41
1
10
-0.394976888875277
20
9.45767861814849
30
0
41
1
10
-0.394976888875277
20
9.3149499665038
30
0
41
1
10
-0.394976888875277
20
9.13390678694702
30
0
41
1
10
-0.394976888875277
20
8.94918033853523
30
0
41
1
10
-0.394976888875277
20
8.79907643306458
30
0
41
1
10
-0.394976888875277
20
8.64751154095558
30
0
41
1
10
-0.394976888875277
20
8.49397418950429
30
0
41
1
10
-0.394976888875277
20
8.33804225713789
30
0
41
1
10
-0.394976888875277
20
8.22006379392718
30
0
41
1
10
-0.394976888875277
20
8.10100252302422
30
0
41
1
10
-0.394976888875277
20
7.98086143927398
30
0
41
1
10
-0.394976888875277
20
7.85964213989763
30
0
41
1
10
-0.394976888875277
20
7.69650359349293
30
0
41
1
10
-0.394976888875277
20
7.49008089634199
30
0
41
1
10
-0.394976888875277
20
7.28009509164627
30
0
41
1
10
-0.394976888875277
20
7.10982244878713
30
0
41
1
10
-0.394976888875277
20
6.98112244545175
30
0
41
1
10
-0.394976888875277
20
6.85136200824962
30
0
41
1
10
-0.394976888875277
20
6.67684685573994
30
0
41
1
10
-0.394976888875277
20
6.45627503636445
30
0
41
1
10
-0.394976888875277
20
6.18726433662556
30
0
41
1
10
-0.394976888875277
20
5.91406385279547
30
0
41
1
10
-0.394976888875277
20
5.68302324019061
30
0
41
1
10
-0.394976888875277
20
5.49591838220567
30
0
41
1
10
-0.394976888875277
20
5.35463940810163
30
0
41
1
10
-0.394976888875277
20
5.21232773385495
30
0
41
1
10
-0.394976888875277
20
5.09425517295406
30
0
41
1
10
-0.394976888875277
20
5.02359271293304
30
0
41
1
10
-0.394976888875277
20
5.0009244140283
30
0
0
SPLINE
5
1EB
100
AcDbEntity
8
SK1
62
256
6
ByLayer
370
18
48
1
60
0
100
AcDbSpline
70
4
71
3
72
32
73
28
40
0
40
0
40
0
40
0
40
0.335339404831972
40
0.335339404831972
40
0.429287156787091
40
0.429287156787091
40
0.47567705376244
40
0.47567705376244
40
0.494539743197707
40
0.494539743197707
40
0.513645880085613
40
0.513645880085613
40
0.520504273461007
40
0.520504273461007
40
0.527488218290634
40
0.527488218290634
40
0.533551201014328
40
0.533551201014328
40
0.540998152878254
40
0.540998152878254
40
0.554393631774451
40
0.554393631774451
40
0.598967269657032
40
0.598967269657032
40
0.809317334416222
40
0.809317334416222
40
1
40
1
40
1
40
1
41
1
10
-1.49503997793931
20
2.59465115838304
30
0
41
1
10
-1.51545804662706
20
2.47020327904033
30
0
41
1
10
-1.5371392192427
20
2.34554891087819
30
0
41
1
10
-1.57392592094843
20
2.19043955590803
30
0
41
1
10
-1.58255890853934
20
2.15670217135892
30
0
41
1
10
-1.5980595693656
20
2.1081468839686
30
0
41
1
10
-1.60359902440038
20
2.09231222948606
30
0
41
1
10
-1.61296122457534
20
2.07152520286885
30
0
41
1
10
-1.6158696741316
20
2.0656737244498
30
0
41
1
10
-1.62242426172162
20
2.05481886173052
30
0
41
1
10
-1.62611615645159
20
2.04963161073078
30
0
41
1
10
-1.63217263701876
20
2.04479089552191
30
0
41
1
10
-1.63391092603902
20
2.04372430879368
30
0
41
1
10
-1.63759701012464
20
2.04243943769597
30
0
41
1
10
-1.63960513001732
20
2.04224314885471
30
0
41
1
10
-1.64327142014687
20
2.04303363449088
30
0
41
1
10
-1.64498274878696
20
2.04388024545895
30
0
41
1
10
-1.64846923771176
20
2.04652261877811
30
0
41
1
10
-1.65023197368771
20
2.04850621085967
30
0
41
1
10
-1.65459297944469
20
2.05462030362457
30
0
41
1
10
-1.65687449353447
20
2.05928542847226
30
0
41
1
10
-1.66535432668744
20
2.07982184742582
30
0
41
1
10
-1.66919635898847
20
2.09736547364699
30
0
41
1
10
-1.68800967157858
20
2.19569498442294
30
0
41
1
10
-1.6917465712958
20
2.27904221250569
30
0
41
1
10
-1.69840552504974
20
2.43548746422863
30
0
41
1
10
-1.69970172620592
20
2.50976932903754
30
0
41
1
10
-1.69999999999999
20
2.58372509632824
30
0
0
SPLINE
5
1EC
100
AcDbEntity
8
SK1
62
256
6
ByLayer
370
18
48
1
60
0
100
AcDbSpline
70
4
71
3
72
100
73
96
40
0
40
0
40
0
40
0
40
0.0043783247532282
40
0.0136712309453665
40
0.0229641371375048
40
0.0322570433296431
40
0.0415499495217814
40
0.0601357619060581
40
0.0787215742903348
40
0.0973073866746114
40
0.115893199058888
40
0.125186105251026
40
0.134479011443165
40
0.143771917635303
40
0.153064823827441
40
0.171650636211718
40
0.190236448595995
40
0.199529354788133
40
0.208822260980271
40
0.21811516717241
40
0.227408073364548
40
0.236700979556686
40
0.245993885748825
40
0.264579698133101
40
0.27387260432524
40
0.283165510517378
40
0.301751322901655
40
0.320337135285931
40
0.32963004147807
40
0.338922947670208
40
0.357508760054485
40
0.366801666246623
40
0.371448119342692
40
0.376094572438761
40
0.385387478630899
40
0.394680384823038
40
0.413266197207314
40
0.422559103399453
40
0.431852009591591
40
0.441144915783729
40
0.450437821975868
40
0.459730728168006
40
0.469023634360144
40
0.478316540552283
40
0.487609446744421
40
0.496902352936559
40
0.506195259128698
40
0.524781071512974
40
0.534073977705113
40
0.543366883897251
40
0.552659790089389
40
0.557306243185458
40
0.561952696281528
40
0.571245602473666
40
0.580538508665804
40
0.589831414857943
40
0.599124321050081
40
0.608417227242219
40
0.617710133434358
40
0.636295945818634
40
0.654881758202911
40
0.664174664395049
40
0.673467570587188
40
0.692053382971464
40
0.701346289163602
40
0.710639195355741
40
0.719932101547879
40
0.729225007740017
40
0.738517913932156
40
0.747810820124294
40
0.757103726316433
40
0.766396632508571
40
0.784982444892847
40
0.794275351084986
40
0.803568257277124
40
0.812861163469262
40
0.822154069661401
40
0.831446975853539
40
0.840739882045677
40
0.859325694429954
40
0.868618600622092
40
0.877911506814231
40
0.887204413006369
40
0.896497319198507
40
0.915083131582784
40
0.924376037774922
40
0.933668943967061
40
0.942961850159199
40
0.952254756351337
40
0.961547662543476
40
0.970840568735614
40
0.980133474927752
40
0.98942638111989
40
0.998719287312029
40
1
40
1
40
1
40
1
41
1
10
-0.394976888875306
20
-5.00092508225416
30
0
41
1
10
-0.394976888875306
20
-5.02359314607176
30
0
41
1
10
-0.394976888875306
20
-5.09425535366776
30
0
41
1
10
-0.394976888875306
20
-5.21232773830431
30
0
41
1
10
-0.394976888875306
20
-5.35463943777347
30
0
41
1
10
-0.394976888875306
20
-5.49591839522026
30
0
41
1
10
-0.394976888875306
20
-5.68302324398948
30
0
41
1
10
-0.394976888875306
20
-5.91406388300979
30
0
41
1
10
-0.394976888875306
20
-6.18726435105106
30
0
41
1
10
-0.394976888875306
20
-6.45627504712579
30
0
41
1
10
-0.394976888875306
20
-6.6768468885183
30
0
41
1
10
-0.394976888875306
20
-6.85136201549099
30
0
41
1
10
-0.394976888875306
20
-6.98112245032084
30
0
41
1
10
-0.394976888875306
20
-7.10982246715957
30
0
41
1
10
-0.394976888875306
20
-7.28009512097313
30
0
41
1
10
-0.394976888875306
20
-7.49008091096033
30
0
41
1
10
-0.394976888875306
20
-7.69650359935568
30
0
41
1
10
-0.394976888875306
20
-7.85964216476054
30
0
41
1
10
-0.394976888875306
20
-7.98086146605701
30
0
41
1
10
-0.394976888875306
20
-8.10100253994159
30
0
41
1
10
-0.394976888875306
20
-8.22006380191277
30
0
41
1
10
-0.394976888875306
20
-8.3380422654499
30
0
41
1
10
-0.394976888875306
20
-8.49397420958985
30
0
41
1
10
-0.394976888875306
20
-8.64751156797169
30
0
41
1
10
-0.394976888875306
20
-8.79907644696402
30
0
41
1
10
-0.394976888875306
20
-8.94918034619519
30
0
41
1
10
-0.394976888875306
20
-9.13390680482667
30
0
41
1
10
-0.394976888875306
20
-9.31494999082747
30
0
41
1
10
-0.394976888875306
20
-9.45767863215664
30
0
41
1
10
-0.394976888875306
20
-9.59892077296985
30
0
41
1
10
-0.394976888875306
20
-9.73773602301958
30
0
41
1
10
-0.394976888875306
20
-9.85736937045593
30
0
41
1
10
-0.394976888875306
20
-9.92517902838179
30
0
41
1
10
-0.394976888875306
20
-9.99261145812801
30
0
41
1
10
-0.394976888875306
20
-10.0761265678462
30
0
41
1
10
-0.394976888875306
20
-10.2083399899529
30
0
41
1
10
-0.394976888875306
20
-10.338096057249
30
0
41
1
10
-0.394976888875306
20
-10.4657231753345
30
0
41
1
10
-0.394976888875306
20
-10.5602461538978
30
0
41
1
10
-0.394976888875306
20
-10.6536100894112
30
0
41
1
10
-0.394976888875306
20
-10.7458098983122
30
0
41
1
10
-0.394976888875306
20
-10.8368404586376
30
0
41
1
10
-0.394976888875306
20
-10.9266969919675
30
0
41
1
10
-0.394976888875306
20
-11.0153746961414
30
0
41
1
10
-0.394976888875306
20
-11.1028676417001
30
0
41
1
10
-0.394976888875306
20
-11.1891707748317
30
0
41
1
10
-0.394976888875306
20
-11.3026972665534
30
0
41
1
10
-0.394976888875306
20
-11.413674138825
30
0
41
1
10
-0.394976888875306
20
-11.5223699808134
30
0
41
1
10
-0.394976888875306
20
-11.6026363770329
30
0
41
1
10
-0.394976888875306
20
-11.6684804460587
30
0
41
1
10
-0.394976888875306
20
-11.7205808983271
30
0
41
1
10
-0.394976888875306
20
-11.7722691819395
30
0
41
1
10
-0.394976888875306
20
-11.836053984022
30
0
41
1
10
-0.394976888875306
20
-11.9113764724791
30
0
41
1
10
-0.394976888875306
20
-11.9854459723214
30
0
41
1
10
-0.394976888875306
20
-12.0582544232072
30
0
41
1
10
-0.394976888875306
20
-12.1297946270485
30
0
41
1
10
-0.394976888875306
20
-12.2235215963167
30
0
41
1
10
-0.394976888875306
20
-12.3373769247913
30
0
41
1
10
-0.394976888875306
20
-12.446899173783
30
0
41
1
10
-0.394976888875306
20
-12.5319491682166
30
0
41
1
10
-0.394976888875306
20
-12.6152283642396
30
0
41
1
10
-0.394976888875306
20
-12.6957215996061
30
0
41
1
10
-0.394976888875306
20
-12.773610902979
30
0
41
1
10
-0.394976888875306
20
-12.8306328883531
30
0
41
1
10
-0.394976888875306
20
-12.8862769625636
30
0
41
1
10
-0.394976888875306
20
-12.940532100831
30
0
41
1
10
-0.394976888875306
20
-12.9933861205259
30
0
41
1
10
-0.394976888875306
20
-13.0448282543027
30
0
41
1
10
-0.394976888875306
20
-13.0948461430692
30
0
41
1
10
-0.394976888875306
20
-13.1596507828291
30
0
41
1
10
-0.394976888875306
20
-13.221467049789
30
0
41
1
10
-0.394976888875306
20
-13.2804176772461
30
0
41
1
10
-0.394976888875306
20
-13.3231185723383
30
0
41
1
10
-0.394976888875306
20
-13.3643136307331
30
0
41
1
10
-0.394976888875306
20
-13.4039879870964
30
0
41
1
10
-0.394976888875306
20
-13.4421262291561
30
0
41
1
10
-0.394976888875306
20
-13.490931201485
30
0
41
1
10
-0.394976888875306
20
-13.5365270011545
30
0
41
1
10
-0.394976888875306
20
-13.5789822078612
30
0
41
1
10
-0.394976888875306
20
-13.6091837809887
30
0
41
1
10
-0.394976888875306
20
-13.6377421279937
30
0
41
1
10
-0.394976888875306
20
-13.6736219491958
30
0
41
1
10
-0.394976888875306
20
-13.706079968468
30
0
41
1
10
-0.394976888875306
20
-13.7351343539634
30
0
41
1
10
-0.394976888875306
20
-13.7551609910392
30
0
41
1
10
-0.394976888875306
20
-13.7734119916164
30
0
41
1
10
-0.394976888875306
20
-13.7898613788954
30
0
41
1
10
-0.394976888875306
20
-13.8044829828858
30
0
41
1
10
-0.394976888875306
20
-13.8172491473121
30
0
41
1
10
-0.394976888875306
20
-13.8281307581185
30
0
41
1
10
-0.394976888875306
20
-13.8370980881852
30
0
41
1
10
-0.394976888875306
20
-13.8421014019358
30
0
41
1
10
-0.394976888875306
20
-13.8443373794894
30
0
41
1
10
-0.394976888875306
20
-13.8446019297682
30
0
0
SPLINE
5
1ED
100
AcDbEntity
8
SK1
62
256
6
ByLayer
370
18
48
1
60
0
100
AcDbSpline
70
4
71
3
72
22
73
18
40
0
40
0
40
0
40
0
40
0.0262442859026881
40
0.0262442859026881
40
0.0530261157854851
40
0.0530261157854851
40
0.0713559655737795
40
0.0713559655737795
40
0.0895874012639089
40
0.0895874012639089
40
0.119482247898519
40
0.119482247898519
40
0.178618886842945
40
0.178618886842945
40
0.388022338076953
40
0.388022338076953
40
1
40
1
40
1
40
1
41
1
10
-0.394976888875277
20
5.0009244140283
30
0
41
1
10
-0.389542958903149
20
4.99654803778401
30
0
41
1
10
-0.383617633691586
20
4.99263335383438
30
0
41
1
10
-0.370682657201087
20
4.98677476419829
30
0
41
1
10
-0.363425194676552
20
4.98483424058901
30
0
41
1
10
-0.350979181144169
20
4.98462903203949
30
0
41
1
10
-0.345738268039327
20
4.98542011278013
30
0
41
1
10
-0.335836240990062
20
4.98861553627458
30
0
41
1
10
-0.331061456711979
20
4.99102841332402
30
0
41
1
10
-0.319537139874143
20
4.9986715699325
30
0
41
1
10
-0.313226756018622
20
5.00478758784652
30
0
41
1
10
-0.29682625826149
20
5.02421063341325
30
0
41
1
10
-0.288455270980222
20
5.03906576138257
30
0
41
1
10
-0.256353055935392
20
5.10678482490906
30
0
41
1
10
-0.244000373144985
20
5.16381228581221
30
0
41
1
10
-0.204596889637315
20
5.38213882730372
30
0
41
1
10
-0.200000000000046
20
5.54465158381666
30
0
41
1
10
-0.200000000000046
20
5.70317614351262
30
0
0
INSERT
5
1FF
100
AcDbEntity
8
2
62
256
6
ByLayer
370
25
48
1
60
0
100
AcDbBlockReference
2
DimnDraft3D11
10
0
20
0
30
0
41
1
42
1
43
1
50
0
210
0
220
0
230
1
0
LINE
5
72
100
AcDbEntity
8
1
62
256
6
ByLayer
370
18
48
1
60
0
100
AcDbLine
10
0.3
20
-20
30
0
11
20.920792
21
-20
31
0
39
0
210
0
220
0
230
1
0
LINE
5
74
100
AcDbEntity
8
1
62
256
6
ByLayer
370
18
48
1
60
0
100
AcDbLine
10
0.3
20
20
30
0
11
0
21
19.7
31
0
39
0
210
0
220
0
230
1
0
LINE
5
75
100
AcDbEntity
8
1
62
256
6
ByLayer
370
18
48
1
60
0
100
AcDbLine
10
0
20
-19.7
30
0
11
0.3
21
-20
31
0
39
0
210
0
220
0
230
1
0
LINE
5
76
100
AcDbEntity
8
1
62
256
6
ByLayer
370
18
48
1
60
0
100
AcDbLine
10
19.213837
20
-9.335367
30
0
11
19.387605
21
-9.213693
31
0
39
0
210
0
220
0
230
1
0
LINE
5
77
100
AcDbEntity
8
1
62
256
6
ByLayer
370
18
48
1
60
0
100
AcDbLine
10
19.786876
20
-6.085502
30
0
11
17.262484
21
-5.640383
31
0
39
0
210
0
220
0
230
1
0
LINE
5
78
100
AcDbEntity
8
1
62
256
6
ByLayer
370
18
48
1
60
0
100
AcDbLine
10
17.262484
20
-5.640383
30
0
11
16.855585
21
-5.788482
31
0
39
0
210
0
220
0
230
1
0
LINE
5
79
100
AcDbEntity
8
1
62
256
6
ByLayer
370
18
48
1
60
0
100
AcDbLine
10
30.153329
20
3.162781
30
0
11
30.08295
21
3.162781
31
0
39
0
210
0
220
0
230
1
0
LINE
5
7A
100
AcDbEntity
8
1
62
256
6
ByLayer
370
18
48
1
60
0
100
AcDbLine
10
31.688584
20
4.122615
30
0
11
31.923009
21
4.122615
31
0
39
0
210
0
220
0
230
1
0
LINE
5
7B
100
AcDbEntity
8
1
62
256
6
ByLayer
370
18
48
1
60
0
100
AcDbLine
10
39.927277
20
5.016339
30
0
11
39.895116
21
5.016339
31
0
39
0
210
0
220
0
230
1
0
LINE
5
7C
100
AcDbEntity
8
1
62
256
6
ByLayer
370
18
48
1
60
0
100
AcDbLine
10
20.954429
20
20.125532
30
0
11
20.920792
21
20
31
0
39
0
210
0
220
0
230
1
0
LINE
5
7D
100
AcDbEntity
8
1
62
256
6
ByLayer
370
18
48
1
60
0
100
AcDbLine
10
20.920792
20
-20
30
0
11
20.959403
21
-20.144097
31
0
39
0
210
0
220
0
230
1
0
LINE
5
7E
100
AcDbEntity
8
1
62
256
6
ByLayer
370
18
48
1
60
0
100
AcDbLine
10
27.511939
20
10.352483
30
0
11
26.77668
21
10.451838
31
0
39
0
210
0
220
0
230
1
0
LINE
5
7F
100
AcDbEntity
8
1
62
256
6
ByLayer
370
18
48
1
60
0
100
AcDbLine
10
30.673508
20
0.442698
30
0
11
30.961941
21
0.442698
31
0
39
0
210
0
220
0
230
1
0
LINE
5
80
100
AcDbEntity
8
1
62
256
6
ByLayer
370
18
48
1
60
0
100
AcDbLine
10
30.961941
20
6.842698
30
0
11
30.67499
21
6.842698
31
0
39
0
210
0
220
0
230
1
0
LINE
5
81
100
AcDbEntity
8
1
62
256
6
ByLayer
370
18
48
1
60
0
100
AcDbLine
10
16.357738
20
-8.611914
30
0
11
16.689445
21
-8.890249
31
0
39
0
210
0
220
0
230
1
0
LINE
5
82
100
AcDbEntity
8
1
62
256
6
ByLayer
370
18
48
1
60
0
100
AcDbLine
10
19.90855
20
-6.25927
30
0
11
19.786876
21
-6.085502
31
0
39
0
210
0
220
0
230
1
0
LINE
5
83
100
AcDbEntity
8
1
62
256
6
ByLayer
370
18
48
1
60
0
100
AcDbLine
10
16.689445
20
-8.890249
30
0
11
19.213837
21
-9.335367
31
0
39
0
210
0
220
0
230
1
0
LINE
5
84
100
AcDbEntity
8
1
62
256
6
ByLayer
370
18
48
1
60
0
100
AcDbLine
10
39.899245
20
-5.016258
30
0
11
39.927277
21
-5.016258
31
0
39
0
210
0
220
0
230
1
0
LINE
5
85
100
AcDbEntity
8
1
62
256
6
ByLayer
370
18
48
1
60
0
100
AcDbLine
10
20.920792
20
20
30
0
11
0.3
21
20
31
0
39
0
210
0
220
0
230
1
0
LINE
5
86
100
AcDbEntity
8
1
62
256
6
ByLayer
370
18
48
1
60
0
100
AcDbLine
10
21.102502
20
20.15
30
0
11
20.962351
21
20.15
31
0
39
0
210
0
220
0
230
1
0
LINE
5
87
100
AcDbEntity
8
1
62
256
6
ByLayer
370
18
48
1
60
0
100
AcDbLine
10
20.961315
20
-20.15
30
0
11
21.118591
21
-20.15
31
0
39
0
210
0
220
0
230
1
0
LINE
5
88
100
AcDbEntity
8
1
62
256
6
ByLayer
370
18
48
1
60
0
100
AcDbLine
10
27.618054
20
7.061776
30
0
11
28.08955
21
6.998063
31
0
39
0
210
0
220
0
230
1
0
LINE
5
89
100
AcDbEntity
8
80
62
256
6
ByLayer
370
18
48
1
60
0
100
AcDbLine
10
0
20
0
30
0
11
-5
21
0
31
0
39
0
210
0
220
0
230
1
0
LINE
5
8A
100
AcDbEntity
8
4
62
256
6
ByLayer
370
18
48
0.05
60
0
100
AcDbLine
10
0
20
0
30
0
11
50
21
0
31
0
39
0
210
0
220
0
230
1
0
LINE
5
8C
100
AcDbEntity
8
81
62
256
6
ByLayer
370
18
48
1
60
0
100
AcDbLine
10
50
20
0.4817
30
0
11
60
21
0.4817
31
0
39
0
210
0
220
0
230
1
0
LINE
5
8D
100
AcDbEntity
8
SK4
62
256
6
ByLayer
370
18
48
0.05
60
0
100
AcDbLine
10
-29
20
0
30
0
11
50
21
0
31
0
39
0
210
0
220
0
230
1
0
LINE
5
8F
100
AcDbEntity
8
1
62
256
6
ByLayer
370
18
48
1
60
0
100
AcDbLine
10
20.920792
20
-20
30
0
11
20.920792
21
-19.595386
31
0
39
0
210
0
220
0
230
1
0
LINE
5
90
100
AcDbEntity
8
1
62
256
6
ByLayer
370
18
48
1
60
0
100
AcDbLine
10
20.920792
20
19.595386
30
0
11
20.920792
21
20
31
0
39
0
210
0
220
0
230
1
0
LINE
5
91
100
AcDbEntity
8
1
62
256
6
ByLayer
370
18
48
1
60
0
100
AcDbLine
10
0.3
20
-20
30
0
11
0.3
21
20
31
0
39
0
210
0
220
0
230
1
0
LINE
5
92
100
AcDbEntity
8
1
62
256
6
ByLayer
370
18
48
1
60
0
100
AcDbLine
10
0
20
-19.7
30
0
11
0
21
19.7
31
0
39
0
210
0
220
0
230
1
0
LINE
5
93
100
AcDbEntity
8
1
62
256
6
ByLayer
370
18
48
1
60
0
100
AcDbLine
10
17.00612
20
-18.103867
30
0
11
17.00612
21
-8.94623
31
0
39
0
210
0
220
0
230
1
0
LINE
5
94
100
AcDbEntity
8
1
62
256
6
ByLayer
370
18
48
1
60
0
100
AcDbLine
10
17.080365
20
-1.363597
30
0
11
17.080365
21
-5.706781
31
0
39
0
210
0
220
0
230
1
0
LINE
5
95
100
AcDbEntity
8
1
62
256
6
ByLayer
370
18
48
1
60
0
100
AcDbLine
10
17.080365
20
-8.959422
30
0
11
17.080365
21
-18.47854
31
0
39
0
210
0
220
0
230
1
0
LINE
5
96
100
AcDbEntity
8
1
62
256
6
ByLayer
370
18
48
1
60
0
100
AcDbLine
10
39.797509
20
-4.762459
30
0
11
39.538859
21
-4.762459
31
0
39
0
210
0
220
0
230
1
0
LINE
5
97
100
AcDbEntity
8
SK1
62
256
6
ByLayer
370
18
48
1
60
0
100
AcDbLine
10
-0.2
20
5.703176
30
0
11
-0.2
21
14.083485
31
0
39
0
210
0
220
0
230
1
0
LINE
5
99
100
AcDbEntity
8
SK1
62
256
6
ByLayer
370
18
48
1
60
0
100
AcDbLine
10
-0.2
20
-14.083485
30
0
11
-0.2
21
-5.703176
31
0
39
0
210
0
220
0
230
1
0
LINE
5
9A
100
AcDbEntity
8
1
62
256
6
ByLayer
370
18
48
1
60
0
100
AcDbLine
10
17.056578
20
3.711026
30
0
11
17.275028
21
4.373977
31
0
39
0
210
0
220
0
230
1
0
LINE
5
9B
100
AcDbEntity
8
1
62
256
6
ByLayer
370
18
48
1
60
0
100
AcDbLine
10
24.737157
20
-0.424035
30
0
11
23.905036
21
-2.417812
31
0
39
0
210
0
220
0
230
1
0
LINE
5
9C
100
AcDbEntity
8
1
62
256
6
ByLayer
370
18
48
1
60
0
100
AcDbLine
10
21.454862
20
0.910123
30
0
11
21.905127
21
2.276581
31
0
39
0
210
0
220
0
230
1
0
LINE
5
9D
100
AcDbEntity
8
1
62
256
6
ByLayer
370
18
48
1
60
0
100
AcDbLine
10
24.270941
20
9.456332
30
0
11
24.678592
21
10.693466
31
0
39
0
210
0
220
0
230
1
0
LINE
5
9E
100
AcDbEntity
8
1
62
256
6
ByLayer
370
18
48
1
60
0
100
AcDbLine
10
29.138183
20
10.733808
30
0
11
28.873392
21
9.930225
31
0
39
0
210
0
220
0
230
1
0
LINE
5
9F
100
AcDbEntity
8
1
62
256
6
ByLayer
370
18
48
1
60
0
100
AcDbLine
10
32.516807
20
-3.589549
30
0
11
34.224475
21
-2.686879
31
0
39
0
210
0
220
0
230
1
0
LINE
5
A0
100
AcDbEntity
8
1
62
256
6
ByLayer
370
18
48
1
60
0
100
AcDbLine
10
35.27771
20
-2.672999
30
0
11
39.856918
21
-5.067829
31
0
39
0
210
0
220
0
230
1
0
LINE
5
A1
100
AcDbEntity
8
1
62
256
6
ByLayer
370
18
48
1
60
0
100
AcDbLine
10
28.178688
20
-1.518108
30
0
11
28.178688
21
-11.240914
31
0
39
0
210
0
220
0
230
1
0
LINE
5
A2
100
AcDbEntity
8
1
62
256
6
ByLayer
370
18
48
1
60
0
100
AcDbLine
10
39.092085
20
4.670991
30
0
11
39.849947
21
5.071595
31
0
39
0
210
0
220
0
230
1
0
LINE
5
A3
100
AcDbEntity
8
1
62
256
6
ByLayer
370
18
48
1
60
0
100
AcDbLine
10
39.929228
20
4.974614
30
0
11
39.204825
21
4.591696
31
0
39
0
210
0
220
0
230
1
0
LINE
5
A4
100
AcDbEntity
8
1
62
256
6
ByLayer
370
18
48
1
60
0
100
AcDbLine
10
31.180895
20
-3.671448
30
0
11
33.143096
21
-2.634234
31
0
39
0
210
0
220
0
230
1
0
LINE
5
A5
100
AcDbEntity
8
1
62
256
6
ByLayer
370
18
48
1
60
0
100
AcDbLine
10
35.525505
20
-2.663555
30
0
11
38.519051
21
-4.229116
31
0
39
0
210
0
220
0
230
1
0
LINE
5
A6
100
AcDbEntity
8
1
62
256
6
ByLayer
370
18
48
1
60
0
100
AcDbLine
10
39.434565
20
-4.707911
30
0
11
39.936762
21
-4.97055
31
0
39
0
210
0
220
0
230
1
0
LINE
5
A7
100
AcDbEntity
8
1
62
256
6
ByLayer
370
18
48
1
60
0
100
AcDbLine
10
31.086638
20
-3.538397
30
0
11
32.855782
21
-2.603231
31
0
39
0
210
0
220
0
230
1
0
LINE
5
A8
100
AcDbEntity
8
1
62
256
6
ByLayer
370
18
48
1
60
0
100
AcDbLine
10
39.528023
20
4.762541
30
0
11
39.797509
21
4.762541
31
0
39
0
210
0
220
0
230
1
0
LINE
5
A9
100
AcDbEntity
8
1
62
256
6
ByLayer
370
18
48
1
60
0
100
AcDbLine
10
16.218711
20
-7.410854
30
0
11
16.532487
21
-5.631341
31
0
39
0
210
0
220
0
230
1
0
LINE
5
AA
100
AcDbEntity
8
1
62
256
6
ByLayer
370
18
48
1
60
0
100
AcDbLine
10
19.786876
20
-6.085502
30
0
11
19.213837
21
-9.335367
31
0
39
0
210
0
220
0
230
1
0
LINE
5
AB
100
AcDbEntity
8
1
62
256
6
ByLayer
370
18
48
1
60
0
100
AcDbLine
10
19.648078
20
-7.736482
30
0
11
19.387605
21
-9.213693
31
0
39
0
210
0
220
0
230
1
0
LINE
5
AC
100
AcDbEntity
8
1
62
256
6
ByLayer
370
18
48
1
60
0
100
AcDbLine
10
19.90855
20
-6.25927
30
0
11
19.648078
21
-7.736482
31
0
39
0
210
0
220
0
230
1
0
LINE
5
AD
100
AcDbEntity
8
1
62
256
6
ByLayer
370
18
48
1
60
0
100
AcDbLine
10
16.975964
20
-7.265316
30
0
11
16.689445
21
-8.890249
31
0
39
0
210
0
220
0
230
1
0
LINE
5
AE
100
AcDbEntity
8
1
62
256
6
ByLayer
370
18
48
1
60
0
100
AcDbLine
10
17.262484
20
-5.640383
30
0
11
16.975964
21
-7.265316
31
0
39
0
210
0
220
0
230
1
0
LINE
5
AF
100
AcDbEntity
8
1
62
256
6
ByLayer
370
18
48
1
60
0
100
AcDbLine
10
16.357738
20
-8.611914
30
0
11
16.855585
21
-5.788482
31
0
39
0
210
0
220
0
230
1
0
LINE
5
B0
100
AcDbEntity
8
1
62
256
6
ByLayer
370
18
48
1
60
0
100
AcDbLine
10
30.091793
20
3.162013
30
0
11
30.131671
21
3.162013
31
0
39
0
210
0
220
0
230
1
0
LINE
5
B1
100
AcDbEntity
8
1
62
256
6
ByLayer
370
18
48
1
60
0
100
AcDbLine
10
40.38201
20
4.90335
30
0
11
40.648416
21
4.762528
31
0
39
0
210
0
220
0
230
1
0
LINE
5
B2
100
AcDbEntity
8
1
62
256
6
ByLayer
370
18
48
1
60
0
100
AcDbLine
10
40.648416
20
-4.762447
30
0
11
40.38201
21
-4.903268
31
0
39
0
210
0
220
0
230
1
0
LINE
5
B3
100
AcDbEntity
8
1
62
256
6
ByLayer
370
18
48
1
60
0
100
AcDbLine
10
35.628103
20
-2.659662
30
0
11
39.436451
21
-4.672746
31
0
39
0
210
0
220
0
230
1
0
LINE
5
B4
100
AcDbEntity
8
1
62
256
6
ByLayer
370
18
48
1
60
0
100
AcDbLine
10
39.436451
20
4.672827
30
0
11
39.239846
21
4.568902
31
0
39
0
210
0
220
0
230
1
0
LINE
5
B5
100
AcDbEntity
8
1
62
256
6
ByLayer
370
18
48
1
60
0
100
AcDbLine
10
39.436451
20
4.672827
30
0
11
39.358302
21
4.672827
31
0
39
0
210
0
220
0
230
1
0
LINE
5
B6
100
AcDbEntity
8
1
62
256
6
ByLayer
370
18
48
1
60
0
100
AcDbLine
10
39.360846
20
-4.672746
30
0
11
39.436451
21
-4.672746
31
0
39
0
210
0
220
0
230
1
0
LINE
5
B7
100
AcDbEntity
8
1
62
256
6
ByLayer
370
18
48
1
60
0
100
AcDbLine
10
42.071233
20
-4.672746
30
0
11
49.578834
21
-0.704246
31
0
39
0
210
0
220
0
230
1
0
LINE
5
B8
100
AcDbEntity
8
1
62
256
6
ByLayer
370
18
48
1
60
0
100
AcDbLine
10
41.710175
20
-4.762459
30
0
11
39.797509
21
-4.762459
31
0
39
0
210
0
220
0
230
1
0
LINE
5
B9
100
AcDbEntity
8
1
62
256
6
ByLayer
370
18
48
1
60
0
100
AcDbLine
10
39.797509
20
4.762541
30
0
11
41.710175
21
4.762541
31
0
39
0
210
0
220
0
230
1
0
LINE
5
BA
100
AcDbEntity
8
1
62
256
6
ByLayer
370
18
48
1
60
0
100
AcDbLine
10
49.578834
20
0.704327
30
0
11
42.071233
21
4.672827
31
0
39
0
210
0
220
0
230
1
0
LINE
5
BB
100
AcDbEntity
8
1
62
256
6
ByLayer
370
18
48
1
60
0
100
AcDbLine
10
31.287666
20
2.781368
30
0
11
31.06076
21
2.781368
31
0
39
0
210
0
220
0
230
1
0
LINE
5
BC
100
AcDbEntity
8
1
62
256
6
ByLayer
370
18
48
1
60
0
100
AcDbLine
10
31.666954
20
3.08588
30
0
11
31.901379
21
3.08588
31
0
39
0
210
0
220
0
230
1
0
LINE
5
BD
100
AcDbEntity
8
1
62
256
6
ByLayer
370
18
48
1
60
0
100
AcDbLine
10
31.636742
20
4.299379
30
0
11
31.409837
21
4.299379
31
0
39
0
210
0
220
0
230
1
0
LINE
5
BE
100
AcDbEntity
8
1
62
256
6
ByLayer
370
18
48
1
60
0
100
AcDbLine
10
30.364672
20
4.58055
30
0
11
30.599097
21
4.58055
31
0
39
0
210
0
220
0
230
1
0
LINE
5
BF
100
AcDbEntity
8
1
62
256
6
ByLayer
370
18
48
1
60
0
100
AcDbLine
10
30.898594
20
2.747867
30
0
11
31.1255
21
2.747867
31
0
39
0
210
0
220
0
230
1
0
LINE
5
C0
100
AcDbEntity
8
1
62
256
6
ByLayer
370
18
48
1
60
0
100
AcDbLine
10
30.773633
20
4.504028
30
0
11
30.546727
21
4.504028
31
0
39
0
210
0
220
0
230
1
0
LINE
5
C1
100
AcDbEntity
8
1
62
256
6
ByLayer
370
18
48
1
60
0
100
AcDbLine
10
31.893759
20
3.43805
30
0
11
31.666853
21
3.43805
31
0
39
0
210
0
220
0
230
1
0
LINE
5
C2
100
AcDbEntity
8
1
62
256
6
ByLayer
370
18
48
1
60
0
100
AcDbLine
10
31.519492
20
4.173524
30
0
11
31.746398
21
4.173524
31
0
39
0
210
0
220
0
230
1
0
LINE
5
C3
100
AcDbEntity
8
1
62
256
6
ByLayer
370
18
48
1
60
0
100
AcDbLine
10
31.823144
20
3.559886
30
0
11
32.057569
21
3.559886
31
0
39
0
210
0
220
0
230
1
0
LINE
5
C4
100
AcDbEntity
8
1
62
256
6
ByLayer
370
18
48
1
60
0
100
AcDbLine
10
31.384072
20
4.497738
30
0
11
31.618497
21
4.497738
31
0
39
0
210
0
220
0
230
1
0
LINE
5
C5
100
AcDbEntity
8
1
62
256
6
ByLayer
370
18
48
1
60
0
100
AcDbLine
10
30.760457
20
2.605195
30
0
11
30.994882
21
2.605195
31
0
39
0
210
0
220
0
230
1
0
LINE
5
C6
100
AcDbEntity
8
1
62
256
6
ByLayer
370
18
48
1
60
0
100
AcDbLine
10
31.614343
20
3.278693
30
0
11
31.841249
21
3.278693
31
0
39
0
210
0
220
0
230
1
0
LINE
5
C7
100
AcDbEntity
8
1
62
256
6
ByLayer
370
18
48
1
60
0
100
AcDbLine
10
23.540344
20
2.80544
30
0
11
22.030824
21
3.00942
31
0
39
0
210
0
220
0
230
1
0
LINE
5
C8
100
AcDbEntity
8
1
62
256
6
ByLayer
370
18
48
1
60
0
100
AcDbLine
10
30.822685
20
7.125011
30
0
11
32.358412
21
6.601538
31
0
39
0
210
0
220
0
230
1
0
LINE
5
C9
100
AcDbEntity
8
1
62
256
6
ByLayer
370
18
48
1
60
0
100
AcDbLine
10
27.071218
20
7.190685
30
0
11
25.767616
21
7.635035
31
0
39
0
210
0
220
0
230
1
0
LINE
5
CA
100
AcDbEntity
8
1
62
256
6
ByLayer
370
18
48
1
60
0
100
AcDbLine
10
25.446497
20
8.590215
30
0
11
23.540344
21
2.80544
31
0
39
0
210
0
220
0
230
1
0
LINE
5
CB
100
AcDbEntity
8
1
62
256
6
ByLayer
370
18
48
1
60
0
100
AcDbLine
10
38.661697
20
-2.709755
30
0
11
40.705778
21
-1.664824
31
0
39
0
210
0
220
0
230
1
0
LINE
5
CC
100
AcDbEntity
8
1
62
256
6
ByLayer
370
18
48
1
60
0
100
AcDbLine
10
41.705672
20
1.369645
30
0
11
40.692498
21
3.453299
31
0
39
0
210
0
220
0
230
1
0
LINE
5
CD
100
AcDbEntity
8
1
62
256
6
ByLayer
370
18
48
1
60
0
100
AcDbLine
10
32.723589
20
6.552193
30
0
11
32.358412
21
6.601538
31
0
39
0
210
0
220
0
230
1
0
LINE
5
CE
100
AcDbEntity
8
1
62
256
6
ByLayer
370
18
48
1
60
0
100
AcDbLine
10
39.064206
20
0.800539
30
0
11
42.436637
21
-0.550483
31
0
39
0
210
0
220
0
230
1
0
LINE
5
CF
100
AcDbEntity
8
1
62
256
6
ByLayer
370
18
48
1
60
0
100
AcDbLine
10
25.575493
20
-0.654154
30
0
11
25.626055
21
-0.650726
31
0
39
0
210
0
220
0
230
1
0
LINE
5
D0
100
AcDbEntity
8
1
62
256
6
ByLayer
370
18
48
1
60
0
100
AcDbLine
10
25.446497
20
8.590215
30
0
11
23.936977
21
8.794194
31
0
39
0
210
0
220
0
230
1
0
LINE
5
D1
100
AcDbEntity
8
1
62
256
6
ByLayer
370
18
48
1
60
0
100
AcDbLine
10
25.767616
20
7.635035
30
0
11
24.392686
21
3.462411
31
0
39
0
210
0
220
0
230
1
0
LINE
5
D2
100
AcDbEntity
8
1
62
256
6
ByLayer
370
18
48
1
60
0
100
AcDbLine
10
33.362693
20
8.39027
30
0
11
29.08417
21
9.843928
31
0
39
0
210
0
220
0
230
1
0
LINE
5
D3
100
AcDbEntity
8
1
62
256
6
ByLayer
370
18
48
1
60
0
100
AcDbLine
10
24.466842
20
-0.277482
30
0
11
25.575493
21
-0.654154
31
0
39
0
210
0
220
0
230
1
0
LINE
5
D4
100
AcDbEntity
8
1
62
256
6
ByLayer
370
18
48
1
60
0
100
AcDbLine
10
29.904578
20
-2.104384
30
0
11
25.626055
21
-0.650726
31
0
39
0
210
0
220
0
230
1
0
LINE
5
D5
100
AcDbEntity
8
1
62
256
6
ByLayer
370
18
48
1
60
0
100
AcDbLine
10
31.179559
20
7.076787
30
0
11
30.822685
21
7.125011
31
0
39
0
210
0
220
0
230
1
0
LINE
5
D6
100
AcDbEntity
8
1
62
256
6
ByLayer
370
18
48
1
60
0
100
AcDbLine
10
31.179559
20
7.076787
30
0
11
32.723589
21
6.552193
31
0
39
0
210
0
220
0
230
1
0
LINE
5
D7
100
AcDbEntity
8
1
62
256
6
ByLayer
370
18
48
1
60
0
100
AcDbLine
10
30.629945
20
0.198424
30
0
11
29.085916
21
0.723019
31
0
39
0
210
0
220
0
230
1
0
LINE
5
D8
100
AcDbEntity
8
1
62
256
6
ByLayer
370
18
48
1
60
0
100
AcDbLine
10
27.478293
20
7.135678
30
0
11
27.071218
21
7.190685
31
0
39
0
210
0
220
0
230
1
0
LINE
5
D9
100
AcDbEntity
8
1
62
256
6
ByLayer
370
18
48
1
60
0
100
AcDbLine
10
29.044066
20
9.872239
30
0
11
27.935415
21
10.248911
31
0
39
0
210
0
220
0
230
1
0
LINE
5
DA
100
AcDbEntity
8
1
62
256
6
ByLayer
370
18
48
1
60
0
100
AcDbLine
10
25.575493
20
-0.654154
30
0
11
23.955162
21
-0.209465
31
0
39
0
210
0
220
0
230
1
0
LINE
5
DB
100
AcDbEntity
8
1
62
256
6
ByLayer
370
18
48
1
60
0
100
AcDbLine
10
27.613538
20
9.695381
30
0
11
33.516553
21
7.68979
31
0
39
0
210
0
220
0
230
1
0
LINE
5
DC
100
AcDbEntity
8
1
62
256
6
ByLayer
370
18
48
1
60
0
100
AcDbLine
10
24.617056
20
0.601687
30
0
11
30.520071
21
-1.403904
31
0
39
0
210
0
220
0
230
1
0
LINE
5
DD
100
AcDbEntity
8
1
62
256
6
ByLayer
370
18
48
1
60
0
100
AcDbLine
10
22.030824
20
3.00942
30
0
11
23.936977
21
8.794194
31
0
39
0
210
0
220
0
230
1
0
LINE
5
DE
100
AcDbEntity
8
1
62
256
6
ByLayer
370
18
48
1
60
0
100
AcDbLine
10
29.044066
20
9.872239
30
0
11
29.08417
21
9.843928
31
0
39
0
210
0
220
0
230
1
0
LINE
5
DF
100
AcDbEntity
8
1
62
256
6
ByLayer
370
18
48
1
60
0
100
AcDbLine
10
24.466842
20
-0.277482
30
0
11
23.947087
21
-0.207248
31
0
39
0
210
0
220
0
230
1
0
LINE
5
E0
100
AcDbEntity
8
1
62
256
6
ByLayer
370
18
48
1
60
0
100
AcDbLine
10
18.022004
20
0.794985
30
0
11
17.941366
21
0.82864
31
0
39
0
210
0
220
0
230
1
0
LINE
5
E1
100
AcDbEntity
8
1
62
256
6
ByLayer
370
18
48
1
60
0
100
AcDbLine
10
16.218722
20
-7.131794
30
0
11
16.218722
21
-9.682458
31
0
39
0
210
0
220
0
230
1
0
LINE
5
E2
100
AcDbEntity
8
1
62
256
6
ByLayer
370
18
48
1
60
0
100
AcDbLine
10
6.663397
20
-19.024574
30
0
11
6.663397
21
-6.16973
31
0
39
0
210
0
220
0
230
1
0
LINE
5
E3
100
AcDbEntity
8
1
62
256
6
ByLayer
370
18
48
1
60
0
100
AcDbLine
10
39.849947
20
5.071595
30
0
11
39.929228
21
4.974614
31
0
39
0
210
0
220
0
230
1
0
LINE
5
E4
100
AcDbEntity
8
1
62
256
6
ByLayer
370
18
48
1
60
0
100
AcDbLine
10
15.243243
20
-9.682458
30
0
11
13.758321
21
-18.103867
31
0
39
0
210
0
220
0
230
1
0
LINE
5
E5
100
AcDbEntity
8
1
62
256
6
ByLayer
370
18
48
1
60
0
100
AcDbLine
10
9.076795
20
5.85989
30
0
11
9.076795
21
19.122283
31
0
39
0
210
0
220
0
230
1
0
LINE
5
E6
100
AcDbEntity
8
1
62
256
6
ByLayer
370
18
48
1
60
0
100
AcDbLine
10
17.080365
20
18.47854
30
0
11
17.080365
21
4.192768
31
0
39
0
210
0
220
0
230
1
0
LINE
5
E7
100
AcDbEntity
8
1
62
256
6
ByLayer
370
18
48
1
60
0
100
AcDbLine
10
22.083113
20
13.119597
30
0
11
22.002474
21
13.153252
31
0
39
0
210
0
220
0
230
1
0
LINE
5
E8
100
AcDbEntity
8
1
62
256
6
ByLayer
370
18
48
1
60
0
100
AcDbLine
10
9.076795
20
19.122283
30
0
11
6.923205
21
19.122283
31
0
39
0
210
0
220
0
230
1
0
LINE
5
E9
100
AcDbEntity
8
1
62
256
6
ByLayer
370
18
48
1
60
0
100
AcDbLine
10
31.180895
20
-3.671448
30
0
11
32.516807
21
-3.589549
31
0
39
0
210
0
220
0
230
1
0
LINE
5
EA
100
AcDbEntity
8
1
62
256
6
ByLayer
370
18
48
1
60
0
100
AcDbLine
10
6.923205
20
-19.122283
30
0
11
9.076795
21
-19.122283
31
0
39
0
210
0
220
0
230
1
0
LINE
5
EB
100
AcDbEntity
8
1
62
256
6
ByLayer
370
18
48
1
60
0
100
AcDbLine
10
9.076795
20
-19.122283
30
0
11
9.076795
21
-5.85989
31
0
39
0
210
0
220
0
230
1
0
LINE
5
EC
100
AcDbEntity
8
1
62
256
6
ByLayer
370
18
48
1
60
0
100
AcDbLine
10
6.923205
20
5.85989
30
0
11
6.923205
21
19.122283
31
0
39
0
210
0
220
0
230
1
0
LINE
5
ED
100
AcDbEntity
8
1
62
256
6
ByLayer
370
18
48
1
60
0
100
AcDbLine
10
21.065143
20
19.814143
30
0
11
21.807897
21
19.814143
31
0
39
0
210
0
220
0
230
1
0
LINE
5
EE
100
AcDbEntity
8
1
62
256
6
ByLayer
370
18
48
1
60
0
100
AcDbLine
10
22.163751
20
13.085941
30
0
11
22.083113
21
13.119597
31
0
39
0
210
0
220
0
230
1
0
LINE
5
EF
100
AcDbEntity
8
1
62
256
6
ByLayer
370
18
48
1
60
0
100
AcDbLine
10
28.178688
20
-11.240914
30
0
11
39.856918
21
-5.067829
31
0
39
0
210
0
220
0
230
1
0
LINE
5
F0
100
AcDbEntity
8
1
62
256
6
ByLayer
370
18
48
1
60
0
100
AcDbLine
10
6.663397
20
6.16973
30
0
11
6.663397
21
19.024574
31
0
39
0
210
0
220
0
230
1
0
LINE
5
F1
100
AcDbEntity
8
1
62
256
6
ByLayer
370
18
48
1
60
0
100
AcDbLine
10
29.960748
20
-2.499428
30
0
11
29.931592
21
-2.442554
31
0
39
0
210
0
220
0
230
1
0
LINE
5
F2
100
AcDbEntity
8
1
62
256
6
ByLayer
370
18
48
1
60
0
100
AcDbLine
10
21.84672
20
-19.814143
30
0
11
21.065143
21
-19.814143
31
0
39
0
210
0
220
0
230
1
0
LINE
5
F3
100
AcDbEntity
8
1
62
256
6
ByLayer
370
18
48
1
60
0
100
AcDbLine
10
17.00612
20
-18.103867
30
0
11
13.758321
21
-18.103867
31
0
39
0
210
0
220
0
230
1
0
LINE
5
F4
100
AcDbEntity
8
1
62
256
6
ByLayer
370
18
48
1
60
0
100
AcDbLine
10
39.849947
20
5.071595
30
0
11
29.138183
21
10.733808
31
0
39
0
210
0
220
0
230
1
0
LINE
5
F5
100
AcDbEntity
8
1
62
256
6
ByLayer
370
18
48
1
60
0
100
AcDbLine
10
17.032354
20
2.892242
30
0
11
17.026068
21
2.616879
31
0
39
0
210
0
220
0
230
1
0
LINE
5
F6
100
AcDbEntity
8
1
62
256
6
ByLayer
370
18
48
1
60
0
100
AcDbLine
10
9.336603
20
-19.024574
30
0
11
9.336603
21
-6.16973
31
0
39
0
210
0
220
0
230
1
0
LINE
5
F7
100
AcDbEntity
8
1
62
256
6
ByLayer
370
18
48
1
60
0
100
AcDbLine
10
30.118056
20
-2.821558
30
0
11
30.02711
21
-2.644156
31
0
39
0
210
0
220
0
230
1
0
LINE
5
F8
100
AcDbEntity
8
1
62
256
6
ByLayer
370
18
48
1
60
0
100
AcDbLine
10
23.353343
20
11.128571
30
0
11
20.138597
21
1.372491
31
0
39
0
210
0
220
0
230
1
0
LINE
5
F9
100
AcDbEntity
8
1
62
256
6
ByLayer
370
18
48
1
60
0
100
AcDbLine
10
21.065143
20
-3.879862
30
0
11
21.065143
21
-19.814143
31
0
39
0
210
0
220
0
230
1
0
LINE
5
FA
100
AcDbEntity
8
1
62
256
6
ByLayer
370
18
48
1
60
0
100
AcDbLine
10
21.822651
20
13.213884
30
0
11
21.065143
21
10.569771
31
0
39
0
210
0
220
0
230
1
0
LINE
5
FB
100
AcDbEntity
8
1
62
256
6
ByLayer
370
18
48
1
60
0
100
AcDbLine
10
29.138183
20
10.733808
30
0
11
26.556214
21
11.874639
31
0
39
0
210
0
220
0
230
1
0
LINE
5
FC
100
AcDbEntity
8
1
62
256
6
ByLayer
370
18
48
1
60
0
100
AcDbLine
10
18.102643
20
0.76133
30
0
11
18.022004
21
0.794985
31
0
39
0
210
0
220
0
230
1
0
LINE
5
FD
100
AcDbEntity
8
1
62
256
6
ByLayer
370
18
48
1
60
0
100
AcDbLine
10
28.178688
20
-11.240914
30
0
11
27.382756
21
-11.648955
31
0
39
0
210
0
220
0
230
1
0
LINE
5
FE
100
AcDbEntity
8
1
62
256
6
ByLayer
370
18
48
1
60
0
100
AcDbLine
10
6.923205
20
-19.122283
30
0
11
6.923205
21
-5.85989
31
0
39
0
210
0
220
0
230
1
0
LINE
5
FF
100
AcDbEntity
8
1
62
256
6
ByLayer
370
18
48
1
60
0
100
AcDbLine
10
9.076795
20
-5.85989
30
0
11
6.923205
21
-5.85989
31
0
39
0
210
0
220
0
230
1
0
LINE
5
100
100
AcDbEntity
8
1
62
256
6
ByLayer
370
18
48
1
60
0
100
AcDbLine
10
39.856918
20
-5.067829
30
0
11
39.936762
21
-4.97055
31
0
39
0
210
0
220
0
230
1
0
LINE
5
101
100
AcDbEntity
8
1
62
256
6
ByLayer
370
18
48
1
60
0
100
AcDbLine
10
6.923205
20
5.85989
30
0
11
9.076795
21
5.85989
31
0
39
0
210
0
220
0
230
1
0
LINE
5
102
100
AcDbEntity
8
1
62
256
6
ByLayer
370
18
48
1
60
0
100
AcDbLine
10
21.065143
20
19.814143
30
0
11
21.065143
21
10.569771
31
0
39
0
210
0
220
0
230
1
0
LINE
5
103
100
AcDbEntity
8
1
62
256
6
ByLayer
370
18
48
1
60
0
100
AcDbLine
10
9.336603
20
6.16973
30
0
11
9.336603
21
19.024574
31
0
39
0
210
0
220
0
230
1
0
LINE
5
104
100
AcDbEntity
8
1
62
256
6
ByLayer
370
18
48
1
60
0
100
AcDbLine
10
15.243243
20
-9.682458
30
0
11
16.218722
21
-9.682458
31
0
39
0
210
0
220
0
230
1
0
LINE
5
105
100
AcDbEntity
8
1
62
256
6
ByLayer
370
18
48
1
60
0
100
AcDbLine
10
21.807897
20
14.507035
30
0
11
21.807897
21
19.814143
31
0
39
0
210
0
220
0
230
1
0
LINE
5
106
100
AcDbEntity
8
1
62
256
6
ByLayer
370
18
48
1
60
0
100
AcDbLine
10
31.086638
20
-3.538397
30
0
11
31.180895
21
-3.671448
31
0
39
0
210
0
220
0
230
1
0
LINE
5
107
100
AcDbEntity
8
1
62
256
6
ByLayer
370
18
48
1
60
0
100
AcDbLine
10
21.807897
20
14.507035
30
0
11
22.425917
21
14.190202
31
0
39
0
210
0
220
0
230
1
0
LINE
5
108
100
AcDbEntity
8
SK1
62
256
6
ByLayer
370
18
48
1
60
0
100
AcDbLine
10
-1.307107
20
-3.627816
30
0
11
-1.307107
21
3.627817
31
0
39
0
210
0
220
0
230
1
0
MTEXT
5
1EE
100
AcDbEntity
8
SK6
62
256
6
ByLayer
370
18
48
1
60
0
100
AcDbMText
10
-8.625
20
-21.123238
30
0
210
0
220
0
230
1
1
\W0.7351;C4-DDNNN-00050-11
40
3.5
41
0
44
1.084337
50
0
71
7
72
5
7
iso_b_vert
0
DIMENSION
5
20D
100
AcDbEntity
8
2
62
256
6
ByLayer
370
13
48
1
60
0
100
AcDbDimension
2
DimnDraft3D2
10
43.075636
20
4.141902
30
0
11
36.86278
21
22.285678
31
0
70
34
71
5
72
1
41
1
210
0
220
0
230
1
3
Standard
100
AcDb2LineAngularDimension
13
50
23
0.4817
33
0
14
50
24
-1.1058
34
0
15
50
25
0.4817
35
0
16
39.185134
26
18.431243
36
0
40
0
0
DIMENSION
5
223
100
AcDbEntity
8
SK2
62
256
6
ByLayer
370
13
48
1
60
0
100
AcDbDimension
2
DimnDraft3D3
10
-31.75
20
20
30
0
11
-31.75
21
-2.925
31
0
70
32
71
5
72
1
41
1
210
0
220
0
230
1
3
Standard
100
AcDbAlignedDimension
13
-2
23
-20
33
0
14
-2
24
20
34
0
50
90
100
AcDbRotatedDimension
1001
ACAD
1000
DSTYLE
1002
{
1070
    74
1070
     0
1070
   279
1070
     0
1070
   172
1070
     1
1070
   173
1070
     1
1070
   340
1005
1EF
1070
    77
1070
     1
1070
    73
1070
     0
1070
   171
1070
     3
1070
   274
1070
     4
1070
   177
1070
     2
1070
   176
1070
     2
1070
   178
1070
     7
1070
    78
1070
     8
1070
    41
1041
3.175
1070
   147
1041
2.25
1070
    42
1041
2.0
1070
    44
1041
2.0
1070
   140
1041
4.5
1070
   343
1005
20E
1070
   344
1005
20E
1002
}
0
DIMENSION
5
231
100
AcDbEntity
8
2
62
256
6
ByLayer
370
13
48
1
60
0
100
AcDbDimension
2
DimnDraft3D4
10
72.25
20
0.4817
30
0
11
72.25
21
10.7367
31
0
70
32
71
5
72
1
41
1
210
0
220
0
230
1
3
Standard
100
AcDbAlignedDimension
13
52
23
0
33
0
14
52
24
0.4817
34
0
50
90
100
AcDbRotatedDimension
1001
ACAD
1000
DSTYLE
1002
{
1070
    74
1070
     0
1070
   279
1070
     0
1070
   172
1070
     1
1070
   173
1070
     1
1070
   340
1005
1EF
1070
    77
1070
     1
1070
    73
1070
     0
1070
   171
1070
     3
1070
   274
1070
     4
1070
   177
1070
     2
1070
   176
1070
     2
1070
   178
1070
     7
1070
    78
1070
     8
1070
    41
1041
3.175
1070
   147
1041
2.25
1070
    42
1041
2.0
1070
    44
1041
2.0
1070
   140
1041
4.5
1070
   343
1005
20E
1070
   344
1005
20E
1002
}
0
ENDSEC
0
SECTION
2
OBJECTS
0
DICTIONARY
5
29c
330
0
100
AcDbDictionary
280
0
281
1
3
ACAD_GROUP
350
29d
3
ACAD_MLINESTYLE
350
29e
0
DICTIONARY
5
29d
330
0
100
AcDbDictionary
280
0
281
1
0
DICTIONARY
5
29e
330
0
100
AcDbDictionary
280
0
281
1
3
Standard
350
18
0
MLINESTYLE
5
18
330
29e
100
AcDbMlineStyle
2
Standard
70
0
3

62
256
51
90
52
90
71
2
49
-0.5
62
256
6
ByLayer
49
0.5
62
256
6
ByLayer
0
RASTERVARIABLES
5
28a
330

100
AcDbRasterVariables
90
0
70
1
71
1
72
1
0
ENDSEC
0
EOF
