0
SECTION
2
HEADER
9
$ACADVER
1
AC1015
9
$DWGCODEPAGE
3
ANSI_1252
9
$HANDSEED
5
287
9
$ANGBASE
50
0
9
$ANGDIR
70
0
9
$ATTMODE
70
1
9
$AUNITS
70
0
9
$AUPREC
70
0
9
$CECOLOR
62
256
9
$CELTSCALE
40
1
9
$CELTYPE
6
ByLayer
9
$CELWEIGHT
370
18
9
$CLAYER
8
0
9
$CMLJUST
70
0
9
$CMLSCALE
40
1
9
$CMLSTYLE
2
Standard
9
$DIMSTYLE
2
Standard
9
$TEXTSIZE
40
0.2
9
$TEXTSTYLE
7
Standard
9
$LUNITS
70
2
9
$LUPREC
70
4
9
$EXTNAMES
290
1
9
$INSUNITS
70
4
9
$LTSCALE
40
1
9
$LWDISPLAY
290
1
9
$PDMODE
70
0
9
$PDSIZE
40
0
9
$PLINEGEN
70
0
0
ENDSEC
0
SECTION
2
CLASSES
0
CLASS
1
RASTERVARIABLES
2
AcDbRasterVariables
3
ISM
90
0
280
0
281
0
0
ENDSEC
0
SECTION
2
TABLES
0
TABLE
2
VPORT
5
27d
100
AcDbSymbolTable
0
VPORT
5
1
100
AcDbSymbolTableRecord
100
AcDbViewportTableRecord
2
*Active
70
0
10
0
20
0
11
1
21
1
12
-1
22
1
13
0
23
0
14
0.5
24
0.5
15
10
25
10
16
0
26
0
36
1
17
0
27
0
37
0
0
ENDTAB
0
TABLE
2
LTYPE
5
27e
100
AcDbSymbolTable
0
LTYPE
5
14
100
AcDbSymbolTableRecord
100
AcDbLinetypeTableRecord
70
0
2
ByBlock
3

72
65
73
0
40
0
0
LTYPE
5
15
100
AcDbSymbolTableRecord
100
AcDbLinetypeTableRecord
70
0
2
ByLayer
3

72
65
73
0
40
0
0
LTYPE
5
16
100
AcDbSymbolTableRecord
100
AcDbLinetypeTableRecord
70
0
2
CONTINUOUS
3
Solid line
72
65
73
0
40
0
0
LTYPE
5
6A
100
AcDbSymbolTableRecord
100
AcDbLinetypeTableRecord
70
0
2
CENTER
3
____ _ ____ _ ____ _ ____
72
65
73
4
40
47.5
49
22
74
0
49
-8.5
74
0
49
8.5
74
0
49
-8.5
74
0
0
LTYPE
5
6B
100
AcDbSymbolTableRecord
100
AcDbLinetypeTableRecord
70
0
2
DASHED
3
__ __ __ __ __ __ __ __ __
72
65
73
2
40
25.72
49
12.86
74
0
49
-12.86
74
0
0
ENDTAB
0
TABLE
2
LAYER
5
27f
100
AcDbSymbolTable
0
LAYER
5
10
100
AcDbSymbolTableRecord
100
AcDbLayerTableRecord
2
0
70
0
62
7
6
CONTINUOUS
290
1
370
-3
390
0
0
LAYER
5
6D
100
AcDbSymbolTableRecord
100
AcDbLayerTableRecord
2
2
70
0
62
7
6
CONTINUOUS
290
1
370
-3
390
0
0
LAYER
5
6F
100
AcDbSymbolTableRecord
100
AcDbLayerTableRecord
2
80
70
0
62
-6
6
CONTINUOUS
290
1
370
-3
390
0
0
LAYER
5
71
100
AcDbSymbolTableRecord
100
AcDbLayerTableRecord
2
81
70
0
62
-3
6
CONTINUOUS
290
1
370
-3
390
0
0
LAYER
5
73
100
AcDbSymbolTableRecord
100
AcDbLayerTableRecord
2
1
70
0
62
4
6
CONTINUOUS
290
1
370
-3
390
0
0
LAYER
5
8B
100
AcDbSymbolTableRecord
100
AcDbLayerTableRecord
2
4
70
0
62
-2
6
CENTER
290
1
370
-3
390
0
0
LAYER
5
269
100
AcDbSymbolTableRecord
100
AcDbLayerTableRecord
2
SK4
70
0
62
2
6
CENTER
290
1
370
-3
390
0
0
LAYER
5
26a
100
AcDbSymbolTableRecord
100
AcDbLayerTableRecord
2
SK1
70
0
62
4
6
CONTINUOUS
290
1
370
-3
390
0
0
LAYER
5
26b
100
AcDbSymbolTableRecord
100
AcDbLayerTableRecord
2
SK6
70
0
62
5
6
CONTINUOUS
290
1
370
-3
390
0
0
LAYER
5
26c
100
AcDbSymbolTableRecord
100
AcDbLayerTableRecord
2
SK2
70
0
62
7
6
CONTINUOUS
290
1
370
-3
390
0
0
ENDTAB
0
TABLE
2
STYLE
5
280
100
AcDbSymbolTable
0
STYLE
5
11
100
AcDbSymbolTableRecord
100
AcDbTextStyleTableRecord
2
Standard
3
txt
70
0
71
0
40
0
41
1
42
0
50
0
0
STYLE
5
1CD
100
AcDbSymbolTableRecord
100
AcDbTextStyleTableRecord
2
iso_b_vert
3
simplex.shx
70
0
71
0
40
0
41
1
42
0
50
0
0
STYLE
5
1CE
100
AcDbSymbolTableRecord
100
AcDbTextStyleTableRecord
2
DWGDirectTextStyle
3
simplex
70
0
71
0
40
0
41
1
42
0
50
0
0
ENDTAB
0
TABLE
2
DIMSTYLE
5
281
100
AcDbSymbolTable
100
AcDbDimStyleTable
0
DIMSTYLE
105
27
100
AcDbSymbolTableRecord
100
AcDbDimStyleTableRecord
2
Standard
70
0
3
<>
41
0.18
42
0.0625
44
0.18
140
0.18
147
0.09
73
0
74
0
77
1
271
2
275
0
278
52
280
0
340
11
0
ENDTAB
0
TABLE
2
VIEW
5
282
100
AcDbSymbolTable
0
ENDTAB
0
TABLE
2
UCS
5
283
100
AcDbSymbolTable
0
ENDTAB
0
TABLE
2
APPID
5
284
100
AcDbSymbolTable
0
APPID
5
12
100
AcDbSymbolTableRecord
100
AcDbRegAppTableRecord
2
ACAD
70
0
0
ENDTAB
0
TABLE
2
BLOCK_RECORD
5
285
100
AcDbSymbolTable
0
BLOCK_RECORD
5
1F
100
AcDbSymbolTableRecord
100
AcDbBlockTableRecord
2
*Model_Space
340
0
70
0
0
BLOCK_RECORD
5
1B
100
AcDbSymbolTableRecord
100
AcDbBlockTableRecord
2
*Paper_Space
340
0
70
0
0
BLOCK_RECORD
5
23
100
AcDbSymbolTableRecord
100
AcDbBlockTableRecord
2
*Paper_Space0
340
0
70
0
0
BLOCK_RECORD
5
1D0
100
AcDbSymbolTableRecord
100
AcDbBlockTableRecord
2
DimnDraft3D1
340
0
70
0
0
BLOCK_RECORD
5
1DE
100
AcDbSymbolTableRecord
100
AcDbBlockTableRecord
2
_CLOSED
340
0
70
0
0
BLOCK_RECORD
5
1E5
100
AcDbSymbolTableRecord
100
AcDbBlockTableRecord
2
DimnDraft3D2
340
0
70
0
0
BLOCK_RECORD
5
1F3
100
AcDbSymbolTableRecord
100
AcDbBlockTableRecord
2
DimnDraft3D3
340
0
70
0
0
BLOCK_RECORD
5
202
100
AcDbSymbolTableRecord
100
AcDbBlockTableRecord
2
DimnDraft3D4
340
0
70
0
0
ENDTAB
0
ENDSEC
0
SECTION
2
BLOCKS
0
BLOCK
5
20
100
AcDbEntity
8
0
100
AcDbBlockBegin
2
*Model_Space
70
0
10
0
20
0
30
0
3
*Model_Space
0
ENDBLK
5
21
100
AcDbEntity
8
0
100
AcDbBlockEnd
0
BLOCK
5
1C
100
AcDbEntity
8
0
100
AcDbBlockBegin
2
*Paper_Space
70
0
10
0
20
0
30
0
3
*Paper_Space
0
ENDBLK
5
1D
100
AcDbEntity
8
0
100
AcDbBlockEnd
0
BLOCK
5
24
100
AcDbEntity
8
0
100
AcDbBlockBegin
2
*Paper_Space0
70
0
10
0
20
0
30
0
3
*Paper_Space0
0
ENDBLK
5
25
100
AcDbEntity
8
0
100
AcDbBlockEnd
0
BLOCK
5
1DB
100
AcDbEntity
8
0
100
AcDbBlockBegin
2
DimnDraft3D1
70
0
10
0
20
0
30
0
3
DimnDraft3D1
0
MTEXT
5
1D1
100
AcDbEntity
8
2
62
256
6
ByLayer
370
18
48
1
60
0
100
AcDbMText
10
35.298545
20
-36.364197
30
0
210
0
220
0
230
1
1
\W0.7399;75%%d
40
4.5
41
0
44
1.084337
50
322.5
71
7
72
5
7
iso_b_vert
0
LINE
5
1D2
100
AcDbEntity
8
2
62
256
6
ByLayer
370
13
48
1
60
0
100
AcDbLine
10
43.62489
20
-23.708206
30
0
11
27.329177
21
-28.074629
31
0
39
0
210
0
220
0
230
1
0
LINE
5
1D3
100
AcDbEntity
8
2
62
256
6
ByLayer
370
13
48
1
60
0
100
AcDbLine
10
50
20
-24
30
0
11
50
21
-45.470563
31
0
39
0
210
0
220
0
230
1
0
ARC
5
1D4
100
AcDbEntity
8
2
62
256
6
ByLayer
370
13
48
1
60
0
100
AcDbCircle
39
0
10
50
20
-22
30
0
40
21.4705627484772
210
0
220
0
230
1
100
AcDbArc
50
195
51
270
0
LINE
5
1D5
100
AcDbEntity
8
2
62
256
6
ByLayer
370
13
48
1
60
0
100
AcDbLine
10
29.261029
20
-27.556991
30
0
11
30.594853
21
-30.46839
31
0
39
0
210
0
220
0
230
1
0
LINE
5
1D6
100
AcDbEntity
8
2
62
256
6
ByLayer
370
13
48
1
60
0
100
AcDbLine
10
29.261029
20
-27.556991
30
0
11
29.795879
21
-30.714409
31
0
39
0
210
0
220
0
230
1
0
LINE
5
1D7
100
AcDbEntity
8
2
62
256
6
ByLayer
370
13
48
1
60
0
100
AcDbLine
10
30.594853
20
-30.46839
30
0
11
29.795879
21
-30.714409
31
0
39
0
210
0
220
0
230
1
0
LINE
5
1D8
100
AcDbEntity
8
2
62
256
6
ByLayer
370
13
48
1
60
0
100
AcDbLine
10
50
20
-43.470563
30
0
11
46.811742
21
-43.771137
31
0
39
0
210
0
220
0
230
1
0
LINE
5
1D9
100
AcDbEntity
8
2
62
256
6
ByLayer
370
13
48
1
60
0
100
AcDbLine
10
50
20
-43.470563
30
0
11
46.842581
21
-42.935713
31
0
39
0
210
0
220
0
230
1
0
LINE
5
1DA
100
AcDbEntity
8
2
62
256
6
ByLayer
370
13
48
1
60
0
100
AcDbLine
10
46.811742
20
-43.771137
30
0
11
46.842581
21
-42.935713
31
0
39
0
210
0
220
0
230
1
0
ENDBLK
5
1DC
100
AcDbEntity
8
0
100
AcDbBlockEnd
0
BLOCK
5
1DF
100
AcDbEntity
8
0
100
AcDbBlockBegin
2
_CLOSED
70
0
10
0
20
0
30
0
3
_CLOSED
0
LINE
5
1E1
100
AcDbEntity
8
0
62
256
6
ByLayer
370
-2
48
1
60
0
100
AcDbLine
10
-1
20
0.166667
30
0
11
0
21
0
31
0
39
0
210
0
220
0
230
1
0
LINE
5
1E2
100
AcDbEntity
8
0
62
256
6
ByLayer
370
-2
48
1
60
0
100
AcDbLine
10
0
20
0
30
0
11
-1
21
-0.166667
31
0
39
0
210
0
220
0
230
1
0
LINE
5
1E3
100
AcDbEntity
8
0
62
256
6
ByLayer
370
-2
48
1
60
0
100
AcDbLine
10
-1
20
0.166667
30
0
11
-1
21
-0.166667
31
0
39
0
210
0
220
0
230
1
0
LINE
5
1E4
100
AcDbEntity
8
0
62
256
6
ByLayer
370
-2
48
1
60
0
100
AcDbLine
10
0
20
0
30
0
11
-1
21
0
31
0
39
0
210
0
220
0
230
1
0
ENDBLK
5
1E0
100
AcDbEntity
8
0
100
AcDbBlockEnd
0
BLOCK
5
1F0
100
AcDbEntity
8
0
100
AcDbBlockBegin
2
DimnDraft3D2
70
0
10
0
20
0
30
0
3
DimnDraft3D2
0
MTEXT
5
1E6
100
AcDbEntity
8
2
62
256
6
ByLayer
370
18
48
1
60
0
100
AcDbMText
10
20.843421
20
-48.125
30
0
210
0
220
0
230
1
1
\W0.7346;50.0
40
4.5
41
0
44
1.084337
50
0
71
7
72
5
7
iso_b_vert
0
LINE
5
1E7
100
AcDbEntity
8
2
62
256
6
ByLayer
370
13
48
1
60
0
100
AcDbLine
10
0
20
-22
30
0
11
0
21
-51.25
31
0
39
0
210
0
220
0
230
1
0
LINE
5
1E8
100
AcDbEntity
8
2
62
256
6
ByLayer
370
13
48
1
60
0
100
AcDbLine
10
50
20
-24
30
0
11
50
21
-51.25
31
0
39
0
210
0
220
0
230
1
0
LINE
5
1E9
100
AcDbEntity
8
2
62
256
6
ByLayer
370
13
48
1
60
0
100
AcDbLine
10
0
20
-49.25
30
0
11
50
21
-49.25
31
0
39
0
210
0
220
0
230
1
0
LINE
5
1EA
100
AcDbEntity
8
2
62
256
6
ByLayer
370
13
48
1
60
0
100
AcDbLine
10
0
20
-49.25
30
0
11
3.174998
21
-48.832003
31
0
39
0
210
0
220
0
230
1
0
LINE
5
1EB
100
AcDbEntity
8
2
62
256
6
ByLayer
370
13
48
1
60
0
100
AcDbLine
10
0
20
-49.25
30
0
11
3.175002
21
-49.667997
31
0
39
0
210
0
220
0
230
1
0
LINE
5
1EC
100
AcDbEntity
8
2
62
256
6
ByLayer
370
13
48
1
60
0
100
AcDbLine
10
3.174998
20
-48.832003
30
0
11
3.175002
21
-49.667997
31
0
39
0
210
0
220
0
230
1
0
LINE
5
1ED
100
AcDbEntity
8
2
62
256
6
ByLayer
370
13
48
1
60
0
100
AcDbLine
10
50
20
-49.25
30
0
11
46.825002
21
-49.667997
31
0
39
0
210
0
220
0
230
1
0
LINE
5
1EE
100
AcDbEntity
8
2
62
256
6
ByLayer
370
13
48
1
60
0
100
AcDbLine
10
50
20
-49.25
30
0
11
46.824998
21
-48.832003
31
0
39
0
210
0
220
0
230
1
0
LINE
5
1EF
100
AcDbEntity
8
2
62
256
6
ByLayer
370
13
48
1
60
0
100
AcDbLine
10
46.825002
20
-49.667997
30
0
11
46.824998
21
-48.832003
31
0
39
0
210
0
220
0
230
1
0
ENDBLK
5
1F1
100
AcDbEntity
8
0
100
AcDbBlockEnd
0
BLOCK
5
1FF
100
AcDbEntity
8
0
100
AcDbBlockBegin
2
DimnDraft3D3
70
0
10
0
20
0
30
0
3
DimnDraft3D3
0
MTEXT
5
1F4
100
AcDbEntity
8
SK2
62
256
6
ByLayer
370
18
48
1
60
0
100
AcDbMText
10
-32.875
20
-1.8
30
0
210
0
220
0
230
1
1
\W0.7361;40
40
4.5
41
0
44
1.084337
50
90
71
7
72
5
7
iso_b_vert
0
LINE
5
1F6
100
AcDbEntity
8
SK2
62
256
6
ByLayer
370
13
48
1
60
0
100
AcDbLine
10
-2
20
-20
30
0
11
-33.75
21
-20
31
0
39
0
210
0
220
0
230
1
0
LINE
5
1F7
100
AcDbEntity
8
SK2
62
256
6
ByLayer
370
13
48
1
60
0
100
AcDbLine
10
-2
20
20
30
0
11
-33.75
21
20
31
0
39
0
210
0
220
0
230
1
0
LINE
5
1F8
100
AcDbEntity
8
SK2
62
256
6
ByLayer
370
13
48
1
60
0
100
AcDbLine
10
-31.75
20
-20
30
0
11
-31.75
21
20
31
0
39
0
210
0
220
0
230
1
0
LINE
5
1F9
100
AcDbEntity
8
SK2
62
256
6
ByLayer
370
13
48
1
60
0
100
AcDbLine
10
-31.75
20
-20
30
0
11
-32.167997
21
-16.825002
31
0
39
0
210
0
220
0
230
1
0
LINE
5
1FA
100
AcDbEntity
8
SK2
62
256
6
ByLayer
370
13
48
1
60
0
100
AcDbLine
10
-31.75
20
-20
30
0
11
-31.332003
21
-16.824998
31
0
39
0
210
0
220
0
230
1
0
LINE
5
1FB
100
AcDbEntity
8
SK2
62
256
6
ByLayer
370
13
48
1
60
0
100
AcDbLine
10
-32.167997
20
-16.825002
30
0
11
-31.332003
21
-16.824998
31
0
39
0
210
0
220
0
230
1
0
LINE
5
1FC
100
AcDbEntity
8
SK2
62
256
6
ByLayer
370
13
48
1
60
0
100
AcDbLine
10
-31.75
20
20
30
0
11
-31.332003
21
16.825002
31
0
39
0
210
0
220
0
230
1
0
LINE
5
1FD
100
AcDbEntity
8
SK2
62
256
6
ByLayer
370
13
48
1
60
0
100
AcDbLine
10
-31.75
20
20
30
0
11
-32.167997
21
16.824998
31
0
39
0
210
0
220
0
230
1
0
LINE
5
1FE
100
AcDbEntity
8
SK2
62
256
6
ByLayer
370
13
48
1
60
0
100
AcDbLine
10
-31.332003
20
16.825002
30
0
11
-32.167997
21
16.824998
31
0
39
0
210
0
220
0
230
1
0
ENDBLK
5
200
100
AcDbEntity
8
0
100
AcDbBlockEnd
0
BLOCK
5
20D
100
AcDbEntity
8
0
100
AcDbBlockBegin
2
DimnDraft3D4
70
0
10
0
20
0
30
0
3
DimnDraft3D4
0
MTEXT
5
203
100
AcDbEntity
8
2
62
256
6
ByLayer
370
18
48
1
60
0
100
AcDbMText
10
71.125
20
-15.156579
30
0
210
0
220
0
230
1
1
\W0.7346;22.0
40
4.5
41
0
44
1.084337
50
90
71
7
72
5
7
iso_b_vert
0
LINE
5
204
100
AcDbEntity
8
2
62
256
6
ByLayer
370
13
48
1
60
0
100
AcDbLine
10
52
20
0
30
0
11
74.25
21
0
31
0
39
0
210
0
220
0
230
1
0
LINE
5
205
100
AcDbEntity
8
2
62
256
6
ByLayer
370
13
48
1
60
0
100
AcDbLine
10
52
20
-22
30
0
11
74.25
21
-22
31
0
39
0
210
0
220
0
230
1
0
LINE
5
206
100
AcDbEntity
8
2
62
256
6
ByLayer
370
13
48
1
60
0
100
AcDbLine
10
72.25
20
0
30
0
11
72.25
21
-22
31
0
39
0
210
0
220
0
230
1
0
LINE
5
207
100
AcDbEntity
8
2
62
256
6
ByLayer
370
13
48
1
60
0
100
AcDbLine
10
72.25
20
0
30
0
11
72.667997
21
-3.174998
31
0
39
0
210
0
220
0
230
1
0
LINE
5
208
100
AcDbEntity
8
2
62
256
6
ByLayer
370
13
48
1
60
0
100
AcDbLine
10
72.25
20
0
30
0
11
71.832003
21
-3.175002
31
0
39
0
210
0
220
0
230
1
0
LINE
5
209
100
AcDbEntity
8
2
62
256
6
ByLayer
370
13
48
1
60
0
100
AcDbLine
10
72.667997
20
-3.174998
30
0
11
71.832003
21
-3.175002
31
0
39
0
210
0
220
0
230
1
0
LINE
5
20A
100
AcDbEntity
8
2
62
256
6
ByLayer
370
13
48
1
60
0
100
AcDbLine
10
72.25
20
-22
30
0
11
71.832003
21
-18.825002
31
0
39
0
210
0
220
0
230
1
0
LINE
5
20B
100
AcDbEntity
8
2
62
256
6
ByLayer
370
13
48
1
60
0
100
AcDbLine
10
72.25
20
-22
30
0
11
72.667997
21
-18.824998
31
0
39
0
210
0
220
0
230
1
0
LINE
5
20C
100
AcDbEntity
8
2
62
256
6
ByLayer
370
13
48
1
60
0
100
AcDbLine
10
71.832003
20
-18.825002
30
0
11
72.667997
21
-18.824998
31
0
39
0
210
0
220
0
230
1
0
ENDBLK
5
20E
100
AcDbEntity
8
0
100
AcDbBlockEnd
0
ENDSEC
0
SECTION
2
ENTITIES
0
ARC
5
FE
100
AcDbEntity
8
1
62
256
6
ByLayer
370
18
48
1
60
0
100
AcDbCircle
39
0
10
-16.841712
20
8.229317
30
0
40
0.25
210
0
220
0
230
-1
100
AcDbArc
50
260
51
351.872932
0
ARC
5
FF
100
AcDbEntity
8
SK1
62
256
6
ByLayer
370
18
48
1
60
0
100
AcDbCircle
39
0
10
0.6
20
-15
30
0
40
0.999999999999989
210
0
220
0
230
-1
100
AcDbArc
50
113.578178
51
126.869898
0
ARC
5
100
100
AcDbEntity
8
SK1
62
256
6
ByLayer
370
18
48
1
60
0
100
AcDbCircle
39
0
10
0.6
20
15
30
0
40
0.999999999999989
210
0
220
0
230
-1
100
AcDbArc
50
233.130102
51
246.421822
0
ARC
5
101
100
AcDbEntity
8
1
62
256
6
ByLayer
370
18
48
1
60
0
100
AcDbCircle
39
0
10
13.376863
20
7.734525
30
0
40
3.25
210
0
220
0
230
1
100
AcDbArc
50
8.127068
51
21.835092
0
ELLIPSE
5
102
100
AcDbEntity
8
1
62
256
6
ByLayer
370
18
48
1
60
0
100
AcDbEllipse
10
23.00518
20
-17.702315
30
0
11
1.4292516996053
21
2.637657972364
31
0
210
0
220
0
230
1
40
0.9865
41
0.0891024469650665
42
0.229639942064431
0
ELLIPSE
5
103
100
AcDbEntity
8
1
62
256
6
ByLayer
370
18
48
1
60
0
100
AcDbEllipse
10
30.687842
20
-13.981526
30
0
11
-1.97713151778732
21
-3.64876019510354
31
0
210
0
220
0
230
1
40
0.9865
41
0.229639942064425
42
-3.05273537020986
0
ELLIPSE
5
104
100
AcDbEntity
8
1
62
256
6
ByLayer
370
18
48
1
60
0
100
AcDbEllipse
10
28.657897
20
-13.433021
30
0
11
-1.23868480632458
21
-2.28597024271547
31
0
210
0
220
0
230
1
40
0.9865
41
-1.44654712648013
42
-1.24028195058365
0
ELLIPSE
5
105
100
AcDbEntity
8
1
62
256
6
ByLayer
370
18
48
1
60
0
100
AcDbEllipse
10
42.768025
20
0
30
0
11
-21.2908099790346
21
20.1436500950321
31
0
210
0
220
0
230
1
40
0.023758
41
-0.224944330237257
42
-0.0250961848605032
0
ELLIPSE
5
106
100
AcDbEntity
8
1
62
256
6
ByLayer
370
18
48
1
60
0
100
AcDbEllipse
10
39.021406
20
-11.652462
30
0
11
1.19771302649506
21
2.0744998147765
31
0
210
0
220
0
230
1
40
0.989133
41
0.60540202967653
42
0.874342770180207
0
ELLIPSE
5
107
100
AcDbEntity
8
1
62
256
6
ByLayer
370
18
48
1
60
0
100
AcDbEllipse
10
37.87281
20
-10.826286
30
0
11
1.24912729598984
21
2.16355194177549
31
0
210
0
220
0
230
1
40
0.989133
41
-0.824549501887015
42
-0.408366737789769
0
ELLIPSE
5
108
100
AcDbEntity
8
1
62
256
6
ByLayer
370
18
48
1
60
0
100
AcDbEllipse
10
37.853711
20
-10.81526
30
0
11
1.17412729598984
21
2.03364813120782
31
0
210
0
220
0
230
1
40
0.989133
41
-0.890439249670493
42
-0.335622516229937
0
ELLIPSE
5
109
100
AcDbEntity
8
1
62
256
6
ByLayer
370
18
48
1
60
0
100
AcDbEllipse
10
29.797346
20
-12.652689
30
0
11
-0.19
21
-0.329089653438087
31
0
210
0
220
0
230
1
40
0.989133
41
2.50405666387319
42
2.82334085438502
0
ELLIPSE
5
10A
100
AcDbEntity
8
1
62
256
6
ByLayer
370
18
48
1
60
0
100
AcDbEllipse
10
29.218096
20
-14.746245
30
0
11
-0.19
21
-0.329089653438087
31
0
210
0
220
0
230
1
40
0.989133
41
0.318242469491306
42
1.1502083482718
0
ELLIPSE
5
10B
100
AcDbEntity
8
1
62
256
6
ByLayer
370
18
48
1
60
0
100
AcDbEllipse
10
30.531228
20
-12.329455
30
0
11
0.212500000000003
21
0.368060796608385
31
0
210
0
220
0
230
1
40
0.989133
41
2.50405666387324
42
-3.14157508544017
0
ELLIPSE
5
10C
100
AcDbEntity
8
1
62
256
6
ByLayer
370
18
48
1
60
0
100
AcDbEllipse
10
30.996365
20
-12.977528
30
0
11
-0.19
21
-0.329089653438087
31
0
210
0
220
0
230
1
40
0.989133
41
1.45685911267663
42
2.82334436917108
0
ELLIPSE
5
10D
100
AcDbEntity
8
1
62
256
6
ByLayer
370
18
48
1
60
0
100
AcDbEllipse
10
29.683234
20
-15.394319
30
0
11
0.212500000000003
21
0.368060796608385
31
0
210
0
220
0
230
1
40
0.989133
41
1.93219937467728E-05
42
1.1502083482718
0
ELLIPSE
5
10E
100
AcDbEntity
8
1
62
256
6
ByLayer
370
18
48
1
60
0
100
AcDbEllipse
10
30.417115
20
-15.071085
30
0
11
-0.19
21
-0.329089653438087
31
0
210
0
220
0
230
1
40
0.989133
41
0.318282348964215
42
2.1974058994684
0
ELLIPSE
5
10F
100
AcDbEntity
8
1
62
256
6
ByLayer
370
18
48
1
60
0
100
AcDbEllipse
10
31.635708
20
-13.452333
30
0
11
0.212500000000003
21
0.368060796608385
31
0
210
0
220
0
230
1
40
0.989133
41
1.45685911267661
42
3.14158538262177
0
ELLIPSE
5
110
100
AcDbEntity
8
1
62
256
6
ByLayer
370
18
48
1
60
0
100
AcDbEllipse
10
30.005369
20
-13.803077
30
0
11
2.00000000000003
21
3.46410161513774
31
0
210
0
220
0
230
1
40
0.989133
41
0.528343053518855
42
3.1414987633641
0
ELLIPSE
5
111
100
AcDbEntity
8
1
62
256
6
ByLayer
370
18
48
1
60
0
100
AcDbEllipse
10
30.005369
20
-13.803077
30
0
11
2.00000000000003
21
3.46410161513774
31
0
210
0
220
0
230
1
40
0.989133
41
-1.0329905585144
42
-4.48968146700254E-16
0
ELLIPSE
5
112
100
AcDbEntity
8
1
62
256
6
ByLayer
370
18
48
1
60
0
100
AcDbEllipse
10
30.005369
20
-13.803077
30
0
11
2.00000000000003
21
3.46410161513774
31
0
210
0
220
0
230
1
40
0.989133
41
0
42
0.528338758566072
0
ELLIPSE
5
113
100
AcDbEntity
8
1
62
256
6
ByLayer
370
18
48
1
60
0
100
AcDbEllipse
10
31.30625
20
-14.186726
30
0
11
-0.19
21
-0.329089653438087
31
0
210
0
220
0
230
1
40
0.989133
41
0.409661561480034
42
2.99158584164609
0
ELLIPSE
5
114
100
AcDbEntity
8
1
62
256
6
ByLayer
370
18
48
1
60
0
100
AcDbEllipse
10
30.107231
20
-13.861887
30
0
11
0.575000000000008
21
0.9959292143521
31
0
210
0
220
0
230
1
40
0.989133
41
0.528343195976306
42
0.962804170555699
0
ELLIPSE
5
115
100
AcDbEntity
8
1
62
256
6
ByLayer
370
18
48
1
60
0
100
AcDbEllipse
10
30.107231
20
-13.861887
30
0
11
0.575000000000008
21
0.9959292143521
31
0
210
0
220
0
230
1
40
0.989133
41
1.5536203460728
42
2.21855822120152
0
ELLIPSE
5
116
100
AcDbEntity
8
1
62
256
6
ByLayer
370
18
48
1
60
0
100
AcDbEllipse
10
30.107231
20
-13.861887
30
0
11
0.575000000000008
21
0.9959292143521
31
0
210
0
220
0
230
1
40
0.989133
41
2.71630342858916
42
0
0
ELLIPSE
5
117
100
AcDbEntity
8
1
62
256
6
ByLayer
370
18
48
1
60
0
100
AcDbEllipse
10
30.107231
20
-13.861887
30
0
11
0.575000000000008
21
0.9959292143521
31
0
210
0
220
0
230
1
40
0.989133
41
0.256338635127993
42
0.528343195976306
0
ELLIPSE
5
118
100
AcDbEntity
8
1
62
256
6
ByLayer
370
18
48
1
60
0
100
AcDbEllipse
10
30.043567
20
-13.825131
30
0
11
0.575000000000008
21
0.9959292143521
31
0
210
0
220
0
230
1
40
0.989133
41
-3.10928888970021
42
-0.0643979814142981
0
ELLIPSE
5
119
100
AcDbEntity
8
1
62
256
6
ByLayer
370
18
48
1
60
0
100
AcDbEllipse
10
43.362047
20
-17.240253
30
0
11
1.29000000000002
21
2.23434554176384
31
0
210
0
220
0
230
1
40
0.989133
41
-2.64325322109133
42
0
0
ELLIPSE
5
11A
100
AcDbEntity
8
1
62
256
6
ByLayer
370
18
48
1
60
0
100
AcDbEllipse
10
43.362047
20
-17.240253
30
0
11
1.29000000000002
21
2.23434554176384
31
0
210
0
220
0
230
1
40
0.989133
41
0
42
0.0233698083342305
0
ELLIPSE
5
11B
100
AcDbEntity
8
1
62
256
6
ByLayer
370
18
48
1
60
0
100
AcDbEllipse
10
49.212447
20
-21.393469
30
0
11
-0.397
21
-0.687624170604844
31
0
210
0
220
0
230
1
40
0.989133
41
0.779934954875917
42
2.17619835647138
0
ELLIPSE
5
11C
100
AcDbEntity
8
1
62
256
6
ByLayer
370
18
48
1
60
0
100
AcDbEllipse
10
38.373206
20
-24.297835
30
0
11
-0.397
21
-0.687624170604844
31
0
210
0
220
0
230
1
40
0.989133
41
-0.96539429711842
42
0.779934954875917
0
ELLIPSE
5
11D
100
AcDbEntity
8
1
62
256
6
ByLayer
370
18
48
1
60
0
100
AcDbEllipse
10
48.350888
20
-10.182671
30
0
11
-0.397
21
-0.687624170604844
31
0
210
0
220
0
230
1
40
0.989133
41
2.17619835647137
42
-2.36165769871389
0
ELLIPSE
5
11E
100
AcDbEntity
8
1
62
256
6
ByLayer
370
18
48
1
60
0
100
AcDbEllipse
10
25.769079
20
-17.501371
30
0
11
-5.35293232290587
21
1.27786283457718
31
0
210
0
220
0
230
1
40
0.200196
41
-0.61187558323912
42
-0.558883279078492
0
ELLIPSE
5
11F
100
AcDbEntity
8
1
62
256
6
ByLayer
370
18
48
1
60
0
100
AcDbEllipse
10
24.898831
20
-7.780614
30
0
11
-2.29716956577001
21
-1.93485010894815
31
0
210
0
220
0
230
1
40
0.994282
41
-2.01893421787863
42
-0.967245154814323
0
ELLIPSE
5
120
100
AcDbEntity
8
1
62
256
6
ByLayer
370
18
48
1
60
0
100
AcDbEllipse
10
43.844915
20
-17.486834
30
0
11
-0.0190641654490235
21
-2.30222641165799
31
0
210
0
220
0
230
1
40
0.801371
41
1.40106820121438
42
2.2562795346921
0
ELLIPSE
5
121
100
AcDbEntity
8
1
62
256
6
ByLayer
370
18
48
1
60
0
100
AcDbEllipse
10
25.360463
20
-19.355329
30
0
11
-3.42905569189769
21
0.728975838404678
31
0
210
0
220
0
230
1
40
0.335188
41
-0.625034491352684
42
0.0981836150458022
0
ELLIPSE
5
122
100
AcDbEntity
8
1
62
256
6
ByLayer
370
18
48
1
60
0
100
AcDbEllipse
10
27.739856
20
-10.378484
30
0
11
5.30084309946888
21
-1.46665007238032
31
0
210
0
220
0
230
1
40
0.037276
41
-2.41648249963875
42
-1.97471476035272
0
ELLIPSE
5
123
100
AcDbEntity
8
1
62
256
6
ByLayer
370
18
48
1
60
0
100
AcDbEllipse
10
25.373179
20
-8.134903
30
0
11
1.49594196942037
21
1.32746285225867
31
0
210
0
220
0
230
1
40
0.766835
41
0.642000135205716
42
2.05467562946532
0
ELLIPSE
5
124
100
AcDbEntity
8
1
62
256
6
ByLayer
370
18
48
1
60
0
100
AcDbEllipse
10
43.844915
20
-17.486834
30
0
11
-1.55469798806262
21
-1.59254046504116
31
0
210
0
220
0
230
1
40
0.791036
41
1.17104293475273
42
2.02625426823147
0
ELLIPSE
5
125
100
AcDbEntity
8
1
62
256
6
ByLayer
370
18
48
1
60
0
100
AcDbEllipse
10
28.324947
20
-8.26382
30
0
11
-5.24634829294309
21
1.6625466692913
31
0
210
0
220
0
230
1
40
0.274646
41
0.561908516785644
42
0.614900818751848
0
ELLIPSE
5
126
100
AcDbEntity
8
1
62
256
6
ByLayer
370
18
48
1
60
0
100
AcDbEllipse
10
25.507485
20
-17.096231
30
0
11
-3.94676944470398
21
-1.11041793144955
31
0
210
0
220
0
230
1
40
0.480311
41
0.317202882924555
42
0.676818616280122
0
ELLIPSE
5
127
100
AcDbEntity
8
1
62
256
6
ByLayer
370
18
48
1
60
0
100
AcDbEllipse
10
22.660413
20
-15.870821
30
0
11
-2.29716956578839
21
-1.93485010892738
31
0
210
0
220
0
230
1
40
0.994282
41
-0.967245154805065
42
0.0844439082590715
0
ELLIPSE
5
128
100
AcDbEntity
8
1
62
256
6
ByLayer
370
18
48
1
60
0
100
AcDbEllipse
10
26.354169
20
-15.386707
30
0
11
5.30084309946888
21
-1.46665007238032
31
0
210
0
220
0
230
1
40
0.037276
41
-2.41648249963875
42
-1.97471476035272
0
ELLIPSE
5
129
100
AcDbEntity
8
1
62
256
6
ByLayer
370
18
48
1
60
0
100
AcDbEllipse
10
21.417958
20
-3.961828
30
0
11
6.74652758114221
21
-1.86664554666587
31
0
210
0
220
0
230
1
40
0.037276
41
0.806029476653138
42
0.820810513393119
0
ELLIPSE
5
12A
100
AcDbEntity
8
1
62
256
6
ByLayer
370
18
48
1
60
0
100
AcDbEllipse
10
28.913502
20
-6.51375
30
0
11
-3.31184056248436
21
1.15073777054111
31
0
210
0
220
0
230
1
40
0.409411
41
-0.0920409377179112
42
0.631177168680164
0
ELLIPSE
5
12B
100
AcDbEntity
8
1
62
256
6
ByLayer
370
18
48
1
60
0
100
AcDbEllipse
10
23.131282
20
-16.237683
30
0
11
-0.447023416203214
21
1.94940248931974
31
0
210
0
220
0
230
1
40
0.790712
41
1.1892169397972
42
2.6018924340568
0
ELLIPSE
5
12C
100
AcDbEntity
8
1
62
256
6
ByLayer
370
18
48
1
60
0
100
AcDbEllipse
10
27.745903
20
-9.006024
30
0
11
-2.48993660169327
21
3.58150699450604
31
0
210
0
220
0
230
1
40
0.518425
41
-0.552900213078857
42
-0.193284479724335
0
ELLIPSE
5
12D
100
AcDbEntity
8
1
62
256
6
ByLayer
370
18
48
1
60
0
100
AcDbEllipse
10
29.206474
20
-12.856629
30
0
11
0.212500000000003
21
0.368060796608385
31
0
210
0
220
0
230
1
40
0.989133
41
-2.73193109210977
42
-0.944186754121401
0
ELLIPSE
5
12E
100
AcDbEntity
8
1
62
256
6
ByLayer
370
18
48
1
60
0
100
AcDbEllipse
10
31.200089
20
-13.095148
30
0
11
-0.19
21
-0.329089653438087
31
0
210
0
220
0
230
1
40
0.989133
41
1.45685911267663
42
-1.99138430531799
0
ELLIPSE
5
12F
100
AcDbEntity
8
1
62
256
6
ByLayer
370
18
48
1
60
0
100
AcDbEllipse
10
31.509973
20
-14.304346
30
0
11
-0.19
21
-0.329089653438087
31
0
210
0
220
0
230
1
40
0.989133
41
0.409661561480034
42
-3.03858185651461
0
ELLIPSE
5
130
100
AcDbEntity
8
1
62
256
6
ByLayer
370
18
48
1
60
0
100
AcDbEllipse
10
30.00107
20
-12.770309
30
0
11
-0.19
21
-0.329089653438087
31
0
210
0
220
0
230
1
40
0.989133
41
2.5040566638732
42
-0.944186754121394
0
ELLIPSE
5
131
100
AcDbEntity
8
1
62
256
6
ByLayer
370
18
48
1
60
0
100
AcDbEllipse
10
29.421819
20
-14.863865
30
0
11
-0.19
21
-0.329089653438087
31
0
210
0
220
0
230
1
40
0.989133
41
-1.68473354091317
42
1.1502083482718
0
ELLIPSE
5
132
100
AcDbEntity
8
1
62
256
6
ByLayer
370
18
48
1
60
0
100
AcDbEllipse
10
31.839431
20
-13.569952
30
0
11
0.212500000000003
21
0.368060796608385
31
0
210
0
220
0
230
1
40
0.989133
41
1.45685911267661
42
-3.0385818565146
0
ELLIPSE
5
133
100
AcDbEntity
8
1
62
256
6
ByLayer
370
18
48
1
60
0
100
AcDbEllipse
10
31.415434
20
-15.102384
30
0
11
0.212500000000003
21
0.368060796608385
31
0
210
0
220
0
230
1
40
0.989133
41
0.409661561480011
42
2.1974058994684
0
ELLIPSE
5
134
100
AcDbEntity
8
1
62
256
6
ByLayer
370
18
48
1
60
0
100
AcDbEllipse
10
29.111935
20
-13.654667
30
0
11
-0.19
21
-0.329089653438087
31
0
210
0
220
0
230
1
40
0.989133
41
-2.73193109210976
42
0.103010797075189
0
ELLIPSE
5
135
100
AcDbEntity
8
1
62
256
6
ByLayer
370
18
48
1
60
0
100
AcDbEllipse
10
30.310954
20
-13.979507
30
0
11
-1.15
21
-1.99185842870421
31
0
210
0
220
0
230
1
40
0.989133
41
0
42
6.28318530717959
0
ELLIPSE
5
136
100
AcDbEntity
8
1
62
256
6
ByLayer
370
18
48
1
60
0
100
AcDbEllipse
10
29.886957
20
-15.511939
30
0
11
0.212500000000003
21
0.368060796608385
31
0
210
0
220
0
230
1
40
0.989133
41
-0.637535989716576
42
1.1502083482718
0
ELLIPSE
5
137
100
AcDbEntity
8
1
62
256
6
ByLayer
370
18
48
1
60
0
100
AcDbEllipse
10
28.782477
20
-14.389061
30
0
11
0.212500000000003
21
0.368060796608385
31
0
210
0
220
0
230
1
40
0.989133
41
-1.68473354091317
42
0.103010797075192
0
ELLIPSE
5
138
100
AcDbEntity
8
1
62
256
6
ByLayer
370
18
48
1
60
0
100
AcDbEllipse
10
31.211711
20
-14.984765
30
0
11
0.212500000000003
21
0.368060796608385
31
0
210
0
220
0
230
1
40
0.989133
41
0.40966156148003
42
2.19740589946838
0
ELLIPSE
5
139
100
AcDbEntity
8
1
62
256
6
ByLayer
370
18
48
1
60
0
100
AcDbEllipse
10
30.217491
20
-13.925546
30
0
11
-2
21
-3.46410161513775
31
0
210
0
220
0
230
1
40
0.989133
41
0
42
6.28318530717959
0
ELLIPSE
5
13A
100
AcDbEntity
8
1
62
256
6
ByLayer
370
18
48
1
60
0
100
AcDbEllipse
10
30.734951
20
-12.447075
30
0
11
0.212500000000003
21
0.368060796608385
31
0
210
0
220
0
230
1
40
0.989133
41
2.50405666387322
42
-1.991384305318
0
ELLIPSE
5
13B
100
AcDbEntity
8
1
62
256
6
ByLayer
370
18
48
1
60
0
100
AcDbEllipse
10
30.620838
20
-15.188705
30
0
11
-0.19
21
-0.329089653438087
31
0
210
0
220
0
230
1
40
0.989133
41
-0.63753598971657
42
2.1974058994684
0
ELLIPSE
5
13C
100
AcDbEntity
8
1
62
256
6
ByLayer
370
18
48
1
60
0
100
AcDbEllipse
10
16.948929
20
0
30
0
11
-9.36741787978286
21
-19.7417491527512
31
0
210
0
220
0
230
1
40
0.341999
41
-1.09631952749986
42
-0.152726244898338
0
ELLIPSE
5
13D
100
AcDbEntity
8
1
62
256
6
ByLayer
370
18
48
1
60
0
100
AcDbEllipse
10
17.916631
20
-19.670239
30
0
11
-5.41267419744209
21
1.43409894728273
31
0
210
0
220
0
230
1
40
0.71384
41
2.61110696238964
42
3.13379110514787
0
ELLIPSE
5
13E
100
AcDbEntity
8
1
62
256
6
ByLayer
370
18
48
1
60
0
100
AcDbEllipse
10
21.065143
20
5.568661
30
0
11
-2.38943553037057
21
-30.2598655058685
31
0
210
0
220
0
230
1
40
0.106012
41
-1.13250596038972
42
-1.01785900426139
0
ELLIPSE
5
13F
100
AcDbEntity
8
1
62
256
6
ByLayer
370
18
48
1
60
0
100
AcDbEllipse
10
39.21919
20
-11.635226
30
0
11
1.19771302649506
21
2.0744998147765
31
0
210
0
220
0
230
1
40
0.989133
41
0.00106588010659385
42
0.60540202967653
0
ELLIPSE
5
140
100
AcDbEntity
8
1
62
256
6
ByLayer
370
18
48
1
60
0
100
AcDbEllipse
10
39.258517
20
-11.705744
30
0
11
-2.21966410592392
21
-1.35203117241088
31
0
210
0
220
0
230
1
40
0.525221
41
2.60255850476506
42
2.67505977754046
0
ELLIPSE
5
141
100
AcDbEntity
8
1
62
256
6
ByLayer
370
18
48
1
60
0
100
AcDbEllipse
10
16.787398
20
6.493192
30
0
11
-0.00987943652002289
21
3.99245274426299
31
0
210
0
220
0
230
1
40
0.082138
41
-0.117060764141608
42
0.557685835055828
0
ELLIPSE
5
142
100
AcDbEntity
8
1
62
256
6
ByLayer
370
18
48
1
60
0
100
AcDbEllipse
10
21.065143
20
12.021772
30
0
11
-3.21826336996375
21
-16.5377075249614
31
0
210
0
220
0
230
1
40
0.143639
41
-0.0778095237380227
42
0.365432291141981
0
ELLIPSE
5
143
100
AcDbEntity
8
1
62
256
6
ByLayer
370
18
48
1
60
0
100
AcDbEllipse
10
38.239165
20
-11.061406
30
0
11
-2.01014292654265
21
-1.51876972001515
31
0
210
0
220
0
230
1
40
0.848543
41
2.66165856561197
42
2.67788701399478
0
ELLIPSE
5
144
100
AcDbEntity
8
1
62
256
6
ByLayer
370
18
48
1
60
0
100
AcDbEllipse
10
-0.948929
20
0
30
0
11
-9.36741787978212
21
-19.7417491527504
31
0
210
0
220
0
230
1
40
0.341999
41
2.0452731260899
42
2.98886640869145
0
ELLIPSE
5
145
100
AcDbEntity
8
1
62
256
6
ByLayer
370
18
48
1
60
0
100
AcDbEllipse
10
17.749773
20
0
30
0
11
1.22460635382238E-15
21
20
31
0
210
0
220
0
230
1
40
0.087489
41
0.392575063395548
42
2.68287621252926
0
ELLIPSE
5
146
100
AcDbEntity
8
1
62
256
6
ByLayer
370
18
48
1
60
0
100
AcDbEllipse
10
21.274072
20
-1.892319
30
0
11
-6.38533595186903
21
1.96002207056204
31
0
210
0
220
0
230
1
40
0.598857
41
-3.09503020082645
42
-2.76055877727572
0
ELLIPSE
5
147
100
AcDbEntity
8
1
62
256
6
ByLayer
370
18
48
1
60
0
100
AcDbEllipse
10
38.222959
20
-11.028445
30
0
11
1.23312772246984
21
2.13583986753942
31
0
210
0
220
0
230
1
40
0.989133
41
-0.837913482376615
42
-0.836113817479753
0
ELLIPSE
5
148
100
AcDbEntity
8
1
62
256
6
ByLayer
370
18
48
1
60
0
100
AcDbEllipse
10
16.948929
20
0
30
0
11
-9.36741787978228
21
19.7417491527506
31
0
210
0
220
0
230
1
40
0.341999
41
0.152726244898342
42
1.09631952749988
0
ELLIPSE
5
149
100
AcDbEntity
8
1
62
256
6
ByLayer
370
18
48
1
60
0
100
AcDbEllipse
10
8.88879
20
0
30
0
11
-27.3399166273312
21
-6.31796755422271
31
0
210
0
220
0
230
1
40
0.694072
41
1.65924315196483
42
1.70810939927869
0
ELLIPSE
5
14A
100
AcDbEntity
8
1
62
256
6
ByLayer
370
18
48
1
60
0
100
AcDbEllipse
10
-0.948929
20
0
30
0
11
-9.36741787978243
21
19.7417491527508
31
0
210
0
220
0
230
1
40
0.341999
41
-2.98886640869145
42
-2.04527312608992
0
ELLIPSE
5
14B
100
AcDbEntity
8
1
62
256
6
ByLayer
370
18
48
1
60
0
100
AcDbEllipse
10
16.787398
20
6.493192
30
0
11
-0.011855323823871
21
4.79094329310738
31
0
210
0
220
0
230
1
40
0.082138
41
1.54067911374402
42
-2.3324656680398
0
ELLIPSE
5
14C
100
AcDbEntity
8
1
62
256
6
ByLayer
370
18
48
1
60
0
100
AcDbEllipse
10
39.287413
20
-11.643008
30
0
11
1.18448901896905
21
2.05159516186177
31
0
210
0
220
0
230
1
40
0.989133
41
-0.786190306996514
42
0.0279563292029953
0
POINT
5
6C
100
AcDbEntity
8
2
62
256
6
ByLayer
370
18
48
1
60
0
100
AcDbPoint
10
50
20
22
30
0
39
0
210
0
220
0
230
1
50
360
0
POINT
5
6E
100
AcDbEntity
8
80
62
256
6
ByLayer
370
18
48
1
60
0
100
AcDbPoint
10
0
20
0
30
0
39
0
210
0
220
0
230
1
50
360
0
POINT
5
70
100
AcDbEntity
8
81
62
256
6
ByLayer
370
18
48
1
60
0
100
AcDbPoint
10
50
20
-22
30
0
39
0
210
0
220
0
230
1
50
360
0
SPLINE
5
14D
100
AcDbEntity
8
SK1
62
256
6
ByLayer
370
18
48
1
60
0
100
AcDbSpline
70
4
71
2
72
6
73
3
40
0
40
0
40
0
40
1
40
1
40
1
41
1
10
-22.5
20
-13.493394380475
30
0
41
1
10
-12.099999999963
20
-13.7545958471854
30
0
41
1
10
-1.69999999999999
20
-14.0157970602974
30
0
0
SPLINE
5
14E
100
AcDbEntity
8
SK1
62
256
6
ByLayer
370
18
48
1
60
0
100
AcDbSpline
70
4
71
2
72
6
73
3
40
0
40
0
40
0
40
1
40
1
40
1
41
1
10
-1.69999999999999
20
14.0157977997179
30
0
41
1
10
-12.0999999999449
20
13.7545973909208
30
0
41
1
10
-22.5
20
13.4933966698402
30
0
0
SPLINE
5
14F
100
AcDbEntity
8
SK1
62
256
6
ByLayer
370
18
48
1
60
0
100
AcDbSpline
70
4
71
3
72
13
73
9
40
0
40
0
40
0
40
0
40
0.239457531297589
40
0.368361583423433
40
0.500001014483274
40
0.631640276582825
40
0.760543863002551
40
1
40
1
40
1
40
1
41
1
10
-1.49503997793928
20
13.8251858327438
30
0
41
1
10
-1.52111030874428
20
13.8247841935567
30
0
41
1
10
-1.5588406423667
20
13.830956449625
30
0
41
1
10
-1.60627712752267
20
13.8540002532836
30
0
41
1
10
-1.63886378681673
20
13.8791676243503
30
0
41
1
10
-1.66563592205637
20
13.9104491790265
30
0
41
1
10
-1.69103284110332
20
13.9566683539303
30
0
41
1
10
-1.6990919864528
20
13.9940409390257
30
0
41
1
10
-1.69999999999999
20
14.0200984156386
30
0
0
SPLINE
5
150
100
AcDbEntity
8
SK1
62
256
6
ByLayer
370
18
48
1
60
0
100
AcDbSpline
70
4
71
3
72
13
73
9
40
0
40
0
40
0
40
0
40
0.239456137017857
40
0.368359723444941
40
0.499998985547708
40
0.631638416605807
40
0.760542468725193
40
1
40
1
40
1
40
1
41
1
10
-1.69999999999999
20
-14.0200984122732
30
0
41
1
10
-1.69909198645308
20
-13.9940409356568
30
0
41
1
10
-1.69103284110358
20
-13.9566683505561
30
0
41
1
10
-1.66563592205674
20
-13.9104491756451
30
0
41
1
10
-1.63886378681727
20
-13.8791676209635
30
0
41
1
10
-1.6062771275233
20
-13.8540002498915
30
0
41
1
10
-1.5588406423679
20
-13.8309564462263
30
0
41
1
10
-1.52111030874491
20
-13.8247841901529
30
0
41
1
10
-1.49503997793931
20
-13.8251858293361
30
0
0
SPLINE
5
151
100
AcDbEntity
8
SK1
62
256
6
ByLayer
370
18
48
1
60
0
100
AcDbSpline
70
4
71
2
72
6
73
3
40
0
40
0
40
0
40
1
40
1
40
1
41
1
10
-22.5
20
13.4970856697526
30
0
41
1
10
-23.2499999989322
20
13.0640911753538
30
0
41
1
10
-24
20
12.6310964932104
30
0
0
SPLINE
5
152
100
AcDbEntity
8
SK1
62
256
6
ByLayer
370
18
48
1
60
0
100
AcDbSpline
70
4
71
2
72
6
73
3
40
0
40
0
40
0
40
1
40
1
40
1
41
1
10
-24
20
-12.6310961283886
30
0
41
1
10
-23.2499999989318
20
-13.0640908004416
30
0
41
1
10
-22.5
20
-13.4970852847173
30
0
0
SPLINE
5
153
100
AcDbEntity
8
SK1
62
256
6
ByLayer
370
18
48
1
60
0
100
AcDbSpline
70
4
71
2
72
6
73
3
40
0
40
0
40
0
40
1
40
1
40
1
41
1
10
-0.394976888875277
20
13.7403788260786
30
0
41
1
10
-0.945008433407281
20
13.7266599565288
30
0
41
1
10
-1.49503997793928
20
13.7129410868425
30
0
0
SPLINE
5
154
100
AcDbEntity
8
SK1
62
256
6
ByLayer
370
18
48
1
60
0
100
AcDbSpline
70
4
71
2
72
6
73
3
40
0
40
0
40
0
40
1
40
1
40
1
41
1
10
-1.49503997793931
20
-13.7129423752897
30
0
41
1
10
-0.945008433407281
20
-13.7266611372792
30
0
41
1
10
-0.394976888875306
20
-13.740379899128
30
0
0
SPLINE
5
155
100
AcDbEntity
8
1
62
256
6
ByLayer
370
18
48
1
60
0
100
AcDbSpline
70
4
71
3
72
10
73
6
40
0
40
0
40
0
40
0
40
0.496184326218747
40
0.496184326218747
40
1
40
1
40
1
40
1
41
1
10
21.6977561092729
20
-18.7225725346499
30
0
41
1
10
21.5044136710975
20
-18.6394368442619
30
0
41
1
10
21.3077763883396
20
-18.5406350516088
30
0
41
1
10
20.9154605109222
20
-18.3009556165389
30
0
41
1
10
20.7180815747583
20
-18.1576790729575
30
0
41
1
10
20.5336882149501
20
-17.9914198047214
30
0
0
SPLINE
5
156
100
AcDbEntity
8
SK1
62
256
6
ByLayer
370
18
48
1
60
0
100
AcDbSpline
70
4
71
3
72
22
73
18
40
0
40
0
40
0
40
0
40
0.0542788415511005
40
0.0542788415511005
40
0.109669437046172
40
0.109669437046172
40
0.147579660274609
40
0.147579660274609
40
0.185286337538548
40
0.185286337538548
40
0.247115732296965
40
0.247115732296965
40
0.369423792214773
40
0.369423792214773
40
0.802518637893203
40
0.802518637893203
40
1
40
1
40
1
40
1
41
1
10
-0.394976888875277
20
13.8446019297682
30
0
41
1
10
-0.389542940031561
20
13.8449158599001
30
0
41
1
10
-0.383617593481006
20
13.8454439659091
30
0
41
1
10
-0.370682577094897
20
13.8471856765741
30
0
41
1
10
-0.363425095790518
20
13.8484584409772
30
0
41
1
10
-0.350979043087193
20
13.8513238322133
30
0
41
1
10
-0.345738104843406
20
13.8527220431424
30
0
41
1
10
-0.335836036111374
20
13.8557300394867
30
0
41
1
10
-0.331061234651429
20
13.8573680363077
30
0
41
1
10
-0.319536857691617
20
13.8617043765564
30
0
41
1
10
-0.313226439154875
20
13.8644842406524
30
0
41
1
10
-0.296825865103983
20
13.8724174982475
30
0
41
1
10
-0.288454852011284
20
13.8774557840676
30
0
41
1
10
-0.256352537857253
20
13.8987262995108
30
0
41
1
10
-0.243999907013631
20
13.9124642192994
30
0
41
1
10
-0.229363924159344
20
13.9303243240481
30
0
41
1
10
-0.225387714743675
20
13.9356346474794
30
0
41
1
10
-0.221937450539571
20
13.9406885005317
30
0
0
SPLINE
5
157
100
AcDbEntity
8
SK1
62
256
6
ByLayer
370
18
48
1
60
0
100
AcDbSpline
70
4
71
3
72
24
73
20
40
0
40
0
40
0
40
0
40
0.0014544386990307
40
0.0014544386990307
40
0.361956423059763
40
0.361956423059763
40
0.727731599250153
40
0.727731599250153
40
0.782013304695256
40
0.782013304695256
40
0.837002501937606
40
0.837002501937606
40
0.873144196436362
40
0.873144196436362
40
0.90951190964776
40
0.90951190964776
40
0.952113857168639
40
0.952113857168639
40
1
40
1
40
1
40
1
41
1
10
-0.217773520819833
20
-13.9477771104646
30
0
41
1
10
-0.217796303830511
20
-13.9477385212396
30
0
41
1
10
-0.217819113763113
20
-13.9476999169831
30
0
41
1
10
-0.223510113646853
20
-13.9380759054837
30
0
41
1
10
-0.230869554015214
20
-13.9275300777214
30
0
41
1
10
-0.252993763945881
20
-13.9036085654018
30
0
41
1
10
-0.266169306055218
20
-13.8900912648142
30
0
41
1
10
-0.299313210098944
20
-13.8713678522793
30
0
41
1
10
-0.304168151080091
20
-13.8688119846588
30
0
41
1
10
-0.315233613826848
20
-13.8635902765912
30
0
41
1
10
-0.321588767727178
20
-13.8608655729355
30
0
41
1
10
-0.333434048045547
20
-13.8565368608439
30
0
41
1
10
-0.338587345813778
20
-13.8548370746726
30
0
41
1
10
-0.349158334685967
20
-13.8517865918864
30
0
41
1
10
-0.354704697438706
20
-13.8504050227189
30
0
41
1
10
-0.366193697521936
20
-13.847969712967
30
0
41
1
10
-0.37221373013341
20
-13.8469665678177
30
0
41
1
10
-0.383950527302631
20
-13.8454141457692
30
0
41
1
10
-0.389694590782
20
-13.8449066720063
30
0
41
1
10
-0.394976888882155
20
-13.8446015176357
30
0
0
SPLINE
5
158
100
AcDbEntity
8
1
62
256
6
ByLayer
370
18
48
1
60
0
100
AcDbSpline
70
4
71
3
72
8
73
4
40
0
40
0
40
0
40
0
40
1
40
1
40
1
40
1
41
1
10
17.0803645201175
20
3.18752084452387
30
0
41
1
10
17.111730478741
20
3.60109749853709
30
0
41
1
10
17.1768308352431
20
4.06912539726389
30
0
41
1
10
17.2360063786745
20
4.57036548891736
30
0
0
SPLINE
5
159
100
AcDbEntity
8
SK1
62
256
6
ByLayer
370
18
48
1
60
0
100
AcDbSpline
70
4
71
3
72
120
73
116
40
0
40
0
40
0
40
0
40
0.0053555999412032
40
0.0131272595881626
40
0.020898919235122
40
0.0286705788820814
40
0.0364422385290407
40
0.0442138981760001
40
0.0519855578229595
40
0.0597572174699189
40
0.0675288771168782
40
0.0753005367638376
40
0.083072196410797
40
0.0908438560577564
40
0.0986155157047157
40
0.106387175351675
40
0.114158834998634
40
0.121930494645594
40
0.129702154292553
40
0.137473813939513
40
0.145245473586472
40
0.153017133233431
40
0.160788792880391
40
0.176332112174309
40
0.191875431468228
40
0.207418750762147
40
0.222962070056066
40
0.230733729703025
40
0.238505389349984
40
0.246277048996944
40
0.254048708643903
40
0.269592027937822
40
0.285135347231741
40
0.2929070068787
40
0.30067866652566
40
0.308450326172619
40
0.316221985819578
40
0.323993645466538
40
0.331765305113497
40
0.347308624407416
40
0.355080284054375
40
0.362851943701335
40
0.378395262995253
40
0.393938582289172
40
0.401710241936131
40
0.409481901583091
40
0.425025220877009
40
0.432796880523969
40
0.436682710347448
40
0.440568540170928
40
0.448340199817888
40
0.456111859464847
40
0.471655178758766
40
0.479426838405725
40
0.487198498052685
40
0.494970157699644
40
0.502741817346603
40
0.510513476993563
40
0.518285136640522
40
0.526056796287481
40
0.533828455934441
40
0.5416001155814
40
0.549371775228359
40
0.564915094522278
40
0.572686754169238
40
0.580458413816197
40
0.588230073463156
40
0.592115903286636
40
0.596001733110116
40
0.603773392757075
40
0.611545052404034
40
0.619316712050994
40
0.627088371697953
40
0.634860031344913
40
0.642631690991872
40
0.658175010285791
40
0.673718329579709
40
0.681489989226669
40
0.689261648873628
40
0.704804968167547
40
0.712576627814506
40
0.720348287461466
40
0.728119947108425
40
0.735891606755384
40
0.743663266402344
40
0.751434926049303
40
0.759206585696263
40
0.766978245343222
40
0.782521564637141
40
0.7902932242841
40
0.798064883931059
40
0.805836543578019
40
0.813608203224978
40
0.821379862871938
40
0.829151522518897
40
0.844694841812816
40
0.852466501459775
40
0.860238161106734
40
0.868009820753694
40
0.875781480400653
40
0.891324799694572
40
0.899096459341531
40
0.906868118988491
40
0.91463977863545
40
0.922411438282409
40
0.930183097929369
40
0.937954757576328
40
0.945726417223288
40
0.953498076870247
40
0.961269736517206
40
0.969041396164166
40
0.976813055811125
40
0.984584715458084
40
0.992356375105044
40
1
40
1
40
1
40
1
41
1
10
-1.69999999999999
20
2.5837250319525
30
0
41
1
10
-1.69999999999999
20
2.62111400924692
30
0
41
1
10
-1.69999999999999
20
2.71257747842986
30
0
41
1
10
-1.69999999999999
20
2.85743848960826
30
0
41
1
10
-1.69999999999999
20
3.01805529196176
30
0
41
1
10
-1.69999999999999
20
3.17766896347746
30
0
41
1
10
-1.69999999999999
20
3.33626946559076
30
0
41
1
10
-1.69999999999999
20
3.49384788295134
30
0
41
1
10
-1.69999999999999
20
3.65039703338328
30
0
41
1
10
-1.69999999999999
20
3.80591068333541
30
0
41
1
10
-1.69999999999999
20
3.9603838288908
30
0
41
1
10
-1.69999999999999
20
4.11381118090259
30
0
41
1
10
-1.69999999999999
20
4.26618881241484
30
0
41
1
10
-1.69999999999999
20
4.41751369191317
30
0
41
1
10
-1.69999999999999
20
4.56778315161375
30
0
41
1
10
-1.69999999999999
20
4.7169946256985
30
0
41
1
10
-1.69999999999999
20
4.86514572624662
30
0
41
1
10
-1.69999999999999
20
5.01223421717728
30
0
41
1
10
-1.69999999999999
20
5.15825863689906
30
0
41
1
10
-1.69999999999999
20
5.30321731736851
30
0
41
1
10
-1.69999999999999
20
5.44710902267545
30
0
41
1
10
-1.69999999999999
20
5.58993219435266
30
0
41
1
10
-1.69999999999999
20
5.77892152593586
30
0
41
1
10
-1.69999999999999
20
6.01251450148573
30
0
41
1
10
-1.69999999999999
20
6.28851702131561
30
0
41
1
10
-1.69999999999999
20
6.56021849497901
30
0
41
1
10
-1.69999999999999
20
6.78305839594086
30
0
41
1
10
-1.69999999999999
20
6.95914718913937
30
0
41
1
10
-1.69999999999999
20
7.0901422748378
30
0
41
1
10
-1.69999999999999
20
7.22005471809891
30
0
41
1
10
-1.69999999999999
20
7.391814483107
30
0
41
1
10
-1.69999999999999
20
7.60382757721297
30
0
41
1
10
-1.69999999999999
20
7.81221412115067
30
0
41
1
10
-1.69999999999999
20
7.97672004102665
30
0
41
1
10
-1.69999999999999
20
8.09901466976936
30
0
41
1
10
-1.69999999999999
20
8.22021382021134
30
0
41
1
10
-1.69999999999999
20
8.34031608257325
30
0
41
1
10
-1.69999999999999
20
8.45931946186533
30
0
41
1
10
-1.69999999999999
20
8.61651163422607
30
0
41
1
10
-1.69999999999999
20
8.77152769372714
30
0
41
1
10
-1.69999999999999
20
8.92429762219672
30
0
41
1
10
-1.69999999999999
20
9.07558728630886
30
0
41
1
10
-1.69999999999999
20
9.26193699842017
30
0
41
1
10
-1.69999999999999
20
9.44455857133374
30
0
41
1
10
-1.69999999999999
20
9.5883900992504
30
0
41
1
10
-1.69999999999999
20
9.73071863089592
30
0
41
1
10
-1.69999999999999
20
9.87081045044334
30
0
41
1
10
-1.69999999999999
20
9.99138145148612
30
0
41
1
10
-1.69999999999999
20
10.059706595653
30
0
41
1
10
-1.69999999999999
20
10.127650582945
30
0
41
1
10
-1.69999999999999
20
10.2118742978003
30
0
41
1
10
-1.69999999999999
20
10.3450861597474
30
0
41
1
10
-1.69999999999999
20
10.4760157822056
30
0
41
1
10
-1.69999999999999
20
10.6046008653873
30
0
41
1
10
-1.69999999999999
20
10.6998796625668
30
0
41
1
10
-1.69999999999999
20
10.7939888545435
30
0
41
1
10
-1.69999999999999
20
10.8869237943964
30
0
41
1
10
-1.69999999999999
20
10.9786794570574
30
0
41
1
10
-1.69999999999999
20
11.069250952524
30
0
41
1
10
-1.69999999999999
20
11.1586337774266
30
0
41
1
10
-1.69999999999999
20
11.2468221981049
30
0
41
1
10
-1.69999999999999
20
11.3338110691597
30
0
41
1
10
-1.69999999999999
20
11.4481829097131
30
0
41
1
10
-1.69999999999999
20
11.5601529310588
30
0
41
1
10
-1.69999999999999
20
11.6696587897978
30
0
41
1
10
-1.69999999999999
20
11.7505641463283
30
0
41
1
10
-1.69999999999999
20
11.8169591619061
30
0
41
1
10
-1.69999999999999
20
11.869448828233
30
0
41
1
10
-1.69999999999999
20
11.9215236271769
30
0
41
1
10
-1.69999999999999
20
11.9858436943514
30
0
41
1
10
-1.69999999999999
20
12.0617686735772
30
0
41
1
10
-1.69999999999999
20
12.1364317035572
30
0
41
1
10
-1.69999999999999
20
12.2098248313331
30
0
41
1
10
-1.69999999999999
20
12.2819407102379
30
0
41
1
10
-1.69999999999999
20
12.3763763795169
30
0
41
1
10
-1.69999999999999
20
12.4912006631364
30
0
41
1
10
-1.69999999999999
20
12.6016599065257
30
0
41
1
10
-1.69999999999999
20
12.687362440577
30
0
41
1
10
-1.69999999999999
20
12.7712834981639
30
0
41
1
10
-1.69999999999999
20
12.8525264302737
30
0
41
1
10
-1.69999999999999
20
12.9310230820619
30
0
41
1
10
-1.69999999999999
20
12.9885221046098
30
0
41
1
10
-1.69999999999999
20
13.0446338377524
30
0
41
1
10
-1.69999999999999
20
13.0993474417035
30
0
41
1
10
-1.69999999999999
20
13.1526505331688
30
0
41
1
10
-1.69999999999999
20
13.2045321176789
30
0
41
1
10
-1.69999999999999
20
13.2549799687684
30
0
41
1
10
-1.69999999999999
20
13.3203101272292
30
0
41
1
10
-1.69999999999999
20
13.3827344481881
30
0
41
1
10
-1.69999999999999
20
13.4421723383994
30
0
41
1
10
-1.69999999999999
20
13.4852529409442
30
0
41
1
10
-1.69999999999999
20
13.5268172136993
30
0
41
1
10
-1.69999999999999
20
13.5668499598694
30
0
41
1
10
-1.69999999999999
20
13.6053356175566
30
0
41
1
10
-1.69999999999999
20
13.6545611570253
30
0
41
1
10
-1.69999999999999
20
13.7006353167884
30
0
41
1
10
-1.69999999999999
20
13.7434661079967
30
0
41
1
10
-1.69999999999999
20
13.7739560268625
30
0
41
1
10
-1.69999999999999
20
13.8027899277569
30
0
41
1
10
-1.69999999999999
20
13.8389980176944
30
0
41
1
10
-1.69999999999999
20
13.8718187984145
30
0
41
1
10
-1.69999999999999
20
13.9011479145568
30
0
41
1
10
-1.69999999999999
20
13.9213794981548
30
0
41
1
10
-1.69999999999999
20
13.9398197437578
30
0
41
1
10
-1.69999999999999
20
13.9564420504847
30
0
41
1
10
-1.69999999999999
20
13.9712195410175
30
0
41
1
10
-1.69999999999999
20
13.9841238377961
30
0
41
1
10
-1.69999999999999
20
13.9951249982352
30
0
41
1
10
-1.69999999999999
20
14.0041924220526
30
0
41
1
10
-1.69999999999999
20
14.0112932507837
30
0
41
1
10
-1.69999999999999
20
14.0163938901866
30
0
41
1
10
-1.69999999999999
20
14.019458382701
30
0
41
1
10
-1.69999999999999
20
14.0204497516689
30
0
41
1
10
-1.69999999999999
20
14.0193347368947
30
0
41
1
10
-1.69999999999999
20
14.0171811880069
30
0
41
1
10
-1.69999999999999
20
14.0157592854343
30
0
0
SPLINE
5
15A
100
AcDbEntity
8
SK1
62
256
6
ByLayer
370
18
48
1
60
0
100
AcDbSpline
70
4
71
3
72
118
73
114
40
0
40
0
40
0
40
0
40
0.007646163420082
40
0.0154178032193821
40
0.0231894430186823
40
0.0309610828179825
40
0.0387327226172826
40
0.0465043624165828
40
0.0542760022158829
40
0.0620476420151831
40
0.0698192818144832
40
0.0775909216137834
40
0.0931342012123837
40
0.108677480810984
40
0.124220760409584
40
0.131992400208885
40
0.139764040008185
40
0.147535679807485
40
0.155307319606785
40
0.170850599205385
40
0.178622239004685
40
0.186393878803986
40
0.194165518603286
40
0.201937158402586
40
0.209708798201886
40
0.217480438001186
40
0.233023717599787
40
0.240795357399087
40
0.248566997198387
40
0.256338636997687
40
0.264110276796987
40
0.271881916596287
40
0.279653556395587
40
0.287425196194888
40
0.295196835994188
40
0.310740115592788
40
0.318511755392088
40
0.326283395191388
40
0.341826674789989
40
0.357369954388589
40
0.365141594187889
40
0.372913233987189
40
0.38068487378649
40
0.38845651358579
40
0.39622815338509
40
0.40399979318439
40
0.40788561308404
40
0.41177143298369
40
0.41954307278299
40
0.42731471258229
40
0.435086352381591
40
0.450629631980191
40
0.458401271779491
40
0.466172911578791
40
0.473944551378091
40
0.481716191177392
40
0.489487830976692
40
0.497259470775992
40
0.505031110575292
40
0.512802750374592
40
0.520574390173893
40
0.528346029973192
40
0.543889309571793
40
0.551660949371093
40
0.559432589170393
40
0.563318409070043
40
0.567204228969693
40
0.574975868768994
40
0.590519148367594
40
0.598290788166894
40
0.606062427966194
40
0.621605707564795
40
0.637148987163395
40
0.644920626962695
40
0.652692266761995
40
0.668235546360595
40
0.676007186159896
40
0.683778825959196
40
0.691550465758496
40
0.699322105557796
40
0.707093745357096
40
0.714865385156396
40
0.730408664754997
40
0.745951944353597
40
0.753723584152897
40
0.761495223952197
40
0.769266863751498
40
0.777038503550798
40
0.792581783149398
40
0.808125062747998
40
0.823668342346599
40
0.839211621945199
40
0.846983261744499
40
0.854754901543799
40
0.862526541343099
40
0.8702981811424
40
0.8780698209417
40
0.885841460741
40
0.8936131005403
40
0.9013847403396
40
0.9091563801389
40
0.916928019938201
40
0.924699659737501
40
0.932471299536801
40
0.940242939336101
40
0.948014579135401
40
0.955786218934701
40
0.963557858734002
40
0.971329498533302
40
0.979101138332602
40
0.986872778131902
40
0.994644417931202
40
1
40
1
40
1
40
1
41
1
10
-1.69999999999999
20
-14.0157582214964
30
0
41
1
10
-1.69999999999996
20
-14.0171808699081
30
0
41
1
10
-1.69999999999996
20
-14.0193350222577
30
0
41
1
10
-1.69999999999999
20
-14.0204498319149
30
0
41
1
10
-1.69999999999999
20
-14.0194577493028
30
0
41
1
10
-1.69999999999999
20
-14.0163929237538
30
0
41
1
10
-1.69999999999999
20
-14.0112928179987
30
0
41
1
10
-1.69999999999999
20
-14.0041925984504
30
0
41
1
10
-1.69999999999999
20
-13.9951252442004
30
0
41
1
10
-1.69999999999999
20
-13.9841239086368
30
0
41
1
10
-1.69999999999999
20
-13.9712195253815
30
0
41
1
10
-1.69999999999999
20
-13.9515178138587
30
0
41
1
10
-1.69999999999999
20
-13.9222750232465
30
0
41
1
10
-1.69999999999999
20
-13.8800204120324
30
0
41
1
10
-1.69999999999999
20
-13.838998019961
30
0
41
1
10
-1.69999999999999
20
-13.8027899045868
30
0
41
1
10
-1.69999999999999
20
-13.773955994413
30
0
41
1
10
-1.69999999999999
20
-13.7434660879001
30
0
41
1
10
-1.69999999999999
20
-13.7006353174901
30
0
41
1
10
-1.69999999999999
20
-13.6545611373555
30
0
41
1
10
-1.69999999999999
20
-13.6053355893185
30
0
41
1
10
-1.69999999999999
20
-13.5668499361124
30
0
41
1
10
-1.69999999999999
20
-13.5268172028035
30
0
41
1
10
-1.69999999999999
20
-13.485252935173
30
0
41
1
10
-1.69999999999999
20
-13.4421723218484
30
0
41
1
10
-1.69999999999999
20
-13.3827344162836
30
0
41
1
10
-1.69999999999999
20
-13.3203101073726
30
0
41
1
10
-1.69999999999999
20
-13.254979960848
30
0
41
1
10
-1.69999999999999
20
-13.2045321061977
30
0
41
1
10
-1.69999999999999
20
-13.1526505121852
30
0
41
1
10
-1.69999999999999
20
-13.099347414251
30
0
41
1
10
-1.69999999999999
20
-13.0446338149516
30
0
41
1
10
-1.69999999999999
20
-12.9885220902628
30
0
41
1
10
-1.69999999999999
20
-12.9310230723471
30
0
41
1
10
-1.69999999999999
20
-12.8525264142953
30
0
41
1
10
-1.69999999999999
20
-12.7712834714132
30
0
41
1
10
-1.69999999999999
20
-12.6873624197502
30
0
41
1
10
-1.69999999999999
20
-12.6016598943421
30
0
41
1
10
-1.69999999999999
20
-12.4912006491746
30
0
41
1
10
-1.69999999999999
20
-12.3763763558488
30
0
41
1
10
-1.69999999999999
20
-12.2819406900945
30
0
41
1
10
-1.69999999999999
20
-12.209824815618
30
0
41
1
10
-1.69999999999999
20
-12.1364316894724
30
0
41
1
10
-1.69999999999999
20
-12.0617686582407
30
0
41
1
10
-1.69999999999999
20
-11.9858436758677
30
0
41
1
10
-1.69999999999999
20
-11.9215236068653
30
0
41
1
10
-1.69999999999999
20
-11.8694488081267
30
0
41
1
10
-1.69999999999999
20
-11.8169591426362
30
0
41
1
10
-1.69999999999999
20
-11.7505641289662
30
0
41
1
10
-1.69999999999999
20
-11.6696587742526
30
0
41
1
10
-1.69999999999999
20
-11.5601529159528
30
0
41
1
10
-1.69999999999999
20
-11.448182891669
30
0
41
1
10
-1.69999999999999
20
-11.3338110499831
30
0
41
1
10
-1.69999999999999
20
-11.2468221792499
30
0
41
1
10
-1.69999999999999
20
-11.1586337603462
30
0
41
1
10
-1.69999999999999
20
-11.0692509372408
30
0
41
1
10
-1.69999999999999
20
-10.9786794422307
30
0
41
1
10
-1.69999999999999
20
-10.8869237783616
30
0
41
1
10
-1.69999999999999
20
-10.7939888359847
30
0
41
1
10
-1.69999999999999
20
-10.6998796425436
30
0
41
1
10
-1.69999999999999
20
-10.6046008465563
30
0
41
1
10
-1.69999999999999
20
-10.4760157679139
30
0
41
1
10
-1.69999999999999
20
-10.3450861470912
30
0
41
1
10
-1.69999999999999
20
-10.2118742799613
30
0
41
1
10
-1.69999999999999
20
-10.1276505623382
30
0
41
1
10
-1.69999999999999
20
-10.0597065749413
30
0
41
1
10
-1.69999999999999
20
-9.9913814320609
30
0
41
1
10
-1.69999999999999
20
-9.87081043657869
30
0
41
1
10
-1.69999999999999
20
-9.73071862052217
30
0
41
1
10
-1.69999999999999
20
-9.58839008121353
30
0
41
1
10
-1.69999999999999
20
-9.44455854729449
30
0
41
1
10
-1.69999999999999
20
-9.26193698423123
30
0
41
1
10
-1.69999999999999
20
-9.07558727703642
30
0
41
1
10
-1.69999999999999
20
-8.92429760284435
30
0
41
1
10
-1.69999999999999
20
-8.77152766795061
30
0
41
1
10
-1.69999999999999
20
-8.61651162008161
30
0
41
1
10
-1.69999999999999
20
-8.45931945344486
30
0
41
1
10
-1.69999999999999
20
-8.34031606829598
30
0
41
1
10
-1.69999999999999
20
-8.22021379775831
30
0
41
1
10
-1.69999999999999
20
-8.09901464495698
30
0
41
1
10
-1.69999999999999
20
-7.9767200242907
30
0
41
1
10
-1.69999999999999
20
-7.81221411547432
30
0
41
1
10
-1.69999999999999
20
-7.60382755625838
30
0
41
1
10
-1.69999999999999
20
-7.39181445781463
30
0
41
1
10
-1.69999999999999
20
-7.22005470774221
30
0
41
1
10
-1.69999999999999
20
-7.09014226669851
30
0
41
1
10
-1.69999999999999
20
-6.95914717066265
30
0
41
1
10
-1.69999999999999
20
-6.7830583657493
30
0
41
1
10
-1.69999999999999
20
-6.56021848903171
30
0
41
1
10
-1.69999999999999
20
-6.28851700104784
30
0
41
1
10
-1.69999999999999
20
-6.01251447744062
30
0
41
1
10
-1.69999999999999
20
-5.77892152059965
30
0
41
1
10
-1.69999999999999
20
-5.58993216915877
30
0
41
1
10
-1.69999999999999
20
-5.44710899667646
30
0
41
1
10
-1.69999999999999
20
-5.30321729486519
30
0
41
1
10
-1.69999999999999
20
-5.15825857839869
30
0
41
1
10
-1.69999999999999
20
-5.01223405348068
30
0
41
1
10
-1.69999999999999
20
-4.86514556778678
30
0
41
1
10
-1.69999999999999
20
-4.71699468615466
30
0
41
1
10
-1.69999999999999
20
-4.56778337246482
30
0
41
1
10
-1.69999999999999
20
-4.41751381174834
30
0
41
1
10
-1.69999999999999
20
-4.26618872973953
30
0
41
1
10
-1.69999999999999
20
-4.11381092681606
30
0
41
1
10
-1.69999999999999
20
-3.96038358832212
30
0
41
1
10
-1.69999999999999
20
-3.80591077742719
30
0
41
1
10
-1.69999999999999
20
-3.65039714326571
30
0
41
1
10
-1.69999999999999
20
-3.49384789900151
30
0
41
1
10
-1.69999999999999
20
-3.33626943234705
30
0
41
1
10
-1.69999999999999
20
-3.17766893265431
30
0
41
1
10
-1.69999999999999
20
-3.01805527431182
30
0
41
1
10
-1.69999999999999
20
-2.85743846779499
30
0
41
1
10
-1.69999999999999
20
-2.71257747642741
30
0
41
1
10
-1.69999999999999
20
-2.62111404232408
30
0
41
1
10
-1.69999999999999
20
-2.58372509632827
30
0
0
SPLINE
5
15B
100
AcDbEntity
8
SK1
62
256
6
ByLayer
370
18
48
1
60
0
100
AcDbSpline
70
4
71
3
72
287
73
283
40
0
40
0
40
0
40
0
40
0.0011530191416009
40
0.004641462932902
40
0.008129906724203
40
0.0116183505155041
40
0.0151067943068052
40
0.0185952380981063
40
0.0220836818894074
40
0.0255721256807085
40
0.0290605694720095
40
0.0325490132633105
40
0.0395259008459127
40
0.0465027884285149
40
0.053479676011117
40
0.0569681198024181
40
0.0604565635937192
40
0.0639450073850202
40
0.0674334511763213
40
0.0744103387589235
40
0.0778987825502245
40
0.0813872263415256
40
0.0848756701328267
40
0.0883641139241277
40
0.0918525577154289
40
0.0953410015067299
40
0.102317889089332
40
0.105806332880633
40
0.109294776671934
40
0.112783220463235
40
0.116271664254536
40
0.119760108045837
40
0.123248551837138
40
0.12673699562844
40
0.130225439419741
40
0.137202327002343
40
0.140690770793644
40
0.144179214584945
40
0.151156102167547
40
0.158132989750149
40
0.16162143354145
40
0.165109877332751
40
0.168598321124053
40
0.172086764915353
40
0.175575208706654
40
0.179063652497956
40
0.180807874393606
40
0.182552096289257
40
0.186040540080558
40
0.189528983871859
40
0.19301742766316
40
0.199994315245762
40
0.203482759037063
40
0.206971202828364
40
0.210459646619665
40
0.213948090410966
40
0.217436534202267
40
0.220924977993569
40
0.22441342178487
40
0.227901865576171
40
0.231390309367472
40
0.234878753158773
40
0.241855640741375
40
0.245344084532676
40
0.248832528323977
40
0.250576750219628
40
0.252320972115278
40
0.255809415906579
40
0.262786303489181
40
0.266274747280482
40
0.269763191071784
40
0.276740078654386
40
0.283716966236988
40
0.287205410028289
40
0.29069385381959
40
0.297670741402192
40
0.301159185193493
40
0.304647628984794
40
0.308136072776095
40
0.311624516567396
40
0.315112960358698
40
0.318601404149999
40
0.325578291732601
40
0.332555179315203
40
0.336043623106504
40
0.339532066897805
40
0.343020510689106
40
0.346508954480407
40
0.353485842063009
40
0.360462729645611
40
0.367439617228214
40
0.374416504810816
40
0.377904948602117
40
0.381393392393418
40
0.384881836184719
40
0.38837027997602
40
0.391858723767321
40
0.395347167558622
40
0.398835611349923
40
0.402324055141224
40
0.405812498932526
40
0.409300942723827
40
0.412789386515128
40
0.416277830306429
40
0.41976627409773
40
0.423254717889031
40
0.426743161680332
40
0.430231605471633
40
0.433720049262934
40
0.437208493054235
40
0.440696936845536
40
0.444185380636837
40
0.447673824428138
40
0.449418046323789
40
0.451162268219439
40
0.45465071201074
40
0.456394933906391
40
0.458139155802042
40
0.459883377697692
40
0.461627599593343
40
0.463371821488993
40
0.465116043384644
40
0.466860265280294
40
0.468604487175945
40
0.472092930967246
40
0.473837152862896
40
0.475581374758547
40
0.477325596654197
40
0.479069818549848
40
0.480814040445499
40
0.482558262341149
40
0.4843024842368
40
0.48604670613245
40
0.487790928028101
40
0.489535149923751
40
0.491279371819402
40
0.493023593715052
40
0.494767815610703
40
0.496512037506353
40
0.498256259402004
40
0.500000481297654
40
0.501744703193305
40
0.503488925088955
40
0.505233146984606
40
0.506977368880257
40
0.508721590775907
40
0.510465812671558
40
0.512210034567208
40
0.513954256462859
40
0.515698478358509
40
0.51744270025416
40
0.51918692214981
40
0.520931144045461
40
0.522675365941111
40
0.524419587836762
40
0.526163809732413
40
0.527908031628063
40
0.531396475419364
40
0.533140697315015
40
0.534884919210665
40
0.536629141106316
40
0.538373363001966
40
0.540117584897617
40
0.541861806793267
40
0.543606028688918
40
0.545350250584568
40
0.54883869437587
40
0.55058291627152
40
0.55232713816717
40
0.555815581958472
40
0.559304025749773
40
0.562792469541074
40
0.566280913332375
40
0.569769357123676
40
0.573257800914977
40
0.576746244706278
40
0.580234688497579
40
0.58372313228888
40
0.587211576080181
40
0.590700019871482
40
0.594188463662783
40
0.597676907454084
40
0.601165351245386
40
0.604653795036687
40
0.608142238827988
40
0.611630682619289
40
0.61511912641059
40
0.618607570201891
40
0.622096013993192
40
0.625584457784493
40
0.632561345367095
40
0.639538232949697
40
0.646515120532299
40
0.653492008114902
40
0.656980451906203
40
0.660468895697504
40
0.663957339488805
40
0.667445783280106
40
0.674422670862708
40
0.68139955844531
40
0.684888002236611
40
0.688376446027912
40
0.691864889819213
40
0.695353333610514
40
0.698841777401815
40
0.702330221193117
40
0.709307108775719
40
0.71279555256702
40
0.716283996358321
40
0.723260883940923
40
0.730237771523525
40
0.733726215314826
40
0.737214659106127
40
0.74419154668873
40
0.747679990480031
40
0.749424212375681
40
0.751168434271332
40
0.754656878062633
40
0.758145321853934
40
0.765122209436536
40
0.768610653227837
40
0.772099097019138
40
0.775587540810439
40
0.77907598460174
40
0.782564428393041
40
0.786052872184342
40
0.789541315975643
40
0.793029759766944
40
0.796518203558246
40
0.800006647349547
40
0.806983534932149
40
0.81047197872345
40
0.813960422514751
40
0.817448866306052
40
0.819193088201703
40
0.820937310097353
40
0.824425753888654
40
0.827914197679955
40
0.831402641471256
40
0.834891085262557
40
0.838379529053858
40
0.841867972845159
40
0.848844860427762
40
0.855821748010364
40
0.859310191801665
40
0.862798635592966
40
0.869775523175568
40
0.873263966966869
40
0.87675241075817
40
0.880240854549472
40
0.883729298340772
40
0.887217742132074
40
0.890706185923374
40
0.894194629714676
40
0.897683073505977
40
0.904659961088579
40
0.90814840487988
40
0.911636848671181
40
0.915125292462482
40
0.918613736253783
40
0.922102180045084
40
0.925590623836385
40
0.932567511418988
40
0.936055955210289
40
0.93954439900159
40
0.943032842792891
40
0.946521286584192
40
0.953498174166794
40
0.956986617958095
40
0.960475061749396
40
0.963963505540697
40
0.967451949331998
40
0.970940393123299
40
0.9744288369146
40
0.977917280705901
40
0.981405724497203
40
0.984894168288504
40
0.988382612079805
40
0.991871055871106
40
0.995359499662407
40
0.998847943453708
40
1
40
1
40
1
40
1
41
1
10
-22.5
20
-13.4956358881589
30
0
41
1
10
-22.5
20
-13.4959444120355
30
0
41
1
10
-22.5
20
-13.4970336946241
30
0
41
1
10
-22.5
20
-13.4978716184631
30
0
41
1
10
-22.5
20
-13.4969161903089
30
0
41
1
10
-22.5
20
-13.4939625245411
30
0
41
1
10
-22.5
20
-13.4890441905268
30
0
41
1
10
-22.5
20
-13.4821928739338
30
0
41
1
10
-22.5
20
-13.4734382711797
30
0
41
1
10
-22.5
20
-13.4628104278487
30
0
41
1
10
-22.5
20
-13.4503375493538
30
0
41
1
10
-22.5
20
-13.4312436783152
30
0
41
1
10
-22.5
20
-13.402990048048
30
0
41
1
10
-22.5
20
-13.3620642251226
30
0
41
1
10
-22.5
20
-13.3223661774289
30
0
41
1
10
-22.5
20
-13.2871835761246
30
0
41
1
10
-22.5
20
-13.2592104836088
30
0
41
1
10
-22.5
20
-13.2296213566399
30
0
41
1
10
-22.5
20
-13.1879639126742
30
0
41
1
10
-22.5
20
-13.1433841284413
30
0
41
1
10
-22.5
20
-13.0954724183383
30
0
41
1
10
-22.5
20
-13.0580720783436
30
0
41
1
10
-22.5
20
-13.0191589474766
30
0
41
1
10
-22.5
20
-12.9787481075024
30
0
41
1
10
-22.5
20
-12.9368537004398
30
0
41
1
10
-22.5
20
-12.8789379874313
30
0
41
1
10
-22.5
20
-12.8184132188765
30
0
41
1
10
-22.5
20
-12.7547247883428
30
0
41
1
10
-22.5
20
-12.7056201369325
30
0
41
1
10
-22.5
20
-12.6551113810006
30
0
41
1
10
-22.5
20
-12.6032111684974
30
0
41
1
10
-22.5
20
-12.5499297998313
30
0
41
1
10
-22.5
20
-12.4952790326449
30
0
41
1
10
-22.5
20
-12.4392702770472
30
0
41
1
10
-22.5
20
-12.3626709718699
30
0
41
1
10
-22.5
20
-12.2837700633604
30
0
41
1
10
-22.5
20
-12.2018541666219
30
0
41
1
10
-22.5
20
-12.1181901660327
30
0
41
1
10
-22.5
20
-12.0106580823312
30
0
41
1
10
-22.5
20
-11.8988607853737
30
0
41
1
10
-22.5
20
-11.8066390784571
30
0
41
1
10
-22.5
20
-11.7363216027856
30
0
41
1
10
-22.5
20
-11.6647550005754
30
0
41
1
10
-22.5
20
-11.59194615036
30
0
41
1
10
-22.5
20
-11.5179033392113
30
0
41
1
10
-22.5
20
-11.4552554262223
30
0
41
1
10
-22.5
20
-11.4043880916922
30
0
41
1
10
-22.5
20
-11.3531143221947
30
0
41
1
10
-22.5
20
-11.2884404549429
30
0
41
1
10
-22.5
20
-11.2095312020911
30
0
41
1
10
-22.5
20
-11.1025558247745
30
0
41
1
10
-22.5
20
-10.9936883814227
30
0
41
1
10
-22.5
20
-10.881957392112
30
0
41
1
10
-22.5
20
-10.7971107518715
30
0
41
1
10
-22.5
20
-10.7110949831286
30
0
41
1
10
-22.5
20
-10.6239149454148
30
0
41
1
10
-22.5
20
-10.5355769819029
30
0
41
1
10
-22.5
20
-10.4460865275718
30
0
41
1
10
-22.5
20
-10.3554481215356
30
0
41
1
10
-22.5
20
-10.2636670923514
30
0
41
1
10
-22.5
20
-10.1707494549495
30
0
41
1
10
-22.5
20
-10.0451570413025
30
0
41
1
10
-22.5
20
-9.9178935930201
30
0
41
1
10
-22.5
20
-9.78780083934149
30
0
41
1
10
-22.5
20
-9.70579078784201
30
0
41
1
10
-22.5
20
-9.63944489130401
30
0
41
1
10
-22.5
20
-9.57273011219269
30
0
41
1
10
-22.5
20
-9.45508832781687
30
0
41
1
10
-22.5
20
-9.31898450356377
30
0
41
1
10
-22.5
20
-9.18004983919923
30
0
41
1
10
-22.5
20
-9.03966368952015
30
0
41
1
10
-22.5
20
-8.86197296792949
30
0
41
1
10
-22.5
20
-8.68069429175793
30
0
41
1
10
-22.5
20
-8.53310893756458
30
0
41
1
10
-22.5
20
-8.38410353449396
30
0
41
1
10
-22.5
20
-8.23370690743869
30
0
41
1
10
-22.5
20
-8.08045168982594
30
0
41
1
10
-22.5
20
-7.96465014223952
30
0
41
1
10
-22.5
20
-7.84779993569691
30
0
41
1
10
-22.5
20
-7.72990617143802
30
0
41
1
10
-22.5
20
-7.61097083499584
30
0
41
1
10
-22.5
20
-7.45073654157579
30
0
41
1
10
-22.5
20
-7.24848505186407
30
0
41
1
10
-22.5
20
-7.04280518235291
30
0
41
1
10
-22.5
20
-6.87569112826711
30
0
41
1
10
-22.5
20
-6.74956632065386
30
0
41
1
10
-22.5
20
-6.62242827644155
30
0
41
1
10
-22.5
20
-6.45125553312127
30
0
41
1
10
-22.5
20
-6.23550102644131
30
0
41
1
10
-22.5
20
-5.97220551217549
30
0
41
1
10
-22.5
20
-5.70495651005669
30
0
41
1
10
-22.5
20
-5.47933703035866
30
0
41
1
10
-22.5
20
-5.29623480232564
30
0
41
1
10
-22.5
20
-5.15823567759486
30
0
41
1
10
-22.5
20
-5.01927995326392
30
0
41
1
10
-22.5
20
-4.87937450907222
30
0
41
1
10
-22.5
20
-4.73852599905976
30
0
41
1
10
-22.5
20
-4.59674211262629
30
0
41
1
10
-22.5
20
-4.45403157575558
30
0
41
1
10
-22.5
20
-4.31040309161111
30
0
41
1
10
-22.5
20
-4.16586580001649
30
0
41
1
10
-22.5
20
-4.02043049501106
30
0
41
1
10
-22.5
20
-3.87410976932693
30
0
41
1
10
-22.5
20
-3.72691565105669
30
0
41
1
10
-22.5
20
-3.57886126909131
30
0
41
1
10
-22.5
20
-3.4299627769704
30
0
41
1
10
-22.5
20
-3.28023687778401
30
0
41
1
10
-22.5
20
-3.12970257053468
30
0
41
1
10
-22.5
20
-2.97838003358396
30
0
41
1
10
-22.5
20
-2.8262921676581
30
0
41
1
10
-22.5
20
-2.67346525953189
30
0
41
1
10
-22.5
20
-2.51992549648591
30
0
41
1
10
-22.5
20
-2.39172828921559
30
0
41
1
10
-22.5
20
-2.2882368400623
30
0
41
1
10
-22.5
20
-2.18454587114542
30
0
41
1
10
-22.5
20
-2.08161602870015
30
0
41
1
10
-22.5
20
-1.97729727415896
30
0
41
1
10
-22.5
20
-1.89920682890116
30
0
41
1
10
-22.5
20
-1.82098464012651
30
0
41
1
10
-22.5
20
-1.74263823347056
30
0
41
1
10
-22.5
20
-1.66417084854152
30
0
41
1
10
-22.5
20
-1.58559123041411
30
0
41
1
10
-22.5
20
-1.50690426712365
30
0
41
1
10
-22.5
20
-1.40144074045128
30
0
41
1
10
-22.5
20
-1.29707563275716
30
0
41
1
10
-22.5
20
-1.19121858421377
30
0
41
1
10
-22.5
20
-1.11209553564783
30
0
41
1
10
-22.5
20
-1.03290644237791
30
0
41
1
10
-22.5
20
-0.95365606681014
30
0
41
1
10
-22.5
20
-0.874352168955852
30
0
41
1
10
-22.5
20
-0.795000198505278
30
0
41
1
10
-22.5
20
-0.71560660892132
30
0
41
1
10
-22.5
20
-0.63617666680787
30
0
41
1
10
-22.5
20
-0.556715993884097
30
0
41
1
10
-22.5
20
-0.477229338262958
30
0
41
1
10
-22.5
20
-0.397721593521055
30
0
41
1
10
-22.5
20
-0.318196568076161
30
0
41
1
10
-22.5
20
-0.238658582119825
30
0
41
1
10
-22.5
20
-0.159110826532412
30
0
41
1
10
-22.5
20
-0.0795570008675952
30
0
41
1
10
-22.5
20
4.3520458E-09
30
0
41
1
10
-22.5
20
0.0795570195282949
30
0
41
1
10
-22.5
20
0.159110863620981
30
0
41
1
10
-22.5
20
0.238658616598514
30
0
41
1
10
-22.5
20
0.318196574925025
30
0
41
1
10
-22.5
20
0.397721596430074
30
0
41
1
10
-22.5
20
0.477229377934975
30
0
41
1
10
-22.5
20
0.556716044364009
30
0
41
1
10
-22.5
20
0.63617667254502
30
0
41
1
10
-22.5
20
0.715606595157226
30
0
41
1
10
-22.5
20
0.795000235128668
30
0
41
1
10
-22.5
20
0.874352236673616
30
0
41
1
10
-22.5
20
0.953656082911976
30
0
41
1
10
-22.5
20
1.03290641330761
30
0
41
1
10
-22.5
20
1.11209555133374
30
0
41
1
10
-22.5
20
1.19121866112906
30
0
41
1
10
-22.5
20
1.29707565327635
30
0
41
1
10
-22.5
20
1.40144071039387
30
0
41
1
10
-22.5
20
1.50690430877853
30
0
41
1
10
-22.5
20
1.58559131690836
30
0
41
1
10
-22.5
20
1.66417088377818
30
0
41
1
10
-22.5
20
1.74263820265685
30
0
41
1
10
-22.5
20
1.82098461234611
30
0
41
1
10
-22.5
20
1.89920687090043
30
0
41
1
10
-22.5
20
1.97729736527978
30
0
41
1
10
-22.5
20
2.08161605220536
30
0
41
1
10
-22.5
20
2.18454583019772
30
0
41
1
10
-22.5
20
2.28823685042079
30
0
41
1
10
-22.5
20
2.39172837491469
30
0
41
1
10
-22.5
20
2.51992552331163
30
0
41
1
10
-22.5
20
2.67346522993279
30
0
41
1
10
-22.5
20
2.82629223006825
30
0
41
1
10
-22.5
20
2.9783800820847
30
0
41
1
10
-22.5
20
3.12970236953149
30
0
41
1
10
-22.5
20
3.2802363758513
30
0
41
1
10
-22.5
20
3.42996282061054
30
0
41
1
10
-22.5
20
3.57886234252629
30
0
41
1
10
-22.5
20
3.72691655621918
30
0
41
1
10
-22.5
20
3.87410940415094
30
0
41
1
10
-22.5
20
4.02042950258553
30
0
41
1
10
-22.5
20
4.1658649918152
30
0
41
1
10
-22.5
20
4.31040320562684
30
0
41
1
10
-22.5
20
4.45403251641869
30
0
41
1
10
-22.5
20
4.59674271442694
30
0
41
1
10
-22.5
20
4.73852585442467
30
0
41
1
10
-22.5
20
4.87937424460151
30
0
41
1
10
-22.5
20
5.01927991936705
30
0
41
1
10
-22.5
20
5.15823571506778
30
0
41
1
10
-22.5
20
5.29623478947158
30
0
41
1
10
-22.5
20
5.47933703089231
30
0
41
1
10
-22.5
20
5.70495655337433
30
0
41
1
10
-22.5
20
5.97220551419213
30
0
41
1
10
-22.5
20
6.23550104742762
30
0
41
1
10
-22.5
20
6.451255571394
30
0
41
1
10
-22.5
20
6.6224282598192
30
0
41
1
10
-22.5
20
6.74956631857708
30
0
41
1
10
-22.5
20
6.87569116366487
30
0
41
1
10
-22.5
20
7.04280522024894
30
0
41
1
10
-22.5
20
7.24848505302427
30
0
41
1
10
-22.5
20
7.4507365478344
30
0
41
1
10
-22.5
20
7.6109708771202
30
0
41
1
10
-22.5
20
7.72990620240671
30
0
41
1
10
-22.5
20
7.84779994085653
30
0
41
1
10
-22.5
20
7.96465013686171
30
0
41
1
10
-22.5
20
8.08045169790759
30
0
41
1
10
-22.5
20
8.23370694014301
30
0
41
1
10
-22.5
20
8.38410356414289
30
0
41
1
10
-22.5
20
8.53310893988203
30
0
41
1
10
-22.5
20
8.68069429599308
30
0
41
1
10
-22.5
20
8.8619729936481
30
0
41
1
10
-22.5
20
9.0396637144479
30
0
41
1
10
-22.5
20
9.18004984465043
30
0
41
1
10
-22.5
20
9.31898451102214
30
0
41
1
10
-22.5
20
9.45508835059124
30
0
41
1
10
-22.5
20
9.57273013875857
30
0
41
1
10
-22.5
20
9.63944491324963
30
0
41
1
10
-22.5
20
9.7057908040384
30
0
41
1
10
-22.5
20
9.7878008492857
30
0
41
1
10
-22.5
20
9.91789360326428
30
0
41
1
10
-22.5
20
10.0451570606616
30
0
41
1
10
-22.5
20
10.1707494782419
30
0
41
1
10
-22.5
20
10.2636671117607
30
0
41
1
10
-22.5
20
10.3554481360506
30
0
41
1
10
-22.5
20
10.4460865401309
30
0
41
1
10
-22.5
20
10.5355769962349
30
0
41
1
10
-22.5
20
10.6239149629423
30
0
41
1
10
-22.5
20
10.7110950034658
30
0
41
1
10
-22.5
20
10.7971107724731
30
0
41
1
10
-22.5
20
10.881957410682
30
0
41
1
10
-22.5
20
10.9936883968037
30
0
41
1
10
-22.5
20
11.1025558384385
30
0
41
1
10
-22.5
20
11.2095312195267
30
0
41
1
10
-22.5
20
11.2884404756242
30
0
41
1
10
-22.5
20
11.3531143441571
30
0
41
1
10
-22.5
20
11.4043881128182
30
0
41
1
10
-22.5
20
11.4552554448703
30
0
41
1
10
-22.5
20
11.5179033535968
30
0
41
1
10
-22.5
20
11.5919461625789
30
0
41
1
10
-22.5
20
11.664755015164
30
0
41
1
10
-22.5
20
11.7363216229303
30
0
41
1
10
-22.5
20
11.8066391033683
30
0
41
1
10
-22.5
20
11.8988608066557
30
0
41
1
10
-22.5
20
12.0106580919609
30
0
41
1
10
-22.5
20
12.1181901818312
30
0
41
1
10
-22.5
20
12.2018541939414
30
0
41
1
10
-22.5
20
12.2837700876339
30
0
41
1
10
-22.5
20
12.3626709807027
30
0
41
1
10
-22.5
20
12.4392702870471
30
0
41
1
10
-22.5
20
12.4952790541085
30
0
41
1
10
-22.5
20
12.5499298292215
30
0
41
1
10
-22.5
20
12.6032111946844
30
0
41
1
10
-22.5
20
12.6551113940766
30
0
41
1
10
-22.5
20
12.7056201424592
30
0
41
1
10
-22.5
20
12.7547247990428
30
0
41
1
10
-22.5
20
12.8184132466048
30
0
41
1
10
-22.5
20
12.8789380178894
30
0
41
1
10
-22.5
20
12.9368537080862
30
0
41
1
10
-22.5
20
12.9787481114295
30
0
41
1
10
-22.5
20
13.0191589652135
30
0
41
1
10
-22.5
20
13.0580721081213
30
0
41
1
10
-22.5
20
13.0954724456838
30
0
41
1
10
-22.5
20
13.143384141029
30
0
41
1
10
-22.5
20
13.1879639125281
30
0
41
1
10
-22.5
20
13.2296213845592
30
0
41
1
10
-22.5
20
13.2592105165633
30
0
41
1
10
-22.5
20
13.2871835921006
30
0
41
1
10
-22.5
20
13.3223661764574
30
0
41
1
10
-22.5
20
13.3540536969874
30
0
41
1
10
-22.5
20
13.3825245595672
30
0
41
1
10
-22.5
20
13.4021158939438
30
0
41
1
10
-22.5
20
13.4199649415155
30
0
41
1
10
-22.5
20
13.4360470510206
30
0
41
1
10
-22.5
20
13.4503375548199
30
0
41
1
10
-22.5
20
13.4628103286331
30
0
41
1
10
-22.5
20
13.4734380181859
30
0
41
1
10
-22.5
20
13.4821927509398
30
0
41
1
10
-22.5
20
13.4890446841776
30
0
41
1
10
-22.5
20
13.4939634903146
30
0
41
1
10
-22.5
20
13.4969168014739
30
0
41
1
10
-22.5
20
13.4978715423881
30
0
41
1
10
-22.5
20
13.4970334655281
30
0
41
1
10
-22.5
20
13.4959444887333
30
0
41
1
10
-22.5
20
13.49563627904
30
0
0
SPLINE
5
15C
100
AcDbEntity
8
SK1
62
256
6
ByLayer
370
18
48
1
60
0
100
AcDbSpline
70
4
71
3
72
119
73
115
40
0
40
0
40
0
40
0
40
0.0017654123336939
40
0.0096870351881259
40
0.0176086580425579
40
0.0255302808969898
40
0.0334519037514218
40
0.0413735266058538
40
0.0492951494602858
40
0.0572167723147178
40
0.0651383951691497
40
0.0730600180235817
40
0.0809816408780137
40
0.0889032637324457
40
0.0968248865868776
40
0.10474650944131
40
0.112668132295742
40
0.120589755150174
40
0.128511378004605
40
0.136433000859038
40
0.144354623713469
40
0.152276246567902
40
0.160197869422333
40
0.176041115131197
40
0.191884360840061
40
0.207727606548925
40
0.223570852257789
40
0.231492475112221
40
0.239414097966653
40
0.247335720821085
40
0.255257343675517
40
0.271100589384381
40
0.286943835093245
40
0.294865457947677
40
0.302787080802109
40
0.310708703656541
40
0.318630326510973
40
0.326551949365405
40
0.334473572219837
40
0.350316817928701
40
0.358238440783133
40
0.366160063637565
40
0.382003309346429
40
0.397846555055293
40
0.405768177909725
40
0.413689800764157
40
0.429533046473021
40
0.437454669327453
40
0.441415480754669
40
0.445376292181885
40
0.453297915036317
40
0.461219537890749
40
0.477062783599613
40
0.484984406454045
40
0.492906029308476
40
0.500827652162908
40
0.50874927501734
40
0.516670897871772
40
0.524592520726204
40
0.532514143580636
40
0.540435766435068
40
0.5483573892895
40
0.556279012143932
40
0.572122257852796
40
0.580043880707228
40
0.58796550356166
40
0.595887126416092
40
0.599847937843308
40
0.603808749270524
40
0.611730372124956
40
0.619651994979388
40
0.62757361783382
40
0.635495240688252
40
0.643416863542684
40
0.651338486397116
40
0.66718173210598
40
0.683024977814844
40
0.690946600669276
40
0.698868223523708
40
0.714711469232572
40
0.722633092087004
40
0.730554714941436
40
0.738476337795868
40
0.7463979606503
40
0.754319583504732
40
0.762241206359164
40
0.770162829213596
40
0.778084452068028
40
0.793927697776892
40
0.801849320631324
40
0.809770943485756
40
0.817692566340188
40
0.825614189194619
40
0.833535812049051
40
0.841457434903484
40
0.857300680612347
40
0.865222303466779
40
0.873143926321211
40
0.881065549175643
40
0.888987172030075
40
0.904830417738939
40
0.912752040593371
40
0.920673663447803
40
0.928595286302235
40
0.936516909156667
40
0.944438532011099
40
0.952360154865531
40
0.960281777719963
40
0.968203400574395
40
0.976125023428827
40
0.984046646283259
40
0.991968269137691
40
0.999889891992123
40
1
40
1
40
1
40
1
41
1
10
-1.49503997793928
20
2.59465115086957
30
0
41
1
10
-1.49503997793928
20
2.60647324344197
30
0
41
1
10
-1.49503997793928
20
2.67130382016646
30
0
41
1
10
-1.49503997793928
20
2.78881794693001
30
0
41
1
10
-1.49503997793928
20
2.94652921585708
30
0
41
1
10
-1.49503997793928
20
3.10333581737226
30
0
41
1
10
-1.49503997793928
20
3.25922160409144
30
0
41
1
10
-1.49503997793928
20
3.4141725129254
30
0
41
1
10
-1.49503997793928
20
3.56817684914566
30
0
41
1
10
-1.49503997793928
20
3.72122348266291
30
0
41
1
10
-1.49503997793928
20
3.87330241838259
30
0
41
1
10
-1.49503997793928
20
4.02440435063471
30
0
41
1
10
-1.49503997793928
20
4.17452257114442
30
0
41
1
10
-1.49503997793928
20
4.32365075555245
30
0
41
1
10
-1.49503997793928
20
4.47178250674139
30
0
41
1
10
-1.49503997793928
20
4.61891187892093
30
0
41
1
10
-1.49503997793928
20
4.7650335666859
30
0
41
1
10
-1.49503997793928
20
4.91014320448997
30
0
41
1
10
-1.49503997793928
20
5.05423700692032
30
0
41
1
10
-1.49503997793928
20
5.19731095699922
30
0
41
1
10
-1.49503997793928
20
5.33936160781602
30
0
41
1
10
-1.49503997793928
20
5.48038543010182
30
0
41
1
10
-1.49503997793928
20
5.66717892451575
30
0
41
1
10
-1.49503997793928
20
5.89779786635279
30
0
41
1
10
-1.49503997793928
20
6.17053537924178
30
0
41
1
10
-1.49503997793928
20
6.43910150489376
30
0
41
1
10
-1.49503997793928
20
6.65929861735816
30
0
41
1
10
-1.49503997793928
20
6.83355374310952
30
0
41
1
10
-1.49503997793928
20
6.96311018885424
30
0
41
1
10
-1.49503997793928
20
7.09160988853208
30
0
41
1
10
-1.49503997793928
20
7.26163684175143
30
0
41
1
10
-1.49503997793928
20
7.47128768043942
30
0
41
1
10
-1.49503997793928
20
7.67738590051292
30
0
41
1
10
-1.49503997793928
20
7.84029855153605
30
0
41
1
10
-1.49503997793928
20
7.96134018717205
30
0
41
1
10
-1.49503997793928
20
8.08130644558901
30
0
41
1
10
-1.49503997793928
20
8.2001957134178
30
0
41
1
10
-1.49503997793928
20
8.31800484031689
30
0
41
1
10
-1.49503997793928
20
8.47372856948019
30
0
41
1
10
-1.49503997793928
20
8.62702161678089
30
0
41
1
10
-1.49503997793928
20
8.7783873974316
30
0
41
1
10
-1.49503997793928
20
8.92829538452324
30
0
41
1
10
-1.49503997793928
20
9.11275364912453
30
0
41
1
10
-1.49503997793928
20
9.2935360539519
30
0
41
1
10
-1.49503997793928
20
9.43608247629777
30
0
41
1
10
-1.49503997793928
20
9.57714512355727
30
0
41
1
10
-1.49503997793928
20
9.71574945872365
30
0
41
1
10
-1.49503997793928
20
9.835227886979
30
0
41
1
10
-1.49503997793928
20
9.90295237623948
30
0
41
1
10
-1.49503997793928
20
9.97030028641953
30
0
41
1
10
-1.49503997793928
20
10.0536983203575
30
0
41
1
10
-1.49503997793928
20
10.1857467801784
30
0
41
1
10
-1.49503997793928
20
10.3153089526253
30
0
41
1
10
-1.49503997793928
20
10.4427777956644
30
0
41
1
10
-1.49503997793928
20
10.537175897834
30
0
41
1
10
-1.49503997793928
20
10.630416702033
30
0
41
1
10
-1.49503997793928
20
10.7224950525573
30
0
41
1
10
-1.49503997793928
20
10.8134058114344
30
0
41
1
10
-1.49503997793928
20
10.9031442186804
30
0
41
1
10
-1.49503997793928
20
10.9917054227684
30
0
41
1
10
-1.49503997793928
20
11.0790834618892
30
0
41
1
10
-1.49503997793928
20
11.165273297363
30
0
41
1
10
-1.49503997793928
20
11.2786601205037
30
0
41
1
10
-1.49503997793928
20
11.3894729046301
30
0
41
1
10
-1.49503997793928
20
11.4980349156059
30
0
41
1
10
-1.49503997793928
20
11.5781957427673
30
0
41
1
10
-1.49503997793928
20
11.6439487843731
30
0
41
1
10
-1.49503997793928
20
11.6959849306732
30
0
41
1
10
-1.49503997793928
20
11.747609354201
30
0
41
1
10
-1.49503997793928
20
11.8113057197552
30
0
41
1
10
-1.49503997793928
20
11.886528664654
30
0
41
1
10
-1.49503997793928
20
11.960500101414
30
0
41
1
10
-1.49503997793928
20
12.0332119519516
30
0
41
1
10
-1.49503997793928
20
12.1046570427268
30
0
41
1
10
-1.49503997793928
20
12.1982669205398
30
0
41
1
10
-1.49503997793928
20
12.3119621581916
30
0
41
1
10
-1.49503997793928
20
12.4213295969168
30
0
41
1
10
-1.49503997793928
20
12.5062717787185
30
0
41
1
10
-1.49503997793928
20
12.5894449263383
30
0
41
1
10
-1.49503997793928
20
12.6698142967672
30
0
41
1
10
-1.49503997793928
20
12.7476032540011
30
0
41
1
10
-1.49503997793928
20
12.8045464232669
30
0
41
1
10
-1.49503997793928
20
12.8601132308426
30
0
41
1
10
-1.49503997793928
20
12.9142926213842
30
0
41
1
10
-1.49503997793928
20
12.9670724454163
30
0
41
1
10
-1.49503997793928
20
13.0184419731185
30
0
41
1
10
-1.49503997793928
20
13.0683888234861
30
0
41
1
10
-1.49503997793928
20
13.133106637017
30
0
41
1
10
-1.49503997793928
20
13.1948224412614
30
0
41
1
10
-1.49503997793928
20
13.2536925631392
30
0
41
1
10
-1.49503997793928
20
13.296330722945
30
0
41
1
10
-1.49503997793928
20
13.3374647797226
30
0
41
1
10
-1.49503997793928
20
13.3770799229021
30
0
41
1
10
-1.49503997793928
20
13.4151607649325
30
0
41
1
10
-1.49503997793928
20
13.4638962511352
30
0
41
1
10
-1.49503997793928
20
13.5094130161235
30
0
41
1
10
-1.49503997793928
20
13.551806168738
30
0
41
1
10
-1.49503997793928
20
13.5819601013665
30
0
41
1
10
-1.49503997793928
20
13.6104729213425
30
0
41
1
10
-1.49503997793928
20
13.646298505966
30
0
41
1
10
-1.49503997793928
20
13.6786965897716
30
0
41
1
10
-1.49503997793928
20
13.7077055842542
30
0
41
1
10
-1.49503997793928
20
13.7276983600542
30
0
41
1
10
-1.49503997793928
20
13.7459180935577
30
0
41
1
10
-1.49503997793928
20
13.7623389110759
30
0
41
1
10
-1.49503997793928
20
13.7769347594832
30
0
41
1
10
-1.49503997793928
20
13.7896781016746
30
0
41
1
10
-1.49503997793928
20
13.800539960484
30
0
41
1
10
-1.49503997793928
20
13.8094907530557
30
0
41
1
10
-1.49503997793928
20
13.8164987457743
30
0
41
1
10
-1.49503997793928
20
13.821531562835
30
0
41
1
10
-1.49503997793928
20
13.8245545856003
30
0
41
1
10
-1.49503997793926
20
13.8252109202039
30
0
41
1
10
-1.49503997793931
20
13.8251847302004
30
0
41
1
10
-1.49503997793931
20
13.8251837301004
30
0
0
SPLINE
5
15D
100
AcDbEntity
8
SK1
62
256
6
ByLayer
370
18
48
1
60
0
100
AcDbSpline
70
4
71
3
72
117
73
113
40
0
40
0
40
0
40
0
40
0.0001127164106258
40
0.008034318616046
40
0.0159559208214663
40
0.0238775230268866
40
0.0317991252323069
40
0.0397207274377271
40
0.0476423296431474
40
0.0555639318485677
40
0.0634855340539879
40
0.0793287384648285
40
0.095171942875669
40
0.11101514728651
40
0.11893674949193
40
0.12685835169735
40
0.13477995390277
40
0.142701556108191
40
0.158544760519031
40
0.166466362724452
40
0.174387964929872
40
0.182309567135292
40
0.190231169340712
40
0.198152771546133
40
0.206074373751553
40
0.221917578162393
40
0.229839180367814
40
0.237760782573234
40
0.245682384778654
40
0.253603986984074
40
0.261525589189495
40
0.269447191394915
40
0.277368793600335
40
0.285290395805755
40
0.301133600216596
40
0.309055202422017
40
0.316976804627437
40
0.332820009038277
40
0.348663213449118
40
0.356584815654538
40
0.364506417859958
40
0.372428020065379
40
0.380349622270799
40
0.388271224476219
40
0.39619282668164
40
0.400153627784349
40
0.40411442888706
40
0.41203603109248
40
0.4199576332979
40
0.427879235503321
40
0.443722439914161
40
0.451644042119581
40
0.459565644325002
40
0.467487246530422
40
0.475408848735842
40
0.483330450941262
40
0.491252053146683
40
0.499173655352103
40
0.507095257557523
40
0.515016859762944
40
0.522938461968364
40
0.538781666379204
40
0.546703268584625
40
0.554624870790045
40
0.558585671892755
40
0.562546472995465
40
0.570468075200885
40
0.586311279611726
40
0.594232881817146
40
0.602154484022567
40
0.617997688433407
40
0.633840892844248
40
0.641762495049668
40
0.649684097255088
40
0.665527301665929
40
0.673448903871349
40
0.681370506076769
40
0.68929210828219
40
0.69721371048761
40
0.70513531269303
40
0.71305691489845
40
0.728900119309291
40
0.744743323720131
40
0.752664925925552
40
0.760586528130972
40
0.768508130336392
40
0.776429732541812
40
0.792272936952653
40
0.808116141363494
40
0.823959345774334
40
0.839802550185175
40
0.847724152390595
40
0.855645754596015
40
0.863567356801435
40
0.871488959006856
40
0.879410561212276
40
0.887332163417696
40
0.895253765623117
40
0.903175367828537
40
0.911096970033957
40
0.919018572239377
40
0.926940174444797
40
0.934861776650218
40
0.942783378855638
40
0.950704981061059
40
0.958626583266479
40
0.966548185471899
40
0.974469787677319
40
0.98239138988274
40
0.99031299208816
40
0.99823459429358
40
1
40
1
40
1
40
1
41
1
10
-1.49503997793931
20
-13.825183728288
30
0
41
1
10
-1.49503997793931
20
-13.825184728388
30
0
41
1
10
-1.49503997793931
20
-13.8252108749577
30
0
41
1
10
-1.49503997793931
20
-13.8245539604948
30
0
41
1
10
-1.49503997793931
20
-13.8215305966481
30
0
41
1
10
-1.49503997793931
20
-13.8164982902869
30
0
41
1
10
-1.49503997793931
20
-13.8094909095343
30
0
41
1
10
-1.49503997793931
20
-13.8005402090708
30
0
41
1
10
-1.49503997793931
20
-13.7896781830989
30
0
41
1
10
-1.49503997793931
20
-13.7769347476405
30
0
41
1
10
-1.49503997793931
20
-13.7574597557179
30
0
41
1
10
-1.49503997793931
20
-13.7285859139399
30
0
41
1
10
-1.49503997793931
20
-13.6868269300449
30
0
41
1
10
-1.49503997793931
20
-13.6462985077496
30
0
41
1
10
-1.49503997793931
20
-13.6104729008558
30
0
41
1
10
-1.49503997793931
20
-13.5819600687286
30
0
41
1
10
-1.49503997793931
20
-13.5518061457236
30
0
41
1
10
-1.49503997793931
20
-13.509413016618
30
0
41
1
10
-1.49503997793931
20
-13.4638962341071
30
0
41
1
10
-1.49503997793931
20
-13.4151607370273
30
0
41
1
10
-1.49503997793931
20
-13.3770798968994
30
0
41
1
10
-1.49503997793931
20
-13.3374647662751
30
0
41
1
10
-1.49503997793931
20
-13.2963307178616
30
0
41
1
10
-1.49503997793931
20
-13.2536925499096
30
0
41
1
10
-1.49503997793931
20
-13.1948224098965
30
0
41
1
10
-1.49503997793931
20
-13.1331066142243
30
0
41
1
10
-1.49503997793931
20
-13.0683888145289
30
0
41
1
10
-1.49503997793931
20
-13.0184419638584
30
0
41
1
10
-1.49503997793931
20
-12.9670724273821
30
0
41
1
10
-1.49503997793931
20
-12.9142925944038
30
0
41
1
10
-1.49503997793931
20
-12.860113205584
30
0
41
1
10
-1.49503997793931
20
-12.8045464062654
30
0
41
1
10
-1.49503997793931
20
-12.74760324418
30
0
41
1
10
-1.49503997793931
20
-12.6698142834541
30
0
41
1
10
-1.49503997793931
20
-12.5894449005116
30
0
41
1
10
-1.49503997793931
20
-12.50627175547
30
0
41
1
10
-1.49503997793931
20
-12.4213295833849
30
0
41
1
10
-1.49503997793931
20
-12.3119621458456
30
0
41
1
10
-1.49503997793931
20
-12.1982668977617
30
0
41
1
10
-1.49503997793931
20
-12.1046570208051
30
0
41
1
10
-1.49503997793931
20
-12.0332119345842
30
0
41
1
10
-1.49503997793931
20
-11.9605000871413
30
0
41
1
10
-1.49503997793931
20
-11.8865286504803
30
0
41
1
10
-1.49503997793931
20
-11.8113057028001
30
0
41
1
10
-1.49503997793931
20
-11.7476093345099
30
0
41
1
10
-1.49503997793931
20
-11.6959849101866
30
0
41
1
10
-1.49503997793931
20
-11.643948764099
30
0
41
1
10
-1.49503997793931
20
-11.5781957241672
30
0
41
1
10
-1.49503997793931
20
-11.4980348993556
30
0
41
1
10
-1.49503997793931
20
-11.3894728900619
30
0
41
1
10
-1.49503997793931
20
-11.278660103453
30
0
41
1
10
-1.49503997793931
20
-11.1652732784127
30
0
41
1
10
-1.49503997793931
20
-11.0790834423827
30
0
41
1
10
-1.49503997793931
20
-10.9917054044732
30
0
41
1
10
-1.49503997793931
20
-10.9031442025602
30
0
41
1
10
-1.49503997793931
20
-10.8134057967923
30
0
41
1
10
-1.49503997793931
20
-10.7224950378189
30
0
41
1
10
-1.49503997793931
20
-10.6304166849825
30
0
41
1
10
-1.49503997793931
20
-10.5371758780398
30
0
41
1
10
-1.49503997793931
20
-10.4427777751693
30
0
41
1
10
-1.49503997793931
20
-10.3153089364435
30
0
41
1
10
-1.49503997793931
20
-10.1857467684219
30
0
41
1
10
-1.49503997793931
20
-10.0536983054632
30
0
41
1
10
-1.49503997793931
20
-9.97030026745779
30
0
41
1
10
-1.49503997793931
20
-9.90295235506755
30
0
41
1
10
-1.49503997793931
20
-9.83522786489038
30
0
41
1
10
-1.49503997793931
20
-9.71574944153573
30
0
41
1
10
-1.49503997793931
20
-9.57714511427093
30
0
41
1
10
-1.49503997793931
20
-9.43608246295526
30
0
41
1
10
-1.49503997793931
20
-9.29353602958125
30
0
41
1
10
-1.49503997793931
20
-9.11275363063513
30
0
41
1
10
-1.49503997793931
20
-8.92829537712967
30
0
41
1
10
-1.49503997793931
20
-8.77838738443313
30
0
41
1
10
-1.49503997793931
20
-8.62702158955997
30
0
41
1
10
-1.49503997793931
20
-8.47372854841305
30
0
41
1
10
-1.49503997793931
20
-8.31800483202281
30
0
41
1
10
-1.49503997793931
20
-8.20019570647173
30
0
41
1
10
-1.49503997793931
20
-8.08130642958628
30
0
41
1
10
-1.49503997793931
20
-7.96134016006346
30
0
41
1
10
-1.49503997793931
20
-7.84029852533041
30
0
41
1
10
-1.49503997793931
20
-7.67738589461936
30
0
41
1
10
-1.49503997793931
20
-7.47128766686797
30
0
41
1
10
-1.49503997793931
20
-7.261636811758
30
0
41
1
10
-1.49503997793931
20
-7.09160986883526
30
0
41
1
10
-1.49503997793931
20
-6.96311018452545
30
0
41
1
10
-1.49503997793931
20
-6.83355373772449
30
0
41
1
10
-1.49503997793931
20
-6.65929858415237
30
0
41
1
10
-1.49503997793931
20
-6.43910149333703
30
0
41
1
10
-1.49503997793931
20
-6.17053536578155
30
0
41
1
10
-1.49503997793931
20
-5.89779783511918
30
0
41
1
10
-1.49503997793931
20
-5.66717892097088
30
0
41
1
10
-1.49503997793931
20
-5.48038541909952
30
0
41
1
10
-1.49503997793931
20
-5.33936157753735
30
0
41
1
10
-1.49503997793931
20
-5.19731095553271
30
0
41
1
10
-1.49503997793931
20
-5.05423706888556
30
0
41
1
10
-1.49503997793931
20
-4.91014315579861
30
0
41
1
10
-1.49503997793931
20
-4.7650332428635
30
0
41
1
10
-1.49503997793931
20
-4.61891156596767
30
0
41
1
10
-1.49503997793931
20
-4.47178260268984
30
0
41
1
10
-1.49503997793931
20
-4.32365113214263
30
0
41
1
10
-1.49503997793931
20
-4.17452288947305
30
0
41
1
10
-1.49503997793931
20
-4.02440432752809
30
0
41
1
10
-1.49503997793931
20
-3.87330192992579
30
0
41
1
10
-1.49503997793931
20
-3.7212231412766
30
0
41
1
10
-1.49503997793931
20
-3.56817690176541
30
0
41
1
10
-1.49503997793931
20
-3.41417271020586
30
0
41
1
10
-1.49503997793931
20
-3.25922165821993
30
0
41
1
10
-1.49503997793931
20
-3.1033357799555
30
0
41
1
10
-1.49503997793931
20
-2.94652918151195
30
0
41
1
10
-1.49503997793931
20
-2.78881794429316
30
0
41
1
10
-1.49503997793931
20
-2.67130381064959
30
0
41
1
10
-1.49503997793931
20
-2.60647323876154
30
0
41
1
10
-1.49503997793931
20
-2.59465115838313
30
0
0
SPLINE
5
15E
100
AcDbEntity
8
SK1
62
256
6
ByLayer
370
18
48
1
60
0
100
AcDbSpline
70
4
71
3
72
287
73
283
40
0
40
0
40
0
40
0
40
0.0005770524662607
40
0.0040695176911193
40
0.0075619829159779
40
0.0110544481408365
40
0.014546913365695
40
0.0180393785905536
40
0.0215318438154123
40
0.0250243090402708
40
0.0285167742651294
40
0.0320092394899879
40
0.0389941699397051
40
0.0459791003894222
40
0.0529640308391394
40
0.056456496063998
40
0.0599489612888566
40
0.0634414265137152
40
0.0669338917385737
40
0.0739188221882909
40
0.0774112874131495
40
0.080903752638008
40
0.0843962178628666
40
0.0878886830877252
40
0.0913811483125838
40
0.0948736135374424
40
0.10185854398716
40
0.105351009212018
40
0.108843474436877
40
0.112335939661735
40
0.115828404886594
40
0.119320870111452
40
0.122813335336311
40
0.12630580056117
40
0.129798265786028
40
0.136783196235745
40
0.140275661460604
40
0.143768126685462
40
0.15075305713518
40
0.157737987584897
40
0.161230452809755
40
0.164722918034614
40
0.168215383259472
40
0.171707848484331
40
0.17520031370919
40
0.178692778934048
40
0.180439011546478
40
0.182185244158907
40
0.185677709383765
40
0.189170174608624
40
0.192662639833483
40
0.1996475702832
40
0.203140035508058
40
0.206632500732917
40
0.210124965957775
40
0.213617431182634
40
0.217109896407493
40
0.220602361632351
40
0.22409482685721
40
0.227587292082068
40
0.231079757306927
40
0.234572222531785
40
0.241557152981503
40
0.245049618206361
40
0.24854208343122
40
0.250288316043649
40
0.252034548656078
40
0.255527013880937
40
0.262511944330654
40
0.266004409555513
40
0.269496874780371
40
0.276481805230088
40
0.283466735679806
40
0.286959200904664
40
0.290451666129523
40
0.29743659657924
40
0.300929061804098
40
0.304421527028957
40
0.307913992253816
40
0.311406457478674
40
0.314898922703533
40
0.318391387928391
40
0.325376318378108
40
0.332361248827826
40
0.335853714052684
40
0.339346179277543
40
0.342838644502401
40
0.34633110972726
40
0.353316040176977
40
0.360300970626694
40
0.367285901076412
40
0.374270831526129
40
0.377763296750987
40
0.381255761975846
40
0.384748227200704
40
0.388240692425563
40
0.391733157650421
40
0.39522562287528
40
0.398718088100139
40
0.402210553324997
40
0.405703018549856
40
0.409195483774714
40
0.412687948999573
40
0.416180414224432
40
0.41967287944929
40
0.423165344674149
40
0.426657809899007
40
0.430150275123866
40
0.433642740348725
40
0.437135205573583
40
0.440627670798442
40
0.4441201360233
40
0.447612601248159
40
0.449358833860588
40
0.451105066473017
40
0.454597531697876
40
0.456343764310305
40
0.458089996922735
40
0.459836229535164
40
0.461582462147593
40
0.463328694760022
40
0.465074927372452
40
0.466821159984881
40
0.46856739259731
40
0.472059857822169
40
0.473806090434598
40
0.475552323047027
40
0.477298555659457
40
0.479044788271886
40
0.480791020884315
40
0.482537253496745
40
0.484283486109174
40
0.486029718721603
40
0.487775951334033
40
0.489522183946462
40
0.491268416558891
40
0.49301464917132
40
0.49476088178375
40
0.496507114396179
40
0.498253347008608
40
0.499999579621038
40
0.501745812233467
40
0.503492044845896
40
0.505238277458325
40
0.506984510070755
40
0.508730742683184
40
0.510476975295613
40
0.512223207908042
40
0.513969440520472
40
0.515715673132901
40
0.51746190574533
40
0.51920813835776
40
0.520954370970189
40
0.522700603582618
40
0.524446836195048
40
0.526193068807477
40
0.527939301419906
40
0.531431766644765
40
0.533177999257194
40
0.534924231869623
40
0.536670464482053
40
0.538416697094482
40
0.540162929706911
40
0.541909162319341
40
0.54365539493177
40
0.545401627544199
40
0.548894092769058
40
0.550640325381487
40
0.552386557993916
40
0.555879023218775
40
0.559371488443633
40
0.562863953668492
40
0.566356418893351
40
0.569848884118209
40
0.573341349343068
40
0.576833814567926
40
0.580326279792785
40
0.583818745017643
40
0.587311210242502
40
0.59080367546736
40
0.594296140692219
40
0.597788605917078
40
0.601281071141936
40
0.604773536366795
40
0.608266001591653
40
0.611758466816512
40
0.615250932041371
40
0.618743397266229
40
0.622235862491088
40
0.625728327715946
40
0.632713258165663
40
0.639698188615381
40
0.646683119065098
40
0.653668049514815
40
0.657160514739674
40
0.660652979964532
40
0.664145445189391
40
0.667637910414249
40
0.674622840863966
40
0.681607771313684
40
0.685100236538542
40
0.688592701763401
40
0.692085166988259
40
0.695577632213118
40
0.699070097437977
40
0.702562562662835
40
0.709547493112552
40
0.713039958337411
40
0.716532423562269
40
0.723517354011986
40
0.730502284461704
40
0.733994749686562
40
0.737487214911421
40
0.744472145361138
40
0.747964610585997
40
0.749710843198426
40
0.751457075810855
40
0.754949541035714
40
0.758442006260572
40
0.76542693671029
40
0.768919401935148
40
0.772411867160007
40
0.775904332384865
40
0.779396797609724
40
0.782889262834582
40
0.786381728059441
40
0.7898741932843
40
0.793366658509158
40
0.796859123734017
40
0.800351588958875
40
0.807336519408593
40
0.810828984633451
40
0.81432144985831
40
0.817813915083168
40
0.819560147695597
40
0.821306380308027
40
0.824798845532885
40
0.828291310757744
40
0.831783775982603
40
0.835276241207461
40
0.83876870643232
40
0.842261171657178
40
0.849246102106895
40
0.856231032556612
40
0.859723497781471
40
0.86321596300633
40
0.870200893456047
40
0.873693358680905
40
0.877185823905764
40
0.880678289130623
40
0.884170754355481
40
0.88766321958034
40
0.891155684805198
40
0.894648150030057
40
0.898140615254916
40
0.905125545704633
40
0.908618010929491
40
0.91211047615435
40
0.915602941379208
40
0.919095406604067
40
0.922587871828925
40
0.926080337053784
40
0.933065267503501
40
0.93655773272836
40
0.940050197953219
40
0.943542663178077
40
0.947035128402936
40
0.954020058852653
40
0.957512524077511
40
0.96100498930237
40
0.964497454527229
40
0.967989919752087
40
0.971482384976946
40
0.974974850201804
40
0.978467315426663
40
0.981959780651521
40
0.98545224587638
40
0.988944711101238
40
0.992437176326097
40
0.995929641550956
40
0.999422106775814
40
1
40
1
40
1
40
1
41
1
10
-24
20
-12.6301466103862
30
0
41
1
10
-24
20
-12.6302729711316
30
0
41
1
10
-24
20
-12.6311019483414
30
0
41
1
10
-24
20
-12.6318299492432
30
0
41
1
10
-24
20
-12.6309352666138
30
0
41
1
10
-24
20
-12.6281658201647
30
0
41
1
10
-24
20
-12.623548726994
30
0
41
1
10
-24
20
-12.6171099043118
30
0
41
1
10
-24
20
-12.6088736083307
30
0
41
1
10
-24
20
-12.5988647342338
30
0
41
1
10
-24
20
-12.5871069661154
30
0
41
1
10
-24
20
-12.569020437469
30
0
41
1
10
-24
20
-12.5424060911485
30
0
41
1
10
-24
20
-12.5036823998811
30
0
41
1
10
-24
20
-12.466179119183
30
0
41
1
10
-24
20
-12.4326960489613
30
0
41
1
10
-24
20
-12.4061495447384
30
0
41
1
10
-24
20
-12.3780532328159
30
0
41
1
10
-24
20
-12.3383402816863
30
0
41
1
10
-24
20
-12.2962370819873
30
0
41
1
10
-24
20
-12.2505027270978
30
0
41
1
10
-24
20
-12.2149010201899
30
0
41
1
10
-24
20
-12.1778433481664
30
0
41
1
10
-24
20
-12.139344023803
30
0
41
1
10
-24
20
-12.0994154546281
30
0
41
1
10
-24
20
-12.0440223921018
30
0
41
1
10
-24
20
-11.9866456328948
30
0
41
1
10
-24
20
-11.9256779328098
30
0
41
1
10
-24
20
-11.8787993022056
30
0
41
1
10
-24
20
-11.8305656793587
30
0
41
1
10
-24
20
-11.78099039585
30
0
41
1
10
-24
20
-11.7300825884547
30
0
41
1
10
-24
20
-11.6778529900837
30
0
41
1
10
-24
20
-11.6243139686469
30
0
41
1
10
-24
20
-11.5508590476175
30
0
41
1
10
-24
20
-11.4758394707542
30
0
41
1
10
-24
20
-11.3972466128896
30
0
41
1
10
-24
20
-11.3169609533628
30
0
41
1
10
-24
20
-11.2142799019792
30
0
41
1
10
-24
20
-11.1074990885262
30
0
41
1
10
-24
20
-11.0189464603389
30
0
41
1
10
-24
20
-10.9516093773873
30
0
41
1
10
-24
20
-10.8830697782116
30
0
41
1
10
-24
20
-10.8133337656712
30
0
41
1
10
-24
20
-10.7424101789121
30
0
41
1
10
-24
20
-10.6825334430363
30
0
41
1
10
-24
20
-10.6336671760819
30
0
41
1
10
-24
20
-10.5844084477176
30
0
41
1
10
-24
20
-10.5225869468266
30
0
41
1
10
-24
20
-10.4469857296791
30
0
41
1
10
-24
20
-10.3442039867663
30
0
41
1
10
-24
20
-10.2404782892815
30
0
41
1
10
-24
20
-10.133123847137
30
0
41
1
10
-24
20
-10.0518274139735
30
0
41
1
10
-24
20
-9.96941226524035
30
0
41
1
10
-24
20
-9.8858827890852
30
0
41
1
10
-24
20
-9.80124634105394
30
0
41
1
10
-24
20
-9.71550990056983
30
0
41
1
10
-24
20
-9.62867742465991
30
0
41
1
10
-24
20
-9.54075474090101
30
0
41
1
10
-24
20
-9.45175012870757
30
0
41
1
10
-24
20
-9.33111730296773
30
0
41
1
10
-24
20
-9.20992961158598
30
0
41
1
10
-24
20
-9.08500600225796
30
0
41
1
10
-24
20
-9.00666454438806
30
0
41
1
10
-24
20
-8.94296708063843
30
0
41
1
10
-24
20
-8.87892107357061
30
0
41
1
10
-24
20
-8.76613371827506
30
0
41
1
10
-24
20
-8.63663898523424
30
0
41
1
10
-24
20
-8.50332881313912
30
0
41
1
10
-24
20
-8.36865251940401
30
0
41
1
10
-24
20
-8.19913342470036
30
0
41
1
10
-24
20
-8.02625870426019
30
0
41
1
10
-24
20
-7.88481232676438
30
0
41
1
10
-24
20
-7.74204568631339
30
0
41
1
10
-24
20
-7.59930458489882
30
0
41
1
10
-24
20
-7.45257386795717
30
0
41
1
10
-24
20
-7.34207855908448
30
0
41
1
10
-24
20
-7.23061782890775
30
0
41
1
10
-24
20
-7.11820191301106
30
0
41
1
10
-24
20
-7.00483374343872
30
0
41
1
10
-24
20
-6.8516785758469
30
0
41
1
10
-24
20
-6.65959441745028
30
0
41
1
10
-24
20
-6.46441027855923
30
0
41
1
10
-24
20
-6.30499529459033
30
0
41
1
10
-24
20
-6.18514753468796
30
0
41
1
10
-24
20
-6.06440158167572
30
0
41
1
10
-24
20
-5.90137597131746
30
0
41
1
10
-24
20
-5.69736367955667
30
0
41
1
10
-24
20
-5.44799894794272
30
0
41
1
10
-24
20
-5.19525670130326
30
0
41
1
10
-24
20
-4.98285125019771
30
0
41
1
10
-24
20
-4.80950544532163
30
0
41
1
10
-24
20
-4.67950096380329
30
0
41
1
10
-24
20
-4.54872537799758
30
0
41
1
10
-24
20
-4.41719445888799
30
0
41
1
10
-24
20
-4.28492388892991
30
0
41
1
10
-24
20
-4.15193103870837
30
0
41
1
10
-24
20
-4.01823650200188
30
0
41
1
10
-24
20
-3.88386015063671
30
0
41
1
10
-24
20
-3.74882265025218
30
0
41
1
10
-24
20
-3.61314816606938
30
0
41
1
10
-24
20
-3.47686551917991
30
0
41
1
10
-24
20
-3.34000139230267
30
0
41
1
10
-24
20
-3.20258393847712
30
0
41
1
10
-24
20
-3.06464837689458
30
0
41
1
10
-24
20
-2.9262304523017
30
0
41
1
10
-24
20
-2.78737006373561
30
0
41
1
10
-24
20
-2.64810891556724
30
0
41
1
10
-24
20
-2.50849315364215
30
0
41
1
10
-24
20
-2.36857603859875
30
0
41
1
10
-24
20
-2.22840727338092
30
0
41
1
10
-24
20
-2.11231267734073
30
0
41
1
10
-24
20
-2.01771125590744
30
0
41
1
10
-24
20
-1.92310511773127
30
0
41
1
10
-24
20
-1.8313714962141
30
0
41
1
10
-24
20
-1.73663368976398
30
0
41
1
10
-24
20
-1.66636839269287
30
0
41
1
10
-24
20
-1.59612143913762
30
0
41
1
10
-24
20
-1.52590617425699
30
0
41
1
10
-24
20
-1.45572440081648
30
0
41
1
10
-24
20
-1.38559146347788
30
0
41
1
10
-24
20
-1.31551245865842
30
0
41
1
10
-24
20
-1.22103102890804
30
0
41
1
10
-24
20
-1.13019491172781
30
0
41
1
10
-24
20
-1.03590357373665
30
0
41
1
10
-24
20
-0.966211278320685
30
0
41
1
10
-24
20
-0.896616942008535
30
0
41
1
10
-24
20
-0.827119549474418
30
0
41
1
10
-24
20
-0.757724503129253
30
0
41
1
10
-24
20
-0.688430802184314
30
0
41
1
10
-24
20
-0.619238394305086
30
0
41
1
10
-24
20
-0.550143822342449
30
0
41
1
10
-24
20
-0.481142957404018
30
0
41
1
10
-24
20
-0.412229055265982
30
0
41
1
10
-24
20
-0.343394373554958
30
0
41
1
10
-24
20
-0.274627961865065
30
0
41
1
10
-24
20
-0.205919183520024
30
0
41
1
10
-24
20
-0.137254128872428
30
0
41
1
10
-24
20
-0.068619580615092
30
0
41
1
10
-24
20
-1.20069785E-08
30
0
41
1
10
-24
20
0.0686195837654395
30
0
41
1
10
-24
20
0.1372541822264
30
0
41
1
10
-24
20
0.205919229600312
30
0
41
1
10
-24
20
0.274627932715674
30
0
41
1
10
-24
20
0.343394334295567
30
0
41
1
10
-24
20
0.412229116407673
30
0
41
1
10
-24
20
0.48114304712405
30
0
41
1
10
-24
20
0.55014378989776
30
0
41
1
10
-24
20
0.619238310392802
30
0
41
1
10
-24
20
0.688430856535206
30
0
41
1
10
-24
20
0.757724640342815
30
0
41
1
10
-24
20
0.827119544713668
30
0
41
1
10
-24
20
0.896616816711344
30
0
41
1
10
-24
20
0.966211277672699
30
0
41
1
10
-24
20
1.03590373801057
30
0
41
1
10
-24
20
1.13019491751672
30
0
41
1
10
-24
20
1.22103090337816
30
0
41
1
10
-24
20
1.31551253110209
30
0
41
1
10
-24
20
1.38559165365194
30
0
41
1
10
-24
20
1.45572444737027
30
0
41
1
10
-24
20
1.52590604398475
30
0
41
1
10
-24
20
1.59612132289769
30
0
41
1
10
-24
20
1.66636846888792
30
0
41
1
10
-24
20
1.73663389391052
30
0
41
1
10
-24
20
1.83137150908334
30
0
41
1
10
-24
20
1.923104963833
30
0
41
1
10
-24
20
2.01771124909399
30
0
41
1
10
-24
20
2.11231287096447
30
0
41
1
10
-24
20
2.22840729138045
30
0
41
1
10
-24
20
2.36857592379664
30
0
41
1
10
-24
20
2.50849329023109
30
0
41
1
10
-24
20
2.64810899336408
30
0
41
1
10
-24
20
2.7873694745272
30
0
41
1
10
-24
20
2.92622914514115
30
0
41
1
10
-24
20
3.06464867495961
30
0
41
1
10
-24
20
3.20258694679339
30
0
41
1
10
-24
20
3.34000339886188
30
0
41
1
10
-24
20
3.47686412773234
30
0
41
1
10
-24
20
3.61314539193521
30
0
41
1
10
-24
20
3.74882070125759
30
0
41
1
10
-24
20
3.88386081960974
30
0
41
1
10
-24
20
4.01823910176785
30
0
41
1
10
-24
20
4.15193237523465
30
0
41
1
10
-24
20
4.28492323331267
30
0
41
1
10
-24
20
4.41719365917407
30
0
41
1
10
-24
20
4.54872525063163
30
0
41
1
10
-24
20
4.67950102029136
30
0
41
1
10
-24
20
4.8095053694127
30
0
41
1
10
-24
20
4.98285124277228
30
0
41
1
10
-24
20
5.19525677656026
30
0
41
1
10
-24
20
5.44799891971269
30
0
41
1
10
-24
20
5.69736372546626
30
0
41
1
10
-24
20
5.90137602298265
30
0
41
1
10
-24
20
6.0644015068855
30
0
41
1
10
-24
20
6.1851475156806
30
0
41
1
10
-24
20
6.30499537148731
30
0
41
1
10
-24
20
6.46441033734266
30
0
41
1
10
-24
20
6.65959438580623
30
0
41
1
10
-24
20
6.85167858307042
30
0
41
1
10
-24
20
7.00483382763792
30
0
41
1
10
-24
20
7.11820195418233
30
0
41
1
10
-24
20
7.2306178054078
30
0
41
1
10
-24
20
7.34207852113332
30
0
41
1
10
-24
20
7.45257387547733
30
0
41
1
10
-24
20
7.5993046483614
30
0
41
1
10
-24
20
7.74204572237986
30
0
41
1
10
-24
20
7.88481230085068
30
0
41
1
10
-24
20
8.02625870014728
30
0
41
1
10
-24
20
8.19913346952643
30
0
41
1
10
-24
20
8.36865254580422
30
0
41
1
10
-24
20
8.50332879773273
30
0
41
1
10
-24
20
8.63663898786112
30
0
41
1
10
-24
20
8.76613375581505
30
0
41
1
10
-24
20
8.87892111197036
30
0
41
1
10
-24
20
8.94296710462893
30
0
41
1
10
-24
20
9.00666455327521
30
0
41
1
10
-24
20
9.08500599911847
30
0
41
1
10
-24
20
9.20992961783276
30
0
41
1
10
-24
20
9.33111733072479
30
0
41
1
10
-24
20
9.45175015939358
30
0
41
1
10
-24
20
9.54075475929304
30
0
41
1
10
-24
20
9.62867743247332
30
0
41
1
10
-24
20
9.71550990736878
30
0
41
1
10
-24
20
9.80124635456619
30
0
41
1
10
-24
20
9.88588281033205
30
0
41
1
10
-24
20
9.9694122909747
30
0
41
1
10
-24
20
10.0518274374696
30
0
41
1
10
-24
20
10.1331238647016
30
0
41
1
10
-24
20
10.240478300249
30
0
41
1
10
-24
20
10.3442039980406
30
0
41
1
10
-24
20
10.4469857502475
30
0
41
1
10
-24
20
10.5225869730086
30
0
41
1
10
-24
20
10.5844084741421
30
0
41
1
10
-24
20
10.6336671988976
30
0
41
1
10
-24
20
10.6825334589273
30
0
41
1
10
-24
20
10.7424101865055
30
0
41
1
10
-24
20
10.8133337727233
30
0
41
1
10
-24
20
10.8830697936353
30
0
41
1
10
-24
20
10.951609404873
30
0
41
1
10
-24
20
11.0189464931514
30
0
41
1
10
-24
20
11.1074991058536
30
0
41
1
10
-24
20
11.2142799044294
30
0
41
1
10
-24
20
11.3169609751522
30
0
41
1
10
-24
20
11.3972466509688
30
0
41
1
10
-24
20
11.4758394909226
30
0
41
1
10
-24
20
11.5508590446085
30
0
41
1
10
-24
20
11.6243139791192
30
0
41
1
10
-24
20
11.6778530233414
30
0
41
1
10
-24
20
11.7300826287653
30
0
41
1
10
-24
20
11.7809904199399
30
0
41
1
10
-24
20
11.8305656793297
30
0
41
1
10
-24
20
11.8787992978643
30
0
41
1
10
-24
20
11.9256779481161
30
0
41
1
10
-24
20
11.9866456736684
30
0
41
1
10
-24
20
12.0440224201629
30
0
41
1
10
-24
20
12.099415447517
30
0
41
1
10
-24
20
12.1393440246738
30
0
41
1
10
-24
20
12.1778433772408
30
0
41
1
10
-24
20
12.2149010599454
30
0
41
1
10
-24
20
12.250502752964
30
0
41
1
10
-24
20
12.2962370828382
30
0
41
1
10
-24
20
12.3383402824608
30
0
41
1
10
-24
20
12.3780532736994
30
0
41
1
10
-24
20
12.4061495785297
30
0
41
1
10
-24
20
12.4326960530149
30
0
41
1
10
-24
20
12.4661791203578
30
0
41
1
10
-24
20
12.4959885477691
30
0
41
1
10
-24
20
12.523037071398
30
0
41
1
10
-24
20
12.5415673540695
30
0
41
1
10
-24
20
12.55843663992
30
0
41
1
10
-24
20
12.5736235086905
30
0
41
1
10
-24
20
12.5871069547276
30
0
41
1
10
-24
20
12.5988645879939
30
0
41
1
10
-24
20
12.6088733436887
30
0
41
1
10
-24
20
12.617109869821
30
0
41
1
10
-24
20
12.6235493215145
30
0
41
1
10
-24
20
12.6281667848456
30
0
41
1
10
-24
20
12.630935840933
30
0
41
1
10
-24
20
12.6318298800803
30
0
41
1
10
-24
20
12.6311015700333
30
0
41
1
10
-24
20
12.6302722751939
30
0
41
1
10
-24
20
12.6301456979027
30
0
0
SPLINE
5
15F
100
AcDbEntity
8
1
62
256
6
ByLayer
370
18
48
1
60
0
100
AcDbSpline
70
4
71
2
72
8
73
5
40
0
40
0
40
0
40
0.14077626432934
40
0.84603074974215
40
1
40
1
40
1
41
1.02613459695995
10
15.8175312796507
20
-19.725465985399
30
0
41
1.02613459695995
10
15.8051421035345
20
-19.577776500189
30
0
41
1.02613459695995
10
15.7620412289207
20
-18.6437069958045
30
0
41
1.02613459695995
10
15.8153201255241
20
-18.1903304587122
30
0
41
1.02613459695995
10
15.8268810740905
20
-18.1039243343019
30
0
0
SPLINE
5
160
100
AcDbEntity
8
1
62
256
6
ByLayer
370
18
48
1
60
0
100
AcDbSpline
70
4
71
2
72
8
73
5
40
0
40
0
40
0
40
0.13147232070527
40
0.791478805437308
40
1
40
1
40
1
41
1
10
15.993139629687
20
-19.7641693294297
30
0
41
1
10
15.9807867770047
20
-19.6167687869765
30
0
41
1
10
15.9377007073833
20
-18.6830201320423
30
0
41
1
10
15.9952487126049
20
-18.1933156338785
30
0
41
1
10
16.0132821396937
20
-18.0649319868793
30
0
0
SPLINE
5
161
100
AcDbEntity
8
1
62
256
6
ByLayer
370
18
48
1
60
0
100
AcDbSpline
70
4
71
2
72
6
73
3
40
0
40
0
40
0
40
1
40
1
40
1
41
0.876719220473455
10
18.3357847123628
20
-16.1481393395592
30
0
41
0.868979439895968
10
17.6676324229239
20
-16.8714176378663
30
0
41
0.931012861147379
10
16.9420922571586
20
-17.0459360171924
30
0
0
SPLINE
5
162
100
AcDbEntity
8
1
62
256
6
ByLayer
370
18
48
1
60
0
100
AcDbSpline
70
4
71
3
72
8
73
4
40
0
40
0
40
0
40
0
40
1
40
1
40
1
40
1
41
1
10
22.3758461793639
20
-25.4228317485828
30
0
41
1
10
22.3759425878807
20
-25.4228317485828
30
0
41
1
10
22.3957165796874
20
-25.4228317485836
30
0
41
1
10
22.4361101793691
20
-25.4228317485852
30
0
0
SPLINE
5
163
100
AcDbEntity
8
1
62
256
6
ByLayer
370
18
48
1
60
0
100
AcDbSpline
70
4
71
2
72
8
73
5
40
0
40
0
40
0
40
0.136108347337136
40
0.817847254306877
40
1
40
1
40
1
41
1
10
15.9053657608039
20
-19.7451790786869
30
0
41
1
10
15.8929732152073
20
-19.5974628114575
30
0
41
1
10
15.849870968152
20
-18.6633635639234
30
0
41
1
10
15.905287074875
20
-18.1918004466873
30
0
41
1
10
15.9199876377345
20
-18.0846375227469
30
0
0
SPLINE
5
164
100
AcDbEntity
8
1
62
256
6
ByLayer
370
18
48
1
60
0
100
AcDbSpline
70
4
71
3
72
8
73
4
40
0
40
0
40
0
40
0
40
1
40
1
40
1
40
1
41
1
10
40.2921348750642
20
-10.2646721191168
30
0
41
1
10
40.2572794002325
20
-10.3105591538755
30
0
41
1
10
40.2217466491675
20
-10.3563157030169
30
0
41
1
10
40.1854824779027
20
-10.4019050656958
30
0
0
SPLINE
5
165
100
AcDbEntity
8
1
62
256
6
ByLayer
370
18
48
1
60
0
100
AcDbSpline
70
4
71
3
72
12
73
8
40
0
40
0
40
0
40
0
40
0.108854002841678
40
0.502629245107337
40
0.699516866240166
40
0.896404487372996
40
1
40
1
40
1
40
1
41
1.0244126255267
10
34.7550147770269
20
-16.4261058869058
30
0
41
1.02394775696077
10
35.0890801615935
20
-16.4862383896997
30
0
41
1.02173322391444
10
36.6716881760518
20
-16.7633106228137
30
0
41
1.01876555595691
10
38.905638560292
20
-17.103039683164
30
0
41
1.01610930227499
10
40.4077865139383
20
-17.2984714918094
30
0
41
1.01814069306376
10
41.0778823396954
20
-17.4772389051627
30
0
41
1.0200519600697
10
41.6794842140587
20
-17.6161230837082
30
0
41
1.02076673234771
10
41.899993422166
20
-17.6644469358475
30
0
0
SPLINE
5
166
100
AcDbEntity
8
1
62
256
6
ByLayer
370
18
48
1
60
0
100
AcDbSpline
70
4
71
3
72
8
73
4
40
0
40
0
40
0
40
0
40
1
40
1
40
1
40
1
41
1
10
44.1962694787699
20
-19.3443779908129
30
0
41
1
10
44.1179210651847
20
-19.3792427164224
30
0
41
1
10
44.0397913759337
20
-19.4099148670863
30
0
41
1
10
43.9632922727733
20
-19.4360051033139
30
0
0
SPLINE
5
167
100
AcDbEntity
8
1
62
256
6
ByLayer
370
18
48
1
60
0
100
AcDbSpline
70
4
71
3
72
8
73
4
40
0
40
0
40
0
40
0
40
1
40
1
40
1
40
1
41
1
10
41.6855781585624
20
-20.579381602349
30
0
41
1
10
42.0571421325604
20
-20.4092266210229
30
0
41
1
10
42.4298935944144
20
-20.2362272528684
30
0
41
1
10
42.8018813968883
20
-20.0612578012321
30
0
0
SPLINE
5
168
100
AcDbEntity
8
1
62
256
6
ByLayer
370
18
48
1
60
0
100
AcDbSpline
70
4
71
3
72
8
73
4
40
0
40
0
40
0
40
0
40
1
40
1
40
1
40
1
41
1
10
45.0077555349619
20
-15.6610515678506
30
0
41
1
10
45.0608357561093
20
-15.7196030750445
30
0
41
1
10
45.1128606104605
20
-15.7832803786545
30
0
41
1
10
45.1628003820842
20
-15.8510916468236
30
0
0
SPLINE
5
169
100
AcDbEntity
8
1
62
256
6
ByLayer
370
18
48
1
60
0
100
AcDbSpline
70
4
71
1
72
4
73
2
40
0
40
0
40
1
40
1
41
1
10
33.2544069064225
20
-8.36057036319116
30
0
41
1
10
33.1752328362104
20
-7.063485051345
30
0
0
SPLINE
5
16A
100
AcDbEntity
8
1
62
256
6
ByLayer
370
18
48
1
60
0
100
AcDbSpline
70
4
71
3
72
8
73
4
40
0
40
0
40
0
40
0
40
1
40
1
40
1
40
1
41
1
10
25.9421117630279
20
-16.1491300864533
30
0
41
1
10
25.9025339063826
20
-16.090472305018
30
0
41
1
10
25.8599431954764
20
-16.0328836231398
30
0
41
1
10
25.8142708393765
20
-15.9764901860767
30
0
0
SPLINE
5
16B
100
AcDbEntity
8
1
62
256
6
ByLayer
370
18
48
1
60
0
100
AcDbSpline
70
4
71
3
72
15
73
11
40
0
40
0
40
0
40
0
40
0.322163720426458
40
0.322163720426458
40
0.644833452600232
40
0.644833452600232
40
0.912233455904557
40
0.912233455904557
40
0.912233455904557
40
1
40
1
40
1
40
1
41
1
10
30.8660637599205
20
-18.3083876879211
30
0
41
1
10
31.3493083927087
20
-18.3414201320238
30
0
41
1
10
31.8449734737495
20
-18.2909878371928
30
0
41
1
10
32.7812353618752
20
-18.0430780251789
30
0
41
1
10
33.2350990780934
20
-17.8421241716581
30
0
41
1
10
33.9702135578718
20
-17.3496158310593
30
0
41
1
10
34.2759587654162
20
-17.0725578042581
30
0
41
1
10
34.5249865265325
20
-16.7555888349684
30
0
41
1
10
34.6077443848493
20
-16.6502524944186
30
0
41
1
10
34.684785328534
20
-16.5400416005262
30
0
41
1
10
34.7550149240309
20
-16.4261059133669
30
0
0
SPLINE
5
16C
100
AcDbEntity
8
1
62
256
6
ByLayer
370
18
48
1
60
0
100
AcDbSpline
70
4
71
3
72
10
73
6
40
0
40
0
40
0
40
0
40
0.5
40
0.5
40
1
40
1
40
1
40
1
41
1
10
25.6589816352103
20
-5.2432603635493
30
0
41
1
10
25.2315241150345
20
-5.35082146328867
30
0
41
1
10
24.929788425478
20
-5.57903651629974
30
0
41
1
10
24.2416215977235
20
-6.3365968853505
30
0
41
1
10
23.8644131246236
20
-6.93811227426173
30
0
41
1
10
23.641995149864
20
-7.62461443500419
30
0
0
SPLINE
5
16D
100
AcDbEntity
8
1
62
256
6
ByLayer
370
18
48
1
60
0
100
AcDbSpline
70
4
71
3
72
8
73
4
40
0
40
0
40
0
40
0
40
1
40
1
40
1
40
1
41
1
10
21.3834799796259
20
-15.781774269011
30
0
41
1
10
21.3772121796811
20
-15.804427678104
30
0
41
1
10
21.3714787928258
20
-15.8270736804429
30
0
41
1
10
21.3662550274258
20
-15.849712944448
30
0
0
SPLINE
5
16E
100
AcDbEntity
8
1
62
256
6
ByLayer
370
18
48
1
60
0
100
AcDbSpline
70
4
71
3
72
8
73
4
40
0
40
0
40
0
40
0
40
1
40
1
40
1
40
1
41
1
10
26.3340855326159
20
-10.121313806174
30
0
41
1
10
26.0801185297317
20
-10.1002290065635
30
0
41
1
10
25.83792158673
20
-10.0518480896632
30
0
41
1
10
25.6062236292736
20
-9.98374958132698
30
0
0
SPLINE
5
16F
100
AcDbEntity
8
1
62
256
6
ByLayer
370
18
48
1
60
0
100
AcDbSpline
70
4
71
3
72
8
73
4
40
0
40
0
40
0
40
0
40
1
40
1
40
1
40
1
41
1
10
23.6218978443874
20
-7.6915678076351
30
0
41
1
10
23.6281656443321
20
-7.66891439854203
30
0
41
1
10
23.6348714456705
20
-7.64660203886854
30
0
41
1
10
23.641995149864
20
-7.62461443500419
30
0
0
SPLINE
5
170
100
AcDbEntity
8
1
62
256
6
ByLayer
370
18
48
1
60
0
100
AcDbSpline
70
4
71
3
72
8
73
4
40
0
40
0
40
0
40
0
40
1
40
1
40
1
40
1
41
1
10
30.2694314542538
20
-9.64149677311698
30
0
41
1
10
29.3806874345905
20
-9.40071739818757
30
0
41
1
10
28.4619792098454
20
-9.49960875664868
30
0
41
1
10
27.6744071735192
20
-9.88817776669381
30
0
0
SPLINE
5
171
100
AcDbEntity
8
1
62
256
6
ByLayer
370
18
48
1
60
0
100
AcDbSpline
70
4
71
3
72
10
73
6
40
0
40
0
40
0
40
0
40
0.967465556419476
40
0.967465556419476
40
1
40
1
40
1
40
1
41
1
10
41.8999934221836
20
-17.6644469358514
30
0
41
1
10
42.2939916457352
20
-17.5419211662332
30
0
41
1
10
42.6847865476688
20
-17.429439987823
30
0
41
1
10
43.081384145608
20
-17.3291447445693
30
0
41
1
10
43.0942903927093
20
-17.3258969543661
30
0
41
1
10
43.1071882507001
20
-17.3226676542449
30
0
0
SPLINE
5
172
100
AcDbEntity
8
1
62
256
6
ByLayer
370
18
48
1
60
0
100
AcDbSpline
70
4
71
3
72
8
73
4
40
0
40
0
40
0
40
0
40
1
40
1
40
1
40
1
41
1
10
23.7761604018379
20
-7.7370159349681
30
0
41
1
10
24.433654054602
20
-8.26628764593787
30
0
41
1
10
25.3624110334826
20
-9.15334861097878
30
0
41
1
10
26.3340855326159
20
-10.121313806174
30
0
0
SPLINE
5
173
100
AcDbEntity
8
1
62
256
6
ByLayer
370
18
48
1
60
0
100
AcDbSpline
70
4
71
3
72
8
73
4
40
0
40
0
40
0
40
0
40
1
40
1
40
1
40
1
41
1
10
27.4744875534134
20
-9.97604844601193
30
0
41
1
10
26.9576003731461
20
-8.49153399565387
30
0
41
1
10
26.4129270952286
20
-7.12875007011507
30
0
41
1
10
25.9617345405557
20
-6.38483263110084
30
0
0
SPLINE
5
174
100
AcDbEntity
8
1
62
256
6
ByLayer
370
18
48
1
60
0
100
AcDbSpline
70
4
71
3
72
10
73
6
40
0
40
0
40
0
40
0
40
0.5
40
0.5
40
1
40
1
40
1
40
1
41
1
10
29.3390784310741
20
-20.92831415401
30
0
41
1
10
30.628284367867
20
-21.2645115977795
30
0
41
1
10
31.9360468191869
20
-21.3898316033196
30
0
41
1
10
34.5647694618416
20
-21.4904916383283
30
0
41
1
10
35.8970355258778
20
-21.4168000246095
30
0
41
1
10
37.2112817346815
20
-21.2379373665888
30
0
0
SPLINE
5
175
100
AcDbEntity
8
1
62
256
6
ByLayer
370
18
48
1
60
0
100
AcDbSpline
70
4
71
3
72
20
73
16
40
0
40
0
40
0
40
0
40
0.332873226652388
40
0.332873226652388
40
0.501657261698205
40
0.501657261698205
40
0.631212321676503
40
0.631212321676503
40
0.722542323637658
40
0.722542323637658
40
0.814765347404177
40
0.814765347404177
40
0.896421359038785
40
0.896421359038785
40
1
40
1
40
1
40
1
41
1
10
42.2315656609342
20
-16.466061276683
30
0
41
1
10
42.0882933325041
20
-16.317561972915
30
0
41
1
10
41.9458967243059
20
-16.1562392964819
30
0
41
1
10
41.7461772245874
20
-15.8810431143086
30
0
41
1
10
41.680847896411
20
-15.7816464129241
30
0
41
1
10
41.5784004303947
20
-15.5935427984099
30
0
41
1
10
41.5375479333316
20
-15.5060890779555
30
0
41
1
10
41.4842565320091
20
-15.3541165405196
30
0
41
1
10
41.4667137088956
20
-15.2891186141906
30
0
41
1
10
41.4463471058041
20
-15.1646069286113
30
0
41
1
10
41.4435792731365
20
-15.1035388241257
30
0
41
1
10
41.4532744876644
20
-15.0028076448204
30
0
41
1
10
41.4640197267613
20
-14.960255540296
30
0
41
1
10
41.4981852630946
20
-14.8784343074549
30
0
41
1
10
41.5244522940224
20
-14.8417964205509
30
0
41
1
10
41.5542835452758
20
-14.8129467609606
30
0
0
SPLINE
5
176
100
AcDbEntity
8
1
62
256
6
ByLayer
370
18
48
1
60
0
100
AcDbSpline
70
4
71
3
72
8
73
4
40
0
40
0
40
0
40
0
40
1
40
1
40
1
40
1
41
1
10
30.8660637447076
20
-18.3083876868611
30
0
41
1
10
30.5770108110797
20
-18.2882480541726
30
0
41
1
10
30.2948520183195
20
-18.2414930567608
30
0
41
1
10
30.0201171971509
20
-18.1670616377597
30
0
0
SPLINE
5
177
100
AcDbEntity
8
1
62
256
6
ByLayer
370
18
48
1
60
0
100
AcDbSpline
70
4
71
3
72
10
73
6
40
0
40
0
40
0
40
0
40
0.5
40
0.5
40
1
40
1
40
1
40
1
41
1
10
40.1089340088693
20
-10.7650915586181
30
0
41
1
10
39.0749595974562
20
-9.95257346862553
30
0
41
1
10
37.9826114441543
20
-9.22642634248754
30
0
41
1
10
35.6587880218994
20
-7.9799873718529
30
0
41
1
10
34.4538967199127
20
-7.42293848511994
30
0
41
1
10
33.1752328362104
20
-7.063485051345
30
0
0
SPLINE
5
178
100
AcDbEntity
8
1
62
256
6
ByLayer
370
18
48
1
60
0
100
AcDbSpline
70
4
71
3
72
10
73
6
40
0
40
0
40
0
40
0
40
0.5
40
0.5
40
1
40
1
40
1
40
1
41
1
10
21.3662550274258
20
-15.849712944448
30
0
41
1
10
21.2027665205827
20
-16.5582553817073
30
0
41
1
10
21.2244959193017
20
-17.2331728940008
30
0
41
1
10
21.4476309238006
20
-18.1707127334055
30
0
41
1
10
21.6024802014533
20
-18.4734024502994
30
0
41
1
10
21.9239701822635
20
-18.74253333918
30
0
0
SPLINE
5
179
100
AcDbEntity
8
1
62
256
6
ByLayer
370
18
48
1
60
0
100
AcDbSpline
70
4
71
3
72
11
73
7
40
0
40
0
40
0
40
0
40
0.423407924939446
40
0.740963868644031
40
0.899741840496323
40
1
40
1
40
1
40
1
41
1.02805999725224
10
33.2544069064225
20
-8.36057036319116
30
0
41
1.02767136955277
10
34.0513709475218
20
-8.6918839970994
30
0
41
1.02349884684923
10
36.6360478387003
20
-10.7003444442521
30
0
41
1.01876555595691
10
39.7335016125451
20
-13.5366854642244
30
0
41
1.01635405201137
10
40.9041257795054
20
-14.5900018245117
30
0
41
1.01722454828226
10
41.3618507016692
20
-14.7538614304463
30
0
41
1.01774327987904
10
41.5542835452764
20
-14.8129467609608
30
0
0
SPLINE
5
17A
100
AcDbEntity
8
1
62
256
6
ByLayer
370
18
48
1
60
0
100
AcDbSpline
70
4
71
3
72
8
73
4
40
0
40
0
40
0
40
0
40
1
40
1
40
1
40
1
41
1
10
33.0314815031151
20
-10.482022037766
30
0
41
1
10
32.778189954912
20
-10.353604458781
30
0
41
1
10
32.5082581764264
20
-10.2480418376273
30
0
41
1
10
32.2318872301891
20
-10.1731671580668
30
0
0
SPLINE
5
17B
100
AcDbEntity
8
1
62
256
6
ByLayer
370
18
48
1
60
0
100
AcDbSpline
70
4
71
3
72
8
73
4
40
0
40
0
40
0
40
0
40
1
40
1
40
1
40
1
41
1
10
43.6362852106236
20
-13.5290345511582
30
0
41
1
10
43.8668236158789
20
-13.8685815271542
30
0
41
1
10
44.0972553915979
20
-14.2099613828165
30
0
41
1
10
44.3263628978289
20
-14.5513973412571
30
0
0
SPLINE
5
17C
100
AcDbEntity
8
1
62
256
6
ByLayer
370
18
48
1
60
0
100
AcDbSpline
70
4
71
3
72
10
73
6
40
0
40
0
40
0
40
0
40
0.655488757716275
40
0.655488757716275
40
1
40
1
40
1
40
1
41
1
10
26.0674956172454
20
-5.05017492973434
30
0
41
1
10
25.7145576790923
20
-4.93920102807007
30
0
41
1
10
25.3086493523811
20
-4.85194457949882
30
0
41
1
10
24.6425844301177
20
-4.83019017630795
30
0
41
1
10
24.401973491465
20
-4.84316498837333
30
0
41
1
10
24.1603447260641
20
-4.88376890481584
30
0
0
SPLINE
5
17D
100
AcDbEntity
8
1
62
256
6
ByLayer
370
18
48
1
60
0
100
AcDbSpline
70
4
71
3
72
15
73
11
40
0
40
0
40
0
40
0
40
0.227604479949749
40
0.227604479949749
40
0.479423709218442
40
0.479423709218442
40
0.785574270382838
40
0.785574270382838
40
0.785574270382838
40
1
40
1
40
1
40
1
41
1
10
35.3979755949501
20
-14.1022839602952
30
0
41
1
10
35.3931448495367
20
-13.7612991018106
30
0
41
1
10
35.336732835337
20
-13.4149572110965
30
0
41
1
10
35.1271859354184
20
-12.7227115403253
30
0
41
1
10
34.9628320468831
20
-12.3724021210637
30
0
41
1
10
34.5111380519742
20
-11.6644697497363
30
0
41
1
10
34.1988021926175
20
-11.3110573523633
30
0
41
1
10
33.8444817088347
20
-11.0168822738938
30
0
41
1
10
33.5947895344592
20
-10.8095749960137
30
0
41
1
10
33.3207219885687
20
-10.6287562025932
30
0
41
1
10
33.0314815106913
20
-10.4820220416072
30
0
0
SPLINE
5
17E
100
AcDbEntity
8
1
62
256
6
ByLayer
370
18
48
1
60
0
100
AcDbSpline
70
4
71
3
72
8
73
4
40
0
40
0
40
0
40
0
40
1
40
1
40
1
40
1
41
1
10
25.9421117630278
20
-16.1491300864532
30
0
41
1
10
26.4262044263561
20
-16.8665969744257
30
0
41
1
10
27.166196618839
20
-17.3938747608405
30
0
41
1
10
28.0576614212157
20
-17.6353912528098
30
0
0
SPLINE
5
17F
100
AcDbEntity
8
1
62
256
6
ByLayer
370
18
48
1
60
0
100
AcDbSpline
70
4
71
3
72
8
73
4
40
0
40
0
40
0
40
0
40
1
40
1
40
1
40
1
41
1
10
22.7226664197627
20
-18.0916413785681
30
0
41
1
10
23.4638235611939
20
-17.7842743288121
30
0
41
1
10
24.6157676201742
20
-16.9585712035032
30
0
41
1
10
25.8142708393702
20
-15.9764901860706
30
0
0
SPLINE
5
180
100
AcDbEntity
8
1
62
256
6
ByLayer
370
18
48
1
60
0
100
AcDbSpline
70
4
71
3
72
12
73
8
40
0
40
0
40
0
40
0
40
0.108853988607131
40
0.502629237162305
40
0.699516861439891
40
0.896404485717478
40
1
40
1
40
1
40
1
41
1.02441262532206
10
35.3979755949502
20
-14.1022839602952
30
0
41
1.02394775682001
10
35.7173327666059
20
-14.2155754750445
30
0
41
1.02173322384668
10
37.2269764151236
20
-14.7563591319858
30
0
41
1.01876555595691
10
39.3375943257729
20
-15.5418426520323
30
0
41
1.01610930227499
10
40.7436226013296
20
-16.0846752087514
30
0
41
1.01814069306376
10
41.4187103170504
20
-16.2454006733401
30
0
41
1.02005196006971
10
42.0144379856603
20
-16.405515712361
30
0
41
1.02076673234773
10
42.231565660924
20
-16.4660612766801
30
0
0
SPLINE
5
181
100
AcDbEntity
8
1
62
256
6
ByLayer
370
18
48
1
60
0
100
AcDbSpline
70
4
71
3
72
11
73
7
40
0
40
0
40
0
40
0
40
0.423407924946022
40
0.740963868655539
40
0.899741840510297
40
1
40
1
40
1
40
1
41
1.02805999725224
10
30.0153387856294
20
-20.0673791106584
30
0
41
1.02767136955277
10
30.8698830613265
20
-20.1905832608213
30
0
41
1.02349884684923
10
34.113603686128
20
-19.8170935116505
30
0
41
1.01876555595691
10
38.2365111713232
20
-18.9471863053207
30
0
41
1.01635405201144
10
39.7899169909694
20
-18.6170332746811
30
0
41
1.01722454828215
10
40.2720716233836
20
-18.6925977490503
30
0
41
1.0177432798788
10
40.4699338817708
20
-18.7320598056794
30
0
0
SPLINE
5
182
100
AcDbEntity
8
1
62
256
6
ByLayer
370
18
48
1
60
0
100
AcDbSpline
70
4
71
2
72
6
73
3
40
0
40
0
40
0
40
1
40
1
40
1
41
1
10
42.2991008552315
20
-12.0411294830754
30
0
41
1
10
43.0101932905157
20
-12.7579367265724
30
0
41
1
10
43.6362284138381
20
-13.5289273504169
30
0
0
SPLINE
5
183
100
AcDbEntity
8
1
62
256
6
ByLayer
370
18
48
1
60
0
100
AcDbSpline
70
4
71
3
72
12
73
8
40
0
40
0
40
0
40
0
40
0.471343086678521
40
0.471343086678521
40
0.892619726108222
40
0.892619726108222
40
1
40
1
40
1
40
1
41
1
10
26.3340855326159
20
-10.121313806174
30
0
41
1
10
26.5109071091936
20
-10.1359938530565
30
0
41
1
10
26.6961774843329
20
-10.1362259073268
30
0
41
1
10
27.0419532891722
20
-10.0997050377372
30
0
41
1
10
27.2065772443208
20
-10.0661382358871
30
0
41
1
10
27.3980627917557
20
-10.0044215439808
30
0
41
1
10
27.4367268666688
20
-9.99070734514137
30
0
41
1
10
27.4744875534134
20
-9.97604844601193
30
0
0
SPLINE
5
184
100
AcDbEntity
8
1
62
256
6
ByLayer
370
18
48
1
60
0
100
AcDbSpline
70
4
71
3
72
12
73
8
40
0
40
0
40
0
40
0
40
0.286978363858296
40
0.286978363858296
40
0.569998995185618
40
0.569998995185618
40
1
40
1
40
1
40
1
41
1
10
34.75501492403
20
-16.426105913367
30
0
41
1
10
34.8777644679965
20
-16.2269420721254
30
0
41
1
10
34.9847107709926
20
-16.0168127366351
30
0
41
1
10
35.1614572628391
20
-15.5865790455933
30
0
41
1
10
35.2323569824088
20
-15.365175437189
30
0
41
1
10
35.3645082386549
20
-14.8008433949894
30
0
41
1
10
35.402874879259
20
-14.4492990506684
30
0
41
1
10
35.3979755949501
20
-14.1022839602952
30
0
0
SPLINE
5
185
100
AcDbEntity
8
1
62
256
6
ByLayer
370
18
48
1
60
0
100
AcDbSpline
70
4
71
3
72
8
73
4
40
0
40
0
40
0
40
0
40
1
40
1
40
1
40
1
41
1
10
30.0153387856294
20
-20.0673791106584
30
0
41
1
10
30.2456703608858
20
-19.7741480741312
30
0
41
1
10
30.5492326628362
20
-19.146491073886
30
0
41
1
10
30.8660637599205
20
-18.3083876879211
30
0
0
SPLINE
5
186
100
AcDbEntity
8
1
62
256
6
ByLayer
370
18
48
1
60
0
100
AcDbSpline
70
4
71
2
72
6
73
3
40
0
40
0
40
0
40
1
40
1
40
1
41
1.02805999725224
10
30.0153387856294
20
-20.0673791106584
30
0
41
1.02805999725224
10
29.6772086083517
20
-20.4978466323342
30
0
41
1.02805999725224
10
29.3390784310741
20
-20.92831415401
30
0
0
SPLINE
5
187
100
AcDbEntity
8
1
62
256
6
ByLayer
370
18
48
1
60
0
100
AcDbSpline
70
4
71
2
72
6
73
3
40
0
40
0
40
0
40
1
40
1
40
1
41
1
10
41.6854983374657
20
-20.5794304717758
30
0
41
1
10
40.7494793289348
20
-20.9274166549513
30
0
41
1
10
39.7689427580087
20
-21.1857582914679
30
0
0
SPLINE
5
188
100
AcDbEntity
8
1
62
256
6
ByLayer
370
18
48
1
60
0
100
AcDbSpline
70
4
71
3
72
8
73
4
40
0
40
0
40
0
40
0
40
1
40
1
40
1
40
1
41
1
10
42.2991936169833
20
-12.0409621329086
30
0
41
1
10
42.2044531769126
20
-11.9970333367773
30
0
41
1
10
42.1088081268286
20
-11.9552567001476
30
0
41
1
10
42.0122757724202
20
-11.9158793046923
30
0
0
SPLINE
5
189
100
AcDbEntity
8
1
62
256
6
ByLayer
370
18
48
1
60
0
100
AcDbSpline
70
4
71
3
72
8
73
4
40
0
40
0
40
0
40
0
40
1
40
1
40
1
40
1
41
1
10
40.1089340088695
20
-10.7650915586183
30
0
41
1
10
40.748061766593
20
-11.2673311297668
30
0
41
1
10
41.4126199597598
20
-11.6712682184208
30
0
41
1
10
42.0122757724202
20
-11.9158793046923
30
0
0
SPLINE
5
18A
100
AcDbEntity
8
1
62
256
6
ByLayer
370
18
48
1
60
0
100
AcDbSpline
70
4
71
3
72
8
73
4
40
0
40
0
40
0
40
0
40
1
40
1
40
1
40
1
41
1
10
39.453684436204
20
-21.1632734066337
30
0
41
1
10
39.5583473790709
20
-21.1732648056974
30
0
41
1
10
39.6634790885113
20
-21.1807542638491
30
0
41
1
10
39.7689364253896
20
-21.1859494932153
30
0
0
SPLINE
5
18B
100
AcDbEntity
8
1
62
256
6
ByLayer
370
18
48
1
60
0
100
AcDbSpline
70
4
71
3
72
10
73
6
40
0
40
0
40
0
40
0
40
0.5
40
0.5
40
1
40
1
40
1
40
1
41
1
10
41.5542835452758
20
-14.8129467609606
30
0
41
1
10
41.91115886485
20
-14.4677581503167
30
0
41
1
10
42.294307154452
20
-14.1817242768672
30
0
41
1
10
43.2191086377237
20
-13.9665372303309
30
0
41
1
10
43.7716264144974
20
-14.0665055614995
30
0
41
1
10
44.3263628978289
20
-14.5513973412571
30
0
0
SPLINE
5
18C
100
AcDbEntity
8
1
62
256
6
ByLayer
370
18
48
1
60
0
100
AcDbSpline
70
4
71
3
72
11
73
7
40
0
40
0
40
0
40
0
40
0.564783939443778
40
0.564783939443778
40
0.564783939443778
40
1
40
1
40
1
40
1
41
1
10
39.4536844362041
20
-21.1632734066337
30
0
41
1
10
39.0922684956839
20
-21.1287716929345
30
0
41
1
10
38.6776428690683
20
-21.1086100524767
30
0
41
1
10
38.2463189404389
20
-21.1331071485865
30
0
41
1
10
37.9112036748994
20
-21.1521400617241
30
0
41
1
10
37.561373136769
20
-21.1902915919172
30
0
41
1
10
37.2112817346818
20
-21.2379373665887
30
0
0
SPLINE
5
18D
100
AcDbEntity
8
1
62
256
6
ByLayer
370
18
48
1
60
0
100
AcDbSpline
70
4
71
3
72
10
73
6
40
0
40
0
40
0
40
0
40
0.264715639145587
40
0.264715639145587
40
1
40
1
40
1
40
1
41
1
10
43.1071882506844
20
-17.3226676542489
30
0
41
1
10
43.0292541813659
20
-17.2515585693803
30
0
41
1
10
42.9514910959468
20
-17.1790303221282
30
0
41
1
10
42.6584493118332
20
-16.9005480013169
30
0
41
1
10
42.4442646787257
20
-16.6866127548425
30
0
41
1
10
42.2315656609342
20
-16.466061276683
30
0
0
SPLINE
5
18E
100
AcDbEntity
8
1
62
256
6
ByLayer
370
18
48
1
60
0
100
AcDbSpline
70
4
71
3
72
8
73
4
40
0
40
0
40
0
40
0
40
1
40
1
40
1
40
1
41
1
10
27.4744875534134
20
-9.97604844601193
30
0
41
1
10
27.5426936111499
20
-9.9495704921774
30
0
41
1
10
27.6094874579168
20
-9.9202075855047
30
0
41
1
10
27.6744071735192
20
-9.88817776669381
30
0
0
SPLINE
5
18F
100
AcDbEntity
8
1
62
256
6
ByLayer
370
18
48
1
60
0
100
AcDbSpline
70
4
71
3
72
20
73
16
40
0
40
0
40
0
40
0
40
0.110576036200126
40
0.110576036200126
40
0.197179369122807
40
0.197179369122807
40
0.284291117387367
40
0.284291117387367
40
0.365904217918076
40
0.365904217918076
40
0.49727023339207
40
0.49727023339207
40
0.733496364826704
40
0.733496364826704
40
1
40
1
40
1
40
1
41
1
10
40.4699338818528
20
-18.7320598056958
30
0
41
1
10
40.4570863167704
20
-18.6942993202943
30
0
41
1
10
40.452278464391
20
-18.6509172397308
30
0
41
1
10
40.4663980077309
20
-18.5645468742767
30
0
41
1
10
40.480818600498
20
-18.5226158407088
30
0
41
1
10
40.5275119674966
20
-18.4360247969239
30
0
41
1
10
40.5605790956702
20
-18.3902570146396
30
0
41
1
10
40.636842049574
20
-18.3050295479324
30
0
41
1
10
40.6799810803764
20
-18.2643848769671
30
0
41
1
10
40.7987710379275
20
-18.1657343607966
30
0
41
1
10
40.8800648481129
20
-18.1102934510137
30
0
41
1
10
41.1077235118516
20
-17.9734036873896
30
0
41
1
10
41.2591848560639
20
-17.9022853314277
30
0
41
1
10
41.5732567643178
20
-17.7720774333337
30
0
41
1
10
41.7382378982418
20
-17.7147169806907
30
0
41
1
10
41.8999934221836
20
-17.6644469358514
30
0
0
SPLINE
5
190
100
AcDbEntity
8
1
62
256
6
ByLayer
370
18
48
1
60
0
100
AcDbSpline
70
4
71
3
72
8
73
4
40
0
40
0
40
0
40
0
40
1
40
1
40
1
40
1
41
1
10
33.0314815152112
20
-10.4820220171251
30
0
41
1
10
33.2018273063861
20
-9.55934531307403
30
0
41
1
10
33.2813732782159
20
-8.80235243493979
30
0
41
1
10
33.2544069064225
20
-8.36057036319116
30
0
0
SPLINE
5
191
100
AcDbEntity
8
1
62
256
6
ByLayer
370
18
48
1
60
0
100
AcDbSpline
70
4
71
3
72
10
73
6
40
0
40
0
40
0
40
0
40
0.5
40
0.5
40
1
40
1
40
1
40
1
41
1
10
42.801881396865
20
-20.0612578012375
30
0
41
1
10
42.0786010482376
20
-20.2280217649281
30
0
41
1
10
41.5291805378004
20
-20.090098693027
30
0
41
1
10
40.8176413462413
20
-19.5494756817825
30
0
41
1
10
40.6142316599521
20
-19.1562962299786
30
0
41
1
10
40.4699338818515
20
-18.7320598056955
30
0
0
SPLINE
5
192
100
AcDbEntity
8
1
62
256
6
ByLayer
370
18
48
1
60
0
100
AcDbSpline
70
4
71
3
72
12
73
8
40
0
40
0
40
0
40
0
40
0.46693897235862
40
0.46693897235862
40
0.928803236876549
40
0.928803236876549
40
1
40
1
40
1
40
1
41
1
10
25.8142708393765
20
-15.9764901860767
30
0
41
1
10
25.7067231142543
20
-15.8436968207706
30
0
41
1
10
25.574380392326
20
-15.7143012892824
30
0
41
1
10
25.2914495052292
20
-15.4889683259024
30
0
41
1
10
25.1375512471259
20
-15.3892379709937
30
0
41
1
10
24.9588601510656
20
-15.2917282633036
30
0
41
1
10
24.9347095501333
20
-15.2789204546015
30
0
41
1
10
24.9105190324623
20
-15.2664420143822
30
0
0
SPLINE
5
193
100
AcDbEntity
8
1
62
256
6
ByLayer
370
18
48
1
60
0
100
AcDbSpline
70
4
71
3
72
8
73
4
40
0
40
0
40
0
40
0
40
1
40
1
40
1
40
1
41
1
10
24.9105190324623
20
-15.2664420143822
30
0
41
1
10
23.5846421134903
20
-15.5745703805083
30
0
41
1
10
22.3556488882894
20
-15.8039795131759
30
0
41
1
10
21.5342638140606
20
-15.8397953782986
30
0
0
SPLINE
5
194
100
AcDbEntity
8
1
62
256
6
ByLayer
370
18
48
1
60
0
100
AcDbSpline
70
4
71
3
72
8
73
4
40
0
40
0
40
0
40
0
40
1
40
1
40
1
40
1
41
1
10
24.9105190324623
20
-15.2664420143822
30
0
41
1
10
24.6831668290212
20
-15.1491646200767
30
0
41
1
10
24.4522343371158
20
-15.0600711371816
30
0
41
1
10
24.2205363796594
20
-14.9919726288454
30
0
0
SPLINE
5
195
100
AcDbEntity
8
1
62
256
6
ByLayer
370
18
48
1
60
0
100
AcDbSpline
70
4
71
2
72
6
73
3
40
0
40
0
40
0
40
1
40
1
40
1
41
0.918913698082048
10
18.9082415413203
20
-3.58918262743668
30
0
41
0.956295412355916
10
19.3605598079723
20
-3.44373298598352
30
0
41
1.02613459695995
10
19.7735056511898
20
-3.53615154679979
30
0
0
SPLINE
5
196
100
AcDbEntity
8
1
62
256
6
ByLayer
370
18
48
1
60
0
100
AcDbSpline
70
4
71
3
72
8
73
4
40
0
40
0
40
0
40
0
40
1
40
1
40
1
40
1
41
1
10
22.0674431853701
20
-22.86212842484
30
0
41
1
10
21.9838583390784
20
-22.9223010327158
30
0
41
1
10
21.8994336129344
20
-22.9811030894465
30
0
41
1
10
21.8144982029415
20
-23.0383917493701
30
0
0
SPLINE
5
197
100
AcDbEntity
8
1
62
256
6
ByLayer
370
18
48
1
60
0
100
AcDbSpline
70
4
71
2
72
6
73
3
40
0
40
0
40
0
40
1
40
1
40
1
41
0.876719039568543
10
17.6562051071658
20
-4.44713756886163
30
0
41
0.876626620335456
10
17.6641146441296
20
-4.43857554486775
30
0
41
0.876544151664033
10
17.6720478490937
20
-4.43008043357031
30
0
0
SPLINE
5
198
100
AcDbEntity
8
1
62
256
6
ByLayer
370
18
48
1
60
0
100
AcDbSpline
70
4
71
3
72
12
73
8
40
0
40
0
40
0
40
0
40
0.5
40
0.5
40
0.75
40
0.75
40
1
40
1
40
1
40
1
41
1
10
17.1464047269168
20
-7.04402041334822
30
0
41
1
10
17.1617930866251
20
-6.51634373146862
30
0
41
1
10
17.1840740699035
20
-5.99804683228206
30
0
41
1
10
17.2643574310688
20
-5.25155426876796
30
0
41
1
10
17.2988352440078
20
-5.00321744222379
30
0
41
1
10
17.4141832621065
20
-4.56228782752729
30
0
41
1
10
17.5176851138434
20
-4.31883782135725
30
0
41
1
10
17.650223464474
20
-4.4123686552789
30
0
0
SPLINE
5
199
100
AcDbEntity
8
1
62
256
6
ByLayer
370
18
48
1
60
0
100
AcDbSpline
70
4
71
3
72
10
73
6
40
0
40
0
40
0
40
0
40
0.60834142572423
40
0.60834142572423
40
1
40
1
40
1
40
1
41
1
10
41.5279514274058
20
-11.1438455272342
30
0
41
1
10
41.342871038805
20
-11.0062792254042
30
0
41
1
10
41.1575612635649
20
-10.8687729627638
30
0
41
1
10
40.8525956287172
20
-10.6428301340916
30
0
41
1
10
40.7330647048382
20
-10.5543608594968
30
0
41
1
10
40.6134491223723
20
-10.4659137493799
30
0
0
SPLINE
5
19A
100
AcDbEntity
8
1
62
256
6
ByLayer
370
18
48
1
60
0
100
AcDbSpline
70
4
71
3
72
12
73
8
40
0
40
0
40
0
40
0
40
0.499998562505064
40
0.499998562505064
40
0.749999089468374
40
0.749999089468374
40
1
40
1
40
1
40
1
41
1
10
15.8175312796507
20
-19.725465985399
30
0
41
1
10
15.8321753165282
20
-19.7288116723115
30
0
41
1
10
15.84681689356
20
-19.7321272881194
30
0
41
1
10
15.8687755049004
20
-19.7370555676004
30
0
41
1
10
15.8760944408863
20
-19.7386908088142
30
0
41
1
10
15.8907310504604
20
-19.7419462364991
30
0
41
1
10
15.8980487268539
20
-19.7435664235714
30
0
41
1
10
15.9053657608039
20
-19.7451790786869
30
0
0
SPLINE
5
19B
100
AcDbEntity
8
1
62
256
6
ByLayer
370
18
48
1
60
0
100
AcDbSpline
70
4
71
3
72
8
73
4
40
0
40
0
40
0
40
0
40
1
40
1
40
1
40
1
41
1
10
20.9243349421681
20
-1.18084111366394
30
0
41
1
10
20.9709496488563
20
-1.13746202816847
30
0
41
1
10
21.0178801668315
20
-1.09438087853974
30
0
41
1
10
21.0651433124845
20
-1.05167763498258
30
0
0
SPLINE
5
19C
100
AcDbEntity
8
1
62
256
6
ByLayer
370
18
48
1
60
0
100
AcDbSpline
70
4
71
2
72
9
73
6
40
0
40
0
40
0
40
0.419655468653539
40
0.629483202980309
40
0.944224804470463
40
1
40
1
40
1
41
1.02613459695995
10
27.417843041138
20
-3.58343523107816
30
0
41
1.02613459695995
10
26.4856249565099
20
-3.2987199009967
30
0
41
1.02613459695995
10
24.9994042489059
20
-3.58846972442977
30
0
41
1.02613459695995
10
23.7688738292643
20
-4.15441071145394
30
0
41
1.02613459695995
10
22.9939253513854
20
-4.85817976124569
30
0
41
1.02613459695995
10
22.8780760501615
20
-4.98092674552617
30
0
0
SPLINE
5
19D
100
AcDbEntity
8
1
62
256
6
ByLayer
370
18
48
1
60
0
100
AcDbSpline
70
4
71
3
72
8
73
4
40
0
40
0
40
0
40
0
40
1
40
1
40
1
40
1
41
1
10
21.0651433124845
20
19.7489873158093
30
0
41
1
10
21.0304207301919
20
19.7489873158093
30
0
41
1
10
20.995695084021
20
19.7488957415293
30
0
41
1
10
20.9609847588647
20
19.7487125483234
30
0
0
SPLINE
5
19E
100
AcDbEntity
8
1
62
256
6
ByLayer
370
18
48
1
60
0
100
AcDbSpline
70
4
71
3
72
42
73
38
40
0
40
0
40
0
40
0
40
0.0001456804142605
40
0.0001456804142605
40
0.0001937817633148
40
0.0001937817633148
40
0.0002315129737234
40
0.0002315129737234
40
0.0002608512331963
40
0.0002608512331963
40
0.0002901055927536
40
0.0002901055927536
40
0.0003386251195921
40
0.0003386251195921
40
0.0004943097243277
40
0.0004943097243277
40
0.0012382920891912
40
0.0012382920891912
40
0.0042003780719068
40
0.0042003780719068
40
0.0160477891599016
40
0.0160477891599016
40
0.0634550680602548
40
0.0634550680602548
40
0.254714211900979
40
0.254714211900979
40
0.44572773331991
40
0.44572773331991
40
0.588326720652537
40
0.588326720652537
40
0.775841132949497
40
0.775841132949497
40
0.88603281454796
40
0.88603281454796
40
0.994826729030002
40
0.994826729030002
40
1
40
1
40
1
40
1
41
1
10
21.3448635620857
20
-5.27260410987506
30
0
41
1
10
21.3448623454915
20
-5.27268923778368
30
0
41
1
10
21.3448627721775
20
-5.27277473690862
30
0
41
1
10
21.3448772029376
20
-5.27287918696987
30
0
41
1
10
21.3448821104797
20
-5.27290452458283
30
0
41
1
10
21.3448953977109
20
-5.27294489559171
30
0
41
1
10
21.3449029842667
20
-5.27296121971824
30
0
41
1
10
21.3449205100575
20
-5.27298323928244
30
0
41
1
10
21.3449297681903
20
-5.27299056358481
30
0
41
1
10
21.3449501746099
20
-5.27299880445435
30
0
41
1
10
21.3449615050507
20
-5.27299987675065
30
0
41
1
10
21.344992023183
20
-5.27299645491036
30
0
41
1
10
21.3450119576353
20
-5.2729881973674
30
0
41
1
10
21.3450932287161
20
-5.27294341434339
30
0
41
1
10
21.3451532523274
20
-5.27288725234314
30
0
41
1
10
21.3454894019643
20
-5.27255955235236
30
0
41
1
10
21.3457502599346
20
-5.27223544217546
30
0
41
1
10
21.3470608510133
20
-5.27067311310975
30
0
41
1
10
21.3480969033849
20
-5.26939517243588
30
0
41
1
10
21.3533014231485
20
-5.26304932876235
30
0
41
1
10
21.3574881502774
20
-5.25798155205825
30
0
41
1
10
21.3785742205994
20
-5.23275688054821
30
0
41
1
10
21.3959022698138
20
-5.21289714818496
30
0
41
1
10
21.4852337714865
20
-5.11512020223006
30
0
41
1
10
21.5649305244932
20
-5.04219656258218
30
0
41
1
10
21.7422783113446
20
-4.91624229699315
30
0
41
1
10
21.8301020007925
20
-4.83367509544252
30
0
41
1
10
22.0195458796533
20
-4.77622215651633
30
0
41
1
10
22.1094961731723
20
-4.78036835796411
30
0
41
1
10
22.3132547120711
20
-4.78551480805896
30
0
41
1
10
22.4334861094936
20
-4.78483573804468
30
0
41
1
10
22.6102971576221
20
-4.81695293575831
30
0
41
1
10
22.6736044616856
20
-4.83812055556456
30
0
41
1
10
22.7837306268913
20
-4.89621605132248
30
0
41
1
10
22.8321035799276
20
-4.93342012859443
30
0
41
1
10
22.8742978795274
20
-4.97694679110694
30
0
41
1
10
22.8761863385628
20
-4.97894375482477
30
0
41
1
10
22.8780760501615
20
-4.98092674552609
30
0
0
SPLINE
5
19F
100
AcDbEntity
8
1
62
256
6
ByLayer
370
18
48
1
60
0
100
AcDbSpline
70
4
71
3
72
12
73
8
40
0
40
0
40
0
40
0
40
0.383021196746329
40
0.383021196746329
40
0.691426259874175
40
0.691426259874175
40
1
40
1
40
1
40
1
41
1
10
21.2400090156453
20
-0.899863085775593
30
0
41
1
10
21.278425547663
20
-0.867853156928021
30
0
41
1
10
21.3172761539518
20
-0.836356472902168
30
0
41
1
10
21.3881885223267
20
-0.780499906672333
30
0
41
1
10
21.4201030797305
20
-0.755941382341774
30
0
41
1
10
21.4845124486815
20
-0.707569085696235
30
0
41
1
10
21.5170120082649
20
-0.683752406775625
30
0
41
1
10
21.5497935560397
20
-0.660335244747046
30
0
0
SPLINE
5
1A0
100
AcDbEntity
8
1
62
256
6
ByLayer
370
18
48
1
60
0
100
AcDbSpline
70
4
71
2
72
9
73
6
40
0
40
0
40
0
40
0.0580306533587653
40
0.434818392015259
40
0.623212261343506
40
1
40
1
40
1
41
1.02613459695995
10
20.9243349421682
20
-1.18084111366377
30
0
41
1.02613459695995
10
20.8582310512492
20
-1.27321480630581
30
0
41
1.02613459695995
10
20.3649491257391
20
-2.00763747804861
30
0
41
1.02613459695995
10
20.1355682165819
20
-2.51556307215213
30
0
41
1.02613459695995
10
19.8914742436932
20
-3.10994116455458
30
0
41
1.02613459695995
10
19.7735056511898
20
-3.53615154679979
30
0
0
SPLINE
5
1A1
100
AcDbEntity
8
1
62
256
6
ByLayer
370
18
48
1
60
0
100
AcDbSpline
70
4
71
2
72
9
73
6
40
0
40
0
40
0
40
0.419655468653539
40
0.629483202980308
40
0.944224804470462
40
1
40
1
40
1
41
1.02613459695995
10
22.6212333309349
20
-20.9195919340264
30
0
41
1.02613459695995
10
21.6897473256161
20
-20.6322306847662
30
0
41
1.02613459695995
10
20.583998738152
20
-19.5468583501847
30
0
41
1.02613459695995
10
19.8347793925346
20
-18.3732197786722
30
0
41
1.02613459695995
10
19.5401137871343
20
-17.3411254495194
30
0
41
1.02613459695995
10
19.5050088260503
20
-17.172042033139
30
0
0
SPLINE
5
1A2
100
AcDbEntity
8
1
62
256
6
ByLayer
370
18
48
1
60
0
100
AcDbSpline
70
4
71
3
72
10
73
6
40
0
40
0
40
0
40
0
40
0.5
40
0.5
40
1
40
1
40
1
40
1
41
1
10
21.5497935498981
20
-0.660335249134278
30
0
41
1
10
22.5602259482278
20
0.061456761082411
30
0
41
1
10
23.8598878021611
20
0.381951336566317
30
0
41
1
10
26.2339389510787
20
-0.175298732286393
30
0
41
1
10
27.2799021092182
20
-1.09860154189184
30
0
41
1
10
27.6379589409236
20
-2.28973441565154
30
0
0
SPLINE
5
1A3
100
AcDbEntity
8
1
62
256
6
ByLayer
370
18
48
1
60
0
100
AcDbSpline
70
4
71
3
72
44
73
40
40
0
40
0
40
0
40
0
40
0.0051940143930544
40
0.0051940143930544
40
0.0199010099940767
40
0.0199010099940767
40
0.129752324392501
40
0.129752324392501
40
0.239839709780901
40
0.239839709780901
40
0.428838376009332
40
0.428838376009332
40
0.54963109795076
40
0.54963109795076
40
0.669783094362901
40
0.669783094362901
40
0.866798352997058
40
0.866798352997058
40
0.966549470034094
40
0.966549470034094
40
0.991441196110103
40
0.991441196110103
40
0.997663555546235
40
0.997663555546235
40
0.999220061715799
40
0.999220061715799
40
0.999613367456667
40
0.999613367456667
40
0.999703345415488
40
0.999703345415488
40
0.99974117610183
40
0.99974117610183
40
0.999773455124381
40
0.999773455124381
40
0.999805393914953
40
0.999805393914953
40
0.999853555595758
40
0.999853555595758
40
1
40
1
40
1
40
1
41
1
10
19.5050088260504
20
-17.1720420331391
30
0
41
1
10
19.5024035540256
20
-17.1726452582017
30
0
41
1
10
19.4997918919712
20
-17.1732621324936
30
0
41
1
10
19.4896285790043
20
-17.1755280825886
30
0
41
1
10
19.4820134610667
20
-17.1770679328958
30
0
41
1
10
19.4176077397052
20
-17.1887253830404
30
0
41
1
10
19.3561170906768
20
-17.1906727378989
30
0
41
1
10
19.231481755031
20
-17.1739922819284
30
0
41
1
10
19.1669060982105
20
-17.1549781521391
30
0
41
1
10
18.9998755181584
20
-17.0818357064997
30
0
41
1
10
18.8957493732868
20
-17.01967210927
30
0
41
1
10
18.729766369422
20
-16.9258051191825
30
0
41
1
10
18.663931945701
20
-16.8893068577922
30
0
41
1
10
18.5643144603261
20
-16.7887959669189
30
0
41
1
10
18.5410476526969
20
-16.7178310684584
30
0
41
1
10
18.4612135456717
20
-16.5554605818276
30
0
41
1
10
18.4140142522216
20
-16.4582637876873
30
0
41
1
10
18.3680655386164
20
-16.3047510775265
30
0
41
1
10
18.3554833078669
20
-16.2525252348585
30
0
41
1
10
18.3429195570386
20
-16.1870749390695
30
0
41
1
10
18.3405674507475
20
-16.1739798887828
30
0
41
1
10
18.3378108900481
20
-16.1576039806986
30
0
41
1
10
18.3372734256673
20
-16.1543249776095
30
0
41
1
10
18.3365925002171
20
-16.1502407095015
30
0
41
1
10
18.3364636971532
20
-16.1494175540847
30
0
41
1
10
18.3362611976049
20
-16.148420365011
30
0
41
1
10
18.3362229653472
20
-16.1482138576288
30
0
41
1
10
18.336136835449
20
-16.1480023237727
30
0
41
1
10
18.3361184011646
20
-16.1479641744195
30
0
41
1
10
18.3360828232316
20
-16.1479265758041
30
0
41
1
10
18.3360707356065
20
-16.1479175925604
30
0
41
1
10
18.3360458201604
20
-16.1479095153668
30
0
41
1
10
18.336033048051
20
-16.1479092685492
30
0
41
1
10
18.3360074174945
20
-16.1479162798347
30
0
41
1
10
18.3359942814678
20
-16.1479234230937
30
0
41
1
10
18.3359627405335
20
-16.1479466251913
30
0
41
1
10
18.3359444868625
20
-16.1479654090926
30
0
41
1
10
18.3358751891707
20
-16.1480470773245
30
0
41
1
10
18.3358294798448
20
-16.1481224253394
30
0
41
1
10
18.3357856921375
20
-16.1481977036002
30
0
0
SPLINE
5
1A4
100
AcDbEntity
8
1
62
256
6
ByLayer
370
18
48
1
60
0
100
AcDbSpline
70
4
71
3
72
28
73
24
40
0
40
0
40
0
40
0
40
0.375750671312395
40
0.375750671312395
40
0.835284201547664
40
0.835284201547664
40
0.950182620400015
40
0.950182620400015
40
0.979066686640622
40
0.979066686640622
40
0.985266405685399
40
0.985266405685399
40
0.987298849419949
40
0.987298849419949
40
0.988614382569415
40
0.988614382569415
40
0.989930636785682
40
0.989930636785682
40
0.99202598574719
40
0.99202598574719
40
0.994087300269246
40
0.994087300269246
40
1
40
1
40
1
40
1
41
1
10
17.6502234645028
20
-4.41236865529652
30
0
41
1
10
17.6509114621698
20
-4.41680409547345
30
0
41
1
10
17.6516050739299
20
-4.42124816954487
30
0
41
1
10
17.6531596221765
20
-4.43114573177749
30
0
41
1
10
17.6540199168092
20
-4.43660597998252
30
0
41
1
10
17.6551193191828
20
-4.44343605781762
30
0
41
1
10
17.6553329158748
20
-4.44480838811202
30
0
41
1
10
17.6556369777319
20
-4.44649842204421
30
0
41
1
10
17.6556919062008
20
-4.44684555299639
30
0
41
1
10
17.6558078409549
20
-4.44722060481138
30
0
41
1
10
17.6558304454136
20
-4.44728681372709
30
0
41
1
10
17.6558760169841
20
-4.44735188035307
30
0
41
1
10
17.6558890158506
20
-4.44736604701132
30
0
41
1
10
17.6559139938986
20
-4.447380291352
30
0
41
1
10
17.6559249569399
20
-4.44738352201756
30
0
41
1
10
17.6559479133285
20
-4.44738333882916
30
0
41
1
10
17.6559601495699
20
-4.44737988770956
30
0
41
1
10
17.6559910209278
20
-4.44736422235206
30
0
41
1
10
17.6560097789575
20
-4.44734817018733
30
0
41
1
10
17.6560445764041
20
-4.4473119616768
30
0
41
1
10
17.6560611046717
20
-4.4472914752406
30
0
41
1
10
17.6561224086613
20
-4.44720886869931
30
0
41
1
10
17.6561635879154
20
-4.44714003597824
30
0
41
1
10
17.6562033455443
20
-4.44707050988282
30
0
0
SPLINE
5
1A5
100
AcDbEntity
8
1
62
256
6
ByLayer
370
18
48
1
60
0
100
AcDbSpline
70
4
71
3
72
12
73
8
40
0
40
0
40
0
40
0
40
0.249999009664687
40
0.249999009664687
40
0.624998856339329
40
0.624998856339329
40
1
40
1
40
1
40
1
41
1
10
15.9053657608039
20
-19.7451790786869
30
0
41
1
10
15.9126828144211
20
-19.746791738137
30
0
41
1
10
15.9199992283998
20
-19.7483968662087
30
0
41
1
10
15.9382886798325
20
-19.7523908559916
30
0
41
1
10
15.9492609152169
20
-19.7547703001485
30
0
41
1
10
15.9712024689284
20
-19.7594952640218
30
0
41
1
10
15.9821717967317
20
-19.7618407856634
30
0
41
1
10
15.993139629687
20
-19.7641693294297
30
0
0
SPLINE
5
1A6
100
AcDbEntity
8
1
62
256
6
ByLayer
370
18
48
1
60
0
100
AcDbSpline
70
4
71
2
72
9
73
6
40
0
40
0
40
0
40
0.143398252212994
40
0.486038951327797
40
0.657359300885198
40
1
40
1
40
1
41
1
10
21.2400090153519
20
-0.899863086139987
30
0
41
1
10
21.0591188187067
20
-1.12454495730347
30
0
41
1
10
20.4527788649704
20
-2.02729404616753
30
0
41
1
10
20.2233979558132
20
-2.53521964027104
30
0
41
1
10
19.9793039829244
20
-3.12959773267352
30
0
41
1
10
19.8613353904211
20
-3.55580811491873
30
0
0
SPLINE
5
1A7
100
AcDbEntity
8
1
62
256
6
ByLayer
370
18
48
1
60
0
100
AcDbSpline
70
4
71
2
72
6
73
3
40
0
40
0
40
0
40
1
40
1
40
1
41
1.02613459695995
10
19.9491651296524
20
-3.57546468303765
30
0
41
0.864503226079893
10
21.0063356620277
20
-3.8120627279005
30
0
41
0.876719039568543
10
21.3448270413233
20
-5.27266260113727
30
0
0
SPLINE
5
1A8
100
AcDbEntity
8
1
62
256
6
ByLayer
370
18
48
1
60
0
100
AcDbSpline
70
4
71
3
72
8
73
4
40
0
40
0
40
0
40
0
40
1
40
1
40
1
40
1
41
1
10
22.4361101793691
20
-25.4228317485852
30
0
41
1
10
22.3130230042304
20
-24.9523788303363
30
0
41
1
10
22.1901228022383
20
-24.481874748863
30
0
41
1
10
22.0674431853701
20
-24.0113106173276
30
0
0
SPLINE
5
1A9
100
AcDbEntity
8
1
62
256
6
ByLayer
370
18
48
1
60
0
100
AcDbSpline
70
4
71
3
72
8
73
4
40
0
40
0
40
0
40
0
40
1
40
1
40
1
40
1
41
1
10
22.0674431853701
20
-24.0113106173276
30
0
41
1
10
21.9828111609018
20
-23.6866862330112
30
0
41
1
10
21.8984837729073
20
-23.3623823001686
30
0
41
1
10
21.8144982029413
20
-23.0383917493697
30
0
0
SPLINE
5
1AA
100
AcDbEntity
8
1
62
256
6
ByLayer
370
18
48
1
60
0
100
AcDbSpline
70
4
71
3
72
10
73
6
40
0
40
0
40
0
40
0
40
0.499900191247729
40
0.499900191247729
40
1
40
1
40
1
40
1
41
1
10
21.0651433124845
20
-1.05167763498258
30
0
41
1
10
21.0937765824325
20
-1.0258068749319
30
0
41
1
10
21.1226614058575
20
-1.00021164414909
30
0
41
1
10
21.18094675009
20
-0.949597172851924
30
0
41
1
10
21.2103504058203
20
-0.924575625762429
30
0
41
1
10
21.2400090168667
20
-0.899863087182069
30
0
0
SPLINE
5
1AB
100
AcDbEntity
8
1
62
256
6
ByLayer
370
18
48
1
60
0
100
AcDbSpline
70
4
71
1
72
4
73
2
40
0
40
0
40
1
40
1
41
1
10
19.8613353904211
20
-3.55580811491873
30
0
41
1
10
19.7735056511898
20
-3.5361515467998
30
0
0
SPLINE
5
1AC
100
AcDbEntity
8
1
62
256
6
ByLayer
370
18
48
1
60
0
100
AcDbSpline
70
4
71
3
72
16
73
12
40
0
40
0
40
0
40
0
40
0.114691258188364
40
0.114691258188364
40
0.256006982052499
40
0.256006982052499
40
0.478481509698429
40
0.478481509698429
40
0.904237458570111
40
0.904237458570111
40
1
40
1
40
1
40
1
41
1
10
6.92320508075687
20
-19.1222825906926
30
0
41
1
10
6.90623920058411
20
-19.1222825906926
30
0
41
1
10
6.88906253212411
20
-19.1213397893258
30
0
41
1
10
6.85346109846185
20
-19.117563257367
30
0
41
1
10
6.83507168736793
20
-19.1143205262483
30
0
41
1
10
6.79305201772169
20
-19.1044641374227
30
0
41
1
10
6.77140364934789
20
-19.0968571256395
30
0
41
1
10
6.71814486104421
20
-19.0732678361841
30
0
41
1
10
6.69359399943792
20
-19.0554522237109
30
0
41
1
10
6.67087946572559
20
-19.0329978954364
30
0
41
1
10
6.66699503410797
20
-19.0288038685174
30
0
41
1
10
6.66339745962154
20
-19.0245744101322
30
0
0
SPLINE
5
1AD
100
AcDbEntity
8
1
62
256
6
ByLayer
370
18
48
1
60
0
100
AcDbSpline
70
4
71
3
72
16
73
12
40
0
40
0
40
0
40
0
40
0.464304267159312
40
0.464304267159312
40
0.64753348514198
40
0.64753348514198
40
0.833383675860513
40
0.833383675860513
40
0.950238074309858
40
0.950238074309858
40
1
40
1
40
1
40
1
41
1
10
9.33660254037844
20
-19.0245744101322
30
0
41
1
10
9.31929643456959
20
-19.0449201888242
30
0
41
1
10
9.29554416795261
20
-19.0647708693882
30
0
41
1
10
9.24667293447288
20
-19.0892734034403
30
0
41
1
10
9.23079711658974
20
-19.0959253431035
30
0
41
1
10
9.19394564855392
20
-19.1078085849622
30
0
41
1
10
9.17240809259957
20
-19.1131587398644
30
0
41
1
10
9.13286934844766
20
-19.1192406569511
30
0
41
1
10
9.1161352553444
20
-19.1209710216544
30
0
41
1
10
9.09170798023393
20
-19.1221075563677
30
0
41
1
10
9.08424032311152
20
-19.1222825906926
30
0
41
1
10
9.07679491924313
20
-19.1222825906926
30
0
0
SPLINE
5
1AE
100
AcDbEntity
8
1
62
256
6
ByLayer
370
18
48
1
60
0
100
AcDbSpline
70
4
71
3
72
16
73
12
40
0
40
0
40
0
40
0
40
0.464304267159304
40
0.464304267159304
40
0.647533485141974
40
0.647533485141974
40
0.833383675860506
40
0.833383675860506
40
0.950238074309851
40
0.950238074309851
40
1
40
1
40
1
40
1
41
1
10
9.33660254037844
20
6.16973001948568
30
0
41
1
10
9.31929643456959
20
6.10699311212741
30
0
41
1
10
9.29554416795261
20
6.04466199750289
30
0
41
1
10
9.24667293447288
20
5.96658891111872
30
0
41
1
10
9.23079711658974
20
5.94525308185362
30
0
41
1
10
9.19394564855392
20
5.90694983484818
30
0
41
1
10
9.17240809259957
20
5.88959453036583
30
0
41
1
10
9.13286934844766
20
5.86981268651903
30
0
41
1
10
9.1161352553444
20
5.86416869949437
30
0
41
1
10
9.09170798023393
20
5.86046107106307
30
0
41
1
10
9.08424032311152
20
5.85988980456935
30
0
41
1
10
9.07679491924313
20
5.85988980456935
30
0
0
SPLINE
5
1AF
100
AcDbEntity
8
1
62
256
6
ByLayer
370
18
48
1
60
0
100
AcDbSpline
70
4
71
3
72
12
73
8
40
0
40
0
40
0
40
0
40
0.5
40
0.5
40
0.75
40
0.75
40
1
40
1
40
1
40
1
41
1
10
15.993139629687
20
-19.7641693294297
30
0
41
1
10
16.5727954823601
20
-19.8872341160526
30
0
41
1
10
17.2337501955353
20
-19.9491655229321
30
0
41
1
10
18.6199610070216
20
-19.9801014192182
30
0
41
1
10
19.1330266464493
20
-19.98083781719
30
0
41
1
10
20.0903457665422
20
-19.967185269075
30
0
41
1
10
20.5173164466123
20
-19.952374541195
30
0
41
1
10
20.92079238
20
-19.9279612098282
30
0
0
SPLINE
5
1B0
100
AcDbEntity
8
1
62
256
6
ByLayer
370
18
48
1
60
0
100
AcDbSpline
70
4
71
3
72
10
73
6
40
0
40
0
40
0
40
0
40
0.321407344895978
40
0.321407344895978
40
1
40
1
40
1
40
1
41
1
10
17.6502234645003
20
-4.41236865529717
30
0
41
1
10
17.6525533355226
20
-4.41422040196414
30
0
41
1
10
17.6548865614884
20
-4.41608639509286
30
0
41
1
10
17.6621584900654
20
-4.42193596506903
30
0
41
1
10
17.6671089778299
20
-4.42596662541439
30
0
41
1
10
17.6720747436199
20
-4.43005162579789
30
0
0
SPLINE
5
1B1
100
AcDbEntity
8
1
62
256
6
ByLayer
370
18
48
1
60
0
100
AcDbSpline
70
4
71
3
72
16
73
12
40
0
40
0
40
0
40
0
40
0.464304267159293
40
0.464304267159293
40
0.647533485141969
40
0.647533485141969
40
0.833383675860506
40
0.833383675860506
40
0.950238074309852
40
0.950238074309852
40
1
40
1
40
1
40
1
41
1
10
6.66339745962156
20
19.0245744101322
30
0
41
1
10
6.68070356543041
20
19.0449201888242
30
0
41
1
10
6.70445583204739
20
19.0647708693882
30
0
41
1
10
6.75332706552712
20
19.0892734034403
30
0
41
1
10
6.76920288341026
20
19.0959253431035
30
0
41
1
10
6.80605435144608
20
19.1078085849622
30
0
41
1
10
6.82759190740043
20
19.1131587398644
30
0
41
1
10
6.86713065155234
20
19.1192406569511
30
0
41
1
10
6.8838647446556
20
19.1209710216544
30
0
41
1
10
6.90829201976607
20
19.1221075563677
30
0
41
1
10
6.91575967688848
20
19.1222825906926
30
0
41
1
10
6.92320508075687
20
19.1222825906926
30
0
0
SPLINE
5
1B2
100
AcDbEntity
8
1
62
256
6
ByLayer
370
18
48
1
60
0
100
AcDbSpline
70
4
71
3
72
12
73
8
40
0
40
0
40
0
40
0
40
0.25
40
0.25
40
0.5
40
0.5
40
1
40
1
40
1
40
1
41
1
10
15.6717480265634
20
-18.3436105341824
30
0
41
1
10
15.2989278325512
20
-18.4542862570108
30
0
41
1
10
14.9718967251337
20
-18.5874138179287
30
0
41
1
10
14.5953026379797
20
-18.8819450778328
30
0
41
1
10
14.5577949906098
20
-19.0380020413447
30
0
41
1
10
14.7926063383364
20
-19.4267178533844
30
0
41
1
10
15.2759933270761
20
-19.60174214779
30
0
41
1
10
15.8175312796507
20
-19.725465985399
30
0
0
SPLINE
5
1B3
100
AcDbEntity
8
1
62
256
6
ByLayer
370
18
48
1
60
0
100
AcDbSpline
70
4
71
2
72
9
73
6
40
0
40
0
40
0
40
0.212450297918643
40
0.527470178751186
40
0.684980119167457
40
1
40
1
40
1
41
1
10
21.5497935498981
20
-0.660335249134278
30
0
41
1
10
21.2563300111206
20
-0.981348976137554
30
0
41
1
10
20.5406086042017
20
-2.04695061428643
30
0
41
1
10
20.3112276950445
20
-2.55487620838994
30
0
41
1
10
20.0671337221558
20
-3.14925430079242
30
0
41
1
10
19.9491651296524
20
-3.57546468303764
30
0
0
SPLINE
5
1B4
100
AcDbEntity
8
1
62
256
6
ByLayer
370
18
48
1
60
0
100
AcDbSpline
70
4
71
2
72
6
73
3
40
0
40
0
40
0
40
1
40
1
40
1
41
1.02613459695995
10
27.417843041138
20
-3.58343523107816
30
0
41
0.959072062828685
10
27.5977824435182
20
-2.93308886871661
30
0
41
0.921937430421272
10
27.6379589409236
20
-2.28973441565148
30
0
0
SPLINE
5
1B5
100
AcDbEntity
8
1
62
256
6
ByLayer
370
18
48
1
60
0
100
AcDbSpline
70
4
71
3
72
8
73
4
40
0
40
0
40
0
40
0
40
1
40
1
40
1
40
1
41
1
10
40.6181496426424
20
-10.5060967688314
30
0
41
1
10
40.5095497394164
20
-10.42560311946
30
0
41
1
10
40.4008771974023
20
-10.3451284849502
30
0
41
1
10
40.2921348750642
20
-10.2646721191169
30
0
0
SPLINE
5
1B6
100
AcDbEntity
8
1
62
256
6
ByLayer
370
18
48
1
60
0
100
AcDbSpline
70
4
71
3
72
8
73
4
40
0
40
0
40
0
40
0
40
1
40
1
40
1
40
1
41
1
10
18.9082258169315
20
-3.58918768391626
30
0
41
1
10
19.4430370824163
20
-2.71990716539298
30
0
41
1
10
20.1328721547529
20
-1.91736686617819
30
0
41
1
10
20.9243349421682
20
-1.1808411136638
30
0
0
SPLINE
5
1B7
100
AcDbEntity
8
1
62
256
6
ByLayer
370
18
48
1
60
0
100
AcDbSpline
70
4
71
1
72
4
73
2
40
0
40
0
40
1
40
1
41
1
10
19.9491651296524
20
-3.57546468303764
30
0
41
1
10
19.8613353904211
20
-3.55580811491873
30
0
0
SPLINE
5
1B8
100
AcDbEntity
8
1
62
256
6
ByLayer
370
18
48
1
60
0
100
AcDbSpline
70
4
71
3
72
16
73
12
40
0
40
0
40
0
40
0
40
0.46430426715929
40
0.46430426715929
40
0.647533485141967
40
0.647533485141967
40
0.833383675860504
40
0.833383675860504
40
0.950238074309844
40
0.950238074309844
40
1
40
1
40
1
40
1
41
1
10
6.66339745962156
20
-6.16973001948568
30
0
41
1
10
6.68070356543041
20
-6.10699311212741
30
0
41
1
10
6.70445583204739
20
-6.04466199750289
30
0
41
1
10
6.75332706552712
20
-5.96658891111872
30
0
41
1
10
6.76920288341026
20
-5.94525308185362
30
0
41
1
10
6.80605435144608
20
-5.90694983484818
30
0
41
1
10
6.82759190740043
20
-5.88959453036586
30
0
41
1
10
6.86713065155234
20
-5.86981268651903
30
0
41
1
10
6.8838647446556
20
-5.8641686994944
30
0
41
1
10
6.90829201976607
20
-5.86046107106307
30
0
41
1
10
6.91575967688848
20
-5.85988980456935
30
0
41
1
10
6.92320508075687
20
-5.85988980456935
30
0
0
SPLINE
5
1B9
100
AcDbEntity
8
1
62
256
6
ByLayer
370
18
48
1
60
0
100
AcDbSpline
70
4
71
3
72
16
73
12
40
0
40
0
40
0
40
0
40
0.114691258188368
40
0.114691258188368
40
0.256006982052502
40
0.256006982052502
40
0.47848150969846
40
0.47848150969846
40
0.904237458570168
40
0.904237458570168
40
1
40
1
40
1
40
1
41
1
10
6.9232050807569
20
5.85988980456938
30
0
41
1
10
6.90623920058411
20
5.85988980456938
30
0
41
1
10
6.88906253212411
20
5.8629683550426
30
0
41
1
10
6.85346109846185
20
5.87527238052311
30
0
41
1
10
6.8350716873679
20
5.88582364044447
30
0
41
1
10
6.79305201772166
20
5.91775860341622
30
0
41
1
10
6.77140364934789
20
5.94228809980598
30
0
41
1
10
6.71814486104418
20
6.01773563791645
30
0
41
1
10
6.69359399943792
20
6.07398601286488
30
0
41
1
10
6.67087946572559
20
6.14371014971229
30
0
41
1
10
6.66699503410797
20
6.15668833929709
30
0
41
1
10
6.66339745962154
20
6.16973001948568
30
0
0
SPLINE
5
1BA
100
AcDbEntity
8
1
62
256
6
ByLayer
370
18
48
1
60
0
100
AcDbSpline
70
4
71
3
72
10
73
6
40
0
40
0
40
0
40
0
40
0.5
40
0.5
40
1
40
1
40
1
40
1
41
1
10
17.0803645201175
20
18.4785397031243
30
0
41
1
10
17.1607362481336
20
18.8589247873746
30
0
41
1
10
17.5682113664009
20
19.1459166129717
30
0
41
1
10
18.9669005807707
20
19.5099726158561
30
0
41
1
10
19.9225318765138
20
19.5880225669773
30
0
41
1
10
20.92079238
20
19.5953859168696
30
0
0
SPLINE
5
1BB
100
AcDbEntity
8
1
62
256
6
ByLayer
370
18
48
1
60
0
100
AcDbSpline
70
4
71
2
72
6
73
3
40
0
40
0
40
0
40
1
40
1
40
1
41
0.88950302317607
10
21.7461350646048
20
-22.8168170454274
30
0
41
0.921138593899069
10
22.3279108551799
20
-21.9797333070816
30
0
41
1.02613459695995
10
22.6212333309349
20
-20.9195919340264
30
0
0
SPLINE
5
1BC
100
AcDbEntity
8
1
62
256
6
ByLayer
370
18
48
1
60
0
100
AcDbSpline
70
4
71
3
72
8
73
4
40
0
40
0
40
0
40
0
40
1
40
1
40
1
40
1
41
1
10
20.9609847588647
20
19.7487125483234
30
0
41
1
10
20.9475817320637
20
19.6976046271877
30
0
41
1
10
20.9341842105476
20
19.6464956774885
30
0
41
1
10
20.92079238
20
19.5953859168696
30
0
0
SPLINE
5
1BD
100
AcDbEntity
8
1
62
256
6
ByLayer
370
18
48
1
60
0
100
AcDbSpline
70
4
71
3
72
8
73
4
40
0
40
0
40
0
40
0
40
1
40
1
40
1
40
1
41
1
10
21.7461350646049
20
-22.8168170454274
30
0
41
1
10
21.4979518137162
20
-22.0053782188395
30
0
41
1
10
21.2152113653717
20
-20.9967887628067
30
0
41
1
10
20.92079238
20
-19.9279612098282
30
0
0
SPLINE
5
1BE
100
AcDbEntity
8
1
62
256
6
ByLayer
370
18
48
1
60
0
100
AcDbSpline
70
4
71
3
72
16
73
12
40
0
40
0
40
0
40
0
40
0.114691258188364
40
0.114691258188364
40
0.256006982052491
40
0.256006982052491
40
0.478481509698431
40
0.478481509698431
40
0.904237458570125
40
0.904237458570125
40
1
40
1
40
1
40
1
41
1
10
9.07679491924313
20
-5.85988980456938
30
0
41
1
10
9.09376079941589
20
-5.85988980456938
30
0
41
1
10
9.11093746787589
20
-5.8629683550426
30
0
41
1
10
9.14653890153815
20
-5.87527238052311
30
0
41
1
10
9.1649283126321
20
-5.88582364044447
30
0
41
1
10
9.20694798227834
20
-5.91775860341619
30
0
41
1
10
9.22859635065211
20
-5.94228809980598
30
0
41
1
10
9.28185513895579
20
-6.01773563791645
30
0
41
1
10
9.30640600056208
20
-6.07398601286488
30
0
41
1
10
9.32912053427441
20
-6.14371014971229
30
0
41
1
10
9.33300496589203
20
-6.15668833929709
30
0
41
1
10
9.33660254037846
20
-6.16973001948568
30
0
0
SPLINE
5
1BF
100
AcDbEntity
8
1
62
256
6
ByLayer
370
18
48
1
60
0
100
AcDbSpline
70
4
71
3
72
8
73
4
40
0
40
0
40
0
40
0
40
1
40
1
40
1
40
1
41
1
10
21.746135067122
20
-22.8168170536564
30
0
41
1
10
21.769168662537
20
-22.8921168015212
30
0
41
1
10
21.7919507426373
20
-22.9659632136723
30
0
41
1
10
21.8144982029415
20
-23.0383917493705
30
0
0
SPLINE
5
1C0
100
AcDbEntity
8
1
62
256
6
ByLayer
370
18
48
1
60
0
100
AcDbSpline
70
4
71
3
72
16
73
12
40
0
40
0
40
0
40
0
40
0.114691258188362
40
0.114691258188362
40
0.256006982052503
40
0.256006982052503
40
0.47848150969845
40
0.47848150969845
40
0.904237458570186
40
0.904237458570186
40
1
40
1
40
1
40
1
41
1
10
9.07679491924313
20
19.1222825906926
30
0
41
1
10
9.09376079941589
20
19.1222825906926
30
0
41
1
10
9.11093746787589
20
19.1213397893258
30
0
41
1
10
9.14653890153815
20
19.117563257367
30
0
41
1
10
9.1649283126321
20
19.1143205262483
30
0
41
1
10
9.20694798227834
20
19.1044641374228
30
0
41
1
10
9.22859635065211
20
19.0968571256395
30
0
41
1
10
9.28185513895582
20
19.0732678361841
30
0
41
1
10
9.30640600056208
20
19.0554522237109
30
0
41
1
10
9.32912053427441
20
19.0329978954363
30
0
41
1
10
9.33300496589206
20
19.0288038685174
30
0
41
1
10
9.33660254037846
20
19.0245744101322
30
0
0
SPLINE
5
1C1
100
AcDbEntity
8
SK1
62
256
6
ByLayer
370
18
48
1
60
0
100
AcDbSpline
70
4
71
3
72
8
73
4
40
0
40
0
40
0
40
0
40
1
40
1
40
1
40
1
41
1
10
-1.49503997793931
20
2.59465115086957
30
0
41
1
10
-1.43729564430089
20
2.94660231507382
30
0
41
1
10
-1.37345704405578
20
3.29127575598179
30
0
41
1
10
-1.30710678118655
20
3.6278161010051
30
0
0
SPLINE
5
1C2
100
AcDbEntity
8
SK1
62
256
6
ByLayer
370
18
48
1
60
0
100
AcDbSpline
70
4
71
3
72
24
73
20
40
0
40
0
40
0
40
0
40
0.470757791634908
40
0.470757791634908
40
0.661826126045254
40
0.661826126045254
40
0.85568916651581
40
0.85568916651581
40
0.884460546127643
40
0.884460546127643
40
0.91360691814161
40
0.91360691814161
40
0.932763100125268
40
0.932763100125268
40
0.95203909678233
40
0.95203909678233
40
0.974618894615272
40
0.974618894615272
40
1
40
1
40
1
40
1
41
1
10
-0.199999999999989
20
5.70317605472911
30
0
41
1
10
-0.199999999999989
20
5.58107998739831
30
0
41
1
10
-0.203895983734896
20
5.45705658909691
30
0
41
1
10
-0.223509916035709
20
5.28128624620587
30
0
41
1
10
-0.23086916609185
20
5.23019697507434
30
0
41
1
10
-0.252992963272021
20
5.12819212434212
30
0
41
1
10
-0.266168518183207
20
5.0748758166919
30
0
41
1
10
-0.299311339940942
20
5.02202983998879
30
0
41
1
10
-0.304166370278011
20
5.01525404855027
30
0
41
1
10
-0.315232060467963
20
5.00279573504582
30
0
41
1
10
-0.321587352348587
20
4.99699852204864
30
0
41
1
10
-0.333432884234497
20
4.98975078853741
30
0
41
1
10
-0.33858625385443
20
4.98746585289803
30
0
41
1
10
-0.3491574393544
20
4.98479989040243
30
0
41
1
10
-0.354703931885922
20
4.98441392730476
30
0
41
1
10
-0.366193082216228
20
4.98556317954746
30
0
41
1
10
-0.372213152675158
20
4.98741181161262
30
0
41
1
10
-0.383950186909431
20
4.99285513665984
30
0
41
1
10
-0.3896944310344
20
4.99667072159761
30
0
41
1
10
-0.394976888882155
20
5.00092508225598
30
0
0
SPLINE
5
1C3
100
AcDbEntity
8
SK1
62
256
6
ByLayer
370
18
48
1
60
0
100
AcDbSpline
70
4
71
3
72
30
73
26
40
0
40
0
40
0
40
0
40
0.337353368376273
40
0.337353368376273
40
0.421572476570396
40
0.421572476570396
40
0.437870507614647
40
0.437870507614647
40
0.454360744150349
40
0.454360744150349
40
0.46102437321649
40
0.46102437321649
40
0.467802724987302
40
0.467802724987302
40
0.473791453396888
40
0.473791453396888
40
0.481264268969724
40
0.481264268969724
40
0.494804301393218
40
0.494804301393218
40
0.541069262252274
40
0.541069262252274
40
0.762218024196531
40
0.762218024196531
40
1
40
1
40
1
40
1
41
1
10
-1.69999999999999
20
2.5837250319525
30
0
41
1
10
-1.69946915813009
20
2.45210484593008
30
0
41
1
10
-1.69760670671556
20
2.31884997747196
30
0
41
1
10
-1.67915375522099
20
2.15294187932722
30
0
41
1
10
-1.67485152519237
20
2.11932442567118
30
0
41
1
10
-1.66472347048304
20
2.08095979549279
30
0
41
1
10
-1.66287560510222
20
2.07475454077749
30
0
41
1
10
-1.65846712486041
20
2.06274931231133
30
0
41
1
10
-1.65588139752759
20
2.05680133794195
30
0
41
1
10
-1.65120237663186
20
2.0497680665317
30
0
41
1
10
-1.64969999009787
20
2.04787870491481
30
0
41
1
10
-1.64639510213217
20
2.0447894938039
30
0
41
1
10
-1.64453557847699
20
2.04357912964019
30
0
41
1
10
-1.64096575658939
20
2.04240828386776
30
0
41
1
10
-1.63922229186966
20
2.04230771235822
30
0
41
1
10
-1.63551182442282
20
2.04297037181766
30
0
41
1
10
-1.63353448434609
20
2.04393506875687
30
0
41
1
10
-1.62845259442082
20
2.04750201060256
30
0
41
1
10
-1.62558657915471
20
2.0508033417303
30
0
41
1
10
-1.61425491864986
20
2.06649024761731
30
0
41
1
10
-1.60795428020356
20
2.08189579117942
30
0
41
1
10
-1.57473680217674
20
2.17064161742221
30
0
41
1
10
-1.55852136531561
20
2.25243693059593
30
0
41
1
10
-1.5247433730911
20
2.41950302647342
30
0
41
1
10
-1.50941945205861
20
2.5070083929059
30
0
41
1
10
-1.49503997793928
20
2.59465115086951
30
0
0
SPLINE
5
1C4
100
AcDbEntity
8
SK1
62
256
6
ByLayer
370
18
48
1
60
0
100
AcDbSpline
70
4
71
3
72
22
73
18
40
0
40
0
40
0
40
0
40
0.0262442859026881
40
0.0262442859026881
40
0.0530261157854851
40
0.0530261157854851
40
0.0713559655737795
40
0.0713559655737795
40
0.0895874012639089
40
0.0895874012639089
40
0.119482247898519
40
0.119482247898519
40
0.178618886842945
40
0.178618886842945
40
0.388022338076953
40
0.388022338076953
40
1
40
1
40
1
40
1
41
1
10
-0.394976888875306
20
-5.0009244140283
30
0
41
1
10
-0.389542958903149
20
-4.99654803778401
30
0
41
1
10
-0.383617633691586
20
-4.99263335383438
30
0
41
1
10
-0.370682657201087
20
-4.98677476419826
30
0
41
1
10
-0.363425194676552
20
-4.98483424058901
30
0
41
1
10
-0.350979181144169
20
-4.98462903203949
30
0
41
1
10
-0.345738268039327
20
-4.98542011278013
30
0
41
1
10
-0.335836240990062
20
-4.98861553627458
30
0
41
1
10
-0.331061456711979
20
-4.99102841332402
30
0
41
1
10
-0.319537139874143
20
-4.9986715699325
30
0
41
1
10
-0.313226756018622
20
-5.00478758784652
30
0
41
1
10
-0.29682625826149
20
-5.02421063341325
30
0
41
1
10
-0.288455270980251
20
-5.03906576138257
30
0
41
1
10
-0.256353055935392
20
-5.10678482490906
30
0
41
1
10
-0.244000373144985
20
-5.16381228581221
30
0
41
1
10
-0.204596889637315
20
-5.38213882730369
30
0
41
1
10
-0.200000000000046
20
-5.54465158381666
30
0
41
1
10
-0.200000000000046
20
-5.70317614351262
30
0
0
SPLINE
5
1C5
100
AcDbEntity
8
SK1
62
256
6
ByLayer
370
18
48
1
60
0
100
AcDbSpline
70
4
71
3
72
32
73
28
40
0
40
0
40
0
40
0
40
0.335339404831972
40
0.335339404831972
40
0.429287156787091
40
0.429287156787091
40
0.47567705376244
40
0.47567705376244
40
0.494539743197707
40
0.494539743197707
40
0.513645880085613
40
0.513645880085613
40
0.520504273461007
40
0.520504273461007
40
0.527488218290634
40
0.527488218290634
40
0.533551201014328
40
0.533551201014328
40
0.540998152878254
40
0.540998152878254
40
0.554393631774451
40
0.554393631774451
40
0.598967269657032
40
0.598967269657032
40
0.809317334416222
40
0.809317334416222
40
1
40
1
40
1
40
1
41
1
10
-1.49503997793931
20
-2.59465115838304
30
0
41
1
10
-1.51545804662706
20
-2.47020327904033
30
0
41
1
10
-1.5371392192427
20
-2.34554891087819
30
0
41
1
10
-1.57392592094843
20
-2.19043955590803
30
0
41
1
10
-1.58255890853934
20
-2.15670217135892
30
0
41
1
10
-1.5980595693656
20
-2.1081468839686
30
0
41
1
10
-1.60359902440038
20
-2.09231222948606
30
0
41
1
10
-1.61296122457534
20
-2.07152520286885
30
0
41
1
10
-1.6158696741316
20
-2.0656737244498
30
0
41
1
10
-1.62242426172162
20
-2.05481886173052
30
0
41
1
10
-1.62611615645159
20
-2.04963161073078
30
0
41
1
10
-1.63217263701876
20
-2.04479089552191
30
0
41
1
10
-1.63391092603902
20
-2.04372430879368
30
0
41
1
10
-1.63759701012464
20
-2.04243943769597
30
0
41
1
10
-1.63960513001732
20
-2.04224314885471
30
0
41
1
10
-1.64327142014687
20
-2.04303363449088
30
0
41
1
10
-1.64498274878696
20
-2.04388024545895
30
0
41
1
10
-1.64846923771176
20
-2.04652261877811
30
0
41
1
10
-1.65023197368771
20
-2.04850621085967
30
0
41
1
10
-1.65459297944469
20
-2.05462030362457
30
0
41
1
10
-1.65687449353447
20
-2.05928542847226
30
0
41
1
10
-1.66535432668744
20
-2.07982184742582
30
0
41
1
10
-1.66919635898847
20
-2.09736547364699
30
0
41
1
10
-1.68800967157858
20
-2.19569498442294
30
0
41
1
10
-1.6917465712958
20
-2.27904221250569
30
0
41
1
10
-1.69840552504974
20
-2.43548746422863
30
0
41
1
10
-1.69970172620592
20
-2.50976932903754
30
0
41
1
10
-1.69999999999999
20
-2.58372509632824
30
0
0
SPLINE
5
1C6
100
AcDbEntity
8
SK1
62
256
6
ByLayer
370
18
48
1
60
0
100
AcDbSpline
70
4
71
3
72
24
73
20
40
0
40
0
40
0
40
0
40
0.408002420194574
40
0.408002420194574
40
0.586477084363329
40
0.586477084363329
40
0.763728221544513
40
0.763728221544513
40
0.83464833042642
40
0.83464833042642
40
0.871680147904128
40
0.871680147904128
40
0.909315863704638
40
0.909315863704638
40
0.941446160303591
40
0.941446160303591
40
0.988233002766673
40
0.988233002766673
40
1
40
1
40
1
40
1
41
1
10
-1.30710678118655
20
-3.62781725664615
30
0
41
1
10
-1.25754709276271
20
-3.87919081380429
30
0
41
1
10
-1.19771793926938
20
-4.12580048883993
30
0
41
1
10
-1.07980138365164
20
-4.46640123366592
30
0
41
1
10
-1.03947389583291
20
-4.56855181342542
30
0
41
1
10
-0.943165684412492
20
-4.76452984977917
30
0
41
1
10
-0.887972849225292
20
-4.86076144162979
30
0
41
1
10
-0.781589632759733
20
-4.97623115222154
30
0
41
1
10
-0.746942513659576
20
-5.00751721259149
30
0
41
1
10
-0.685298347589708
20
-5.04425501792002
30
0
41
1
10
-0.662073057062713
20
-5.05499571071985
30
0
41
1
10
-0.612858105189787
20
-5.06918922724967
30
0
41
1
10
-0.586087478285805
20
-5.07253385323432
30
0
41
1
10
-0.537899014579097
20
-5.06994558199364
30
0
41
1
10
-0.515734678473706
20
-5.06532466911642
30
0
41
1
10
-0.465255653618982
20
-5.04798484569733
30
0
41
1
10
-0.437776087568892
20
-5.03248974169182
30
0
41
1
10
-0.406986543980821
20
-5.01034621255963
30
0
41
1
10
-0.400907252385935
20
-5.00570060770795
30
0
41
1
10
-0.394976888875277
20
-5.00092441402839
30
0
0
SPLINE
5
1C7
100
AcDbEntity
8
SK1
62
256
6
ByLayer
370
18
48
1
60
0
100
AcDbSpline
70
4
71
3
72
22
73
18
40
0
40
0
40
0
40
0
40
0.0408146055975421
40
0.0408146055975421
40
0.0823243808208714
40
0.0823243808208714
40
0.113722137960843
40
0.113722137960843
40
0.144934004837801
40
0.144934004837801
40
0.197663645148653
40
0.197663645148653
40
0.33040493622216
40
0.33040493622216
40
0.796191409884692
40
0.796191409884692
40
1
40
1
40
1
40
1
41
1
10
-0.394976888875306
20
5.00092508226666
30
0
41
1
10
-0.415530107853925
20
5.01747813555139
30
0
41
1
10
-0.438024560131566
20
5.03261131985604
30
0
41
1
10
-0.487324802537927
20
5.05682200266617
30
0
41
1
10
-0.514951385379703
20
5.065973715838
30
0
41
1
10
-0.565001076851473
20
5.07238571210249
30
0
41
1
10
-0.587551462055302
20
5.07198375916977
30
0
41
1
10
-0.630654498772856
20
5.06497384681828
30
0
41
1
10
-0.651690830573216
20
5.05839846240309
30
0
41
1
10
-0.704063404944179
20
5.0354696203506
30
0
41
1
10
-0.733646054998758
20
5.01537181535585
30
0
41
1
10
-0.825717517678271
20
4.93804001611764
30
0
41
1
10
-0.875568215521128
20
4.86927174197922
30
0
41
1
10
-1.06893868726922
20
4.55513362670803
30
0
41
1
10
-1.15213866111816
20
4.27852588598478
30
0
41
1
10
-1.25478905452405
20
3.87761185644086
30
0
41
1
10
-1.28234760083203
20
3.75339907142145
30
0
41
1
10
-1.30710678118763
20
3.62781610099955
30
0
0
SPLINE
5
1C8
100
AcDbEntity
8
SK1
62
256
6
ByLayer
370
18
48
1
60
0
100
AcDbSpline
70
4
71
3
72
100
73
96
40
0
40
0
40
0
40
0
40
0.0043783247532282
40
0.0136712309453665
40
0.0229641371375048
40
0.0322570433296431
40
0.0415499495217814
40
0.0601357619060581
40
0.0787215742903348
40
0.0973073866746114
40
0.115893199058888
40
0.125186105251026
40
0.134479011443165
40
0.143771917635303
40
0.153064823827441
40
0.171650636211718
40
0.190236448595995
40
0.199529354788133
40
0.208822260980271
40
0.21811516717241
40
0.227408073364548
40
0.236700979556686
40
0.245993885748825
40
0.264579698133101
40
0.27387260432524
40
0.283165510517378
40
0.301751322901655
40
0.320337135285931
40
0.32963004147807
40
0.338922947670208
40
0.357508760054485
40
0.366801666246623
40
0.371448119342692
40
0.376094572438761
40
0.385387478630899
40
0.394680384823038
40
0.413266197207314
40
0.422559103399453
40
0.431852009591591
40
0.441144915783729
40
0.450437821975868
40
0.459730728168006
40
0.469023634360144
40
0.478316540552283
40
0.487609446744421
40
0.496902352936559
40
0.506195259128698
40
0.524781071512974
40
0.534073977705113
40
0.543366883897251
40
0.552659790089389
40
0.557306243185458
40
0.561952696281528
40
0.571245602473666
40
0.580538508665804
40
0.589831414857943
40
0.599124321050081
40
0.608417227242219
40
0.617710133434358
40
0.636295945818634
40
0.654881758202911
40
0.664174664395049
40
0.673467570587188
40
0.692053382971464
40
0.701346289163602
40
0.710639195355741
40
0.719932101547879
40
0.729225007740017
40
0.738517913932156
40
0.747810820124294
40
0.757103726316433
40
0.766396632508571
40
0.784982444892847
40
0.794275351084986
40
0.803568257277124
40
0.812861163469262
40
0.822154069661401
40
0.831446975853539
40
0.840739882045677
40
0.859325694429954
40
0.868618600622092
40
0.877911506814231
40
0.887204413006369
40
0.896497319198507
40
0.915083131582784
40
0.924376037774922
40
0.933668943967061
40
0.942961850159199
40
0.952254756351337
40
0.961547662543476
40
0.970840568735614
40
0.980133474927752
40
0.98942638111989
40
0.998719287312029
40
1
40
1
40
1
40
1
41
1
10
-0.394976888875277
20
5.00092508225416
30
0
41
1
10
-0.394976888875277
20
5.02359314607176
30
0
41
1
10
-0.394976888875277
20
5.09425535366776
30
0
41
1
10
-0.394976888875277
20
5.21232773830431
30
0
41
1
10
-0.394976888875277
20
5.35463943777347
30
0
41
1
10
-0.394976888875277
20
5.49591839522026
30
0
41
1
10
-0.394976888875277
20
5.68302324398948
30
0
41
1
10
-0.394976888875277
20
5.91406388300979
30
0
41
1
10
-0.394976888875277
20
6.18726435105106
30
0
41
1
10
-0.394976888875277
20
6.45627504712579
30
0
41
1
10
-0.394976888875277
20
6.6768468885183
30
0
41
1
10
-0.394976888875277
20
6.85136201549099
30
0
41
1
10
-0.394976888875277
20
6.98112245032084
30
0
41
1
10
-0.394976888875277
20
7.10982246715957
30
0
41
1
10
-0.394976888875277
20
7.28009512097313
30
0
41
1
10
-0.394976888875277
20
7.49008091096033
30
0
41
1
10
-0.394976888875277
20
7.69650359935568
30
0
41
1
10
-0.394976888875277
20
7.85964216476054
30
0
41
1
10
-0.394976888875277
20
7.98086146605701
30
0
41
1
10
-0.394976888875277
20
8.10100253994156
30
0
41
1
10
-0.394976888875277
20
8.22006380191277
30
0
41
1
10
-0.394976888875277
20
8.3380422654499
30
0
41
1
10
-0.394976888875277
20
8.49397420958985
30
0
41
1
10
-0.394976888875277
20
8.64751156797169
30
0
41
1
10
-0.394976888875277
20
8.79907644696402
30
0
41
1
10
-0.394976888875277
20
8.94918034619519
30
0
41
1
10
-0.394976888875277
20
9.13390680482667
30
0
41
1
10
-0.394976888875277
20
9.31494999082747
30
0
41
1
10
-0.394976888875277
20
9.45767863215664
30
0
41
1
10
-0.394976888875277
20
9.59892077296985
30
0
41
1
10
-0.394976888875277
20
9.73773602301958
30
0
41
1
10
-0.394976888875277
20
9.85736937045593
30
0
41
1
10
-0.394976888875277
20
9.92517902838179
30
0
41
1
10
-0.394976888875277
20
9.99261145812801
30
0
41
1
10
-0.394976888875277
20
10.0761265678462
30
0
41
1
10
-0.394976888875277
20
10.2083399899529
30
0
41
1
10
-0.394976888875277
20
10.3380960572489
30
0
41
1
10
-0.394976888875277
20
10.4657231753345
30
0
41
1
10
-0.394976888875277
20
10.5602461538978
30
0
41
1
10
-0.394976888875277
20
10.6536100894112
30
0
41
1
10
-0.394976888875277
20
10.7458098983122
30
0
41
1
10
-0.394976888875277
20
10.8368404586376
30
0
41
1
10
-0.394976888875277
20
10.9266969919675
30
0
41
1
10
-0.394976888875277
20
11.0153746961414
30
0
41
1
10
-0.394976888875277
20
11.1028676417002
30
0
41
1
10
-0.394976888875277
20
11.1891707748317
30
0
41
1
10
-0.394976888875277
20
11.3026972665534
30
0
41
1
10
-0.394976888875277
20
11.413674138825
30
0
41
1
10
-0.394976888875277
20
11.5223699808134
30
0
41
1
10
-0.394976888875277
20
11.6026363770329
30
0
41
1
10
-0.394976888875277
20
11.6684804460587
30
0
41
1
10
-0.394976888875277
20
11.7205808983271
30
0
41
1
10
-0.394976888875277
20
11.7722691819395
30
0
41
1
10
-0.394976888875277
20
11.836053984022
30
0
41
1
10
-0.394976888875277
20
11.9113764724791
30
0
41
1
10
-0.394976888875277
20
11.9854459723214
30
0
41
1
10
-0.394976888875277
20
12.0582544232072
30
0
41
1
10
-0.394976888875277
20
12.1297946270485
30
0
41
1
10
-0.394976888875277
20
12.2235215963167
30
0
41
1
10
-0.394976888875277
20
12.3373769247913
30
0
41
1
10
-0.394976888875277
20
12.446899173783
30
0
41
1
10
-0.394976888875277
20
12.5319491682166
30
0
41
1
10
-0.394976888875277
20
12.6152283642396
30
0
41
1
10
-0.394976888875277
20
12.6957215996061
30
0
41
1
10
-0.394976888875277
20
12.773610902979
30
0
41
1
10
-0.394976888875277
20
12.8306328883531
30
0
41
1
10
-0.394976888875277
20
12.8862769625636
30
0
41
1
10
-0.394976888875277
20
12.940532100831
30
0
41
1
10
-0.394976888875277
20
12.9933861205259
30
0
41
1
10
-0.394976888875277
20
13.0448282543027
30
0
41
1
10
-0.394976888875277
20
13.0948461430692
30
0
41
1
10
-0.394976888875277
20
13.1596507828291
30
0
41
1
10
-0.394976888875277
20
13.221467049789
30
0
41
1
10
-0.394976888875277
20
13.2804176772461
30
0
41
1
10
-0.394976888875277
20
13.3231185723383
30
0
41
1
10
-0.394976888875277
20
13.3643136307331
30
0
41
1
10
-0.394976888875277
20
13.4039879870964
30
0
41
1
10
-0.394976888875277
20
13.4421262291561
30
0
41
1
10
-0.394976888875277
20
13.490931201485
30
0
41
1
10
-0.394976888875277
20
13.5365270011545
30
0
41
1
10
-0.394976888875277
20
13.5789822078612
30
0
41
1
10
-0.394976888875277
20
13.6091837809887
30
0
41
1
10
-0.394976888875277
20
13.6377421279937
30
0
41
1
10
-0.394976888875277
20
13.6736219491958
30
0
41
1
10
-0.394976888875277
20
13.706079968468
30
0
41
1
10
-0.394976888875277
20
13.7351343539634
30
0
41
1
10
-0.394976888875277
20
13.7551609910392
30
0
41
1
10
-0.394976888875277
20
13.7734119916164
30
0
41
1
10
-0.394976888875277
20
13.7898613788954
30
0
41
1
10
-0.394976888875277
20
13.8044829828858
30
0
41
1
10
-0.394976888875277
20
13.8172491473121
30
0
41
1
10
-0.394976888875277
20
13.8281307581185
30
0
41
1
10
-0.394976888875277
20
13.8370980881852
30
0
41
1
10
-0.394976888875277
20
13.8421014019358
30
0
41
1
10
-0.394976888875277
20
13.8443373794894
30
0
41
1
10
-0.394976888875277
20
13.8446019297682
30
0
0
SPLINE
5
1C9
100
AcDbEntity
8
SK1
62
256
6
ByLayer
370
18
48
1
60
0
100
AcDbSpline
70
4
71
3
72
98
73
94
40
0
40
0
40
0
40
0
40
0.0012808740763045
40
0.0105737783742241
40
0.0198666826721437
40
0.0291595869700633
40
0.0384524912679829
40
0.0477453955659025
40
0.0663312041617417
40
0.0849170127575809
40
0.10350282135342
40
0.11279572565134
40
0.122088629949259
40
0.131381534247179
40
0.140674438545099
40
0.159260247140938
40
0.168553151438857
40
0.177846055736777
40
0.187138960034696
40
0.196431864332616
40
0.205724768630536
40
0.215017672928455
40
0.233603481524295
40
0.242896385822214
40
0.252189290120134
40
0.261482194418053
40
0.270775098715973
40
0.280068003013893
40
0.289360907311812
40
0.298653811609732
40
0.307946715907651
40
0.326532524503491
40
0.33582542880141
40
0.34511833309933
40
0.363704141695169
40
0.382289950291008
40
0.391582854588928
40
0.400875758886847
40
0.410168663184767
40
0.419461567482687
40
0.428754471780606
40
0.438047376078526
40
0.442693828227486
40
0.447340280376445
40
0.456633184674365
40
0.465926088972284
40
0.475218993270204
40
0.493804801866043
40
0.503097706163963
40
0.512390610461883
40
0.521683514759802
40
0.530976419057722
40
0.540269323355641
40
0.549562227653561
40
0.558855131951481
40
0.5681480362494
40
0.57744094054732
40
0.586733844845239
40
0.605319653441079
40
0.614612557738998
40
0.623905462036918
40
0.628551914185878
40
0.633198366334837
40
0.642491270632757
40
0.661077079228596
40
0.670369983526516
40
0.679662887824435
40
0.698248696420275
40
0.716834505016114
40
0.726127409314034
40
0.735420313611953
40
0.754006122207792
40
0.763299026505712
40
0.772591930803632
40
0.781884835101551
40
0.791177739399471
40
0.80047064369739
40
0.80976354799531
40
0.828349356591149
40
0.846935165186988
40
0.856228069484908
40
0.865520973782828
40
0.874813878080747
40
0.884106782378667
40
0.902692590974506
40
0.921278399570345
40
0.939864208166184
40
0.958450016762024
40
0.967742921059943
40
0.977035825357863
40
0.986328729655782
40
0.995621633953702
40
1
40
1
40
1
40
1
41
1
10
-0.394976888875306
20
-13.8446015176322
30
0
41
1
10
-0.394976888875306
20
-13.8443369604552
30
0
41
1
10
-0.394976888875306
20
-13.842101166137
30
0
41
1
10
-0.394976888875306
20
-13.8370982474882
30
0
41
1
10
-0.394976888875306
20
-13.8281310063336
30
0
41
1
10
-0.394976888875306
20
-13.8172492272358
30
0
41
1
10
-0.394976888875306
20
-13.8044829705052
30
0
41
1
10
-0.394976888875306
20
-13.7849758313288
30
0
41
1
10
-0.394976888875306
20
-13.7560496751861
30
0
41
1
10
-0.394976888875306
20
-13.7142204148031
30
0
41
1
10
-0.394976888875306
20
-13.6736219510479
30
0
41
1
10
-0.394976888875306
20
-13.6377421071264
30
0
41
1
10
-0.394976888875306
20
-13.6091837483775
30
0
41
1
10
-0.394976888875306
20
-13.5789821852606
30
0
41
1
10
-0.394976888875306
20
-13.5365270016785
30
0
41
1
10
-0.394976888875306
20
-13.4909311840823
30
0
41
1
10
-0.394976888875306
20
-13.4421262012037
30
0
41
1
10
-0.394976888875306
20
-13.4039879614121
30
0
41
1
10
-0.394976888875306
20
-13.3643136176474
30
0
41
1
10
-0.394976888875306
20
-13.3231185671574
30
0
41
1
10
-0.394976888875306
20
-13.2804176635455
30
0
41
1
10
-0.394976888875306
20
-13.2214670183476
30
0
41
1
10
-0.394976888875306
20
-13.1596507604527
30
0
41
1
10
-0.394976888875306
20
-13.094846134259
30
0
41
1
10
-0.394976888875306
20
-13.0448282447276
30
0
41
1
10
-0.394976888875306
20
-12.9933861020735
30
0
41
1
10
-0.394976888875306
20
-12.9405320737836
30
0
41
1
10
-0.394976888875306
20
-12.8862769376535
30
0
41
1
10
-0.394976888875306
20
-12.8306328717281
30
0
41
1
10
-0.394976888875306
20
-12.7736108931729
30
0
41
1
10
-0.394976888875306
20
-12.6957215859151
30
0
41
1
10
-0.394976888875306
20
-12.6152283382819
30
0
41
1
10
-0.394976888875306
20
-12.5319491453114
30
0
41
1
10
-0.394976888875306
20
-12.4468991604423
30
0
41
1
10
-0.394976888875306
20
-12.3373769122162
30
0
41
1
10
-0.394976888875306
20
-12.2235215734124
30
0
41
1
10
-0.394976888875306
20
-12.1297946053789
30
0
41
1
10
-0.394976888875306
20
-12.0582544060742
30
0
41
1
10
-0.394976888875306
20
-11.9854459580753
30
0
41
1
10
-0.394976888875306
20
-11.9113764581405
30
0
41
1
10
-0.394976888875306
20
-11.8360539668501
30
0
41
1
10
-0.394976888875306
20
-11.7722691621604
30
0
41
1
10
-0.394976888875306
20
-11.7205808778945
30
0
41
1
10
-0.394976888875306
20
-11.6684804259269
30
0
41
1
10
-0.394976888875306
20
-11.6026363586083
30
0
41
1
10
-0.394976888875306
20
-11.5223699646631
30
0
41
1
10
-0.394976888875306
20
-11.4136741241806
30
0
41
1
10
-0.394976888875306
20
-11.3026972493618
30
0
41
1
10
-0.394976888875306
20
-11.1891707558493
30
0
41
1
10
-0.394976888875306
20
-11.102867622286
30
0
41
1
10
-0.394976888875306
20
-11.0153746780185
30
0
41
1
10
-0.394976888875306
20
-10.9266969759659
30
0
41
1
10
-0.394976888875306
20
-10.8368404439692
30
0
41
1
10
-0.394976888875306
20
-10.74580988339
30
0
41
1
10
-0.394976888875306
20
-10.6536100721469
30
0
41
1
10
-0.394976888875306
20
-10.5602461340712
30
0
41
1
10
-0.394976888875306
20
-10.4657231550753
30
0
41
1
10
-0.394976888875306
20
-10.3380960413352
30
0
41
1
10
-0.394976888875306
20
-10.2083399780688
30
0
41
1
10
-0.394976888875306
20
-10.0761265525343
30
0
41
1
10
-0.394976888875306
20
-9.99261143893298
30
0
41
1
10
-0.394976888875306
20
-9.92517900727512
30
0
41
1
10
-0.394976888875306
20
-9.85736934874495
30
0
41
1
10
-0.394976888875306
20
-9.73773600630287
30
0
41
1
10
-0.394976888875306
20
-9.59892076352932
30
0
41
1
10
-0.394976888875306
20
-9.45767861814849
30
0
41
1
10
-0.394976888875306
20
-9.3149499665038
30
0
41
1
10
-0.394976888875306
20
-9.13390678694702
30
0
41
1
10
-0.394976888875306
20
-8.94918033853523
30
0
41
1
10
-0.394976888875306
20
-8.79907643306458
30
0
41
1
10
-0.394976888875306
20
-8.64751154095558
30
0
41
1
10
-0.394976888875306
20
-8.49397418950429
30
0
41
1
10
-0.394976888875306
20
-8.33804225713789
30
0
41
1
10
-0.394976888875306
20
-8.22006379392718
30
0
41
1
10
-0.394976888875306
20
-8.10100252302422
30
0
41
1
10
-0.394976888875306
20
-7.98086143927398
30
0
41
1
10
-0.394976888875306
20
-7.85964213989763
30
0
41
1
10
-0.394976888875306
20
-7.69650359349293
30
0
41
1
10
-0.394976888875306
20
-7.49008089634199
30
0
41
1
10
-0.394976888875306
20
-7.28009509164627
30
0
41
1
10
-0.394976888875306
20
-7.10982244878713
30
0
41
1
10
-0.394976888875306
20
-6.98112244545175
30
0
41
1
10
-0.394976888875306
20
-6.85136200824962
30
0
41
1
10
-0.394976888875306
20
-6.67684685573994
30
0
41
1
10
-0.394976888875306
20
-6.45627503636445
30
0
41
1
10
-0.394976888875306
20
-6.18726433662556
30
0
41
1
10
-0.394976888875306
20
-5.91406385279547
30
0
41
1
10
-0.394976888875306
20
-5.68302324019061
30
0
41
1
10
-0.394976888875306
20
-5.49591838220567
30
0
41
1
10
-0.394976888875306
20
-5.35463940810163
30
0
41
1
10
-0.394976888875306
20
-5.21232773385495
30
0
41
1
10
-0.394976888875306
20
-5.09425517295406
30
0
41
1
10
-0.394976888875306
20
-5.02359271293304
30
0
41
1
10
-0.394976888875306
20
-5.0009244140283
30
0
0
SPLINE
5
1CA
100
AcDbEntity
8
SK1
62
256
6
ByLayer
370
18
48
1
60
0
100
AcDbSpline
70
4
71
3
72
10
73
6
40
0
40
0
40
0
40
0
40
0.5
40
0.5
40
1
40
1
40
1
40
1
41
1
10
-1.69999999999999
20
-2.58372509632821
30
0
41
1
10
-1.83222262461143
20
-1.751855044526
30
0
41
1
10
-1.92871617486691
20
-0.884329181036094
30
0
41
1
10
-1.92842303871006
20
0.888588835776119
30
0
41
1
10
-1.83224326233341
20
1.75172436897285
30
0
41
1
10
-1.69999999999999
20
2.58372503195247
30
0
0
SPLINE
5
1CB
100
AcDbEntity
8
SK1
62
256
6
ByLayer
370
18
48
1
60
0
100
AcDbSpline
70
4
71
3
72
8
73
4
40
0
40
0
40
0
40
0
40
1
40
1
40
1
40
1
41
1
10
-1.30710678118655
20
-3.62781725664615
30
0
41
1
10
-1.37345758266253
20
-3.29127686428785
30
0
41
1
10
-1.4372955614198
20
-2.946602671997
30
0
41
1
10
-1.49503997793931
20
-2.59465115838313
30
0
0
LINE
5
72
100
AcDbEntity
8
1
62
256
6
ByLayer
370
18
48
1
60
0
100
AcDbLine
10
21.709005
20
-18.727405
30
0
11
22.384951
21
-19.018339
31
0
39
0
210
0
220
0
230
1
0
LINE
5
74
100
AcDbEntity
8
1
62
256
6
ByLayer
370
18
48
1
60
0
100
AcDbLine
10
0.3
20
-20
30
0
11
20.920792
21
-20
31
0
39
0
210
0
220
0
230
1
0
LINE
5
75
100
AcDbEntity
8
1
62
256
6
ByLayer
370
18
48
1
60
0
100
AcDbLine
10
20.920792
20
20
30
0
11
0.3
21
20
31
0
39
0
210
0
220
0
230
1
0
LINE
5
76
100
AcDbEntity
8
1
62
256
6
ByLayer
370
18
48
1
60
0
100
AcDbLine
10
0.3
20
20
30
0
11
0
21
19.7
31
0
39
0
210
0
220
0
230
1
0
LINE
5
77
100
AcDbEntity
8
1
62
256
6
ByLayer
370
18
48
1
60
0
100
AcDbLine
10
0
20
-19.7
30
0
11
0.3
21
-20
31
0
39
0
210
0
220
0
230
1
0
LINE
5
78
100
AcDbEntity
8
1
62
256
6
ByLayer
370
18
48
1
60
0
100
AcDbLine
10
21.495938
20
20.15
30
0
11
20.960985
21
20.15
31
0
39
0
210
0
220
0
230
1
0
LINE
5
79
100
AcDbEntity
8
1
62
256
6
ByLayer
370
18
48
1
60
0
100
AcDbLine
10
20.960985
20
20.15
30
0
11
20.920792
21
20
31
0
39
0
210
0
220
0
230
1
0
LINE
5
7A
100
AcDbEntity
8
1
62
256
6
ByLayer
370
18
48
1
60
0
100
AcDbLine
10
20.920792
20
-20
30
0
11
22.373945
21
-25.423238
31
0
39
0
210
0
220
0
230
1
0
LINE
5
7B
100
AcDbEntity
8
1
62
256
6
ByLayer
370
18
48
1
60
0
100
AcDbLine
10
28.005369
20
-17.267179
30
0
11
28.217491
21
-17.389647
31
0
39
0
210
0
220
0
230
1
0
LINE
5
7C
100
AcDbEntity
8
1
62
256
6
ByLayer
370
18
48
1
60
0
100
AcDbLine
10
32.217491
20
-10.461444
30
0
11
32.005369
21
-10.338976
31
0
39
0
210
0
220
0
230
1
0
LINE
5
7D
100
AcDbEntity
8
1
62
256
6
ByLayer
370
18
48
1
60
0
100
AcDbLine
10
19.720306
20
7.181594
30
0
11
17.311558
21
8.058307
31
0
39
0
210
0
220
0
230
1
0
LINE
5
7E
100
AcDbEntity
8
1
62
256
6
ByLayer
370
18
48
1
60
0
100
AcDbLine
10
16.421132
20
4.870609
30
0
11
18.591639
21
4.080609
31
0
39
0
210
0
220
0
230
1
0
LINE
5
7F
100
AcDbEntity
8
1
62
256
6
ByLayer
370
18
48
1
60
0
100
AcDbLine
10
17.311558
20
8.058307
30
0
11
16.885124
21
7.983115
31
0
39
0
210
0
220
0
230
1
0
LINE
5
80
100
AcDbEntity
8
1
62
256
6
ByLayer
370
18
48
1
60
0
100
AcDbLine
10
18.591639
20
4.080609
30
0
11
18.783896
21
4.17026
31
0
39
0
210
0
220
0
230
1
0
LINE
5
81
100
AcDbEntity
8
1
62
256
6
ByLayer
370
18
48
1
60
0
100
AcDbLine
10
31.423208
20
-13.820393
30
0
11
31.626931
21
-13.938013
31
0
39
0
210
0
220
0
230
1
0
LINE
5
82
100
AcDbEntity
8
1
62
256
6
ByLayer
370
18
48
1
60
0
100
AcDbLine
10
37.422185
20
-24.665596
30
0
11
37.976206
21
-24.985459
31
0
39
0
210
0
220
0
230
1
0
LINE
5
83
100
AcDbEntity
8
1
62
256
6
ByLayer
370
18
48
1
60
0
100
AcDbLine
10
48.747888
20
-9.495047
30
0
11
48.365066
21
-9.274024
31
0
39
0
210
0
220
0
230
1
0
LINE
5
84
100
AcDbEntity
8
1
62
256
6
ByLayer
370
18
48
1
60
0
100
AcDbLine
10
28.994977
20
-14.021
30
0
11
28.875426
21
-13.951978
31
0
39
0
210
0
220
0
230
1
0
LINE
5
85
100
AcDbEntity
8
1
62
256
6
ByLayer
370
18
48
1
60
0
100
AcDbLine
10
30.318728
20
-12.697516
30
0
11
30.522451
21
-12.815135
31
0
39
0
210
0
220
0
230
1
0
LINE
5
86
100
AcDbEntity
8
1
62
256
6
ByLayer
370
18
48
1
60
0
100
AcDbLine
10
30.099457
20
-15.143878
30
0
11
29.895734
21
-15.026258
31
0
39
0
210
0
220
0
230
1
0
LINE
5
87
100
AcDbEntity
8
1
62
256
6
ByLayer
370
18
48
1
60
0
100
AcDbLine
10
19.809956
20
6.989337
30
0
11
19.720306
21
7.181594
31
0
39
0
210
0
220
0
230
1
0
LINE
5
88
100
AcDbEntity
8
1
62
256
6
ByLayer
370
18
48
1
60
0
100
AcDbLine
10
24.671852
20
-15.153943
30
0
11
24.197621
21
-14.949829
31
0
39
0
210
0
220
0
230
1
0
LINE
5
89
100
AcDbEntity
8
80
62
256
6
ByLayer
370
18
48
1
60
0
100
AcDbLine
10
0
20
0
30
0
11
-5
21
0
31
0
39
0
210
0
220
0
230
1
0
LINE
5
8A
100
AcDbEntity
8
4
62
256
6
ByLayer
370
18
48
0.05
60
0
100
AcDbLine
10
0
20
0
30
0
11
50
21
0
31
0
39
0
210
0
220
0
230
1
0
LINE
5
8C
100
AcDbEntity
8
81
62
256
6
ByLayer
370
18
48
1
60
0
100
AcDbLine
10
50
20
-22
30
0
11
60
21
-22
31
0
39
0
210
0
220
0
230
1
0
LINE
5
8D
100
AcDbEntity
8
SK4
62
256
6
ByLayer
370
18
48
0.05
60
0
100
AcDbLine
10
-29
20
0
30
0
11
50
21
0
31
0
39
0
210
0
220
0
230
1
0
LINE
5
8F
100
AcDbEntity
8
1
62
256
6
ByLayer
370
18
48
1
60
0
100
AcDbLine
10
20.920792
20
-19.927961
30
0
11
20.920792
21
-20
31
0
39
0
210
0
220
0
230
1
0
LINE
5
90
100
AcDbEntity
8
1
62
256
6
ByLayer
370
18
48
1
60
0
100
AcDbLine
10
20.920792
20
20
30
0
11
20.920792
21
19.595386
31
0
39
0
210
0
220
0
230
1
0
LINE
5
91
100
AcDbEntity
8
1
62
256
6
ByLayer
370
18
48
1
60
0
100
AcDbLine
10
0.3
20
0
30
0
11
0.3
21
-20
31
0
39
0
210
0
220
0
230
1
0
LINE
5
92
100
AcDbEntity
8
1
62
256
6
ByLayer
370
18
48
1
60
0
100
AcDbLine
10
0.3
20
20
30
0
11
0.3
21
0
31
0
39
0
210
0
220
0
230
1
0
LINE
5
93
100
AcDbEntity
8
1
62
256
6
ByLayer
370
18
48
1
60
0
100
AcDbLine
10
0
20
0
30
0
11
0
21
-19.7
31
0
39
0
210
0
220
0
230
1
0
LINE
5
94
100
AcDbEntity
8
1
62
256
6
ByLayer
370
18
48
1
60
0
100
AcDbLine
10
0
20
19.7
30
0
11
0
21
0
31
0
39
0
210
0
220
0
230
1
0
LINE
5
95
100
AcDbEntity
8
SK1
62
256
6
ByLayer
370
18
48
1
60
0
100
AcDbLine
10
-0.2
20
14.083485
30
0
11
-0.2
21
5.703176
31
0
39
0
210
0
220
0
230
1
0
LINE
5
97
100
AcDbEntity
8
SK1
62
256
6
ByLayer
370
18
48
1
60
0
100
AcDbLine
10
-0.2
20
-5.703176
30
0
11
-0.2
21
-14.083485
31
0
39
0
210
0
220
0
230
1
0
LINE
5
98
100
AcDbEntity
8
1
62
256
6
ByLayer
370
18
48
1
60
0
100
AcDbLine
10
16.809278
20
10.440259
30
0
11
16.815887
21
10.458416
31
0
39
0
210
0
220
0
230
1
0
LINE
5
99
100
AcDbEntity
8
1
62
256
6
ByLayer
370
18
48
1
60
0
100
AcDbLine
10
17.357044
20
11.945234
30
0
11
17.357044
21
8.041768
31
0
39
0
210
0
220
0
230
1
0
LINE
5
9A
100
AcDbEntity
8
1
62
256
6
ByLayer
370
18
48
1
60
0
100
AcDbLine
10
17.656127
20
-4.446983
30
0
11
17.185576
21
-6.147674
31
0
39
0
210
0
220
0
230
1
0
LINE
5
9B
100
AcDbEntity
8
1
62
256
6
ByLayer
370
18
48
1
60
0
100
AcDbLine
10
29.329515
20
-6.021433
30
0
11
36.399094
21
6.223437
31
0
39
0
210
0
220
0
230
1
0
LINE
5
9C
100
AcDbEntity
8
1
62
256
6
ByLayer
370
18
48
1
60
0
100
AcDbLine
10
27.310921
20
-5.442535
30
0
11
27.707121
21
-3.672231
31
0
39
0
210
0
220
0
230
1
0
LINE
5
9D
100
AcDbEntity
8
1
62
256
6
ByLayer
370
18
48
1
60
0
100
AcDbLine
10
20.960985
20
20.15
30
0
11
20.960985
21
19.748713
31
0
39
0
210
0
220
0
230
1
0
LINE
5
9E
100
AcDbEntity
8
1
62
256
6
ByLayer
370
18
48
1
60
0
100
AcDbLine
10
22.878076
20
-4.980927
30
0
11
22.645967
21
-5.819828
31
0
39
0
210
0
220
0
230
1
0
LINE
5
9F
100
AcDbEntity
8
1
62
256
6
ByLayer
370
18
48
1
60
0
100
AcDbLine
10
19.7124
20
-16.422479
30
0
11
19.505009
21
-17.172042
31
0
39
0
210
0
220
0
230
1
0
LINE
5
A0
100
AcDbEntity
8
1
62
256
6
ByLayer
370
18
48
1
60
0
100
AcDbLine
10
23.321154
20
-21.134437
30
0
11
23.793346
21
-19.427819
31
0
39
0
210
0
220
0
230
1
0
LINE
5
A1
100
AcDbEntity
8
1
62
256
6
ByLayer
370
18
48
1
60
0
100
AcDbLine
10
37.19407
20
-21.231529
30
0
11
37.457258
21
-24.656195
31
0
39
0
210
0
220
0
230
1
0
LINE
5
A2
100
AcDbEntity
8
1
62
256
6
ByLayer
370
18
48
1
60
0
100
AcDbLine
10
37.548686
20
-24.56712
30
0
11
37.292094
21
-21.228281
31
0
39
0
210
0
220
0
230
1
0
LINE
5
A3
100
AcDbEntity
8
1
62
256
6
ByLayer
370
18
48
1
60
0
100
AcDbLine
10
41.527951
20
-11.143846
30
0
11
41.750164
21
-11.085342
31
0
39
0
210
0
220
0
230
1
0
LINE
5
A4
100
AcDbEntity
8
1
62
256
6
ByLayer
370
18
48
1
60
0
100
AcDbLine
10
48.311695
20
-9.357838
30
0
11
48.326035
21
-9.354063
31
0
39
0
210
0
220
0
230
1
0
LINE
5
A5
100
AcDbEntity
8
1
62
256
6
ByLayer
370
18
48
1
60
0
100
AcDbLine
10
40.617252
20
-10.501772
30
0
11
40.650206
21
-10.493096
31
0
39
0
210
0
220
0
230
1
0
LINE
5
A6
100
AcDbEntity
8
1
62
256
6
ByLayer
370
18
48
1
60
0
100
AcDbLine
10
40.654775
20
-10.496454
30
0
11
40.61815
21
-10.506097
31
0
39
0
210
0
220
0
230
1
0
LINE
5
A7
100
AcDbEntity
8
1
62
256
6
ByLayer
370
18
48
1
60
0
100
AcDbLine
10
41.069719
20
-10.803783
30
0
11
40.402096
21
-10.982673
31
0
39
0
210
0
220
0
230
1
0
LINE
5
A8
100
AcDbEntity
8
1
62
256
6
ByLayer
370
18
48
1
60
0
100
AcDbLine
10
40.399696
20
-10.344225
30
0
11
39.758022
21
-10.516161
31
0
39
0
210
0
220
0
230
1
0
LINE
5
A9
100
AcDbEntity
8
1
62
256
6
ByLayer
370
18
48
1
60
0
100
AcDbLine
10
28.889469
20
-13.962687
30
0
11
28.956414
21
-14.001338
31
0
39
0
210
0
220
0
230
1
0
LINE
5
AA
100
AcDbEntity
8
1
62
256
6
ByLayer
370
18
48
1
60
0
100
AcDbLine
10
16.809279
20
10.440263
30
0
11
16.743651
21
10.46415
31
0
39
0
210
0
220
0
230
1
0
LINE
5
AB
100
AcDbEntity
8
1
62
256
6
ByLayer
370
18
48
1
60
0
100
AcDbLine
10
16.605452
20
9.880252
30
0
11
16.809279
21
10.440263
31
0
39
0
210
0
220
0
230
1
0
LINE
5
AC
100
AcDbEntity
8
1
62
256
6
ByLayer
370
18
48
1
60
0
100
AcDbLine
10
16.594223
20
8.193975
30
0
11
16.393729
21
7.643123
31
0
39
0
210
0
220
0
230
1
0
LINE
5
AD
100
AcDbEntity
8
1
62
256
6
ByLayer
370
18
48
1
60
0
100
AcDbLine
10
16.403622
20
5.563773
30
0
11
17.311558
21
8.058307
31
0
39
0
210
0
220
0
230
1
0
LINE
5
AE
100
AcDbEntity
8
1
62
256
6
ByLayer
370
18
48
1
60
0
100
AcDbLine
10
18.591639
20
4.080609
30
0
11
19.155972
21
5.631102
31
0
39
0
210
0
220
0
230
1
0
LINE
5
AF
100
AcDbEntity
8
1
62
256
6
ByLayer
370
18
48
1
60
0
100
AcDbLine
10
19.155972
20
5.631102
30
0
11
19.720306
21
7.181594
31
0
39
0
210
0
220
0
230
1
0
LINE
5
B0
100
AcDbEntity
8
1
62
256
6
ByLayer
370
18
48
1
60
0
100
AcDbLine
10
16.39484
20
6.636071
30
0
11
16.393733
21
6.63303
31
0
39
0
210
0
220
0
230
1
0
LINE
5
B1
100
AcDbEntity
8
1
62
256
6
ByLayer
370
18
48
1
60
0
100
AcDbLine
10
16.885124
20
7.983115
30
0
11
16.39484
21
6.636071
31
0
39
0
210
0
220
0
230
1
0
LINE
5
B2
100
AcDbEntity
8
1
62
256
6
ByLayer
370
18
48
1
60
0
100
AcDbLine
10
18.783896
20
4.17026
30
0
11
19.809956
21
6.989337
31
0
39
0
210
0
220
0
230
1
0
LINE
5
B3
100
AcDbEntity
8
1
62
256
6
ByLayer
370
18
48
1
60
0
100
AcDbLine
10
40.936915
20
-11.351684
30
0
11
48.154834
21
-9.417649
31
0
39
0
210
0
220
0
230
1
0
LINE
5
B4
100
AcDbEntity
8
1
62
256
6
ByLayer
370
18
48
1
60
0
100
AcDbLine
10
37.588005
20
-24.366262
30
0
11
37.346338
21
-21.221633
31
0
39
0
210
0
220
0
230
1
0
LINE
5
B5
100
AcDbEntity
8
1
62
256
6
ByLayer
370
18
48
1
60
0
100
AcDbLine
10
37.588005
20
-24.366262
30
0
11
37.530703
21
-24.333178
31
0
39
0
210
0
220
0
230
1
0
LINE
5
B6
100
AcDbEntity
8
1
62
256
6
ByLayer
370
18
48
1
60
0
100
AcDbLine
10
40.402141
20
-10.982661
30
0
11
41.06977
21
-10.80377
31
0
39
0
210
0
220
0
230
1
0
LINE
5
B7
100
AcDbEntity
8
1
62
256
6
ByLayer
370
18
48
1
60
0
100
AcDbLine
10
48.110335
20
-9.391957
30
0
11
48.154834
21
-9.417649
31
0
39
0
210
0
220
0
230
1
0
LINE
5
B8
100
AcDbEntity
8
1
62
256
6
ByLayer
370
18
48
1
60
0
100
AcDbLine
10
49.136089
20
-10.114244
30
0
11
49.997648
21
-21.325042
31
0
39
0
210
0
220
0
230
1
0
LINE
5
B9
100
AcDbEntity
8
1
62
256
6
ByLayer
370
18
48
1
60
0
100
AcDbLine
10
49.408502
20
-22.158492
30
0
11
38.56926
21
-25.062858
31
0
39
0
210
0
220
0
230
1
0
LINE
5
BA
100
AcDbEntity
8
1
62
256
6
ByLayer
370
18
48
1
60
0
100
AcDbLine
10
43.762338
20
-19.56747
30
0
11
42.801881
21
-20.061258
31
0
39
0
210
0
220
0
230
1
0
LINE
5
BB
100
AcDbEntity
8
1
62
256
6
ByLayer
370
18
48
1
60
0
100
AcDbLine
10
21.38348
20
-15.781774
30
0
11
19.772708
21
-15.088481
31
0
39
0
210
0
220
0
230
1
0
LINE
5
BC
100
AcDbEntity
8
1
62
256
6
ByLayer
370
18
48
1
60
0
100
AcDbLine
10
26.602037
20
-5.280247
30
0
11
26.067496
21
-5.050175
31
0
39
0
210
0
220
0
230
1
0
LINE
5
BD
100
AcDbEntity
8
1
62
256
6
ByLayer
370
18
48
1
60
0
100
AcDbLine
10
27.628254
20
-17.45057
30
0
11
29.581957
21
-17.978473
31
0
39
0
210
0
220
0
230
1
0
LINE
5
BE
100
AcDbEntity
8
1
62
256
6
ByLayer
370
18
48
1
60
0
100
AcDbLine
10
27.977645
20
-5.652928
30
0
11
26.13925
21
-5.072777
31
0
39
0
210
0
220
0
230
1
0
LINE
5
BF
100
AcDbEntity
8
1
62
256
6
ByLayer
370
18
48
1
60
0
100
AcDbLine
10
32.231887
20
-10.173167
30
0
11
30.269431
21
-9.641497
31
0
39
0
210
0
220
0
230
1
0
LINE
5
C0
100
AcDbEntity
8
1
62
256
6
ByLayer
370
18
48
1
60
0
100
AcDbLine
10
28.057661
20
-17.635391
30
0
11
30.020117
21
-18.167062
31
0
39
0
210
0
220
0
230
1
0
LINE
5
C1
100
AcDbEntity
8
1
62
256
6
ByLayer
370
18
48
1
60
0
100
AcDbLine
10
24.140357
20
-19.521854
30
0
11
22.764749
21
-19.149172
31
0
39
0
210
0
220
0
230
1
0
LINE
5
C2
100
AcDbEntity
8
1
62
256
6
ByLayer
370
18
48
1
60
0
100
AcDbLine
10
22.722666
20
-18.091641
30
0
11
30.015339
21
-20.067379
31
0
39
0
210
0
220
0
230
1
0
LINE
5
C3
100
AcDbEntity
8
1
62
256
6
ByLayer
370
18
48
1
60
0
100
AcDbLine
10
24.220536
20
-14.991973
30
0
11
23.804615
21
-14.812955
31
0
39
0
210
0
220
0
230
1
0
LINE
5
C4
100
AcDbEntity
8
1
62
256
6
ByLayer
370
18
48
1
60
0
100
AcDbLine
10
44.400274
20
-19.239496
30
0
11
44.196269
21
-19.344378
31
0
39
0
210
0
220
0
230
1
0
LINE
5
C5
100
AcDbEntity
8
1
62
256
6
ByLayer
370
18
48
1
60
0
100
AcDbLine
10
24.140357
20
-19.521854
30
0
11
24.145844
21
-19.521358
31
0
39
0
210
0
220
0
230
1
0
LINE
5
C6
100
AcDbEntity
8
1
62
256
6
ByLayer
370
18
48
1
60
0
100
AcDbLine
10
22.011126
20
-6.998274
30
0
11
19.772708
21
-15.088481
31
0
39
0
210
0
220
0
230
1
0
LINE
5
C7
100
AcDbEntity
8
1
62
256
6
ByLayer
370
18
48
1
60
0
100
AcDbLine
10
43.963292
20
-19.436005
30
0
11
43.762338
21
-19.56747
31
0
39
0
210
0
220
0
230
1
0
LINE
5
C8
100
AcDbEntity
8
1
62
256
6
ByLayer
370
18
48
1
60
0
100
AcDbLine
10
44.902502
20
-15.446629
30
0
11
45.007756
21
-15.661052
31
0
39
0
210
0
220
0
230
1
0
LINE
5
C9
100
AcDbEntity
8
1
62
256
6
ByLayer
370
18
48
1
60
0
100
AcDbLine
10
22.350619
20
-14.420077
30
0
11
23.736307
21
-9.411853
31
0
39
0
210
0
220
0
230
1
0
LINE
5
CA
100
AcDbEntity
8
1
62
256
6
ByLayer
370
18
48
1
60
0
100
AcDbLine
10
23.621898
20
-7.691568
30
0
11
22.011126
21
-6.998274
31
0
39
0
210
0
220
0
230
1
0
LINE
5
CB
100
AcDbEntity
8
1
62
256
6
ByLayer
370
18
48
1
60
0
100
AcDbLine
10
29.339078
20
-20.928314
30
0
11
24.145844
21
-19.521358
31
0
39
0
210
0
220
0
230
1
0
LINE
5
CC
100
AcDbEntity
8
1
62
256
6
ByLayer
370
18
48
1
60
0
100
AcDbLine
10
33.175233
20
-7.063485
30
0
11
27.981998
21
-5.656529
31
0
39
0
210
0
220
0
230
1
0
LINE
5
CD
100
AcDbEntity
8
1
62
256
6
ByLayer
370
18
48
1
60
0
100
AcDbLine
10
43.107188
20
-17.322668
30
0
11
45.660123
21
-17.890771
31
0
39
0
210
0
220
0
230
1
0
LINE
5
CE
100
AcDbEntity
8
1
62
256
6
ByLayer
370
18
48
1
60
0
100
AcDbLine
10
27.977645
20
-5.652928
30
0
11
27.981998
21
-5.656529
31
0
39
0
210
0
220
0
230
1
0
LINE
5
CF
100
AcDbEntity
8
1
62
256
6
ByLayer
370
18
48
1
60
0
100
AcDbLine
10
23.804615
20
-14.812955
30
0
11
22.350619
21
-14.420077
31
0
39
0
210
0
220
0
230
1
0
LINE
5
D0
100
AcDbEntity
8
1
62
256
6
ByLayer
370
18
48
1
60
0
100
AcDbLine
10
45.285175
20
-16.041242
30
0
11
45.1628
21
-15.851092
31
0
39
0
210
0
220
0
230
1
0
LINE
5
D1
100
AcDbEntity
8
1
62
256
6
ByLayer
370
18
48
1
60
0
100
AcDbLine
10
30.020117
20
-18.167062
30
0
11
29.581957
21
-17.978473
31
0
39
0
210
0
220
0
230
1
0
LINE
5
D2
100
AcDbEntity
8
1
62
256
6
ByLayer
370
18
48
1
60
0
100
AcDbLine
10
25.961735
20
-6.384833
30
0
11
33.254407
21
-8.36057
31
0
39
0
210
0
220
0
230
1
0
LINE
5
D3
100
AcDbEntity
8
1
62
256
6
ByLayer
370
18
48
1
60
0
100
AcDbLine
10
44.902502
20
-15.446629
30
0
11
44.326363
21
-14.551397
31
0
39
0
210
0
220
0
230
1
0
LINE
5
D4
100
AcDbEntity
8
1
62
256
6
ByLayer
370
18
48
1
60
0
100
AcDbLine
10
26.602037
20
-5.280247
30
0
11
27.977645
21
-5.652928
31
0
39
0
210
0
220
0
230
1
0
LINE
5
D5
100
AcDbEntity
8
1
62
256
6
ByLayer
370
18
48
1
60
0
100
AcDbLine
10
21.38348
20
-15.781774
30
0
11
23.621898
21
-7.691568
31
0
39
0
210
0
220
0
230
1
0
LINE
5
D6
100
AcDbEntity
8
1
62
256
6
ByLayer
370
18
48
1
60
0
100
AcDbLine
10
31.298167
20
-13.20166
30
0
11
31.50189
21
-13.319279
31
0
39
0
210
0
220
0
230
1
0
LINE
5
D7
100
AcDbEntity
8
1
62
256
6
ByLayer
370
18
48
1
60
0
100
AcDbLine
10
30.792204
20
-15.030337
30
0
11
30.995927
21
-15.147957
31
0
39
0
210
0
220
0
230
1
0
LINE
5
D8
100
AcDbEntity
8
1
62
256
6
ByLayer
370
18
48
1
60
0
100
AcDbLine
10
29.437664
20
-15.052168
30
0
11
29.641387
21
-15.169788
31
0
39
0
210
0
220
0
230
1
0
LINE
5
D9
100
AcDbEntity
8
1
62
256
6
ByLayer
370
18
48
1
60
0
100
AcDbLine
10
31.261623
20
-14.56344
30
0
11
31.465346
21
-14.68106
31
0
39
0
210
0
220
0
230
1
0
LINE
5
DA
100
AcDbEntity
8
1
62
256
6
ByLayer
370
18
48
1
60
0
100
AcDbLine
10
30.143775
20
-12.500106
30
0
11
30.347498
21
-12.617726
31
0
39
0
210
0
220
0
230
1
0
LINE
5
DB
100
AcDbEntity
8
1
62
256
6
ByLayer
370
18
48
1
60
0
100
AcDbLine
10
9.336603
20
19.024574
30
0
11
9.336603
21
6.16973
31
0
39
0
210
0
220
0
230
1
0
LINE
5
DC
100
AcDbEntity
8
1
62
256
6
ByLayer
370
18
48
1
60
0
100
AcDbLine
10
6.923205
20
-5.85989
30
0
11
9.076795
21
-5.85989
31
0
39
0
210
0
220
0
230
1
0
LINE
5
DD
100
AcDbEntity
8
1
62
256
6
ByLayer
370
18
48
1
60
0
100
AcDbLine
10
17.080365
20
11.185063
30
0
11
17.080365
21
18.47854
31
0
39
0
210
0
220
0
230
1
0
LINE
5
DE
100
AcDbEntity
8
1
62
256
6
ByLayer
370
18
48
1
60
0
100
AcDbLine
10
41.560378
20
-11.022575
30
0
11
48.389102
21
-9.224725
31
0
39
0
210
0
220
0
230
1
0
LINE
5
DF
100
AcDbEntity
8
1
62
256
6
ByLayer
370
18
48
1
60
0
100
AcDbLine
10
39.036284
20
-9.255217
30
0
11
38.8385
21
-9.272453
31
0
39
0
210
0
220
0
230
1
0
LINE
5
E0
100
AcDbEntity
8
1
62
256
6
ByLayer
370
18
48
1
60
0
100
AcDbLine
10
6.923205
20
-5.85989
30
0
11
6.923205
21
-19.122283
31
0
39
0
210
0
220
0
230
1
0
LINE
5
E1
100
AcDbEntity
8
1
62
256
6
ByLayer
370
18
48
1
60
0
100
AcDbLine
10
17.080365
20
11.185063
30
0
11
16.815887
21
10.458416
31
0
39
0
210
0
220
0
230
1
0
LINE
5
E2
100
AcDbEntity
8
1
62
256
6
ByLayer
370
18
48
1
60
0
100
AcDbLine
10
9.076795
20
19.122283
30
0
11
9.076795
21
5.85989
31
0
39
0
210
0
220
0
230
1
0
LINE
5
E3
100
AcDbEntity
8
1
62
256
6
ByLayer
370
18
48
1
60
0
100
AcDbLine
10
6.663397
20
19.024574
30
0
11
6.663397
21
6.16973
31
0
39
0
210
0
220
0
230
1
0
LINE
5
E4
100
AcDbEntity
8
1
62
256
6
ByLayer
370
18
48
1
60
0
100
AcDbLine
10
21.065143
20
-1.051678
30
0
11
21.065143
21
19.748987
31
0
39
0
210
0
220
0
230
1
0
LINE
5
E5
100
AcDbEntity
8
1
62
256
6
ByLayer
370
18
48
1
60
0
100
AcDbLine
10
37.457258
20
-24.656195
30
0
11
34.596133
21
-25.422832
31
0
39
0
210
0
220
0
230
1
0
LINE
5
E6
100
AcDbEntity
8
1
62
256
6
ByLayer
370
18
48
1
60
0
100
AcDbLine
10
9.336603
20
-6.16973
30
0
11
9.336603
21
-19.024574
31
0
39
0
210
0
220
0
230
1
0
LINE
5
E7
100
AcDbEntity
8
1
62
256
6
ByLayer
370
18
48
1
60
0
100
AcDbLine
10
16.974978
20
-17.932432
30
0
11
17.080365
21
-10.107929
31
0
39
0
210
0
220
0
230
1
0
LINE
5
E8
100
AcDbEntity
8
1
62
256
6
ByLayer
370
18
48
1
60
0
100
AcDbLine
10
22.067443
20
-22.862128
30
0
11
22.067443
21
-24.011311
31
0
39
0
210
0
220
0
230
1
0
LINE
5
E9
100
AcDbEntity
8
1
62
256
6
ByLayer
370
18
48
1
60
0
100
AcDbLine
10
16.393699
20
6.636487
30
0
11
16.393699
21
9.298465
31
0
39
0
210
0
220
0
230
1
0
LINE
5
EA
100
AcDbEntity
8
1
62
256
6
ByLayer
370
18
48
1
60
0
100
AcDbLine
10
9.076795
20
5.85989
30
0
11
6.923205
21
5.85989
31
0
39
0
210
0
220
0
230
1
0
LINE
5
EB
100
AcDbEntity
8
1
62
256
6
ByLayer
370
18
48
1
60
0
100
AcDbLine
10
6.923205
20
19.122283
30
0
11
9.076795
21
19.122283
31
0
39
0
210
0
220
0
230
1
0
LINE
5
EC
100
AcDbEntity
8
1
62
256
6
ByLayer
370
18
48
1
60
0
100
AcDbLine
10
22.120351
20
19.748987
30
0
11
21.065143
21
19.748987
31
0
39
0
210
0
220
0
230
1
0
LINE
5
ED
100
AcDbEntity
8
1
62
256
6
ByLayer
370
18
48
1
60
0
100
AcDbLine
10
6.663397
20
-6.16973
30
0
11
6.663397
21
-19.024574
31
0
39
0
210
0
220
0
230
1
0
LINE
5
EE
100
AcDbEntity
8
1
62
256
6
ByLayer
370
18
48
1
60
0
100
AcDbLine
10
17.080365
20
-10.107929
30
0
11
17.080365
21
3.187521
31
0
39
0
210
0
220
0
230
1
0
LINE
5
EF
100
AcDbEntity
8
1
62
256
6
ByLayer
370
18
48
1
60
0
100
AcDbLine
10
16.605465
20
9.880287
30
0
11
16.393699
21
9.298465
31
0
39
0
210
0
220
0
230
1
0
LINE
5
F0
100
AcDbEntity
8
1
62
256
6
ByLayer
370
18
48
1
60
0
100
AcDbLine
10
6.923205
20
19.122283
30
0
11
6.923205
21
5.85989
31
0
39
0
210
0
220
0
230
1
0
LINE
5
F1
100
AcDbEntity
8
1
62
256
6
ByLayer
370
18
48
1
60
0
100
AcDbLine
10
48.389102
20
-9.224725
30
0
11
48.326035
21
-9.354063
31
0
39
0
210
0
220
0
230
1
0
LINE
5
F2
100
AcDbEntity
8
1
62
256
6
ByLayer
370
18
48
1
60
0
100
AcDbLine
10
9.076795
20
-19.122283
30
0
11
6.923205
21
-19.122283
31
0
39
0
210
0
220
0
230
1
0
LINE
5
F3
100
AcDbEntity
8
1
62
256
6
ByLayer
370
18
48
1
60
0
100
AcDbLine
10
48.059249
20
-4.932601
30
0
11
48.389102
21
-9.224725
31
0
39
0
210
0
220
0
230
1
0
LINE
5
F4
100
AcDbEntity
8
1
62
256
6
ByLayer
370
18
48
1
60
0
100
AcDbLine
10
34.596133
20
-25.422832
30
0
11
22.43611
21
-25.422832
31
0
39
0
210
0
220
0
230
1
0
LINE
5
F5
100
AcDbEntity
8
1
62
256
6
ByLayer
370
18
48
1
60
0
100
AcDbLine
10
18.335855
20
-16.148281
30
0
11
21.344976
21
-5.272558
31
0
39
0
210
0
220
0
230
1
0
LINE
5
F6
100
AcDbEntity
8
1
62
256
6
ByLayer
370
18
48
1
60
0
100
AcDbLine
10
48.059249
20
-4.932601
30
0
11
36.399094
21
6.223437
31
0
39
0
210
0
220
0
230
1
0
LINE
5
F7
100
AcDbEntity
8
1
62
256
6
ByLayer
370
18
48
1
60
0
100
AcDbLine
10
22.120351
20
19.748987
30
0
11
36.399094
21
6.223437
31
0
39
0
210
0
220
0
230
1
0
LINE
5
F8
100
AcDbEntity
8
1
62
256
6
ByLayer
370
18
48
1
60
0
100
AcDbLine
10
9.076795
20
-5.85989
30
0
11
9.076795
21
-19.122283
31
0
39
0
210
0
220
0
230
1
0
LINE
5
F9
100
AcDbEntity
8
1
62
256
6
ByLayer
370
18
48
1
60
0
100
AcDbLine
10
27.707121
20
-3.672231
30
0
11
27.417843
21
-3.583435
31
0
39
0
210
0
220
0
230
1
0
LINE
5
FA
100
AcDbEntity
8
1
62
256
6
ByLayer
370
18
48
1
60
0
100
AcDbLine
10
37.457258
20
-24.656195
30
0
11
37.548686
21
-24.56712
31
0
39
0
210
0
220
0
230
1
0
LINE
5
FB
100
AcDbEntity
8
1
62
256
6
ByLayer
370
18
48
1
60
0
100
AcDbLine
10
23.321154
20
-21.134437
30
0
11
22.621233
21
-20.919592
31
0
39
0
210
0
220
0
230
1
0
LINE
5
FC
100
AcDbEntity
8
1
62
256
6
ByLayer
370
18
48
1
60
0
100
AcDbLine
10
17.357044
20
11.945234
30
0
11
17.080365
21
11.185063
31
0
39
0
210
0
220
0
230
1
0
LINE
5
FD
100
AcDbEntity
8
SK1
62
256
6
ByLayer
370
18
48
1
60
0
100
AcDbLine
10
-1.307107
20
3.627816
30
0
11
-1.307107
21
-3.627817
31
0
39
0
210
0
220
0
230
1
0
MTEXT
5
1CC
100
AcDbEntity
8
SK6
62
256
6
ByLayer
370
18
48
1
60
0
100
AcDbMText
10
-3.625
20
27.030537
30
0
210
0
220
0
230
1
1
\W0.7369;C4-DCRNL-22050-12
40
3.5
41
0
44
1.084337
50
0
71
7
72
5
7
iso_b_vert
0
DIMENSION
5
1DD
100
AcDbEntity
8
2
62
256
6
ByLayer
370
13
48
1
60
0
100
AcDbDimension
2
DimnDraft3D1
10
50
20
-20.4125
30
0
11
39.668976
21
-35.463653
31
0
70
34
71
5
72
1
41
1
210
0
220
0
230
1
3
Standard
100
AcDb2LineAngularDimension
13
50
23
-22
33
0
14
45.556741
24
-23.190568
34
0
15
50
25
-22
35
0
16
36.92955
26
-39.033743
36
0
40
0
0
DIMENSION
5
1F2
100
AcDbEntity
8
2
62
256
6
ByLayer
370
13
48
1
60
0
100
AcDbDimension
2
DimnDraft3D2
10
50
20
-49.25
30
0
11
19.718421
21
-49.25
31
0
70
32
71
5
72
1
41
1
210
0
220
0
230
1
3
Standard
100
AcDbAlignedDimension
13
0
23
-22
33
0
14
50
24
-24
34
0
50
0
100
AcDbRotatedDimension
1001
ACAD
1000
DSTYLE
1002
{
1070
   279
1070
     0
1070
   172
1070
     1
1070
   173
1070
     1
1070
   340
1005
1CD
1070
    77
1070
     1
1070
    73
1070
     0
1070
   171
1070
     3
1070
   274
1070
     4
1070
   177
1070
     2
1070
   176
1070
     2
1070
   178
1070
     7
1070
    78
1070
     8
1070
    41
1041
3.175
1070
   147
1041
2.25
1070
    42
1041
2.0
1070
    44
1041
2.0
1070
   140
1041
4.5
1070
   343
1005
1DE
1070
   344
1005
1DE
1002
}
0
DIMENSION
5
201
100
AcDbEntity
8
SK2
62
256
6
ByLayer
370
13
48
1
60
0
100
AcDbDimension
2
DimnDraft3D3
10
-31.75
20
20
30
0
11
-31.75
21
-2.925
31
0
70
32
71
5
72
1
41
1
210
0
220
0
230
1
3
Standard
100
AcDbAlignedDimension
13
-2
23
-20
33
0
14
-2
24
20
34
0
50
90
100
AcDbRotatedDimension
1001
ACAD
1000
DSTYLE
1002
{
1070
    74
1070
     0
1070
   279
1070
     0
1070
   172
1070
     1
1070
   173
1070
     1
1070
   340
1005
1CD
1070
    77
1070
     1
1070
    73
1070
     0
1070
   171
1070
     3
1070
   274
1070
     4
1070
   177
1070
     2
1070
   176
1070
     2
1070
   178
1070
     7
1070
    78
1070
     8
1070
    41
1041
3.175
1070
   147
1041
2.25
1070
    42
1041
2.0
1070
    44
1041
2.0
1070
   140
1041
4.5
1070
   343
1005
1DE
1070
   344
1005
1DE
1002
}
0
DIMENSION
5
20F
100
AcDbEntity
8
2
62
256
6
ByLayer
370
13
48
1
60
0
100
AcDbDimension
2
DimnDraft3D4
10
72.25
20
-22
30
0
11
72.25
21
-16.281579
31
0
70
32
71
5
72
1
41
1
210
0
220
0
230
1
3
Standard
100
AcDbAlignedDimension
13
52
23
0
33
0
14
52
24
-22
34
0
50
90
100
AcDbRotatedDimension
1001
ACAD
1000
DSTYLE
1002
{
1070
    74
1070
     0
1070
   279
1070
     0
1070
   172
1070
     1
1070
   173
1070
     1
1070
   340
1005
1CD
1070
    77
1070
     1
1070
    73
1070
     0
1070
   171
1070
     3
1070
   274
1070
     4
1070
   177
1070
     2
1070
   176
1070
     2
1070
   178
1070
     7
1070
    78
1070
     8
1070
    41
1041
3.175
1070
   147
1041
2.25
1070
    42
1041
2.0
1070
    44
1041
2.0
1070
   140
1041
4.5
1070
   343
1005
1DE
1070
   344
1005
1DE
1002
}
0
ENDSEC
0
SECTION
2
OBJECTS
0
DICTIONARY
5
27a
330
0
100
AcDbDictionary
280
0
281
1
3
ACAD_GROUP
350
27b
3
ACAD_MLINESTYLE
350
27c
0
DICTIONARY
5
27b
330
0
100
AcDbDictionary
280
0
281
1
0
DICTIONARY
5
27c
330
0
100
AcDbDictionary
280
0
281
1
3
Standard
350
18
0
MLINESTYLE
5
18
330
27c
100
AcDbMlineStyle
2
Standard
70
0
3

62
256
51
90
52
90
71
2
49
-0.5
62
256
6
ByLayer
49
0.5
62
256
6
ByLayer
0
RASTERVARIABLES
5
268
330

100
AcDbRasterVariables
90
0
70
1
71
1
72
1
0
ENDSEC
0
EOF
