0
SECTION
2
HEADER
9
$ACADVER
1
AC1015
9
$DWGCODEPAGE
3
ANSI_1252
9
$HANDSEED
5
29c
9
$ANGBASE
50
0
9
$ANGDIR
70
0
9
$ATTMODE
70
1
9
$AUNITS
70
0
9
$AUPREC
70
0
9
$CECOLOR
62
256
9
$CELTSCALE
40
1
9
$CELTYPE
6
ByLayer
9
$CELWEIGHT
370
18
9
$CLAYER
8
0
9
$CMLJUST
70
0
9
$CMLSCALE
40
1
9
$CMLSTYLE
2
Standard
9
$DIMSTYLE
2
Standard
9
$TEXTSIZE
40
0.2
9
$TEXTSTYLE
7
Standard
9
$LUNITS
70
2
9
$LUPREC
70
4
9
$EXTNAMES
290
1
9
$INSUNITS
70
4
9
$LTSCALE
40
1
9
$LWDISPLAY
290
1
9
$PDMODE
70
0
9
$PDSIZE
40
0
9
$PLINEGEN
70
0
0
ENDSEC
0
SECTION
2
CLASSES
0
CLASS
1
RASTERVARIABLES
2
AcDbRasterVariables
3
ISM
90
0
280
0
281
0
0
ENDSEC
0
SECTION
2
TABLES
0
TABLE
2
VPORT
5
292
100
AcDbSymbolTable
0
VPORT
5
1
100
AcDbSymbolTableRecord
100
AcDbViewportTableRecord
2
*Active
70
0
10
0
20
0
11
1
21
1
12
-1
22
1
13
0
23
0
14
0.5
24
0.5
15
10
25
10
16
0
26
0
36
1
17
0
27
0
37
0
0
ENDTAB
0
TABLE
2
LTYPE
5
293
100
AcDbSymbolTable
0
LTYPE
5
14
100
AcDbSymbolTableRecord
100
AcDbLinetypeTableRecord
70
0
2
ByBlock
3

72
65
73
0
40
0
0
LTYPE
5
15
100
AcDbSymbolTableRecord
100
AcDbLinetypeTableRecord
70
0
2
ByLayer
3

72
65
73
0
40
0
0
LTYPE
5
16
100
AcDbSymbolTableRecord
100
AcDbLinetypeTableRecord
70
0
2
CONTINUOUS
3
Solid line
72
65
73
0
40
0
0
LTYPE
5
6A
100
AcDbSymbolTableRecord
100
AcDbLinetypeTableRecord
70
0
2
CENTER
3
____ _ ____ _ ____ _ ____
72
65
73
4
40
47.5
49
22
74
0
49
-8.5
74
0
49
8.5
74
0
49
-8.5
74
0
0
LTYPE
5
6B
100
AcDbSymbolTableRecord
100
AcDbLinetypeTableRecord
70
0
2
DASHED
3
__ __ __ __ __ __ __ __ __
72
65
73
2
40
25.72
49
12.86
74
0
49
-12.86
74
0
0
ENDTAB
0
TABLE
2
LAYER
5
294
100
AcDbSymbolTable
0
LAYER
5
10
100
AcDbSymbolTableRecord
100
AcDbLayerTableRecord
2
0
70
0
62
7
6
CONTINUOUS
290
1
370
-3
390
0
0
LAYER
5
6D
100
AcDbSymbolTableRecord
100
AcDbLayerTableRecord
2
2
70
0
62
7
6
CONTINUOUS
290
1
370
-3
390
0
0
LAYER
5
6F
100
AcDbSymbolTableRecord
100
AcDbLayerTableRecord
2
80
70
0
62
-6
6
CONTINUOUS
290
1
370
-3
390
0
0
LAYER
5
71
100
AcDbSymbolTableRecord
100
AcDbLayerTableRecord
2
81
70
0
62
-3
6
CONTINUOUS
290
1
370
-3
390
0
0
LAYER
5
73
100
AcDbSymbolTableRecord
100
AcDbLayerTableRecord
2
1
70
0
62
4
6
CONTINUOUS
290
1
370
-3
390
0
0
LAYER
5
8A
100
AcDbSymbolTableRecord
100
AcDbLayerTableRecord
2
4
70
0
62
-2
6
CENTER
290
1
370
-3
390
0
0
LAYER
5
27e
100
AcDbSymbolTableRecord
100
AcDbLayerTableRecord
2
SK4
70
0
62
2
6
CENTER
290
1
370
-3
390
0
0
LAYER
5
27f
100
AcDbSymbolTableRecord
100
AcDbLayerTableRecord
2
SK1
70
0
62
4
6
CONTINUOUS
290
1
370
-3
390
0
0
LAYER
5
280
100
AcDbSymbolTableRecord
100
AcDbLayerTableRecord
2
SK6
70
0
62
5
6
CONTINUOUS
290
1
370
-3
390
0
0
LAYER
5
281
100
AcDbSymbolTableRecord
100
AcDbLayerTableRecord
2
SK2
70
0
62
7
6
CONTINUOUS
290
1
370
-3
390
0
0
ENDTAB
0
TABLE
2
STYLE
5
295
100
AcDbSymbolTable
0
STYLE
5
11
100
AcDbSymbolTableRecord
100
AcDbTextStyleTableRecord
2
Standard
3
txt
70
0
71
0
40
0
41
1
42
0
50
0
0
STYLE
5
1E2
100
AcDbSymbolTableRecord
100
AcDbTextStyleTableRecord
2
iso_b_vert
3
simplex.shx
70
0
71
0
40
0
41
1
42
0
50
0
0
STYLE
5
1E3
100
AcDbSymbolTableRecord
100
AcDbTextStyleTableRecord
2
DWGDirectTextStyle
3
simplex
70
0
71
0
40
0
41
1
42
0
50
0
0
ENDTAB
0
TABLE
2
DIMSTYLE
5
296
100
AcDbSymbolTable
100
AcDbDimStyleTable
0
DIMSTYLE
105
27
100
AcDbSymbolTableRecord
100
AcDbDimStyleTableRecord
2
Standard
70
0
3
<>
41
0.18
42
0.0625
44
0.18
140
0.18
147
0.09
73
0
74
0
77
1
271
2
275
0
278
52
280
0
340
11
0
ENDTAB
0
TABLE
2
VIEW
5
297
100
AcDbSymbolTable
0
ENDTAB
0
TABLE
2
UCS
5
298
100
AcDbSymbolTable
0
ENDTAB
0
TABLE
2
APPID
5
299
100
AcDbSymbolTable
0
APPID
5
12
100
AcDbSymbolTableRecord
100
AcDbRegAppTableRecord
2
ACAD
70
0
0
ENDTAB
0
TABLE
2
BLOCK_RECORD
5
29a
100
AcDbSymbolTable
0
BLOCK_RECORD
5
1F
100
AcDbSymbolTableRecord
100
AcDbBlockTableRecord
2
*Model_Space
340
0
70
0
0
BLOCK_RECORD
5
1B
100
AcDbSymbolTableRecord
100
AcDbBlockTableRecord
2
*Paper_Space
340
0
70
0
0
BLOCK_RECORD
5
23
100
AcDbSymbolTableRecord
100
AcDbBlockTableRecord
2
*Paper_Space0
340
0
70
0
0
BLOCK_RECORD
5
1E5
100
AcDbSymbolTableRecord
100
AcDbBlockTableRecord
2
DimnDraft3D11
340
0
70
0
0
BLOCK_RECORD
5
1F3
100
AcDbSymbolTableRecord
100
AcDbBlockTableRecord
2
DimnDraft3D2
340
0
70
0
0
BLOCK_RECORD
5
201
100
AcDbSymbolTableRecord
100
AcDbBlockTableRecord
2
_CLOSED
340
0
70
0
0
BLOCK_RECORD
5
208
100
AcDbSymbolTableRecord
100
AcDbBlockTableRecord
2
DimnDraft3D3
340
0
70
0
0
BLOCK_RECORD
5
217
100
AcDbSymbolTableRecord
100
AcDbBlockTableRecord
2
DimnDraft3D4
340
0
70
0
0
ENDTAB
0
ENDSEC
0
SECTION
2
BLOCKS
0
BLOCK
5
20
100
AcDbEntity
8
0
100
AcDbBlockBegin
2
*Model_Space
70
0
10
0
20
0
30
0
3
*Model_Space
0
ENDBLK
5
21
100
AcDbEntity
8
0
100
AcDbBlockEnd
0
BLOCK
5
1C
100
AcDbEntity
8
0
100
AcDbBlockBegin
2
*Paper_Space
70
0
10
0
20
0
30
0
3
*Paper_Space
0
ENDBLK
5
1D
100
AcDbEntity
8
0
100
AcDbBlockEnd
0
BLOCK
5
24
100
AcDbEntity
8
0
100
AcDbBlockBegin
2
*Paper_Space0
70
0
10
0
20
0
30
0
3
*Paper_Space0
0
ENDBLK
5
25
100
AcDbEntity
8
0
100
AcDbBlockEnd
0
BLOCK
5
1E6
100
AcDbEntity
8
0
100
AcDbBlockBegin
2
DimnDraft3D11
70
0
10
0
20
0
30
0
3
DimnDraft3D11
0
LINE
5
1E8
100
AcDbEntity
8
2
62
256
6
ByLayer
370
25
48
1
60
0
100
AcDbLine
10
50
20
29
30
0
11
50
21
57.75
31
0
39
0
210
0
220
0
230
1
0
LINE
5
1E9
100
AcDbEntity
8
2
62
256
6
ByLayer
370
25
48
1
60
0
100
AcDbLine
10
0
20
22
30
0
11
0
21
57.75
31
0
39
0
210
0
220
0
230
1
0
LINE
5
1EA
100
AcDbEntity
8
2
62
256
6
ByLayer
370
25
48
1
60
0
100
AcDbLine
10
50
20
55.75
30
0
11
0
21
55.75
31
0
39
0
210
0
220
0
230
1
0
LINE
5
1EB
100
AcDbEntity
8
2
62
256
6
ByLayer
370
25
48
1
60
0
100
AcDbLine
10
50
20
55.75
30
0
11
46.825002
21
55.332003
31
0
39
0
210
0
220
0
230
1
0
LINE
5
1EC
100
AcDbEntity
8
2
62
256
6
ByLayer
370
25
48
1
60
0
100
AcDbLine
10
50
20
55.75
30
0
11
46.824998
21
56.167997
31
0
39
0
210
0
220
0
230
1
0
LINE
5
1ED
100
AcDbEntity
8
2
62
256
6
ByLayer
370
25
48
1
60
0
100
AcDbLine
10
46.825002
20
55.332003
30
0
11
46.824998
21
56.167997
31
0
39
0
210
0
220
0
230
1
0
LINE
5
1EE
100
AcDbEntity
8
2
62
256
6
ByLayer
370
25
48
1
60
0
100
AcDbLine
10
0
20
55.75
30
0
11
3.174998
21
56.167997
31
0
39
0
210
0
220
0
230
1
0
LINE
5
1EF
100
AcDbEntity
8
2
62
256
6
ByLayer
370
25
48
1
60
0
100
AcDbLine
10
0
20
55.75
30
0
11
3.175002
21
55.332003
31
0
39
0
210
0
220
0
230
1
0
LINE
5
1F0
100
AcDbEntity
8
2
62
256
6
ByLayer
370
25
48
1
60
0
100
AcDbLine
10
3.174998
20
56.167997
30
0
11
3.175002
21
55.332003
31
0
39
0
210
0
220
0
230
1
0
MTEXT
5
1F1
100
AcDbEntity
8
2
62
256
6
ByLayer
370
18
48
1
60
0
100
AcDbMText
10
20.843421
20
56.875
30
0
210
0
220
0
230
1
1
\W0.7346;50.0
40
4.5
41
0
44
1.084337
50
0
71
7
72
5
7
iso_b_vert
0
ENDBLK
5
1E7
100
AcDbEntity
8
0
100
AcDbBlockEnd
0
BLOCK
5
1FE
100
AcDbEntity
8
0
100
AcDbBlockBegin
2
DimnDraft3D2
70
0
10
0
20
0
30
0
3
DimnDraft3D2
0
MTEXT
5
1F4
100
AcDbEntity
8
2
62
256
6
ByLayer
370
18
48
1
60
0
100
AcDbMText
10
38.058392
20
34.100499
30
0
210
0
220
0
230
1
1
\W0.7399;95%%d
40
4.5
41
0
44
1.084337
50
47.3457231599999
71
7
72
5
7
iso_b_vert
0
LINE
5
1F5
100
AcDbEntity
8
2
62
256
6
ByLayer
370
13
48
1
60
0
100
AcDbLine
10
50
20
29
30
0
11
50
21
41.490491
31
0
39
0
210
0
220
0
230
1
0
LINE
5
1F6
100
AcDbEntity
8
2
62
256
6
ByLayer
370
13
48
1
60
0
100
AcDbLine
10
46.151381
20
26.751971
30
0
11
35.625638
21
25.88818
31
0
39
0
210
0
220
0
230
1
0
ARC
5
1F7
100
AcDbEntity
8
2
62
256
6
ByLayer
370
13
48
1
60
0
100
AcDbCircle
39
0
10
50
20
27.067807
30
0
40
12.4226837803016
210
0
220
0
230
1
100
AcDbArc
50
90
51
184.691446
0
LINE
5
1F8
100
AcDbEntity
8
2
62
256
6
ByLayer
370
13
48
1
60
0
100
AcDbLine
10
50
20
39.490491
30
0
11
46.857957
21
38.8717
31
0
39
0
210
0
220
0
230
1
0
LINE
5
1F9
100
AcDbEntity
8
2
62
256
6
ByLayer
370
13
48
1
60
0
100
AcDbLine
10
50
20
39.490491
30
0
11
46.804862
21
39.706006
31
0
39
0
210
0
220
0
230
1
0
LINE
5
1FA
100
AcDbEntity
8
2
62
256
6
ByLayer
370
13
48
1
60
0
100
AcDbLine
10
46.857957
20
38.8717
30
0
11
46.804862
21
39.706006
31
0
39
0
210
0
220
0
230
1
0
LINE
5
1FB
100
AcDbEntity
8
2
62
256
6
ByLayer
370
13
48
1
60
0
100
AcDbLine
10
37.618937
20
26.051759
30
0
11
37.142815
21
29.218563
31
0
39
0
210
0
220
0
230
1
0
LINE
5
1FC
100
AcDbEntity
8
2
62
256
6
ByLayer
370
13
48
1
60
0
100
AcDbLine
10
37.618937
20
26.051759
30
0
11
37.978668
21
29.233889
31
0
39
0
210
0
220
0
230
1
0
LINE
5
1FD
100
AcDbEntity
8
2
62
256
6
ByLayer
370
13
48
1
60
0
100
AcDbLine
10
37.142815
20
29.218563
30
0
11
37.978668
21
29.233889
31
0
39
0
210
0
220
0
230
1
0
ENDBLK
5
1FF
100
AcDbEntity
8
0
100
AcDbBlockEnd
0
BLOCK
5
202
100
AcDbEntity
8
0
100
AcDbBlockBegin
2
_CLOSED
70
0
10
0
20
0
30
0
3
_CLOSED
0
LINE
5
204
100
AcDbEntity
8
0
62
256
6
ByLayer
370
-2
48
1
60
0
100
AcDbLine
10
-1
20
0.166667
30
0
11
0
21
0
31
0
39
0
210
0
220
0
230
1
0
LINE
5
205
100
AcDbEntity
8
0
62
256
6
ByLayer
370
-2
48
1
60
0
100
AcDbLine
10
0
20
0
30
0
11
-1
21
-0.166667
31
0
39
0
210
0
220
0
230
1
0
LINE
5
206
100
AcDbEntity
8
0
62
256
6
ByLayer
370
-2
48
1
60
0
100
AcDbLine
10
-1
20
0.166667
30
0
11
-1
21
-0.166667
31
0
39
0
210
0
220
0
230
1
0
LINE
5
207
100
AcDbEntity
8
0
62
256
6
ByLayer
370
-2
48
1
60
0
100
AcDbLine
10
0
20
0
30
0
11
-1
21
0
31
0
39
0
210
0
220
0
230
1
0
ENDBLK
5
203
100
AcDbEntity
8
0
100
AcDbBlockEnd
0
BLOCK
5
214
100
AcDbEntity
8
0
100
AcDbBlockBegin
2
DimnDraft3D3
70
0
10
0
20
0
30
0
3
DimnDraft3D3
0
MTEXT
5
209
100
AcDbEntity
8
SK2
62
256
6
ByLayer
370
18
48
1
60
0
100
AcDbMText
10
-32.875
20
-1.8
30
0
210
0
220
0
230
1
1
\W0.7361;40
40
4.5
41
0
44
1.084337
50
90
71
7
72
5
7
iso_b_vert
0
LINE
5
20B
100
AcDbEntity
8
SK2
62
256
6
ByLayer
370
13
48
1
60
0
100
AcDbLine
10
-2
20
-20
30
0
11
-33.75
21
-20
31
0
39
0
210
0
220
0
230
1
0
LINE
5
20C
100
AcDbEntity
8
SK2
62
256
6
ByLayer
370
13
48
1
60
0
100
AcDbLine
10
-2
20
20
30
0
11
-33.75
21
20
31
0
39
0
210
0
220
0
230
1
0
LINE
5
20D
100
AcDbEntity
8
SK2
62
256
6
ByLayer
370
13
48
1
60
0
100
AcDbLine
10
-31.75
20
-20
30
0
11
-31.75
21
20
31
0
39
0
210
0
220
0
230
1
0
LINE
5
20E
100
AcDbEntity
8
SK2
62
256
6
ByLayer
370
13
48
1
60
0
100
AcDbLine
10
-31.75
20
-20
30
0
11
-32.167997
21
-16.825002
31
0
39
0
210
0
220
0
230
1
0
LINE
5
20F
100
AcDbEntity
8
SK2
62
256
6
ByLayer
370
13
48
1
60
0
100
AcDbLine
10
-31.75
20
-20
30
0
11
-31.332003
21
-16.824998
31
0
39
0
210
0
220
0
230
1
0
LINE
5
210
100
AcDbEntity
8
SK2
62
256
6
ByLayer
370
13
48
1
60
0
100
AcDbLine
10
-32.167997
20
-16.825002
30
0
11
-31.332003
21
-16.824998
31
0
39
0
210
0
220
0
230
1
0
LINE
5
211
100
AcDbEntity
8
SK2
62
256
6
ByLayer
370
13
48
1
60
0
100
AcDbLine
10
-31.75
20
20
30
0
11
-31.332003
21
16.825002
31
0
39
0
210
0
220
0
230
1
0
LINE
5
212
100
AcDbEntity
8
SK2
62
256
6
ByLayer
370
13
48
1
60
0
100
AcDbLine
10
-31.75
20
20
30
0
11
-32.167997
21
16.824998
31
0
39
0
210
0
220
0
230
1
0
LINE
5
213
100
AcDbEntity
8
SK2
62
256
6
ByLayer
370
13
48
1
60
0
100
AcDbLine
10
-31.332003
20
16.825002
30
0
11
-32.167997
21
16.824998
31
0
39
0
210
0
220
0
230
1
0
ENDBLK
5
215
100
AcDbEntity
8
0
100
AcDbBlockEnd
0
BLOCK
5
222
100
AcDbEntity
8
0
100
AcDbBlockBegin
2
DimnDraft3D4
70
0
10
0
20
0
30
0
3
DimnDraft3D4
0
MTEXT
5
218
100
AcDbEntity
8
2
62
256
6
ByLayer
370
18
48
1
60
0
100
AcDbMText
10
71.125
20
9.343421
30
0
210
0
220
0
230
1
1
\W0.7346;27.0
40
4.5
41
0
44
1.084337
50
90
71
7
72
5
7
iso_b_vert
0
LINE
5
219
100
AcDbEntity
8
2
62
256
6
ByLayer
370
13
48
1
60
0
100
AcDbLine
10
52
20
0
30
0
11
74.25
21
0
31
0
39
0
210
0
220
0
230
1
0
LINE
5
21A
100
AcDbEntity
8
2
62
256
6
ByLayer
370
13
48
1
60
0
100
AcDbLine
10
52
20
27
30
0
11
74.25
21
27
31
0
39
0
210
0
220
0
230
1
0
LINE
5
21B
100
AcDbEntity
8
2
62
256
6
ByLayer
370
13
48
1
60
0
100
AcDbLine
10
72.25
20
0
30
0
11
72.25
21
27
31
0
39
0
210
0
220
0
230
1
0
LINE
5
21C
100
AcDbEntity
8
2
62
256
6
ByLayer
370
13
48
1
60
0
100
AcDbLine
10
72.25
20
0
30
0
11
71.832003
21
3.174998
31
0
39
0
210
0
220
0
230
1
0
LINE
5
21D
100
AcDbEntity
8
2
62
256
6
ByLayer
370
13
48
1
60
0
100
AcDbLine
10
72.25
20
0
30
0
11
72.667997
21
3.175002
31
0
39
0
210
0
220
0
230
1
0
LINE
5
21E
100
AcDbEntity
8
2
62
256
6
ByLayer
370
13
48
1
60
0
100
AcDbLine
10
71.832003
20
3.174998
30
0
11
72.667997
21
3.175002
31
0
39
0
210
0
220
0
230
1
0
LINE
5
21F
100
AcDbEntity
8
2
62
256
6
ByLayer
370
13
48
1
60
0
100
AcDbLine
10
72.25
20
27
30
0
11
72.667997
21
23.825002
31
0
39
0
210
0
220
0
230
1
0
LINE
5
220
100
AcDbEntity
8
2
62
256
6
ByLayer
370
13
48
1
60
0
100
AcDbLine
10
72.25
20
27
30
0
11
71.832003
21
23.824998
31
0
39
0
210
0
220
0
230
1
0
LINE
5
221
100
AcDbEntity
8
2
62
256
6
ByLayer
370
13
48
1
60
0
100
AcDbLine
10
72.667997
20
23.825002
30
0
11
71.832003
21
23.824998
31
0
39
0
210
0
220
0
230
1
0
ENDBLK
5
223
100
AcDbEntity
8
0
100
AcDbBlockEnd
0
ENDSEC
0
SECTION
2
ENTITIES
0
ARC
5
F2
100
AcDbEntity
8
SK1
62
256
6
ByLayer
370
18
48
1
60
0
100
AcDbCircle
39
0
10
0.6
20
-15
30
0
40
0.999999999999989
210
0
220
0
230
-1
100
AcDbArc
50
113.578178
51
126.869898
0
ARC
5
F3
100
AcDbEntity
8
SK1
62
256
6
ByLayer
370
18
48
1
60
0
100
AcDbCircle
39
0
10
0.6
20
15
30
0
40
0.999999999999989
210
0
220
0
230
-1
100
AcDbArc
50
233.130102
51
246.421822
0
ELLIPSE
5
F4
100
AcDbEntity
8
1
62
256
6
ByLayer
370
18
48
1
60
0
100
AcDbEllipse
10
35.086182
20
15.778067
30
0
11
-0.205060966544569
21
0.205060966543628
31
0
210
0
220
0
230
1
40
0.989133
41
-0.567289649805908
42
-0.353229769708063
0
ELLIPSE
5
F5
100
AcDbEntity
8
1
62
256
6
ByLayer
370
18
48
1
60
0
100
AcDbEllipse
10
36.14736
20
14.666919
30
0
11
0.222738636074274
21
-0.22273863607325
31
0
210
0
220
0
230
1
40
0.989133
41
3.14159039805338
42
-3.08222991204255
0
ELLIPSE
5
F6
100
AcDbEntity
8
1
62
256
6
ByLayer
370
18
48
1
60
0
100
AcDbEllipse
10
36.000491
20
15.819699
30
0
11
0.636396103069356
21
-0.63639610306643
31
0
210
0
220
0
230
1
40
0.989133
41
3.10197728103486
42
-1.40718984724282
0
ELLIPSE
5
F7
100
AcDbEntity
8
1
62
256
6
ByLayer
370
18
48
1
60
0
100
AcDbEllipse
10
36.000491
20
15.819699
30
0
11
0.636396103069356
21
-0.63639610306643
31
0
210
0
220
0
230
1
40
0.989133
41
0.02891055988042
42
3.10197728103486
0
ELLIPSE
5
F8
100
AcDbEntity
8
1
62
256
6
ByLayer
370
18
48
1
60
0
100
AcDbEllipse
10
36.036878
20
15.856086
30
0
11
0.636396103069356
21
-0.63639610306643
31
0
210
0
220
0
230
1
40
0.989133
41
2.53695297788561
42
3.141589496116
0
ELLIPSE
5
F9
100
AcDbEntity
8
1
62
256
6
ByLayer
370
18
48
1
60
0
100
AcDbEllipse
10
36.036878
20
15.856086
30
0
11
0.636396103069356
21
-0.63639610306643
31
0
210
0
220
0
230
1
40
0.989133
41
-0.293954814394652
42
0.255573825305319
0
ELLIPSE
5
FA
100
AcDbEntity
8
1
62
256
6
ByLayer
370
18
48
1
60
0
100
AcDbEllipse
10
36.036878
20
15.856086
30
0
11
0.636396103069356
21
-0.63639610306643
31
0
210
0
220
0
230
1
40
0.989133
41
-1.44741502809998
42
-0.835103909246562
0
ELLIPSE
5
FB
100
AcDbEntity
8
1
62
256
6
ByLayer
370
18
48
1
60
0
100
AcDbEllipse
10
36.036878
20
15.856086
30
0
11
0.636396103069356
21
-0.63639610306643
31
0
210
0
220
0
230
1
40
0.989133
41
-2.69903477809738
42
-2.10215415115854
0
ELLIPSE
5
FC
100
AcDbEntity
8
1
62
256
6
ByLayer
370
18
48
1
60
0
100
AcDbEllipse
10
34.952772
20
16.366236
30
0
11
0.222738636074274
21
-0.22273863607325
31
0
210
0
220
0
230
1
40
0.989133
41
-0.567289649805922
42
-1.68772963215673E-06
0
ELLIPSE
5
FD
100
AcDbEntity
8
1
62
256
6
ByLayer
370
18
48
1
60
0
100
AcDbEllipse
10
36.588792
20
15.070981
30
0
11
-0.205060966544569
21
0.205060966543628
31
0
210
0
220
0
230
1
40
0.989133
41
-2.78833570377235
42
-1.87617130298617
0
ELLIPSE
5
FE
100
AcDbEntity
8
1
62
256
6
ByLayer
370
18
48
1
60
0
100
AcDbEllipse
10
35.958907
20
15.778115
30
0
11
2.26274169980215
21
-2.26274169979175
31
0
210
0
220
0
230
1
40
0.989133
41
3.14154186687326
42
-0.790861291784413
0
ELLIPSE
5
FF
100
AcDbEntity
8
1
62
256
6
ByLayer
370
18
48
1
60
0
100
AcDbEllipse
10
35.958907
20
15.778115
30
0
11
2.26274169980215
21
-2.26274169979175
31
0
210
0
220
0
230
1
40
0.989133
41
-0.790861291784409
42
0
0
ELLIPSE
5
100
100
AcDbEntity
8
1
62
256
6
ByLayer
370
18
48
1
60
0
100
AcDbEllipse
10
35.484964
20
16.641191
30
0
11
-0.205060966544569
21
0.205060966543628
31
0
210
0
220
0
230
1
40
0.989133
41
-1.61448720100248
42
-0.353266692666209
0
ELLIPSE
5
101
100
AcDbEntity
8
1
62
256
6
ByLayer
370
18
48
1
60
0
100
AcDbEllipse
10
37.120984
20
15.345936
30
0
11
0.222738636074274
21
-0.22273863607325
31
0
210
0
220
0
230
1
40
0.989133
41
3.14159189831862
42
-3.06252645700464
0
ELLIPSE
5
102
100
AcDbEntity
8
1
62
256
6
ByLayer
370
18
48
1
60
0
100
AcDbEllipse
10
36.987574
20
15.934104
30
0
11
-0.205060966544569
21
0.205060966543628
31
0
210
0
220
0
230
1
40
0.989133
41
-2.78830248259811
42
-0.828973751789567
0
ELLIPSE
5
103
100
AcDbEntity
8
1
62
256
6
ByLayer
370
18
48
1
60
0
100
AcDbEllipse
10
35.926395
20
17.045253
30
0
11
0.222738636074274
21
-0.22273863607325
31
0
210
0
220
0
230
1
40
0.989133
41
-0.428132046983999
42
-2.52391983519692E-06
0
ELLIPSE
5
104
100
AcDbEntity
8
1
62
256
6
ByLayer
370
18
48
1
60
0
100
AcDbEllipse
10
36.435659
20
16.719209
30
0
11
-0.205060966544569
21
0.205060966543628
31
0
210
0
220
0
230
1
40
0.989133
41
-2.6616847521991
42
-0.309701003274983
0
ELLIPSE
5
105
100
AcDbEntity
8
1
62
256
6
ByLayer
370
18
48
1
60
0
100
AcDbEllipse
10
44.892121
20
21.892121
30
0
11
1.34703841816347
21
-1.34703841815728
31
0
210
0
220
0
230
1
40
0.989133
41
-0.0781652754834185
42
0
0
ELLIPSE
5
106
100
AcDbEntity
8
1
62
256
6
ByLayer
370
18
48
1
60
0
100
AcDbEllipse
10
44.892121
20
21.892121
30
0
11
1.34703841816347
21
-1.34703841815728
31
0
210
0
220
0
230
1
40
0.989133
41
0
42
2.86766695825859
0
ELLIPSE
5
107
100
AcDbEntity
8
1
62
256
6
ByLayer
370
18
48
1
60
0
100
AcDbEllipse
10
44.561523
20
21.561523
30
0
11
1.34703841816347
21
-1.34703841815728
31
0
210
0
220
0
230
1
40
0.989133
41
0.193340706531086
42
0.622855170737006
0
ELLIPSE
5
108
100
AcDbEntity
8
1
62
256
6
ByLayer
370
18
48
1
60
0
100
AcDbEllipse
10
40.89835
20
25.224696
30
0
11
0.561442784263409
21
-0.561442784260828
31
0
210
0
220
0
230
1
40
0.989133
41
3.14159259036298
42
-2.8147357224605
0
ELLIPSE
5
109
100
AcDbEntity
8
1
62
256
6
ByLayer
370
18
48
1
60
0
100
AcDbEllipse
10
48.224696
20
17.89835
30
0
11
0.561442784263409
21
-0.561442784260828
31
0
210
0
220
0
230
1
40
0.989133
41
-0.326857057439157
42
-6.32268066609993E-08
0
ELLIPSE
5
10A
100
AcDbEntity
8
1
62
256
6
ByLayer
370
18
48
1
60
0
100
AcDbEllipse
10
8
20
11.854645
30
0
11
2
21
0
31
0
210
0
220
0
230
1
40
0.707107
41
0.653352866434958
42
2.76793890983124
0
ELLIPSE
5
10B
100
AcDbEntity
8
1
62
256
6
ByLayer
370
18
48
1
60
0
100
AcDbEllipse
10
22.483309
20
16.608892
30
0
11
0.903323439102258
21
-2.00599271294002
31
0
210
0
220
0
230
1
40
0.177212
41
2.89442523209445E-05
42
3.14153868592891
0
ELLIPSE
5
10C
100
AcDbEntity
8
1
62
256
6
ByLayer
370
18
48
1
60
0
100
AcDbEllipse
10
22.707654
20
16.709918
30
0
11
-0.800673048295175
21
1.77803899556049
31
0
210
0
220
0
230
1
40
0.177212
41
-2.96047700741295
42
-0.181117691576772
0
ELLIPSE
5
10D
100
AcDbEntity
8
1
62
256
6
ByLayer
370
18
48
1
60
0
100
AcDbEllipse
10
29.23818
20
17.430829
30
0
11
2.0817652655485
21
-2.16015123988015
31
0
210
0
220
0
230
1
40
0.986455
41
-0.156280282981027
42
-0.0606867508945255
0
ELLIPSE
5
10E
100
AcDbEntity
8
1
62
256
6
ByLayer
370
18
48
1
60
0
100
AcDbEllipse
10
36.514403
20
16.164858
30
0
11
-2.32463787986249
21
2.41216888453284
31
0
210
0
220
0
230
1
40
0.986455
41
3.13709047654977
42
-0.15628028298103
0
ELLIPSE
5
10F
100
AcDbEntity
8
1
62
256
6
ByLayer
370
18
48
1
60
0
100
AcDbEllipse
10
16.960227
20
14.12178
30
0
11
-0.0265814763153794
21
-2.75179536880924
31
0
210
0
220
0
230
1
40
0.081875
41
2.70095462387392
42
0.532681014146295
0
ELLIPSE
5
110
100
AcDbEntity
8
1
62
256
6
ByLayer
370
18
48
1
60
0
100
AcDbEllipse
10
41.270734
20
14.921217
30
0
11
1.23620267723216
21
-1.23620267722648
31
0
210
0
220
0
230
1
40
0.989133
41
0.197096541498697
42
0.698131700797731
0
ELLIPSE
5
111
100
AcDbEntity
8
1
62
256
6
ByLayer
370
18
48
1
60
0
100
AcDbEllipse
10
8
20
11.854645
30
0
11
1.65
21
0
31
0
210
0
220
0
230
1
40
0.707107
41
-2.29041743578248
42
-2.13245415547795
0
ELLIPSE
5
112
100
AcDbEntity
8
1
62
256
6
ByLayer
370
18
48
1
60
0
100
AcDbEllipse
10
8
20
11.854645
30
0
11
1.65
21
0
31
0
210
0
220
0
230
1
40
0.707107
41
-0.0234635074422896
42
0
0
ELLIPSE
5
113
100
AcDbEntity
8
1
62
256
6
ByLayer
370
18
48
1
60
0
100
AcDbEllipse
10
8
20
11.854645
30
0
11
1.65
21
0
31
0
210
0
220
0
230
1
40
0.707107
41
0
42
-3.11812898116473
0
ELLIPSE
5
114
100
AcDbEntity
8
1
62
256
6
ByLayer
370
18
48
1
60
0
100
AcDbEllipse
10
8
20
11.854645
30
0
11
1.65
21
0
31
0
210
0
220
0
230
1
40
0.707107
41
-1.00913862407849
42
-0.629693465280207
0
ELLIPSE
5
115
100
AcDbEntity
8
1
62
256
6
ByLayer
370
18
48
1
60
0
100
AcDbEllipse
10
41.946484
20
15.596967
30
0
11
1.29002132421483
21
-1.2900213242089
31
0
210
0
220
0
230
1
40
0.989133
41
-0.662766899690538
42
0.698131700797702
0
ELLIPSE
5
116
100
AcDbEntity
8
1
62
256
6
ByLayer
370
18
48
1
60
0
100
AcDbEllipse
10
37.053728
20
0
30
0
11
-15.2369172994943
21
-20.1484649845718
31
0
210
0
220
0
230
1
40
0.016323
41
0.0123377378853275
42
0.212182072330851
0
ELLIPSE
5
117
100
AcDbEntity
8
1
62
256
6
ByLayer
370
18
48
1
60
0
100
AcDbEllipse
10
22.494172
20
56.366786
30
0
11
-7.02934607980377E-15
21
-38.2672415935292
31
0
210
-6.9425119697206E-18
220
0
230
1
40
0.104528
41
-0.347968196047005
42
-0.146859938869041
0
ELLIPSE
5
118
100
AcDbEntity
8
1
62
256
6
ByLayer
370
18
48
1
60
0
100
AcDbEllipse
10
41.286328
20
14.936811
30
0
11
1.34226869441039
21
-1.34226869440422
31
0
210
0
220
0
230
1
40
0.989133
41
0.331399743463157
42
0.698131700797727
0
ELLIPSE
5
119
100
AcDbEntity
8
1
62
256
6
ByLayer
370
18
48
1
60
0
100
AcDbEllipse
10
35.077753
20
12.403922
30
0
11
3.68137961684051
21
2.58794206208548
31
0
210
0
220
0
230
1
40
0.02553
41
1.94485307362607
42
2.38372964245487
0
ELLIPSE
5
11A
100
AcDbEntity
8
1
62
256
6
ByLayer
370
18
48
1
60
0
100
AcDbEllipse
10
36.857867
20
10.015082
30
0
11
-2.12265528406776
21
-1.67444744022946
31
0
210
0
220
0
230
1
40
0.354399
41
-0.623778917106688
42
0.117711966623485
0
ELLIPSE
5
11B
100
AcDbEntity
8
1
62
256
6
ByLayer
370
18
48
1
60
0
100
AcDbEllipse
10
33.355469
20
10.056726
30
0
11
-2.20146803790738
21
1.18791661357946
31
0
210
0
220
0
230
1
40
0.99535
41
1.10568333558969
42
2.21947773170127
0
ELLIPSE
5
11C
100
AcDbEntity
8
1
62
256
6
ByLayer
370
18
48
1
60
0
100
AcDbEllipse
10
45.138627
20
22.117753
30
0
11
-0.498977414340951
21
1.63519791059499
31
0
210
0
220
0
230
1
40
0.830433
41
-1.61013397050463
42
-1.32905028555693
0
ELLIPSE
5
11D
100
AcDbEntity
8
1
62
256
6
ByLayer
370
18
48
1
60
0
100
AcDbEllipse
10
29.848513
20
15.045414
30
0
11
-2.20146803789364
21
1.18791661360332
31
0
210
0
220
0
230
1
40
0.99535
41
-0.00811106051112822
42
1.10568333560071
0
ELLIPSE
5
11E
100
AcDbEntity
8
1
62
256
6
ByLayer
370
18
48
1
60
0
100
AcDbEllipse
10
31.985925
20
16.866296
30
0
11
-3.59884832716647
21
-0.244795226391246
31
0
210
0
220
0
230
1
40
0.441633
41
-0.63381146698347
42
-0.342187603456517
0
ELLIPSE
5
11F
100
AcDbEntity
8
1
62
256
6
ByLayer
370
18
48
1
60
0
100
AcDbEllipse
10
35.49288
20
11.877608
30
0
11
-1.14831778080989
21
-3.59576698837088
31
0
210
0
220
0
230
1
40
0.470983
41
0.260547100925445
42
0.552170964458725
0
ELLIPSE
5
120
100
AcDbEntity
8
1
62
256
6
ByLayer
370
18
48
1
60
0
100
AcDbEllipse
10
30.886417
20
18.509544
30
0
11
-2.29112180356144
21
-1.43508930383492
31
0
210
0
220
0
230
1
40
0.303503
41
-0.12114227942067
42
0.620348604308056
0
ELLIPSE
5
121
100
AcDbEntity
8
1
62
256
6
ByLayer
370
18
48
1
60
0
100
AcDbEllipse
10
31.589896
20
5.932617
30
0
11
4.90850615578735
21
3.45058941611397
31
0
210
0
220
0
230
1
40
0.02553
41
-0.810463024860362
42
-0.808573903783161
0
ELLIPSE
5
122
100
AcDbEntity
8
1
62
256
6
ByLayer
370
18
48
1
60
0
100
AcDbEllipse
10
45.138627
20
22.117753
30
0
11
-1.49135680582439
21
0.763642317753805
31
0
210
0
220
0
230
1
40
0.824475
41
-2.00537237110752
42
-1.72428868613636
0
ELLIPSE
5
123
100
AcDbEntity
8
1
62
256
6
ByLayer
370
18
48
1
60
0
100
AcDbEllipse
10
31.808929
20
17.053865
30
0
11
-3.75858819470299
21
-2.47800860718199
31
0
210
0
220
0
230
1
40
0.172209
41
0.547699206303693
42
0.609347383358754
0
ELLIPSE
5
124
100
AcDbEntity
8
1
62
256
6
ByLayer
370
18
48
1
60
0
100
AcDbEllipse
10
32.548146
20
16.00232
30
0
11
3.68137961684051
21
2.58794206208548
31
0
210
0
220
0
230
1
40
0.02553
41
1.94485307362606
42
2.3837296424549
0
ELLIPSE
5
125
100
AcDbEntity
8
1
62
256
6
ByLayer
370
18
48
1
60
0
100
AcDbEllipse
10
30.197894
20
15.481939
30
0
11
0.28298531868108
21
-1.77761618731687
31
0
210
0
220
0
230
1
40
0.79553
41
-2.64503395595663
42
-1.21480414950783
0
ELLIPSE
5
126
100
AcDbEntity
8
1
62
256
6
ByLayer
370
18
48
1
60
0
100
AcDbEllipse
10
33.747438
20
10.43267
30
0
11
1.62447811879934
21
-0.775287586345961
31
0
210
0
220
0
230
1
40
0.780905
41
-2.00026262507708
42
-0.570032818628274
0
ELLIPSE
5
127
100
AcDbEntity
8
1
62
256
6
ByLayer
370
18
48
1
60
0
100
AcDbEllipse
10
35.81697
20
11.352377
30
0
11
-3.60239651585243
21
-2.70011583011941
31
0
210
0
220
0
230
1
40
0.223221
41
-0.611011802469113
42
-0.549363627345873
0
ELLIPSE
5
128
100
AcDbEntity
8
1
62
256
6
ByLayer
370
18
48
1
60
0
100
AcDbEllipse
10
8
20
10.606602
30
0
11
-1.87399516862694
21
-2.78920145025286
31
0
210
0
220
0
230
1
40
0.250492
41
1.94585700116124
42
-2.65958138010599
0
ELLIPSE
5
129
100
AcDbEntity
8
1
62
256
6
ByLayer
370
18
48
1
60
0
100
AcDbEllipse
10
8
20
12.137533
30
0
11
2
21
0
31
0
210
0
220
0
230
1
40
0.707107
41
1.00226206910651
42
2.13933058448328
0
ELLIPSE
5
12A
100
AcDbEntity
8
1
62
256
6
ByLayer
370
18
48
1
60
0
100
AcDbEllipse
10
16.948929
20
0
30
0
11
-9.36741787978228
21
-19.7417491527506
31
0
210
0
220
0
230
1
40
0.341999
41
-1.09631952749989
42
-0.152726244898338
0
ELLIPSE
5
12B
100
AcDbEntity
8
1
62
256
6
ByLayer
370
18
48
1
60
0
100
AcDbEllipse
10
8
20
10.606602
30
0
11
-1.87399516862692
21
2.78920145025283
31
0
210
0
220
0
230
1
40
0.250492
41
-0.482011273483802
42
1.19573565242856
0
ELLIPSE
5
12C
100
AcDbEntity
8
1
62
256
6
ByLayer
370
18
48
1
60
0
100
AcDbEllipse
10
32.909901
20
4.094845
30
0
11
-4.60348651601406
21
-3.18394601545904
31
0
210
0
220
0
230
1
40
0.714389
41
2.80063090065272
42
-3.13614006881425
0
ELLIPSE
5
12D
100
AcDbEntity
8
1
62
256
6
ByLayer
370
18
48
1
60
0
100
AcDbEllipse
10
8
20
12.137533
30
0
11
2
21
0
31
0
210
0
220
0
230
1
40
0.707107
41
-2.13933058448328
42
-1.00226206910651
0
ELLIPSE
5
12E
100
AcDbEntity
8
1
62
256
6
ByLayer
370
18
48
1
60
0
100
AcDbEllipse
10
23.998784
20
16.771019
30
0
11
-4.60348651607472
21
-3.18394601548281
31
0
210
0
220
0
230
1
40
0.714389
41
-3.13614006881239
42
-2.78972559708983
0
ELLIPSE
5
12F
100
AcDbEntity
8
1
62
256
6
ByLayer
370
18
48
1
60
0
100
AcDbEllipse
10
17.749773
20
0
30
0
11
1.22460635382238E-15
21
20
31
0
210
0
220
0
230
1
40
0.087489
41
0.392575063395553
42
2.74901759019424
0
ELLIPSE
5
130
100
AcDbEntity
8
1
62
256
6
ByLayer
370
18
48
1
60
0
100
AcDbEllipse
10
-0.948929
20
0
30
0
11
-9.36741787978211
21
19.7417491527504
31
0
210
0
220
0
230
1
40
0.341999
41
-2.98886640869145
42
-2.0452731260899
0
ELLIPSE
5
131
100
AcDbEntity
8
1
62
256
6
ByLayer
370
18
48
1
60
0
100
AcDbEllipse
10
-0.948929
20
0
30
0
11
-9.36741787978245
21
-19.7417491527508
31
0
210
0
220
0
230
1
40
0.341999
41
2.04527312608992
42
2.98886640869145
0
ELLIPSE
5
132
100
AcDbEntity
8
1
62
256
6
ByLayer
370
18
48
1
60
0
100
AcDbEllipse
10
16.948929
20
0
30
0
11
-9.36741787978284
21
19.7417491527512
31
0
210
0
220
0
230
1
40
0.341999
41
0.152726244898339
42
1.09631952749986
0
ELLIPSE
5
133
100
AcDbEntity
8
1
62
256
6
ByLayer
370
18
48
1
60
0
100
AcDbEllipse
10
36.066744
20
17.185601
30
0
11
0.222738636074274
21
-0.22273863607325
31
0
210
0
220
0
230
1
40
0.989133
41
-0.254976468358223
42
0.218223799406988
0
ELLIPSE
5
134
100
AcDbEntity
8
1
62
256
6
ByLayer
370
18
48
1
60
0
100
AcDbEllipse
10
36.172724
20
15.991932
30
0
11
0.636396103069356
21
-0.63639610306643
31
0
210
0
220
0
230
1
40
0.989133
41
-2.88601882828465
42
-2.69903477808765
0
ELLIPSE
5
135
100
AcDbEntity
8
1
62
256
6
ByLayer
370
18
48
1
60
0
100
AcDbEllipse
10
36.177226
20
15.996434
30
0
11
0.65407377259906
21
-0.654073772596053
31
0
210
0
220
0
230
1
40
0.989133
41
-1.89187428278251
42
-1.59878422120616
0
ELLIPSE
5
136
100
AcDbEntity
8
1
62
256
6
ByLayer
370
18
48
1
60
0
100
AcDbEllipse
10
36.177226
20
15.996434
30
0
11
-1.34350288425752
21
1.34350288425136
31
0
210
0
220
0
230
1
40
0.989133
41
0
42
6.28318530717959
0
ELLIPSE
5
137
100
AcDbEntity
8
1
62
256
6
ByLayer
370
18
48
1
60
0
100
AcDbEllipse
10
36.172724
20
15.991932
30
0
11
0.636396103069356
21
-0.63639610306643
31
0
210
0
220
0
230
1
40
0.989133
41
-1.83882127708788
42
-1.65183722690077
0
ELLIPSE
5
138
100
AcDbEntity
8
1
62
256
6
ByLayer
370
18
48
1
60
0
100
AcDbEllipse
10
36.131589
20
15.950797
30
0
11
-2.26274169980214
21
2.26274169979176
31
0
210
0
220
0
230
1
40
0.989133
41
0
42
6.28318530717959
0
ELLIPSE
5
139
100
AcDbEntity
8
1
62
256
6
ByLayer
370
18
48
1
60
0
100
AcDbEllipse
10
36.287709
20
14.807267
30
0
11
0.222738636074274
21
-0.22273863607325
31
0
210
0
220
0
230
1
40
0.989133
41
2.88661618523157
42
-2.92336885418277
0
ELLIPSE
5
13A
100
AcDbEntity
8
1
62
256
6
ByLayer
370
18
48
1
60
0
100
AcDbEllipse
10
37.120984
20
15.345936
30
0
11
0.222738636074274
21
-0.22273863607325
31
0
210
0
220
0
230
1
40
0.989133
41
-2.52252714937721
42
-1.87617130298618
0
ELLIPSE
5
13B
100
AcDbEntity
8
1
62
256
6
ByLayer
370
18
48
1
60
0
100
AcDbEllipse
10
36.172724
20
15.991932
30
0
11
0.636396103069356
21
-0.63639610306643
31
0
210
0
220
0
230
1
40
0.989133
41
2.34996892769342
42
2.53695297789339
0
ELLIPSE
5
13C
100
AcDbEntity
8
1
62
256
6
ByLayer
370
18
48
1
60
0
100
AcDbEllipse
10
36.177226
20
15.996434
30
0
11
0.65407377259906
21
-0.654073772596053
31
0
210
0
220
0
230
1
40
0.989133
41
2.29691592200388
42
2.59000598358024
0
ELLIPSE
5
13D
100
AcDbEntity
8
1
62
256
6
ByLayer
370
18
48
1
60
0
100
AcDbEllipse
10
35.09312
20
16.506584
30
0
11
0.222738636074274
21
-0.22273863607325
31
0
210
0
220
0
230
1
40
0.989133
41
0.79222108283837
42
1.26542135060359
0
ELLIPSE
5
13E
100
AcDbEntity
8
1
62
256
6
ByLayer
370
18
48
1
60
0
100
AcDbEllipse
10
35.09312
20
16.506584
30
0
11
0.222738636074274
21
-0.22273863607325
31
0
210
0
220
0
230
1
40
0.989133
41
-0.567289649805891
42
-0.0940893820407026
0
ELLIPSE
5
13F
100
AcDbEntity
8
1
62
256
6
ByLayer
370
18
48
1
60
0
100
AcDbEllipse
10
37.261332
20
15.486284
30
0
11
0.222738636074274
21
-0.22273863607325
31
0
210
0
220
0
230
1
40
0.989133
41
2.57430300378386
42
3.04750327154916
0
ELLIPSE
5
140
100
AcDbEntity
8
1
62
256
6
ByLayer
370
18
48
1
60
0
100
AcDbEllipse
10
37.127922
20
16.074453
30
0
11
-0.205060966544569
21
0.205060966543628
31
0
210
0
220
0
230
1
40
0.989133
41
2.57430300378388
42
-0.828973751789571
0
ELLIPSE
5
141
100
AcDbEntity
8
1
62
256
6
ByLayer
370
18
48
1
60
0
100
AcDbEllipse
10
36.72914
20
15.211329
30
0
11
-0.205060966544569
21
0.205060966543628
31
0
210
0
220
0
230
1
40
0.989133
41
1.52710545258731
42
-1.87617130298615
0
ELLIPSE
5
142
100
AcDbEntity
8
1
62
256
6
ByLayer
370
18
48
1
60
0
100
AcDbEllipse
10
36.036878
20
15.856086
30
0
11
0.636396103069356
21
-0.63639610306643
31
0
210
0
220
0
230
1
40
0.989133
41
1.489755426689
42
2.3499689276985
0
ELLIPSE
5
143
100
AcDbEntity
8
1
62
256
6
ByLayer
370
18
48
1
60
0
100
AcDbEllipse
10
37.010501
20
16.535103
30
0
11
0.222738636074274
21
-0.22273863607325
31
0
210
0
220
0
230
1
40
0.989133
41
-1.4753295981806
42
-0.828973751789582
0
ELLIPSE
5
144
100
AcDbEntity
8
1
62
256
6
ByLayer
370
18
48
1
60
0
100
AcDbEllipse
10
37.15085
20
16.675451
30
0
11
0.222738636074274
21
-0.22273863607325
31
0
210
0
220
0
230
1
40
0.989133
41
-1.3021740195548
42
-0.828973751789558
0
ELLIPSE
5
145
100
AcDbEntity
8
1
62
256
6
ByLayer
370
18
48
1
60
0
100
AcDbEllipse
10
36.287709
20
14.807267
30
0
11
0.222738636074274
21
-0.22273863607325
31
0
210
0
220
0
230
1
40
0.989133
41
1.52710545258729
42
2.00030572035256
0
ELLIPSE
5
146
100
AcDbEntity
8
1
62
256
6
ByLayer
370
18
48
1
60
0
100
AcDbEllipse
10
36.177226
20
15.996434
30
0
11
0.65407377259906
21
-0.654073772596053
31
0
210
0
220
0
230
1
40
0.989133
41
-2.93907183397912
42
-2.64598177240276
0
ELLIPSE
5
147
100
AcDbEntity
8
1
62
256
6
ByLayer
370
18
48
1
60
0
100
AcDbEllipse
10
36.177226
20
15.996434
30
0
11
0.65407377259906
21
-0.654073772596053
31
0
210
0
220
0
230
1
40
0.989133
41
0.202520819610678
42
0.49561088118704
0
ELLIPSE
5
148
100
AcDbEntity
8
1
62
256
6
ByLayer
370
18
48
1
60
0
100
AcDbEllipse
10
37.261332
20
15.486284
30
0
11
0.222738636074274
21
-0.22273863607325
31
0
210
0
220
0
230
1
40
0.989133
41
-2.3493715707514
42
-1.87617130298616
0
ELLIPSE
5
149
100
AcDbEntity
8
1
62
256
6
ByLayer
370
18
48
1
60
0
100
AcDbEllipse
10
37.15085
20
16.675451
30
0
11
0.222738636074274
21
-0.22273863607325
31
0
210
0
220
0
230
1
40
0.989133
41
-2.66168475219911
42
-2.18848448443385
0
ELLIPSE
5
14A
100
AcDbEntity
8
1
62
256
6
ByLayer
370
18
48
1
60
0
100
AcDbEllipse
10
35.203603
20
15.317417
30
0
11
0.222738636074274
21
-0.22273863607325
31
0
210
0
220
0
230
1
40
0.989133
41
1.83941863403497
42
2.31261890180021
0
ELLIPSE
5
14B
100
AcDbEntity
8
1
62
256
6
ByLayer
370
18
48
1
60
0
100
AcDbEllipse
10
35.926395
20
17.045253
30
0
11
0.222738636074274
21
-0.22273863607325
31
0
210
0
220
0
230
1
40
0.989133
41
-1.61448720100248
42
-0.968131354611462
0
ELLIPSE
5
14C
100
AcDbEntity
8
1
62
256
6
ByLayer
370
18
48
1
60
0
100
AcDbEllipse
10
35.22653
20
15.918415
30
0
11
-0.205060966544569
21
0.205060966543628
31
0
210
0
220
0
230
1
40
0.989133
41
-0.567289649805908
42
2.31261890180025
0
ELLIPSE
5
14D
100
AcDbEntity
8
1
62
256
6
ByLayer
370
18
48
1
60
0
100
AcDbEllipse
10
35.778444
20
15.133311
30
0
11
-0.205060966544569
21
0.205060966543628
31
0
210
0
220
0
230
1
40
0.989133
41
0.479907901390705
42
-2.92336885418279
0
ELLIPSE
5
14E
100
AcDbEntity
8
1
62
256
6
ByLayer
370
18
48
1
60
0
100
AcDbEllipse
10
36.576008
20
16.859558
30
0
11
-0.205060966544569
21
0.205060966543628
31
0
210
0
220
0
230
1
40
0.989133
41
-2.66168475219911
42
0.218223799407007
0
ELLIPSE
5
14F
100
AcDbEntity
8
1
62
256
6
ByLayer
370
18
48
1
60
0
100
AcDbEllipse
10
36.172724
20
15.991932
30
0
11
0.636396103069356
21
-0.63639610306643
31
0
210
0
220
0
230
1
40
0.989133
41
1.30277137650191
42
1.489755426689
0
ELLIPSE
5
150
100
AcDbEntity
8
1
62
256
6
ByLayer
370
18
48
1
60
0
100
AcDbEllipse
10
37.010501
20
16.535103
30
0
11
0.222738636074274
21
-0.22273863607325
31
0
210
0
220
0
230
1
40
0.989133
41
-2.66168475219909
42
-2.01532890580806
0
ELLIPSE
5
151
100
AcDbEntity
8
1
62
256
6
ByLayer
370
18
48
1
60
0
100
AcDbEllipse
10
36.177226
20
15.996434
30
0
11
0.65407377259906
21
-0.654073772596053
31
0
210
0
220
0
230
1
40
0.989133
41
1.24971837080729
42
1.54280843238363
0
ELLIPSE
5
152
100
AcDbEntity
8
1
62
256
6
ByLayer
370
18
48
1
60
0
100
AcDbEllipse
10
35.625312
20
16.781539
30
0
11
-0.205060966544569
21
0.205060966543628
31
0
210
0
220
0
230
1
40
0.989133
41
-1.61448720100251
42
1.26542135060362
0
ELLIPSE
5
153
100
AcDbEntity
8
1
62
256
6
ByLayer
370
18
48
1
60
0
100
AcDbEllipse
10
36.177226
20
15.996434
30
0
11
0.65407377259906
21
-0.654073772596053
31
0
210
0
220
0
230
1
40
0.989133
41
-0.844676731585923
42
-0.551586670009568
0
ELLIPSE
5
154
100
AcDbEntity
8
1
62
256
6
ByLayer
370
18
48
1
60
0
100
AcDbEllipse
10
36.066744
20
17.185601
30
0
11
0.222738636074274
21
-0.22273863607325
31
0
210
0
220
0
230
1
40
0.989133
41
-1.6144872010025
42
-1.14128693323726
0
ELLIPSE
5
155
100
AcDbEntity
8
1
62
256
6
ByLayer
370
18
48
1
60
0
100
AcDbEllipse
10
35.203603
20
15.317417
30
0
11
0.222738636074274
21
-0.22273863607325
31
0
210
0
220
0
230
1
40
0.989133
41
0.479907901390684
42
0.953108169155942
0
ELLIPSE
5
156
100
AcDbEntity
8
1
62
256
6
ByLayer
370
18
48
1
60
0
100
AcDbEllipse
10
36.036878
20
15.856086
30
0
11
0.636396103069356
21
-0.63639610306643
31
0
210
0
220
0
230
1
40
0.989133
41
0.442557875492411
42
1.30277137650191
0
ELLIPSE
5
157
100
AcDbEntity
8
1
62
256
6
ByLayer
370
18
48
1
60
0
100
AcDbEllipse
10
36.172724
20
15.991932
30
0
11
0.636396103069356
21
-0.63639610306643
31
0
210
0
220
0
230
1
40
0.989133
41
-0.791623725891267
42
-0.604639675704176
0
ELLIPSE
5
158
100
AcDbEntity
8
1
62
256
6
ByLayer
370
18
48
1
60
0
100
AcDbEllipse
10
36.172724
20
15.991932
30
0
11
0.636396103069356
21
-0.63639610306643
31
0
210
0
220
0
230
1
40
0.989133
41
0.255573825305163
42
0.442557875502155
0
ELLIPSE
5
159
100
AcDbEntity
8
1
62
256
6
ByLayer
370
18
48
1
60
0
100
AcDbEllipse
10
49.210279
20
26.210279
30
0
11
-0.561442784263407
21
0.561442784260831
31
0
210
0
220
0
230
1
40
0.989133
41
-2.44346095279205
42
-0.698131700797732
0
ELLIPSE
5
15A
100
AcDbEntity
8
1
62
256
6
ByLayer
370
18
48
1
60
0
100
AcDbEllipse
10
41.228948
20
25.555294
30
0
11
-0.561442784263407
21
0.561442784260831
31
0
210
0
220
0
230
1
40
0.989133
41
-0.698131700797719
42
0.698131700797735
0
ELLIPSE
5
15B
100
AcDbEntity
8
1
62
256
6
ByLayer
370
18
48
1
60
0
100
AcDbEllipse
10
48.555294
20
18.228948
30
0
11
-0.561442784263407
21
0.561442784260831
31
0
210
0
220
0
230
1
40
0.989133
41
2.44346095279206
42
-2.44346095279206
0
POINT
5
6C
100
AcDbEntity
8
2
62
256
6
ByLayer
370
18
48
1
60
0
100
AcDbPoint
10
50
20
27
30
0
39
0
210
0
220
0
230
1
50
360
0
POINT
5
6E
100
AcDbEntity
8
80
62
256
6
ByLayer
370
18
48
1
60
0
100
AcDbPoint
10
0
20
0
30
0
39
0
210
0
220
0
230
1
50
360
0
POINT
5
70
100
AcDbEntity
8
81
62
256
6
ByLayer
370
18
48
1
60
0
100
AcDbPoint
10
50
20
27
30
0
39
0
210
0
220
0
230
1
50
360
0
SPLINE
5
15C
100
AcDbEntity
8
SK1
62
256
6
ByLayer
370
18
48
1
60
0
100
AcDbSpline
70
4
71
2
72
6
73
3
40
0
40
0
40
0
40
1
40
1
40
1
41
1
10
-22.5
20
-13.4933966698402
30
0
41
1
10
-12.0999999999449
20
-13.7545973909208
30
0
41
1
10
-1.69999999999999
20
-14.0157977997179
30
0
0
SPLINE
5
15D
100
AcDbEntity
8
SK1
62
256
6
ByLayer
370
18
48
1
60
0
100
AcDbSpline
70
4
71
2
72
6
73
3
40
0
40
0
40
0
40
1
40
1
40
1
41
1
10
-1.69999999999999
20
14.0157970602974
30
0
41
1
10
-12.099999999963
20
13.7545958471854
30
0
41
1
10
-22.5
20
13.493394380475
30
0
0
SPLINE
5
15E
100
AcDbEntity
8
SK1
62
256
6
ByLayer
370
18
48
1
60
0
100
AcDbSpline
70
4
71
3
72
13
73
9
40
0
40
0
40
0
40
0
40
0.239456136997449
40
0.368359723417175
40
0.499998985516726
40
0.631638416576567
40
0.760542468702411
40
1
40
1
40
1
40
1
41
1
10
-1.69999999999999
20
-14.0200984156386
30
0
41
1
10
-1.6990919864528
20
-13.9940409390257
30
0
41
1
10
-1.69103284110332
20
-13.9566683539303
30
0
41
1
10
-1.66563592205637
20
-13.9104491790265
30
0
41
1
10
-1.63886378681673
20
-13.8791676243502
30
0
41
1
10
-1.60627712752267
20
-13.8540002532836
30
0
41
1
10
-1.5588406423667
20
-13.830956449625
30
0
41
1
10
-1.52111030874428
20
-13.8247841935567
30
0
41
1
10
-1.49503997793931
20
-13.8251858327438
30
0
0
SPLINE
5
15F
100
AcDbEntity
8
SK1
62
256
6
ByLayer
370
18
48
1
60
0
100
AcDbSpline
70
4
71
3
72
13
73
9
40
0
40
0
40
0
40
0
40
0.239457531274807
40
0.368361583394193
40
0.500001014452292
40
0.631640276555059
40
0.760543862982143
40
1
40
1
40
1
40
1
41
1
10
-1.49503997793928
20
13.8251858293361
30
0
41
1
10
-1.52111030874488
20
13.8247841901529
30
0
41
1
10
-1.5588406423679
20
13.8309564462263
30
0
41
1
10
-1.60627712752327
20
13.8540002498915
30
0
41
1
10
-1.63886378681727
20
13.8791676209635
30
0
41
1
10
-1.66563592205674
20
13.9104491756451
30
0
41
1
10
-1.69103284110358
20
13.9566683505561
30
0
41
1
10
-1.69909198645305
20
13.9940409356568
30
0
41
1
10
-1.69999999999999
20
14.0200984122732
30
0
0
SPLINE
5
160
100
AcDbEntity
8
SK1
62
256
6
ByLayer
370
18
48
1
60
0
100
AcDbSpline
70
4
71
2
72
6
73
3
40
0
40
0
40
0
40
1
40
1
40
1
41
1
10
-24
20
-12.6310964932104
30
0
41
1
10
-23.2499999989322
20
-13.0640911753538
30
0
41
1
10
-22.5
20
-13.4970856697526
30
0
0
SPLINE
5
161
100
AcDbEntity
8
SK1
62
256
6
ByLayer
370
18
48
1
60
0
100
AcDbSpline
70
4
71
2
72
6
73
3
40
0
40
0
40
0
40
1
40
1
40
1
41
1
10
-22.5
20
13.4970852847173
30
0
41
1
10
-23.2499999989318
20
13.0640908004416
30
0
41
1
10
-24
20
12.6310961283886
30
0
0
SPLINE
5
162
100
AcDbEntity
8
SK1
62
256
6
ByLayer
370
18
48
1
60
0
100
AcDbSpline
70
4
71
2
72
6
73
3
40
0
40
0
40
0
40
1
40
1
40
1
41
1
10
-1.49503997793931
20
-13.7129410868425
30
0
41
1
10
-0.945008433407281
20
-13.7266599565288
30
0
41
1
10
-0.394976888875306
20
-13.7403788260786
30
0
0
SPLINE
5
163
100
AcDbEntity
8
SK1
62
256
6
ByLayer
370
18
48
1
60
0
100
AcDbSpline
70
4
71
2
72
6
73
3
40
0
40
0
40
0
40
1
40
1
40
1
41
1
10
-0.394976888875277
20
13.740379899128
30
0
41
1
10
-0.945008433407281
20
13.7266611372792
30
0
41
1
10
-1.49503997793928
20
13.7129423752897
30
0
0
SPLINE
5
164
100
AcDbEntity
8
SK1
62
256
6
ByLayer
370
18
48
1
60
0
100
AcDbSpline
70
4
71
3
72
24
73
20
40
0
40
0
40
0
40
0
40
0.0014544386993252
40
0.0014544386993252
40
0.361956423059951
40
0.361956423059951
40
0.727731599250233
40
0.727731599250233
40
0.78201330469532
40
0.78201330469532
40
0.837002501937654
40
0.837002501937654
40
0.873144196436399
40
0.873144196436399
40
0.909511909647787
40
0.909511909647787
40
0.952113857168653
40
0.952113857168653
40
1
40
1
40
1
40
1
41
1
10
-0.217773520819833
20
13.9477771104646
30
0
41
1
10
-0.217796303830511
20
13.9477385212397
30
0
41
1
10
-0.217819113763085
20
13.9476999169831
30
0
41
1
10
-0.223510113646824
20
13.9380759054837
30
0
41
1
10
-0.230869554015186
20
13.9275300777214
30
0
41
1
10
-0.252993763945881
20
13.9036085654018
30
0
41
1
10
-0.266169306055218
20
13.8900912648142
30
0
41
1
10
-0.299313210098944
20
13.8713678522793
30
0
41
1
10
-0.304168151080091
20
13.8688119846588
30
0
41
1
10
-0.315233613826848
20
13.8635902765912
30
0
41
1
10
-0.321588767727178
20
13.8608655729355
30
0
41
1
10
-0.333434048045547
20
13.8565368608439
30
0
41
1
10
-0.338587345813778
20
13.8548370746726
30
0
41
1
10
-0.349158334685967
20
13.8517865918864
30
0
41
1
10
-0.354704697438706
20
13.8504050227189
30
0
41
1
10
-0.366193697521936
20
13.847969712967
30
0
41
1
10
-0.37221373013341
20
13.8469665678177
30
0
41
1
10
-0.383950527302631
20
13.8454141457692
30
0
41
1
10
-0.389694590782
20
13.8449066720063
30
0
41
1
10
-0.394976888882155
20
13.8446015176357
30
0
0
SPLINE
5
165
100
AcDbEntity
8
SK1
62
256
6
ByLayer
370
18
48
1
60
0
100
AcDbSpline
70
4
71
3
72
22
73
18
40
0
40
0
40
0
40
0
40
0.0557195764028311
40
0.0557195764028311
40
0.112580416271352
40
0.112580416271352
40
0.151496898629152
40
0.151496898629152
40
0.190204432258569
40
0.190204432258569
40
0.253674977810632
40
0.253674977810632
40
0.379229486612307
40
0.379229486612307
40
0.823820061021174
40
0.823820061021174
40
1
40
1
40
1
40
1
41
1
10
-0.394976888875306
20
-13.8446019297682
30
0
41
1
10
-0.389542940031561
20
-13.8449158599001
30
0
41
1
10
-0.383617593481006
20
-13.8454439659091
30
0
41
1
10
-0.370682577094897
20
-13.8471856765741
30
0
41
1
10
-0.363425095790518
20
-13.8484584409772
30
0
41
1
10
-0.350979043087193
20
-13.8513238322133
30
0
41
1
10
-0.345738104843406
20
-13.8527220431424
30
0
41
1
10
-0.335836036111374
20
-13.8557300394867
30
0
41
1
10
-0.331061234651429
20
-13.8573680363077
30
0
41
1
10
-0.319536857691617
20
-13.8617043765564
30
0
41
1
10
-0.313226439154875
20
-13.8644842406524
30
0
41
1
10
-0.296825865103983
20
-13.8724174982475
30
0
41
1
10
-0.288454852011284
20
-13.8774557840676
30
0
41
1
10
-0.256352537857253
20
-13.8987262995108
30
0
41
1
10
-0.243999907013659
20
-13.9124642192994
30
0
41
1
10
-0.229963428239728
20
-13.9295927568019
30
0
41
1
10
-0.22643928003356
20
-13.9342393022239
30
0
41
1
10
-0.223319935549568
20
-13.9386901109158
30
0
0
SPLINE
5
166
100
AcDbEntity
8
SK1
62
256
6
ByLayer
370
18
48
1
60
0
100
AcDbSpline
70
4
71
3
72
118
73
114
40
0
40
0
40
0
40
0
40
0.0076461636039152
40
0.0154178034017756
40
0.0231894431996361
40
0.0309610829974966
40
0.038732722795357
40
0.0465043625932175
40
0.054276002391078
40
0.0620476421889384
40
0.0698192819867989
40
0.0775909217846594
40
0.0931342013803803
40
0.108677480976101
40
0.124220760571822
40
0.131992400369683
40
0.139764040167543
40
0.147535679965404
40
0.155307319763264
40
0.170850599358985
40
0.178622239156845
40
0.186393878954706
40
0.194165518752566
40
0.201937158550427
40
0.209708798348287
40
0.217480438146148
40
0.233023717741869
40
0.240795357539729
40
0.24856699733759
40
0.25633863713545
40
0.264110276933311
40
0.271881916731171
40
0.279653556529032
40
0.287425196326892
40
0.295196836124752
40
0.310740115720473
40
0.318511755518334
40
0.326283395316194
40
0.341826674911915
40
0.357369954507636
40
0.365141594305497
40
0.372913234103357
40
0.380684873901218
40
0.388456513699078
40
0.396228153496938
40
0.403999793294799
40
0.407885613193729
40
0.411771433092659
40
0.41954307289052
40
0.42731471268838
40
0.435086352486241
40
0.450629632081962
40
0.458401271879822
40
0.466172911677683
40
0.473944551475543
40
0.481716191273404
40
0.489487831071264
40
0.497259470869124
40
0.505031110666985
40
0.512802750464845
40
0.520574390262706
40
0.528346030060566
40
0.543889309656287
40
0.551660949454148
40
0.559432589252008
40
0.563318409150938
40
0.567204229049869
40
0.574975868847729
40
0.59051914844345
40
0.59829078824131
40
0.606062428039171
40
0.621605707634892
40
0.637148987230613
40
0.644920627028473
40
0.652692266826334
40
0.668235546422055
40
0.676007186219915
40
0.683778826017776
40
0.691550465815636
40
0.699322105613497
40
0.707093745411357
40
0.714865385209218
40
0.730408664804938
40
0.745951944400659
40
0.75372358419852
40
0.76149522399638
40
0.769266863794241
40
0.777038503592101
40
0.792581783187822
40
0.808125062783543
40
0.823668342379264
40
0.839211621974985
40
0.846983261772845
40
0.854754901570706
40
0.862526541368566
40
0.870298181166427
40
0.878069820964287
40
0.885841460762148
40
0.893613100560008
40
0.901384740357869
40
0.909156380155729
40
0.91692801995359
40
0.92469965975145
40
0.932471299549311
40
0.940242939347171
40
0.948014579145031
40
0.955786218942892
40
0.963557858740752
40
0.971329498538613
40
0.979101138336473
40
0.986872778134334
40
0.994644417932194
40
1
40
1
40
1
40
1
41
1
10
-1.69999999999996
20
14.015758221393
30
0
41
1
10
-1.69999999999999
20
14.0171808698563
30
0
41
1
10
-1.70000000000002
20
14.0193350222488
30
0
41
1
10
-1.69999999999999
20
14.0204498319149
30
0
41
1
10
-1.69999999999999
20
14.0194577493028
30
0
41
1
10
-1.69999999999999
20
14.0163929237538
30
0
41
1
10
-1.69999999999999
20
14.0112928179987
30
0
41
1
10
-1.69999999999999
20
14.0041925984504
30
0
41
1
10
-1.69999999999999
20
13.9951252442004
30
0
41
1
10
-1.69999999999999
20
13.9841239086368
30
0
41
1
10
-1.69999999999999
20
13.9712195253815
30
0
41
1
10
-1.69999999999999
20
13.9515178138587
30
0
41
1
10
-1.69999999999999
20
13.9222750232465
30
0
41
1
10
-1.69999999999999
20
13.8800204120324
30
0
41
1
10
-1.69999999999999
20
13.838998019961
30
0
41
1
10
-1.69999999999999
20
13.8027899045868
30
0
41
1
10
-1.69999999999999
20
13.773955994413
30
0
41
1
10
-1.69999999999999
20
13.7434660879001
30
0
41
1
10
-1.69999999999999
20
13.7006353174901
30
0
41
1
10
-1.69999999999999
20
13.6545611373555
30
0
41
1
10
-1.69999999999999
20
13.6053355893185
30
0
41
1
10
-1.69999999999999
20
13.5668499361124
30
0
41
1
10
-1.69999999999999
20
13.5268172028035
30
0
41
1
10
-1.69999999999999
20
13.485252935173
30
0
41
1
10
-1.69999999999999
20
13.4421723218484
30
0
41
1
10
-1.69999999999999
20
13.3827344162836
30
0
41
1
10
-1.69999999999999
20
13.3203101073726
30
0
41
1
10
-1.69999999999999
20
13.254979960848
30
0
41
1
10
-1.69999999999999
20
13.2045321061977
30
0
41
1
10
-1.69999999999999
20
13.1526505121852
30
0
41
1
10
-1.69999999999999
20
13.099347414251
30
0
41
1
10
-1.69999999999999
20
13.0446338149516
30
0
41
1
10
-1.69999999999999
20
12.9885220902628
30
0
41
1
10
-1.69999999999999
20
12.9310230723471
30
0
41
1
10
-1.69999999999999
20
12.8525264142953
30
0
41
1
10
-1.69999999999999
20
12.7712834714132
30
0
41
1
10
-1.69999999999999
20
12.6873624197502
30
0
41
1
10
-1.69999999999999
20
12.6016598943421
30
0
41
1
10
-1.69999999999999
20
12.4912006491746
30
0
41
1
10
-1.69999999999999
20
12.3763763558488
30
0
41
1
10
-1.69999999999999
20
12.2819406900945
30
0
41
1
10
-1.69999999999999
20
12.209824815618
30
0
41
1
10
-1.69999999999999
20
12.1364316894724
30
0
41
1
10
-1.69999999999999
20
12.0617686582407
30
0
41
1
10
-1.69999999999999
20
11.9858436758677
30
0
41
1
10
-1.69999999999999
20
11.9215236068653
30
0
41
1
10
-1.69999999999999
20
11.8694488081267
30
0
41
1
10
-1.69999999999999
20
11.8169591426362
30
0
41
1
10
-1.69999999999999
20
11.7505641289662
30
0
41
1
10
-1.69999999999999
20
11.6696587742526
30
0
41
1
10
-1.69999999999999
20
11.5601529159528
30
0
41
1
10
-1.69999999999999
20
11.448182891669
30
0
41
1
10
-1.69999999999999
20
11.3338110499831
30
0
41
1
10
-1.69999999999999
20
11.2468221792499
30
0
41
1
10
-1.69999999999999
20
11.1586337603462
30
0
41
1
10
-1.69999999999999
20
11.0692509372408
30
0
41
1
10
-1.69999999999999
20
10.9786794422307
30
0
41
1
10
-1.69999999999999
20
10.8869237783616
30
0
41
1
10
-1.69999999999999
20
10.7939888359847
30
0
41
1
10
-1.69999999999999
20
10.6998796425436
30
0
41
1
10
-1.69999999999999
20
10.6046008465563
30
0
41
1
10
-1.69999999999999
20
10.4760157679139
30
0
41
1
10
-1.69999999999999
20
10.3450861470912
30
0
41
1
10
-1.69999999999999
20
10.2118742799613
30
0
41
1
10
-1.69999999999999
20
10.1276505623382
30
0
41
1
10
-1.69999999999999
20
10.0597065749413
30
0
41
1
10
-1.69999999999999
20
9.9913814320609
30
0
41
1
10
-1.69999999999999
20
9.87081043657869
30
0
41
1
10
-1.69999999999999
20
9.73071862052217
30
0
41
1
10
-1.69999999999999
20
9.58839008121353
30
0
41
1
10
-1.69999999999999
20
9.44455854729449
30
0
41
1
10
-1.69999999999999
20
9.26193698423123
30
0
41
1
10
-1.69999999999999
20
9.07558727703642
30
0
41
1
10
-1.69999999999999
20
8.92429760284435
30
0
41
1
10
-1.69999999999999
20
8.77152766795061
30
0
41
1
10
-1.69999999999999
20
8.61651162008161
30
0
41
1
10
-1.69999999999999
20
8.45931945344486
30
0
41
1
10
-1.69999999999999
20
8.34031606829598
30
0
41
1
10
-1.69999999999999
20
8.22021379775831
30
0
41
1
10
-1.69999999999999
20
8.09901464495698
30
0
41
1
10
-1.69999999999999
20
7.9767200242907
30
0
41
1
10
-1.69999999999999
20
7.81221411547432
30
0
41
1
10
-1.69999999999999
20
7.60382755625838
30
0
41
1
10
-1.69999999999999
20
7.39181445781463
30
0
41
1
10
-1.69999999999999
20
7.22005470774221
30
0
41
1
10
-1.69999999999999
20
7.09014226669851
30
0
41
1
10
-1.69999999999999
20
6.95914717066265
30
0
41
1
10
-1.69999999999999
20
6.7830583657493
30
0
41
1
10
-1.69999999999999
20
6.56021848903171
30
0
41
1
10
-1.69999999999999
20
6.28851700104784
30
0
41
1
10
-1.69999999999999
20
6.01251447744062
30
0
41
1
10
-1.69999999999999
20
5.77892152059965
30
0
41
1
10
-1.69999999999999
20
5.58993216915877
30
0
41
1
10
-1.69999999999999
20
5.44710899667646
30
0
41
1
10
-1.69999999999999
20
5.30321729486519
30
0
41
1
10
-1.69999999999999
20
5.15825857839869
30
0
41
1
10
-1.69999999999999
20
5.01223405348068
30
0
41
1
10
-1.69999999999999
20
4.86514556778678
30
0
41
1
10
-1.69999999999999
20
4.71699468615466
30
0
41
1
10
-1.69999999999999
20
4.56778337246482
30
0
41
1
10
-1.69999999999999
20
4.41751381174834
30
0
41
1
10
-1.69999999999999
20
4.26618872973953
30
0
41
1
10
-1.69999999999999
20
4.11381092681606
30
0
41
1
10
-1.69999999999999
20
3.96038358832212
30
0
41
1
10
-1.69999999999999
20
3.80591077742719
30
0
41
1
10
-1.69999999999999
20
3.65039714326571
30
0
41
1
10
-1.69999999999999
20
3.49384789900151
30
0
41
1
10
-1.69999999999999
20
3.33626943234705
30
0
41
1
10
-1.69999999999999
20
3.17766893265431
30
0
41
1
10
-1.69999999999999
20
3.01805527431182
30
0
41
1
10
-1.69999999999999
20
2.85743846779499
30
0
41
1
10
-1.69999999999999
20
2.71257747642741
30
0
41
1
10
-1.69999999999999
20
2.62111404232408
30
0
41
1
10
-1.69999999999999
20
2.58372509632827
30
0
0
SPLINE
5
167
100
AcDbEntity
8
SK1
62
256
6
ByLayer
370
18
48
1
60
0
100
AcDbSpline
70
4
71
3
72
120
73
116
40
0
40
0
40
0
40
0
40
0.0053555999423538
40
0.0131272595909829
40
0.020898919239612
40
0.028670578888241
40
0.0364422385368701
40
0.0442138981854991
40
0.0519855578341282
40
0.0597572174827572
40
0.0675288771313863
40
0.0753005367800153
40
0.0830721964286444
40
0.0908438560772734
40
0.0986155157259025
40
0.106387175374532
40
0.114158835023161
40
0.12193049467179
40
0.129702154320419
40
0.137473813969048
40
0.145245473617677
40
0.153017133266306
40
0.160788792914935
40
0.176332112212193
40
0.191875431509451
40
0.207418750806709
40
0.222962070103967
40
0.230733729752596
40
0.238505389401225
40
0.246277049049855
40
0.254048708698484
40
0.269592027995742
40
0.285135347293
40
0.292907006941629
40
0.300678666590258
40
0.308450326238887
40
0.316221985887516
40
0.323993645536145
40
0.331765305184774
40
0.347308624482032
40
0.355080284130661
40
0.36285194377929
40
0.378395263076548
40
0.393938582373807
40
0.401710242022435
40
0.409481901671065
40
0.425025220968323
40
0.432796880616952
40
0.436682710441266
40
0.440568540265581
40
0.44834019991421
40
0.456111859562839
40
0.471655178860097
40
0.479426838508726
40
0.487198498157355
40
0.494970157805984
40
0.502741817454613
40
0.510513477103242
40
0.518285136751871
40
0.5260567964005
40
0.53382845604913
40
0.541600115697759
40
0.549371775346388
40
0.564915094643646
40
0.572686754292275
40
0.580458413940904
40
0.588230073589533
40
0.592115903413847
40
0.596001733238162
40
0.603773392886791
40
0.61154505253542
40
0.619316712184049
40
0.627088371832678
40
0.634860031481307
40
0.642631691129936
40
0.658175010427194
40
0.673718329724452
40
0.681489989373082
40
0.689261649021711
40
0.704804968318969
40
0.712576627967598
40
0.720348287616227
40
0.728119947264856
40
0.735891606913485
40
0.743663266562114
40
0.751434926210743
40
0.759206585859372
40
0.766978245508001
40
0.782521564805259
40
0.790293224453888
40
0.798064884102517
40
0.805836543751146
40
0.813608203399775
40
0.821379863048404
40
0.829151522697033
40
0.844694841994292
40
0.852466501642921
40
0.86023816129155
40
0.868009820940179
40
0.875781480588808
40
0.891324799886066
40
0.899096459534695
40
0.906868119183324
40
0.914639778831953
40
0.922411438480582
40
0.930183098129211
40
0.93795475777784
40
0.945726417426469
40
0.953498077075098
40
0.961269736723727
40
0.969041396372356
40
0.976813056020985
40
0.984584715669614
40
0.992356375318244
40
1
40
1
40
1
40
1
41
1
10
-1.69999999999999
20
-2.5837250319525
30
0
41
1
10
-1.69999999999999
20
-2.62111400924692
30
0
41
1
10
-1.69999999999999
20
-2.71257747842986
30
0
41
1
10
-1.69999999999999
20
-2.85743848960826
30
0
41
1
10
-1.69999999999999
20
-3.01805529196176
30
0
41
1
10
-1.69999999999999
20
-3.17766896347746
30
0
41
1
10
-1.69999999999999
20
-3.33626946559076
30
0
41
1
10
-1.69999999999999
20
-3.49384788295134
30
0
41
1
10
-1.69999999999999
20
-3.65039703338328
30
0
41
1
10
-1.69999999999999
20
-3.80591068333541
30
0
41
1
10
-1.69999999999999
20
-3.9603838288908
30
0
41
1
10
-1.69999999999999
20
-4.11381118090259
30
0
41
1
10
-1.69999999999999
20
-4.26618881241484
30
0
41
1
10
-1.69999999999999
20
-4.41751369191317
30
0
41
1
10
-1.69999999999999
20
-4.56778315161375
30
0
41
1
10
-1.69999999999999
20
-4.7169946256985
30
0
41
1
10
-1.69999999999999
20
-4.86514572624662
30
0
41
1
10
-1.69999999999999
20
-5.01223421717728
30
0
41
1
10
-1.69999999999999
20
-5.15825863689906
30
0
41
1
10
-1.69999999999999
20
-5.30321731736851
30
0
41
1
10
-1.69999999999999
20
-5.44710902267545
30
0
41
1
10
-1.69999999999999
20
-5.58993219435266
30
0
41
1
10
-1.69999999999999
20
-5.77892152593586
30
0
41
1
10
-1.69999999999999
20
-6.01251450148573
30
0
41
1
10
-1.69999999999999
20
-6.28851702131561
30
0
41
1
10
-1.69999999999999
20
-6.56021849497901
30
0
41
1
10
-1.69999999999999
20
-6.78305839594086
30
0
41
1
10
-1.69999999999999
20
-6.95914718913937
30
0
41
1
10
-1.69999999999999
20
-7.0901422748378
30
0
41
1
10
-1.69999999999999
20
-7.22005471809891
30
0
41
1
10
-1.69999999999999
20
-7.391814483107
30
0
41
1
10
-1.69999999999999
20
-7.60382757721297
30
0
41
1
10
-1.69999999999999
20
-7.81221412115067
30
0
41
1
10
-1.69999999999999
20
-7.97672004102665
30
0
41
1
10
-1.69999999999999
20
-8.09901466976936
30
0
41
1
10
-1.69999999999999
20
-8.22021382021134
30
0
41
1
10
-1.69999999999999
20
-8.34031608257325
30
0
41
1
10
-1.69999999999999
20
-8.45931946186533
30
0
41
1
10
-1.69999999999999
20
-8.61651163422607
30
0
41
1
10
-1.69999999999999
20
-8.77152769372714
30
0
41
1
10
-1.69999999999999
20
-8.92429762219672
30
0
41
1
10
-1.69999999999999
20
-9.07558728630886
30
0
41
1
10
-1.69999999999999
20
-9.26193699842017
30
0
41
1
10
-1.69999999999999
20
-9.44455857133374
30
0
41
1
10
-1.69999999999999
20
-9.5883900992504
30
0
41
1
10
-1.69999999999999
20
-9.73071863089592
30
0
41
1
10
-1.69999999999999
20
-9.87081045044334
30
0
41
1
10
-1.69999999999999
20
-9.99138145148612
30
0
41
1
10
-1.69999999999999
20
-10.059706595653
30
0
41
1
10
-1.69999999999999
20
-10.127650582945
30
0
41
1
10
-1.69999999999999
20
-10.2118742978003
30
0
41
1
10
-1.69999999999999
20
-10.3450861597474
30
0
41
1
10
-1.69999999999999
20
-10.4760157822056
30
0
41
1
10
-1.69999999999999
20
-10.6046008653873
30
0
41
1
10
-1.69999999999999
20
-10.6998796625668
30
0
41
1
10
-1.69999999999999
20
-10.7939888545435
30
0
41
1
10
-1.69999999999999
20
-10.8869237943964
30
0
41
1
10
-1.69999999999999
20
-10.9786794570574
30
0
41
1
10
-1.69999999999999
20
-11.069250952524
30
0
41
1
10
-1.69999999999999
20
-11.1586337774266
30
0
41
1
10
-1.69999999999999
20
-11.2468221981049
30
0
41
1
10
-1.69999999999999
20
-11.3338110691597
30
0
41
1
10
-1.69999999999999
20
-11.4481829097131
30
0
41
1
10
-1.69999999999999
20
-11.5601529310588
30
0
41
1
10
-1.69999999999999
20
-11.6696587897978
30
0
41
1
10
-1.69999999999999
20
-11.7505641463283
30
0
41
1
10
-1.69999999999999
20
-11.8169591619061
30
0
41
1
10
-1.69999999999999
20
-11.869448828233
30
0
41
1
10
-1.69999999999999
20
-11.9215236271769
30
0
41
1
10
-1.69999999999999
20
-11.9858436943514
30
0
41
1
10
-1.69999999999999
20
-12.0617686735772
30
0
41
1
10
-1.69999999999999
20
-12.1364317035572
30
0
41
1
10
-1.69999999999999
20
-12.2098248313331
30
0
41
1
10
-1.69999999999999
20
-12.2819407102379
30
0
41
1
10
-1.69999999999999
20
-12.3763763795169
30
0
41
1
10
-1.69999999999999
20
-12.4912006631364
30
0
41
1
10
-1.69999999999999
20
-12.6016599065257
30
0
41
1
10
-1.69999999999999
20
-12.687362440577
30
0
41
1
10
-1.69999999999999
20
-12.7712834981639
30
0
41
1
10
-1.69999999999999
20
-12.8525264302737
30
0
41
1
10
-1.69999999999999
20
-12.9310230820619
30
0
41
1
10
-1.69999999999999
20
-12.9885221046098
30
0
41
1
10
-1.69999999999999
20
-13.0446338377524
30
0
41
1
10
-1.69999999999999
20
-13.0993474417035
30
0
41
1
10
-1.69999999999999
20
-13.1526505331688
30
0
41
1
10
-1.69999999999999
20
-13.2045321176789
30
0
41
1
10
-1.69999999999999
20
-13.2549799687684
30
0
41
1
10
-1.69999999999999
20
-13.3203101272292
30
0
41
1
10
-1.69999999999999
20
-13.3827344481881
30
0
41
1
10
-1.69999999999999
20
-13.4421723383994
30
0
41
1
10
-1.69999999999999
20
-13.4852529409442
30
0
41
1
10
-1.69999999999999
20
-13.5268172136993
30
0
41
1
10
-1.69999999999999
20
-13.5668499598694
30
0
41
1
10
-1.69999999999999
20
-13.6053356175566
30
0
41
1
10
-1.69999999999999
20
-13.6545611570253
30
0
41
1
10
-1.69999999999999
20
-13.7006353167884
30
0
41
1
10
-1.69999999999999
20
-13.7434661079967
30
0
41
1
10
-1.69999999999999
20
-13.7739560268625
30
0
41
1
10
-1.69999999999999
20
-13.8027899277569
30
0
41
1
10
-1.69999999999999
20
-13.8389980176944
30
0
41
1
10
-1.69999999999999
20
-13.8718187984145
30
0
41
1
10
-1.69999999999999
20
-13.9011479145568
30
0
41
1
10
-1.69999999999999
20
-13.9213794981548
30
0
41
1
10
-1.69999999999999
20
-13.9398197437578
30
0
41
1
10
-1.69999999999999
20
-13.9564420504847
30
0
41
1
10
-1.69999999999999
20
-13.9712195410175
30
0
41
1
10
-1.69999999999999
20
-13.9841238377961
30
0
41
1
10
-1.69999999999999
20
-13.9951249982352
30
0
41
1
10
-1.69999999999999
20
-14.0041924220526
30
0
41
1
10
-1.69999999999999
20
-14.0112932507837
30
0
41
1
10
-1.69999999999999
20
-14.0163938901866
30
0
41
1
10
-1.69999999999999
20
-14.019458382701
30
0
41
1
10
-1.69999999999999
20
-14.0204497516689
30
0
41
1
10
-1.69999999999999
20
-14.019334736905
30
0
41
1
10
-1.69999999999999
20
-14.0171811880669
30
0
41
1
10
-1.69999999999996
20
-14.0157592855542
30
0
0
SPLINE
5
168
100
AcDbEntity
8
SK1
62
256
6
ByLayer
370
18
48
1
60
0
100
AcDbSpline
70
4
71
3
72
287
73
283
40
0
40
0
40
0
40
0
40
0.0011530173798794
40
0.0046414611728248
40
0.0081299049657701
40
0.0116183487587155
40
0.0151067925516609
40
0.0185952363446062
40
0.0220836801375516
40
0.0255721239304969
40
0.0290605677234423
40
0.0325490115163875
40
0.0395258991022782
40
0.0465027866881689
40
0.0534796742740597
40
0.056968118067005
40
0.0604565618599504
40
0.0639450056528957
40
0.067433449445841
40
0.0744103370317317
40
0.0778987808246771
40
0.0813872246176224
40
0.0848756684105678
40
0.0883641122035131
40
0.0918525559964585
40
0.0953409997894038
40
0.102317887375295
40
0.10580633116824
40
0.109294774961185
40
0.11278321875413
40
0.116271662547076
40
0.119760106340021
40
0.123248550132967
40
0.126736993925912
40
0.130225437718857
40
0.137202325304748
40
0.140690769097693
40
0.144179212890639
40
0.151156100476529
40
0.15813298806242
40
0.161621431855365
40
0.165109875648311
40
0.168598319441256
40
0.172086763234201
40
0.175575207027147
40
0.179063650820092
40
0.180807872716565
40
0.182552094613037
40
0.186040538405983
40
0.189528982198928
40
0.193017425991873
40
0.199994313577764
40
0.20348275737071
40
0.206971201163655
40
0.2104596449566
40
0.213948088749546
40
0.217436532542491
40
0.220924976335436
40
0.224413420128382
40
0.227901863921327
40
0.231390307714272
40
0.234878751507218
40
0.241855639093108
40
0.245344082886054
40
0.248832526678999
40
0.250576748575472
40
0.252320970471944
40
0.25580941426489
40
0.26278630185078
40
0.266274745643726
40
0.269763189436671
40
0.276740077022562
40
0.283716964608453
40
0.287205408401398
40
0.290693852194343
40
0.297670739780234
40
0.301159183573179
40
0.304647627366125
40
0.30813607115907
40
0.311624514952015
40
0.315112958744961
40
0.318601402537906
40
0.325578290123797
40
0.332555177709688
40
0.336043621502633
40
0.339532065295578
40
0.343020509088523
40
0.346508952881469
40
0.353485840467359
40
0.36046272805325
40
0.367439615639141
40
0.374416503225032
40
0.377904947017977
40
0.381393390810922
40
0.384881834603867
40
0.388370278396813
40
0.391858722189758
40
0.395347165982704
40
0.398835609775649
40
0.402324053568594
40
0.40581249736154
40
0.409300941154485
40
0.41278938494743
40
0.416277828740376
40
0.419766272533321
40
0.423254716326266
40
0.426743160119212
40
0.430231603912157
40
0.433720047705102
40
0.437208491498048
40
0.440696935290993
40
0.444185379083939
40
0.447673822876884
40
0.449418044773357
40
0.451162266669829
40
0.454650710462775
40
0.456394932359247
40
0.45813915425572
40
0.459883376152192
40
0.461627598048665
40
0.463371819945138
40
0.46511604184161
40
0.466860263738083
40
0.468604485634556
40
0.472092929427501
40
0.473837151323974
40
0.475581373220447
40
0.477325595116919
40
0.479069817013392
40
0.480814038909865
40
0.482558260806337
40
0.48430248270281
40
0.486046704599283
40
0.487790926495755
40
0.489535148392228
40
0.491279370288701
40
0.493023592185173
40
0.494767814081646
40
0.496512035978118
40
0.498256257874591
40
0.500000479771064
40
0.501744701667537
40
0.503488923564009
40
0.505233145460482
40
0.506977367356955
40
0.508721589253427
40
0.5104658111499
40
0.512210033046373
40
0.513954254942845
40
0.515698476839318
40
0.517442698735791
40
0.519186920632263
40
0.520931142528736
40
0.522675364425209
40
0.524419586321682
40
0.526163808218154
40
0.527908030114627
40
0.531396473907572
40
0.533140695804045
40
0.534884917700518
40
0.53662913959699
40
0.538373361493463
40
0.540117583389935
40
0.541861805286408
40
0.543606027182881
40
0.545350249079353
40
0.548838692872299
40
0.550582914768772
40
0.552327136665244
40
0.555815580458189
40
0.559304024251135
40
0.56279246804408
40
0.566280911837026
40
0.569769355629971
40
0.573257799422916
40
0.576746243215861
40
0.580234687008807
40
0.583723130801752
40
0.587211574594698
40
0.590700018387643
40
0.594188462180588
40
0.597676905973534
40
0.601165349766479
40
0.604653793559424
40
0.60814223735237
40
0.611630681145315
40
0.61511912493826
40
0.618607568731206
40
0.622096012524151
40
0.625584456317096
40
0.632561343902987
40
0.639538231488878
40
0.646515119074768
40
0.653492006660659
40
0.656980450453605
40
0.66046889424655
40
0.663957338039495
40
0.667445781832441
40
0.674422669418331
40
0.681399557004222
40
0.684888000797167
40
0.688376444590113
40
0.691864888383058
40
0.695353332176003
40
0.698841775968948
40
0.702330219761894
40
0.709307107347785
40
0.71279555114073
40
0.716283994933675
40
0.723260882519566
40
0.730237770105457
40
0.733726213898402
40
0.737214657691348
40
0.744191545277238
40
0.747679989070183
40
0.749424210966656
40
0.751168432863129
40
0.754656876656074
40
0.75814532044902
40
0.76512220803491
40
0.768610651827856
40
0.772099095620801
40
0.775587539413746
40
0.779075983206692
40
0.782564426999637
40
0.786052870792582
40
0.789541314585528
40
0.793029758378473
40
0.796518202171418
40
0.800006645964364
40
0.806983533550254
40
0.8104719773432
40
0.813960421136145
40
0.817448864929091
40
0.819193086825563
40
0.820937308722036
40
0.824425752514981
40
0.827914196307926
40
0.831402640100872
40
0.834891083893817
40
0.838379527686762
40
0.841867971479708
40
0.848844859065598
40
0.855821746651489
40
0.859310190444435
40
0.86279863423738
40
0.869775521823271
40
0.873263965616216
40
0.876752409409161
40
0.880240853202107
40
0.883729296995052
40
0.887217740787997
40
0.890706184580943
40
0.894194628373888
40
0.897683072166833
40
0.904659959752724
40
0.908148403545669
40
0.911636847338615
40
0.91512529113156
40
0.918613734924505
40
0.922102178717451
40
0.925590622510396
40
0.932567510096287
40
0.936055953889232
40
0.939544397682178
40
0.943032841475123
40
0.946521285268068
40
0.953498172853959
40
0.956986616646904
40
0.96047506043985
40
0.963963504232795
40
0.96745194802574
40
0.970940391818686
40
0.974428835611631
40
0.977917279404576
40
0.981405723197522
40
0.984894166990467
40
0.988382610783413
40
0.991871054576358
40
0.995359498369303
40
0.998847942162248
40
1
40
1
40
1
40
1
41
1
10
-22.5
20
13.4956358895736
30
0
41
1
10
-22.5
20
13.4959444128627
30
0
41
1
10
-22.5
20
13.4970336948057
30
0
41
1
10
-22.5
20
13.4978716184631
30
0
41
1
10
-22.5
20
13.4969161903089
30
0
41
1
10
-22.5
20
13.4939625245411
30
0
41
1
10
-22.5
20
13.4890441905268
30
0
41
1
10
-22.5
20
13.4821928739338
30
0
41
1
10
-22.5
20
13.4734382711797
30
0
41
1
10
-22.5
20
13.4628104278487
30
0
41
1
10
-22.5
20
13.4503375493538
30
0
41
1
10
-22.5
20
13.4312436783152
30
0
41
1
10
-22.5
20
13.402990048048
30
0
41
1
10
-22.5
20
13.3620642251226
30
0
41
1
10
-22.5
20
13.3223661774289
30
0
41
1
10
-22.5
20
13.2871835761246
30
0
41
1
10
-22.5
20
13.2592104836088
30
0
41
1
10
-22.5
20
13.22962135664
30
0
41
1
10
-22.5
20
13.1879639126742
30
0
41
1
10
-22.5
20
13.1433841284413
30
0
41
1
10
-22.5
20
13.0954724183383
30
0
41
1
10
-22.5
20
13.0580720783437
30
0
41
1
10
-22.5
20
13.0191589474766
30
0
41
1
10
-22.5
20
12.9787481075025
30
0
41
1
10
-22.5
20
12.9368537004399
30
0
41
1
10
-22.5
20
12.8789379874313
30
0
41
1
10
-22.5
20
12.8184132188765
30
0
41
1
10
-22.5
20
12.7547247883428
30
0
41
1
10
-22.5
20
12.7056201369325
30
0
41
1
10
-22.5
20
12.6551113810006
30
0
41
1
10
-22.5
20
12.6032111684974
30
0
41
1
10
-22.5
20
12.5499297998313
30
0
41
1
10
-22.5
20
12.4952790326449
30
0
41
1
10
-22.5
20
12.4392702770472
30
0
41
1
10
-22.5
20
12.3626709718699
30
0
41
1
10
-22.5
20
12.2837700633604
30
0
41
1
10
-22.5
20
12.2018541666219
30
0
41
1
10
-22.5
20
12.1181901660327
30
0
41
1
10
-22.5
20
12.0106580823312
30
0
41
1
10
-22.5
20
11.8988607853737
30
0
41
1
10
-22.5
20
11.8066390784572
30
0
41
1
10
-22.5
20
11.7363216027856
30
0
41
1
10
-22.5
20
11.6647550005754
30
0
41
1
10
-22.5
20
11.59194615036
30
0
41
1
10
-22.5
20
11.5179033392113
30
0
41
1
10
-22.5
20
11.4552554262223
30
0
41
1
10
-22.5
20
11.4043880916922
30
0
41
1
10
-22.5
20
11.3531143221947
30
0
41
1
10
-22.5
20
11.2884404549429
30
0
41
1
10
-22.5
20
11.2095312020912
30
0
41
1
10
-22.5
20
11.1025558247745
30
0
41
1
10
-22.5
20
10.9936883814227
30
0
41
1
10
-22.5
20
10.881957392112
30
0
41
1
10
-22.5
20
10.7971107518715
30
0
41
1
10
-22.5
20
10.7110949831286
30
0
41
1
10
-22.5
20
10.6239149454148
30
0
41
1
10
-22.5
20
10.5355769819029
30
0
41
1
10
-22.5
20
10.4460865275718
30
0
41
1
10
-22.5
20
10.3554481215356
30
0
41
1
10
-22.5
20
10.2636670923514
30
0
41
1
10
-22.5
20
10.1707494549495
30
0
41
1
10
-22.5
20
10.0451570413025
30
0
41
1
10
-22.5
20
9.9178935930201
30
0
41
1
10
-22.5
20
9.78780083934149
30
0
41
1
10
-22.5
20
9.70579078784203
30
0
41
1
10
-22.5
20
9.63944489130404
30
0
41
1
10
-22.5
20
9.57273011219269
30
0
41
1
10
-22.5
20
9.45508832781687
30
0
41
1
10
-22.5
20
9.31898450356377
30
0
41
1
10
-22.5
20
9.18004983919923
30
0
41
1
10
-22.5
20
9.03966368952015
30
0
41
1
10
-22.5
20
8.86197296792949
30
0
41
1
10
-22.5
20
8.68069429175796
30
0
41
1
10
-22.5
20
8.53310893756458
30
0
41
1
10
-22.5
20
8.38410353449396
30
0
41
1
10
-22.5
20
8.23370690743869
30
0
41
1
10
-22.5
20
8.08045168982594
30
0
41
1
10
-22.5
20
7.96465014223952
30
0
41
1
10
-22.5
20
7.84779993569691
30
0
41
1
10
-22.5
20
7.72990617143802
30
0
41
1
10
-22.5
20
7.61097083499584
30
0
41
1
10
-22.5
20
7.45073654157579
30
0
41
1
10
-22.5
20
7.24848505186409
30
0
41
1
10
-22.5
20
7.04280518235291
30
0
41
1
10
-22.5
20
6.87569112826711
30
0
41
1
10
-22.5
20
6.74956632065386
30
0
41
1
10
-22.5
20
6.62242827644155
30
0
41
1
10
-22.5
20
6.4512555331213
30
0
41
1
10
-22.5
20
6.23550102644131
30
0
41
1
10
-22.5
20
5.97220551217549
30
0
41
1
10
-22.5
20
5.70495651005669
30
0
41
1
10
-22.5
20
5.47933703035866
30
0
41
1
10
-22.5
20
5.29623480232564
30
0
41
1
10
-22.5
20
5.15823567759486
30
0
41
1
10
-22.5
20
5.01927995326392
30
0
41
1
10
-22.5
20
4.87937450907222
30
0
41
1
10
-22.5
20
4.73852599905979
30
0
41
1
10
-22.5
20
4.59674211262629
30
0
41
1
10
-22.5
20
4.45403157575558
30
0
41
1
10
-22.5
20
4.31040309161111
30
0
41
1
10
-22.5
20
4.16586580001649
30
0
41
1
10
-22.5
20
4.02043049501106
30
0
41
1
10
-22.5
20
3.87410976932693
30
0
41
1
10
-22.5
20
3.72691565105669
30
0
41
1
10
-22.5
20
3.57886126909133
30
0
41
1
10
-22.5
20
3.4299627769704
30
0
41
1
10
-22.5
20
3.28023687778401
30
0
41
1
10
-22.5
20
3.12970257053468
30
0
41
1
10
-22.5
20
2.97838003358396
30
0
41
1
10
-22.5
20
2.8262921676581
30
0
41
1
10
-22.5
20
2.67346525953189
30
0
41
1
10
-22.5
20
2.51992549648591
30
0
41
1
10
-22.5
20
2.39172828921559
30
0
41
1
10
-22.5
20
2.2882368400623
30
0
41
1
10
-22.5
20
2.18454587114542
30
0
41
1
10
-22.5
20
2.08161602870015
30
0
41
1
10
-22.5
20
1.97729727415896
30
0
41
1
10
-22.5
20
1.89920682890118
30
0
41
1
10
-22.5
20
1.82098464012651
30
0
41
1
10
-22.5
20
1.74263823347056
30
0
41
1
10
-22.5
20
1.66417084854152
30
0
41
1
10
-22.5
20
1.58559123041411
30
0
41
1
10
-22.5
20
1.50690426712365
30
0
41
1
10
-22.5
20
1.40144074045128
30
0
41
1
10
-22.5
20
1.29707563275716
30
0
41
1
10
-22.5
20
1.1912185842138
30
0
41
1
10
-22.5
20
1.11209553564783
30
0
41
1
10
-22.5
20
1.03290644237791
30
0
41
1
10
-22.5
20
0.95365606681014
30
0
41
1
10
-22.5
20
0.874352168955852
30
0
41
1
10
-22.5
20
0.795000198505278
30
0
41
1
10
-22.5
20
0.71560660892132
30
0
41
1
10
-22.5
20
0.63617666680787
30
0
41
1
10
-22.5
20
0.556715993884097
30
0
41
1
10
-22.5
20
0.477229338262958
30
0
41
1
10
-22.5
20
0.397721593521055
30
0
41
1
10
-22.5
20
0.318196568076161
30
0
41
1
10
-22.5
20
0.238658582119825
30
0
41
1
10
-22.5
20
0.159110826532412
30
0
41
1
10
-22.5
20
0.0795570008675952
30
0
41
1
10
-22.5
20
-4.3520458E-09
30
0
41
1
10
-22.5
20
-0.0795570195282949
30
0
41
1
10
-22.5
20
-0.159110863620981
30
0
41
1
10
-22.5
20
-0.238658616598514
30
0
41
1
10
-22.5
20
-0.318196574925025
30
0
41
1
10
-22.5
20
-0.397721596430074
30
0
41
1
10
-22.5
20
-0.477229377934975
30
0
41
1
10
-22.5
20
-0.556716044364009
30
0
41
1
10
-22.5
20
-0.63617667254502
30
0
41
1
10
-22.5
20
-0.715606595157226
30
0
41
1
10
-22.5
20
-0.795000235128668
30
0
41
1
10
-22.5
20
-0.874352236673616
30
0
41
1
10
-22.5
20
-0.953656082911976
30
0
41
1
10
-22.5
20
-1.03290641330759
30
0
41
1
10
-22.5
20
-1.11209555133374
30
0
41
1
10
-22.5
20
-1.19121866112906
30
0
41
1
10
-22.5
20
-1.29707565327635
30
0
41
1
10
-22.5
20
-1.40144071039387
30
0
41
1
10
-22.5
20
-1.50690430877853
30
0
41
1
10
-22.5
20
-1.58559131690836
30
0
41
1
10
-22.5
20
-1.66417088377818
30
0
41
1
10
-22.5
20
-1.74263820265682
30
0
41
1
10
-22.5
20
-1.82098461234611
30
0
41
1
10
-22.5
20
-1.89920687090043
30
0
41
1
10
-22.5
20
-1.97729736527978
30
0
41
1
10
-22.5
20
-2.08161605220536
30
0
41
1
10
-22.5
20
-2.18454583019769
30
0
41
1
10
-22.5
20
-2.28823685042076
30
0
41
1
10
-22.5
20
-2.39172837491469
30
0
41
1
10
-22.5
20
-2.51992552331163
30
0
41
1
10
-22.5
20
-2.67346522993279
30
0
41
1
10
-22.5
20
-2.82629223006825
30
0
41
1
10
-22.5
20
-2.9783800820847
30
0
41
1
10
-22.5
20
-3.12970236953149
30
0
41
1
10
-22.5
20
-3.2802363758513
30
0
41
1
10
-22.5
20
-3.42996282061054
30
0
41
1
10
-22.5
20
-3.57886234252629
30
0
41
1
10
-22.5
20
-3.72691655621918
30
0
41
1
10
-22.5
20
-3.87410940415094
30
0
41
1
10
-22.5
20
-4.02042950258553
30
0
41
1
10
-22.5
20
-4.1658649918152
30
0
41
1
10
-22.5
20
-4.31040320562681
30
0
41
1
10
-22.5
20
-4.45403251641869
30
0
41
1
10
-22.5
20
-4.59674271442694
30
0
41
1
10
-22.5
20
-4.73852585442467
30
0
41
1
10
-22.5
20
-4.87937424460151
30
0
41
1
10
-22.5
20
-5.01927991936705
30
0
41
1
10
-22.5
20
-5.15823571506778
30
0
41
1
10
-22.5
20
-5.29623478947158
30
0
41
1
10
-22.5
20
-5.47933703089231
30
0
41
1
10
-22.5
20
-5.70495655337433
30
0
41
1
10
-22.5
20
-5.97220551419213
30
0
41
1
10
-22.5
20
-6.23550104742759
30
0
41
1
10
-22.5
20
-6.451255571394
30
0
41
1
10
-22.5
20
-6.6224282598192
30
0
41
1
10
-22.5
20
-6.74956631857705
30
0
41
1
10
-22.5
20
-6.87569116366484
30
0
41
1
10
-22.5
20
-7.04280522024894
30
0
41
1
10
-22.5
20
-7.24848505302427
30
0
41
1
10
-22.5
20
-7.4507365478344
30
0
41
1
10
-22.5
20
-7.6109708771202
30
0
41
1
10
-22.5
20
-7.72990620240671
30
0
41
1
10
-22.5
20
-7.84779994085653
30
0
41
1
10
-22.5
20
-7.96465013686171
30
0
41
1
10
-22.5
20
-8.08045169790759
30
0
41
1
10
-22.5
20
-8.23370694014301
30
0
41
1
10
-22.5
20
-8.38410356414289
30
0
41
1
10
-22.5
20
-8.53310893988203
30
0
41
1
10
-22.5
20
-8.68069429599308
30
0
41
1
10
-22.5
20
-8.8619729936481
30
0
41
1
10
-22.5
20
-9.0396637144479
30
0
41
1
10
-22.5
20
-9.18004984465043
30
0
41
1
10
-22.5
20
-9.31898451102214
30
0
41
1
10
-22.5
20
-9.45508835059124
30
0
41
1
10
-22.5
20
-9.57273013875857
30
0
41
1
10
-22.5
20
-9.63944491324963
30
0
41
1
10
-22.5
20
-9.70579080403837
30
0
41
1
10
-22.5
20
-9.7878008492857
30
0
41
1
10
-22.5
20
-9.91789360326428
30
0
41
1
10
-22.5
20
-10.0451570606616
30
0
41
1
10
-22.5
20
-10.1707494782419
30
0
41
1
10
-22.5
20
-10.2636671117607
30
0
41
1
10
-22.5
20
-10.3554481360506
30
0
41
1
10
-22.5
20
-10.4460865401309
30
0
41
1
10
-22.5
20
-10.5355769962349
30
0
41
1
10
-22.5
20
-10.6239149629423
30
0
41
1
10
-22.5
20
-10.7110950034658
30
0
41
1
10
-22.5
20
-10.7971107724731
30
0
41
1
10
-22.5
20
-10.881957410682
30
0
41
1
10
-22.5
20
-10.9936883968037
30
0
41
1
10
-22.5
20
-11.1025558384385
30
0
41
1
10
-22.5
20
-11.2095312195267
30
0
41
1
10
-22.5
20
-11.2884404756242
30
0
41
1
10
-22.5
20
-11.3531143441571
30
0
41
1
10
-22.5
20
-11.4043881128182
30
0
41
1
10
-22.5
20
-11.4552554448703
30
0
41
1
10
-22.5
20
-11.5179033535968
30
0
41
1
10
-22.5
20
-11.5919461625789
30
0
41
1
10
-22.5
20
-11.664755015164
30
0
41
1
10
-22.5
20
-11.7363216229303
30
0
41
1
10
-22.5
20
-11.8066391033683
30
0
41
1
10
-22.5
20
-11.8988608066557
30
0
41
1
10
-22.5
20
-12.0106580919609
30
0
41
1
10
-22.5
20
-12.1181901818312
30
0
41
1
10
-22.5
20
-12.2018541939414
30
0
41
1
10
-22.5
20
-12.2837700876339
30
0
41
1
10
-22.5
20
-12.3626709807027
30
0
41
1
10
-22.5
20
-12.4392702870471
30
0
41
1
10
-22.5
20
-12.4952790541085
30
0
41
1
10
-22.5
20
-12.5499298292215
30
0
41
1
10
-22.5
20
-12.6032111946844
30
0
41
1
10
-22.5
20
-12.6551113940766
30
0
41
1
10
-22.5
20
-12.7056201424592
30
0
41
1
10
-22.5
20
-12.7547247990428
30
0
41
1
10
-22.5
20
-12.8184132466048
30
0
41
1
10
-22.5
20
-12.8789380178894
30
0
41
1
10
-22.5
20
-12.9368537080862
30
0
41
1
10
-22.5
20
-12.9787481114295
30
0
41
1
10
-22.5
20
-13.0191589652135
30
0
41
1
10
-22.5
20
-13.0580721081213
30
0
41
1
10
-22.5
20
-13.0954724456838
30
0
41
1
10
-22.5
20
-13.143384141029
30
0
41
1
10
-22.5
20
-13.187963912528
30
0
41
1
10
-22.5
20
-13.2296213845592
30
0
41
1
10
-22.5
20
-13.2592105165633
30
0
41
1
10
-22.5
20
-13.2871835921006
30
0
41
1
10
-22.5
20
-13.3223661764574
30
0
41
1
10
-22.5
20
-13.3540536969874
30
0
41
1
10
-22.5
20
-13.3825245595672
30
0
41
1
10
-22.5
20
-13.4021158939438
30
0
41
1
10
-22.5
20
-13.4199649415155
30
0
41
1
10
-22.5
20
-13.4360470510206
30
0
41
1
10
-22.5
20
-13.4503375548199
30
0
41
1
10
-22.5
20
-13.4628103286331
30
0
41
1
10
-22.5
20
-13.4734380181859
30
0
41
1
10
-22.5
20
-13.4821927509398
30
0
41
1
10
-22.5
20
-13.4890446841776
30
0
41
1
10
-22.5
20
-13.4939634903146
30
0
41
1
10
-22.5
20
-13.4969168014739
30
0
41
1
10
-22.5
20
-13.497871542388
30
0
41
1
10
-22.5
20
-13.497033465395
30
0
41
1
10
-22.5
20
-13.4959444881274
30
0
41
1
10
-22.5
20
-13.495636278004
30
0
0
SPLINE
5
169
100
AcDbEntity
8
SK1
62
256
6
ByLayer
370
18
48
1
60
0
100
AcDbSpline
70
4
71
3
72
119
73
115
40
0
40
0
40
0
40
0
40
0.0017654123256105
40
0.009687035143771
40
0.0176086579619316
40
0.0255302807800922
40
0.0334519035982527
40
0.0413735264164133
40
0.0492951492345738
40
0.0572167720527344
40
0.065138394870895
40
0.0730600176890555
40
0.0809816405072161
40
0.0889032633253767
40
0.0968248861435372
40
0.104746508961698
40
0.112668131779858
40
0.120589754598019
40
0.128511377416179
40
0.13643300023434
40
0.144354623052501
40
0.152276245870661
40
0.160197868688822
40
0.176041114325143
40
0.191884359961464
40
0.207727605597785
40
0.223570851234106
40
0.231492474052267
40
0.239414096870427
40
0.247335719688588
40
0.255257342506748
40
0.27110058814307
40
0.286943833779391
40
0.294865456597551
40
0.302787079415712
40
0.310708702233872
40
0.318630325052033
40
0.326551947870193
40
0.334473570688354
40
0.350316816324675
40
0.358238439142836
40
0.366160061960996
40
0.382003307597317
40
0.397846553233639
40
0.405768176051799
40
0.41368979886996
40
0.429533044506281
40
0.437454667324441
40
0.441415478733522
40
0.445376290142602
40
0.453297912960762
40
0.461219535778923
40
0.477062781415244
40
0.484984404233405
40
0.492906027051565
40
0.500827649869726
40
0.508749272687887
40
0.516670895506047
40
0.524592518324208
40
0.532514141142368
40
0.540435763960529
40
0.548357386778689
40
0.55627900959685
40
0.572122255233171
40
0.580043878051332
40
0.587965500869492
40
0.595887123687653
40
0.599847935096733
40
0.603808746505813
40
0.611730369323974
40
0.619651992142134
40
0.627573614960295
40
0.635495237778455
40
0.643416860596616
40
0.651338483414777
40
0.667181729051098
40
0.683024974687419
40
0.690946597505579
40
0.69886822032374
40
0.714711465960061
40
0.722633088778222
40
0.730554711596382
40
0.738476334414543
40
0.746397957232703
40
0.754319580050864
40
0.762241202869024
40
0.770162825687185
40
0.778084448505346
40
0.793927694141667
40
0.801849316959827
40
0.809770939777988
40
0.817692562596148
40
0.825614185414309
40
0.83353580823247
40
0.84145743105063
40
0.857300676686951
40
0.865222299505112
40
0.873143922323272
40
0.881065545141433
40
0.888987167959593
40
0.904830413595915
40
0.912752036414075
40
0.920673659232236
40
0.928595282050396
40
0.936516904868557
40
0.944438527686717
40
0.952360150504878
40
0.960281773323038
40
0.968203396141199
40
0.97612501895936
40
0.98404664177752
40
0.991968264595681
40
0.999889887413841
40
1
40
1
40
1
40
1
41
1
10
-1.49503997793931
20
-2.59465115086957
30
0
41
1
10
-1.49503997793931
20
-2.60647324344197
30
0
41
1
10
-1.49503997793931
20
-2.67130382016646
30
0
41
1
10
-1.49503997793931
20
-2.78881794693001
30
0
41
1
10
-1.49503997793931
20
-2.94652921585708
30
0
41
1
10
-1.49503997793931
20
-3.10333581737226
30
0
41
1
10
-1.49503997793931
20
-3.25922160409144
30
0
41
1
10
-1.49503997793931
20
-3.4141725129254
30
0
41
1
10
-1.49503997793931
20
-3.56817684914566
30
0
41
1
10
-1.49503997793931
20
-3.72122348266291
30
0
41
1
10
-1.49503997793931
20
-3.87330241838259
30
0
41
1
10
-1.49503997793931
20
-4.02440435063471
30
0
41
1
10
-1.49503997793931
20
-4.17452257114442
30
0
41
1
10
-1.49503997793931
20
-4.32365075555245
30
0
41
1
10
-1.49503997793931
20
-4.47178250674139
30
0
41
1
10
-1.49503997793931
20
-4.61891187892093
30
0
41
1
10
-1.49503997793931
20
-4.7650335666859
30
0
41
1
10
-1.49503997793931
20
-4.91014320448997
30
0
41
1
10
-1.49503997793931
20
-5.05423700692032
30
0
41
1
10
-1.49503997793931
20
-5.19731095699922
30
0
41
1
10
-1.49503997793931
20
-5.33936160781602
30
0
41
1
10
-1.49503997793931
20
-5.48038543010182
30
0
41
1
10
-1.49503997793931
20
-5.66717892451575
30
0
41
1
10
-1.49503997793931
20
-5.89779786635279
30
0
41
1
10
-1.49503997793931
20
-6.17053537924178
30
0
41
1
10
-1.49503997793931
20
-6.43910150489376
30
0
41
1
10
-1.49503997793931
20
-6.65929861735816
30
0
41
1
10
-1.49503997793931
20
-6.83355374310952
30
0
41
1
10
-1.49503997793931
20
-6.96311018885424
30
0
41
1
10
-1.49503997793931
20
-7.09160988853208
30
0
41
1
10
-1.49503997793931
20
-7.26163684175143
30
0
41
1
10
-1.49503997793931
20
-7.47128768043942
30
0
41
1
10
-1.49503997793931
20
-7.67738590051292
30
0
41
1
10
-1.49503997793931
20
-7.84029855153605
30
0
41
1
10
-1.49503997793931
20
-7.96134018717205
30
0
41
1
10
-1.49503997793931
20
-8.08130644558901
30
0
41
1
10
-1.49503997793931
20
-8.2001957134178
30
0
41
1
10
-1.49503997793931
20
-8.31800484031689
30
0
41
1
10
-1.49503997793931
20
-8.47372856948019
30
0
41
1
10
-1.49503997793931
20
-8.62702161678089
30
0
41
1
10
-1.49503997793931
20
-8.7783873974316
30
0
41
1
10
-1.49503997793931
20
-8.92829538452324
30
0
41
1
10
-1.49503997793931
20
-9.11275364912453
30
0
41
1
10
-1.49503997793931
20
-9.2935360539519
30
0
41
1
10
-1.49503997793931
20
-9.43608247629777
30
0
41
1
10
-1.49503997793931
20
-9.57714512355727
30
0
41
1
10
-1.49503997793931
20
-9.71574945872365
30
0
41
1
10
-1.49503997793931
20
-9.835227886979
30
0
41
1
10
-1.49503997793931
20
-9.90295237623948
30
0
41
1
10
-1.49503997793931
20
-9.97030028641953
30
0
41
1
10
-1.49503997793931
20
-10.0536983203575
30
0
41
1
10
-1.49503997793931
20
-10.1857467801784
30
0
41
1
10
-1.49503997793931
20
-10.3153089526253
30
0
41
1
10
-1.49503997793931
20
-10.4427777956644
30
0
41
1
10
-1.49503997793931
20
-10.537175897834
30
0
41
1
10
-1.49503997793931
20
-10.630416702033
30
0
41
1
10
-1.49503997793931
20
-10.7224950525573
30
0
41
1
10
-1.49503997793931
20
-10.8134058114344
30
0
41
1
10
-1.49503997793931
20
-10.9031442186804
30
0
41
1
10
-1.49503997793931
20
-10.9917054227684
30
0
41
1
10
-1.49503997793931
20
-11.0790834618892
30
0
41
1
10
-1.49503997793931
20
-11.165273297363
30
0
41
1
10
-1.49503997793931
20
-11.2786601205037
30
0
41
1
10
-1.49503997793931
20
-11.3894729046301
30
0
41
1
10
-1.49503997793931
20
-11.4980349156059
30
0
41
1
10
-1.49503997793931
20
-11.5781957427673
30
0
41
1
10
-1.49503997793931
20
-11.6439487843731
30
0
41
1
10
-1.49503997793931
20
-11.6959849306732
30
0
41
1
10
-1.49503997793931
20
-11.747609354201
30
0
41
1
10
-1.49503997793931
20
-11.8113057197552
30
0
41
1
10
-1.49503997793931
20
-11.886528664654
30
0
41
1
10
-1.49503997793931
20
-11.960500101414
30
0
41
1
10
-1.49503997793931
20
-12.0332119519516
30
0
41
1
10
-1.49503997793931
20
-12.1046570427268
30
0
41
1
10
-1.49503997793931
20
-12.1982669205398
30
0
41
1
10
-1.49503997793931
20
-12.3119621581916
30
0
41
1
10
-1.49503997793931
20
-12.4213295969168
30
0
41
1
10
-1.49503997793931
20
-12.5062717787185
30
0
41
1
10
-1.49503997793931
20
-12.5894449263383
30
0
41
1
10
-1.49503997793931
20
-12.6698142967672
30
0
41
1
10
-1.49503997793931
20
-12.7476032540011
30
0
41
1
10
-1.49503997793931
20
-12.8045464232669
30
0
41
1
10
-1.49503997793931
20
-12.8601132308426
30
0
41
1
10
-1.49503997793931
20
-12.9142926213842
30
0
41
1
10
-1.49503997793931
20
-12.9670724454163
30
0
41
1
10
-1.49503997793931
20
-13.0184419731185
30
0
41
1
10
-1.49503997793931
20
-13.0683888234861
30
0
41
1
10
-1.49503997793931
20
-13.133106637017
30
0
41
1
10
-1.49503997793931
20
-13.1948224412614
30
0
41
1
10
-1.49503997793931
20
-13.2536925631392
30
0
41
1
10
-1.49503997793931
20
-13.296330722945
30
0
41
1
10
-1.49503997793931
20
-13.3374647797226
30
0
41
1
10
-1.49503997793931
20
-13.3770799229021
30
0
41
1
10
-1.49503997793931
20
-13.4151607649325
30
0
41
1
10
-1.49503997793931
20
-13.4638962511352
30
0
41
1
10
-1.49503997793931
20
-13.5094130161235
30
0
41
1
10
-1.49503997793931
20
-13.551806168738
30
0
41
1
10
-1.49503997793931
20
-13.5819601013665
30
0
41
1
10
-1.49503997793931
20
-13.6104729213425
30
0
41
1
10
-1.49503997793931
20
-13.646298505966
30
0
41
1
10
-1.49503997793931
20
-13.6786965897716
30
0
41
1
10
-1.49503997793931
20
-13.7077055842542
30
0
41
1
10
-1.49503997793931
20
-13.7276983600542
30
0
41
1
10
-1.49503997793931
20
-13.7459180935577
30
0
41
1
10
-1.49503997793931
20
-13.7623389110759
30
0
41
1
10
-1.49503997793931
20
-13.7769347594832
30
0
41
1
10
-1.49503997793931
20
-13.7896781016746
30
0
41
1
10
-1.49503997793931
20
-13.800539960484
30
0
41
1
10
-1.49503997793931
20
-13.8094907530557
30
0
41
1
10
-1.49503997793931
20
-13.8164987457743
30
0
41
1
10
-1.49503997793931
20
-13.821531562835
30
0
41
1
10
-1.49503997793931
20
-13.8245545856003
30
0
41
1
10
-1.49503997793931
20
-13.8252109203923
30
0
41
1
10
-1.49503997793931
20
-13.8251847301585
30
0
41
1
10
-1.49503997793927
20
-13.8251837300585
30
0
0
SPLINE
5
16A
100
AcDbEntity
8
SK1
62
256
6
ByLayer
370
18
48
1
60
0
100
AcDbSpline
70
4
71
3
72
117
73
113
40
0
40
0
40
0
40
0
40
0.0001126991610301
40
0.0080343015031102
40
0.0159559038451903
40
0.0238775061872704
40
0.0317991085293505
40
0.0397207108714306
40
0.0476423132135107
40
0.0555639155555909
40
0.063485517897671
40
0.0793287225818312
40
0.0951719272659914
40
0.111015131950152
40
0.118936734292232
40
0.126858336634312
40
0.134779938976392
40
0.142701541318472
40
0.158544746002632
40
0.166466348344712
40
0.174387950686793
40
0.182309553028873
40
0.190231155370953
40
0.198152757713033
40
0.206074360055113
40
0.221917564739273
40
0.229839167081353
40
0.237760769423433
40
0.245682371765513
40
0.253603974107594
40
0.261525576449674
40
0.269447178791754
40
0.277368781133834
40
0.285290383475914
40
0.301133588160074
40
0.309055190502155
40
0.316976792844235
40
0.332819997528395
40
0.348663202212555
40
0.356584804554635
40
0.364506406896715
40
0.372428009238795
40
0.380349611580875
40
0.388271213922956
40
0.396192816265036
40
0.400153617436076
40
0.404114418607116
40
0.412036020949196
40
0.419957623291276
40
0.427879225633356
40
0.443722430317516
40
0.451644032659597
40
0.459565635001677
40
0.467487237343757
40
0.475408839685837
40
0.483330442027917
40
0.491252044369997
40
0.499173646712077
40
0.507095249054157
40
0.515016851396237
40
0.522938453738317
40
0.538781658422478
40
0.546703260764558
40
0.554624863106638
40
0.558585664277678
40
0.562546465448718
40
0.570468067790798
40
0.586311272474958
40
0.594232874817039
40
0.602154477159119
40
0.617997681843279
40
0.633840886527439
40
0.641762488869519
40
0.649684091211599
40
0.66552729589576
40
0.67344889823784
40
0.68137050057992
40
0.689292102922
40
0.69721370526408
40
0.70513530760616
40
0.71305690994824
40
0.7289001146324
40
0.744743319316561
40
0.752664921658641
40
0.760586524000721
40
0.768508126342801
40
0.776429728684881
40
0.792272933369041
40
0.808116138053201
40
0.823959342737362
40
0.839802547421522
40
0.847724149763602
40
0.855645752105682
40
0.863567354447762
40
0.871488956789842
40
0.879410559131922
40
0.887332161474003
40
0.895253763816083
40
0.903175366158163
40
0.911096968500243
40
0.919018570842323
40
0.926940173184403
40
0.934861775526483
40
0.942783377868563
40
0.950704980210643
40
0.958626582552723
40
0.966548184894804
40
0.974469787236884
40
0.982391389578964
40
0.990312991921044
40
0.998234594263124
40
1
40
1
40
1
40
1
41
1
10
-1.49503997793926
20
13.825183728446
30
0
41
1
10
-1.49503997793926
20
13.825184728546
30
0
41
1
10
-1.49503997793926
20
13.8252108742475
30
0
41
1
10
-1.49503997793928
20
13.8245539604948
30
0
41
1
10
-1.49503997793928
20
13.8215305966481
30
0
41
1
10
-1.49503997793928
20
13.8164982902869
30
0
41
1
10
-1.49503997793928
20
13.8094909095343
30
0
41
1
10
-1.49503997793928
20
13.8005402090708
30
0
41
1
10
-1.49503997793928
20
13.7896781830989
30
0
41
1
10
-1.49503997793928
20
13.7769347476405
30
0
41
1
10
-1.49503997793928
20
13.7574597557179
30
0
41
1
10
-1.49503997793928
20
13.7285859139399
30
0
41
1
10
-1.49503997793928
20
13.6868269300449
30
0
41
1
10
-1.49503997793928
20
13.6462985077496
30
0
41
1
10
-1.49503997793928
20
13.6104729008558
30
0
41
1
10
-1.49503997793928
20
13.5819600687286
30
0
41
1
10
-1.49503997793928
20
13.5518061457236
30
0
41
1
10
-1.49503997793928
20
13.509413016618
30
0
41
1
10
-1.49503997793928
20
13.4638962341071
30
0
41
1
10
-1.49503997793928
20
13.4151607370273
30
0
41
1
10
-1.49503997793928
20
13.3770798968994
30
0
41
1
10
-1.49503997793928
20
13.3374647662751
30
0
41
1
10
-1.49503997793928
20
13.2963307178616
30
0
41
1
10
-1.49503997793928
20
13.2536925499096
30
0
41
1
10
-1.49503997793928
20
13.1948224098965
30
0
41
1
10
-1.49503997793928
20
13.1331066142243
30
0
41
1
10
-1.49503997793928
20
13.0683888145289
30
0
41
1
10
-1.49503997793928
20
13.0184419638584
30
0
41
1
10
-1.49503997793928
20
12.9670724273821
30
0
41
1
10
-1.49503997793928
20
12.9142925944038
30
0
41
1
10
-1.49503997793928
20
12.860113205584
30
0
41
1
10
-1.49503997793928
20
12.8045464062654
30
0
41
1
10
-1.49503997793928
20
12.74760324418
30
0
41
1
10
-1.49503997793928
20
12.6698142834541
30
0
41
1
10
-1.49503997793928
20
12.5894449005116
30
0
41
1
10
-1.49503997793928
20
12.50627175547
30
0
41
1
10
-1.49503997793928
20
12.4213295833849
30
0
41
1
10
-1.49503997793928
20
12.3119621458456
30
0
41
1
10
-1.49503997793928
20
12.1982668977617
30
0
41
1
10
-1.49503997793928
20
12.1046570208051
30
0
41
1
10
-1.49503997793928
20
12.0332119345842
30
0
41
1
10
-1.49503997793928
20
11.9605000871413
30
0
41
1
10
-1.49503997793928
20
11.8865286504803
30
0
41
1
10
-1.49503997793928
20
11.8113057028001
30
0
41
1
10
-1.49503997793928
20
11.7476093345099
30
0
41
1
10
-1.49503997793928
20
11.6959849101866
30
0
41
1
10
-1.49503997793928
20
11.643948764099
30
0
41
1
10
-1.49503997793928
20
11.5781957241672
30
0
41
1
10
-1.49503997793928
20
11.4980348993556
30
0
41
1
10
-1.49503997793928
20
11.3894728900619
30
0
41
1
10
-1.49503997793928
20
11.278660103453
30
0
41
1
10
-1.49503997793928
20
11.1652732784127
30
0
41
1
10
-1.49503997793928
20
11.0790834423827
30
0
41
1
10
-1.49503997793928
20
10.9917054044732
30
0
41
1
10
-1.49503997793928
20
10.9031442025602
30
0
41
1
10
-1.49503997793928
20
10.8134057967923
30
0
41
1
10
-1.49503997793928
20
10.7224950378189
30
0
41
1
10
-1.49503997793928
20
10.6304166849825
30
0
41
1
10
-1.49503997793928
20
10.5371758780398
30
0
41
1
10
-1.49503997793928
20
10.4427777751693
30
0
41
1
10
-1.49503997793928
20
10.3153089364435
30
0
41
1
10
-1.49503997793928
20
10.1857467684219
30
0
41
1
10
-1.49503997793928
20
10.0536983054632
30
0
41
1
10
-1.49503997793928
20
9.97030026745779
30
0
41
1
10
-1.49503997793928
20
9.90295235506755
30
0
41
1
10
-1.49503997793928
20
9.83522786489038
30
0
41
1
10
-1.49503997793928
20
9.71574944153573
30
0
41
1
10
-1.49503997793928
20
9.57714511427093
30
0
41
1
10
-1.49503997793928
20
9.43608246295526
30
0
41
1
10
-1.49503997793928
20
9.29353602958125
30
0
41
1
10
-1.49503997793928
20
9.11275363063513
30
0
41
1
10
-1.49503997793928
20
8.92829537712967
30
0
41
1
10
-1.49503997793928
20
8.77838738443313
30
0
41
1
10
-1.49503997793928
20
8.62702158955997
30
0
41
1
10
-1.49503997793928
20
8.47372854841305
30
0
41
1
10
-1.49503997793928
20
8.31800483202281
30
0
41
1
10
-1.49503997793928
20
8.20019570647173
30
0
41
1
10
-1.49503997793928
20
8.08130642958628
30
0
41
1
10
-1.49503997793928
20
7.96134016006346
30
0
41
1
10
-1.49503997793928
20
7.84029852533041
30
0
41
1
10
-1.49503997793928
20
7.67738589461936
30
0
41
1
10
-1.49503997793928
20
7.47128766686797
30
0
41
1
10
-1.49503997793928
20
7.261636811758
30
0
41
1
10
-1.49503997793928
20
7.09160986883526
30
0
41
1
10
-1.49503997793928
20
6.96311018452545
30
0
41
1
10
-1.49503997793928
20
6.83355373772449
30
0
41
1
10
-1.49503997793928
20
6.65929858415237
30
0
41
1
10
-1.49503997793928
20
6.43910149333703
30
0
41
1
10
-1.49503997793928
20
6.17053536578155
30
0
41
1
10
-1.49503997793928
20
5.89779783511918
30
0
41
1
10
-1.49503997793928
20
5.66717892097088
30
0
41
1
10
-1.49503997793928
20
5.48038541909952
30
0
41
1
10
-1.49503997793928
20
5.33936157753735
30
0
41
1
10
-1.49503997793928
20
5.19731095553271
30
0
41
1
10
-1.49503997793928
20
5.05423706888556
30
0
41
1
10
-1.49503997793928
20
4.91014315579861
30
0
41
1
10
-1.49503997793928
20
4.7650332428635
30
0
41
1
10
-1.49503997793928
20
4.61891156596767
30
0
41
1
10
-1.49503997793928
20
4.47178260268984
30
0
41
1
10
-1.49503997793928
20
4.32365113214263
30
0
41
1
10
-1.49503997793928
20
4.17452288947305
30
0
41
1
10
-1.49503997793928
20
4.02440432752809
30
0
41
1
10
-1.49503997793928
20
3.87330192992579
30
0
41
1
10
-1.49503997793928
20
3.7212231412766
30
0
41
1
10
-1.49503997793928
20
3.56817690176541
30
0
41
1
10
-1.49503997793928
20
3.41417271020586
30
0
41
1
10
-1.49503997793928
20
3.25922165821993
30
0
41
1
10
-1.49503997793928
20
3.1033357799555
30
0
41
1
10
-1.49503997793928
20
2.94652918151195
30
0
41
1
10
-1.49503997793928
20
2.78881794429316
30
0
41
1
10
-1.49503997793928
20
2.67130381064959
30
0
41
1
10
-1.49503997793928
20
2.60647323876154
30
0
41
1
10
-1.49503997793931
20
2.59465115838313
30
0
0
SPLINE
5
16B
100
AcDbEntity
8
SK1
62
256
6
ByLayer
370
18
48
1
60
0
100
AcDbSpline
70
4
71
3
72
287
73
283
40
0
40
0
40
0
40
0
40
0.0005770526610645
40
0.0040695178833479
40
0.0075619831056314
40
0.0110544483279148
40
0.0145469135501983
40
0.0180393787724817
40
0.0215318439947652
40
0.0250243092170486
40
0.0285167744393321
40
0.0320092396616155
40
0.0389941701061824
40
0.0459791005507493
40
0.0529640309953162
40
0.0564564962175997
40
0.0599489614398831
40
0.0634414266621666
40
0.06693389188445
40
0.0739188223290169
40
0.0774112875513004
40
0.0809037527735837
40
0.0843962179958672
40
0.0878886832181507
40
0.0913811484404342
40
0.0948736136627177
40
0.101858544107284
40
0.105351009329568
40
0.108843474551851
40
0.112335939774135
40
0.115828404996418
40
0.119320870218702
40
0.122813335440985
40
0.126305800663269
40
0.129798265885552
40
0.136783196330119
40
0.140275661552402
40
0.143768126774686
40
0.150753057219253
40
0.15773798766382
40
0.161230452886103
40
0.164722918108387
40
0.16821538333067
40
0.171707848552953
40
0.175200313775237
40
0.17869277899752
40
0.180439011608662
40
0.182185244219804
40
0.185677709442087
40
0.189170174664371
40
0.192662639886654
40
0.199647570331221
40
0.203140035553504
40
0.206632500775788
40
0.210124965998072
40
0.213617431220355
40
0.217109896442638
40
0.220602361664922
40
0.224094826887205
40
0.227587292109489
40
0.231079757331772
40
0.234572222554055
40
0.241557152998622
40
0.245049618220906
40
0.248542083443189
40
0.250288316054331
40
0.252034548665473
40
0.255527013887756
40
0.262511944332323
40
0.266004409554607
40
0.26949687477689
40
0.276481805221457
40
0.283466735666024
40
0.286959200888307
40
0.290451666110591
40
0.297436596555158
40
0.300929061777441
40
0.304421526999725
40
0.307913992222008
40
0.311406457444291
40
0.314898922666575
40
0.318391387888858
40
0.325376318333425
40
0.332361248777992
40
0.335853714000276
40
0.339346179222559
40
0.342838644444843
40
0.346331109667126
40
0.353316040111693
40
0.36030097055626
40
0.367285901000827
40
0.374270831445394
40
0.377763296667677
40
0.38125576188996
40
0.384748227112244
40
0.388240692334527
40
0.391733157556811
40
0.395225622779094
40
0.398718088001378
40
0.402210553223661
40
0.405703018445945
40
0.409195483668228
40
0.412687948890511
40
0.416180414112795
40
0.419672879335078
40
0.423165344557362
40
0.426657809779645
40
0.430150275001929
40
0.433642740224212
40
0.437135205446496
40
0.440627670668779
40
0.444120135891062
40
0.447612601113346
40
0.449358833724488
40
0.451105066335629
40
0.454597531557913
40
0.456343764169054
40
0.458089996780196
40
0.459836229391338
40
0.46158246200248
40
0.463328694613621
40
0.465074927224763
40
0.466821159835905
40
0.468567392447047
40
0.47205985766933
40
0.473806090280472
40
0.475552322891614
40
0.477298555502755
40
0.479044788113897
40
0.480791020725039
40
0.48253725333618
40
0.484283485947322
40
0.486029718558464
40
0.487775951169606
40
0.489522183780747
40
0.491268416391889
40
0.493014649003031
40
0.494760881614173
40
0.496507114225314
40
0.498253346836456
40
0.499999579447598
40
0.501745812058739
40
0.503492044669881
40
0.505238277281023
40
0.506984509892165
40
0.508730742503306
40
0.510476975114448
40
0.51222320772559
40
0.513969440336731
40
0.515715672947873
40
0.517461905559015
40
0.519208138170157
40
0.520954370781298
40
0.52270060339244
40
0.524446836003582
40
0.526193068614724
40
0.527939301225865
40
0.531431766448149
40
0.533177999059291
40
0.534924231670432
40
0.536670464281574
40
0.538416696892716
40
0.540162929503857
40
0.541909162114999
40
0.543655394726141
40
0.545401627337283
40
0.548894092559566
40
0.550640325170708
40
0.552386557781849
40
0.555879023004133
40
0.559371488226416
40
0.5628639534487
40
0.566356418670983
40
0.569848883893267
40
0.57334134911555
40
0.576833814337834
40
0.580326279560117
40
0.5838187447824
40
0.587311210004684
40
0.590803675226967
40
0.594296140449251
40
0.597788605671534
40
0.601281070893818
40
0.604773536116101
40
0.608266001338385
40
0.611758466560668
40
0.615250931782952
40
0.618743397005235
40
0.622235862227519
40
0.625728327449802
40
0.632713257894369
40
0.639698188338936
40
0.646683118783502
40
0.653668049228069
40
0.657160514450353
40
0.660652979672636
40
0.66414544489492
40
0.667637910117203
40
0.67462284056177
40
0.681607771006337
40
0.685100236228621
40
0.688592701450904
40
0.692085166673187
40
0.695577631895471
40
0.699070097117754
40
0.702562562340038
40
0.709547492784605
40
0.713039958006888
40
0.716532423229172
40
0.723517353673738
40
0.730502284118305
40
0.733994749340589
40
0.737487214562872
40
0.744472145007439
40
0.747964610229723
40
0.749710842840864
40
0.751457075452006
40
0.75494954067429
40
0.758442005896573
40
0.76542693634114
40
0.768919401563423
40
0.772411866785707
40
0.77590433200799
40
0.779396797230274
40
0.782889262452557
40
0.786381727674841
40
0.789874192897124
40
0.793366658119407
40
0.796859123341691
40
0.800351588563974
40
0.807336519008541
40
0.810828984230825
40
0.814321449453108
40
0.817813914675392
40
0.819560147286533
40
0.821306379897675
40
0.824798845119959
40
0.828291310342242
40
0.831783775564525
40
0.835276240786809
40
0.838768706009092
40
0.842261171231376
40
0.849246101675943
40
0.856231032120509
40
0.859723497342793
40
0.863215962565077
40
0.870200893009643
40
0.873693358231927
40
0.87718582345421
40
0.880678288676494
40
0.884170753898777
40
0.887663219121061
40
0.891155684343344
40
0.894648149565627
40
0.898140614787911
40
0.905125545232478
40
0.908618010454761
40
0.912110475677045
40
0.915602940899328
40
0.919095406121612
40
0.922587871343895
40
0.926080336566179
40
0.933065267010745
40
0.936557732233029
40
0.940050197455312
40
0.943542662677596
40
0.947035127899879
40
0.954020058344446
40
0.95751252356673
40
0.961004988789013
40
0.964497454011297
40
0.96798991923358
40
0.971482384455863
40
0.974974849678147
40
0.97846731490043
40
0.981959780122714
40
0.985452245344997
40
0.988944710567281
40
0.992437175789564
40
0.995929641011848
40
0.999422106234131
40
1
40
1
40
1
40
1
41
1
10
-24
20
12.630146610258
30
0
41
1
10
-24
20
12.6302729710521
30
0
41
1
10
-24
20
12.6311019483227
30
0
41
1
10
-24
20
12.6318299492432
30
0
41
1
10
-24
20
12.6309352666138
30
0
41
1
10
-24
20
12.6281658201647
30
0
41
1
10
-24
20
12.623548726994
30
0
41
1
10
-24
20
12.6171099043118
30
0
41
1
10
-24
20
12.6088736083307
30
0
41
1
10
-24
20
12.5988647342338
30
0
41
1
10
-24
20
12.5871069661155
30
0
41
1
10
-24
20
12.569020437469
30
0
41
1
10
-24
20
12.5424060911485
30
0
41
1
10
-24
20
12.5036823998811
30
0
41
1
10
-24
20
12.466179119183
30
0
41
1
10
-24
20
12.4326960489613
30
0
41
1
10
-24
20
12.4061495447384
30
0
41
1
10
-24
20
12.3780532328159
30
0
41
1
10
-24
20
12.3383402816863
30
0
41
1
10
-24
20
12.2962370819873
30
0
41
1
10
-24
20
12.2505027270978
30
0
41
1
10
-24
20
12.2149010201899
30
0
41
1
10
-24
20
12.1778433481664
30
0
41
1
10
-24
20
12.139344023803
30
0
41
1
10
-24
20
12.0994154546281
30
0
41
1
10
-24
20
12.0440223921018
30
0
41
1
10
-24
20
11.9866456328948
30
0
41
1
10
-24
20
11.9256779328098
30
0
41
1
10
-24
20
11.8787993022056
30
0
41
1
10
-24
20
11.8305656793587
30
0
41
1
10
-24
20
11.78099039585
30
0
41
1
10
-24
20
11.7300825884547
30
0
41
1
10
-24
20
11.6778529900837
30
0
41
1
10
-24
20
11.6243139686469
30
0
41
1
10
-24
20
11.5508590476175
30
0
41
1
10
-24
20
11.4758394707542
30
0
41
1
10
-24
20
11.3972466128896
30
0
41
1
10
-24
20
11.3169609533628
30
0
41
1
10
-24
20
11.2142799019792
30
0
41
1
10
-24
20
11.1074990885262
30
0
41
1
10
-24
20
11.0189464603389
30
0
41
1
10
-24
20
10.9516093773873
30
0
41
1
10
-24
20
10.8830697782116
30
0
41
1
10
-24
20
10.8133337656712
30
0
41
1
10
-24
20
10.7424101789121
30
0
41
1
10
-24
20
10.6825334430363
30
0
41
1
10
-24
20
10.6336671760819
30
0
41
1
10
-24
20
10.5844084477176
30
0
41
1
10
-24
20
10.5225869468266
30
0
41
1
10
-24
20
10.4469857296791
30
0
41
1
10
-24
20
10.3442039867663
30
0
41
1
10
-24
20
10.2404782892815
30
0
41
1
10
-24
20
10.133123847137
30
0
41
1
10
-24
20
10.0518274139735
30
0
41
1
10
-24
20
9.96941226524035
30
0
41
1
10
-24
20
9.8858827890852
30
0
41
1
10
-24
20
9.80124634105394
30
0
41
1
10
-24
20
9.71550990056983
30
0
41
1
10
-24
20
9.62867742465991
30
0
41
1
10
-24
20
9.54075474090101
30
0
41
1
10
-24
20
9.45175012870757
30
0
41
1
10
-24
20
9.33111730296773
30
0
41
1
10
-24
20
9.20992961158598
30
0
41
1
10
-24
20
9.08500600225796
30
0
41
1
10
-24
20
9.00666454438806
30
0
41
1
10
-24
20
8.94296708063843
30
0
41
1
10
-24
20
8.87892107357061
30
0
41
1
10
-24
20
8.76613371827506
30
0
41
1
10
-24
20
8.63663898523424
30
0
41
1
10
-24
20
8.50332881313912
30
0
41
1
10
-24
20
8.36865251940401
30
0
41
1
10
-24
20
8.19913342470036
30
0
41
1
10
-24
20
8.02625870426021
30
0
41
1
10
-24
20
7.88481232676438
30
0
41
1
10
-24
20
7.74204568631339
30
0
41
1
10
-24
20
7.59930458489882
30
0
41
1
10
-24
20
7.45257386795717
30
0
41
1
10
-24
20
7.34207855908448
30
0
41
1
10
-24
20
7.23061782890775
30
0
41
1
10
-24
20
7.11820191301106
30
0
41
1
10
-24
20
7.00483374343872
30
0
41
1
10
-24
20
6.8516785758469
30
0
41
1
10
-24
20
6.65959441745028
30
0
41
1
10
-24
20
6.46441027855926
30
0
41
1
10
-24
20
6.30499529459036
30
0
41
1
10
-24
20
6.18514753468799
30
0
41
1
10
-24
20
6.06440158167572
30
0
41
1
10
-24
20
5.90137597131749
30
0
41
1
10
-24
20
5.69736367955667
30
0
41
1
10
-24
20
5.44799894794272
30
0
41
1
10
-24
20
5.19525670130326
30
0
41
1
10
-24
20
4.98285125019774
30
0
41
1
10
-24
20
4.80950544532163
30
0
41
1
10
-24
20
4.67950096380329
30
0
41
1
10
-24
20
4.54872537799758
30
0
41
1
10
-24
20
4.41719445888799
30
0
41
1
10
-24
20
4.28492388892991
30
0
41
1
10
-24
20
4.15193103870837
30
0
41
1
10
-24
20
4.01823650200188
30
0
41
1
10
-24
20
3.88386015063671
30
0
41
1
10
-24
20
3.74882265025218
30
0
41
1
10
-24
20
3.61314816606941
30
0
41
1
10
-24
20
3.47686551917991
30
0
41
1
10
-24
20
3.34000139230267
30
0
41
1
10
-24
20
3.20258393847712
30
0
41
1
10
-24
20
3.06464837689458
30
0
41
1
10
-24
20
2.9262304523017
30
0
41
1
10
-24
20
2.78737006373561
30
0
41
1
10
-24
20
2.64810891556724
30
0
41
1
10
-24
20
2.50849315364215
30
0
41
1
10
-24
20
2.36857603859875
30
0
41
1
10
-24
20
2.22840727338092
30
0
41
1
10
-24
20
2.11231267734073
30
0
41
1
10
-24
20
2.01771125590744
30
0
41
1
10
-24
20
1.92310511773127
30
0
41
1
10
-24
20
1.8313714962141
30
0
41
1
10
-24
20
1.73663368976398
30
0
41
1
10
-24
20
1.66636839269287
30
0
41
1
10
-24
20
1.59612143913762
30
0
41
1
10
-24
20
1.52590617425699
30
0
41
1
10
-24
20
1.45572440081648
30
0
41
1
10
-24
20
1.38559146347791
30
0
41
1
10
-24
20
1.31551245865842
30
0
41
1
10
-24
20
1.22103102890804
30
0
41
1
10
-24
20
1.13019491172784
30
0
41
1
10
-24
20
1.03590357373665
30
0
41
1
10
-24
20
0.966211278320685
30
0
41
1
10
-24
20
0.896616942008535
30
0
41
1
10
-24
20
0.827119549474418
30
0
41
1
10
-24
20
0.757724503129253
30
0
41
1
10
-24
20
0.688430802184314
30
0
41
1
10
-24
20
0.619238394305086
30
0
41
1
10
-24
20
0.550143822342449
30
0
41
1
10
-24
20
0.481142957404018
30
0
41
1
10
-24
20
0.412229055265982
30
0
41
1
10
-24
20
0.343394373554958
30
0
41
1
10
-24
20
0.274627961865065
30
0
41
1
10
-24
20
0.205919183520024
30
0
41
1
10
-24
20
0.137254128872428
30
0
41
1
10
-24
20
0.068619580615092
30
0
41
1
10
-24
20
1.20069785E-08
30
0
41
1
10
-24
20
-0.0686195837654395
30
0
41
1
10
-24
20
-0.1372541822264
30
0
41
1
10
-24
20
-0.205919229600312
30
0
41
1
10
-24
20
-0.274627932715674
30
0
41
1
10
-24
20
-0.343394334295567
30
0
41
1
10
-24
20
-0.412229116407673
30
0
41
1
10
-24
20
-0.48114304712405
30
0
41
1
10
-24
20
-0.55014378989776
30
0
41
1
10
-24
20
-0.619238310392774
30
0
41
1
10
-24
20
-0.688430856535206
30
0
41
1
10
-24
20
-0.757724640342815
30
0
41
1
10
-24
20
-0.827119544713668
30
0
41
1
10
-24
20
-0.896616816711344
30
0
41
1
10
-24
20
-0.966211277672699
30
0
41
1
10
-24
20
-1.03590373801057
30
0
41
1
10
-24
20
-1.13019491751669
30
0
41
1
10
-24
20
-1.22103090337816
30
0
41
1
10
-24
20
-1.31551253110209
30
0
41
1
10
-24
20
-1.38559165365194
30
0
41
1
10
-24
20
-1.45572444737027
30
0
41
1
10
-24
20
-1.52590604398472
30
0
41
1
10
-24
20
-1.59612132289769
30
0
41
1
10
-24
20
-1.66636846888792
30
0
41
1
10
-24
20
-1.73663389391052
30
0
41
1
10
-24
20
-1.83137150908334
30
0
41
1
10
-24
20
-1.923104963833
30
0
41
1
10
-24
20
-2.01771124909399
30
0
41
1
10
-24
20
-2.11231287096447
30
0
41
1
10
-24
20
-2.22840729138045
30
0
41
1
10
-24
20
-2.36857592379664
30
0
41
1
10
-24
20
-2.50849329023109
30
0
41
1
10
-24
20
-2.64810899336408
30
0
41
1
10
-24
20
-2.7873694745272
30
0
41
1
10
-24
20
-2.92622914514115
30
0
41
1
10
-24
20
-3.06464867495961
30
0
41
1
10
-24
20
-3.20258694679336
30
0
41
1
10
-24
20
-3.34000339886188
30
0
41
1
10
-24
20
-3.47686412773234
30
0
41
1
10
-24
20
-3.61314539193521
30
0
41
1
10
-24
20
-3.74882070125756
30
0
41
1
10
-24
20
-3.88386081960974
30
0
41
1
10
-24
20
-4.01823910176785
30
0
41
1
10
-24
20
-4.15193237523465
30
0
41
1
10
-24
20
-4.28492323331267
30
0
41
1
10
-24
20
-4.41719365917405
30
0
41
1
10
-24
20
-4.54872525063163
30
0
41
1
10
-24
20
-4.67950102029136
30
0
41
1
10
-24
20
-4.8095053694127
30
0
41
1
10
-24
20
-4.98285124277228
30
0
41
1
10
-24
20
-5.19525677656026
30
0
41
1
10
-24
20
-5.44799891971269
30
0
41
1
10
-24
20
-5.69736372546626
30
0
41
1
10
-24
20
-5.90137602298265
30
0
41
1
10
-24
20
-6.0644015068855
30
0
41
1
10
-24
20
-6.1851475156806
30
0
41
1
10
-24
20
-6.30499537148731
30
0
41
1
10
-24
20
-6.46441033734266
30
0
41
1
10
-24
20
-6.65959438580623
30
0
41
1
10
-24
20
-6.85167858307042
30
0
41
1
10
-24
20
-7.00483382763792
30
0
41
1
10
-24
20
-7.11820195418233
30
0
41
1
10
-24
20
-7.2306178054078
30
0
41
1
10
-24
20
-7.34207852113332
30
0
41
1
10
-24
20
-7.45257387547733
30
0
41
1
10
-24
20
-7.59930464836137
30
0
41
1
10
-24
20
-7.74204572237986
30
0
41
1
10
-24
20
-7.88481230085068
30
0
41
1
10
-24
20
-8.02625870014725
30
0
41
1
10
-24
20
-8.19913346952643
30
0
41
1
10
-24
20
-8.36865254580422
30
0
41
1
10
-24
20
-8.50332879773273
30
0
41
1
10
-24
20
-8.63663898786112
30
0
41
1
10
-24
20
-8.76613375581505
30
0
41
1
10
-24
20
-8.87892111197036
30
0
41
1
10
-24
20
-8.94296710462893
30
0
41
1
10
-24
20
-9.00666455327519
30
0
41
1
10
-24
20
-9.08500599911847
30
0
41
1
10
-24
20
-9.20992961783276
30
0
41
1
10
-24
20
-9.33111733072479
30
0
41
1
10
-24
20
-9.45175015939358
30
0
41
1
10
-24
20
-9.54075475929304
30
0
41
1
10
-24
20
-9.62867743247332
30
0
41
1
10
-24
20
-9.71550990736878
30
0
41
1
10
-24
20
-9.80124635456619
30
0
41
1
10
-24
20
-9.88588281033205
30
0
41
1
10
-24
20
-9.9694122909747
30
0
41
1
10
-24
20
-10.0518274374696
30
0
41
1
10
-24
20
-10.1331238647016
30
0
41
1
10
-24
20
-10.240478300249
30
0
41
1
10
-24
20
-10.3442039980406
30
0
41
1
10
-24
20
-10.4469857502475
30
0
41
1
10
-24
20
-10.5225869730086
30
0
41
1
10
-24
20
-10.5844084741421
30
0
41
1
10
-24
20
-10.6336671988976
30
0
41
1
10
-24
20
-10.6825334589273
30
0
41
1
10
-24
20
-10.7424101865055
30
0
41
1
10
-24
20
-10.8133337727233
30
0
41
1
10
-24
20
-10.8830697936353
30
0
41
1
10
-24
20
-10.951609404873
30
0
41
1
10
-24
20
-11.0189464931514
30
0
41
1
10
-24
20
-11.1074991058536
30
0
41
1
10
-24
20
-11.2142799044294
30
0
41
1
10
-24
20
-11.3169609751522
30
0
41
1
10
-24
20
-11.3972466509688
30
0
41
1
10
-24
20
-11.4758394909226
30
0
41
1
10
-24
20
-11.5508590446085
30
0
41
1
10
-24
20
-11.6243139791192
30
0
41
1
10
-24
20
-11.6778530233414
30
0
41
1
10
-24
20
-11.7300826287653
30
0
41
1
10
-24
20
-11.7809904199398
30
0
41
1
10
-24
20
-11.8305656793297
30
0
41
1
10
-24
20
-11.8787992978642
30
0
41
1
10
-24
20
-11.925677948116
30
0
41
1
10
-24
20
-11.9866456736684
30
0
41
1
10
-24
20
-12.0440224201629
30
0
41
1
10
-24
20
-12.099415447517
30
0
41
1
10
-24
20
-12.1393440246738
30
0
41
1
10
-24
20
-12.1778433772408
30
0
41
1
10
-24
20
-12.2149010599454
30
0
41
1
10
-24
20
-12.250502752964
30
0
41
1
10
-24
20
-12.2962370828382
30
0
41
1
10
-24
20
-12.3383402824608
30
0
41
1
10
-24
20
-12.3780532736994
30
0
41
1
10
-24
20
-12.4061495785297
30
0
41
1
10
-24
20
-12.4326960530149
30
0
41
1
10
-24
20
-12.4661791203578
30
0
41
1
10
-24
20
-12.4959885477691
30
0
41
1
10
-24
20
-12.523037071398
30
0
41
1
10
-24
20
-12.5415673540695
30
0
41
1
10
-24
20
-12.55843663992
30
0
41
1
10
-24
20
-12.5736235086905
30
0
41
1
10
-24
20
-12.5871069547276
30
0
41
1
10
-24
20
-12.5988645879939
30
0
41
1
10
-24
20
-12.6088733436887
30
0
41
1
10
-24
20
-12.617109869821
30
0
41
1
10
-24
20
-12.6235493215145
30
0
41
1
10
-24
20
-12.6281667848456
30
0
41
1
10
-24
20
-12.630935840933
30
0
41
1
10
-24
20
-12.6318298800803
30
0
41
1
10
-24
20
-12.6311015699811
30
0
41
1
10
-24
20
-12.630272274973
30
0
41
1
10
-24
20
-12.6301456975465
30
0
0
SPLINE
5
16C
100
AcDbEntity
8
1
62
256
6
ByLayer
370
18
48
1
60
0
100
AcDbSpline
70
4
71
2
72
6
73
3
40
0
40
0
40
0
40
1
40
1
40
1
41
0.876721052514088
10
25.5819411472855
20
14.5834558889129
30
0
41
0.865836015393047
10
24.3591246631044
20
15.2208379968624
30
0
41
0.992660968364156
10
23.4807903010178
20
14.8101114030122
30
0
0
SPLINE
5
16D
100
AcDbEntity
8
1
62
256
6
ByLayer
370
18
48
1
60
0
100
AcDbSpline
70
4
71
3
72
9
73
5
40
0
40
0
40
0
40
0
40
0.783270084121226
40
1
40
1
40
1
40
1
41
1.02613459695995
10
22.464787415988
20
18.9531478373631
30
0
41
1.02613459695995
10
22.4244761689679
20
18.7067870249087
30
0
41
1.02613459695995
10
22.3921450659611
20
18.3841337410571
30
0
41
1.02613459695995
10
22.3843162102461
20
18.0575799670842
30
0
41
1.02613459695995
10
22.3840200892838
20
17.9862006675749
30
0
0
SPLINE
5
16E
100
AcDbEntity
8
1
62
256
6
ByLayer
370
18
48
1
60
0
100
AcDbSpline
70
4
71
3
72
8
73
4
40
0
40
0
40
0
40
0
40
1
40
1
40
1
40
1
41
1
10
22.2677299549765
20
18.5035189880692
30
0
41
1
10
22.2572001250142
20
18.4024359038054
30
0
41
1
10
22.2490953362852
20
18.3006264898381
30
0
41
1
10
22.2434185220205
20
18.1983486490277
30
0
0
SPLINE
5
16F
100
AcDbEntity
8
1
62
256
6
ByLayer
370
18
48
1
60
0
100
AcDbSpline
70
4
71
2
72
6
73
3
40
0
40
0
40
0
40
1
40
1
40
1
41
0.969976585166652
10
22.8758445348936
20
14.3774604951197
30
0
41
0.940947432414571
10
22.7223889592614
20
14.2093053068761
30
0
41
0.920872043308423
10
22.6168603851903
20
13.9907939731081
30
0
0
SPLINE
5
170
100
AcDbEntity
8
1
62
256
6
ByLayer
370
18
48
1
60
0
100
AcDbSpline
70
4
71
3
72
8
73
4
40
0
40
0
40
0
40
0
40
1
40
1
40
1
40
1
41
1
10
22.6168603851904
20
13.990793973108
30
0
41
1
10
22.5799371136567
20
14.063080012795
30
0
41
1
10
22.5444958818831
20
14.1360470509334
30
0
41
1
10
22.510553988913
20
14.2096391367648
30
0
0
SPLINE
5
171
100
AcDbEntity
8
1
62
256
6
ByLayer
370
18
48
1
60
0
100
AcDbSpline
70
4
71
3
72
8
73
4
40
0
40
0
40
0
40
0
40
1
40
1
40
1
40
1
41
1
10
22.2677299547098
20
18.5035189898577
30
0
41
1
10
22.2393014934697
20
18.4336204832524
30
0
41
1
10
22.2123375459865
20
18.363091507666
30
0
41
1
10
22.1868187039506
20
18.2920410703975
30
0
0
SPLINE
5
172
100
AcDbEntity
8
1
62
256
6
ByLayer
370
18
48
1
60
0
100
AcDbSpline
70
4
71
3
72
8
73
4
40
0
40
0
40
0
40
0
40
1
40
1
40
1
40
1
41
1
10
21.9309402687096
20
23.7516371804268
30
0
41
1
10
21.9578947691256
20
23.8628366216923
30
0
41
1
10
22.0074871767719
20
23.9762909634784
30
0
41
1
10
22.0809290567073
20
24.0921208864934
30
0
0
SPLINE
5
173
100
AcDbEntity
8
1
62
256
6
ByLayer
370
18
48
1
60
0
100
AcDbSpline
70
4
71
3
72
9
73
5
40
0
40
0
40
0
40
0
40
0.922073185550215
40
1
40
1
40
1
40
1
41
1
10
22.3640644374058
20
18.731454765943
30
0
41
1
10
22.3384661462309
20
18.5402234856391
30
0
41
1
10
22.3202900769793
20
18.3293529973997
30
0
41
1
10
22.3125337437806
20
18.1168238009995
30
0
41
1
10
22.3119958111795
20
18.1002465636973
30
0
0
SPLINE
5
174
100
AcDbEntity
8
1
62
256
6
ByLayer
370
18
48
1
60
0
100
AcDbSpline
70
4
71
3
72
10
73
6
40
0
40
0
40
0
40
0
40
0.626530936148194
40
0.626530936148194
40
1
40
1
40
1
40
1
41
1
10
28.4032313587388
20
17.0983702813594
30
0
41
1
10
28.2378246085285
20
16.9580153074303
30
0
41
1
10
28.0724086213846
20
16.7970076588026
30
0
41
1
10
27.8262863414121
20
16.500858743944
30
0
41
1
10
27.7376361317356
20
16.3802777455894
30
0
41
1
10
27.6567082284303
20
16.2510647625892
30
0
0
SPLINE
5
175
100
AcDbEntity
8
1
62
256
6
ByLayer
370
18
48
1
60
0
100
AcDbSpline
70
4
71
3
72
8
73
4
40
0
40
0
40
0
40
0
40
1
40
1
40
1
40
1
41
1
10
33.6710939290096
20
11.5457897277101
30
0
41
1
10
33.7070753749839
20
11.5716266373257
30
0
41
1
10
33.7433933722182
20
11.5976698210685
30
0
41
1
10
33.7799977799085
20
11.623882961419
30
0
0
SPLINE
5
176
100
AcDbEntity
8
1
62
256
6
ByLayer
370
18
48
1
60
0
100
AcDbSpline
70
4
71
3
72
10
73
6
40
0
40
0
40
0
40
0
40
0.560518156563271
40
0.560518156563271
40
1
40
1
40
1
40
1
41
1
10
44.0928129025136
20
16.3143104327579
30
0
41
1
10
44.3074997155247
20
16.648821669451
30
0
41
1
10
44.5441998238422
20
16.9670289123394
30
0
41
1
10
44.9809464573486
20
17.4523920247562
30
0
41
1
10
45.1817577286276
20
17.6407607387589
30
0
41
1
10
45.3759750727775
20
17.7950275228356
30
0
0
SPLINE
5
177
100
AcDbEntity
8
1
62
256
6
ByLayer
370
18
48
1
60
0
100
AcDbSpline
70
4
71
3
72
8
73
4
40
0
40
0
40
0
40
0
40
1
40
1
40
1
40
1
41
1
10
33.7502122369084
20
20.8889758902605
30
0
41
1
10
35.4895492667841
20
21.9138475311992
30
0
41
1
10
37.3595978941011
20
22.6443393936379
30
0
41
1
10
39.3341941038708
20
23.0835045759685
30
0
0
SPLINE
5
178
100
AcDbEntity
8
1
62
256
6
ByLayer
370
18
48
1
60
0
100
AcDbSpline
70
4
71
3
72
8
73
4
40
0
40
0
40
0
40
0
40
1
40
1
40
1
40
1
41
1
10
39.2528839160338
20
14.1299298102936
30
0
41
1
10
39.0871254362147
20
13.9508535100598
30
0
41
1
10
38.8998540559969
20
13.7854724047197
30
0
41
1
10
38.6982437645543
20
13.6448669297002
30
0
0
SPLINE
5
179
100
AcDbEntity
8
1
62
256
6
ByLayer
370
18
48
1
60
0
100
AcDbSpline
70
4
71
3
72
16
73
12
40
0
40
0
40
0
40
0
40
0.28382542465983
40
0.28382542465983
40
0.572792249827487
40
0.572792249827487
40
0.572792249827487
40
0.894188232602855
40
0.894188232602855
40
0.894188232602855
40
1
40
1
40
1
40
1
41
1
10
35.4920110769903
20
19.4798179758837
30
0
41
1
10
35.8209734341988
20
19.6159127260662
30
0
41
1
10
36.1780430395635
20
19.7031536091565
30
0
41
1
10
36.8967957757321
20
19.7732693635905
30
0
41
1
10
37.2676672377405
20
19.7558475914948
30
0
41
1
10
37.6229018622217
20
19.6836586526585
30
0
41
1
10
38.0156934668577
20
19.603837579012
30
0
41
1
10
38.4036321765467
20
19.4522647577457
30
0
41
1
10
38.7403938993345
20
19.230183073182
30
0
41
1
10
38.8533240169067
20
19.1557099099591
30
0
41
1
10
38.9614509915971
20
19.0729072767071
30
0
41
1
10
39.0624076372682
20
18.9830532285075
30
0
0
SPLINE
5
17A
100
AcDbEntity
8
1
62
256
6
ByLayer
370
18
48
1
60
0
100
AcDbSpline
70
4
71
3
72
8
73
4
40
0
40
0
40
0
40
0
40
1
40
1
40
1
40
1
41
1
10
37.3564635486608
20
12.7090930499169
30
0
41
1
10
36.797259166151
20
12.3190970964705
30
0
41
1
10
36.1537203464379
20
12.1418578859195
30
0
41
1
10
35.5180882622235
20
12.1778314905441
30
0
0
SPLINE
5
17B
100
AcDbEntity
8
1
62
256
6
ByLayer
370
18
48
1
60
0
100
AcDbSpline
70
4
71
3
72
8
73
4
40
0
40
0
40
0
40
0
40
1
40
1
40
1
40
1
41
1
10
44.0928129025136
20
16.3143104327579
30
0
41
1
10
43.0096176582347
20
14.6265450052417
30
0
41
1
10
41.6688189195728
20
13.1114821064328
30
0
41
1
10
40.112480869086
20
11.838570008883
30
0
0
SPLINE
5
17C
100
AcDbEntity
8
1
62
256
6
ByLayer
370
18
48
1
60
0
100
AcDbSpline
70
4
71
3
72
8
73
4
40
0
40
0
40
0
40
0
40
1
40
1
40
1
40
1
41
1
10
31.1414864972819
20
15.1441876108011
30
0
41
1
10
30.2631098312589
20
14.9987952048986
30
0
41
1
10
29.4858956930809
20
14.8340845783499
30
0
41
1
10
28.9710388879108
20
14.6513951895727
30
0
0
SPLINE
5
17D
100
AcDbEntity
8
1
62
256
6
ByLayer
370
18
48
1
60
0
100
AcDbSpline
70
4
71
3
72
8
73
4
40
0
40
0
40
0
40
0
40
1
40
1
40
1
40
1
41
1
10
42.0955276232882
20
23.8946595066332
30
0
41
1
10
41.179633983336
20
23.1513452376686
30
0
41
1
10
41.3605385994503
20
21.9935529623833
30
0
41
1
10
40.6135260877533
20
21.1650181191588
30
0
0
SPLINE
5
17E
100
AcDbEntity
8
1
62
256
6
ByLayer
370
18
48
1
60
0
100
AcDbSpline
70
4
71
3
72
8
73
4
40
0
40
0
40
0
40
0
40
1
40
1
40
1
40
1
41
1
10
35.492011059575
20
19.4798179684877
30
0
41
1
10
35.2635009983055
20
19.382774298549
30
0
41
1
10
35.0478649948108
20
19.2647904392198
30
0
41
1
10
34.8463415389691
20
19.1242455244069
30
0
0
SPLINE
5
17F
100
AcDbEntity
8
1
62
256
6
ByLayer
370
18
48
1
60
0
100
AcDbSpline
70
4
71
3
72
10
73
6
40
0
40
0
40
0
40
0
40
0.106616270583437
40
0.106616270583437
40
1
40
1
40
1
40
1
41
1
10
43.2436505520843
20
20.8631902358386
30
0
41
1
10
43.2215958089656
20
20.831968725334
30
0
41
1
10
43.199653339738
20
20.8005089744416
30
0
41
1
10
42.9951587668015
20
20.5035723989051
30
0
41
1
10
42.8203004912026
20
20.2213506904389
30
0
41
1
10
42.6548689318423
20
19.9250497199539
30
0
0
SPLINE
5
180
100
AcDbEntity
8
1
62
256
6
ByLayer
370
18
48
1
60
0
100
AcDbSpline
70
4
71
3
72
8
73
4
40
0
40
0
40
0
40
0
40
1
40
1
40
1
40
1
41
1
10
41.1859446054795
20
23.755397726727
30
0
41
1
10
41.2381940844704
20
23.7849045448326
30
0
41
1
10
41.2908647080858
20
23.8137513470528
30
0
41
1
10
41.3439250462066
20
23.8419539845898
30
0
0
SPLINE
5
181
100
AcDbEntity
8
1
62
256
6
ByLayer
370
18
48
1
60
0
100
AcDbSpline
70
4
71
2
72
6
73
3
40
0
40
0
40
0
40
1
40
1
40
1
41
1.01212826498425
10
45.514756861241
20
17.907836904818
30
0
41
1.01163342726426
10
45.6754135370285
20
18.2454598834639
30
0
41
1.01103575694871
10
45.8195828745082
20
18.588487125791
30
0
0
SPLINE
5
182
100
AcDbEntity
8
1
62
256
6
ByLayer
370
18
48
1
60
0
100
AcDbSpline
70
4
71
3
72
12
73
8
40
0
40
0
40
0
40
0
40
0.501637567130157
40
0.501637567130157
40
0.886957471304443
40
0.886957471304443
40
1
40
1
40
1
40
1
41
1
10
33.7799977799085
20
11.623882961419
30
0
41
1
10
33.9468179859567
20
11.7433462105293
30
0
41
1
10
34.1321902677476
20
11.8549240093409
30
0
41
1
10
34.4796891701098
20
12.0145042869925
30
0
41
1
10
34.6407542175711
20
12.0724103057335
30
0
41
1
10
34.8472483097181
20
12.1232583113767
30
0
41
1
10
34.8946008478482
20
12.1333556855995
30
0
41
1
10
34.941534644412
20
12.1417827392649
30
0
0
SPLINE
5
183
100
AcDbEntity
8
1
62
256
6
ByLayer
370
18
48
1
60
0
100
AcDbSpline
70
4
71
2
72
8
73
5
40
0
40
0
40
0
40
0.581603760044146
40
0.872405640066219
40
1
40
1
40
1
41
1.02990374504916
10
34.4051730068458
20
20.5151968053713
30
0
41
1.02669755169729
10
36.1320273958378
20
20.9045003098193
30
0
41
1.02039724512338
10
38.8726637666538
20
21.1401120290439
30
0
41
1.01761724169577
10
40.2383089367729
20
21.1258670311651
30
0
41
1.01686274329252
10
40.6135260877532
20
21.1650181191587
30
0
0
SPLINE
5
184
100
AcDbEntity
8
1
62
256
6
ByLayer
370
18
48
1
60
0
100
AcDbSpline
70
4
71
3
72
10
73
6
40
0
40
0
40
0
40
0
40
0.679966690484304
40
0.679966690484304
40
1
40
1
40
1
40
1
41
1
10
32.3637746286734
20
16.6648816783354
30
0
41
1
10
32.3256357370652
20
16.5439846879131
30
0
41
1
10
32.2767564226147
20
16.4235137488515
30
0
41
1
10
32.1905497612539
20
16.2513384254061
30
0
41
1
10
32.1606663311873
20
16.1967210558441
30
0
41
1
10
32.1287245838279
20
16.1430398673838
30
0
0
SPLINE
5
185
100
AcDbEntity
8
1
62
256
6
ByLayer
370
18
48
1
60
0
100
AcDbSpline
70
4
71
3
72
25
73
21
40
0
40
0
40
0
40
0
40
0.442411593548775
40
0.442411593548775
40
0.442411593548775
40
0.583396916265374
40
0.583396916265374
40
0.651602530488655
40
0.651602530488655
40
0.706341521306449
40
0.706341521306449
40
0.742475286987738
40
0.742475286987738
40
0.778972968742932
40
0.778972968742932
40
0.811539464980179
40
0.811539464980179
40
0.868309796146655
40
0.868309796146655
40
1
40
1
40
1
40
1
41
1
10
42.6548689318423
20
19.9250497199539
30
0
41
1
10
42.5009209135794
20
19.6491204014048
30
0
41
1
10
42.3617252404209
20
19.3327011294687
30
0
41
1
10
42.2777963742989
20
18.9861155621371
30
0
41
1
10
42.2505507052304
20
18.8736041449367
30
0
41
1
10
42.2288597440546
20
18.756283269773
30
0
41
1
10
42.2139824729643
20
18.5807577079658
30
0
41
1
10
42.2118793450408
20
18.5225367160248
30
0
41
1
10
42.2167022463531
20
18.4204238465813
30
0
41
1
10
42.2220155293077
20
18.3750860561798
30
0
41
1
10
42.2391468342746
20
18.3071132905103
30
0
41
1
10
42.2483862184903
20
18.2815469762315
30
0
41
1
10
42.2718097163162
20
18.2387160319416
30
0
41
1
10
42.2864148664802
20
18.2211106189589
30
0
41
1
10
42.3167144006648
20
18.1983861497379
30
0
41
1
10
42.3324119333712
20
18.1917637498689
30
0
41
1
10
42.3758867066642
20
18.1830782250097
30
0
41
1
10
42.4047127801073
20
18.1873621867471
30
0
41
1
10
42.4974707392353
20
18.2169737905233
30
0
41
1
10
42.560555571452
20
18.2609206861841
30
0
41
1
10
42.6214599318744
20
18.3087073714531
30
0
0
SPLINE
5
186
100
AcDbEntity
8
1
62
256
6
ByLayer
370
18
48
1
60
0
100
AcDbSpline
70
4
71
3
72
16
73
12
40
0
40
0
40
0
40
0
40
0.346164403850464
40
0.346164403850464
40
0.574058138681868
40
0.574058138681868
40
0.756733946461147
40
0.756733946461147
40
0.941193093213316
40
0.941193093213316
40
1
40
1
40
1
40
1
41
1
10
34.8195920836828
20
8.26387589017068
30
0
41
1
10
34.558371393484
20
8.20929595406525
30
0
41
1
10
34.3327669566941
20
8.23568537383278
30
0
41
1
10
33.9191153090147
20
8.35646383081513
30
0
41
1
10
33.7389216786297
20
8.42870534323143
30
0
41
1
10
33.3878146416195
20
8.61640235168122
30
0
41
1
10
33.2196252416866
20
8.72306990159797
30
0
41
1
10
32.8887210301931
20
8.98030083628771
30
0
41
1
10
32.7213095417711
20
9.1360298727308
30
0
41
1
10
32.5226661509539
20
9.35743214281743
30
0
41
1
10
32.4753250055702
20
9.41323925276865
30
0
41
1
10
32.4299324071045
20
9.46943706714177
30
0
0
SPLINE
5
187
100
AcDbEntity
8
1
62
256
6
ByLayer
370
18
48
1
60
0
100
AcDbSpline
70
4
71
2
72
8
73
5
40
0
40
0
40
0
40
0.145991510275426
40
0.563470207592131
40
1
40
1
40
1
41
1.02393576174177
10
39.0624076368044
20
18.9830532282449
30
0
41
1.02323174907605
10
39.2932051575951
20
19.1137653621674
30
0
41
1.02039724512338
10
40.1823677854003
20
19.6093356342733
30
0
41
1.01644464721292
10
41.5135503662313
20
20.2700459105478
30
0
41
1.01495409538139
10
42.1409847005061
20
20.6560563999194
30
0
0
SPLINE
5
188
100
AcDbEntity
8
1
62
256
6
ByLayer
370
18
48
1
60
0
100
AcDbSpline
70
4
71
3
72
16
73
12
40
0
40
0
40
0
40
0
40
0.151798394921707
40
0.151798394921707
40
0.302355402833642
40
0.302355402833642
40
0.469907609657966
40
0.469907609657966
40
0.750934341340613
40
0.750934341340613
40
1
40
1
40
1
40
1
41
1
10
28.822339674219
20
14.6012823844223
30
0
41
1
10
28.7262967660135
20
14.7592101059526
30
0
41
1
10
28.6381920477735
20
14.9280181398027
30
0
41
1
10
28.4973481683197
20
15.2584060298073
30
0
41
1
10
28.4419907746764
20
15.4244110255265
30
0
41
1
10
28.3580390210624
20
15.7543798337589
30
0
41
1
10
28.331851731709
20
15.9195381755976
30
0
41
1
10
28.298748884927
20
16.3150727639485
30
0
41
1
10
28.3123850124774
20
16.5201539547994
30
0
41
1
10
28.3909386624536
20
16.8643056499376
30
0
41
1
10
28.4517053979573
20
17.0151083531001
30
0
41
1
10
28.5594510796082
20
17.1690039564374
30
0
0
SPLINE
5
189
100
AcDbEntity
8
1
62
256
6
ByLayer
370
18
48
1
60
0
100
AcDbSpline
70
4
71
3
72
8
73
4
40
0
40
0
40
0
40
0
40
1
40
1
40
1
40
1
41
1
10
32.3637746286734
20
16.6648816783354
30
0
41
1
10
32.5516204503822
20
17.2603366994548
30
0
41
1
10
32.9525327257905
20
17.8034801712706
30
0
41
1
10
33.5045613230755
20
18.1884716446236
30
0
0
SPLINE
5
18A
100
AcDbEntity
8
1
62
256
6
ByLayer
370
18
48
1
60
0
100
AcDbSpline
70
4
71
3
72
12
73
8
40
0
40
0
40
0
40
0
40
0.415356444741149
40
0.415356444741149
40
0.825259843212191
40
0.825259843212191
40
1
40
1
40
1
40
1
41
1
10
32.1287245838279
20
16.1430398673838
30
0
41
1
10
32.0411614982202
20
15.9958816531579
30
0
41
1
10
31.9305032415209
20
15.8488633074535
30
0
41
1
10
31.6908412574846
20
15.5845021793972
30
0
41
1
10
31.5592599852771
20
15.4629438985786
30
0
41
1
10
31.3675395737202
20
15.3085609887991
30
0
41
1
10
31.3091190845158
20
15.264337654203
30
0
41
1
10
31.2503903481808
20
15.2222808445099
30
0
0
SPLINE
5
18B
100
AcDbEntity
8
1
62
256
6
ByLayer
370
18
48
1
60
0
100
AcDbSpline
70
4
71
3
72
24
73
20
40
0
40
0
40
0
40
0
40
0.142613444608221
40
0.142613444608221
40
0.190795218269489
40
0.190795218269489
40
0.226951176162321
40
0.226951176162321
40
0.263437466712854
40
0.263437466712854
40
0.296119365572353
40
0.296119365572353
40
0.352324850832283
40
0.352324850832283
40
0.455294648588102
40
0.455294648588102
40
0.662705158043632
40
0.662705158043632
40
1
40
1
40
1
40
1
41
1
10
40.6135260877533
20
21.1650181191588
30
0
41
1
10
40.5403985761686
20
21.1242708735039
30
0
41
1
10
40.4697000260575
20
21.0798178214715
30
0
41
1
10
40.4120469306549
20
21.0048449953032
30
0
41
1
10
40.400872541555
20
20.9840352722709
30
0
41
1
10
40.3938292970757
20
20.9449486560532
30
0
41
1
10
40.3949735378776
20
20.9269723094349
30
0
41
1
10
40.4082357003717
20
20.8908534342527
30
0
41
1
10
40.420742895254
20
20.8722564162875
30
0
41
1
10
40.4528448858565
20
20.8394949695651
30
0
41
1
10
40.4717998870887
20
20.824686771547
30
0
41
1
10
40.5282298823005
20
20.7880621928958
30
0
41
1
10
40.5700070465106
20
20.7680317432338
30
0
41
1
10
40.6914543345633
20
20.7195170621132
30
0
41
1
10
40.7764941416821
20
20.6962178798253
30
0
41
1
10
41.0296577778411
20
20.6413696297511
30
0
41
1
10
41.2020555599978
20
20.6235786105126
30
0
41
1
10
41.6370279517858
20
20.6050256895695
30
0
41
1
10
41.8973621011546
20
20.6222792514167
30
0
41
1
10
42.1409847004887
20
20.6560563999087
30
0
0
SPLINE
5
18C
100
AcDbEntity
8
1
62
256
6
ByLayer
370
18
48
1
60
0
100
AcDbSpline
70
4
71
3
72
10
73
6
40
0
40
0
40
0
40
0
40
0.20784579536769
40
0.20784579536769
40
1
40
1
40
1
40
1
41
1
10
34.941534644412
20
12.1417827392649
30
0
41
1
10
34.9818637878024
20
12.1490239147187
30
0
41
1
10
35.0222754749823
20
12.1552908872608
30
0
41
1
10
35.2153021804423
20
12.1805025601545
30
0
41
1
10
35.3688254341221
20
12.1862790219016
30
0
41
1
10
35.5180882622235
20
12.1778314905441
30
0
0
SPLINE
5
18D
100
AcDbEntity
8
1
62
256
6
ByLayer
370
18
48
1
60
0
100
AcDbSpline
70
4
71
3
72
8
73
4
40
0
40
0
40
0
40
0
40
1
40
1
40
1
40
1
41
1
10
28.8703428332789
20
14.5279248693311
30
0
41
1
10
28.8533688952637
20
14.552070506261
30
0
41
1
10
28.8373925774055
20
14.5765302111793
30
0
41
1
10
28.822339674219
20
14.6012823844223
30
0
0
SPLINE
5
18E
100
AcDbEntity
8
1
62
256
6
ByLayer
370
18
48
1
60
0
100
AcDbSpline
70
4
71
3
72
14
73
10
40
0
40
0
40
0
40
0
40
0.26293248248933
40
0.26293248248933
40
0.526305718382448
40
0.526305718382448
40
0.786105451116563
40
0.786105451116563
40
1
40
1
40
1
40
1
41
1
10
46.1999249152036
20
20.8574240982532
30
0
41
1
10
46.2737575721349
20
20.9573007023069
30
0
41
1
10
46.340095939559
20
21.0777388579904
30
0
41
1
10
46.4452126286986
20
21.3432864287112
30
0
41
1
10
46.4852531283405
20
21.4918480911269
30
0
41
1
10
46.534733941879
20
21.7926583542395
30
0
41
1
10
46.5453407518594
20
21.9483079005374
30
0
41
1
10
46.5418348056681
20
22.2244605864139
30
0
41
1
10
46.5318862054002
20
22.3482175861884
30
0
41
1
10
46.5151219734139
20
22.4674914153348
30
0
0
SPLINE
5
18F
100
AcDbEntity
8
1
62
256
6
ByLayer
370
18
48
1
60
0
100
AcDbSpline
70
4
71
3
72
10
73
6
40
0
40
0
40
0
40
0
40
0.715855354518053
40
0.715855354518053
40
1
40
1
40
1
40
1
41
1
10
35.0364909662938
20
8.21983054581241
30
0
41
1
10
34.7912979663439
20
8.0384139937056
30
0
41
1
10
34.4997663727916
20
7.85995718981812
30
0
41
1
10
34.0312637101705
20
7.67420163173026
30
0
41
1
10
33.8901144498844
20
7.62830118270062
30
0
41
1
10
33.7432295998926
20
7.59291277277643
30
0
0
SPLINE
5
190
100
AcDbEntity
8
1
62
256
6
ByLayer
370
18
48
1
60
0
100
AcDbSpline
70
4
71
3
72
12
73
8
40
0
40
0
40
0
40
0
40
0.307573270173408
40
0.307573270173408
40
0.648852820657657
40
0.648852820657657
40
1
40
1
40
1
40
1
41
1
10
39.0624076372682
20
18.9830532285075
30
0
41
1
10
39.1870867665249
20
18.8720569738116
30
0
41
1
10
39.3042901335501
20
18.7516950525824
30
0
41
1
10
39.5316885455428
20
18.4824074707335
30
0
41
1
10
39.6404910235575
20
18.3308724071835
30
0
41
1
10
39.8348855713609
20
18.0095599749146
30
0
41
1
10
39.9204151702197
20
17.8382259034383
30
0
41
1
10
39.9909934340851
20
17.6621284385114
30
0
0
SPLINE
5
191
100
AcDbEntity
8
1
62
256
6
ByLayer
370
18
48
1
60
0
100
AcDbSpline
70
4
71
3
72
15
73
11
40
0
40
0
40
0
40
0
40
0.225043240787981
40
0.225043240787981
40
0.52048282722711
40
0.52048282722711
40
0.820975208236874
40
0.820975208236874
40
0.820975208236874
40
1
40
1
40
1
40
1
41
1
10
39.9909934340851
20
17.6621284385114
30
0
41
1
10
40.0962021325983
20
17.3995323421338
30
0
41
1
10
40.1615697067431
20
17.1153083318584
30
0
41
1
10
40.2196468815289
20
16.461837310867
30
0
41
1
10
40.1861211869263
20
16.0824435012785
30
0
41
1
10
40.0083018488698
20
15.355054888762
30
0
41
1
10
39.8594699698913
20
14.9965507649181
30
0
41
1
10
39.6619839275678
20
14.6737106671739
30
0
41
1
10
39.5433626475832
20
14.4797946558233
30
0
41
1
10
39.4057189124026
20
14.2962702237266
30
0
41
1
10
39.2528839160338
20
14.1299298102936
30
0
0
SPLINE
5
192
100
AcDbEntity
8
1
62
256
6
ByLayer
370
18
48
1
60
0
100
AcDbSpline
70
4
71
3
72
12
73
8
40
0
40
0
40
0
40
0
40
0.391502209781614
40
0.391502209781614
40
0.886018843801027
40
0.886018843801027
40
1
40
1
40
1
40
1
41
1
10
32.5205822680998
20
9.60212579503721
30
0
41
1
10
32.6464712570202
20
9.77880816859962
30
0
41
1
10
32.7864359815436
20
9.9965178413336
30
0
41
1
10
33.1199430981929
20
10.5481558506793
30
0
41
1
10
33.3217130859741
20
10.9039033903499
30
0
41
1
10
33.574697991754
20
11.3671350282952
30
0
41
1
10
33.6227947719266
20
11.4559405207695
30
0
41
1
10
33.6710939290103
20
11.5457897277096
30
0
0
SPLINE
5
193
100
AcDbEntity
8
1
62
256
6
ByLayer
370
18
48
1
60
0
100
AcDbSpline
70
4
71
1
72
4
73
2
40
0
40
0
40
1
40
1
41
1
10
34.4051730068458
20
20.5151968053712
30
0
41
1
10
33.7502122369084
20
20.8889758902605
30
0
0
SPLINE
5
194
100
AcDbEntity
8
1
62
256
6
ByLayer
370
18
48
1
60
0
100
AcDbSpline
70
4
71
2
72
6
73
3
40
0
40
0
40
0
40
1
40
1
40
1
41
0.932817050425109
10
39.2528839415371
20
14.1299297652127
30
0
41
0.929591664905397
10
39.8068313654475
20
13.1507469630142
30
0
41
1.02990374504916
10
39.9181251491066
20
12.6729541437325
30
0
0
SPLINE
5
195
100
AcDbEntity
8
1
62
256
6
ByLayer
370
18
48
1
60
0
100
AcDbSpline
70
4
71
3
72
8
73
4
40
0
40
0
40
0
40
0
40
1
40
1
40
1
40
1
41
1
10
34.941534644412
20
12.1417827392649
30
0
41
1
10
34.9782237597921
20
10.8793430746002
30
0
41
1
10
34.94666781866
20
9.72788095347971
30
0
41
1
10
34.7883346842384
20
9.09537573787688
30
0
0
SPLINE
5
196
100
AcDbEntity
8
1
62
256
6
ByLayer
370
18
48
1
60
0
100
AcDbSpline
70
4
71
3
72
8
73
4
40
0
40
0
40
0
40
0
40
1
40
1
40
1
40
1
41
1
10
45.5150568476725
20
17.90846736677
30
0
41
1
10
45.4691729555424
20
17.8700561459875
30
0
41
1
10
45.4228136606397
20
17.8322314005419
30
0
41
1
10
45.3759750727775
20
17.7950275228356
30
0
0
SPLINE
5
197
100
AcDbEntity
8
1
62
256
6
ByLayer
370
18
48
1
60
0
100
AcDbSpline
70
4
71
3
72
11
73
7
40
0
40
0
40
0
40
0
40
0.559926195718575
40
0.559926195718575
40
0.559926195718575
40
1
40
1
40
1
40
1
41
1
10
41.1859446054795
20
23.755397726727
30
0
41
1
10
40.9114813190794
20
23.6004002334527
30
0
41
1
10
40.5815019774819
20
23.4524362010623
30
0
41
1
10
40.2255813979405
20
23.3308081866895
30
0
41
1
10
39.943827151577
20
23.234524882222
30
0
41
1
10
39.6413584502748
20
23.1518202576894
30
0
41
1
10
39.3341941038709
20
23.0835045759685
30
0
0
SPLINE
5
198
100
AcDbEntity
8
1
62
256
6
ByLayer
370
18
48
1
60
0
100
AcDbSpline
70
4
71
3
72
10
73
6
40
0
40
0
40
0
40
0
40
0.759976532001898
40
0.759976532001898
40
1
40
1
40
1
40
1
41
1
10
42.1409847004887
20
20.6560563999087
30
0
41
1
10
42.4306679399
20
20.6963027414413
30
0
41
1
10
42.7133425256602
20
20.7459424814389
30
0
41
1
10
43.0733855099288
20
20.8233004039973
30
0
41
1
10
43.158978305631
20
20.8427940713486
30
0
41
1
10
43.2436505520843
20
20.8631902358386
30
0
0
SPLINE
5
199
100
AcDbEntity
8
1
62
256
6
ByLayer
370
18
48
1
60
0
100
AcDbSpline
70
4
71
3
72
14
73
10
40
0
40
0
40
0
40
0
40
0.304391776008985
40
0.304391776008985
40
0.577373879687167
40
0.577373879687167
40
0.851610378463918
40
0.851610378463918
40
1
40
1
40
1
40
1
41
1
10
45.98884290073
20
23.2161299105054
30
0
41
1
10
45.8398726255859
20
23.2931888090928
30
0
41
1
10
45.6764220236504
20
23.3614841021254
30
0
41
1
10
45.3546951484707
20
23.4606547464
30
0
41
1
10
45.1938623283933
20
23.4953865878331
30
0
41
1
10
44.8804810610011
20
23.5306907826191
30
0
41
1
10
44.723782460857
20
23.5314256189682
30
0
41
1
10
44.5041275207597
20
23.5063740942374
30
0
41
1
10
44.4297407598134
20
23.4925030664948
30
0
41
1
10
44.3603113469865
20
23.4742971697628
30
0
0
SPLINE
5
19A
100
AcDbEntity
8
1
62
256
6
ByLayer
370
18
48
1
60
0
100
AcDbSpline
70
4
71
2
72
6
73
3
40
0
40
0
40
0
40
1
40
1
40
1
41
1.02990374504916
10
39.9181251491066
20
12.6729541437325
30
0
41
1.02990374504916
10
40.0153030090963
20
12.2557620763078
30
0
41
1.02990374504916
10
40.112480869086
20
11.838570008883
30
0
0
SPLINE
5
19B
100
AcDbEntity
8
1
62
256
6
ByLayer
370
18
48
1
60
0
100
AcDbSpline
70
4
71
3
72
8
73
4
40
0
40
0
40
0
40
0
40
1
40
1
40
1
40
1
41
1
10
32.3772985909014
20
9.53923689504583
30
0
41
1
10
32.3942725289166
20
9.51509125811586
30
0
41
1
10
32.4118309605569
20
9.49184736677989
30
0
41
1
10
32.4299324071045
20
9.46943706714177
30
0
0
SPLINE
5
19C
100
AcDbEntity
8
1
62
256
6
ByLayer
370
18
48
1
60
0
100
AcDbSpline
70
4
71
2
72
8
73
5
40
0
40
0
40
0
40
0.14599151027804
40
0.563470207586081
40
1
40
1
40
1
41
1.02393576174182
10
39.9909934337048
20
17.6621284381951
30
0
41
1.02323174907608
10
40.1946338749001
20
17.8314718540112
30
0
41
1.02039724512338
10
40.9727677554728
20
18.4849818933742
30
0
41
1.01644464721285
10
42.0656272189672
20
19.4847097539761
30
0
41
1.01495409538129
10
42.6548689318992
20
19.9250497199965
30
0
0
SPLINE
5
19D
100
AcDbEntity
8
1
62
256
6
ByLayer
370
18
48
1
60
0
100
AcDbSpline
70
4
71
2
72
6
73
3
40
0
40
0
40
0
40
1
40
1
40
1
41
1.02990374504916
10
34.4051730068458
20
20.5151968053713
30
0
41
0.929591662588769
10
34.7802227563844
20
20.3011599368977
30
0
41
0.932817050574084
10
35.4920110769827
20
19.4798179758924
30
0
0
SPLINE
5
19E
100
AcDbEntity
8
1
62
256
6
ByLayer
370
18
48
1
60
0
100
AcDbSpline
70
4
71
2
72
8
73
5
40
0
40
0
40
0
40
0.581603760070721
40
0.872405640106081
40
1
40
1
40
1
41
1.02990374504916
10
39.9181251491066
20
12.6729541437325
30
0
41
1.02669755169729
10
40.8618147183883
20
14.1763192989331
30
0
41
1.02039724512338
10
42.0078997905101
20
16.6801999777905
30
0
41
1.01761724169608
10
42.4560542635377
20
17.9710968526344
30
0
41
1.01686274329306
10
42.6214599318744
20
18.308707371453
30
0
0
SPLINE
5
19F
100
AcDbEntity
8
1
62
256
6
ByLayer
370
18
48
1
60
0
100
AcDbSpline
70
4
71
3
72
8
73
4
40
0
40
0
40
0
40
0
40
1
40
1
40
1
40
1
41
1
10
31.2503903481808
20
15.2222808445099
30
0
41
1
10
31.2137859404906
20
15.1960677041595
30
0
41
1
10
31.1774679432558
20
15.1700245204164
30
0
41
1
10
31.1414864972814
20
15.1441876108008
30
0
0
SPLINE
5
1A0
100
AcDbEntity
8
1
62
256
6
ByLayer
370
18
48
1
60
0
100
AcDbSpline
70
4
71
2
72
6
73
3
40
0
40
0
40
0
40
1
40
1
40
1
41
1.01103575695168
10
42.0896361988575
20
23.8943824388113
30
0
41
1.01163342726563
10
41.7167023180356
20
23.8767755922369
30
0
41
1.01212826498448
10
41.3432276421452
20
23.8418888542195
30
0
0
SPLINE
5
1A1
100
AcDbEntity
8
1
62
256
6
ByLayer
370
18
48
1
60
0
100
AcDbSpline
70
4
71
3
72
12
73
8
40
0
40
0
40
0
40
0
40
0.369659083875783
40
0.369659083875783
40
0.727704501586109
40
0.727704501586109
40
1
40
1
40
1
40
1
41
1
10
29.2753825419777
20
16.9376183995156
30
0
41
1
10
29.4987179567511
20
16.931156068022
30
0
41
1
10
29.7925048839751
20
16.8814708957663
30
0
41
1
10
30.4500498400228
20
16.7203511153587
30
0
41
1
10
30.8191216901886
20
16.609167941188
30
0
41
1
10
31.5026012905294
20
16.3776788243906
30
0
41
1
10
31.8134239424754
20
16.2644137610796
30
0
41
1
10
32.1287245838278
20
16.1430398673837
30
0
0
SPLINE
5
1A2
100
AcDbEntity
8
1
62
256
6
ByLayer
370
18
48
1
60
0
100
AcDbSpline
70
4
71
3
72
8
73
4
40
0
40
0
40
0
40
0
40
1
40
1
40
1
40
1
41
1
10
42.6214599318744
20
18.3087073714531
30
0
41
1
10
43.6963235086543
20
18.6702028950364
30
0
41
1
10
44.7670720065857
20
18.0397935090321
30
0
41
1
10
45.8218593747409
20
18.5939064683409
30
0
0
SPLINE
5
1A3
100
AcDbEntity
8
1
62
256
6
ByLayer
370
18
48
1
60
0
100
AcDbSpline
70
4
71
2
72
6
73
3
40
0
40
0
40
0
40
1
40
1
40
1
41
1.02613459695995
10
28.4359697598365
20
19.8602816429857
30
0
41
0.956794755309316
10
28.0336232965263
20
20.4326244672855
30
0
41
0.919449908129888
10
27.536283320052
20
20.8933349610632
30
0
0
SPLINE
5
1A4
100
AcDbEntity
8
1
62
256
6
ByLayer
370
18
48
1
60
0
100
AcDbSpline
70
4
71
3
72
16
73
12
40
0
40
0
40
0
40
0
40
0.114691258188362
40
0.114691258188362
40
0.256006982052503
40
0.256006982052503
40
0.47848150969845
40
0.47848150969845
40
0.904237458570186
40
0.904237458570186
40
1
40
1
40
1
40
1
41
1
10
9.0767949192431
20
-19.1222825906926
30
0
41
1
10
9.09376079941589
20
-19.1222825906926
30
0
41
1
10
9.11093746787589
20
-19.1213397893258
30
0
41
1
10
9.14653890153815
20
-19.117563257367
30
0
41
1
10
9.1649283126321
20
-19.1143205262483
30
0
41
1
10
9.20694798227834
20
-19.1044641374228
30
0
41
1
10
9.22859635065211
20
-19.0968571256395
30
0
41
1
10
9.28185513895582
20
-19.0732678361841
30
0
41
1
10
9.30640600056208
20
-19.0554522237109
30
0
41
1
10
9.32912053427441
20
-19.0329978954363
30
0
41
1
10
9.33300496589203
20
-19.0288038685174
30
0
41
1
10
9.33660254037846
20
-19.0245744101322
30
0
0
SPLINE
5
1A5
100
AcDbEntity
8
1
62
256
6
ByLayer
370
18
48
1
60
0
100
AcDbSpline
70
4
71
2
72
6
73
3
40
0
40
0
40
0
40
1
40
1
40
1
41
0.876721052514041
10
31.4964568490507
20
6.16998409332425
30
0
41
0.864489916912266
10
31.6774255496432
20
4.67224618539357
30
0
41
1.02613459695995
10
30.7739340281473
20
4.08230508648116
30
0
0
SPLINE
5
1A6
100
AcDbEntity
8
1
62
256
6
ByLayer
370
18
48
1
60
0
100
AcDbSpline
70
4
71
3
72
12
73
8
40
0
40
0
40
0
40
0
40
0.413171019201418
40
0.413171019201418
40
0.80694005952156
40
0.80694005952156
40
1
40
1
40
1
40
1
41
1
10
6.9232050807569
20
10.9457877206429
30
0
41
1
10
6.88038677978338
20
10.9651318444263
30
0
41
1
10
6.83806656446751
20
10.9925407650872
30
0
41
1
10
6.7633782730862
20
11.0559851766987
30
0
41
1
10
6.72940750773819
20
11.0925636909433
30
0
41
1
10
6.68714539754129
20
11.1509795078407
30
0
41
1
10
6.67435574375281
20
11.1711960626374
30
0
41
1
10
6.66339745962156
20
11.19157847055
30
0
0
SPLINE
5
1A7
100
AcDbEntity
8
1
62
256
6
ByLayer
370
18
48
1
60
0
100
AcDbSpline
70
4
71
3
72
16
73
12
40
0
40
0
40
0
40
0
40
0.114691258188364
40
0.114691258188364
40
0.256006982052491
40
0.256006982052491
40
0.478481509698431
40
0.478481509698431
40
0.904237458570125
40
0.904237458570125
40
1
40
1
40
1
40
1
41
1
10
9.07679491924313
20
5.85988980456935
30
0
41
1
10
9.09376079941589
20
5.85988980456935
30
0
41
1
10
9.11093746787589
20
5.8629683550426
30
0
41
1
10
9.14653890153815
20
5.87527238052311
30
0
41
1
10
9.1649283126321
20
5.88582364044447
30
0
41
1
10
9.20694798227834
20
5.91775860341619
30
0
41
1
10
9.22859635065211
20
5.94228809980598
30
0
41
1
10
9.28185513895579
20
6.01773563791645
30
0
41
1
10
9.30640600056208
20
6.07398601286488
30
0
41
1
10
9.32912053427441
20
6.14371014971229
30
0
41
1
10
9.33300496589203
20
6.15668833929709
30
0
41
1
10
9.33660254037846
20
6.16973001948568
30
0
0
SPLINE
5
1A8
100
AcDbEntity
8
1
62
256
6
ByLayer
370
18
48
1
60
0
100
AcDbSpline
70
4
71
3
72
12
73
8
40
0
40
0
40
0
40
0
40
0.333189360095017
40
0.333189360095017
40
0.663294851950576
40
0.663294851950576
40
1
40
1
40
1
40
1
41
1
10
9.33660254037844
20
11.19157847055
30
0
41
1
10
9.31789308604417
20
11.1567788864642
30
0
41
1
10
9.29377210435143
20
11.122396787119
30
0
41
1
10
9.24032710346995
20
11.0604814754993
30
0
41
1
10
9.21032587479189
20
11.0320255141877
30
0
41
1
10
9.14646741443011
20
10.9827754735935
30
0
41
1
10
9.11182579535785
20
10.9616137013193
30
0
41
1
10
9.07679491924313
20
10.9457877206429
30
0
0
SPLINE
5
1A9
100
AcDbEntity
8
1
62
256
6
ByLayer
370
18
48
1
60
0
100
AcDbSpline
70
4
71
3
72
12
73
8
40
0
40
0
40
0
40
0
40
0.33318936009506
40
0.33318936009506
40
0.663294851950628
40
0.663294851950628
40
1
40
1
40
1
40
1
41
1
10
6.66339745962156
20
13.2956191778814
30
0
41
1
10
6.68210691395583
20
13.2845901454823
30
0
41
1
10
6.70622789564857
20
13.2798739138028
30
0
41
1
10
6.75967289653005
20
13.2798391068043
30
0
41
1
10
6.78967412520814
20
13.2844211835406
30
0
41
1
10
6.85353258556992
20
13.3010528357657
30
0
41
1
10
6.88817420464216
20
13.3134519127561
30
0
41
1
10
6.9232050807569
20
13.3292778934325
30
0
0
SPLINE
5
1AA
100
AcDbEntity
8
1
62
256
6
ByLayer
370
18
48
1
60
0
100
AcDbSpline
70
4
71
3
72
26
73
22
40
0
40
0
40
0
40
0
40
0.0621074607051103
40
0.0621074607051103
40
0.101296177862868
40
0.101296177862868
40
0.140967258313829
40
0.140967258313829
40
0.18791300266936
40
0.18791300266936
40
0.386009855283955
40
0.386009855283955
40
0.582507180869383
40
0.582507180869383
40
0.753480587644586
40
0.753480587644586
40
0.886994016643197
40
0.886994016643197
40
0.993958864044216
40
0.993958864044216
40
1
40
1
40
1
40
1
41
1
10
31.4964568490564
20
6.16998409332771
30
0
41
1
10
31.4930667204579
20
6.19804156458051
30
0
41
1
10
31.4925486984412
20
6.22596664593664
30
0
41
1
10
31.5013029537355
20
6.26690769062995
30
0
41
1
10
31.5072317538908
20
6.28185282734796
30
0
41
1
10
31.525266347417
20
6.30679015444716
30
0
41
1
10
31.5377935232702
20
6.31696353096794
30
0
41
1
10
31.5701254851441
20
6.33154501803065
30
0
41
1
10
31.5909727398692
20
6.33498345018239
30
0
41
1
10
31.7018648076461
20
6.34500295833368
30
0
41
1
10
31.8013259774874
20
6.3572578587619
30
0
41
1
10
31.9891382115184
20
6.43418134241929
30
0
41
1
10
32.0869010072867
20
6.48124050377359
30
0
41
1
10
32.2670088061134
20
6.57137899857406
30
0
41
1
10
32.3510798494127
20
6.61721648872825
30
0
41
1
10
32.4817277109264
20
6.71305553376405
30
0
41
1
10
32.5333330256692
20
6.76144463027279
30
0
41
1
10
32.6049483371296
20
6.85759949275496
30
0
41
1
10
32.6301975423203
20
6.90390281526808
30
0
41
1
10
32.6503999449585
20
6.95345458521709
30
0
41
1
10
32.6514349140783
20
6.95607600279425
30
0
41
1
10
32.6524749545537
20
6.95868584024618
30
0
0
SPLINE
5
1AB
100
AcDbEntity
8
1
62
256
6
ByLayer
370
18
48
1
60
0
100
AcDbSpline
70
4
71
3
72
16
73
12
40
0
40
0
40
0
40
0
40
0.114691258188368
40
0.114691258188368
40
0.256006982052502
40
0.256006982052502
40
0.47848150969846
40
0.47848150969846
40
0.904237458570168
40
0.904237458570168
40
1
40
1
40
1
40
1
41
1
10
6.9232050807569
20
-5.85988980456938
30
0
41
1
10
6.90623920058411
20
-5.85988980456938
30
0
41
1
10
6.88906253212411
20
-5.8629683550426
30
0
41
1
10
6.85346109846185
20
-5.87527238052311
30
0
41
1
10
6.8350716873679
20
-5.88582364044447
30
0
41
1
10
6.79305201772166
20
-5.91775860341622
30
0
41
1
10
6.77140364934789
20
-5.94228809980598
30
0
41
1
10
6.71814486104418
20
-6.01773563791645
30
0
41
1
10
6.69359399943792
20
-6.07398601286488
30
0
41
1
10
6.67087946572559
20
-6.14371014971229
30
0
41
1
10
6.66699503410797
20
-6.15668833929709
30
0
41
1
10
6.66339745962154
20
-6.16973001948568
30
0
0
SPLINE
5
1AC
100
AcDbEntity
8
1
62
256
6
ByLayer
370
18
48
1
60
0
100
AcDbSpline
70
4
71
3
72
12
73
8
40
0
40
0
40
0
40
0
40
0.413171019201413
40
0.413171019201413
40
0.806940059521574
40
0.806940059521574
40
1
40
1
40
1
40
1
41
1
10
9.07679491924313
20
13.3292778934325
30
0
41
1
10
9.11961322021662
20
13.3099337696491
30
0
41
1
10
9.16193343553249
20
13.2956668911403
30
0
41
1
10
9.2366217269138
20
13.2798753007804
30
0
41
1
10
9.27059249226181
20
13.2775007879803
30
0
41
1
10
9.31285460245871
20
13.2848737084385
30
0
41
1
10
9.32564425624719
20
13.2891593812159
30
0
41
1
10
9.33660254037844
20
13.2956191778814
30
0
0
SPLINE
5
1AD
100
AcDbEntity
8
1
62
256
6
ByLayer
370
18
48
1
60
0
100
AcDbSpline
70
4
71
3
72
16
73
12
40
0
40
0
40
0
40
0
40
0.223150580815801
40
0.223150580815801
40
0.446272993558188
40
0.446272993558188
40
0.669843465198726
40
0.669843465198726
40
0.897182555479731
40
0.897182555479731
40
1
40
1
40
1
40
1
41
1
10
20.92079238
20
19.5953859168696
30
0
41
1
10
20.4820356516982
20
19.5921495679438
30
0
41
1
10
20.0400194234503
20
19.5740335831371
30
0
41
1
10
19.2227830076886
20
19.5055315827938
30
0
41
1
10
18.8363831801959
20
19.4539599663908
30
0
41
1
10
18.1700045757175
20
19.312705250157
30
0
41
1
10
17.8813325744675
20
19.2207217559237
30
0
41
1
10
17.4314933461893
20
18.9948322134414
30
0
41
1
10
17.2665208540444
20
18.8571253883452
30
0
41
1
10
17.1268994980038
20
18.6313879984428
30
0
41
1
10
17.096843168946
20
18.5565302151828
30
0
41
1
10
17.0803645201174
20
18.4785397031243
30
0
0
SPLINE
5
1AE
100
AcDbEntity
8
1
62
256
6
ByLayer
370
18
48
1
60
0
100
AcDbSpline
70
4
71
3
72
10
73
6
40
0
40
0
40
0
40
0
40
0.425348967069603
40
0.850697934139205
40
1
40
1
40
1
40
1
41
1
10
37.3470868488771
20
7.18410728209705
30
0
41
1
10
36.8160560079155
20
6.81841415607232
30
0
41
1
10
35.6335759404655
20
6.28773806745352
30
0
41
1
10
33.8813906307533
20
6.47063646210921
30
0
41
1
10
32.9173414705688
20
6.82794643618959
30
0
41
1
10
32.6524749645204
20
6.95868583532658
30
0
0
SPLINE
5
1AF
100
AcDbEntity
8
1
62
256
6
ByLayer
370
18
48
1
60
0
100
AcDbSpline
70
4
71
2
72
6
73
3
40
0
40
0
40
0
40
1
40
1
40
1
41
1.02613459695995
10
30.6238245290589
20
3.98429004069145
30
0
41
0.978411564280235
10
30.3881410965137
20
3.83039889740666
30
0
41
0.945844106555944
10
30.0960010597204
20
3.77019805906082
30
0
0
SPLINE
5
1B0
100
AcDbEntity
8
1
62
256
6
ByLayer
370
18
48
1
60
0
100
AcDbSpline
70
4
71
3
72
26
73
22
40
0
40
0
40
0
40
0
40
0.0060411359557228
40
0.0060411359557228
40
0.113005983358237
40
0.113005983358237
40
0.24651941235466
40
0.24651941235466
40
0.417492819129404
40
0.417492819129404
40
0.613990144713684
40
0.613990144713684
40
0.812086997327126
40
0.812086997327126
40
0.859032741682491
40
0.859032741682491
40
0.898703822133321
40
0.898703822133321
40
0.937892539290937
40
0.937892539290937
40
1
40
1
40
1
40
1
41
1
10
26.7214309547803
20
15.3956693443339
30
0
41
1
10
26.7186745523015
20
15.3955010530751
30
0
41
1
10
26.715908555023
20
15.3953420444749
30
0
41
1
10
26.6634099678323
20
15.3917319968475
30
0
41
1
10
26.6121533965056
20
15.3824244745517
30
0
41
1
10
26.4991144321625
20
15.3451952710366
30
0
41
1
10
26.4368890551909
20
15.3119133445048
30
0
41
1
10
26.3036843563615
20
15.2197114322002
30
0
41
1
10
26.2323892543867
20
15.1557000073712
30
0
41
1
10
26.0864054692142
20
15.0170196807611
30
0
41
1
10
26.0084090435455
20
14.9418426132724
30
0
41
1
10
25.8703050155686
20
14.7942085912162
30
0
41
1
10
25.8236312856219
20
14.7068629041356
30
0
41
1
10
25.7744752544518
20
14.6090231197433
30
0
41
1
10
25.763719820291
20
14.5912289479222
30
0
41
1
10
25.7381363444255
20
14.5670476559799
30
0
41
1
10
25.7238696861326
20
14.5593487147608
30
0
41
1
10
25.6934272293359
20
14.5520617267484
30
0
41
1
10
25.676926618002
20
14.5521551222897
30
0
41
1
10
25.6344034386272
20
14.5592507900922
30
0
41
1
10
25.6077213643957
20
14.5700181823318
30
0
41
1
10
25.5819411472857
20
14.5834558889195
30
0
0
SPLINE
5
1B1
100
AcDbEntity
8
1
62
256
6
ByLayer
370
18
48
1
60
0
100
AcDbSpline
70
4
71
3
72
12
73
8
40
0
40
0
40
0
40
0
40
0.249895630503053
40
0.249895630503053
40
0.499792230065992
40
0.499792230065992
40
1
40
1
40
1
40
1
41
1
10
33.6393678303043
20
2.10571439130575
30
0
41
1
10
33.612373375741
20
2.10803953116439
30
0
41
1
10
33.5853916263522
20
2.11051798643427
30
0
41
1
10
33.5314610161132
20
2.11580225684111
30
0
41
1
10
33.5045111628093
20
2.11860817839056
30
0
41
1
10
33.4236797602937
20
2.12755103007203
30
0
41
1
10
33.3698500804682
20
2.13421129672406
30
0
41
1
10
33.3161307558108
20
2.14163699626695
30
0
0
SPLINE
5
1B2
100
AcDbEntity
8
1
62
256
6
ByLayer
370
18
48
1
60
0
100
AcDbSpline
70
4
71
3
72
16
73
12
40
0
40
0
40
0
40
0
40
0.464304267159312
40
0.464304267159312
40
0.64753348514198
40
0.64753348514198
40
0.833383675860513
40
0.833383675860513
40
0.950238074309858
40
0.950238074309858
40
1
40
1
40
1
40
1
41
1
10
9.33660254037844
20
19.0245744101322
30
0
41
1
10
9.31929643456959
20
19.0449201888242
30
0
41
1
10
9.29554416795261
20
19.0647708693882
30
0
41
1
10
9.24667293447288
20
19.0892734034403
30
0
41
1
10
9.23079711658974
20
19.0959253431035
30
0
41
1
10
9.19394564855392
20
19.1078085849622
30
0
41
1
10
9.17240809259957
20
19.1131587398644
30
0
41
1
10
9.13286934844766
20
19.1192406569511
30
0
41
1
10
9.1161352553444
20
19.1209710216544
30
0
41
1
10
9.09170798023393
20
19.1221075563677
30
0
41
1
10
9.08424032311152
20
19.1222825906926
30
0
41
1
10
9.07679491924313
20
19.1222825906926
30
0
0
SPLINE
5
1B3
100
AcDbEntity
8
1
62
256
6
ByLayer
370
18
48
1
60
0
100
AcDbSpline
70
4
71
3
72
8
73
4
40
0
40
0
40
0
40
0
40
1
40
1
40
1
40
1
41
1
10
32.9787864414476
20
2.19916475646187
30
0
41
1
10
31.8810513244183
20
2.42376145359094
30
0
41
1
10
30.8875594087852
20
2.98438490417021
30
0
41
1
10
30.0960010597204
20
3.77019805906082
30
0
0
SPLINE
5
1B4
100
AcDbEntity
8
1
62
256
6
ByLayer
370
18
48
1
60
0
100
AcDbSpline
70
4
71
3
72
11
73
7
40
0
40
0
40
0
40
0
40
0.17519515067444
40
0.558357305419417
40
0.941519460164393
40
1
40
1
40
1
40
1
41
1
10
32.9787864414573
20
2.19916475645758
30
0
41
1
10
32.8099497125256
20
2.27381549542682
30
0
41
1
10
32.2576989167247
20
2.55657486707622
30
0
41
1
10
31.1685887083269
20
3.37317640178091
30
0
41
1
10
30.8708533742389
20
3.70360225303139
30
0
41
1
10
30.6532053391152
20
3.95066925710697
30
0
41
1
10
30.6238245290589
20
3.98429004069146
30
0
0
SPLINE
5
1B5
100
AcDbEntity
8
1
62
256
6
ByLayer
370
18
48
1
60
0
100
AcDbSpline
70
4
71
3
72
8
73
4
40
0
40
0
40
0
40
0
40
1
40
1
40
1
40
1
41
1
10
22.0783252262085
20
24.0821207893604
30
0
41
1
10
21.7567681752068
20
22.8471512393613
30
0
41
1
10
21.4397531759796
20
21.6176012198238
30
0
41
1
10
21.1302178707411
20
20.3929973383788
30
0
0
SPLINE
5
1B6
100
AcDbEntity
8
1
62
256
6
ByLayer
370
18
48
1
60
0
100
AcDbSpline
70
4
71
3
72
8
73
4
40
0
40
0
40
0
40
0
40
1
40
1
40
1
40
1
41
1
10
37.1707330830694
20
3.21449546490746
30
0
41
1
10
37.8201992051563
20
3.96635625423969
30
0
41
1
10
38.1508585072265
20
4.99434337934861
30
0
41
1
10
38.0089843987375
20
5.99578804471417
30
0
0
SPLINE
5
1B7
100
AcDbEntity
8
1
62
256
6
ByLayer
370
18
48
1
60
0
100
AcDbSpline
70
4
71
3
72
10
73
6
40
0
40
0
40
0
40
0
40
0.425348967069602
40
0.850697934139204
40
1
40
1
40
1
40
1
41
1
10
28.4359697598365
20
19.8602816429857
30
0
41
1
10
27.9261989790824
20
19.4643458181591
30
0
41
1
10
27.0543828074869
20
18.4917464922923
30
0
41
1
10
26.6623688925685
20
16.7397842416642
30
0
41
1
10
26.6849804775598
20
15.6935570928541
30
0
41
1
10
26.7214309534087
20
15.3956693555433
30
0
0
SPLINE
5
1B8
100
AcDbEntity
8
1
62
256
6
ByLayer
370
18
48
1
60
0
100
AcDbSpline
70
4
71
3
72
8
73
4
40
0
40
0
40
0
40
0
40
1
40
1
40
1
40
1
41
1
10
37.1707330830693
20
3.2144954649074
30
0
41
1
10
36.2584741477365
20
2.33735953407498
30
0
41
1
10
34.9155179765778
20
1.99579449708614
30
0
41
1
10
33.6393678302664
20
2.10571439047146
30
0
0
SPLINE
5
1B9
100
AcDbEntity
8
1
62
256
6
ByLayer
370
18
48
1
60
0
100
AcDbSpline
70
4
71
3
72
8
73
4
40
0
40
0
40
0
40
0
40
1
40
1
40
1
40
1
41
1
10
22.0809290567073
20
24.0921208864934
30
0
41
1
10
22.0800611006971
20
24.0887875241671
30
0
41
1
10
22.0791931571925
20
24.0854541584573
30
0
41
1
10
22.0783252262085
20
24.0821207893604
30
0
0
SPLINE
5
1BA
100
AcDbEntity
8
1
62
256
6
ByLayer
370
18
48
1
60
0
100
AcDbSpline
70
4
71
3
72
8
73
4
40
0
40
0
40
0
40
0
40
1
40
1
40
1
40
1
41
1
10
20.92079238
20
19.5953859168696
30
0
41
1
10
20.968838563163
20
19.7787535984853
30
0
41
1
10
21.0169583050094
20
19.9621122648152
30
0
41
1
10
21.0651433124845
20
20.1454517250657
30
0
0
SPLINE
5
1BB
100
AcDbEntity
8
1
62
256
6
ByLayer
370
18
48
1
60
0
100
AcDbSpline
70
4
71
3
72
8
73
4
40
0
40
0
40
0
40
0
40
1
40
1
40
1
40
1
41
1
10
21.0651433124845
20
-19.7489873158093
30
0
41
1
10
21.0304207301919
20
-19.7489873158093
30
0
41
1
10
20.995695084021
20
-19.7488957415293
30
0
41
1
10
20.9609847588647
20
-19.7487125483234
30
0
0
SPLINE
5
1BC
100
AcDbEntity
8
1
62
256
6
ByLayer
370
18
48
1
60
0
100
AcDbSpline
70
4
71
3
72
12
73
8
40
0
40
0
40
0
40
0
40
0.438307806859961
40
0.438307806859961
40
0.719105460553885
40
0.719105460553885
40
1
40
1
40
1
40
1
41
1
10
33.3161307558119
20
2.14163699627648
30
0
41
1
10
33.266597229347
20
2.14848408691242
30
0
41
1
10
33.2171488351145
20
2.15598319101341
30
0
41
1
10
33.1362164150476
20
2.16942543792578
30
0
41
1
10
33.1046586971418
20
2.17495971466485
30
0
41
1
10
33.0416436496182
20
2.18661708289829
30
0
41
1
10
33.0101836381556
20
2.19274088736626
30
0
41
1
10
32.9787864414454
20
2.19916475644976
30
0
0
SPLINE
5
1BD
100
AcDbEntity
8
1
62
256
6
ByLayer
370
18
48
1
60
0
100
AcDbSpline
70
4
71
3
72
16
73
12
40
0
40
0
40
0
40
0
40
0.114691258188364
40
0.114691258188364
40
0.256006982052499
40
0.256006982052499
40
0.478481509698429
40
0.478481509698429
40
0.904237458570111
40
0.904237458570111
40
1
40
1
40
1
40
1
41
1
10
6.9232050807569
20
19.1222825906926
30
0
41
1
10
6.90623920058411
20
19.1222825906926
30
0
41
1
10
6.88906253212411
20
19.1213397893258
30
0
41
1
10
6.85346109846185
20
19.117563257367
30
0
41
1
10
6.83507168736793
20
19.1143205262483
30
0
41
1
10
6.79305201772169
20
19.1044641374227
30
0
41
1
10
6.77140364934789
20
19.0968571256395
30
0
41
1
10
6.71814486104421
20
19.0732678361841
30
0
41
1
10
6.69359399943792
20
19.0554522237109
30
0
41
1
10
6.67087946572559
20
19.0329978954364
30
0
41
1
10
6.66699503410797
20
19.0288038685174
30
0
41
1
10
6.66339745962154
20
19.0245744101322
30
0
0
SPLINE
5
1BE
100
AcDbEntity
8
1
62
256
6
ByLayer
370
18
48
1
60
0
100
AcDbSpline
70
4
71
3
72
11
73
7
40
0
40
0
40
0
40
0
40
0.300794140602999
40
0.625609427414092
40
0.950424714225185
40
1
40
1
40
1
40
1
41
1.02613459695995
10
33.6393678311408
20
2.10571439104244
30
0
41
1.02613459695995
10
33.3057009462038
20
2.21075255888002
30
0
41
1.02613459695995
10
32.615597924251
20
2.49879187683815
30
0
41
1.02613459695995
10
31.3186982074157
20
3.47119144757018
30
0
41
1.02613459695995
10
31.0209628733276
20
3.80161729882066
30
0
41
1.02613459695995
10
30.803314838204
20
4.04868430289625
30
0
41
1.02613459695995
10
30.7739340281476
20
4.08230508648077
30
0
0
SPLINE
5
1BF
100
AcDbEntity
8
1
62
256
6
ByLayer
370
18
48
1
60
0
100
AcDbSpline
70
4
71
3
72
12
73
8
40
0
40
0
40
0
40
0
40
0.300242025045425
40
0.300242025045425
40
0.600484112064641
40
0.600484112064641
40
1
40
1
40
1
40
1
41
1
10
22.364064437212
20
18.7314547677714
30
0
41
1
10
22.3541171161297
20
18.7087765344847
30
0
41
1
10
22.3442605994844
20
18.6860574550975
30
0
41
1
10
22.3247312873249
20
18.6405392702188
30
0
41
1
10
22.3150583384584
20
18.6177397953371
30
0
41
1
10
22.2927305278715
20
18.5645103154381
30
0
41
1
10
22.2801468629808
20
18.534049061976
30
0
41
1
10
22.2677299590201
20
18.5035189872889
30
0
0
SPLINE
5
1C0
100
AcDbEntity
8
1
62
256
6
ByLayer
370
18
48
1
60
0
100
AcDbSpline
70
4
71
3
72
18
73
14
40
0
40
0
40
0
40
0
40
0.162759897887192
40
0.162759897887192
40
0.348183616384446
40
0.348183616384446
40
0.548069473919031
40
0.548069473919031
40
0.748430511832101
40
0.748430511832101
40
0.951145746066566
40
0.951145746066566
40
1
40
1
40
1
40
1
41
1
10
27.5362833182028
20
20.8933349627762
30
0
41
1
10
27.2426151504921
20
21.0490778936176
30
0
41
1
10
26.9220293871852
20
21.1601413133447
30
0
41
1
10
26.2266618123288
20
21.2966951070571
30
0
41
1
10
25.8412580131365
20
21.3102254450977
30
0
41
1
10
25.0666806936919
20
21.2175078692799
30
0
41
1
10
24.6685824755152
20
21.1001381385546
30
0
41
1
10
23.9444655674637
20
20.743495629154
30
0
41
1
10
23.6099462877338
20
20.4982615263496
30
0
41
1
10
23.0387866442953
20
19.9194374019323
30
0
41
1
10
22.7955203992825
20
19.5800159878475
30
0
41
1
10
22.5521689005851
20
19.1323565415322
30
0
41
1
10
22.5071916654028
20
19.0433434504311
30
0
41
1
10
22.4647874159897
20
18.9531478373792
30
0
0
SPLINE
5
1C1
100
AcDbEntity
8
1
62
256
6
ByLayer
370
18
48
1
60
0
100
AcDbSpline
70
4
71
3
72
8
73
4
40
0
40
0
40
0
40
0
40
1
40
1
40
1
40
1
41
1
10
37.3470868488771
20
7.18410728209713
30
0
41
1
10
37.6126299530832
20
6.80636892947371
30
0
41
1
10
37.8376840013364
20
6.40232448772684
30
0
41
1
10
38.0089841760498
20
5.995788573205
30
0
0
SPLINE
5
1C2
100
AcDbEntity
8
1
62
256
6
ByLayer
370
18
48
1
60
0
100
AcDbSpline
70
4
71
3
72
11
73
7
40
0
40
0
40
0
40
0
40
0.244510876175458
40
0.595472489468231
40
0.946434102761003
40
1
40
1
40
1
40
1
41
1
10
33.3161307558153
20
2.1416369962752
30
0
41
1
10
33.0639683362842
20
2.23533797065576
30
0
41
1
10
32.4388856018149
20
2.52600596071733
30
0
41
1
10
31.2436434578713
20
3.42218392467555
30
0
41
1
10
30.9459081237833
20
3.75260977592603
30
0
41
1
10
30.7282600886596
20
3.99967678000164
30
0
41
1
10
30.6988792786033
20
4.03329756358613
30
0
0
SPLINE
5
1C3
100
AcDbEntity
8
1
62
256
6
ByLayer
370
18
48
1
60
0
100
AcDbSpline
70
4
71
3
72
16
73
12
40
0
40
0
40
0
40
0
40
0.464304267159293
40
0.464304267159293
40
0.647533485141969
40
0.647533485141969
40
0.833383675860506
40
0.833383675860506
40
0.950238074309852
40
0.950238074309852
40
1
40
1
40
1
40
1
41
1
10
6.66339745962156
20
-19.0245744101322
30
0
41
1
10
6.68070356543041
20
-19.0449201888242
30
0
41
1
10
6.70445583204739
20
-19.0647708693882
30
0
41
1
10
6.75332706552712
20
-19.0892734034403
30
0
41
1
10
6.76920288341026
20
-19.0959253431035
30
0
41
1
10
6.80605435144608
20
-19.1078085849622
30
0
41
1
10
6.82759190740043
20
-19.1131587398644
30
0
41
1
10
6.86713065155234
20
-19.1192406569511
30
0
41
1
10
6.8838647446556
20
-19.1209710216544
30
0
41
1
10
6.90829201976607
20
-19.1221075563677
30
0
41
1
10
6.91575967688848
20
-19.1222825906926
30
0
41
1
10
6.92320508075687
20
-19.1222825906926
30
0
0
SPLINE
5
1C4
100
AcDbEntity
8
1
62
256
6
ByLayer
370
18
48
1
60
0
100
AcDbSpline
70
4
71
3
72
8
73
4
40
0
40
0
40
0
40
0
40
1
40
1
40
1
40
1
41
1
10
20.9609847588647
20
-19.7487125483234
30
0
41
1
10
20.9475817320637
20
-19.6976046271877
30
0
41
1
10
20.9341842105476
20
-19.6464956774885
30
0
41
1
10
20.92079238
20
-19.5953859168696
30
0
0
SPLINE
5
1C5
100
AcDbEntity
8
1
62
256
6
ByLayer
370
18
48
1
60
0
100
AcDbSpline
70
4
71
3
72
12
73
8
40
0
40
0
40
0
40
0
40
0.305060654761911
40
0.305060654761911
40
0.610121350574995
40
0.610121350574995
40
1
40
1
40
1
40
1
41
1
10
22.4647874159899
20
18.9531478373703
30
0
41
1
10
22.4542532679455
20
18.9307412636425
30
0
41
1
10
22.4438072462106
20
18.9082922996803
30
0
41
1
10
22.4230933139116
20
18.8633112424986
30
0
41
1
10
22.4128252427645
20
18.8407788007036
30
0
41
1
10
22.3896389835774
20
18.7893556294926
30
0
41
1
10
22.3767774119579
20
18.7604382184022
30
0
41
1
10
22.3640644412721
20
18.7314547651666
30
0
0
SPLINE
5
1C6
100
AcDbEntity
8
1
62
256
6
ByLayer
370
18
48
1
60
0
100
AcDbSpline
70
4
71
3
72
8
73
4
40
0
40
0
40
0
40
0
40
1
40
1
40
1
40
1
41
1
10
21.0651433124845
20
20.1454517250657
30
0
41
1
10
21.0868301537393
20
20.2279681337693
30
0
41
1
10
21.1085217279632
20
20.310483324099
30
0
41
1
10
21.1302178707411
20
20.3929973383788
30
0
0
SPLINE
5
1C7
100
AcDbEntity
8
1
62
256
6
ByLayer
370
18
48
1
60
0
100
AcDbSpline
70
4
71
3
72
16
73
12
40
0
40
0
40
0
40
0
40
0.464304267159304
40
0.464304267159304
40
0.647533485141974
40
0.647533485141974
40
0.833383675860506
40
0.833383675860506
40
0.950238074309851
40
0.950238074309851
40
1
40
1
40
1
40
1
41
1
10
9.33660254037844
20
-6.16973001948568
30
0
41
1
10
9.31929643456959
20
-6.10699311212741
30
0
41
1
10
9.29554416795261
20
-6.04466199750289
30
0
41
1
10
9.24667293447288
20
-5.96658891111872
30
0
41
1
10
9.23079711658974
20
-5.94525308185362
30
0
41
1
10
9.19394564855392
20
-5.90694983484818
30
0
41
1
10
9.17240809259957
20
-5.88959453036583
30
0
41
1
10
9.13286934844766
20
-5.86981268651903
30
0
41
1
10
9.1161352553444
20
-5.86416869949437
30
0
41
1
10
9.09170798023393
20
-5.86046107106307
30
0
41
1
10
9.08424032311152
20
-5.85988980456935
30
0
41
1
10
9.07679491924313
20
-5.85988980456935
30
0
0
SPLINE
5
1C8
100
AcDbEntity
8
1
62
256
6
ByLayer
370
18
48
1
60
0
100
AcDbSpline
70
4
71
3
72
10
73
6
40
0
40
0
40
0
40
0
40
0.5
40
0.5
40
1
40
1
40
1
40
1
41
1
10
17.0803645201175
20
-18.4785397031243
30
0
41
1
10
17.1607362481336
20
-18.8589247873746
30
0
41
1
10
17.5682113664009
20
-19.1459166129717
30
0
41
1
10
18.9669005807707
20
-19.5099726158561
30
0
41
1
10
19.9225318765138
20
-19.5880225669773
30
0
41
1
10
20.92079238
20
-19.5953859168696
30
0
0
SPLINE
5
1C9
100
AcDbEntity
8
1
62
256
6
ByLayer
370
18
48
1
60
0
100
AcDbSpline
70
4
71
3
72
16
73
12
40
0
40
0
40
0
40
0
40
0.46430426715929
40
0.46430426715929
40
0.647533485141967
40
0.647533485141967
40
0.833383675860504
40
0.833383675860504
40
0.950238074309844
40
0.950238074309844
40
1
40
1
40
1
40
1
41
1
10
6.66339745962156
20
6.16973001948568
30
0
41
1
10
6.68070356543041
20
6.10699311212741
30
0
41
1
10
6.70445583204739
20
6.04466199750289
30
0
41
1
10
6.75332706552712
20
5.96658891111872
30
0
41
1
10
6.76920288341026
20
5.94525308185362
30
0
41
1
10
6.80605435144608
20
5.90694983484818
30
0
41
1
10
6.82759190740043
20
5.88959453036586
30
0
41
1
10
6.86713065155234
20
5.86981268651903
30
0
41
1
10
6.8838647446556
20
5.8641686994944
30
0
41
1
10
6.90829201976607
20
5.86046107106307
30
0
41
1
10
6.91575967688848
20
5.85988980456935
30
0
41
1
10
6.92320508075687
20
5.85988980456935
30
0
0
SPLINE
5
1CA
100
AcDbEntity
8
SK1
62
256
6
ByLayer
370
18
48
1
60
0
100
AcDbSpline
70
4
71
3
72
8
73
4
40
0
40
0
40
0
40
0
40
1
40
1
40
1
40
1
41
1
10
-1.49503997793931
20
-2.59465115086957
30
0
41
1
10
-1.43729564430089
20
-2.94660231507382
30
0
41
1
10
-1.37345704405578
20
-3.29127575598179
30
0
41
1
10
-1.30710678118655
20
-3.6278161010051
30
0
0
SPLINE
5
1CB
100
AcDbEntity
8
SK1
62
256
6
ByLayer
370
18
48
1
60
0
100
AcDbSpline
70
4
71
3
72
24
73
20
40
0
40
0
40
0
40
0
40
0.408002420194574
40
0.408002420194574
40
0.586477084363329
40
0.586477084363329
40
0.763728221544513
40
0.763728221544513
40
0.83464833042642
40
0.83464833042642
40
0.871680147904128
40
0.871680147904128
40
0.909315863704638
40
0.909315863704638
40
0.941446160303591
40
0.941446160303591
40
0.988233002766673
40
0.988233002766673
40
1
40
1
40
1
40
1
41
1
10
-1.30710678118655
20
3.62781725664615
30
0
41
1
10
-1.25754709276271
20
3.87919081380429
30
0
41
1
10
-1.19771793926938
20
4.12580048883993
30
0
41
1
10
-1.07980138365164
20
4.46640123366592
30
0
41
1
10
-1.03947389583291
20
4.56855181342542
30
0
41
1
10
-0.943165684412492
20
4.76452984977917
30
0
41
1
10
-0.887972849225292
20
4.86076144162979
30
0
41
1
10
-0.781589632759733
20
4.97623115222154
30
0
41
1
10
-0.746942513659576
20
5.00751721259149
30
0
41
1
10
-0.685298347589708
20
5.04425501792002
30
0
41
1
10
-0.662073057062713
20
5.05499571071985
30
0
41
1
10
-0.612858105189787
20
5.06918922724967
30
0
41
1
10
-0.586087478285805
20
5.07253385323432
30
0
41
1
10
-0.537899014579068
20
5.06994558199364
30
0
41
1
10
-0.515734678473706
20
5.06532466911642
30
0
41
1
10
-0.465255653618982
20
5.04798484569733
30
0
41
1
10
-0.437776087568892
20
5.03248974169182
30
0
41
1
10
-0.406986543980821
20
5.01034621255963
30
0
41
1
10
-0.400907252385935
20
5.00570060770795
30
0
41
1
10
-0.394976888875277
20
5.00092441402839
30
0
0
SPLINE
5
1CC
100
AcDbEntity
8
SK1
62
256
6
ByLayer
370
18
48
1
60
0
100
AcDbSpline
70
4
71
3
72
8
73
4
40
0
40
0
40
0
40
0
40
1
40
1
40
1
40
1
41
1
10
-1.30710678118655
20
3.62781725664615
30
0
41
1
10
-1.37345758266253
20
3.29127686428785
30
0
41
1
10
-1.4372955614198
20
2.946602671997
30
0
41
1
10
-1.49503997793931
20
2.59465115838313
30
0
0
SPLINE
5
1CD
100
AcDbEntity
8
SK1
62
256
6
ByLayer
370
18
48
1
60
0
100
AcDbSpline
70
4
71
3
72
30
73
26
40
0
40
0
40
0
40
0
40
0.337353368376273
40
0.337353368376273
40
0.421572476570396
40
0.421572476570396
40
0.437870507614647
40
0.437870507614647
40
0.454360744150349
40
0.454360744150349
40
0.46102437321649
40
0.46102437321649
40
0.467802724987302
40
0.467802724987302
40
0.473791453396888
40
0.473791453396888
40
0.481264268969724
40
0.481264268969724
40
0.494804301393218
40
0.494804301393218
40
0.541069262252274
40
0.541069262252274
40
0.762218024196531
40
0.762218024196531
40
1
40
1
40
1
40
1
41
1
10
-1.69999999999999
20
-2.5837250319525
30
0
41
1
10
-1.69946915813009
20
-2.45210484593008
30
0
41
1
10
-1.69760670671556
20
-2.31884997747196
30
0
41
1
10
-1.67915375522099
20
-2.15294187932722
30
0
41
1
10
-1.67485152519237
20
-2.11932442567118
30
0
41
1
10
-1.66472347048304
20
-2.08095979549279
30
0
41
1
10
-1.66287560510222
20
-2.07475454077749
30
0
41
1
10
-1.65846712486041
20
-2.06274931231133
30
0
41
1
10
-1.65588139752759
20
-2.05680133794195
30
0
41
1
10
-1.65120237663186
20
-2.0497680665317
30
0
41
1
10
-1.64969999009787
20
-2.04787870491481
30
0
41
1
10
-1.64639510213217
20
-2.0447894938039
30
0
41
1
10
-1.64453557847699
20
-2.04357912964019
30
0
41
1
10
-1.64096575658939
20
-2.04240828386776
30
0
41
1
10
-1.63922229186966
20
-2.04230771235822
30
0
41
1
10
-1.63551182442282
20
-2.04297037181766
30
0
41
1
10
-1.63353448434609
20
-2.04393506875687
30
0
41
1
10
-1.62845259442082
20
-2.04750201060256
30
0
41
1
10
-1.62558657915471
20
-2.0508033417303
30
0
41
1
10
-1.61425491864986
20
-2.06649024761731
30
0
41
1
10
-1.60795428020356
20
-2.08189579117942
30
0
41
1
10
-1.57473680217674
20
-2.17064161742221
30
0
41
1
10
-1.55852136531561
20
-2.25243693059593
30
0
41
1
10
-1.5247433730911
20
-2.41950302647342
30
0
41
1
10
-1.50941945205861
20
-2.5070083929059
30
0
41
1
10
-1.49503997793928
20
-2.59465115086951
30
0
0
SPLINE
5
1CE
100
AcDbEntity
8
SK1
62
256
6
ByLayer
370
18
48
1
60
0
100
AcDbSpline
70
4
71
3
72
22
73
18
40
0
40
0
40
0
40
0
40
0.0408146055975421
40
0.0408146055975421
40
0.0823243808208714
40
0.0823243808208714
40
0.113722137960843
40
0.113722137960843
40
0.144934004837801
40
0.144934004837801
40
0.197663645148653
40
0.197663645148653
40
0.33040493622216
40
0.33040493622216
40
0.796191409884692
40
0.796191409884692
40
1
40
1
40
1
40
1
41
1
10
-0.394976888875306
20
-5.00092508226666
30
0
41
1
10
-0.415530107853925
20
-5.01747813555139
30
0
41
1
10
-0.438024560131566
20
-5.03261131985604
30
0
41
1
10
-0.487324802537927
20
-5.05682200266617
30
0
41
1
10
-0.514951385379703
20
-5.065973715838
30
0
41
1
10
-0.565001076851473
20
-5.07238571210249
30
0
41
1
10
-0.587551462055302
20
-5.07198375916977
30
0
41
1
10
-0.630654498772856
20
-5.06497384681828
30
0
41
1
10
-0.651690830573216
20
-5.05839846240309
30
0
41
1
10
-0.704063404944179
20
-5.0354696203506
30
0
41
1
10
-0.733646054998758
20
-5.01537181535585
30
0
41
1
10
-0.825717517678271
20
-4.93804001611764
30
0
41
1
10
-0.875568215521128
20
-4.86927174197922
30
0
41
1
10
-1.06893868726922
20
-4.55513362670803
30
0
41
1
10
-1.15213866111816
20
-4.27852588598478
30
0
41
1
10
-1.25478905452405
20
-3.87761185644086
30
0
41
1
10
-1.28234760083203
20
-3.75339907142145
30
0
41
1
10
-1.30710678118763
20
-3.62781610099955
30
0
0
SPLINE
5
1CF
100
AcDbEntity
8
SK1
62
256
6
ByLayer
370
18
48
1
60
0
100
AcDbSpline
70
4
71
3
72
24
73
20
40
0
40
0
40
0
40
0
40
0.470757791634908
40
0.470757791634908
40
0.661826126045254
40
0.661826126045254
40
0.85568916651581
40
0.85568916651581
40
0.884460546127643
40
0.884460546127643
40
0.91360691814161
40
0.91360691814161
40
0.932763100125268
40
0.932763100125268
40
0.95203909678233
40
0.95203909678233
40
0.974618894615272
40
0.974618894615272
40
1
40
1
40
1
40
1
41
1
10
-0.199999999999989
20
-5.70317605472911
30
0
41
1
10
-0.199999999999989
20
-5.58107998739831
30
0
41
1
10
-0.203895983734896
20
-5.45705658909691
30
0
41
1
10
-0.223509916035709
20
-5.28128624620587
30
0
41
1
10
-0.23086916609185
20
-5.23019697507434
30
0
41
1
10
-0.252992963272021
20
-5.12819212434212
30
0
41
1
10
-0.266168518183207
20
-5.0748758166919
30
0
41
1
10
-0.299311339940942
20
-5.02202983998879
30
0
41
1
10
-0.304166370278011
20
-5.01525404855027
30
0
41
1
10
-0.315232060467963
20
-5.00279573504582
30
0
41
1
10
-0.321587352348587
20
-4.99699852204864
30
0
41
1
10
-0.333432884234497
20
-4.98975078853741
30
0
41
1
10
-0.33858625385443
20
-4.98746585289803
30
0
41
1
10
-0.3491574393544
20
-4.98479989040243
30
0
41
1
10
-0.354703931885922
20
-4.98441392730476
30
0
41
1
10
-0.366193082216228
20
-4.98556317954746
30
0
41
1
10
-0.372213152675158
20
-4.98741181161262
30
0
41
1
10
-0.383950186909431
20
-4.99285513665984
30
0
41
1
10
-0.3896944310344
20
-4.99667072159761
30
0
41
1
10
-0.394976888882155
20
-5.00092508225598
30
0
0
SPLINE
5
1D0
100
AcDbEntity
8
SK1
62
256
6
ByLayer
370
18
48
1
60
0
100
AcDbSpline
70
4
71
3
72
32
73
28
40
0
40
0
40
0
40
0
40
0.335339404831972
40
0.335339404831972
40
0.429287156787091
40
0.429287156787091
40
0.47567705376244
40
0.47567705376244
40
0.494539743197707
40
0.494539743197707
40
0.513645880085613
40
0.513645880085613
40
0.520504273461007
40
0.520504273461007
40
0.527488218290634
40
0.527488218290634
40
0.533551201014328
40
0.533551201014328
40
0.540998152878254
40
0.540998152878254
40
0.554393631774451
40
0.554393631774451
40
0.598967269657032
40
0.598967269657032
40
0.809317334416222
40
0.809317334416222
40
1
40
1
40
1
40
1
41
1
10
-1.49503997793931
20
2.59465115838304
30
0
41
1
10
-1.51545804662706
20
2.47020327904033
30
0
41
1
10
-1.5371392192427
20
2.34554891087819
30
0
41
1
10
-1.57392592094843
20
2.19043955590803
30
0
41
1
10
-1.58255890853934
20
2.15670217135892
30
0
41
1
10
-1.5980595693656
20
2.1081468839686
30
0
41
1
10
-1.60359902440038
20
2.09231222948606
30
0
41
1
10
-1.61296122457534
20
2.07152520286885
30
0
41
1
10
-1.6158696741316
20
2.0656737244498
30
0
41
1
10
-1.62242426172162
20
2.05481886173052
30
0
41
1
10
-1.62611615645159
20
2.04963161073078
30
0
41
1
10
-1.63217263701876
20
2.04479089552191
30
0
41
1
10
-1.63391092603902
20
2.04372430879368
30
0
41
1
10
-1.63759701012464
20
2.04243943769597
30
0
41
1
10
-1.63960513001732
20
2.04224314885471
30
0
41
1
10
-1.64327142014687
20
2.04303363449088
30
0
41
1
10
-1.64498274878696
20
2.04388024545895
30
0
41
1
10
-1.64846923771176
20
2.04652261877811
30
0
41
1
10
-1.65023197368771
20
2.04850621085967
30
0
41
1
10
-1.65459297944469
20
2.05462030362457
30
0
41
1
10
-1.65687449353447
20
2.05928542847226
30
0
41
1
10
-1.66535432668744
20
2.07982184742582
30
0
41
1
10
-1.66919635898847
20
2.09736547364699
30
0
41
1
10
-1.68800967157858
20
2.19569498442294
30
0
41
1
10
-1.6917465712958
20
2.27904221250569
30
0
41
1
10
-1.69840552504974
20
2.43548746422863
30
0
41
1
10
-1.69970172620592
20
2.50976932903754
30
0
41
1
10
-1.69999999999999
20
2.58372509632824
30
0
0
SPLINE
5
1D1
100
AcDbEntity
8
SK1
62
256
6
ByLayer
370
18
48
1
60
0
100
AcDbSpline
70
4
71
3
72
10
73
6
40
0
40
0
40
0
40
0
40
0.5
40
0.5
40
1
40
1
40
1
40
1
41
1
10
-1.69999999999999
20
2.58372509632821
30
0
41
1
10
-1.83222262461143
20
1.751855044526
30
0
41
1
10
-1.92871617486691
20
0.884329181036094
30
0
41
1
10
-1.92842303871006
20
-0.888588835776119
30
0
41
1
10
-1.83224326233341
20
-1.75172436897285
30
0
41
1
10
-1.69999999999999
20
-2.58372503195247
30
0
0
SPLINE
5
1D2
100
AcDbEntity
8
SK1
62
256
6
ByLayer
370
18
48
1
60
0
100
AcDbSpline
70
4
71
3
72
98
73
94
40
0
40
0
40
0
40
0
40
0.0012808740763045
40
0.0105737783742241
40
0.0198666826721437
40
0.0291595869700633
40
0.0384524912679829
40
0.0477453955659025
40
0.0663312041617417
40
0.0849170127575809
40
0.10350282135342
40
0.11279572565134
40
0.122088629949259
40
0.131381534247179
40
0.140674438545099
40
0.159260247140938
40
0.168553151438857
40
0.177846055736777
40
0.187138960034696
40
0.196431864332616
40
0.205724768630536
40
0.215017672928455
40
0.233603481524295
40
0.242896385822214
40
0.252189290120134
40
0.261482194418053
40
0.270775098715973
40
0.280068003013893
40
0.289360907311812
40
0.298653811609732
40
0.307946715907651
40
0.326532524503491
40
0.33582542880141
40
0.34511833309933
40
0.363704141695169
40
0.382289950291008
40
0.391582854588928
40
0.400875758886847
40
0.410168663184767
40
0.419461567482687
40
0.428754471780606
40
0.438047376078526
40
0.442693828227486
40
0.447340280376445
40
0.456633184674365
40
0.465926088972284
40
0.475218993270204
40
0.493804801866043
40
0.503097706163963
40
0.512390610461883
40
0.521683514759802
40
0.530976419057722
40
0.540269323355641
40
0.549562227653561
40
0.558855131951481
40
0.5681480362494
40
0.57744094054732
40
0.586733844845239
40
0.605319653441079
40
0.614612557738998
40
0.623905462036918
40
0.628551914185878
40
0.633198366334837
40
0.642491270632757
40
0.661077079228596
40
0.670369983526516
40
0.679662887824435
40
0.698248696420275
40
0.716834505016114
40
0.726127409314034
40
0.735420313611953
40
0.754006122207792
40
0.763299026505712
40
0.772591930803632
40
0.781884835101551
40
0.791177739399471
40
0.80047064369739
40
0.80976354799531
40
0.828349356591149
40
0.846935165186988
40
0.856228069484908
40
0.865520973782828
40
0.874813878080747
40
0.884106782378667
40
0.902692590974506
40
0.921278399570345
40
0.939864208166184
40
0.958450016762024
40
0.967742921059943
40
0.977035825357863
40
0.986328729655782
40
0.995621633953702
40
1
40
1
40
1
40
1
41
1
10
-0.394976888875277
20
13.8446015176322
30
0
41
1
10
-0.394976888875277
20
13.8443369604552
30
0
41
1
10
-0.394976888875277
20
13.842101166137
30
0
41
1
10
-0.394976888875277
20
13.8370982474882
30
0
41
1
10
-0.394976888875277
20
13.8281310063336
30
0
41
1
10
-0.394976888875277
20
13.8172492272358
30
0
41
1
10
-0.394976888875277
20
13.8044829705052
30
0
41
1
10
-0.394976888875277
20
13.7849758313288
30
0
41
1
10
-0.394976888875277
20
13.7560496751861
30
0
41
1
10
-0.394976888875277
20
13.7142204148031
30
0
41
1
10
-0.394976888875277
20
13.6736219510479
30
0
41
1
10
-0.394976888875277
20
13.6377421071264
30
0
41
1
10
-0.394976888875277
20
13.6091837483775
30
0
41
1
10
-0.394976888875277
20
13.5789821852606
30
0
41
1
10
-0.394976888875277
20
13.5365270016785
30
0
41
1
10
-0.394976888875277
20
13.4909311840823
30
0
41
1
10
-0.394976888875277
20
13.4421262012037
30
0
41
1
10
-0.394976888875277
20
13.4039879614121
30
0
41
1
10
-0.394976888875277
20
13.3643136176474
30
0
41
1
10
-0.394976888875277
20
13.3231185671574
30
0
41
1
10
-0.394976888875277
20
13.2804176635455
30
0
41
1
10
-0.394976888875277
20
13.2214670183476
30
0
41
1
10
-0.394976888875277
20
13.1596507604527
30
0
41
1
10
-0.394976888875277
20
13.094846134259
30
0
41
1
10
-0.394976888875277
20
13.0448282447276
30
0
41
1
10
-0.394976888875277
20
12.9933861020735
30
0
41
1
10
-0.394976888875277
20
12.9405320737836
30
0
41
1
10
-0.394976888875277
20
12.8862769376535
30
0
41
1
10
-0.394976888875277
20
12.8306328717281
30
0
41
1
10
-0.394976888875277
20
12.7736108931729
30
0
41
1
10
-0.394976888875277
20
12.6957215859151
30
0
41
1
10
-0.394976888875277
20
12.6152283382819
30
0
41
1
10
-0.394976888875277
20
12.5319491453114
30
0
41
1
10
-0.394976888875277
20
12.4468991604423
30
0
41
1
10
-0.394976888875277
20
12.3373769122162
30
0
41
1
10
-0.394976888875277
20
12.2235215734124
30
0
41
1
10
-0.394976888875277
20
12.1297946053789
30
0
41
1
10
-0.394976888875277
20
12.0582544060742
30
0
41
1
10
-0.394976888875277
20
11.9854459580753
30
0
41
1
10
-0.394976888875277
20
11.9113764581405
30
0
41
1
10
-0.394976888875277
20
11.8360539668501
30
0
41
1
10
-0.394976888875277
20
11.7722691621604
30
0
41
1
10
-0.394976888875277
20
11.7205808778945
30
0
41
1
10
-0.394976888875277
20
11.6684804259269
30
0
41
1
10
-0.394976888875277
20
11.6026363586083
30
0
41
1
10
-0.394976888875277
20
11.5223699646631
30
0
41
1
10
-0.394976888875277
20
11.4136741241806
30
0
41
1
10
-0.394976888875277
20
11.3026972493618
30
0
41
1
10
-0.394976888875277
20
11.1891707558493
30
0
41
1
10
-0.394976888875277
20
11.102867622286
30
0
41
1
10
-0.394976888875277
20
11.0153746780185
30
0
41
1
10
-0.394976888875277
20
10.9266969759659
30
0
41
1
10
-0.394976888875277
20
10.8368404439692
30
0
41
1
10
-0.394976888875277
20
10.74580988339
30
0
41
1
10
-0.394976888875277
20
10.6536100721469
30
0
41
1
10
-0.394976888875277
20
10.5602461340712
30
0
41
1
10
-0.394976888875277
20
10.4657231550753
30
0
41
1
10
-0.394976888875277
20
10.3380960413352
30
0
41
1
10
-0.394976888875277
20
10.2083399780688
30
0
41
1
10
-0.394976888875277
20
10.0761265525343
30
0
41
1
10
-0.394976888875277
20
9.99261143893298
30
0
41
1
10
-0.394976888875277
20
9.92517900727512
30
0
41
1
10
-0.394976888875277
20
9.85736934874495
30
0
41
1
10
-0.394976888875277
20
9.73773600630287
30
0
41
1
10
-0.394976888875277
20
9.59892076352932
30
0
41
1
10
-0.394976888875277
20
9.45767861814849
30
0
41
1
10
-0.394976888875277
20
9.3149499665038
30
0
41
1
10
-0.394976888875277
20
9.13390678694702
30
0
41
1
10
-0.394976888875277
20
8.94918033853523
30
0
41
1
10
-0.394976888875277
20
8.79907643306458
30
0
41
1
10
-0.394976888875277
20
8.64751154095558
30
0
41
1
10
-0.394976888875277
20
8.49397418950429
30
0
41
1
10
-0.394976888875277
20
8.33804225713789
30
0
41
1
10
-0.394976888875277
20
8.22006379392718
30
0
41
1
10
-0.394976888875277
20
8.10100252302422
30
0
41
1
10
-0.394976888875277
20
7.98086143927398
30
0
41
1
10
-0.394976888875277
20
7.85964213989763
30
0
41
1
10
-0.394976888875277
20
7.69650359349293
30
0
41
1
10
-0.394976888875277
20
7.49008089634199
30
0
41
1
10
-0.394976888875277
20
7.28009509164627
30
0
41
1
10
-0.394976888875277
20
7.10982244878713
30
0
41
1
10
-0.394976888875277
20
6.98112244545175
30
0
41
1
10
-0.394976888875277
20
6.85136200824962
30
0
41
1
10
-0.394976888875277
20
6.67684685573994
30
0
41
1
10
-0.394976888875277
20
6.45627503636445
30
0
41
1
10
-0.394976888875277
20
6.18726433662556
30
0
41
1
10
-0.394976888875277
20
5.91406385279547
30
0
41
1
10
-0.394976888875277
20
5.68302324019061
30
0
41
1
10
-0.394976888875277
20
5.49591838220567
30
0
41
1
10
-0.394976888875277
20
5.35463940810163
30
0
41
1
10
-0.394976888875277
20
5.21232773385495
30
0
41
1
10
-0.394976888875277
20
5.09425517295406
30
0
41
1
10
-0.394976888875277
20
5.02359271293304
30
0
41
1
10
-0.394976888875277
20
5.0009244140283
30
0
0
SPLINE
5
1D3
100
AcDbEntity
8
SK1
62
256
6
ByLayer
370
18
48
1
60
0
100
AcDbSpline
70
4
71
3
72
22
73
18
40
0
40
0
40
0
40
0
40
0.0262442859026881
40
0.0262442859026881
40
0.0530261157854851
40
0.0530261157854851
40
0.0713559655737795
40
0.0713559655737795
40
0.0895874012639089
40
0.0895874012639089
40
0.119482247898519
40
0.119482247898519
40
0.178618886842945
40
0.178618886842945
40
0.388022338076953
40
0.388022338076953
40
1
40
1
40
1
40
1
41
1
10
-0.394976888875277
20
5.0009244140283
30
0
41
1
10
-0.389542958903149
20
4.99654803778401
30
0
41
1
10
-0.383617633691586
20
4.99263335383438
30
0
41
1
10
-0.370682657201087
20
4.98677476419826
30
0
41
1
10
-0.363425194676552
20
4.98483424058901
30
0
41
1
10
-0.350979181144169
20
4.98462903203949
30
0
41
1
10
-0.345738268039327
20
4.98542011278013
30
0
41
1
10
-0.335836240990062
20
4.98861553627458
30
0
41
1
10
-0.331061456711979
20
4.99102841332402
30
0
41
1
10
-0.319537139874143
20
4.9986715699325
30
0
41
1
10
-0.313226756018622
20
5.00478758784652
30
0
41
1
10
-0.29682625826149
20
5.02421063341325
30
0
41
1
10
-0.288455270980222
20
5.03906576138257
30
0
41
1
10
-0.256353055935392
20
5.10678482490906
30
0
41
1
10
-0.244000373144985
20
5.16381228581221
30
0
41
1
10
-0.204596889637315
20
5.38213882730369
30
0
41
1
10
-0.200000000000046
20
5.54465158381666
30
0
41
1
10
-0.200000000000046
20
5.70317614351262
30
0
0
SPLINE
5
1D4
100
AcDbEntity
8
SK1
62
256
6
ByLayer
370
18
48
1
60
0
100
AcDbSpline
70
4
71
3
72
100
73
96
40
0
40
0
40
0
40
0
40
0.0043783247532282
40
0.0136712309453665
40
0.0229641371375048
40
0.0322570433296431
40
0.0415499495217814
40
0.0601357619060581
40
0.0787215742903348
40
0.0973073866746114
40
0.115893199058888
40
0.125186105251026
40
0.134479011443165
40
0.143771917635303
40
0.153064823827441
40
0.171650636211718
40
0.190236448595995
40
0.199529354788133
40
0.208822260980271
40
0.21811516717241
40
0.227408073364548
40
0.236700979556686
40
0.245993885748825
40
0.264579698133101
40
0.27387260432524
40
0.283165510517378
40
0.301751322901655
40
0.320337135285931
40
0.32963004147807
40
0.338922947670208
40
0.357508760054485
40
0.366801666246623
40
0.371448119342692
40
0.376094572438761
40
0.385387478630899
40
0.394680384823038
40
0.413266197207314
40
0.422559103399453
40
0.431852009591591
40
0.441144915783729
40
0.450437821975868
40
0.459730728168006
40
0.469023634360144
40
0.478316540552283
40
0.487609446744421
40
0.496902352936559
40
0.506195259128698
40
0.524781071512974
40
0.534073977705113
40
0.543366883897251
40
0.552659790089389
40
0.557306243185458
40
0.561952696281528
40
0.571245602473666
40
0.580538508665804
40
0.589831414857943
40
0.599124321050081
40
0.608417227242219
40
0.617710133434358
40
0.636295945818634
40
0.654881758202911
40
0.664174664395049
40
0.673467570587188
40
0.692053382971464
40
0.701346289163602
40
0.710639195355741
40
0.719932101547879
40
0.729225007740017
40
0.738517913932156
40
0.747810820124294
40
0.757103726316433
40
0.766396632508571
40
0.784982444892847
40
0.794275351084986
40
0.803568257277124
40
0.812861163469262
40
0.822154069661401
40
0.831446975853539
40
0.840739882045677
40
0.859325694429954
40
0.868618600622092
40
0.877911506814231
40
0.887204413006369
40
0.896497319198507
40
0.915083131582784
40
0.924376037774922
40
0.933668943967061
40
0.942961850159199
40
0.952254756351337
40
0.961547662543476
40
0.970840568735614
40
0.980133474927752
40
0.98942638111989
40
0.998719287312029
40
1
40
1
40
1
40
1
41
1
10
-0.394976888875306
20
-5.00092508225416
30
0
41
1
10
-0.394976888875306
20
-5.02359314607176
30
0
41
1
10
-0.394976888875306
20
-5.09425535366776
30
0
41
1
10
-0.394976888875306
20
-5.21232773830431
30
0
41
1
10
-0.394976888875306
20
-5.35463943777347
30
0
41
1
10
-0.394976888875306
20
-5.49591839522026
30
0
41
1
10
-0.394976888875306
20
-5.68302324398948
30
0
41
1
10
-0.394976888875306
20
-5.91406388300979
30
0
41
1
10
-0.394976888875306
20
-6.18726435105106
30
0
41
1
10
-0.394976888875306
20
-6.45627504712579
30
0
41
1
10
-0.394976888875306
20
-6.6768468885183
30
0
41
1
10
-0.394976888875306
20
-6.85136201549099
30
0
41
1
10
-0.394976888875306
20
-6.98112245032084
30
0
41
1
10
-0.394976888875306
20
-7.10982246715957
30
0
41
1
10
-0.394976888875306
20
-7.28009512097313
30
0
41
1
10
-0.394976888875306
20
-7.49008091096033
30
0
41
1
10
-0.394976888875306
20
-7.69650359935568
30
0
41
1
10
-0.394976888875306
20
-7.85964216476054
30
0
41
1
10
-0.394976888875306
20
-7.98086146605701
30
0
41
1
10
-0.394976888875306
20
-8.10100253994156
30
0
41
1
10
-0.394976888875306
20
-8.22006380191277
30
0
41
1
10
-0.394976888875306
20
-8.3380422654499
30
0
41
1
10
-0.394976888875306
20
-8.49397420958985
30
0
41
1
10
-0.394976888875306
20
-8.64751156797169
30
0
41
1
10
-0.394976888875306
20
-8.79907644696402
30
0
41
1
10
-0.394976888875306
20
-8.94918034619519
30
0
41
1
10
-0.394976888875306
20
-9.13390680482667
30
0
41
1
10
-0.394976888875306
20
-9.31494999082747
30
0
41
1
10
-0.394976888875306
20
-9.45767863215664
30
0
41
1
10
-0.394976888875306
20
-9.59892077296985
30
0
41
1
10
-0.394976888875306
20
-9.73773602301958
30
0
41
1
10
-0.394976888875306
20
-9.85736937045593
30
0
41
1
10
-0.394976888875306
20
-9.92517902838179
30
0
41
1
10
-0.394976888875306
20
-9.99261145812801
30
0
41
1
10
-0.394976888875306
20
-10.0761265678462
30
0
41
1
10
-0.394976888875306
20
-10.2083399899529
30
0
41
1
10
-0.394976888875306
20
-10.3380960572489
30
0
41
1
10
-0.394976888875306
20
-10.4657231753345
30
0
41
1
10
-0.394976888875306
20
-10.5602461538978
30
0
41
1
10
-0.394976888875306
20
-10.6536100894112
30
0
41
1
10
-0.394976888875306
20
-10.7458098983122
30
0
41
1
10
-0.394976888875306
20
-10.8368404586376
30
0
41
1
10
-0.394976888875306
20
-10.9266969919675
30
0
41
1
10
-0.394976888875306
20
-11.0153746961414
30
0
41
1
10
-0.394976888875306
20
-11.1028676417002
30
0
41
1
10
-0.394976888875306
20
-11.1891707748317
30
0
41
1
10
-0.394976888875306
20
-11.3026972665534
30
0
41
1
10
-0.394976888875306
20
-11.413674138825
30
0
41
1
10
-0.394976888875306
20
-11.5223699808134
30
0
41
1
10
-0.394976888875306
20
-11.6026363770329
30
0
41
1
10
-0.394976888875306
20
-11.6684804460587
30
0
41
1
10
-0.394976888875306
20
-11.7205808983271
30
0
41
1
10
-0.394976888875306
20
-11.7722691819395
30
0
41
1
10
-0.394976888875306
20
-11.836053984022
30
0
41
1
10
-0.394976888875306
20
-11.9113764724791
30
0
41
1
10
-0.394976888875306
20
-11.9854459723214
30
0
41
1
10
-0.394976888875306
20
-12.0582544232072
30
0
41
1
10
-0.394976888875306
20
-12.1297946270485
30
0
41
1
10
-0.394976888875306
20
-12.2235215963167
30
0
41
1
10
-0.394976888875306
20
-12.3373769247913
30
0
41
1
10
-0.394976888875306
20
-12.446899173783
30
0
41
1
10
-0.394976888875306
20
-12.5319491682166
30
0
41
1
10
-0.394976888875306
20
-12.6152283642396
30
0
41
1
10
-0.394976888875306
20
-12.6957215996061
30
0
41
1
10
-0.394976888875306
20
-12.773610902979
30
0
41
1
10
-0.394976888875306
20
-12.8306328883531
30
0
41
1
10
-0.394976888875306
20
-12.8862769625636
30
0
41
1
10
-0.394976888875306
20
-12.940532100831
30
0
41
1
10
-0.394976888875306
20
-12.9933861205259
30
0
41
1
10
-0.394976888875306
20
-13.0448282543027
30
0
41
1
10
-0.394976888875306
20
-13.0948461430692
30
0
41
1
10
-0.394976888875306
20
-13.1596507828291
30
0
41
1
10
-0.394976888875306
20
-13.221467049789
30
0
41
1
10
-0.394976888875306
20
-13.2804176772461
30
0
41
1
10
-0.394976888875306
20
-13.3231185723383
30
0
41
1
10
-0.394976888875306
20
-13.3643136307331
30
0
41
1
10
-0.394976888875306
20
-13.4039879870964
30
0
41
1
10
-0.394976888875306
20
-13.4421262291561
30
0
41
1
10
-0.394976888875306
20
-13.490931201485
30
0
41
1
10
-0.394976888875306
20
-13.5365270011545
30
0
41
1
10
-0.394976888875306
20
-13.5789822078612
30
0
41
1
10
-0.394976888875306
20
-13.6091837809887
30
0
41
1
10
-0.394976888875306
20
-13.6377421279937
30
0
41
1
10
-0.394976888875306
20
-13.6736219491958
30
0
41
1
10
-0.394976888875306
20
-13.706079968468
30
0
41
1
10
-0.394976888875306
20
-13.7351343539634
30
0
41
1
10
-0.394976888875306
20
-13.7551609910392
30
0
41
1
10
-0.394976888875306
20
-13.7734119916164
30
0
41
1
10
-0.394976888875306
20
-13.7898613788954
30
0
41
1
10
-0.394976888875306
20
-13.8044829828858
30
0
41
1
10
-0.394976888875306
20
-13.8172491473121
30
0
41
1
10
-0.394976888875306
20
-13.8281307581185
30
0
41
1
10
-0.394976888875306
20
-13.8370980881852
30
0
41
1
10
-0.394976888875306
20
-13.8421014019358
30
0
41
1
10
-0.394976888875306
20
-13.8443373794894
30
0
41
1
10
-0.394976888875306
20
-13.8446019297682
30
0
0
SPLINE
5
1D5
100
AcDbEntity
8
1
62
256
6
ByLayer
370
18
48
1
60
0
100
AcDbSpline
70
4
71
3
72
10
73
6
40
0
40
0
40
0
40
0
40
0.315026012182571
40
0.315026012182571
40
1
40
1
40
1
40
1
41
1
10
36.173406834619
20
16.8869944027608
30
0
41
1
10
36.1796221091293
20
16.8895379817805
30
0
41
1
10
36.1856417214567
20
16.8922266708017
30
0
41
1
10
36.2040539957902
20
16.9010701143538
30
0
41
1
10
36.2157754612791
20
16.9076416100246
30
0
41
1
10
36.2267116816956
20
16.9144943673584
30
0
0
SPLINE
5
1D6
100
AcDbEntity
8
1
62
256
6
ByLayer
370
18
48
1
60
0
100
AcDbSpline
70
4
71
3
72
8
73
4
40
0
40
0
40
0
40
0
40
1
40
1
40
1
40
1
41
1
10
36.9482648000691
20
16.4304025001172
30
0
41
1
10
36.964749018674
20
16.419080989673
30
0
41
1
10
36.9813842147563
20
16.4105339145227
30
0
41
1
10
36.9975481719435
20
16.4039183752396
30
0
0
SPLINE
5
1D7
100
AcDbEntity
8
1
62
256
6
ByLayer
370
18
48
1
60
0
100
AcDbSpline
70
4
71
3
72
10
73
6
40
0
40
0
40
0
40
0
40
0.629893813379378
40
0.629893813379378
40
1
40
1
40
1
40
1
41
1
10
35.9591908078014
20
16.8925403554724
30
0
41
1
10
35.9679835276867
20
16.8877775184404
30
0
41
1
10
35.9774890274331
20
16.8833693945467
30
0
41
1
10
35.9939069074525
20
16.8772494906382
30
0
41
1
10
36.0002920196744
20
16.8751699750856
30
0
41
1
10
36.0069948427752
20
16.8733378577853
30
0
0
SPLINE
5
1D8
100
AcDbEntity
8
1
62
256
6
ByLayer
370
18
48
1
60
0
100
AcDbSpline
70
4
71
3
72
10
73
6
40
0
40
0
40
0
40
0
40
0.1237326062654
40
0.1237326062654
40
1
40
1
40
1
40
1
41
1
10
36.9475823604089
20
15.5353404713826
30
0
41
1
10
36.9473472339764
20
15.5330803997472
30
0
41
1
10
36.9471496531212
20
15.5308469243422
30
0
41
1
10
36.9458489906844
20
15.5131690302896
30
0
41
1
10
36.9464180737743
20
15.498949380104
30
0
41
1
10
36.9480625563061
20
15.4858580530136
30
0
0
SPLINE
5
1D9
100
AcDbEntity
8
1
62
256
6
ByLayer
370
18
48
1
60
0
100
AcDbSpline
70
4
71
3
72
10
73
6
40
0
40
0
40
0
40
0
40
0.629893813379249
40
0.629893813379249
40
1
40
1
40
1
40
1
41
1
10
36.3952613243118
20
15.1003277347892
30
0
41
1
10
36.3843571429698
20
15.1029791103644
30
0
41
1
10
36.3728373633431
20
15.1053729543777
30
0
41
1
10
36.3535016434196
20
15.1085750183821
30
0
41
1
10
36.3460947665125
20
15.1096327692496
30
0
41
1
10
36.3384539471326
20
15.1105268902708
30
0
0
SPLINE
5
1DA
100
AcDbEntity
8
1
62
256
6
ByLayer
370
18
48
1
60
0
100
AcDbSpline
70
4
71
3
72
8
73
4
40
0
40
0
40
0
40
0
40
1
40
1
40
1
40
1
41
1
10
35.3971839898408
20
15.553462247941
30
0
41
1
10
35.3832287983846
20
15.5673127855339
30
0
41
1
10
35.3697219929038
20
15.5789882512857
30
0
41
1
10
35.3569039601729
20
15.5889497150251
30
0
0
SPLINE
5
1DB
100
AcDbEntity
8
1
62
256
6
ByLayer
370
18
48
1
60
0
100
AcDbSpline
70
4
71
3
72
10
73
6
40
0
40
0
40
0
40
0
40
0.315026012182583
40
0.315026012182583
40
1
40
1
40
1
40
1
41
1
10
36.1720419552896
20
15.0968703452959
30
0
41
1
10
36.1666273913378
20
15.0951274768349
30
0
41
1
10
36.1614694956605
20
15.0933005044638
30
0
41
1
10
36.1459257818444
20
15.0873256214291
30
0
41
1
10
36.1363839269907
20
15.0829337363934
30
0
41
1
10
36.1277404504208
20
15.0783737229064
30
0
0
SPLINE
5
1DC
100
AcDbEntity
8
1
62
256
6
ByLayer
370
18
48
1
60
0
100
AcDbSpline
70
4
71
3
72
10
73
6
40
0
40
0
40
0
40
0
40
0.516155291935607
40
0.516155291935607
40
1
40
1
40
1
40
1
41
1
10
35.2941745172999
20
16.2641315806425
30
0
41
1
10
35.2999002242195
20
16.2687091971395
30
0
41
1
10
35.30569549197
20
16.2738087170278
30
0
41
1
10
35.3170034827888
20
16.284901713786
30
0
41
1
10
35.3225343874531
20
16.2908432091211
30
0
41
1
10
35.328062787153
20
16.2974411587312
30
0
0
SPLINE
5
1DD
100
AcDbEntity
8
1
62
256
6
ByLayer
370
18
48
1
60
0
100
AcDbSpline
70
4
71
3
72
10
73
6
40
0
40
0
40
0
40
0
40
0.516155291935498
40
0.516155291935498
40
1
40
1
40
1
40
1
41
1
10
37.0602776148165
20
15.7287365096222
30
0
41
1
10
37.0528213448681
20
15.7224283300965
30
0
41
1
10
37.0453623226846
20
15.7156650557751
30
0
41
1
10
37.0310404826301
20
15.7015582097811
30
0
41
1
10
37.0241404291658
20
15.6942475656461
30
0
41
1
10
37.0173860027546
20
15.6864235893246
30
0
0
SPLINE
5
1DE
100
AcDbEntity
8
1
62
256
6
ByLayer
370
18
48
1
60
0
100
AcDbSpline
70
4
71
3
72
8
73
4
40
0
40
0
40
0
40
0
40
1
40
1
40
1
40
1
41
1
10
35.5122097755377
20
15.3680252702946
30
0
41
1
10
35.5076737020683
20
15.3827502374343
30
0
41
1
10
35.5017251265165
20
15.3987502920198
30
0
41
1
10
35.4937923393263
20
15.4160356749804
30
0
0
SPLINE
5
1DF
100
AcDbEntity
8
1
62
256
6
ByLayer
370
18
48
1
60
0
100
AcDbSpline
70
4
71
3
72
8
73
4
40
0
40
0
40
0
40
0
40
1
40
1
40
1
40
1
41
1
10
36.8422423565787
20
16.6248428199701
30
0
41
1
10
36.8434325055919
20
16.6067719283741
30
0
41
1
10
36.8462526905421
20
16.5876434831871
30
0
41
1
10
36.8516564505835
20
16.5678290730778
30
0
0
SPLINE
5
1E0
100
AcDbEntity
8
1
62
256
6
ByLayer
370
18
48
1
60
0
100
AcDbSpline
70
4
71
3
72
10
73
6
40
0
40
0
40
0
40
0
40
0.123732606265415
40
0.123732606265415
40
1
40
1
40
1
40
1
41
1
10
35.397866429501
20
16.4485242766755
30
0
41
1
10
35.3984175049751
20
16.4511002973526
30
0
41
1
10
35.3989404840345
20
16.4536591709619
30
0
41
1
10
35.4029155158167
20
16.4740114343598
30
0
41
1
10
35.4051027808316
20
16.4909874326501
30
0
41
1
10
35.4063895758103
20
16.5070100372511
30
0
0
INSERT
5
1F2
100
AcDbEntity
8
2
62
256
6
ByLayer
370
25
48
1
60
0
100
AcDbBlockReference
2
DimnDraft3D11
10
0
20
0
30
0
41
1
42
1
43
1
50
0
210
0
220
0
230
1
0
LINE
5
72
100
AcDbEntity
8
1
62
256
6
ByLayer
370
18
48
1
60
0
100
AcDbLine
10
36.06497
20
15.030006
30
0
11
35.924622
21
14.889658
31
0
39
0
210
0
220
0
230
1
0
LINE
5
74
100
AcDbEntity
8
1
62
256
6
ByLayer
370
18
48
1
60
0
100
AcDbLine
10
35.175511
20
16.143497
30
0
11
35.31319
21
16.281177
31
0
39
0
210
0
220
0
230
1
0
LINE
5
75
100
AcDbEntity
8
1
62
256
6
ByLayer
370
18
48
1
60
0
100
AcDbLine
10
37.035925
20
15.706354
30
0
11
36.898245
21
15.568674
31
0
39
0
210
0
220
0
230
1
0
LINE
5
76
100
AcDbEntity
8
1
62
256
6
ByLayer
370
18
48
1
60
0
100
AcDbLine
10
48.786139
20
17.336907
30
0
11
49.116737
21
17.667505
31
0
39
0
210
0
220
0
230
1
0
LINE
5
77
100
AcDbEntity
8
1
62
256
6
ByLayer
370
18
48
1
60
0
100
AcDbLine
10
28.83919
20
17.469757
30
0
11
28.399374
21
17.095073
31
0
39
0
210
0
220
0
230
1
0
LINE
5
78
100
AcDbEntity
8
1
62
256
6
ByLayer
370
18
48
1
60
0
100
AcDbLine
10
0.3
20
-20
30
0
11
20.920792
21
-20
31
0
39
0
210
0
220
0
230
1
0
LINE
5
79
100
AcDbEntity
8
1
62
256
6
ByLayer
370
18
48
1
60
0
100
AcDbLine
10
0.3
20
20
30
0
11
0
21
19.7
31
0
39
0
210
0
220
0
230
1
0
LINE
5
7A
100
AcDbEntity
8
1
62
256
6
ByLayer
370
18
48
1
60
0
100
AcDbLine
10
0
20
-19.7
30
0
11
0.3
21
-20
31
0
39
0
210
0
220
0
230
1
0
LINE
5
7B
100
AcDbEntity
8
1
62
256
6
ByLayer
370
18
48
1
60
0
100
AcDbLine
10
21.928411
20
23.760485
30
0
11
20.920792
21
20
31
0
39
0
210
0
220
0
230
1
0
LINE
5
7C
100
AcDbEntity
8
1
62
256
6
ByLayer
370
18
48
1
60
0
100
AcDbLine
10
20.920792
20
-20
30
0
11
20.960985
21
-20.15
31
0
39
0
210
0
220
0
230
1
0
LINE
5
7D
100
AcDbEntity
8
1
62
256
6
ByLayer
370
18
48
1
60
0
100
AcDbLine
10
20.960985
20
-20.15
30
0
11
21.822031
21
-20.15
31
0
39
0
210
0
220
0
230
1
0
LINE
5
7E
100
AcDbEntity
8
1
62
256
6
ByLayer
370
18
48
1
60
0
100
AcDbLine
10
20.920792
20
20
30
0
11
0.3
21
20
31
0
39
0
210
0
220
0
230
1
0
LINE
5
7F
100
AcDbEntity
8
1
62
256
6
ByLayer
370
18
48
1
60
0
100
AcDbLine
10
31.187241
20
15.150418
30
0
11
31.501289
21
15.417958
31
0
39
0
210
0
220
0
230
1
0
LINE
5
80
100
AcDbEntity
8
1
62
256
6
ByLayer
370
18
48
1
60
0
100
AcDbLine
10
21.579985
20
18.614885
30
0
11
16.868675
21
16.493323
31
0
39
0
210
0
220
0
230
1
0
LINE
5
81
100
AcDbEntity
8
1
62
256
6
ByLayer
370
18
48
1
60
0
100
AcDbLine
10
16.837085
20
11.653557
30
0
11
23.386632
21
14.602899
31
0
39
0
210
0
220
0
230
1
0
LINE
5
82
100
AcDbEntity
8
1
62
256
6
ByLayer
370
18
48
1
60
0
100
AcDbLine
10
23.435877
20
14.664511
30
0
11
23.551976
21
14.986489
31
0
39
0
210
0
220
0
230
1
0
LINE
5
83
100
AcDbEntity
8
1
62
256
6
ByLayer
370
18
48
1
60
0
100
AcDbLine
10
21.976803
20
18.484444
30
0
11
21.658759
21
18.610922
31
0
39
0
210
0
220
0
230
1
0
LINE
5
84
100
AcDbEntity
8
1
62
256
6
ByLayer
370
18
48
1
60
0
100
AcDbLine
10
40.667505
20
26.116737
30
0
11
40.336907
21
25.786139
31
0
39
0
210
0
220
0
230
1
0
LINE
5
85
100
AcDbEntity
8
1
62
256
6
ByLayer
370
18
48
1
60
0
100
AcDbLine
10
38.221648
20
13.515373
30
0
11
38.394331
21
13.688055
31
0
39
0
210
0
220
0
230
1
0
LINE
5
86
100
AcDbEntity
8
1
62
256
6
ByLayer
370
18
48
1
60
0
100
AcDbLine
10
33.868847
20
18.213539
30
0
11
33.696216
21
18.040908
31
0
39
0
210
0
220
0
230
1
0
LINE
5
87
100
AcDbEntity
8
1
62
256
6
ByLayer
370
18
48
1
60
0
100
AcDbLine
10
36.149134
20
16.822514
30
0
11
36.289482
21
16.962862
31
0
39
0
210
0
220
0
230
1
0
LINE
5
88
100
AcDbEntity
8
80
62
256
6
ByLayer
370
18
48
1
60
0
100
AcDbLine
10
0
20
0
30
0
11
-5
21
0
31
0
39
0
210
0
220
0
230
1
0
LINE
5
89
100
AcDbEntity
8
4
62
256
6
ByLayer
370
18
48
0.05
60
0
100
AcDbLine
10
0
20
0
30
0
11
50
21
0
31
0
39
0
210
0
220
0
230
1
0
LINE
5
8B
100
AcDbEntity
8
81
62
256
6
ByLayer
370
18
48
1
60
0
100
AcDbLine
10
50
20
27
30
0
11
60
21
27
31
0
39
0
210
0
220
0
230
1
0
LINE
5
8C
100
AcDbEntity
8
SK4
62
256
6
ByLayer
370
18
48
0.05
60
0
100
AcDbLine
10
-29
20
0
30
0
11
50
21
0
31
0
39
0
210
0
220
0
230
1
0
LINE
5
8E
100
AcDbEntity
8
1
62
256
6
ByLayer
370
18
48
1
60
0
100
AcDbLine
10
35.934732
20
14.889202
30
0
11
36.022555
21
14.977025
31
0
39
0
210
0
220
0
230
1
0
LINE
5
8F
100
AcDbEntity
8
1
62
256
6
ByLayer
370
18
48
1
60
0
100
AcDbLine
10
38.221648
20
13.515373
30
0
11
38.221754
21
13.515479
31
0
39
0
210
0
220
0
230
1
0
LINE
5
90
100
AcDbEntity
8
1
62
256
6
ByLayer
370
18
48
1
60
0
100
AcDbLine
10
44.690379
20
17.118717
30
0
11
48.628417
21
17.441891
31
0
39
0
210
0
220
0
230
1
0
LINE
5
91
100
AcDbEntity
8
1
62
256
6
ByLayer
370
18
48
1
60
0
100
AcDbLine
10
40.441891
20
25.628417
30
0
11
40.254248
21
23.341891
31
0
39
0
210
0
220
0
230
1
0
LINE
5
92
100
AcDbEntity
8
1
62
256
6
ByLayer
370
18
48
1
60
0
100
AcDbLine
10
40.441891
20
25.628417
30
0
11
40.363271
21
25.549797
31
0
39
0
210
0
220
0
230
1
0
LINE
5
93
100
AcDbEntity
8
1
62
256
6
ByLayer
370
18
48
1
60
0
100
AcDbLine
10
48.554968
20
17.368442
30
0
11
48.628417
21
17.441891
31
0
39
0
210
0
220
0
230
1
0
LINE
5
94
100
AcDbEntity
8
1
62
256
6
ByLayer
370
18
48
1
60
0
100
AcDbLine
10
44.650332
20
17.069653
30
0
11
45.294287
21
17.125334
31
0
39
0
210
0
220
0
230
1
0
LINE
5
95
100
AcDbEntity
8
1
62
256
6
ByLayer
370
18
48
1
60
0
100
AcDbLine
10
20.920792
20
20
30
0
11
20.920792
21
19.595386
31
0
39
0
210
0
220
0
230
1
0
LINE
5
96
100
AcDbEntity
8
1
62
256
6
ByLayer
370
18
48
1
60
0
100
AcDbLine
10
20.920792
20
-19.595386
30
0
11
20.920792
21
-20
31
0
39
0
210
0
220
0
230
1
0
LINE
5
97
100
AcDbEntity
8
1
62
256
6
ByLayer
370
18
48
1
60
0
100
AcDbLine
10
0.3
20
-20
30
0
11
0.3
21
20
31
0
39
0
210
0
220
0
230
1
0
LINE
5
98
100
AcDbEntity
8
1
62
256
6
ByLayer
370
18
48
1
60
0
100
AcDbLine
10
0
20
-19.7
30
0
11
0
21
19.7
31
0
39
0
210
0
220
0
230
1
0
LINE
5
99
100
AcDbEntity
8
1
62
256
6
ByLayer
370
18
48
1
60
0
100
AcDbLine
10
17.080365
20
11.762653
30
0
11
17.080365
21
-18.47854
31
0
39
0
210
0
220
0
230
1
0
LINE
5
9A
100
AcDbEntity
8
SK1
62
256
6
ByLayer
370
18
48
1
60
0
100
AcDbLine
10
-0.2
20
5.703176
30
0
11
-0.2
21
14.083485
31
0
39
0
210
0
220
0
230
1
0
LINE
5
9C
100
AcDbEntity
8
SK1
62
256
6
ByLayer
370
18
48
1
60
0
100
AcDbLine
10
-0.2
20
-14.083485
30
0
11
-0.2
21
-5.703176
31
0
39
0
210
0
220
0
230
1
0
LINE
5
9D
100
AcDbEntity
8
1
62
256
6
ByLayer
370
18
48
1
60
0
100
AcDbLine
10
48.586861
20
17.295102
30
0
11
48.542694
21
17.396668
31
0
39
0
210
0
220
0
230
1
0
LINE
5
9E
100
AcDbEntity
8
1
62
256
6
ByLayer
370
18
48
1
60
0
100
AcDbLine
10
21.065143
20
20.145452
30
0
11
21.065143
21
18.382616
31
0
39
0
210
0
220
0
230
1
0
LINE
5
9F
100
AcDbEntity
8
1
62
256
6
ByLayer
370
18
48
1
60
0
100
AcDbLine
10
21.065143
20
13.557259
30
0
11
21.065143
21
-19.748987
31
0
39
0
210
0
220
0
230
1
0
LINE
5
A0
100
AcDbEntity
8
1
62
256
6
ByLayer
370
18
48
1
60
0
100
AcDbLine
10
43.754897
20
15.428952
30
0
11
43.791187
21
15.871165
31
0
39
0
210
0
220
0
230
1
0
LINE
5
A1
100
AcDbEntity
8
1
62
256
6
ByLayer
370
18
48
1
60
0
100
AcDbLine
10
44.549119
20
16.94597
30
0
11
48.586861
21
17.295102
31
0
39
0
210
0
220
0
230
1
0
LINE
5
A2
100
AcDbEntity
8
1
62
256
6
ByLayer
370
18
48
1
60
0
100
AcDbLine
10
37.500916
20
7.296675
30
0
11
36.230687
21
9.103592
31
0
39
0
210
0
220
0
230
1
0
LINE
5
A3
100
AcDbEntity
8
1
62
256
6
ByLayer
370
18
48
1
60
0
100
AcDbLine
10
29.846496
20
18.185183
30
0
11
28.589799
21
19.97285
31
0
39
0
210
0
220
0
230
1
0
LINE
5
A4
100
AcDbEntity
8
1
62
256
6
ByLayer
370
18
48
1
60
0
100
AcDbLine
10
22.078325
20
18.416181
30
0
11
22.078325
21
24.082121
31
0
39
0
210
0
220
0
230
1
0
LINE
5
A5
100
AcDbEntity
8
1
62
256
6
ByLayer
370
18
48
1
60
0
100
AcDbLine
10
40.092442
20
23.289764
30
0
11
40.280856
21
25.585692
31
0
39
0
210
0
220
0
230
1
0
LINE
5
A6
100
AcDbEntity
8
1
62
256
6
ByLayer
370
18
48
1
60
0
100
AcDbLine
10
20.960985
20
-20.15
30
0
11
20.960985
21
-19.748713
31
0
39
0
210
0
220
0
230
1
0
LINE
5
A7
100
AcDbEntity
8
1
62
256
6
ByLayer
370
18
48
1
60
0
100
AcDbLine
10
32.652475
20
6.958686
30
0
11
31.889687
21
8.043761
31
0
39
0
210
0
220
0
230
1
0
LINE
5
A8
100
AcDbEntity
8
1
62
256
6
ByLayer
370
18
48
1
60
0
100
AcDbLine
10
27.448077
20
14.362007
30
0
11
26.721431
21
15.395669
31
0
39
0
210
0
220
0
230
1
0
LINE
5
A9
100
AcDbEntity
8
1
62
256
6
ByLayer
370
18
48
1
60
0
100
AcDbLine
10
40.209996
20
23.326024
30
0
11
40.391481
21
25.537515
31
0
39
0
210
0
220
0
230
1
0
LINE
5
AA
100
AcDbEntity
8
1
62
256
6
ByLayer
370
18
48
1
60
0
100
AcDbLine
10
43.167983
20
14.761991
30
0
11
43.189838
21
15.028301
31
0
39
0
210
0
220
0
230
1
0
LINE
5
AB
100
AcDbEntity
8
1
62
256
6
ByLayer
370
18
48
1
60
0
100
AcDbLine
10
36.366974
20
9.204435
30
0
11
35.043089
21
8.224713
31
0
39
0
210
0
220
0
230
1
0
LINE
5
AC
100
AcDbEntity
8
1
62
256
6
ByLayer
370
18
48
1
60
0
100
AcDbLine
10
32.377299
20
9.539237
30
0
11
31.311271
21
8.631077
31
0
39
0
210
0
220
0
230
1
0
LINE
5
AD
100
AcDbEntity
8
1
62
256
6
ByLayer
370
18
48
1
60
0
100
AcDbLine
10
44.360311
20
23.474297
30
0
11
42.083581
21
23.896877
31
0
39
0
210
0
220
0
230
1
0
LINE
5
AE
100
AcDbEntity
8
1
62
256
6
ByLayer
370
18
48
1
60
0
100
AcDbLine
10
35.403543
20
8.532526
30
0
11
35.036491
21
8.219831
31
0
39
0
210
0
220
0
230
1
0
LINE
5
AF
100
AcDbEntity
8
1
62
256
6
ByLayer
370
18
48
1
60
0
100
AcDbLine
10
31.25039
20
15.222281
30
0
11
30.962912
21
14.977376
31
0
39
0
210
0
220
0
230
1
0
LINE
5
B0
100
AcDbEntity
8
1
62
256
6
ByLayer
370
18
48
1
60
0
100
AcDbLine
10
33.504561
20
18.188472
30
0
11
33.252535
21
17.973768
31
0
39
0
210
0
220
0
230
1
0
LINE
5
B1
100
AcDbEntity
8
1
62
256
6
ByLayer
370
18
48
1
60
0
100
AcDbLine
10
45.819865
20
18.581967
30
0
11
46.199925
21
20.857424
31
0
39
0
210
0
220
0
230
1
0
LINE
5
B2
100
AcDbEntity
8
1
62
256
6
ByLayer
370
18
48
1
60
0
100
AcDbLine
10
33.252535
20
17.973768
30
0
11
34.588452
21
18.904547
31
0
39
0
210
0
220
0
230
1
0
LINE
5
B3
100
AcDbEntity
8
1
62
256
6
ByLayer
370
18
48
1
60
0
100
AcDbLine
10
38.698244
20
13.644867
30
0
11
37.356464
21
12.709093
31
0
39
0
210
0
220
0
230
1
0
LINE
5
B4
100
AcDbEntity
8
1
62
256
6
ByLayer
370
18
48
1
60
0
100
AcDbLine
10
33.504561
20
18.188472
30
0
11
34.846342
21
19.124246
31
0
39
0
210
0
220
0
230
1
0
LINE
5
B5
100
AcDbEntity
8
1
62
256
6
ByLayer
370
18
48
1
60
0
100
AcDbLine
10
29.275383
20
16.937618
30
0
11
34.405173
21
20.515197
31
0
39
0
210
0
220
0
230
1
0
LINE
5
B6
100
AcDbEntity
8
1
62
256
6
ByLayer
370
18
48
1
60
0
100
AcDbLine
10
28.870343
20
14.527925
30
0
11
27.804315
21
13.619765
31
0
39
0
210
0
220
0
230
1
0
LINE
5
B7
100
AcDbEntity
8
1
62
256
6
ByLayer
370
18
48
1
60
0
100
AcDbLine
10
34.846342
20
19.124246
30
0
11
34.588452
21
18.904547
31
0
39
0
210
0
220
0
230
1
0
LINE
5
B8
100
AcDbEntity
8
1
62
256
6
ByLayer
370
18
48
1
60
0
100
AcDbLine
10
35.403543
20
8.532526
30
0
11
36.366974
21
9.204435
31
0
39
0
210
0
220
0
230
1
0
LINE
5
B9
100
AcDbEntity
8
1
62
256
6
ByLayer
370
18
48
1
60
0
100
AcDbLine
10
34.788335
20
9.095376
30
0
11
39.918125
21
12.672954
31
0
39
0
210
0
220
0
230
1
0
LINE
5
BA
100
AcDbEntity
8
1
62
256
6
ByLayer
370
18
48
1
60
0
100
AcDbLine
10
28.870343
20
14.527925
30
0
11
32.377299
21
9.539237
31
0
39
0
210
0
220
0
230
1
0
LINE
5
BB
100
AcDbEntity
8
1
62
256
6
ByLayer
370
18
48
1
60
0
100
AcDbLine
10
29.82892
20
14.187284
30
0
11
32.358527
21
10.588886
31
0
39
0
210
0
220
0
230
1
0
LINE
5
BC
100
AcDbEntity
8
1
62
256
6
ByLayer
370
18
48
1
60
0
100
AcDbLine
10
31.311271
20
8.631077
30
0
11
27.804315
21
13.619765
31
0
39
0
210
0
220
0
230
1
0
LINE
5
BD
100
AcDbEntity
8
1
62
256
6
ByLayer
370
18
48
1
60
0
100
AcDbLine
10
36.366974
20
9.204435
30
0
11
36.394393
21
9.24553
31
0
39
0
210
0
220
0
230
1
0
LINE
5
BE
100
AcDbEntity
8
1
62
256
6
ByLayer
370
18
48
1
60
0
100
AcDbLine
10
33.750212
20
20.888976
30
0
11
30.032125
21
18.295936
31
0
39
0
210
0
220
0
230
1
0
LINE
5
BF
100
AcDbEntity
8
1
62
256
6
ByLayer
370
18
48
1
60
0
100
AcDbLine
10
43.243651
20
20.86319
30
0
11
46.337608
21
22.911535
31
0
39
0
210
0
220
0
230
1
0
LINE
5
C0
100
AcDbEntity
8
1
62
256
6
ByLayer
370
18
48
1
60
0
100
AcDbLine
10
29.985465
20
18.282211
30
0
11
29.022034
21
17.610303
31
0
39
0
210
0
220
0
230
1
0
LINE
5
C1
100
AcDbEntity
8
1
62
256
6
ByLayer
370
18
48
1
60
0
100
AcDbLine
10
29.985465
20
18.282211
30
0
11
30.032125
21
18.295936
31
0
39
0
210
0
220
0
230
1
0
LINE
5
C2
100
AcDbEntity
8
1
62
256
6
ByLayer
370
18
48
1
60
0
100
AcDbLine
10
40.112481
20
11.83857
30
0
11
36.394393
21
9.24553
31
0
39
0
210
0
220
0
230
1
0
LINE
5
C3
100
AcDbEntity
8
1
62
256
6
ByLayer
370
18
48
1
60
0
100
AcDbLine
10
30.962912
20
14.977376
30
0
11
29.82892
21
14.187284
31
0
39
0
210
0
220
0
230
1
0
LINE
5
C4
100
AcDbEntity
8
1
62
256
6
ByLayer
370
18
48
1
60
0
100
AcDbLine
10
25.581941
20
14.583456
30
0
11
31.496457
21
6.169984
31
0
39
0
210
0
220
0
230
1
0
LINE
5
C5
100
AcDbEntity
8
1
62
256
6
ByLayer
370
18
48
1
60
0
100
AcDbLine
10
6.663397
20
13.295619
30
0
11
6.663397
21
19.024574
31
0
39
0
210
0
220
0
230
1
0
LINE
5
C6
100
AcDbEntity
8
1
62
256
6
ByLayer
370
18
48
1
60
0
100
AcDbLine
10
40.280856
20
25.585692
30
0
11
22.080929
21
24.092121
31
0
39
0
210
0
220
0
230
1
0
LINE
5
C7
100
AcDbEntity
8
1
62
256
6
ByLayer
370
18
48
1
60
0
100
AcDbLine
10
6.663397
20
6.16973
30
0
11
6.663397
21
11.191578
31
0
39
0
210
0
220
0
230
1
0
LINE
5
C8
100
AcDbEntity
8
1
62
256
6
ByLayer
370
18
48
1
60
0
100
AcDbLine
10
9.076795
20
-5.85989
30
0
11
6.923205
21
-5.85989
31
0
39
0
210
0
220
0
230
1
0
LINE
5
C9
100
AcDbEntity
8
1
62
256
6
ByLayer
370
18
48
1
60
0
100
AcDbLine
10
43.167983
20
14.761991
30
0
11
43.754897
21
15.428952
31
0
39
0
210
0
220
0
230
1
0
LINE
5
CA
100
AcDbEntity
8
1
62
256
6
ByLayer
370
18
48
1
60
0
100
AcDbLine
10
17.080365
20
18.47854
30
0
11
17.080365
21
16.609795
31
0
39
0
210
0
220
0
230
1
0
LINE
5
CB
100
AcDbEntity
8
1
62
256
6
ByLayer
370
18
48
1
60
0
100
AcDbLine
10
30.698879
20
4.033298
30
0
11
30.623825
21
3.98429
31
0
39
0
210
0
220
0
230
1
0
LINE
5
CC
100
AcDbEntity
8
1
62
256
6
ByLayer
370
18
48
1
60
0
100
AcDbLine
10
22.227779
20
-19.748987
30
0
11
21.065143
21
-19.748987
31
0
39
0
210
0
220
0
230
1
0
LINE
5
CD
100
AcDbEntity
8
1
62
256
6
ByLayer
370
18
48
1
60
0
100
AcDbLine
10
9.336603
20
6.16973
30
0
11
9.336603
21
11.191578
31
0
39
0
210
0
220
0
230
1
0
LINE
5
CE
100
AcDbEntity
8
1
62
256
6
ByLayer
370
18
48
1
60
0
100
AcDbLine
10
9.336603
20
-19.024574
30
0
11
9.336603
21
-6.16973
31
0
39
0
210
0
220
0
230
1
0
LINE
5
CF
100
AcDbEntity
8
1
62
256
6
ByLayer
370
18
48
1
60
0
100
AcDbLine
10
6.923205
20
-19.122283
30
0
11
6.923205
21
-5.85989
31
0
39
0
210
0
220
0
230
1
0
LINE
5
D0
100
AcDbEntity
8
1
62
256
6
ByLayer
370
18
48
1
60
0
100
AcDbLine
10
9.076795
20
5.85989
30
0
11
9.076795
21
10.945788
31
0
39
0
210
0
220
0
230
1
0
LINE
5
D1
100
AcDbEntity
8
1
62
256
6
ByLayer
370
18
48
1
60
0
100
AcDbLine
10
30.773934
20
4.082305
30
0
11
30.698879
21
4.033298
31
0
39
0
210
0
220
0
230
1
0
LINE
5
D2
100
AcDbEntity
8
1
62
256
6
ByLayer
370
18
48
1
60
0
100
AcDbLine
10
6.923205
20
5.85989
30
0
11
9.076795
21
5.85989
31
0
39
0
210
0
220
0
230
1
0
LINE
5
D3
100
AcDbEntity
8
1
62
256
6
ByLayer
370
18
48
1
60
0
100
AcDbLine
10
28.589799
20
19.97285
30
0
11
28.43597
21
19.860282
31
0
39
0
210
0
220
0
230
1
0
LINE
5
D4
100
AcDbEntity
8
1
62
256
6
ByLayer
370
18
48
1
60
0
100
AcDbLine
10
6.923205
20
-19.122283
30
0
11
9.076795
21
-19.122283
31
0
39
0
210
0
220
0
230
1
0
LINE
5
D5
100
AcDbEntity
8
1
62
256
6
ByLayer
370
18
48
1
60
0
100
AcDbLine
10
9.076795
20
-19.122283
30
0
11
9.076795
21
-5.85989
31
0
39
0
210
0
220
0
230
1
0
LINE
5
D6
100
AcDbEntity
8
1
62
256
6
ByLayer
370
18
48
1
60
0
100
AcDbLine
10
6.923205
20
13.329278
30
0
11
6.923205
21
19.122283
31
0
39
0
210
0
220
0
230
1
0
LINE
5
D7
100
AcDbEntity
8
1
62
256
6
ByLayer
370
18
48
1
60
0
100
AcDbLine
10
40.280856
20
25.585692
30
0
11
40.391481
21
25.537515
31
0
39
0
210
0
220
0
230
1
0
LINE
5
D8
100
AcDbEntity
8
1
62
256
6
ByLayer
370
18
48
1
60
0
100
AcDbLine
10
9.076795
20
19.122283
30
0
11
6.923205
21
19.122283
31
0
39
0
210
0
220
0
230
1
0
LINE
5
D9
100
AcDbEntity
8
1
62
256
6
ByLayer
370
18
48
1
60
0
100
AcDbLine
10
6.923205
20
5.85989
30
0
11
6.923205
21
10.945788
31
0
39
0
210
0
220
0
230
1
0
LINE
5
DA
100
AcDbEntity
8
1
62
256
6
ByLayer
370
18
48
1
60
0
100
AcDbLine
10
9.076795
20
13.329278
30
0
11
9.076795
21
19.122283
31
0
39
0
210
0
220
0
230
1
0
LINE
5
DB
100
AcDbEntity
8
1
62
256
6
ByLayer
370
18
48
1
60
0
100
AcDbLine
10
9.336603
20
13.295619
30
0
11
9.336603
21
19.024574
31
0
39
0
210
0
220
0
230
1
0
LINE
5
DC
100
AcDbEntity
8
1
62
256
6
ByLayer
370
18
48
1
60
0
100
AcDbLine
10
22.227779
20
-19.748987
30
0
11
38.546368
21
1.838861
31
0
39
0
210
0
220
0
230
1
0
LINE
5
DD
100
AcDbEntity
8
1
62
256
6
ByLayer
370
18
48
1
60
0
100
AcDbLine
10
48.394293
20
14.948563
30
0
11
38.546368
21
1.838861
31
0
39
0
210
0
220
0
230
1
0
LINE
5
DE
100
AcDbEntity
8
1
62
256
6
ByLayer
370
18
48
1
60
0
100
AcDbLine
10
6.663397
20
-19.024574
30
0
11
6.663397
21
-6.16973
31
0
39
0
210
0
220
0
230
1
0
LINE
5
DF
100
AcDbEntity
8
1
62
256
6
ByLayer
370
18
48
1
60
0
100
AcDbLine
10
22.61686
20
13.990794
30
0
11
30.096001
21
3.770198
31
0
39
0
210
0
220
0
230
1
0
LINE
5
E0
100
AcDbEntity
8
1
62
256
6
ByLayer
370
18
48
1
60
0
100
AcDbLine
10
37.170733
20
3.214495
30
0
11
38.546368
21
1.838861
31
0
39
0
210
0
220
0
230
1
0
LINE
5
E1
100
AcDbEntity
8
1
62
256
6
ByLayer
370
18
48
1
60
0
100
AcDbLine
10
43.003701
20
14.760211
30
0
11
43.167983
21
14.761991
31
0
39
0
210
0
220
0
230
1
0
LINE
5
E2
100
AcDbEntity
8
1
62
256
6
ByLayer
370
18
48
1
60
0
100
AcDbLine
10
48.394293
20
14.948563
30
0
11
48.586861
21
17.295102
31
0
39
0
210
0
220
0
230
1
0
LINE
5
E3
100
AcDbEntity
8
1
62
256
6
ByLayer
370
18
48
1
60
0
100
AcDbLine
10
37.500916
20
7.296675
30
0
11
37.347087
21
7.184107
31
0
39
0
210
0
220
0
230
1
0
LINE
5
E4
100
AcDbEntity
8
SK1
62
256
6
ByLayer
370
18
48
1
60
0
100
AcDbLine
10
-1.307107
20
-3.627816
30
0
11
-1.307107
21
3.627817
31
0
39
0
210
0
220
0
230
1
0
LINE
5
E5
100
AcDbEntity
8
1
62
256
6
ByLayer
370
18
48
1
60
0
100
AcDbLine
10
37.017386
20
15.686424
30
0
11
36.881539
21
15.550577
31
0
39
0
210
0
220
0
230
1
0
LINE
5
E6
100
AcDbEntity
8
1
62
256
6
ByLayer
370
18
48
1
60
0
100
AcDbLine
10
36.812418
20
16.294556
30
0
11
36.948265
21
16.430403
31
0
39
0
210
0
220
0
230
1
0
LINE
5
E7
100
AcDbEntity
8
1
62
256
6
ByLayer
370
18
48
1
60
0
100
AcDbLine
10
36.711203
20
16.63096
30
0
11
36.851552
21
16.771308
31
0
39
0
210
0
220
0
230
1
0
LINE
5
E8
100
AcDbEntity
8
1
62
256
6
ByLayer
370
18
48
1
60
0
100
AcDbLine
10
36.843892
20
15.202777
30
0
11
36.984241
21
15.343126
31
0
39
0
210
0
220
0
230
1
0
LINE
5
E9
100
AcDbEntity
8
1
62
256
6
ByLayer
370
18
48
1
60
0
100
AcDbLine
10
36.851656
20
16.567829
30
0
11
36.71581
21
16.431983
31
0
39
0
210
0
220
0
230
1
0
LINE
5
EA
100
AcDbEntity
8
1
62
256
6
ByLayer
370
18
48
1
60
0
100
AcDbLine
10
35.696559
20
16.834873
30
0
11
35.836907
21
16.975222
31
0
39
0
210
0
220
0
230
1
0
LINE
5
EB
100
AcDbEntity
8
1
62
256
6
ByLayer
370
18
48
1
60
0
100
AcDbLine
10
35.022233
20
16.059999
30
0
11
35.162582
21
16.200348
31
0
39
0
210
0
220
0
230
1
0
LINE
5
EC
100
AcDbEntity
8
1
62
256
6
ByLayer
370
18
48
1
60
0
100
AcDbLine
10
36.811736
20
15.399494
30
0
11
36.947582
21
15.53534
31
0
39
0
210
0
220
0
230
1
0
LINE
5
ED
100
AcDbEntity
8
1
62
256
6
ByLayer
370
18
48
1
60
0
100
AcDbLine
10
36.006995
20
16.873338
30
0
11
35.871148
21
16.737491
31
0
39
0
210
0
220
0
230
1
0
LINE
5
EE
100
AcDbEntity
8
1
62
256
6
ByLayer
370
18
48
1
60
0
100
AcDbLine
10
36.03756
20
16.751148
30
0
11
36.173407
21
16.886994
31
0
39
0
210
0
220
0
230
1
0
LINE
5
EF
100
AcDbEntity
8
1
62
256
6
ByLayer
370
18
48
1
60
0
100
AcDbLine
10
36.998564
20
16.222186
30
0
11
37.138912
21
16.362534
31
0
39
0
210
0
220
0
230
1
0
LINE
5
F0
100
AcDbEntity
8
1
62
256
6
ByLayer
370
18
48
1
60
0
100
AcDbLine
10
49.342351
20
18.155824
30
0
11
49.997336
21
26.137156
31
0
39
0
210
0
220
0
230
1
0
LINE
5
F1
100
AcDbEntity
8
1
62
256
6
ByLayer
370
18
48
1
60
0
100
AcDbLine
10
49.137156
20
26.997336
30
0
11
41.155824
21
26.342351
31
0
39
0
210
0
220
0
230
1
0
MTEXT
5
1E1
100
AcDbEntity
8
SK6
62
256
6
ByLayer
370
18
48
1
60
0
100
AcDbMText
10
-8.625
20
-30.950012
30
0
210
0
220
0
230
1
1
\W0.7537;C4-DCLNR-27050-09
40
3.5
41
0
44
1.084337
50
0
71
7
72
5
7
iso_b_vert
0
DIMENSION
5
200
100
AcDbEntity
8
2
62
256
6
ByLayer
370
13
48
1
60
0
100
AcDbDimension
2
DimnDraft3D2
10
48.14468
20
26.915551
30
0
11
37.554118
21
38.53416
31
0
70
34
71
5
72
1
41
1
210
0
220
0
230
1
3
Standard
100
AcDb2LineAngularDimension
13
50
23
27
33
0
14
50
24
25.4125
34
0
15
49.141329
25
26.997341
35
0
16
40.863668
26
35.485082
36
0
40
0
0
DIMENSION
5
216
100
AcDbEntity
8
SK2
62
256
6
ByLayer
370
13
48
1
60
0
100
AcDbDimension
2
DimnDraft3D3
10
-31.75
20
20
30
0
11
-31.75
21
-2.925
31
0
70
32
71
5
72
1
41
1
210
0
220
0
230
1
3
Standard
100
AcDbAlignedDimension
13
-2
23
-20
33
0
14
-2
24
20
34
0
50
90
100
AcDbRotatedDimension
1001
ACAD
1000
DSTYLE
1002
{
1070
    74
1070
     0
1070
   279
1070
     0
1070
   172
1070
     1
1070
   173
1070
     1
1070
   340
1005
1E2
1070
    77
1070
     1
1070
    73
1070
     0
1070
   171
1070
     3
1070
   274
1070
     4
1070
   177
1070
     2
1070
   176
1070
     2
1070
   178
1070
     7
1070
    78
1070
     8
1070
    41
1041
3.175
1070
   147
1041
2.25
1070
    42
1041
2.0
1070
    44
1041
2.0
1070
   140
1041
4.5
1070
   343
1005
201
1070
   344
1005
201
1002
}
0
DIMENSION
5
224
100
AcDbEntity
8
2
62
256
6
ByLayer
370
13
48
1
60
0
100
AcDbDimension
2
DimnDraft3D4
10
72.25
20
27
30
0
11
72.25
21
8.218421
31
0
70
32
71
5
72
1
41
1
210
0
220
0
230
1
3
Standard
100
AcDbAlignedDimension
13
52
23
0
33
0
14
52
24
27
34
0
50
90
100
AcDbRotatedDimension
1001
ACAD
1000
DSTYLE
1002
{
1070
    74
1070
     0
1070
   279
1070
     0
1070
   172
1070
     1
1070
   173
1070
     1
1070
   340
1005
1E2
1070
    77
1070
     1
1070
    73
1070
     0
1070
   171
1070
     3
1070
   274
1070
     4
1070
   177
1070
     2
1070
   176
1070
     2
1070
   178
1070
     7
1070
    78
1070
     8
1070
    41
1041
3.175
1070
   147
1041
2.25
1070
    42
1041
2.0
1070
    44
1041
2.0
1070
   140
1041
4.5
1070
   343
1005
201
1070
   344
1005
201
1002
}
0
ENDSEC
0
SECTION
2
OBJECTS
0
DICTIONARY
5
28f
330
0
100
AcDbDictionary
280
0
281
1
3
ACAD_GROUP
350
290
3
ACAD_MLINESTYLE
350
291
0
DICTIONARY
5
290
330
0
100
AcDbDictionary
280
0
281
1
0
DICTIONARY
5
291
330
0
100
AcDbDictionary
280
0
281
1
3
Standard
350
18
0
MLINESTYLE
5
18
330
291
100
AcDbMlineStyle
2
Standard
70
0
3

62
256
51
90
52
90
71
2
49
-0.5
62
256
6
ByLayer
49
0.5
62
256
6
ByLayer
0
RASTERVARIABLES
5
27d
330

100
AcDbRasterVariables
90
0
70
1
71
1
72
1
0
ENDSEC
0
EOF
