0
SECTION
2
HEADER
9
$ACADVER
1
AC1015
9
$DWGCODEPAGE
3
ANSI_1252
9
$HANDSEED
5
193
9
$ANGBASE
50
0
9
$ANGDIR
70
0
9
$ATTMODE
70
1
9
$AUNITS
70
0
9
$AUPREC
70
0
9
$CECOLOR
62
256
9
$CELTSCALE
40
1
9
$CELTYPE
6
ByLayer
9
$CELWEIGHT
370
18
9
$CLAYER
8
0
9
$CMLJUST
70
0
9
$CMLSCALE
40
1
9
$CMLSTYLE
2
Standard
9
$DIMSTYLE
2
Standard
9
$TEXTSIZE
40
0.2
9
$TEXTSTYLE
7
Standard
9
$LUNITS
70
2
9
$LUPREC
70
4
9
$EXTNAMES
290
1
9
$INSUNITS
70
4
9
$LTSCALE
40
1
9
$LWDISPLAY
290
1
9
$PDMODE
70
0
9
$PDSIZE
40
0
9
$PLINEGEN
70
0
0
ENDSEC
0
SECTION
2
CLASSES
0
CLASS
1
RASTERVARIABLES
2
AcDbRasterVariables
3
ISM
90
0
280
0
281
0
0
ENDSEC
0
SECTION
2
TABLES
0
TABLE
2
VPORT
5
189
100
AcDbSymbolTable
0
VPORT
5
1
100
AcDbSymbolTableRecord
100
AcDbViewportTableRecord
2
*Active
70
0
10
0
20
0
11
1
21
1
12
-1
22
1
13
0
23
0
14
0.5
24
0.5
15
10
25
10
16
0
26
0
36
1
17
0
27
0
37
0
0
ENDTAB
0
TABLE
2
LTYPE
5
18a
100
AcDbSymbolTable
0
LTYPE
5
14
100
AcDbSymbolTableRecord
100
AcDbLinetypeTableRecord
70
0
2
ByBlock
3

72
65
73
0
40
0
0
LTYPE
5
15
100
AcDbSymbolTableRecord
100
AcDbLinetypeTableRecord
70
0
2
ByLayer
3

72
65
73
0
40
0
0
LTYPE
5
16
100
AcDbSymbolTableRecord
100
AcDbLinetypeTableRecord
70
0
2
CONTINUOUS
3
Solid line
72
65
73
0
40
0
0
LTYPE
5
6A
100
AcDbSymbolTableRecord
100
AcDbLinetypeTableRecord
70
0
2
CENTER
3
____ _ ____ _ ____ _ ____
72
65
73
4
40
47.5
49
22
74
0
49
-8.5
74
0
49
8.5
74
0
49
-8.5
74
0
0
LTYPE
5
6B
100
AcDbSymbolTableRecord
100
AcDbLinetypeTableRecord
70
0
2
DASHED
3
__ __ __ __ __ __ __ __ __
72
65
73
2
40
25.72
49
12.86
74
0
49
-12.86
74
0
0
ENDTAB
0
TABLE
2
LAYER
5
18b
100
AcDbSymbolTable
0
LAYER
5
10
100
AcDbSymbolTableRecord
100
AcDbLayerTableRecord
2
0
70
0
62
7
6
CONTINUOUS
290
1
370
-3
390
0
0
LAYER
5
6D
100
AcDbSymbolTableRecord
100
AcDbLayerTableRecord
2
80
70
0
62
-6
6
CONTINUOUS
290
1
370
-3
390
0
0
LAYER
5
6F
100
AcDbSymbolTableRecord
100
AcDbLayerTableRecord
2
81
70
0
62
-3
6
CONTINUOUS
290
1
370
-3
390
0
0
LAYER
5
71
100
AcDbSymbolTableRecord
100
AcDbLayerTableRecord
2
1
70
0
62
4
6
CONTINUOUS
290
1
370
-3
390
0
0
LAYER
5
99
100
AcDbSymbolTableRecord
100
AcDbLayerTableRecord
2
4
70
0
62
-2
6
CENTER
290
1
370
-3
390
0
0
LAYER
5
CF
100
AcDbSymbolTableRecord
100
AcDbLayerTableRecord
2
2
70
0
62
7
6
CONTINUOUS
290
1
370
-3
390
0
0
LAYER
5
175
100
AcDbSymbolTableRecord
100
AcDbLayerTableRecord
2
SK1
70
0
62
4
6
CONTINUOUS
290
1
370
-3
390
0
0
LAYER
5
176
100
AcDbSymbolTableRecord
100
AcDbLayerTableRecord
2
SK4
70
0
62
2
6
CENTER
290
1
370
-3
390
0
0
LAYER
5
177
100
AcDbSymbolTableRecord
100
AcDbLayerTableRecord
2
SK6
70
0
62
5
6
CONTINUOUS
290
1
370
-3
390
0
0
LAYER
5
178
100
AcDbSymbolTableRecord
100
AcDbLayerTableRecord
2
SK2
70
0
62
7
6
CONTINUOUS
290
1
370
-3
390
0
0
ENDTAB
0
TABLE
2
STYLE
5
18c
100
AcDbSymbolTable
0
STYLE
5
11
100
AcDbSymbolTableRecord
100
AcDbTextStyleTableRecord
2
Standard
3
txt
70
0
71
0
40
0
41
1
42
0
50
0
0
STYLE
5
CA
100
AcDbSymbolTableRecord
100
AcDbTextStyleTableRecord
2
iso_b_vert
3
simplex.shx
70
0
71
0
40
0
41
1
42
0
50
0
0
STYLE
5
CB
100
AcDbSymbolTableRecord
100
AcDbTextStyleTableRecord
2
DWGDirectTextStyle
3
simplex
70
0
71
0
40
0
41
1
42
0
50
0
0
ENDTAB
0
TABLE
2
DIMSTYLE
5
18d
100
AcDbSymbolTable
100
AcDbDimStyleTable
0
DIMSTYLE
105
27
100
AcDbSymbolTableRecord
100
AcDbDimStyleTableRecord
2
Standard
70
0
3
<>
41
0.18
42
0.0625
44
0.18
140
0.18
147
0.09
73
0
74
0
77
1
271
2
275
0
278
52
280
0
340
11
0
ENDTAB
0
TABLE
2
VIEW
5
18e
100
AcDbSymbolTable
0
ENDTAB
0
TABLE
2
UCS
5
18f
100
AcDbSymbolTable
0
ENDTAB
0
TABLE
2
APPID
5
190
100
AcDbSymbolTable
0
APPID
5
12
100
AcDbSymbolTableRecord
100
AcDbRegAppTableRecord
2
ACAD
70
0
0
ENDTAB
0
TABLE
2
BLOCK_RECORD
5
191
100
AcDbSymbolTable
0
BLOCK_RECORD
5
1F
100
AcDbSymbolTableRecord
100
AcDbBlockTableRecord
2
*Model_Space
340
0
70
0
0
BLOCK_RECORD
5
1B
100
AcDbSymbolTableRecord
100
AcDbBlockTableRecord
2
*Paper_Space
340
0
70
0
0
BLOCK_RECORD
5
23
100
AcDbSymbolTableRecord
100
AcDbBlockTableRecord
2
*Paper_Space0
340
0
70
0
0
BLOCK_RECORD
5
CD
100
AcDbSymbolTableRecord
100
AcDbBlockTableRecord
2
DimnDraft3D1
340
0
70
0
0
BLOCK_RECORD
5
DC
100
AcDbSymbolTableRecord
100
AcDbBlockTableRecord
2
_CLOSED
340
0
70
0
0
BLOCK_RECORD
5
E3
100
AcDbSymbolTableRecord
100
AcDbBlockTableRecord
2
DimnDraft3D2
340
0
70
0
0
BLOCK_RECORD
5
F2
100
AcDbSymbolTableRecord
100
AcDbBlockTableRecord
2
DimnDraft3D3
340
0
70
0
0
BLOCK_RECORD
5
100
100
AcDbSymbolTableRecord
100
AcDbBlockTableRecord
2
DimnDraft3D4
340
0
70
0
0
BLOCK_RECORD
5
10E
100
AcDbSymbolTableRecord
100
AcDbBlockTableRecord
2
DimnDraft3D5
340
0
70
0
0
ENDTAB
0
ENDSEC
0
SECTION
2
BLOCKS
0
BLOCK
5
20
100
AcDbEntity
8
0
100
AcDbBlockBegin
2
*Model_Space
70
0
10
0
20
0
30
0
3
*Model_Space
0
ENDBLK
5
21
100
AcDbEntity
8
0
100
AcDbBlockEnd
0
BLOCK
5
1C
100
AcDbEntity
8
0
100
AcDbBlockBegin
2
*Paper_Space
70
0
10
0
20
0
30
0
3
*Paper_Space
0
ENDBLK
5
1D
100
AcDbEntity
8
0
100
AcDbBlockEnd
0
BLOCK
5
24
100
AcDbEntity
8
0
100
AcDbBlockBegin
2
*Paper_Space0
70
0
10
0
20
0
30
0
3
*Paper_Space0
0
ENDBLK
5
25
100
AcDbEntity
8
0
100
AcDbBlockEnd
0
BLOCK
5
D9
100
AcDbEntity
8
0
100
AcDbBlockBegin
2
DimnDraft3D1
70
0
10
0
20
0
30
0
3
DimnDraft3D1
0
MTEXT
5
CE
100
AcDbEntity
8
2
62
256
6
ByLayer
370
18
48
1
60
0
100
AcDbMText
10
20.200873
20
33.187152
30
0
210
0
220
0
230
1
1
\W0.7183;47
40
3
41
0
44
1.084337
50
0
71
7
72
5
7
iso_b_vert
0
LINE
5
D0
100
AcDbEntity
8
2
62
256
6
ByLayer
370
13
48
1
60
0
100
AcDbLine
10
0
20
21.7
30
0
11
0
21
34.437152
31
0
39
0
210
0
220
0
230
1
0
LINE
5
D1
100
AcDbEntity
8
2
62
256
6
ByLayer
370
13
48
1
60
0
100
AcDbLine
10
47
20
13.5
30
0
11
47
21
34.437152
31
0
39
0
210
0
220
0
230
1
0
LINE
5
D2
100
AcDbEntity
8
2
62
256
6
ByLayer
370
13
48
1
60
0
100
AcDbLine
10
0
20
32.437152
30
0
11
47
21
32.437152
31
0
39
0
210
0
220
0
230
1
0
LINE
5
D3
100
AcDbEntity
8
2
62
256
6
ByLayer
370
13
48
1
60
0
100
AcDbLine
10
0
20
32.437152
30
0
11
3.174998
21
32.855149
31
0
39
0
210
0
220
0
230
1
0
LINE
5
D4
100
AcDbEntity
8
2
62
256
6
ByLayer
370
13
48
1
60
0
100
AcDbLine
10
0
20
32.437152
30
0
11
3.175002
21
32.019155
31
0
39
0
210
0
220
0
230
1
0
LINE
5
D5
100
AcDbEntity
8
2
62
256
6
ByLayer
370
13
48
1
60
0
100
AcDbLine
10
3.174998
20
32.855149
30
0
11
3.175002
21
32.019155
31
0
39
0
210
0
220
0
230
1
0
LINE
5
D6
100
AcDbEntity
8
2
62
256
6
ByLayer
370
13
48
1
60
0
100
AcDbLine
10
47
20
32.437152
30
0
11
43.825002
21
32.019155
31
0
39
0
210
0
220
0
230
1
0
LINE
5
D7
100
AcDbEntity
8
2
62
256
6
ByLayer
370
13
48
1
60
0
100
AcDbLine
10
47
20
32.437152
30
0
11
43.824998
21
32.855149
31
0
39
0
210
0
220
0
230
1
0
LINE
5
D8
100
AcDbEntity
8
2
62
256
6
ByLayer
370
13
48
1
60
0
100
AcDbLine
10
43.825002
20
32.019155
30
0
11
43.824998
21
32.855149
31
0
39
0
210
0
220
0
230
1
0
ENDBLK
5
DA
100
AcDbEntity
8
0
100
AcDbBlockEnd
0
BLOCK
5
DD
100
AcDbEntity
8
0
100
AcDbBlockBegin
2
_CLOSED
70
0
10
0
20
0
30
0
3
_CLOSED
0
LINE
5
DF
100
AcDbEntity
8
0
62
256
6
ByLayer
370
-2
48
1
60
0
100
AcDbLine
10
-1
20
0.166667
30
0
11
0
21
0
31
0
39
0
210
0
220
0
230
1
0
LINE
5
E0
100
AcDbEntity
8
0
62
256
6
ByLayer
370
-2
48
1
60
0
100
AcDbLine
10
0
20
0
30
0
11
-1
21
-0.166667
31
0
39
0
210
0
220
0
230
1
0
LINE
5
E1
100
AcDbEntity
8
0
62
256
6
ByLayer
370
-2
48
1
60
0
100
AcDbLine
10
-1
20
0.166667
30
0
11
-1
21
-0.166667
31
0
39
0
210
0
220
0
230
1
0
LINE
5
E2
100
AcDbEntity
8
0
62
256
6
ByLayer
370
-2
48
1
60
0
100
AcDbLine
10
0
20
0
30
0
11
-1
21
0
31
0
39
0
210
0
220
0
230
1
0
ENDBLK
5
DE
100
AcDbEntity
8
0
100
AcDbBlockEnd
0
BLOCK
5
EF
100
AcDbEntity
8
0
100
AcDbBlockBegin
2
DimnDraft3D2
70
0
10
0
20
0
30
0
3
DimnDraft3D2
0
MTEXT
5
E4
100
AcDbEntity
8
SK2
62
256
6
ByLayer
370
18
48
1
60
0
100
AcDbMText
10
33.635147
20
24.606551
30
0
210
0
220
0
230
1
1
\W0.6563;22
40
3
41
0
44
1.084337
50
0
71
7
72
5
7
iso_b_vert
0
LINE
5
E6
100
AcDbEntity
8
SK2
62
256
6
ByLayer
370
13
48
1
60
0
100
AcDbLine
10
25
20
14.5
30
0
11
25
21
25.856551
31
0
39
0
210
0
220
0
230
1
0
LINE
5
E7
100
AcDbEntity
8
SK2
62
256
6
ByLayer
370
13
48
1
60
0
100
AcDbLine
10
47
20
13.5
30
0
11
47
21
25.856551
31
0
39
0
210
0
220
0
230
1
0
LINE
5
E8
100
AcDbEntity
8
SK2
62
256
6
ByLayer
370
13
48
1
60
0
100
AcDbLine
10
25
20
23.856551
30
0
11
47
21
23.856551
31
0
39
0
210
0
220
0
230
1
0
LINE
5
E9
100
AcDbEntity
8
SK2
62
256
6
ByLayer
370
13
48
1
60
0
100
AcDbLine
10
25
20
23.856551
30
0
11
28.174998
21
24.274547
31
0
39
0
210
0
220
0
230
1
0
LINE
5
EA
100
AcDbEntity
8
SK2
62
256
6
ByLayer
370
13
48
1
60
0
100
AcDbLine
10
25
20
23.856551
30
0
11
28.175002
21
23.438554
31
0
39
0
210
0
220
0
230
1
0
LINE
5
EB
100
AcDbEntity
8
SK2
62
256
6
ByLayer
370
13
48
1
60
0
100
AcDbLine
10
28.174998
20
24.274547
30
0
11
28.175002
21
23.438554
31
0
39
0
210
0
220
0
230
1
0
LINE
5
EC
100
AcDbEntity
8
SK2
62
256
6
ByLayer
370
13
48
1
60
0
100
AcDbLine
10
47
20
23.856551
30
0
11
43.825002
21
23.438554
31
0
39
0
210
0
220
0
230
1
0
LINE
5
ED
100
AcDbEntity
8
SK2
62
256
6
ByLayer
370
13
48
1
60
0
100
AcDbLine
10
47
20
23.856551
30
0
11
43.824998
21
24.274547
31
0
39
0
210
0
220
0
230
1
0
LINE
5
EE
100
AcDbEntity
8
SK2
62
256
6
ByLayer
370
13
48
1
60
0
100
AcDbLine
10
43.825002
20
23.438554
30
0
11
43.824998
21
24.274547
31
0
39
0
210
0
220
0
230
1
0
ENDBLK
5
F0
100
AcDbEntity
8
0
100
AcDbBlockEnd
0
BLOCK
5
FD
100
AcDbEntity
8
0
100
AcDbBlockBegin
2
DimnDraft3D3
70
0
10
0
20
0
30
0
3
DimnDraft3D3
0
MTEXT
5
F3
100
AcDbEntity
8
SK2
62
256
6
ByLayer
370
18
48
1
60
0
100
AcDbMText
10
-40.005481
20
-0.758992
30
0
210
0
220
0
230
1
1
\W0.7183;40
40
3
41
0
44
1.084337
50
90
71
7
72
5
7
iso_b_vert
0
LINE
5
F4
100
AcDbEntity
8
SK2
62
256
6
ByLayer
370
13
48
1
60
0
100
AcDbLine
10
-1.7
20
20
30
0
11
-41.255481
21
20
31
0
39
0
210
0
220
0
230
1
0
LINE
5
F5
100
AcDbEntity
8
SK2
62
256
6
ByLayer
370
13
48
1
60
0
100
AcDbLine
10
-1.7
20
-20
30
0
11
-41.255481
21
-20
31
0
39
0
210
0
220
0
230
1
0
LINE
5
F6
100
AcDbEntity
8
SK2
62
256
6
ByLayer
370
13
48
1
60
0
100
AcDbLine
10
-39.255481
20
20
30
0
11
-39.255481
21
-20
31
0
39
0
210
0
220
0
230
1
0
LINE
5
F7
100
AcDbEntity
8
SK2
62
256
6
ByLayer
370
13
48
1
60
0
100
AcDbLine
10
-39.255481
20
20
30
0
11
-38.837484
21
16.825002
31
0
39
0
210
0
220
0
230
1
0
LINE
5
F8
100
AcDbEntity
8
SK2
62
256
6
ByLayer
370
13
48
1
60
0
100
AcDbLine
10
-39.255481
20
20
30
0
11
-39.673478
21
16.824998
31
0
39
0
210
0
220
0
230
1
0
LINE
5
F9
100
AcDbEntity
8
SK2
62
256
6
ByLayer
370
13
48
1
60
0
100
AcDbLine
10
-38.837484
20
16.825002
30
0
11
-39.673478
21
16.824998
31
0
39
0
210
0
220
0
230
1
0
LINE
5
FA
100
AcDbEntity
8
SK2
62
256
6
ByLayer
370
13
48
1
60
0
100
AcDbLine
10
-39.255481
20
-20
30
0
11
-39.673478
21
-16.825002
31
0
39
0
210
0
220
0
230
1
0
LINE
5
FB
100
AcDbEntity
8
SK2
62
256
6
ByLayer
370
13
48
1
60
0
100
AcDbLine
10
-39.255481
20
-20
30
0
11
-38.837484
21
-16.824998
31
0
39
0
210
0
220
0
230
1
0
LINE
5
FC
100
AcDbEntity
8
SK2
62
256
6
ByLayer
370
13
48
1
60
0
100
AcDbLine
10
-39.673478
20
-16.825002
30
0
11
-38.837484
21
-16.824998
31
0
39
0
210
0
220
0
230
1
0
ENDBLK
5
FE
100
AcDbEntity
8
0
100
AcDbBlockEnd
0
BLOCK
5
10B
100
AcDbEntity
8
0
100
AcDbBlockBegin
2
DimnDraft3D4
70
0
10
0
20
0
30
0
3
DimnDraft3D4
0
MTEXT
5
101
100
AcDbEntity
8
SK2
62
256
6
ByLayer
370
18
48
1
60
0
100
AcDbMText
10
74.079115
20
-0.460341
30
0
210
0
220
0
230
1
1
\W0.6563;25
40
3
41
0
44
1.084337
50
90
71
7
72
5
7
iso_b_vert
0
LINE
5
102
100
AcDbEntity
8
SK2
62
256
6
ByLayer
370
13
48
1
60
0
100
AcDbLine
10
48.42265
20
-12.5
30
0
11
76.829115
21
-12.5
31
0
39
0
210
0
220
0
230
1
0
LINE
5
103
100
AcDbEntity
8
SK2
62
256
6
ByLayer
370
13
48
1
60
0
100
AcDbLine
10
48.42265
20
12.5
30
0
11
76.829115
21
12.5
31
0
39
0
210
0
220
0
230
1
0
LINE
5
104
100
AcDbEntity
8
SK2
62
256
6
ByLayer
370
13
48
1
60
0
100
AcDbLine
10
74.829115
20
-12.5
30
0
11
74.829115
21
12.5
31
0
39
0
210
0
220
0
230
1
0
LINE
5
105
100
AcDbEntity
8
SK2
62
256
6
ByLayer
370
13
48
1
60
0
100
AcDbLine
10
74.829115
20
-12.5
30
0
11
74.411119
21
-9.325002
31
0
39
0
210
0
220
0
230
1
0
LINE
5
106
100
AcDbEntity
8
SK2
62
256
6
ByLayer
370
13
48
1
60
0
100
AcDbLine
10
74.829115
20
-12.5
30
0
11
75.247112
21
-9.324998
31
0
39
0
210
0
220
0
230
1
0
LINE
5
107
100
AcDbEntity
8
SK2
62
256
6
ByLayer
370
13
48
1
60
0
100
AcDbLine
10
74.411119
20
-9.325002
30
0
11
75.247112
21
-9.324998
31
0
39
0
210
0
220
0
230
1
0
LINE
5
108
100
AcDbEntity
8
SK2
62
256
6
ByLayer
370
13
48
1
60
0
100
AcDbLine
10
74.829115
20
12.5
30
0
11
75.247112
21
9.325002
31
0
39
0
210
0
220
0
230
1
0
LINE
5
109
100
AcDbEntity
8
SK2
62
256
6
ByLayer
370
13
48
1
60
0
100
AcDbLine
10
74.829115
20
12.5
30
0
11
74.411119
21
9.324998
31
0
39
0
210
0
220
0
230
1
0
LINE
5
10A
100
AcDbEntity
8
SK2
62
256
6
ByLayer
370
13
48
1
60
0
100
AcDbLine
10
75.247112
20
9.325002
30
0
11
74.411119
21
9.324998
31
0
39
0
210
0
220
0
230
1
0
ENDBLK
5
10C
100
AcDbEntity
8
0
100
AcDbBlockEnd
0
BLOCK
5
119
100
AcDbEntity
8
0
100
AcDbBlockBegin
2
DimnDraft3D5
70
0
10
0
20
0
30
0
3
DimnDraft3D5
0
MTEXT
5
10F
100
AcDbEntity
8
2
62
256
6
ByLayer
370
18
48
1
60
0
100
AcDbMText
10
59.445227
20
-6.284031
30
0
210
0
220
0
230
1
1
\W0.7062;2.9
40
3
41
0
44
1.084337
50
90
71
7
72
5
7
iso_b_vert
0
LINE
5
110
100
AcDbEntity
8
2
62
256
6
ByLayer
370
13
48
1
60
0
100
AcDbLine
10
53.086422
20
0
30
0
11
62.195227
21
0
31
0
39
0
210
0
220
0
230
1
0
LINE
5
111
100
AcDbEntity
8
2
62
256
6
ByLayer
370
13
48
1
60
0
100
AcDbLine
10
53.308149
20
2.9
30
0
11
62.195227
21
2.9
31
0
39
0
210
0
220
0
230
1
0
LINE
5
112
100
AcDbEntity
8
2
62
256
6
ByLayer
370
13
48
1
60
0
100
AcDbLine
10
60.195227
20
10.4
30
0
11
60.195227
21
-7.034031
31
0
39
0
210
0
220
0
230
1
0
LINE
5
113
100
AcDbEntity
8
2
62
256
6
ByLayer
370
13
48
1
60
0
100
AcDbLine
10
60.195227
20
0
30
0
11
60.613224
21
-3.174998
31
0
39
0
210
0
220
0
230
1
0
LINE
5
114
100
AcDbEntity
8
2
62
256
6
ByLayer
370
13
48
1
60
0
100
AcDbLine
10
60.195227
20
0
30
0
11
59.777231
21
-3.175002
31
0
39
0
210
0
220
0
230
1
0
LINE
5
115
100
AcDbEntity
8
2
62
256
6
ByLayer
370
13
48
1
60
0
100
AcDbLine
10
60.613224
20
-3.174998
30
0
11
59.777231
21
-3.175002
31
0
39
0
210
0
220
0
230
1
0
LINE
5
116
100
AcDbEntity
8
2
62
256
6
ByLayer
370
13
48
1
60
0
100
AcDbLine
10
60.195227
20
2.9
30
0
11
59.777231
21
6.074998
31
0
39
0
210
0
220
0
230
1
0
LINE
5
117
100
AcDbEntity
8
2
62
256
6
ByLayer
370
13
48
1
60
0
100
AcDbLine
10
60.195227
20
2.9
30
0
11
60.613224
21
6.075002
31
0
39
0
210
0
220
0
230
1
0
LINE
5
118
100
AcDbEntity
8
2
62
256
6
ByLayer
370
13
48
1
60
0
100
AcDbLine
10
59.777231
20
6.074998
30
0
11
60.613224
21
6.075002
31
0
39
0
210
0
220
0
230
1
0
ENDBLK
5
11A
100
AcDbEntity
8
0
100
AcDbBlockEnd
0
ENDSEC
0
SECTION
2
ENTITIES
0
ARC
5
9E
100
AcDbEntity
8
1
62
256
6
ByLayer
370
18
48
1
60
0
100
AcDbCircle
39
0
10
-25
20
-18.5
30
0
40
6.00000000000007
210
0
220
0
230
-1
100
AcDbArc
50
15
51
90
0
ARC
5
9F
100
AcDbEntity
8
1
62
256
6
ByLayer
370
18
48
1
60
0
100
AcDbCircle
39
0
10
-25
20
18.5
30
0
40
5.99999999999998
210
0
220
0
230
-1
100
AcDbArc
50
270
51
345
0
ARC
5
A0
100
AcDbEntity
8
SK1
62
256
6
ByLayer
370
18
48
1
60
0
100
AcDbCircle
39
0
10
0.6
20
-15
30
0
40
1
210
0
220
0
230
-1
100
AcDbArc
50
113.578178
51
126.869898
0
ARC
5
A1
100
AcDbEntity
8
SK1
62
256
6
ByLayer
370
18
48
1
60
0
100
AcDbCircle
39
0
10
0.6
20
15
30
0
40
1
210
0
220
0
230
-1
100
AcDbArc
50
233.130102
51
246.421822
0
ELLIPSE
5
A2
100
AcDbEntity
8
1
62
256
6
ByLayer
370
18
48
1
60
0
100
AcDbEllipse
10
-0.948929
20
0
30
0
11
9.3674178797817
21
-19.7417491527498
31
0
210
0
220
0
230
-1
40
0.341999
41
-1.09631952749991
42
-0.152726244898338
0
ELLIPSE
5
A3
100
AcDbEntity
8
1
62
256
6
ByLayer
370
18
48
1
60
0
100
AcDbEllipse
10
16.948929
20
0
30
0
11
9.36741787978169
21
19.7417491527497
31
0
210
0
220
0
230
-1
40
0.341999
41
-2.98886640869145
42
-2.04527312608988
0
ELLIPSE
5
A4
100
AcDbEntity
8
1
62
256
6
ByLayer
370
18
48
1
60
0
100
AcDbEllipse
10
-0.948929
20
0
30
0
11
9.36741787978272
21
19.7417491527512
31
0
210
0
220
0
230
-1
40
0.341999
41
0.152726244898343
42
1.09631952749987
0
ELLIPSE
5
A5
100
AcDbEntity
8
1
62
256
6
ByLayer
370
18
48
1
60
0
100
AcDbEllipse
10
16.948929
20
0
30
0
11
9.3674178797822
21
-19.7417491527504
31
0
210
0
220
0
230
-1
40
0.341999
41
2.0452731260899
42
2.98886640869145
0
POINT
5
6C
100
AcDbEntity
8
80
62
256
6
ByLayer
370
18
48
1
60
0
100
AcDbPoint
10
0
20
0
30
0
39
0
210
0
220
0
230
1
50
360
0
POINT
5
6E
100
AcDbEntity
8
81
62
256
6
ByLayer
370
18
48
1
60
0
100
AcDbPoint
10
47
20
2.9
30
0
39
0
210
0
220
0
230
1
50
360
0
SPLINE
5
A6
100
AcDbEntity
8
1
62
256
6
ByLayer
370
18
48
1
60
0
100
AcDbSpline
70
4
71
3
72
38
73
34
40
0
40
0
40
0
40
0
40
0.0530257893733727
40
0.106082563315316
40
0.159142402533524
40
0.212185155604705
40
0.265199178915983
40
0.306496842708091
40
0.347811655670633
40
0.389121570916909
40
0.43041255308714
40
0.464062476488404
40
0.497743069465135
40
0.531425743785458
40
0.565090565729093
40
0.598727250251898
40
0.62579957425497
40
0.652926859480913
40
0.680068624633148
40
0.70719421206487
40
0.734284129557168
40
0.761331496852355
40
0.783974465209479
40
0.806690743286242
40
0.829429930810411
40
0.852151769445502
40
0.874827951149232
40
0.897444109842108
40
0.917919320528008
40
0.938454905143845
40
0.959006106133704
40
0.979532510940749
40
1
40
1
40
1
40
1
41
1
10
9.33660254037847
20
-6.16973001948571
30
0
41
1
10
9.33461659232697
20
-6.16251344990789
30
0
41
1
10
9.33045732268194
20
-6.14812529815042
30
0
41
1
10
9.32367578482543
20
-6.12667657486934
30
0
41
1
10
9.31630048911149
20
-6.10539660824121
30
0
41
1
10
9.30830140828724
20
-6.08432020272467
30
0
41
1
10
9.30028026663368
20
-6.06501560094096
30
0
41
1
10
9.29236774047419
20
-6.0474514357363
30
0
41
1
10
9.28468199813086
20
-6.03159194652461
30
0
41
1
10
9.27651133944434
20
-6.01595096003889
30
0
41
1
10
9.26836287165969
20
-6.00151186445681
30
0
41
1
10
9.26031887248242
20
-5.98824735406102
30
0
41
1
10
9.2524545781845
20
-5.97612816098261
30
0
41
1
10
9.24418000278416
20
-5.96425500276205
30
0
41
1
10
9.23547619466228
20
-5.95266969299207
30
0
41
1
10
9.22691721315305
20
-5.94214268449186
30
0
41
1
10
9.2185779776819
20
-5.93263186548659
30
0
41
1
10
9.21052969801736
20
-5.92409242938387
30
0
41
1
10
9.20213514008982
20
-5.91585052739344
30
0
41
1
10
9.19338972245298
20
-5.90795433387439
30
0
41
1
10
9.18428831059517
20
-5.90045299892891
30
0
41
1
10
9.17533733950302
20
-5.89377233765372
30
0
41
1
10
9.16658336101005
20
-5.88787606204209
30
0
41
1
10
9.15808090546089
20
-5.88271367591753
30
0
41
1
10
9.14930674035854
20
-5.87796095865256
30
0
41
1
10
9.14028375672394
20
-5.87366579968594
30
0
41
1
10
9.13103530663642
20
-5.86987608694711
30
0
41
1
10
9.12187491075323
20
-5.86673709918279
30
0
41
1
10
9.11283196220266
20
-5.86423704251672
30
0
41
1
10
9.10394556209922
20
-5.86232639538157
30
0
41
1
10
9.09494717780307
20
-5.86093579623258
30
0
41
1
10
9.08588219507021
20
-5.86008304523034
30
0
41
1
10
9.07982595196764
20
-5.85989255450197
30
0
41
1
10
9.07679491924314
20
-5.85988980456942
30
0
0
SPLINE
5
A7
100
AcDbEntity
8
1
62
256
6
ByLayer
370
18
48
1
60
0
100
AcDbSpline
70
4
71
3
72
39
73
35
40
0
40
0
40
0
40
0
40
0.0075774004317274
40
0.0295617293214851
40
0.0516168053800191
40
0.073703393174655
40
0.0957726753513691
40
0.117768957992423
40
0.141420647388761
40
0.165134026397962
40
0.1888958347149
40
0.212677165451484
40
0.23643566382703
40
0.260117520707751
40
0.287852461378317
40
0.315615398057792
40
0.343386048696565
40
0.371131518484822
40
0.399580911546089
40
0.428046528305271
40
0.456516214310075
40
0.484971159362134
40
0.527396877801806
40
0.569858498449446
40
0.612343729688772
40
0.654827004919886
40
0.697270901378242
40
0.740703483370428
40
0.78415466937182
40
0.827616415649506
40
0.871075754106051
40
0.914515176673101
40
0.957257458000023
40
1
40
1
40
1
40
1
41
1
10
6.92320508075691
20
-5.85988980456942
30
0
41
1
10
6.92208428079156
20
-5.85988957467315
30
0
41
1
10
6.91771424168896
20
-5.85993922682168
30
0
41
1
10
6.91008802154903
20
-5.86037580749809
30
0
41
1
10
6.90038485375441
20
-5.86157804000144
30
0
41
1
10
6.89077351745687
20
-5.86339275042202
30
0
41
1
10
6.88131259359394
20
-5.86579098494797
30
0
41
1
10
6.87180972564863
20
-5.86882628749496
30
0
41
1
10
6.86230475570638
20
-5.87252643061101
30
0
41
1
10
6.85281905688004
20
-5.8768808644537
30
0
41
1
10
6.84359273287068
20
-5.88175413174327
30
0
41
1
10
6.83464605957066
20
-5.88709281166666
30
0
41
1
10
6.82599915310114
20
-5.89284399662144
30
0
41
1
10
6.81718227493816
20
-5.89931781091795
30
0
41
1
10
6.80824593519398
20
-5.9065516267285
30
0
41
1
10
6.79923190856937
20
-5.91456936832145
30
0
41
1
10
6.7905901470341
20
-5.92295314997182
30
0
41
1
10
6.78223852468129
20
-5.93173056080807
30
0
41
1
10
6.77416950877366
20
-5.94087295417472
30
0
41
1
10
6.76637660974493
20
-5.95035963379883
30
0
41
1
10
6.75891320553077
20
-5.96008398194861
30
0
41
1
10
6.75059546031304
20
-5.97164340711324
30
0
41
1
10
6.7415932184587
20
-5.98513834180019
30
0
41
1
10
6.73209612374388
20
-6.00065906185548
30
0
41
1
10
6.72317933241432
20
-6.01649461448627
30
0
41
1
10
6.7148104613333
20
-6.03259227458178
30
0
41
1
10
6.70689020818169
20
-6.04903713381605
30
0
41
1
10
6.69939331402506
20
-6.06580485730326
30
0
41
1
10
6.69231020124053
20
-6.08288443084728
30
0
41
1
10
6.68567482769743
20
-6.10012527475991
30
0
41
1
10
6.67946639209605
20
-6.117502824778
30
0
41
1
10
6.67369152630935
20
-6.13490371079849
30
0
41
1
10
6.66832400117171
20
-6.15231247978976
30
0
41
1
10
6.6649998332382
20
-6.16391387986595
30
0
41
1
10
6.66339745962159
20
-6.16973001948575
30
0
0
SPLINE
5
A8
100
AcDbEntity
8
1
62
256
6
ByLayer
370
18
48
1
60
0
100
AcDbSpline
70
4
71
3
72
38
73
34
40
0
40
0
40
0
40
0
40
0.0530257893733331
40
0.106082563315235
40
0.159142402533401
40
0.212185155604544
40
0.265199178915782
40
0.306496842707908
40
0.347811655670468
40
0.389121570916753
40
0.430412553087002
40
0.464062476488282
40
0.497743069465018
40
0.531425743785351
40
0.565090565729001
40
0.598727250251819
40
0.625799574254895
40
0.652926859480836
40
0.68006862463306
40
0.707194212064787
40
0.734284129557083
40
0.761331496852269
40
0.783974465209399
40
0.806690743286163
40
0.829429930810332
40
0.85215176944543
40
0.87482795114916
40
0.897444109842039
40
0.917919320527961
40
0.938454905143802
40
0.959006106133674
40
0.979532510940737
40
1
40
1
40
1
40
1
41
1
10
6.66339745962154
20
-19.0245744101322
30
0
41
1
10
6.66538340767305
20
-19.0269146687649
30
0
41
1
10
6.66954267731807
20
-19.0315717418243
30
0
41
1
10
6.67632421517457
20
-19.0384870865187
30
0
41
1
10
6.6836995108885
20
-19.0453218982514
30
0
41
1
10
6.69169859171274
20
-19.0520656282276
30
0
41
1
10
6.6997197333663
20
-19.0582190229167
30
0
41
1
10
6.70763225952578
20
-19.0637987418413
30
0
41
1
10
6.71531800186911
20
-19.0688223514982
30
0
41
1
10
6.72348866055563
20
-19.0737626129683
30
0
41
1
10
6.73163712834028
20
-19.0783103774781
30
0
41
1
10
6.73968112751756
20
-19.0824774558948
30
0
41
1
10
6.74754542181548
20
-19.0862761807837
30
0
41
1
10
6.75581999721581
20
-19.0899896890561
30
0
41
1
10
6.7645238053377
20
-19.0936054397796
30
0
41
1
10
6.77308278684693
20
-19.0968839938758
30
0
41
1
10
6.78142202231809
20
-19.0998404188286
30
0
41
1
10
6.78947030198263
20
-19.1024905977673
30
0
41
1
10
6.79786485991015
20
-19.1050445424407
30
0
41
1
10
6.806610277547
20
-19.10748780278
30
0
41
1
10
6.8157116894048
20
-19.1098056391523
30
0
41
1
10
6.82466266049696
20
-19.1118670628324
30
0
41
1
10
6.83341663898992
20
-19.1136842387923
30
0
41
1
10
6.84191909453909
20
-19.1152736626314
30
0
41
1
10
6.85069325964143
20
-19.1167356205614
30
0
41
1
10
6.85971624327604
20
-19.1180557337457
30
0
41
1
10
6.86896469336356
20
-19.1192196267619
30
0
41
1
10
6.87812508924676
20
-19.1201830117937
30
0
41
1
10
6.88716803779732
20
-19.1209499381956
30
0
41
1
10
6.89605443790078
20
-19.1215358395161
30
0
41
1
10
6.90505282219693
20
-19.1219621072631
30
0
41
1
10
6.91411780492979
20
-19.1222233987348
30
0
41
1
10
6.92017404803238
20
-19.1222817614223
30
0
41
1
10
6.92320508075687
20
-19.1222825906926
30
0
0
SPLINE
5
A9
100
AcDbEntity
8
1
62
256
6
ByLayer
370
18
48
1
60
0
100
AcDbSpline
70
4
71
3
72
39
73
35
40
0
40
0
40
0
40
0
40
0.0075774004317118
40
0.0295617293214823
40
0.05161680538001
40
0.0737033931746513
40
0.0957726753513704
40
0.117768957992429
40
0.141420647388777
40
0.165134026397971
40
0.188895834714907
40
0.212677165451488
40
0.236435663827034
40
0.260117520707753
40
0.287852461378313
40
0.315615398057789
40
0.343386048696557
40
0.371131518484813
40
0.399580911546079
40
0.428046528305254
40
0.456516214310061
40
0.48497115936212
40
0.527396877801787
40
0.569858498449424
40
0.612343729688745
40
0.654827004919855
40
0.697270901378207
40
0.740703483370391
40
0.784154669371777
40
0.827616415649458
40
0.871075754106
40
0.914515176673043
40
0.957257457999993
40
1
40
1
40
1
40
1
41
1
10
9.07679491924309
20
-19.1222825906926
30
0
41
1
10
9.07791571920845
20
-19.1222826603778
30
0
41
1
10
9.08228575831104
20
-19.1222674433157
30
0
41
1
10
9.08991197845098
20
-19.122133693343
30
0
41
1
10
9.09961514624559
20
-19.1217652681162
30
0
41
1
10
9.10922648254313
20
-19.12120891046
30
0
41
1
10
9.11868740640607
20
-19.1204733148717
30
0
41
1
10
9.12819027435138
20
-19.1195418851463
30
0
41
1
10
9.13769524429363
20
-19.1184057635263
30
0
41
1
10
9.14718094311997
20
-19.117067686273
30
0
41
1
10
9.15640726712933
20
-19.1155689084054
30
0
41
1
10
9.16535394042935
20
-19.1139254634475
30
0
41
1
10
9.17400084689887
20
-19.1121532385451
30
0
41
1
10
9.18281772506184
20
-19.1101561211566
30
0
41
1
10
9.19175406480603
20
-19.1079216303516
30
0
41
1
10
9.20076809143063
20
-19.1054414113852
30
0
41
1
10
9.2094098529659
20
-19.102844067336
30
0
41
1
10
9.21776147531871
20
-19.1001204826255
30
0
41
1
10
9.22583049122634
20
-19.0972788519442
30
0
41
1
10
9.23362339025507
20
-19.0943251294827
30
0
41
1
10
9.24108679446923
20
-19.0912920778936
30
0
41
1
10
9.24940453968696
20
-19.0876801575723
30
0
41
1
10
9.25840678154131
20
-19.0834535918979
30
0
41
1
10
9.26790387625612
20
-19.0785788212972
30
0
41
1
10
9.27682066758568
20
-19.0735910312781
30
0
41
1
10
9.2851895386667
20
-19.0685060356657
30
0
41
1
10
9.29310979181831
20
-19.0632959548951
30
0
41
1
10
9.30060668597496
20
-19.0579672282263
30
0
41
1
10
9.30768979875946
20
-19.0525226494775
30
0
41
1
10
9.31432517230257
20
-19.0470096272913
30
0
41
1
10
9.32053360790395
20
-19.0414355758989
30
0
41
1
10
9.32630847369065
20
-19.035836425885
30
0
41
1
10
9.3316759988283
20
-19.0302170865075
30
0
41
1
10
9.3350001667618
20
-19.0264605688561
30
0
41
1
10
9.33660254037843
20
-19.0245744101322
30
0
0
SPLINE
5
AA
100
AcDbEntity
8
1
62
256
6
ByLayer
370
18
48
1
60
0
100
AcDbSpline
70
4
71
3
72
38
73
34
40
0
40
0
40
0
40
0
40
0.0530257893733029
40
0.106082563315179
40
0.159142402533321
40
0.212185155604437
40
0.265199178915647
40
0.30649684270778
40
0.347811655670344
40
0.389121570916635
40
0.430412553086896
40
0.464062476488174
40
0.497743069464926
40
0.531425743785263
40
0.565090565728921
40
0.598727250251743
40
0.62579957425482
40
0.65292685948077
40
0.680068624633001
40
0.707194212064728
40
0.734284129557026
40
0.761331496852218
40
0.783974465209343
40
0.806690743286109
40
0.829429930810283
40
0.852151769445382
40
0.874827951149112
40
0.897444109841996
40
0.917919320527918
40
0.938454905143777
40
0.959006106133656
40
0.979532510940726
40
1
40
1
40
1
40
1
41
1
10
9.33660254037848
20
19.0245744101322
30
0
41
1
10
9.33461659232697
20
19.0269146687649
30
0
41
1
10
9.33045732268195
20
19.0315717418243
30
0
41
1
10
9.32367578482545
20
19.0384870865187
30
0
41
1
10
9.31630048911152
20
19.0453218982514
30
0
41
1
10
9.30830140828729
20
19.0520656282276
30
0
41
1
10
9.30028026663373
20
19.0582190229166
30
0
41
1
10
9.29236774047426
20
19.0637987418413
30
0
41
1
10
9.28468199813092
20
19.0688223514982
30
0
41
1
10
9.2765113394444
20
19.0737626129683
30
0
41
1
10
9.26836287165975
20
19.0783103774781
30
0
41
1
10
9.26031887248248
20
19.0824774558948
30
0
41
1
10
9.25245457818455
20
19.0862761807836
30
0
41
1
10
9.24418000278422
20
19.089989689056
30
0
41
1
10
9.23547619466233
20
19.0936054397796
30
0
41
1
10
9.2269172131531
20
19.0968839938758
30
0
41
1
10
9.21857797768195
20
19.0998404188285
30
0
41
1
10
9.21052969801741
20
19.1024905977672
30
0
41
1
10
9.20213514008987
20
19.1050445424407
30
0
41
1
10
9.19338972245303
20
19.1074878027799
30
0
41
1
10
9.18428831059523
20
19.1098056391522
30
0
41
1
10
9.17533733950307
20
19.1118670628324
30
0
41
1
10
9.16658336101011
20
19.1136842387922
30
0
41
1
10
9.15808090546094
20
19.1152736626314
30
0
41
1
10
9.1493067403586
20
19.1167356205614
30
0
41
1
10
9.14028375672399
20
19.1180557337456
30
0
41
1
10
9.13103530663647
20
19.1192196267619
30
0
41
1
10
9.12187491075327
20
19.1201830117936
30
0
41
1
10
9.11283196220271
20
19.1209499381956
30
0
41
1
10
9.10394556209925
20
19.1215358395161
30
0
41
1
10
9.09494717780309
20
19.121962107263
30
0
41
1
10
9.08588219507023
20
19.1222233987348
30
0
41
1
10
9.07982595196763
20
19.1222817614222
30
0
41
1
10
9.07679491924314
20
19.1222825906926
30
0
0
SPLINE
5
AB
100
AcDbEntity
8
1
62
256
6
ByLayer
370
18
48
1
60
0
100
AcDbSpline
70
4
71
3
72
39
73
35
40
0
40
0
40
0
40
0
40
0.0075774004317271
40
0.0295617293214863
40
0.0516168053800185
40
0.0737033931746539
40
0.0957726753513679
40
0.11776895799242
40
0.141420647388757
40
0.165134026397955
40
0.188895834714893
40
0.212677165451471
40
0.236435663827013
40
0.260117520707734
40
0.287852461378297
40
0.315615398057771
40
0.343386048696546
40
0.371131518484797
40
0.399580911546058
40
0.428046528305239
40
0.456516214310041
40
0.484971159362098
40
0.527396877801764
40
0.569858498449402
40
0.612343729688723
40
0.65482700491983
40
0.697270901378182
40
0.740703483370362
40
0.78415466937175
40
0.827616415649431
40
0.871075754105969
40
0.914515176673016
40
0.957257457999983
40
1
40
1
40
1
40
1
41
1
10
6.92320508075692
20
19.1222825906925
30
0
41
1
10
6.92208428079156
20
19.1222826603777
30
0
41
1
10
6.91771424168896
20
19.1222674433157
30
0
41
1
10
6.91008802154903
20
19.122133693343
30
0
41
1
10
6.90038485375441
20
19.1217652681162
30
0
41
1
10
6.89077351745687
20
19.12120891046
30
0
41
1
10
6.88131259359394
20
19.1204733148717
30
0
41
1
10
6.87180972564863
20
19.1195418851463
30
0
41
1
10
6.86230475570639
20
19.1184057635263
30
0
41
1
10
6.85281905688004
20
19.117067686273
30
0
41
1
10
6.84359273287068
20
19.1155689084053
30
0
41
1
10
6.83464605957066
20
19.1139254634474
30
0
41
1
10
6.82599915310114
20
19.112153238545
30
0
41
1
10
6.81718227493816
20
19.1101561211566
30
0
41
1
10
6.80824593519398
20
19.1079216303515
30
0
41
1
10
6.79923190856937
20
19.1054414113851
30
0
41
1
10
6.79059014703411
20
19.1028440673359
30
0
41
1
10
6.7822385246813
20
19.1001204826254
30
0
41
1
10
6.77416950877367
20
19.0972788519442
30
0
41
1
10
6.76637660974493
20
19.0943251294827
30
0
41
1
10
6.75891320553078
20
19.0912920778936
30
0
41
1
10
6.75059546031305
20
19.0876801575723
30
0
41
1
10
6.7415932184587
20
19.0834535918979
30
0
41
1
10
6.73209612374388
20
19.0785788212972
30
0
41
1
10
6.72317933241433
20
19.0735910312781
30
0
41
1
10
6.7148104613333
20
19.0685060356657
30
0
41
1
10
6.7068902081817
20
19.063295954895
30
0
41
1
10
6.69939331402506
20
19.0579672282262
30
0
41
1
10
6.69231020124054
20
19.0525226494774
30
0
41
1
10
6.68567482769743
20
19.0470096272913
30
0
41
1
10
6.67946639209606
20
19.0414355758988
30
0
41
1
10
6.67369152630935
20
19.035836425885
30
0
41
1
10
6.66832400117171
20
19.0302170865075
30
0
41
1
10
6.66499983323822
20
19.026460568856
30
0
41
1
10
6.66339745962159
20
19.0245744101322
30
0
0
SPLINE
5
AC
100
AcDbEntity
8
1
62
256
6
ByLayer
370
18
48
1
60
0
100
AcDbSpline
70
4
71
3
72
38
73
34
40
0
40
0
40
0
40
0
40
0.0530257893733413
40
0.106082563315242
40
0.159142402533419
40
0.212185155604565
40
0.265199178915806
40
0.30649684270793
40
0.347811655670488
40
0.389121570916772
40
0.430412553087025
40
0.464062476488301
40
0.497743069465044
40
0.531425743785377
40
0.565090565729026
40
0.598727250251845
40
0.625799574254921
40
0.652926859480862
40
0.680068624633087
40
0.707194212064811
40
0.734284129557106
40
0.761331496852292
40
0.783974465209419
40
0.806690743286183
40
0.829429930810351
40
0.852151769445448
40
0.874827951149171
40
0.897444109842054
40
0.917919320527972
40
0.938454905143811
40
0.95900610613368
40
0.979532510940739
40
1
40
1
40
1
40
1
41
1
10
6.66339745962154
20
6.16973001948561
30
0
41
1
10
6.66538340767305
20
6.16251344990779
30
0
41
1
10
6.66954267731807
20
6.14812529815034
30
0
41
1
10
6.67632421517458
20
6.12667657486927
30
0
41
1
10
6.6836995108885
20
6.10539660824115
30
0
41
1
10
6.69169859171274
20
6.08432020272462
30
0
41
1
10
6.6997197333663
20
6.06501560094091
30
0
41
1
10
6.70763225952578
20
6.04745143573625
30
0
41
1
10
6.71531800186912
20
6.03159194652456
30
0
41
1
10
6.72348866055564
20
6.01595096003882
30
0
41
1
10
6.73163712834029
20
6.00151186445674
30
0
41
1
10
6.73968112751756
20
5.98824735406093
30
0
41
1
10
6.74754542181549
20
5.97612816098252
30
0
41
1
10
6.75581999721582
20
5.96425500276195
30
0
41
1
10
6.7645238053377
20
5.95266969299197
30
0
41
1
10
6.77308278684694
20
5.94214268449175
30
0
41
1
10
6.78142202231809
20
5.93263186548648
30
0
41
1
10
6.78947030198264
20
5.92409242938377
30
0
41
1
10
6.79786485991017
20
5.91585052739332
30
0
41
1
10
6.80661027754701
20
5.90795433387428
30
0
41
1
10
6.81571168940481
20
5.9004529989288
30
0
41
1
10
6.82466266049697
20
5.8937723376536
30
0
41
1
10
6.83341663898993
20
5.88787606204197
30
0
41
1
10
6.8419190945391
20
5.8827136759174
30
0
41
1
10
6.85069325964144
20
5.87796095865244
30
0
41
1
10
6.85971624327605
20
5.87366579968581
30
0
41
1
10
6.86896469336356
20
5.86987608694698
30
0
41
1
10
6.87812508924676
20
5.86673709918266
30
0
41
1
10
6.88716803779733
20
5.86423704251659
30
0
41
1
10
6.89605443790078
20
5.86232639538143
30
0
41
1
10
6.90505282219693
20
5.86093579623243
30
0
41
1
10
6.91411780492979
20
5.8600830452302
30
0
41
1
10
6.92017404803238
20
5.8598925545018
30
0
41
1
10
6.92320508075687
20
5.85988980456926
30
0
0
SPLINE
5
AD
100
AcDbEntity
8
1
62
256
6
ByLayer
370
18
48
1
60
0
100
AcDbSpline
70
4
71
3
72
39
73
35
40
0
40
0
40
0
40
0
40
0.0075774004317199
40
0.0295617293214905
40
0.0516168053800144
40
0.0737033931746551
40
0.0957726753513708
40
0.117768957992425
40
0.141420647388769
40
0.16513402639797
40
0.188895834714902
40
0.212677165451486
40
0.236435663827028
40
0.260117520707748
40
0.287852461378306
40
0.315615398057777
40
0.343386048696548
40
0.371131518484801
40
0.399580911546068
40
0.428046528305243
40
0.456516214310053
40
0.484971159362106
40
0.527396877801775
40
0.569858498449409
40
0.612343729688729
40
0.65482700491984
40
0.69727090137819
40
0.740703483370375
40
0.784154669371759
40
0.827616415649443
40
0.871075754105983
40
0.91451517667303
40
0.957257457999985
40
1
40
1
40
1
40
1
41
1
10
9.07679491924309
20
5.85988980456928
30
0
41
1
10
9.07791571920845
20
5.859889574673
30
0
41
1
10
9.08228575831104
20
5.85993922682154
30
0
41
1
10
9.08991197845098
20
5.86037580749794
30
0
41
1
10
9.09961514624559
20
5.8615780400013
30
0
41
1
10
9.10922648254313
20
5.86339275042188
30
0
41
1
10
9.11868740640607
20
5.86579098494782
30
0
41
1
10
9.12819027435138
20
5.86882628749482
30
0
41
1
10
9.13769524429362
20
5.87252643061087
30
0
41
1
10
9.14718094311997
20
5.87688086445355
30
0
41
1
10
9.15640726712932
20
5.88175413174313
30
0
41
1
10
9.16535394042935
20
5.88709281166652
30
0
41
1
10
9.17400084689887
20
5.89284399662129
30
0
41
1
10
9.18281772506184
20
5.8993178109178
30
0
41
1
10
9.19175406480603
20
5.90655162672835
30
0
41
1
10
9.20076809143063
20
5.9145693683213
30
0
41
1
10
9.20940985296589
20
5.92295314997166
30
0
41
1
10
9.21776147531871
20
5.93173056080791
30
0
41
1
10
9.22583049122633
20
5.94087295417456
30
0
41
1
10
9.23362339025508
20
5.95035963379867
30
0
41
1
10
9.24108679446922
20
5.96008398194844
30
0
41
1
10
9.24940453968696
20
5.97164340711307
30
0
41
1
10
9.25840678154131
20
5.98513834180001
30
0
41
1
10
9.26790387625612
20
6.0006590618553
30
0
41
1
10
9.27682066758568
20
6.01649461448609
30
0
41
1
10
9.2851895386667
20
6.03259227458159
30
0
41
1
10
9.29310979181831
20
6.04903713381587
30
0
41
1
10
9.30060668597495
20
6.06580485730307
30
0
41
1
10
9.30768979875947
20
6.0828844308471
30
0
41
1
10
9.31432517230257
20
6.10012527475972
30
0
41
1
10
9.32053360790395
20
6.11750282477781
30
0
41
1
10
9.32630847369065
20
6.13490371079829
30
0
41
1
10
9.33167599882831
20
6.15231247978957
30
0
41
1
10
9.33500016676179
20
6.16391387986578
30
0
41
1
10
9.33660254037843
20
6.16973001948557
30
0
0
SPLINE
5
AE
100
AcDbEntity
8
SK1
62
256
6
ByLayer
370
18
48
1
60
0
100
AcDbSpline
70
4
71
3
72
62
73
58
40
0
40
0
40
0
40
0
40
0.0173092602926432
40
0.0346438126095854
40
0.0519844601295912
40
0.0693169837633086
40
0.086632776300278
40
0.10392951404626
40
0.116880174015911
40
0.129840375854514
40
0.142798247889132
40
0.155745728408059
40
0.169098301426303
40
0.182467829707427
40
0.195834009216181
40
0.209182009717753
40
0.221740282947437
40
0.234339171348448
40
0.246957089197689
40
0.259573044204118
40
0.272167395662229
40
0.284722634661053
40
0.297257364966534
40
0.309823265453381
40
0.322409848656523
40
0.335002048958446
40
0.347580929509754
40
0.360124336187513
40
0.374209860772614
40
0.388309823927682
40
0.402413235375955
40
0.416503466788297
40
0.430967120853947
40
0.445439584539177
40
0.459914296803752
40
0.474381018894524
40
0.492401160166309
40
0.510434065027837
40
0.528477958369045
40
0.546527074703136
40
0.564572037683813
40
0.582600224289084
40
0.60471114665039
40
0.626829889078813
40
0.648953700627645
40
0.671077037112998
40
0.693191813981357
40
0.724001041360455
40
0.754820170863776
40
0.785648030308216
40
0.816480185220995
40
0.847309229247488
40
0.87812506878703
40
0.915049641864018
40
0.951979982188627
40
0.988913919880195
40
1
40
1
40
1
40
1
41
1
10
-0.399999999999965
20
-13.8205593061294
30
0
41
1
10
-0.403501773954764
20
-13.8204649357292
30
0
41
1
10
-0.41061792371415
20
-13.8202762313966
30
0
41
1
10
-0.421609477431039
20
-13.8199926552488
30
0
41
1
10
-0.432947861570407
20
-13.8197113601705
30
0
41
1
10
-0.44463961825932
20
-13.8194344846148
30
0
41
1
10
-0.4566943136024
20
-13.8191644625068
30
0
41
1
10
-0.468082923216462
20
-13.8189253348523
30
0
41
1
10
-0.478713351805137
20
-13.8187165629181
30
0
41
1
10
-0.488500832671665
20
-13.8185368303882
30
0
41
1
10
-0.498511933763348
20
-13.8183665897714
30
0
41
1
10
-0.508848706130366
20
-13.8182057133174
30
0
41
1
10
-0.519521314151381
20
-13.8180563292394
30
0
41
1
10
-0.53052740532047
20
-13.8179205685337
30
0
41
1
10
-0.541736671692397
20
-13.8178017122052
30
0
41
1
10
-0.552898994745114
20
-13.8177034015227
30
0
41
1
10
-0.563994552513208
20
-13.8176267233761
30
0
41
1
10
-0.574992233641292
20
-13.8175710244126
30
0
41
1
10
-0.586084822221126
20
-13.8175348792967
30
0
41
1
10
-0.597220870234727
20
-13.8175187923127
30
0
41
1
10
-0.608348601283217
20
-13.8175231819841
30
0
41
1
10
-0.619426127674996
20
-13.8175486112482
30
0
41
1
10
-0.630429344431209
20
-13.817595420589
30
0
41
1
10
-0.641344175780777
20
-13.8176618639648
30
0
41
1
10
-0.652150791175389
20
-13.8177467094616
30
0
41
1
10
-0.662812656932742
20
-13.8178485664707
30
0
41
1
10
-0.67329366109803
20
-13.8179660341724
30
0
41
1
10
-0.68399323207638
20
-13.8181034727337
30
0
41
1
10
-0.694875873426703
20
-13.8182615135618
30
0
41
1
10
-0.705916219541591
20
-13.8184397374389
30
0
41
1
10
-0.716692810365353
20
-13.8186302208889
30
0
41
1
10
-0.727293729916283
20
-13.8188327434272
30
0
41
1
10
-0.737714666182468
20
-13.8190457403967
30
0
41
1
10
-0.747956612600593
20
-13.8192678338014
30
0
41
1
10
-0.757933957403081
20
-13.8194955684065
30
0
41
1
10
-0.768448663662405
20
-13.8197464043224
30
0
41
1
10
-0.779441635839172
20
-13.8200195852411
30
0
41
1
10
-0.790850151006897
20
-13.8203140467878
30
0
41
1
10
-0.801916574612845
20
-13.8206089189997
30
0
41
1
10
-0.812655153295151
20
-13.8209024175951
30
0
41
1
10
-0.823079757232044
20
-13.82119279113
30
0
41
1
10
-0.833975280033564
20
-13.8214999600051
30
0
41
1
10
-0.845288806182531
20
-13.8218208877269
30
0
41
1
10
-0.856960543970745
20
-13.8221524741248
30
0
41
1
10
-0.868271229459264
20
-13.822472157244
30
0
41
1
10
-0.879241633826581
20
-13.8227784303313
30
0
41
1
10
-0.891290950708058
20
-13.8231080652768
30
0
41
1
10
-0.904301178912713
20
-13.8234513533688
30
0
41
1
10
-0.918139839438149
20
-13.8237968749613
30
0
41
1
10
-0.931489516075242
20
-13.8241072281176
30
0
41
1
10
-0.944383232163244
20
-13.8243805794559
30
0
41
1
10
-0.956853393841712
20
-13.8246151275028
30
0
41
1
10
-0.969735626681601
20
-13.82482184897
30
0
41
1
10
-0.98297799739143
20
-13.8249889017317
30
0
41
1
10
-0.996509636126202
20
-13.8251042230178
30
0
41
1
10
-1.006549058168
20
-13.8251437883868
30
0
41
1
10
-1.01209455022378
20
-13.8251484787435
30
0
41
1
10
-1.01336803762208
20
-13.8251486130355
30
0
0
SPLINE
5
AF
100
AcDbEntity
8
SK1
62
256
6
ByLayer
370
18
48
1
60
0
100
AcDbSpline
70
4
71
3
72
54
73
50
40
0
40
0
40
0
40
0
40
0.0585859205437951
40
0.117176740845993
40
0.175766251513639
40
0.234350386035513
40
0.281391485983415
40
0.328441612729648
40
0.375491832870221
40
0.422536313503673
40
0.4695726771392
40
0.502537270854777
40
0.535518538884277
40
0.568502214415978
40
0.601478465607646
40
0.634442596770405
40
0.667395761117514
40
0.690072743164121
40
0.712752291399834
40
0.735426699458282
40
0.752592187344295
40
0.769766641819338
40
0.786935400881398
40
0.804093117767684
40
0.815556028054656
40
0.827061483470625
40
0.838569695020312
40
0.850054003039457
40
0.861504207889693
40
0.872930176999702
40
0.880867779635498
40
0.888813546735379
40
0.896742026815881
40
0.902763186534933
40
0.908809177027532
40
0.914846737846891
40
0.920856352129995
40
0.926367842242748
40
0.931906999355061
40
0.93744771210755
40
0.942961334083688
40
0.94872647578452
40
0.954512227566737
40
0.960304910325033
40
0.966079535026964
40
0.9745407205685
40
0.98302539222322
40
0.991522209997787
40
1
40
1
40
1
40
1
41
1
10
-0.199999999999961
20
-13.9861960309574
30
0
41
1
10
-0.19999504837482
20
-13.9842418049857
30
0
41
1
10
-0.200146641520713
20
-13.9802050641918
30
0
41
1
10
-0.200838104127796
20
-13.973772885957
30
0
41
1
10
-0.20205496743328
20
-13.9669416366488
30
0
41
1
10
-0.203723279271486
20
-13.9601723756224
30
0
41
1
10
-0.20574651699759
20
-13.953544101667
30
0
41
1
10
-0.208053802632357
20
-13.9471265147809
30
0
41
1
10
-0.210859604044223
20
-13.9404013178694
30
0
41
1
10
-0.214219339065007
20
-13.933353544118
30
0
41
1
10
-0.217801908675373
20
-13.9267023949698
30
0
41
1
10
-0.221431218824779
20
-13.9205488967439
30
0
41
1
10
-0.224978302925014
20
-13.9149765644227
30
0
41
1
10
-0.228968552172787
20
-13.9092027185394
30
0
41
1
10
-0.233467416421895
20
-13.9032143505101
30
0
41
1
10
-0.238543820783371
20
-13.8969977541573
30
0
41
1
10
-0.243665984528697
20
-13.8912114821281
30
0
41
1
10
-0.248678921220659
20
-13.8859245240117
30
0
41
1
10
-0.253455719097707
20
-13.8811949516192
30
0
41
1
10
-0.258293402212275
20
-13.8767131966818
30
0
41
1
10
-0.263102588376664
20
-13.8725122039599
30
0
41
1
10
-0.267816211217569
20
-13.8686193015618
30
0
41
1
10
-0.272965572674578
20
-13.8646204173491
30
0
41
1
10
-0.277997500315138
20
-13.8609631223057
30
0
41
1
10
-0.282758291136587
20
-13.8576835408278
30
0
41
1
10
-0.287135468889748
20
-13.8548098820626
30
0
41
1
10
-0.291873696305675
20
-13.8518730376395
30
0
41
1
10
-0.297023889831902
20
-13.8488775409502
30
0
41
1
10
-0.30264154620906
20
-13.8458276291604
30
0
41
1
10
-0.308149310340923
20
-13.8430436128871
30
0
41
1
10
-0.313422981140735
20
-13.8405487137144
30
0
41
1
10
-0.318352161695401
20
-13.8383614177943
30
0
41
1
10
-0.323205182931633
20
-13.836351935616
30
0
41
1
10
-0.327909225666162
20
-13.8345356291573
30
0
41
1
10
-0.332374239922229
20
-13.8329192195529
30
0
41
1
10
-0.33702245279723
20
-13.8313480711899
30
0
41
1
10
-0.34169030061155
20
-13.8298854317541
30
0
41
1
10
-0.346336360844175
20
-13.8285478644793
30
0
41
1
10
-0.350906712971876
20
-13.8273363006965
30
0
41
1
10
-0.355484637606173
20
-13.8262224538015
30
0
41
1
10
-0.360088439719933
20
-13.8252042769759
30
0
41
1
10
-0.364675478929914
20
-13.8242962583307
30
0
41
1
10
-0.369221662109269
20
-13.8234943060562
30
0
41
1
10
-0.373635549180301
20
-13.8228068421455
30
0
41
1
10
-0.378559168807271
20
-13.8221388692914
30
0
41
1
10
-0.38390271868514
20
-13.8215412381234
30
0
41
1
10
-0.38957099785446
20
-13.8210555335247
30
0
41
1
10
-0.394940290959314
20
-13.8207317574204
30
0
41
1
10
-0.398345276988563
20
-13.8206012793137
30
0
41
1
10
-0.399999999999966
20
-13.8205593061295
30
0
0
SPLINE
5
B0
100
AcDbEntity
8
SK1
62
256
6
ByLayer
370
18
48
1
60
0
100
AcDbSpline
70
4
71
3
72
56
73
52
40
0
40
0
40
0
40
0
40
0.0076591101815995
40
0.0153313540037562
40
0.022996058714232
40
0.0306448687939541
40
0.0365615716101794
40
0.0424957775066014
40
0.0484227037767083
40
0.0543294481901509
40
0.0606199114950698
40
0.0669283091582546
40
0.0732149596296794
40
0.0795032887173681
40
0.0858129289585633
40
0.0921065419371382
40
0.0986231454196568
40
0.105162490412089
40
0.111711228761382
40
0.118240682629633
40
0.127580327785627
40
0.136942295733598
40
0.146326112738419
40
0.155714439374597
40
0.165076249551128
40
0.179577914840876
40
0.194095089093526
40
0.208627492155201
40
0.22316313686029
40
0.237680311636452
40
0.256264564123951
40
0.274855280605633
40
0.293448866863895
40
0.312037033934096
40
0.342115276097731
40
0.372203756748867
40
0.402301041686235
40
0.432399490396117
40
0.462486095935474
40
0.500035154256736
40
0.537589331968006
40
0.575145293361339
40
0.612696784286912
40
0.662746431710435
40
0.712799529667407
40
0.762850395425132
40
0.815775002087573
40
0.868702004129502
40
0.921627269754673
40
0.960991609808047
40
1
40
1
40
1
40
1
41
1
10
-0.399999999999912
20
-4.85227456454998
30
0
41
1
10
-0.398504413413222
20
-4.85091477963268
30
0
41
1
10
-0.395436353119756
20
-4.84828112188572
30
0
41
1
10
-0.390621270453438
20
-4.84457066134389
30
0
41
1
10
-0.385565307409264
20
-4.84117691710683
30
0
41
1
10
-0.380661162059004
20
-4.83838409889321
30
0
41
1
10
-0.375958681448445
20
-4.83615950846671
30
0
41
1
10
-0.371512942226255
20
-4.83444633575568
30
0
41
1
10
-0.366920091515758
20
-4.83309312209469
30
0
41
1
10
-0.362098192198741
20
-4.83213026860703
30
0
41
1
10
-0.357056852270469
20
-4.83166006665601
30
0
41
1
10
-0.351846232016616
20
-4.83173937965741
30
0
41
1
10
-0.346630839243723
20
-4.83239902042673
30
0
41
1
10
-0.341485321231091
20
-4.83367214445414
30
0
41
1
10
-0.336469148238483
20
-4.83548747896194
30
0
41
1
10
-0.331572960436342
20
-4.83782251168999
30
0
41
1
10
-0.326845936657856
20
-4.84064773410475
30
0
41
1
10
-0.322300508485945
20
-4.84389651687702
30
0
41
1
10
-0.317996317790219
20
-4.84746789827913
30
0
41
1
10
-0.313350642659064
20
-4.85185233332235
30
0
41
1
10
-0.308462081870921
20
-4.85711794533975
30
0
41
1
10
-0.303429353201862
20
-4.86331126699015
30
0
41
1
10
-0.298763532371202
20
-4.86977891418768
30
0
41
1
10
-0.294428302831234
20
-4.87644872366945
30
0
41
1
10
-0.289638509301053
20
-4.8845126759742
30
0
41
1
10
-0.284517237612205
20
-4.89402055290238
30
0
41
1
10
-0.27921635306604
20
-4.90502340071191
30
0
41
1
10
-0.274360687347867
20
-4.91619842893052
30
0
41
1
10
-0.269892128803428
20
-4.92749585442807
30
0
41
1
10
-0.265355955015893
20
-4.93993945527694
30
0
41
1
10
-0.260794218315729
20
-4.95353059940654
30
0
41
1
10
-0.256282113796951
20
-4.96827926045302
30
0
41
1
10
-0.252127005768434
20
-4.98309220084415
30
0
41
1
10
-0.247491974374259
20
-5.0010116655278
30
0
41
1
10
-0.242546542455367
20
-5.02205248669289
30
0
41
1
10
-0.237488549233215
20
-5.04622099461889
30
0
41
1
10
-0.232970593355973
20
-5.07042532334091
30
0
41
1
10
-0.228924140881117
20
-5.09464159970773
30
0
41
1
10
-0.224973312941801
20
-5.120855132527
30
0
41
1
10
-0.221167202635483
20
-5.14905508958485
30
0
41
1
10
-0.217589362631583
20
-5.17923086608224
30
0
41
1
10
-0.21445527710702
20
-5.20937169527174
30
0
41
1
10
-0.211410795126913
20
-5.24280868208537
30
0
41
1
10
-0.20855806274999
20
-5.27951840612662
30
0
41
1
10
-0.206013299212189
20
-5.31947060424302
30
0
41
1
10
-0.203936420745855
20
-5.36008977382185
30
0
41
1
10
-0.202303157599624
20
-5.40136575630807
30
0
41
1
10
-0.201109757684503
20
-5.44328809926852
30
0
41
1
10
-0.200412246399879
20
-5.48152338467257
30
0
41
1
10
-0.200068002782788
20
-5.51600891368868
30
0
41
1
10
-0.199999494138723
20
-5.53655006665828
30
0
41
1
10
-0.200000008190147
20
-5.54676325238033
30
0
0
SPLINE
5
B1
100
AcDbEntity
8
SK1
62
256
6
ByLayer
370
18
48
1
60
0
100
AcDbSpline
70
4
71
3
72
81
73
77
40
0
40
0
40
0
40
0
40
0.0327417942322421
40
0.0654849320859275
40
0.0982279167908166
40
0.130969502175043
40
0.163713509438997
40
0.196459326857606
40
0.229204825472005
40
0.261948397978145
40
0.288319986794278
40
0.314693987923089
40
0.341068322559335
40
0.367441418356107
40
0.393812247794143
40
0.41690690219511
40
0.440003321230115
40
0.463099270246295
40
0.486193283661154
40
0.504729046536331
40
0.523267699691005
40
0.541806572621584
40
0.560343792046468
40
0.578878352258581
40
0.594274439914529
40
0.609671331581545
40
0.625067051732241
40
0.64046674278754
40
0.655867742462443
40
0.671266685774591
40
0.682821877573511
40
0.694379613802787
40
0.705936491471896
40
0.717490512233307
40
0.727172796482628
40
0.736860703844285
40
0.746548781786887
40
0.756233389905168
40
0.765912905515711
40
0.774801272457483
40
0.783691892678119
40
0.792578959006868
40
0.799345461191193
40
0.806116430215723
40
0.812886059665696
40
0.819650733885477
40
0.826182470206606
40
0.832717197630126
40
0.839247729682004
40
0.844263175696212
40
0.849283325049542
40
0.854302690122244
40
0.859317065629319
40
0.864840994255629
40
0.870382710383796
40
0.8759326427609
40
0.881481577101896
40
0.887020986382362
40
0.892543372263735
40
0.898058834977208
40
0.90358825046038
40
0.909126837132641
40
0.914667836804767
40
0.920202828388546
40
0.925722018526149
40
0.931831565372588
40
0.937947370178765
40
0.944064637307679
40
0.950176180185675
40
0.956450410174357
40
0.962728500979529
40
0.969007564848443
40
0.975283122521152
40
0.983520798094336
40
0.991761335809383
40
1
40
1
40
1
40
1
41
1
10
-1.30710678118702
20
-3.58871727154681
30
0
41
1
10
-1.30316542863901
20
-3.60818421494489
30
0
41
1
10
-1.29512752847048
20
-3.64704303603366
30
0
41
1
10
-1.28261649295581
20
-3.70510720051696
30
0
41
1
10
-1.26961838388955
20
-3.76293718902367
30
0
41
1
10
-1.25611144683934
20
-3.82052674277705
30
0
41
1
10
-1.24207241807563
20
-3.87786899890475
30
0
41
1
10
-1.22746583875794
20
-3.93495399268303
30
0
41
1
10
-1.21225544735985
20
-3.99176736949602
30
0
41
1
10
-1.19743243196256
20
-4.04462854260433
30
0
41
1
10
-1.18310774203209
20
-4.09358948529779
30
0
41
1
10
-1.16938244050283
20
-4.13869977651412
30
0
41
1
10
-1.1551555862607
20
-4.18359642326486
30
0
41
1
10
-1.14039557692928
20
-4.22826447042269
30
0
41
1
10
-1.12570480833684
20
-4.27085080281236
30
0
41
1
10
-1.11113390610016
20
-4.31137815162008
30
0
41
1
10
-1.09672254918766
20
-4.34986636700409
30
0
41
1
10
-1.08177537936824
20
-4.38812817120618
30
0
41
1
10
-1.06727496649435
20
-4.42364382391942
30
0
41
1
10
-1.05331925026348
20
-4.45645403630938
30
0
41
1
10
-1.03999556884669
20
-4.48659741742804
30
0
41
1
10
-1.02621107509093
20
-4.51654174067417
30
0
41
1
10
-1.01193233637886
20
-4.54626593845734
30
0
41
1
10
-0.997961752941385
20
-4.57408664802587
30
0
41
1
10
-0.984368029766056
20
-4.60003143214997
30
0
41
1
10
-0.971212798010564
20
-4.62412671452596
30
0
41
1
10
-0.95759770468593
20
-4.64800523287319
30
0
41
1
10
-0.943491345625294
20
-4.67164592012177
30
0
41
1
10
-0.928845881097434
20
-4.69501742513769
30
0
41
1
10
-0.91488055677141
20
-4.71616388991497
30
0
41
1
10
-0.9017217058232
20
-4.73514135065523
30
0
41
1
10
-0.889488719860655
20
-4.75200938867638
30
0
41
1
10
-0.876837363176059
20
-4.76863426942515
30
0
41
1
10
-0.864444653895075
20
-4.78410314259542
30
0
41
1
10
-0.852368019230595
20
-4.79844384397056
30
0
41
1
10
-0.840656837704424
20
-4.81168100011887
30
0
41
1
10
-0.828550826013334
20
-4.82464915239954
30
0
41
1
10
-0.816026052064523
20
-4.83730927022385
30
0
41
1
10
-0.803410667129066
20
-4.84928944913815
30
0
41
1
10
-0.790719796137942
20
-4.86058509450643
30
0
41
1
10
-0.777962138806244
20
-4.871182950347
30
0
41
1
10
-0.765796875417898
20
-4.88054914850196
30
0
41
1
10
-0.754325521142374
20
-4.88875132218331
30
0
41
1
10
-0.743645032742783
20
-4.89586956935764
30
0
41
1
10
-0.732663097196605
20
-4.9026430801579
30
0
41
1
10
-0.721504540744036
20
-4.90895996432508
30
0
41
1
10
-0.710174739416594
20
-4.91479646260037
30
0
41
1
10
-0.698684696217801
20
-4.92012805115048
30
0
41
1
10
-0.687816032533511
20
-4.92460497134385
30
0
41
1
10
-0.677647713519522
20
-4.92831008339792
30
0
41
1
10
-0.668248920193191
20
-4.93134470461012
30
0
41
1
10
-0.658703482950295
20
-4.93402601887501
30
0
41
1
10
-0.648700345380635
20
-4.9364127296418
30
0
41
1
10
-0.63822363923644
20
-4.93842187648012
30
0
41
1
10
-0.627279930721879
20
-4.93998689218318
30
0
41
1
10
-0.61623508988291
20
-4.94104070622504
30
0
41
1
10
-0.605139843200181
20
-4.94157166001458
30
0
41
1
10
-0.594045199175727
20
-4.94156978144542
30
0
41
1
10
-0.582991179640255
20
-4.94102232258789
30
0
41
1
10
-0.572001718025643
20
-4.93991924738773
30
0
41
1
10
-0.561091920026643
20
-4.93829465340587
30
0
41
1
10
-0.550283753243012
20
-4.93617267804221
30
0
41
1
10
-0.539614828419188
20
-4.93358050201157
30
0
41
1
10
-0.529122321818846
20
-4.93054566993354
30
0
41
1
10
-0.518461872362574
20
-4.92696364188191
30
0
41
1
10
-0.507665656022739
20
-4.92280681765283
30
0
41
1
10
-0.496754764953589
20
-4.91806976462818
30
0
41
1
10
-0.486098503497676
20
-4.91292723720179
30
0
41
1
10
-0.475610180083783
20
-4.90736745340124
30
0
41
1
10
-0.465294850789222
20
-4.90141194003566
30
0
41
1
10
-0.455152037215072
20
-4.89508138496781
30
0
41
1
10
-0.445267665036465
20
-4.88845787886498
30
0
41
1
10
-0.434632015046856
20
-4.88085236214704
30
0
41
1
10
-0.423328729014524
20
-4.87219471540219
30
0
41
1
10
-0.411449048132767
20
-4.86241959283239
30
0
41
1
10
-0.403774030135599
20
-4.85569296604146
30
0
41
1
10
-0.399999999999912
20
-4.85227456454996
30
0
0
SPLINE
5
B2
100
AcDbEntity
8
SK1
62
256
6
ByLayer
370
18
48
1
60
0
100
AcDbSpline
70
4
71
3
72
84
73
80
40
0
40
0
40
0
40
0
40
0.0076313607131508
40
0.0152738396170506
40
0.0229189965295255
40
0.0305605805923275
40
0.038194809043246
40
0.045820662426992
40
0.0515304484242855
40
0.0572444319391187
40
0.0629573885050295
40
0.0686657730418855
40
0.0745524518148954
40
0.0804465980329437
40
0.086339263014946
40
0.0922239192650314
40
0.0977552209085604
40
0.103304412670283
40
0.108861970440578
40
0.114418644631007
40
0.119965794074719
40
0.125495729851926
40
0.131016899422379
40
0.136551836301788
40
0.142095898389111
40
0.147642429733799
40
0.153183072623827
40
0.158708056335073
40
0.164899602079006
40
0.171097493910514
40
0.177296897363143
40
0.183490506429183
40
0.189848346995771
40
0.196210064842276
40
0.202572770804907
40
0.208931959586053
40
0.216843573065443
40
0.224760793701122
40
0.232682837270051
40
0.240607170456362
40
0.248529677042576
40
0.256444817377632
40
0.266152633982525
40
0.275863890197147
40
0.285577374802471
40
0.295290649409412
40
0.305000159487546
40
0.318509107936864
40
0.332022400503525
40
0.345539520316947
40
0.359058521673709
40
0.372576157097646
40
0.386088001871073
40
0.402278358315407
40
0.418471246284243
40
0.434665713189529
40
0.450859975124161
40
0.467051484114962
40
0.487281208606265
40
0.507512771708816
40
0.527744796148319
40
0.547975149790032
40
0.569632017647411
40
0.591290204070218
40
0.612948664960456
40
0.634605907113532
40
0.658907856102742
40
0.683211416393718
40
0.707515806957094
40
0.731819917180742
40
0.756122327435228
40
0.7864963491249
40
0.816871844019243
40
0.847247556508455
40
0.877621874932405
40
0.908215773980248
40
0.938810802769445
40
0.969405945530437
40
1
40
1
40
1
40
1
41
1
10
-0.399999999999911
20
4.85227506835233
30
0
41
1
10
-0.403495902278084
20
4.85544106440153
30
0
41
1
10
-0.41060014731614
20
4.86168374008027
30
0
41
1
10
-0.421573392520734
20
4.8707848608973
30
0
41
1
10
-0.432893063370401
20
4.87957587884052
30
0
41
1
10
-0.44456578689565
20
4.888014627605
30
0
41
1
10
-0.456601219876387
20
4.89605414952438
30
0
41
1
10
-0.467972056434462
20
4.90301617946679
30
0
41
1
10
-0.478586312273014
20
4.90898426450495
30
0
41
1
10
-0.488359312565843
20
4.9140510279076
30
0
41
1
10
-0.498356063741629
20
4.91878860525455
30
0
41
1
10
-0.508678388784309
20
4.92321265783902
30
0
41
1
10
-0.519336537005342
20
4.92727616558974
30
0
41
1
10
-0.530328293717452
20
4.930933868362
30
0
41
1
10
-0.541523834731048
20
4.93411000108215
30
0
41
1
10
-0.552670093728101
20
4.93671827706115
30
0
41
1
10
-0.563747152687708
20
4.93874667408181
30
0
41
1
10
-0.57472383405585
20
4.9402197043426
30
0
41
1
10
-0.585796182286865
20
4.94117736323235
30
0
41
1
10
-0.596912884890698
20
4.9416092055697
30
0
41
1
10
-0.6080222967787
20
4.941506549078
30
0
41
1
10
-0.61908279888818
20
4.94085767477014
30
0
41
1
10
-0.630070317324096
20
4.93965428487491
30
0
41
1
10
-0.640970649697811
20
4.93793179955467
30
0
41
1
10
-0.651763703691232
20
4.93571467081709
30
0
41
1
10
-0.662412834800372
20
4.93303085675747
30
0
41
1
10
-0.672881821825039
20
4.92990859849989
30
0
41
1
10
-0.683561671139596
20
4.92622498302713
30
0
41
1
10
-0.69441741215469
20
4.92194663897059
30
0
41
1
10
-0.705424341960766
20
4.91706252477027
30
0
41
1
10
-0.71616905358192
20
4.91176947473025
30
0
41
1
10
-0.726739318766956
20
4.90605560044836
30
0
41
1
10
-0.737130740935512
20
4.89994331183136
30
0
41
1
10
-0.747344244986492
20
4.89345365095549
30
0
41
1
10
-0.757294330842726
20
4.88667041519005
30
0
41
1
10
-0.767775863239614
20
4.87904884411543
30
0
41
1
10
-0.778730382178757
20
4.87054206572257
30
0
41
1
10
-0.790095877223298
20
4.86110567717741
30
0
41
1
10
-0.801121317273169
20
4.85136569115904
30
0
41
1
10
-0.811820783728159
20
4.84135577750466
30
0
41
1
10
-0.822207986574391
20
4.83110917541214
30
0
41
1
10
-0.833064996269328
20
4.81986420753839
30
0
41
1
10
-0.844339095635673
20
4.80758762647472
30
0
41
1
10
-0.855970765015019
20
4.7942433966352
30
0
41
1
10
-0.867243096628342
20
4.78066251997524
30
0
41
1
10
-0.878176708383613
20
4.76687212089182
30
0
41
1
10
-0.890179489135952
20
4.75107226789984
30
0
41
1
10
-0.90313462750112
20
4.73319684213744
30
0
41
1
10
-0.916911014236873
20
4.71317767403646
30
0
41
1
10
-0.930201658554614
20
4.69289118104597
30
0
41
1
10
-0.943039308329413
20
4.67236712387822
30
0
41
1
10
-0.955456033864189
20
4.65163486888507
30
0
41
1
10
-0.968283982858779
20
4.62933686592228
30
0
41
1
10
-0.98147059298628
20
4.60544849580753
30
0
41
1
10
-0.994949043076137
20
4.57993959073422
30
0
41
1
10
-1.00798169845089
20
4.55422400017519
30
0
41
1
10
-1.02059741051215
20
4.52832191010106
30
0
41
1
10
-1.03384468465415
20
4.50008355265391
30
0
41
1
10
-1.04764238194847
20
4.46947312937315
30
0
41
1
10
-1.06190020667458
20
4.43645318138959
30
0
41
1
10
-1.07566961872583
20
4.40322401539413
30
0
41
1
10
-1.08929821409684
20
4.36901719255092
30
0
41
1
10
-1.10278502455042
20
4.33383166061677
30
0
41
1
10
-1.11611900098265
20
4.29766293482773
30
0
41
1
10
-1.12902393876135
20
4.26131315359976
30
0
41
1
10
-1.14203488855621
20
4.22330724203471
30
0
41
1
10
-1.15512387433486
20
4.18363081114017
30
0
41
1
10
-1.1682561408874
20
4.14226773194522
30
0
41
1
10
-1.18096172407237
20
4.10072059984567
30
0
41
1
10
-1.19326293830783
20
4.05899975312123
30
0
41
1
10
-1.20617577297025
20
4.01362556636839
30
0
41
1
10
-1.21961012666656
20
3.9645542295285
30
0
41
1
10
-1.23346883278124
20
3.91173999325426
30
0
41
1
10
-1.2468208502604
20
3.85869627693747
30
0
41
1
10
-1.25972500986083
20
3.80530451640385
30
0
41
1
10
-1.2722045609246
20
3.75157044814202
30
0
41
1
10
-1.2842745841763
20
3.69749780915993
30
0
41
1
10
-1.29592232940508
20
3.64322160178969
30
0
41
1
10
-1.30342362810606
20
3.60690718255526
30
0
41
1
10
-1.30710678118918
20
3.58871725124909
30
0
0
SPLINE
5
B3
100
AcDbEntity
8
SK1
62
256
6
ByLayer
370
18
48
1
60
0
100
AcDbSpline
70
4
71
3
72
56
73
52
40
0
40
0
40
0
40
0
40
0.0076856811321684
40
0.0153845660573538
40
0.0230758825206296
40
0.0307512234179908
40
0.0366913684533532
40
0.0426491015259423
40
0.0485995407944856
40
0.0545297080105755
40
0.0608514563682987
40
0.0671912522906945
40
0.0735092039269845
40
0.079828569979625
40
0.0861693244340341
40
0.0924940137497801
40
0.0990525888447113
40
0.105634047424772
40
0.112224970383726
40
0.118796493011917
40
0.12820259256324
40
0.137631164023793
40
0.147081741608427
40
0.156536867797259
40
0.165965297197833
40
0.180578694879409
40
0.19520771710353
40
0.209852086351308
40
0.224499725127322
40
0.239128754969966
40
0.257856026153218
40
0.276589807376733
40
0.295326478639182
40
0.314057692043741
40
0.344368039300212
40
0.374688702095306
40
0.405018232832935
40
0.435348933963321
40
0.465667703558083
40
0.503506547834349
40
0.541350553474448
40
0.579196355697873
40
0.617037650173497
40
0.667473564883244
40
0.71791296095975
40
0.768350103176093
40
0.821684087600046
40
0.87502049119791
40
0.928355139898033
40
0.965329087648556
40
1
40
1
40
1
40
1
41
1
10
-0.399999999999965
20
13.8205590132786
30
0
41
1
10
-0.398502765883489
20
13.8205974341695
30
0
41
1
10
-0.395431405334131
20
13.8207116400763
30
0
41
1
10
-0.390611327835622
20
13.8209867222779
30
0
41
1
10
-0.385550478894125
20
13.8213900529339
30
0
41
1
10
-0.380641349182092
20
13.8218953457482
30
0
41
1
10
-0.37593372237829
20
13.8224838902768
30
0
41
1
10
-0.371482646053149
20
13.8231298769208
30
0
41
1
10
-0.36688478210089
20
13.823892763956
30
0
41
1
10
-0.362056547086095
20
13.8247989522127
30
0
41
1
10
-0.357007574019995
20
13.8258697620792
30
0
41
1
10
-0.351788176967857
20
13.8271061047543
30
0
41
1
10
-0.346564912162711
20
13.8284757236738
30
0
41
1
10
-0.341412562553139
20
13.8299681148468
30
0
41
1
10
-0.336390463254377
20
13.8315523685212
30
0
41
1
10
-0.331486505711398
20
13.833225764587
30
0
41
1
10
-0.326750091951963
20
13.8349692388259
30
0
41
1
10
-0.322194012778423
20
13.8367642033646
30
0
41
1
10
-0.317880236289597
20
13.8385725738752
30
0
41
1
10
-0.313223382404977
20
13.8406402353403
30
0
41
1
10
-0.308322580249247
20
13.8429564775701
30
0
41
1
10
-0.303277153774292
20
13.8455057468607
30
0
41
1
10
-0.29860024853398
20
13.8480221353793
30
0
41
1
10
-0.294255296241933
20
13.8504976695191
30
0
41
1
10
-0.289454064168375
20
13.8533755929875
30
0
41
1
10
-0.284320340939761
20
13.8566306316126
30
0
41
1
10
-0.279006909533114
20
13.8602306637801
30
0
41
1
10
-0.274140745927812
20
13.863742554438
30
0
41
1
10
-0.269663413537641
20
13.8671690413198
30
0
41
1
10
-0.265119146635756
20
13.870829736844
30
0
41
1
10
-0.26055013130736
20
13.8747072771992
30
0
41
1
10
-0.256031893988437
20
13.8787785322092
30
0
41
1
10
-0.251872117762244
20
13.8827456386641
30
0
41
1
10
-0.247232939415995
20
13.8874127493593
30
0
41
1
10
-0.242284567410672
20
13.8927148668754
30
0
41
1
10
-0.237225650320391
20
13.8985738018187
30
0
41
1
10
-0.232708957702943
20
13.9042290512124
30
0
41
1
10
-0.228665671890435
20
13.9096933080116
30
0
41
1
10
-0.22472000613231
20
13.9154190894731
30
0
41
1
10
-0.220921260332319
20
13.921368992895
30
0
41
1
10
-0.217353342771734
20
13.9274966241337
30
0
41
1
10
-0.214231009912375
20
13.9333929660985
30
0
41
1
10
-0.211201408521763
20
13.9397003915661
30
0
41
1
10
-0.208367152735804
20
13.9463432062258
30
0
41
1
10
-0.205845011769963
20
13.9532373347021
30
0
41
1
10
-0.203793484366418
20
13.959922858813
30
0
41
1
10
-0.202188276203916
20
13.9663948181544
30
0
41
1
10
-0.20102566295066
20
13.9726433601825
30
0
41
1
10
-0.200370594731531
20
13.9779573502079
30
0
41
1
10
-0.200064535895449
20
13.9823709057847
30
0
41
1
10
-0.200002974145507
20
13.9848080375967
30
0
41
1
10
-0.200000341720176
20
13.9859654638328
30
0
0
SPLINE
5
B4
100
AcDbEntity
8
SK1
62
256
6
ByLayer
370
18
48
1
60
0
100
AcDbSpline
70
4
71
3
72
22
73
18
40
0
40
0
40
0
40
0
40
0.0625
40
0.125
40
0.25
40
0.5
40
0.75
40
0.875
40
0.9375
40
0.96875
40
0.984375
40
0.9921875
40
0.99609375
40
0.998046875
40
0.9990234375
40
0.99951171875
40
1
40
1
40
1
40
1
41
1
10
-22.5004731679057
20
13.4975184982571
30
0
41
1
10
-22.5004395809522
20
12.9351218951637
30
0
41
1
10
-22.500489961382
20
11.8103286855174
30
0
41
1
10
-22.5004647711674
20
9.56074226974334
30
0
41
1
10
-22.5004787657311
20
5.62396604110409
30
0
41
1
10
-22.5004711970282
20
1.427265E-09
30
0
41
1
10
-22.5004734827124
20
-5.62396604182407
30
0
41
1
10
-22.5004726956954
20
-9.56074226858608
30
0
41
1
10
-22.5004738762234
20
-11.5291303877507
30
0
41
1
10
-22.5004721054707
20
-12.5133244373425
30
0
41
1
10
-22.500474761429
20
-13.0054214778237
30
0
41
1
10
-22.5004707781083
20
-13.2514699733954
30
0
41
1
10
-22.5004767515231
20
-13.3744942544969
30
0
41
1
10
-22.5004677913642
20
-13.436006351313
30
0
41
1
10
-22.500481234082
20
-13.4667624604725
30
0
41
1
10
-22.5004570399558
20
-13.4843372685867
30
0
41
1
10
-22.5005054296003
20
-13.493124893208
30
0
41
1
10
-22.5004731679057
20
-13.4975184982323
30
0
0
SPLINE
5
B5
100
AcDbEntity
8
SK1
62
256
6
ByLayer
370
18
48
1
60
0
100
AcDbSpline
70
4
71
2
72
6
73
3
40
0
40
0
40
0
40
1
40
1
40
1
41
1
10
-2.50000000000001
20
14.0000000000425
30
0
41
1
10
-12.5002365839528
20
13.7487592491499
30
0
41
1
10
-22.5004731679057
20
13.4975184982574
30
0
0
SPLINE
5
B6
100
AcDbEntity
8
SK1
62
256
6
ByLayer
370
18
48
1
60
0
100
AcDbSpline
70
4
71
2
72
6
73
3
40
0
40
0
40
0
40
1
40
1
40
1
41
1
10
-22.5004731679057
20
-13.4975184982324
30
0
41
1
10
-12.5002365839528
20
-13.7487592491244
30
0
41
1
10
-2.50000000000001
20
-14.0000000000165
30
0
0
SPLINE
5
B7
100
AcDbEntity
8
SK1
62
256
6
ByLayer
370
18
48
1
60
0
100
AcDbSpline
70
4
71
3
72
215
73
211
40
0
40
0
40
0
40
0
40
0.0043345227099406
40
0.0090861921608033
40
0.0138376676181825
40
0.0185890342569128
40
0.0233405732103848
40
0.0280921758720143
40
0.0328437266826798
40
0.0375951032665158
40
0.042370678984118
40
0.0471464136741579
40
0.0519222065996932
40
0.0566979512095582
40
0.0614735352472921
40
0.0662247609532371
40
0.0709761305230884
40
0.0757275524353254
40
0.0804789303054706
40
0.0852301629731641
40
0.0899813363586471
40
0.0947326431819608
40
0.0994839978157287
40
0.104235310940882
40
0.108986489611929
40
0.113756127424804
40
0.118525891210105
40
0.12329570002592
40
0.128065469562215
40
0.132835112198633
40
0.13758620642629
40
0.142337418037007
40
0.147088671251692
40
0.151839887547504
40
0.156590985704694
40
0.161342048428734
40
0.166093222200011
40
0.170844434982367
40
0.175595612528512
40
0.180346678418644
40
0.185112970613022
40
0.189879369807434
40
0.194645806622826
40
0.199412209514897
40
0.204178504810606
40
0.208929520245928
40
0.213680637200844
40
0.218431789315675
40
0.223182908767026
40
0.227933926296177
40
0.232684924085415
40
0.237436019690448
40
0.242187149358485
40
0.246938247721371
40
0.251689247823695
40
0.256453540675051
40
0.261217929082835
40
0.265982350196969
40
0.270746740218804
40
0.275511034423907
40
0.280262003573745
40
0.285013064771988
40
0.289764157695048
40
0.294515220863844
40
0.299266191666436
40
0.304017150125211
40
0.308768198625534
40
0.313519277644902
40
0.318270327098033
40
0.323021286355953
40
0.327784397275403
40
0.33254759702524
40
0.33731082711065
40
0.342074028231189
40
0.346837140300282
40
0.351588083352488
40
0.356339113362505
40
0.361090172591932
40
0.365841203039644
40
0.370592146458956
40
0.376530830920426
40
0.382469627304869
40
0.388408424433998
40
0.394347109910971
40
0.400300218115166
40
0.406253438159069
40
0.412206658187657
40
0.418159766370968
40
0.424098443909679
40
0.430037231906274
40
0.435976020271997
40
0.441914698314073
40
0.447853375501624
40
0.453792163058649
40
0.459730950227478
40
0.46566962688566
40
0.471622473379686
40
0.477575431293124
40
0.483528389213957
40
0.489481235718067
40
0.495419917522065
40
0.501358710660624
40
0.507297503033007
40
0.5132361837922
40
0.51917487076004
40
0.525113670156913
40
0.531052469180659
40
0.536991155639678
40
0.541753611138292
40
0.546516155096079
40
0.551278727823105
40
0.556041270413665
40
0.560803724765551
40
0.565554677645536
40
0.57030571979695
40
0.57505679121074
40
0.579807832417183
40
0.584558784504597
40
0.58930974695159
40
0.594060800842605
40
0.598811884220192
40
0.603562936216202
40
0.608313897073806
40
0.613076960933229
40
0.617840119216618
40
0.622603308136046
40
0.627366464820744
40
0.632129527339301
40
0.636880515303478
40
0.641631600117639
40
0.646382715894636
40
0.651133798194165
40
0.655884784049252
40
0.660635787928437
40
0.665386891934471
40
0.670138028037583
40
0.674889129608314
40
0.679640131444943
40
0.684404349656229
40
0.689168673259922
40
0.693933030278147
40
0.698697350613878
40
0.703461566084233
40
0.708212612638695
40
0.712963768392385
40
0.717714958642532
40
0.722466110772202
40
0.727217154287094
40
0.73196822941323
40
0.736719419757801
40
0.741470646329007
40
0.746221832523561
40
0.750972904168953
40
0.755739054420926
40
0.760505327843402
40
0.765271639465175
40
0.770037907447028
40
0.774804053135781
40
0.779555199437461
40
0.784306476015179
40
0.789057792989673
40
0.793809063800452
40
0.798560205265213
40
0.803311397843674
40
0.808062730650709
40
0.812814106204541
40
0.817565431402256
40
0.822316617598519
40
0.827086029418812
40
0.831855595029993
40
0.836625207135859
40
0.841394763664756
40
0.846164167867404
40
0.850618207797548
40
0.855072337208724
40
0.859526463758314
40
0.863980499786215
40
0.868434571708015
40
0.872888739838136
40
0.877342904516199
40
0.881796971730547
40
0.886251082130723
40
0.890705296832937
40
0.895159507528592
40
0.89961361246515
40
0.904098996874499
40
0.908584497465182
40
0.913069993101791
40
0.917555370755408
40
0.922009580666709
40
0.926463915808563
40
0.93091824518566
40
0.935372447235706
40
0.939826721682124
40
0.944281134931022
40
0.948735541144139
40
0.953189805996008
40
0.956753274210386
40
0.960316863634538
40
0.963880488492688
40
0.967444068451732
40
0.971007528727365
40
0.974607347128711
40
0.97820730724986
40
0.981807307888874
40
0.98540725520203
40
0.98900706286077
40
0.99267135872771
40
0.996335707753668
40
1
40
1
40
1
40
1
41
1
10
-1.69993310962242
20
-14.0201038483454
30
0
41
1
10
-1.69994026286248
20
-14.0200965265896
30
0
41
1
10
-1.69993878294827
20
-14.0198786345361
30
0
41
1
10
-1.69994068338433
20
-14.0188367684739
30
0
41
1
10
-1.69994258680659
20
-14.017015867272
30
0
41
1
10
-1.69994443766632
20
-14.0144548945148
30
0
41
1
10
-1.69994623745125
20
-14.0111615071933
30
0
41
1
10
-1.69994798695551
20
-14.0071430380966
30
0
41
1
10
-1.69994968709295
20
-14.002406986399
30
0
41
1
10
-1.69995134160236
20
-13.9969513559906
30
0
41
1
10
-1.69995295105148
20
-13.9907794550753
30
0
41
1
10
-1.69995451640863
20
-13.9838940331396
30
0
41
1
10
-1.69995603630456
20
-13.9763120954492
30
0
41
1
10
-1.69995751199883
20
-13.9680403930981
30
0
41
1
10
-1.69995894246939
20
-13.9591008346031
30
0
41
1
10
-1.69996032895965
20
-13.949503382683
30
0
41
1
10
-1.6999616722451
20
-13.9392575207305
30
0
41
1
10
-1.69996297561003
20
-13.9283529592924
30
0
41
1
10
-1.69996423989684
20
-13.9167958005042
30
0
41
1
10
-1.69996546576253
20
-13.904592015144
30
0
41
1
10
-1.6999666547489
20
-13.8917472668127
30
0
41
1
10
-1.69996780831436
20
-13.8782663290291
30
0
41
1
10
-1.69996892703972
20
-13.8641540335117
30
0
41
1
10
-1.69997001167973
20
-13.8494155025499
30
0
41
1
10
-1.69997106444066
20
-13.8340355715724
30
0
41
1
10
-1.69997208554352
20
-13.8180164128147
30
0
41
1
10
-1.69997307549902
20
-13.8013601753476
30
0
41
1
10
-1.69997403413477
20
-13.7840921566797
30
0
41
1
10
-1.69997496246152
20
-13.7662172918828
30
0
41
1
10
-1.69997586031949
20
-13.7477643109463
30
0
41
1
10
-1.69997672904912
20
-13.7287397794336
30
0
41
1
10
-1.69997756938026
20
-13.7091498240345
30
0
41
1
10
-1.69997838281582
20
-13.6889739582153
30
0
41
1
10
-1.69997916980314
20
-13.6682165506795
30
0
41
1
10
-1.69997993067315
20
-13.6468816153851
30
0
41
1
10
-1.69998066618358
20
-13.6249733231733
30
0
41
1
10
-1.69998137745868
20
-13.6024954490443
30
0
41
1
10
-1.69998206520693
20
-13.5794514098083
30
0
41
1
10
-1.69998273021559
20
-13.5558450568952
30
0
41
1
10
-1.69998337401375
20
-13.5316542396354
30
0
41
1
10
-1.69998399709578
20
-13.506879540156
30
0
41
1
10
-1.69998459962435
20
-13.4815217123592
30
0
41
1
10
-1.69998518144583
20
-13.4556109223201
30
0
41
1
10
-1.69998574301168
20
-13.429151066725
30
0
41
1
10
-1.69998628413041
20
-13.4021745512776
30
0
41
1
10
-1.69998680560193
20
-13.3746867450677
30
0
41
1
10
-1.69998730837565
20
-13.3466923155241
30
0
41
1
10
-1.6999877935526
20
-13.3181645872378
30
0
41
1
10
-1.6999882617171
20
-13.2891066707476
30
0
41
1
10
-1.69998871359507
20
-13.2595214207906
30
0
41
1
10
-1.69998914932261
20
-13.2294109912238
30
0
41
1
10
-1.69998956892994
20
-13.1987779169788
30
0
41
1
10
-1.69998997304081
20
-13.1676252780598
30
0
41
1
10
-1.69999036212228
20
-13.1359564582467
30
0
41
1
10
-1.69999073700082
20
-13.1037444753696
30
0
41
1
10
-1.69999109823978
20
-13.0709902651424
30
0
41
1
10
-1.69999144634004
20
-13.0376940540844
30
0
41
1
10
-1.6999917813755
20
-13.0038885732638
30
0
41
1
10
-1.6999921037564
20
-12.9695764341492
30
0
41
1
10
-1.69999241372252
20
-12.9347922645567
30
0
41
1
10
-1.69999271137975
20
-12.8995396418138
30
0
41
1
10
-1.69999299683844
20
-12.8638225603477
30
0
41
1
10
-1.69999327090922
20
-12.8276106177955
30
0
41
1
10
-1.69999353400085
20
-12.7909067571624
30
0
41
1
10
-1.6999937865419
20
-12.7537135503299
30
0
41
1
10
-1.69999402901501
20
-12.7160330440532
30
0
41
1
10
-1.69999426176904
20
-12.6778666339968
30
0
41
1
10
-1.69999448509337
20
-12.6392161089177
30
0
41
1
10
-1.69999469927441
20
-12.6000836942854
30
0
41
1
10
-1.69999490483315
20
-12.5604373246514
30
0
41
1
10
-1.69999510186232
20
-12.5202772126411
30
0
41
1
10
-1.69999529048136
20
-12.4796040318041
30
0
41
1
10
-1.6999954708953
20
-12.4384540715229
30
0
41
1
10
-1.69999564341635
20
-12.3968299496209
30
0
41
1
10
-1.69999580822203
20
-12.3547696843566
30
0
41
1
10
-1.69999596569546
20
-12.3122763129944
30
0
41
1
10
-1.6999961161148
20
-12.2693522651488
30
0
41
1
10
-1.69999625982497
20
-12.2259627989288
30
0
41
1
10
-1.69999639703726
20
-12.1821098615478
30
0
41
1
10
-1.69999653891271
20
-12.1341019303596
30
0
41
1
10
-1.69999668363812
20
-12.0817962631069
30
0
41
1
10
-1.69999682940988
20
-12.0250382776042
30
0
41
1
10
-1.69999696637904
20
-11.9675677511835
30
0
41
1
10
-1.69999709507831
20
-11.9093414300168
30
0
41
1
10
-1.69999721597096
20
-11.8503602204566
30
0
41
1
10
-1.6999973293793
20
-11.7906239654471
30
0
41
1
10
-1.69999743549646
20
-11.7301830121796
30
0
41
1
10
-1.69999753457779
20
-11.6690892173734
30
0
41
1
10
-1.69999762685075
20
-11.6073468564747
30
0
41
1
10
-1.69999771253213
20
-11.5449610615346
30
0
41
1
10
-1.69999779201847
20
-11.4818850894829
30
0
41
1
10
-1.69999786559268
20
-11.4181223285247
30
0
41
1
10
-1.69999793356745
20
-11.3536752065589
30
0
41
1
10
-1.69999799615406
20
-11.2885451010462
30
0
41
1
10
-1.69999805353739
20
-11.2227342529857
30
0
41
1
10
-1.69999810596835
20
-11.1561918351564
30
0
41
1
10
-1.69999815356986
20
-11.0889177224928
30
0
41
1
10
-1.69999819643098
20
-11.0209126988155
30
0
41
1
10
-1.6999982346878
20
-10.9522330702172
30
0
41
1
10
-1.69999826846638
20
-10.882936870213
30
0
41
1
10
-1.69999829794268
20
-10.8130279798963
30
0
41
1
10
-1.69999832321489
20
-10.742509229068
30
0
41
1
10
-1.69999834438481
20
-10.6713269865023
30
0
41
1
10
-1.69999836153838
20
-10.5994829666591
30
0
41
1
10
-1.69999837473786
20
-10.5269785014457
30
0
41
1
10
-1.69999838399376
20
-10.4538157927065
30
0
41
1
10
-1.69999838933893
20
-10.3799974234849
30
0
41
1
10
-1.69999839070487
20
-10.3104426830285
30
0
41
1
10
-1.69999838895647
20
-10.2452953702272
30
0
41
1
10
-1.69999838483885
20
-10.1846845827148
30
0
41
1
10
-1.69999837820293
20
-10.12365566995
30
0
41
1
10
-1.69999836903234
20
-10.0622099711037
30
0
41
1
10
-1.69999835731661
20
-10.0003979085232
30
0
41
1
10
-1.69999834305688
20
-9.93822097326674
30
0
41
1
10
-1.69999832622006
20
-9.8756810622107
30
0
41
1
10
-1.69999830674054
20
-9.81272904695123
30
0
41
1
10
-1.6999982845669
20
-9.74936667431821
30
0
41
1
10
-1.69999825965114
20
-9.68559497876305
30
0
41
1
10
-1.69999823192747
20
-9.62141428552843
30
0
41
1
10
-1.69999820130808
20
-9.55682444733904
30
0
41
1
10
-1.69999816772224
20
-9.49182609208829
30
0
41
1
10
-1.69999813109737
20
-9.42642050826449
30
0
41
1
10
-1.69999809131839
20
-9.36055229915517
30
0
41
1
10
-1.69999804832931
20
-9.29422044218726
30
0
41
1
10
-1.69999800202646
20
-9.22742428062231
30
0
41
1
10
-1.6999979523175
20
-9.1602208784533
30
0
41
1
10
-1.69999789908051
20
-9.09261191076281
30
0
41
1
10
-1.69999784225024
20
-9.0246557996776
30
0
41
1
10
-1.6999977816805
20
-8.95635376401591
30
0
41
1
10
-1.69999771722201
20
-8.88770662056557
30
0
41
1
10
-1.69999764870666
20
-8.8186570885126
30
0
41
1
10
-1.69999757600893
20
-8.74920647858345
30
0
41
1
10
-1.69999749899662
20
-8.67935511496528
30
0
41
1
10
-1.69999741756874
20
-8.60910310459283
30
0
41
1
10
-1.69999733155128
20
-8.53845078801929
30
0
41
1
10
-1.69999724073947
20
-8.46739889416838
30
0
41
1
10
-1.69999714493285
20
-8.39594901029688
30
0
41
1
10
-1.69999704385396
20
-8.32403533234098
30
0
41
1
10
-1.69999693722508
20
-8.25165618883731
30
0
41
1
10
-1.69999682479584
20
-8.17880968675591
30
0
41
1
10
-1.69999670650903
20
-8.10556340188997
30
0
41
1
10
-1.69999658218907
20
-8.03191877455202
30
0
41
1
10
-1.6999964517872
20
-7.95794446942302
30
0
41
1
10
-1.69999631514151
20
-7.88364178075523
30
0
41
1
10
-1.69999617197244
20
-7.80901201309595
30
0
41
1
10
-1.69999602186583
20
-7.73398704778193
30
0
41
1
10
-1.69999586452968
20
-7.65856841898903
30
0
41
1
10
-1.69999569968182
20
-7.58275664483175
30
0
41
1
10
-1.69999552699455
20
-7.50655094613415
30
0
41
1
10
-1.69999534620074
20
-7.42995055600241
30
0
41
1
10
-1.69999515708007
20
-7.35295635085934
30
0
41
1
10
-1.69999495939706
20
-7.27556998209702
30
0
41
1
10
-1.69999475271903
20
-7.1977097579543
30
0
41
1
10
-1.69999453671623
20
-7.11937402711701
30
0
41
1
10
-1.69999431088716
20
-7.04056086402837
30
0
41
1
10
-1.69999407506617
20
-6.96135329042526
30
0
41
1
10
-1.69999382886283
20
-6.88175285820887
30
0
41
1
10
-1.69999357208079
20
-6.80184395275936
30
0
41
1
10
-1.69999330457811
20
-6.7216271538663
30
0
41
1
10
-1.69999302622209
20
-6.64110321273013
30
0
41
1
10
-1.69999273627713
20
-6.56018849416293
30
0
41
1
10
-1.69999243435521
20
-6.47888488623115
30
0
41
1
10
-1.6999921200983
20
-6.39719283442549
30
0
41
1
10
-1.69999179293837
20
-6.31511166319973
30
0
41
1
10
-1.69999145234776
20
-6.23264034575913
30
0
41
1
10
-1.69999109801433
20
-6.14977959902591
30
0
41
1
10
-1.69999072957765
20
-6.06653122869635
30
0
41
1
10
-1.69999034618244
20
-5.98278870658689
30
0
41
1
10
-1.69998994743886
20
-5.89854964988055
30
0
41
1
10
-1.69998953277099
20
-5.81381165551846
30
0
41
1
10
-1.6999891021286
20
-5.72868262343913
30
0
41
1
10
-1.69998865497725
20
-5.64316466247235
30
0
41
1
10
-1.69998820099327
20
-5.55915187504151
30
0
41
1
10
-1.69998774098053
20
-5.47667309419886
30
0
41
1
10
-1.69998727594551
20
-5.39575602201685
30
0
41
1
10
-1.69998679496363
20
-5.31449986238608
30
0
41
1
10
-1.69998629775081
20
-5.23290527769154
30
0
41
1
10
-1.69998578391312
20
-5.15097214740011
30
0
41
1
10
-1.69998525288902
20
-5.06870017036881
30
0
41
1
10
-1.69998470423352
20
-4.98609040313779
30
0
41
1
10
-1.69998413744435
20
-4.90314353692332
30
0
41
1
10
-1.69998355211867
20
-4.81985925051824
30
0
41
1
10
-1.69998294798419
20
-4.73623719868456
30
0
41
1
10
-1.69998232467682
20
-4.65227872908251
30
0
41
1
10
-1.69998168036104
20
-4.56778766879116
30
0
41
1
10
-1.69998101449207
20
-4.48276112690263
30
0
41
1
10
-1.69998032646012
20
-4.39719611469404
30
0
41
1
10
-1.69997961741081
20
-4.31129196985005
30
0
41
1
10
-1.6999788886271
20
-4.22524983038844
30
0
41
1
10
-1.69997813984556
20
-4.13907230238346
30
0
41
1
10
-1.69997737103627
20
-4.05276187920371
30
0
41
1
10
-1.69997658028788
20
-3.96611955706692
30
0
41
1
10
-1.69997576740429
20
-3.87914649047427
30
0
41
1
10
-1.69997493224385
20
-3.79184284529569
30
0
41
1
10
-1.6999740745591
20
-3.70420868021363
30
0
41
1
10
-1.69997319408466
20
-3.61624629421912
30
0
41
1
10
-1.69997235071012
20
-3.53384317185518
30
0
41
1
10
-1.6999715495126
20
-3.45707156121257
30
0
41
1
10
-1.6999707954859
20
-3.38599589185644
30
0
41
1
10
-1.69997002712828
20
-3.31471225704668
30
0
41
1
10
-1.69996924456791
20
-3.24322309104974
30
0
41
1
10
-1.69996844550569
20
-3.17128578890754
30
0
41
1
10
-1.69996762898982
20
-3.09889760015346
30
0
41
1
10
-1.69996679453042
20
-3.02605572454548
30
0
41
1
10
-1.69996594576304
20
-2.95300600485058
30
0
41
1
10
-1.69996508330554
20
-2.87975142654133
30
0
41
1
10
-1.69996420246673
20
-2.80585478671475
30
0
41
1
10
-1.69996330404793
20
-2.73131264147028
30
0
41
1
10
-1.6999623880281
20
-2.6561215315459
30
0
41
1
10
-1.69996176884744
20
-2.60585605613771
30
0
41
1
10
-1.69996145715966
20
-2.58068890323811
30
0
0
SPLINE
5
B8
100
AcDbEntity
8
SK1
62
256
6
ByLayer
370
18
48
1
60
0
100
AcDbSpline
70
4
71
2
72
6
73
3
40
0
40
0
40
0
40
1
40
1
40
1
41
1
10
-1.69993834459976
20
14.0201003336071
30
0
41
1
10
-2.09996917229989
20
14.0100501668248
30
0
41
1
10
-2.50000000000001
20
14.0000000000425
30
0
0
SPLINE
5
B9
100
AcDbEntity
8
SK1
62
256
6
ByLayer
370
18
48
1
60
0
100
AcDbSpline
70
4
71
2
72
6
73
3
40
0
40
0
40
0
40
1
40
1
40
1
41
1
10
-2.50000000000001
20
-14.0000000000165
30
0
41
1
10
-2.09996882076642
20
-14.0100501756306
30
0
41
1
10
-1.69993764153284
20
-14.0201003512446
30
0
0
SPLINE
5
BA
100
AcDbEntity
8
SK1
62
256
6
ByLayer
370
18
48
1
60
0
100
AcDbSpline
70
4
71
3
72
211
73
207
40
0
40
0
40
0
40
0
40
0.0033302939950812
40
0.006660708453726
40
0.0099911685226893
40
0.0133215932980085
40
0.0166518959460995
40
0.0208196304334479
40
0.0249875066731396
40
0.0291553907728131
40
0.0333231359786793
40
0.0368770559246017
40
0.0404310913665962
40
0.0439851701125149
40
0.0475392146429492
40
0.0510931422116832
40
0.0555354815383677
40
0.0599779574809566
40
0.0644204399706292
40
0.0688627882254274
40
0.0733233043420688
40
0.0777839453313622
40
0.0822445919150218
40
0.0867051156605562
40
0.0911479376358652
40
0.0955909737152288
40
0.100034125616077
40
0.104477287796951
40
0.108920347600033
40
0.113363185391932
40
0.117805874526125
40
0.122248753215898
40
0.12669173360649
40
0.131134722116791
40
0.135577619544758
40
0.140020321171623
40
0.144462906571497
40
0.148905662330141
40
0.153348508787936
40
0.157791361722247
40
0.162234132426991
40
0.166676727791318
40
0.171190175264448
40
0.17570378529593
40
0.180217481126159
40
0.184731182260216
40
0.189244804531525
40
0.193758260164837
40
0.198200299011001
40
0.2026424110918
40
0.207084524981067
40
0.211526566293363
40
0.215968588081044
40
0.22041067950493
40
0.224852772433252
40
0.229294796272468
40
0.233745881452718
40
0.238197033316867
40
0.242648186622582
40
0.247099273768635
40
0.252430092164743
40
0.2577610724765
40
0.26309211025676
40
0.268423097181135
40
0.273753921123478
40
0.279090050089869
40
0.284426332195754
40
0.289762668273216
40
0.295098955910598
40
0.300435089516442
40
0.305765826690404
40
0.311096709253539
40
0.316427643038841
40
0.321758530820253
40
0.327089272370952
40
0.332424800112408
40
0.337760467539154
40
0.34309618329134
40
0.348431854050993
40
0.353767384587863
40
0.359098064998111
40
0.364428879403089
40
0.369759740309696
40
0.375090558186909
40
0.380421241509426
40
0.385751902366807
40
0.391082693375137
40
0.396413529074265
40
0.401744322551526
40
0.407074985479674
40
0.412405628237223
40
0.417736397502928
40
0.423067209977081
40
0.42839798120393
40
0.433728625606348
40
0.439103038555235
40
0.444477578713664
40
0.449852162359961
40
0.455226704566033
40
0.46060111923234
40
0.465931739181616
40
0.471262481165407
40
0.47659326422437
40
0.481924006952102
40
0.487254627525342
40
0.492589308520064
40
0.497924110489682
40
0.50325895348185
40
0.508593756765811
40
0.513928438862909
40
0.519259048311998
40
0.524589777812366
40
0.529920547233328
40
0.535251276541416
40
0.540581885829234
40
0.545912493531629
40
0.551243220822051
40
0.556573988143662
40
0.561904715744841
40
0.567235323707877
40
0.572565933438896
40
0.577896663385084
40
0.583227433032111
40
0.588558162265121
40
0.593888771397977
40
0.599259584011579
40
0.604630520146018
40
0.61000149707002
40
0.615372432465852
40
0.620743244459962
40
0.626073865133952
40
0.631404608358171
40
0.636735391877995
40
0.642066134040107
40
0.647396753823277
40
0.652731480891268
40
0.658066332616836
40
0.663401224919083
40
0.668736074781975
40
0.674070800287685
40
0.679401443324903
40
0.684732213645607
40
0.690063025565294
40
0.695393794302111
40
0.700724436010876
40
0.706059360065629
40
0.71139441520432
40
0.716729512355541
40
0.722064564288705
40
0.727399485654885
40
0.732730164357293
40
0.738060977978339
40
0.743391835082686
40
0.748722645863475
40
0.754053322183671
40
0.759384026224549
40
0.764714870704785
40
0.770045759791521
40
0.775376600067867
40
0.780707300582811
40
0.786038033402109
40
0.791368912745116
40
0.796699838388992
40
0.802030712892662
40
0.807361441653051
40
0.812739259389001
40
0.818117235709255
40
0.823495262011631
40
0.82887323284626
40
0.834251045981228
40
0.839581859961053
40
0.844912837800038
40
0.850243866325209
40
0.855574836672411
40
0.860905644368612
40
0.866242036502441
40
0.87157860413209
40
0.876915225859993
40
0.882251785107842
40
0.887588170211543
40
0.89203059988699
40
0.896473176260494
40
0.90091582258038
40
0.905358464851529
40
0.909801031881639
40
0.914243455327953
40
0.918685949478013
40
0.923128603724494
40
0.927571333548699
40
0.932014058052824
40
0.936456700021976
40
0.940899185986859
40
0.94534176043196
40
0.949784511417294
40
0.954227345190612
40
0.958670172437856
40
0.963112908362726
40
0.967555472767124
40
0.972055857692195
40
0.976556448007556
40
0.981057133851083
40
0.985557811158453
40
0.990058381774549
40
0.994558753566187
40
0.999000953224652
40
1
40
1
40
1
40
1
41
1
10
-1.69996145737016
20
2.58069190327936
30
0
41
1
10
-1.69996174069612
20
2.60356504670538
30
0
41
1
10
-1.69996230389827
20
2.64925503351957
30
0
41
1
10
-1.69996313839907
20
2.71761995787727
30
0
41
1
10
-1.69996396239227
20
2.78581317296195
30
0
41
1
10
-1.69996477565937
20
2.85383199983901
30
0
41
1
10
-1.69996564551585
20
2.92736150112003
30
0
41
1
10
-1.69996656738371
20
3.00634677828948
30
0
41
1
10
-1.69996753604114
20
3.09072586743416
30
0
41
1
10
-1.69996848538234
20
3.17482644070507
30
0
41
1
10
-1.69996936935706
20
3.25453136676445
30
0
41
1
10
-1.69997019142077
20
3.32988625509829
30
0
41
1
10
-1.69997095476036
20
3.40093457997079
30
0
41
1
10
-1.69997170383327
20
3.47177744421564
30
0
41
1
10
-1.69997243845991
20
3.54241257575766
30
0
41
1
10
-1.69997321842648
20
3.61870731772694
30
0
41
1
10
-1.69997403894661
20
3.70059746031607
30
0
41
1
10
-1.69997489528544
20
3.78801096509231
30
0
41
1
10
-1.69997572913612
20
3.87509703883034
30
0
41
1
10
-1.69997654196539
20
3.96197216264397
30
0
41
1
10
-1.69997733383512
20
4.04863473891145
30
0
41
1
10
-1.69997810471333
20
4.13508312980368
30
0
41
1
10
-1.69997885379752
20
4.22119799044808
30
0
41
1
10
-1.69997958030952
20
4.3068644113593
30
0
41
1
10
-1.69998028469239
20
4.39208490905574
30
0
41
1
10
-1.69998096754894
20
4.47686187035407
30
0
41
1
10
-1.69998163017666
20
4.56130767476441
30
0
41
1
10
-1.69998227296019
20
4.64541976069421
30
0
41
1
10
-1.69998289626227
20
4.72919555522626
30
0
41
1
10
-1.6999835005047
20
4.81263374419375
30
0
41
1
10
-1.69998408595063
20
4.89573590962153
30
0
41
1
10
-1.69998465291754
20
4.97850355916647
30
0
41
1
10
-1.69998520189092
20
5.0609372356302
30
0
41
1
10
-1.6999857332901
20
5.14303486119856
30
0
41
1
10
-1.69998624754771
20
5.22479434160536
30
0
41
1
10
-1.69998674509798
20
5.30621480757388
30
0
41
1
10
-1.69998722639722
20
5.38729756597889
30
0
41
1
10
-1.69998769181363
20
5.46804381670207
30
0
41
1
10
-1.69998814170171
20
5.54845405234531
30
0
41
1
10
-1.69998857639968
20
5.62852649928033
30
0
41
1
10
-1.69998899626477
20
5.7082593999002
30
0
41
1
10
-1.69998940374443
20
5.78807468202022
30
0
41
1
10
-1.6999897991489
20
5.86796740482895
30
0
41
1
10
-1.69999018276454
20
5.94793230491484
30
0
41
1
10
-1.69999055277581
20
6.0275488043377
30
0
41
1
10
-1.69999090951403
20
6.1068151566285
30
0
41
1
10
-1.6999912532912
20
6.18572963541721
30
0
41
1
10
-1.69999158268257
20
6.26387758720979
30
0
41
1
10
-1.69999189824436
20
6.34126633686826
30
0
41
1
10
-1.69999220059482
20
6.417903201403
30
0
41
1
10
-1.6999924918041
20
6.49420000146042
30
0
41
1
10
-1.69999277223516
20
6.57015605818001
30
0
41
1
10
-1.69999304235126
20
6.64577149094781
30
0
41
1
10
-1.69999330243791
20
6.72104625208988
30
0
41
1
10
-1.6999935526805
20
6.79597976537118
30
0
41
1
10
-1.69999379345142
20
6.87062197882384
30
0
41
1
10
-1.69999402494035
20
6.94497238143494
30
0
41
1
10
-1.69999424745909
20
7.019030574909
30
0
41
1
10
-1.69999446118011
20
7.09274545322807
30
0
41
1
10
-1.69999467993141
20
7.17095028637115
30
0
41
1
10
-1.6999949021434
20
7.25356202378334
30
0
41
1
10
-1.69999512612134
20
7.34048997967807
30
0
41
1
10
-1.69999533925073
20
7.42692442557471
30
0
41
1
10
-1.6999955418815
20
7.51286303664274
30
0
41
1
10
-1.69999573440816
20
7.59833316516758
30
0
41
1
10
-1.69999591720975
20
7.68333532136451
30
0
41
1
10
-1.6999960907244
20
7.76786994810438
30
0
41
1
10
-1.69999625528397
20
7.85190782383199
30
0
41
1
10
-1.6999964112861
20
7.93544671749535
30
0
41
1
10
-1.69999655910216
20
8.01845789089153
30
0
41
1
10
-1.69999669907161
20
8.10094185245827
30
0
41
1
10
-1.69999683140425
20
8.18289933893423
30
0
41
1
10
-1.69999695643646
20
8.26435767042893
30
0
41
1
10
-1.69999707443845
20
8.34531495793711
30
0
41
1
10
-1.69999718569169
20
8.42579467383855
30
0
41
1
10
-1.69999729055068
20
8.50579693463109
30
0
41
1
10
-1.69999738932981
20
8.58532122190699
30
0
41
1
10
-1.69999748220452
20
8.66434232859145
30
0
41
1
10
-1.69999756940492
20
8.74285788839632
30
0
41
1
10
-1.69999765115071
20
8.82084290373322
30
0
41
1
10
-1.69999772761524
20
8.89829819119298
30
0
41
1
10
-1.69999779894698
20
8.97522495300791
30
0
41
1
10
-1.69999786538988
20
9.05164568285946
30
0
41
1
10
-1.69999792714373
20
9.12755843224695
30
0
41
1
10
-1.69999798440944
20
9.2029623416091
30
0
41
1
10
-1.69999803740689
20
9.2778571008435
30
0
41
1
10
-1.69999808626187
20
9.35224209860102
30
0
41
1
10
-1.69999813107874
20
9.42611635225103
30
0
41
1
10
-1.6999981719679
20
9.49947766627544
30
0
41
1
10
-1.69999820903321
20
9.57232459629172
30
0
41
1
10
-1.69999824240012
20
9.64465749014666
30
0
41
1
10
-1.69999827217363
20
9.71647665437627
30
0
41
1
10
-1.69999829843726
20
9.78778074795842
30
0
41
1
10
-1.69999832127927
20
9.85856753941485
30
0
41
1
10
-1.69999834084155
20
9.92902821805215
30
0
41
1
10
-1.69999835717621
20
9.99915676724574
30
0
41
1
10
-1.69999837027566
20
10.0689473368791
30
0
41
1
10
-1.6999983801242
20
10.1382080807428
30
0
41
1
10
-1.6999983867496
20
10.2069369278914
30
0
41
1
10
-1.69999839016805
20
10.2749474459611
30
0
41
1
10
-1.69999839044487
20
10.3422446832851
30
0
41
1
10
-1.69999838759986
20
10.4088331605564
30
0
41
1
10
-1.69999838161295
20
10.4748948910058
30
0
41
1
10
-1.6999983724676
20
10.5404273162736
30
0
41
1
10
-1.69999836013726
20
10.6054452820281
30
0
41
1
10
-1.69999834461796
20
10.6699470983812
30
0
41
1
10
-1.69999832586019
20
10.7339316259307
30
0
41
1
10
-1.69999830379927
20
10.7973813438789
30
0
41
1
10
-1.69999827837091
20
10.8602941922461
30
0
41
1
10
-1.69999824952316
20
10.9226530772393
30
0
41
1
10
-1.69999821717359
20
10.9844579269447
30
0
41
1
10
-1.69999818119902
20
11.0457078933464
30
0
41
1
10
-1.69999814149002
20
11.1064166324968
30
0
41
1
10
-1.69999809794292
20
11.1665813151484
30
0
41
1
10
-1.69999805044
20
11.2261996910469
30
0
41
1
10
-1.69999799891944
20
11.2852708361114
30
0
41
1
10
-1.69999794325192
20
11.3437943493552
30
0
41
1
10
-1.69999788325258
20
11.4017684544121
30
0
41
1
10
-1.69999781874762
20
11.4591907657558
30
0
41
1
10
-1.69999774957668
20
11.5160596965372
30
0
41
1
10
-1.69999767551056
20
11.5723738673159
30
0
41
1
10
-1.69999759632463
20
11.6281313916817
30
0
41
1
10
-1.69999751186343
20
11.6833300864508
30
0
41
1
10
-1.69999742195485
20
11.7379670065095
30
0
41
1
10
-1.69999732618712
20
11.7921756034918
30
0
41
1
10
-1.69999722434677
20
11.8459499722952
30
0
41
1
10
-1.69999711609148
20
11.8992843290638
30
0
41
1
10
-1.69999700137509
20
11.9520417428779
30
0
41
1
10
-1.69999687989584
20
12.0042192886244
30
0
41
1
10
-1.69999675169026
20
12.0556861678595
30
0
41
1
10
-1.69999661646152
20
12.1064451126887
30
0
41
1
10
-1.69999647397453
20
12.1564988474819
30
0
41
1
10
-1.69999632366845
20
12.2059724408035
30
0
41
1
10
-1.69999616529775
20
12.254862876972
30
0
41
1
10
-1.69999599859745
20
12.303180036053
30
0
41
1
10
-1.69999582325843
20
12.3509221175207
30
0
41
1
10
-1.69999563877487
20
12.3980869646799
30
0
41
1
10
-1.69999544476773
20
12.4446593496947
30
0
41
1
10
-1.69999524080439
20
12.4906358003942
30
0
41
1
10
-1.69999502647528
20
12.5360020257812
30
0
41
1
10
-1.69999480144858
20
12.5807555661924
30
0
41
1
10
-1.6999945654541
20
12.6248943574852
30
0
41
1
10
-1.69999431803347
20
12.6684274190848
30
0
41
1
10
-1.69999405880752
20
12.7113515403901
30
0
41
1
10
-1.69999378736909
20
12.753675401172
30
0
41
1
10
-1.69999350315556
20
12.7953964862633
30
0
41
1
10
-1.69999320543438
20
12.8365113831311
30
0
41
1
10
-1.69999289376713
20
12.8770052519842
30
0
41
1
10
-1.6999925676255
20
12.9168739247559
30
0
41
1
10
-1.69999222643486
20
12.9561032355456
30
0
41
1
10
-1.69999187008509
20
12.9946908883521
30
0
41
1
10
-1.6999914983386
20
13.0326350796465
30
0
41
1
10
-1.69999111031004
20
13.0699426796939
30
0
41
1
10
-1.69999070533488
20
13.1066098381632
30
0
41
1
10
-1.69999028280001
20
13.1426333921771
30
0
41
1
10
-1.69998984173241
20
13.1780099967061
30
0
41
1
10
-1.69998938136966
20
13.2127356400532
30
0
41
1
10
-1.69998890131981
20
13.2468062422726
30
0
41
1
10
-1.69998840109868
20
13.2802171720808
30
0
41
1
10
-1.69998788024114
20
13.3129641086608
30
0
41
1
10
-1.69998733826161
20
13.3450440601082
30
0
41
1
10
-1.69998677421007
20
13.3764539060828
30
0
41
1
10
-1.69998618714514
20
13.4071889468511
30
0
41
1
10
-1.69998557614464
20
13.4372442442016
30
0
41
1
10
-1.69998493835629
20
13.4667019601493
30
0
41
1
10
-1.69998427270351
20
13.4955501310334
30
0
41
1
10
-1.69998357834924
20
13.5237766642594
30
0
41
1
10
-1.69998285651489
20
13.5512925894571
30
0
41
1
10
-1.69998210647189
20
13.5780926497667
30
0
41
1
10
-1.69998132996382
20
13.6040960648285
30
0
41
1
10
-1.69998052590589
20
13.6293058669793
30
0
41
1
10
-1.69997969304794
20
13.6537241693012
30
0
41
1
10
-1.69997882832406
20
13.6774189499658
30
0
41
1
10
-1.69997793085672
20
13.7003839714475
30
0
41
1
10
-1.69997699932065
20
13.722620890019
30
0
41
1
10
-1.69997603326586
20
13.7441238409642
30
0
41
1
10
-1.69997503174639
20
13.7648868685864
30
0
41
1
10
-1.69997399357993
20
13.7848961308032
30
0
41
1
10
-1.69997291743565
20
13.8041450461797
30
0
41
1
10
-1.69997186420167
20
13.8215954701622
30
0
41
1
10
-1.69997084007828
20
13.837384557944
30
0
41
1
10
-1.69996985152628
20
13.8516412064799
30
0
41
1
10
-1.69996883360935
20
13.8653541211707
30
0
41
1
10
-1.69996778580537
20
13.8785190775632
30
0
41
1
10
-1.69996670752801
20
13.8911319021471
30
0
41
1
10
-1.69996559840295
20
13.9031886486657
30
0
41
1
10
-1.69996445716291
20
13.9146855011828
30
0
41
1
10
-1.69996328242783
20
13.9256179616405
30
0
41
1
10
-1.69996207371926
20
13.9359811762262
30
0
41
1
10
-1.6999608303346
20
13.9457701402128
30
0
41
1
10
-1.69995955165053
20
13.9549798855096
30
0
41
1
10
-1.69995823693491
20
13.9636054984648
30
0
41
1
10
-1.69995688566809
20
13.9716426544434
30
0
41
1
10
-1.69995549690152
20
13.9790865519559
30
0
41
1
10
-1.69995406949751
20
13.9859315685096
30
0
41
1
10
-1.69995260237713
20
13.9921721203717
30
0
41
1
10
-1.69995109452292
20
13.9978025790391
30
0
41
1
10
-1.69994953787892
20
14.0028391928391
30
0
41
1
10
-1.69994793151255
20
14.0072669598104
30
0
41
1
10
-1.69994627452162
20
14.011069999237
30
0
41
1
10
-1.69994457249308
20
14.0142227929898
30
0
41
1
10
-1.69994282444151
20
14.0167187439549
30
0
41
1
10
-1.69994102928666
20
14.0185512574745
30
0
41
1
10
-1.6999391939326
20
14.0197087614802
30
0
41
1
10
-1.6999378004527
20
14.0200697451752
30
0
41
1
10
-1.69994586161996
20
14.0201093981078
30
0
41
1
10
-1.69993237934202
20
14.0200992548557
30
0
0
SPLINE
5
BB
100
AcDbEntity
8
SK1
62
256
6
ByLayer
370
18
48
1
60
0
100
AcDbSpline
70
4
71
3
72
88
73
84
40
0
40
0
40
0
40
0
40
0.0135877253922965
40
0.0271760351397267
40
0.0407645076571747
40
0.0543527563552124
40
0.0679404305426091
40
0.0815286454663653
40
0.0951175505628612
40
0.108706642275851
40
0.12229546449773
40
0.135883609910245
40
0.149558410850989
40
0.163234046996838
40
0.176909906749955
40
0.190585438331624
40
0.204260151568074
40
0.217435980532045
40
0.230612375875257
40
0.243788737212685
40
0.256964519803116
40
0.270140719567858
40
0.283317563811279
40
0.296494377220149
40
0.309670534935703
40
0.322847105213005
40
0.336024397937328
40
0.349201655547991
40
0.362378177940382
40
0.373086907138004
40
0.383796280759926
40
0.394505847008752
40
0.405215178321341
40
0.415923872031592
40
0.426777658515995
40
0.437632155644585
40
0.448486876005501
40
0.45934134704476
40
0.47019511164636
40
0.481048993663053
40
0.491903600571039
40
0.502758449760652
40
0.513613057741215
40
0.52446694065755
40
0.535320773459931
40
0.546175315684861
40
0.557030108866062
40
0.567884678390484
40
0.578738534090714
40
0.589833544335745
40
0.600929268545287
40
0.612025255328665
40
0.623121025958815
40
0.634216075139778
40
0.645521822381669
40
0.656828039655153
40
0.668134273681834
40
0.679440043769938
40
0.690760252406722
40
0.70208088924834
40
0.713401543940746
40
0.724721776920425
40
0.73602712665918
40
0.747332862869506
40
0.758638620688091
40
0.769943999893651
40
0.781261129779074
40
0.792578605952957
40
0.803896098130718
40
0.815213249840272
40
0.828137610322798
40
0.841063000780005
40
0.85398907443394
40
0.86691544134027
40
0.879841669501233
40
0.892767285965117
40
0.905691777911463
40
0.921408711645314
40
0.937126841732897
40
0.952845653297217
40
0.968564562111975
40
0.984282916632465
40
1
40
1
40
1
40
1
41
1
10
-1.69996145737016
20
2.58069190327936
30
0
41
1
10
-1.70353420503618
20
2.55826081733362
30
0
41
1
10
-1.7106265282167
20
2.51333720367239
30
0
41
1
10
-1.72110811887415
20
2.44576922847765
30
0
41
1
10
-1.73142391532182
20
2.37801967224046
30
0
41
1
10
-1.7415678408617
20
2.31009135780524
30
0
41
1
10
-1.75153331655261
20
2.24198481632828
30
0
41
1
10
-1.76131407124993
20
2.1736998067781
30
0
41
1
10
-1.77090243927637
20
2.105236049442
30
0
41
1
10
-1.78029029749639
20
2.03659609875077
30
0
41
1
10
-1.78946947230911
20
1.96778372320939
30
0
41
1
10
-1.79845062387639
20
1.89865413898042
30
0
41
1
10
-1.80722557364929
20
1.82920659216714
30
0
41
1
10
-1.81578524323068
20
1.75944074292731
30
0
41
1
10
-1.82410160980783
20
1.68950623726052
30
0
41
1
10
-1.83216543883179
20
1.61940847224901
30
0
41
1
10
-1.83987240640137
20
1.550004916559
30
0
41
1
10
-1.84722583711462
20
1.481304206657
30
0
41
1
10
-1.85423020220814
20
1.41331506893332
30
0
41
1
10
-1.86096873791616
20
1.34518559844635
30
0
41
1
10
-1.8674339571352
20
1.27691993901934
30
0
41
1
10
-1.87361615897828
20
1.20852046056234
30
0
41
1
10
-1.87950708633315
20
1.13999056868843
30
0
41
1
10
-1.88510017774627
20
1.07133724628592
30
0
41
1
10
-1.89038892274425
20
1.00256623774537
30
0
41
1
10
-1.89536491959187
20
0.933681401759873
30
0
41
1
10
-1.90001940925886
20
0.864687174113398
30
0
41
1
10
-1.90434562059066
20
0.795591847228307
30
0
41
1
10
-1.9080864943314
20
0.730722258626065
30
0
41
1
10
-1.91130728526652
20
0.670102663855428
30
0
41
1
10
-1.91407072701676
20
0.613751878242108
30
0
41
1
10
-1.91660249838769
20
0.557349933891113
30
0
41
1
10
-1.91889910028755
20
0.500903134563311
30
0
41
1
10
-1.92096565603303
20
0.444160825351765
30
0
41
1
10
-1.92279644978183
20
0.387125212647638
30
0
41
1
10
-1.92438738453081
20
0.329799072299767
30
0
41
1
10
-1.92572765153315
20
0.272442846851529
30
0
41
1
10
-1.92681519866464
20
0.215063894631403
30
0
41
1
10
-1.92764773518826
20
0.157667320867423
30
0
41
1
10
-1.9282233964636
20
0.100256438211908
30
0
41
1
10
-1.92854266775195
20
0.0428347182065243
30
0
41
1
10
-1.92860558930967
20
-0.0145920952679209
30
0
41
1
10
-1.92841217382907
20
-0.0720163295021402
30
0
41
1
10
-1.92796282421723
20
-0.129432369621032
30
0
41
1
10
-1.92725625880696
20
-0.186836739520559
30
0
41
1
10
-1.92629347193857
20
-0.24422606223874
30
0
41
1
10
-1.92507711087441
20
-0.301595086533653
30
0
41
1
10
-1.923609218128
20
-0.358936411071206
30
0
41
1
10
-1.92187990123242
20
-0.4166692665455
30
0
41
1
10
-1.91988263733206
20
-0.474789459568734
30
0
41
1
10
-1.91761255101881
20
-0.53329266926958
30
0
41
1
10
-1.91508869103654
20
-0.591749717454235
30
0
41
1
10
-1.91231479790138
20
-0.650153491179257
30
0
41
1
10
-1.90927580704663
20
-0.70886844692017
30
0
41
1
10
-1.90596931923723
20
-0.767890038688372
30
0
41
1
10
-1.90239316481927
20
-0.827213668666291
30
0
41
1
10
-1.89857238501071
20
-0.886465389042726
30
0
41
1
10
-1.89450879796371
20
-0.945665350660283
30
0
41
1
10
-1.89020762072479
20
-1.00481049419783
30
0
41
1
10
-1.88567466549709
20
-1.06389824126301
30
0
41
1
10
-1.88091582141129
20
-1.12289909672021
30
0
41
1
10
-1.87593810304755
20
-1.18178321490608
30
0
41
1
10
-1.8707454891021
20
-1.24054797670338
30
0
41
1
10
-1.8653433451338
20
-1.29919143140754
30
0
41
1
10
-1.85973535319041
20
-1.35773622983963
30
0
41
1
10
-1.85392526549813
20
-1.41619961670804
30
0
41
1
10
-1.84791826280507
20
-1.47457980363243
30
0
41
1
10
-1.84171836313367
20
-1.53287495016453
30
0
41
1
10
-1.83533235151697
20
-1.5910621042208
30
0
41
1
10
-1.8284535563128
20
-1.65188769346515
30
0
41
1
10
-1.82105691448548
20
-1.71533266408694
30
0
41
1
10
-1.81311829221701
20
-1.78137618357494
30
0
41
1
10
-1.80496405697928
20
-1.84727284181501
30
0
41
1
10
-1.79660142784284
20
-1.9130186090436
30
0
41
1
10
-1.78803748633039
20
-1.97860941585164
30
0
41
1
10
-1.7792794240539
20
-2.04404124772782
30
0
41
1
10
-1.76968949883472
20
-2.11401340703702
30
0
41
1
10
-1.75922656570475
20
-2.18848581387135
30
0
41
1
10
-1.74784943115526
20
-2.26741327166313
30
0
41
1
10
-1.73622683895353
20
-2.34610572697988
30
0
41
1
10
-1.72437002009105
20
-2.42455846835599
30
0
41
1
10
-1.7122887428634
20
-2.50276689351713
30
0
41
1
10
-1.70409436795298
20
-2.55474253871847
30
0
41
1
10
-1.69996145715966
20
-2.58068890323811
30
0
0
SPLINE
5
BC
100
AcDbEntity
8
SK1
62
256
6
ByLayer
370
18
48
1
60
0
100
AcDbSpline
70
4
71
3
72
21
73
17
40
0
40
0
40
0
40
0
40
0.0832056855791366
40
0.166413995767037
40
0.249622141670966
40
0.332827603219358
40
0.399393368641691
40
0.465961501976252
40
0.532530294450027
40
0.599098179561318
40
0.665663736789047
40
0.732529258589023
40
0.799397596890006
40
0.866266711139345
40
0.933134738771693
40
1
40
1
40
1
40
1
41
1
10
-1.30710678118653
20
-3.58871727154921
30
0
41
1
10
-1.31278656376763
20
-3.56068972020091
30
0
41
1
10
-1.32410244940501
20
-3.50452506762592
30
0
41
1
10
-1.34094969352063
20
-3.41995209573607
30
0
41
1
10
-1.35765550930295
20
-3.33505239435131
30
0
41
1
10
-1.37310645681226
20
-3.25550742019667
30
0
41
1
10
-1.38732773753174
20
-3.18138847814972
30
0
41
1
10
-1.40034609059805
20
-3.11275949317685
30
0
41
1
10
-1.41324872834935
20
-3.04391949318515
30
0
41
1
10
-1.42602892549614
20
-2.97486982896644
30
0
41
1
10
-1.43869922235394
20
-2.90550660341372
30
0
41
1
10
-1.45125237454475
20
-2.83582728804515
30
0
41
1
10
-1.46368054765194
20
-2.76582948649348
30
0
41
1
10
-1.47595754997155
20
-2.69561806023003
30
0
41
1
10
-1.48807656748442
20
-2.62519515121844
30
0
41
1
10
-1.49604385997193
20
-2.57810585332738
30
0
41
1
10
-1.49999999999989
20
-2.55452633951475
30
0
0
SPLINE
5
BD
100
AcDbEntity
8
SK1
62
256
6
ByLayer
370
18
48
1
60
0
100
AcDbSpline
70
4
71
3
72
66
73
62
40
0
40
0
40
0
40
0
40
0.0575179216591028
40
0.115036385320519
40
0.172553242088413
40
0.201351472532885
40
0.230154475627382
40
0.258957576864967
40
0.287757725536385
40
0.316553914536635
40
0.34534760167781
40
0.361630974652051
40
0.377919900424278
40
0.39420717066799
40
0.410489158885355
40
0.426766711480277
40
0.435927089353517
40
0.445088334093276
40
0.454247233530658
40
0.461475421912129
40
0.468705047435905
40
0.475930060699248
40
0.481406533221626
40
0.486898171360852
40
0.49237263978287
40
0.497825620535252
40
0.500738553369031
40
0.503655749303834
40
0.506562031821238
40
0.509619273313538
40
0.512672983616966
40
0.515744143304081
40
0.518816711098987
40
0.521220675163018
40
0.523634130940931
40
0.526042776886032
40
0.530104586411435
40
0.534182688107728
40
0.538256283147364
40
0.544474337563391
40
0.550702852178747
40
0.556950473306644
40
0.563212922762998
40
0.569475708019184
40
0.575716668732217
40
0.589726958873992
40
0.603746667908576
40
0.617773172089724
40
0.631792733749205
40
0.650428903632024
40
0.66906790328791
40
0.687705731817453
40
0.716667327758313
40
0.745629646276583
40
0.777384938896996
40
0.809143713028535
40
0.840903899320446
40
0.872661117809632
40
0.915106432475851
40
0.957553930272356
40
1
40
1
40
1
40
1
41
1
10
-1.49999999999989
20
-2.55452633951474
30
0
41
1
10
-1.50346511012854
20
-2.5338031610022
30
0
41
1
10
-1.51055332212548
20
-2.49240355271119
30
0
41
1
10
-1.52161257331435
20
-2.43041937441541
30
0
41
1
10
-1.5313042484385
20
-2.37891268299556
30
0
41
1
10
-1.53936102110691
20
-2.33779777455316
30
0
41
1
10
-1.5455844973127
20
-2.30700751983858
30
0
41
1
10
-1.5520396997016
20
-2.27631822885535
30
0
41
1
10
-1.55877347349858
20
-2.2457629306371
30
0
41
1
10
-1.56583335832747
20
-2.21537496699927
30
0
41
1
10
-1.57219434780503
20
-2.18956249408934
30
0
41
1
10
-1.57770643593989
20
-2.16824875993886
30
0
41
1
10
-1.58226955954044
20
-2.15138249245597
30
0
41
1
10
-1.5870605831995
20
-2.13466048148231
30
0
41
1
10
-1.59212929384027
20
-2.11812887294307
30
0
41
1
10
-1.59673664444813
20
-2.10420680074468
30
0
41
1
10
-1.60076994569056
20
-2.09282323983563
30
0
41
1
10
-1.6041349749687
20
-2.08391137228539
30
0
41
1
10
-1.60744416855296
20
-2.07578002587436
30
0
41
1
10
-1.61067438695616
20
-2.06841942993925
30
0
41
1
10
-1.6138183325437
20
-2.06183377193369
30
0
41
1
10
-1.61691716850852
20
-2.05599918561679
30
0
41
1
10
-1.61992623819365
20
-2.05088142861851
30
0
41
1
10
-1.62283703196878
20
-2.04649364216193
30
0
41
1
10
-1.62600043672616
20
-2.04247340244049
30
0
41
1
10
-1.62892228485941
20
-2.03950206407342
30
0
41
1
10
-1.63148207457443
20
-2.03744727373568
30
0
41
1
10
-1.63357795377696
20
-2.03612946787424
30
0
41
1
10
-1.63582381573981
20
-2.0351358925557
30
0
41
1
10
-1.63821572152215
20
-2.03459260267843
30
0
41
1
10
-1.64072549429418
20
-2.03460197981558
30
0
41
1
10
-1.64324162309102
20
-2.03527875181207
30
0
41
1
10
-1.64550444392829
20
-2.03646770835342
30
0
41
1
10
-1.64747416975509
20
-2.03798586230387
30
0
41
1
10
-1.64917352878479
20
-2.03963930511259
30
0
41
1
10
-1.65112791801892
20
-2.04193411076853
30
0
41
1
10
-1.65324527013135
20
-2.0449835096261
30
0
41
1
10
-1.65543276077911
20
-2.04882613883398
30
0
41
1
10
-1.65774280908326
20
-2.05359912647761
30
0
41
1
10
-1.66012881230376
20
-2.05930544253873
30
0
41
1
10
-1.66251621085112
20
-2.06596778342086
30
0
41
1
10
-1.66463365043079
20
-2.07279542969938
30
0
41
1
10
-1.66652891538723
20
-2.07973719419683
30
0
41
1
10
-1.6682450598897
20
-2.08674448995876
30
0
41
1
10
-1.67049830214271
20
-2.0967016343489
30
0
41
1
10
-1.67312558802607
20
-2.10965953618461
30
0
41
1
10
-1.67589208331271
20
-2.12566679978284
30
0
41
1
10
-1.67830246948058
20
-2.14173998844994
30
0
41
1
10
-1.68068136152833
20
-2.15961632326501
30
0
41
1
10
-1.68301243351549
20
-2.17928827226262
30
0
41
1
10
-1.68522654877867
20
-2.20075311508414
30
0
41
1
10
-1.68753968219615
20
-2.22619226578369
30
0
41
1
10
-1.68984071699906
20
-2.25559961487663
30
0
41
1
10
-1.69208607938377
20
-2.29003223964276
30
0
41
1
10
-1.69402045794097
20
-2.32551590486778
30
0
41
1
10
-1.69565182756258
20
-2.36204067973439
30
0
41
1
10
-1.69696499541379
20
-2.39852872620463
30
0
41
1
10
-1.69812356067075
20
-2.43906534914338
30
0
41
1
10
-1.69906593313167
20
-2.48363313681041
30
0
41
1
10
-1.69970659581485
20
-2.53220721875382
30
0
41
1
10
-1.69991515949736
20
-2.56453728627335
30
0
41
1
10
-1.69996145715966
20
-2.58068890323811
30
0
0
SPLINE
5
BE
100
AcDbEntity
8
SK1
62
256
6
ByLayer
370
18
48
1
60
0
100
AcDbSpline
70
4
71
3
72
66
73
62
40
0
40
0
40
0
40
0
40
0.035959715126099
40
0.0719202983102978
40
0.10787965776524
40
0.143843463065816
40
0.179808621636956
40
0.215771411610397
40
0.242927923935463
40
0.270088399073954
40
0.297246310080635
40
0.324399325291991
40
0.338808482350159
40
0.353227926096962
40
0.367647772478006
40
0.382061536012712
40
0.396466938153841
40
0.410866728975721
40
0.418101940261341
40
0.425353727384093
40
0.432605474479595
40
0.439846335946735
40
0.447072977786452
40
0.454291396788202
40
0.459417499532365
40
0.46454756714358
40
0.469660564694783
40
0.473450777430652
40
0.477235559795958
40
0.480403559637688
40
0.483567383436672
40
0.486753692534329
40
0.489941336704968
40
0.492326757480662
40
0.494721588819973
40
0.497111604154655
40
0.501123756363726
40
0.505152020628957
40
0.509175825258565
40
0.515363338309716
40
0.521561032510292
40
0.527777826331736
40
0.534009559905951
40
0.540241782079719
40
0.546452372843709
40
0.560542847990144
40
0.574641924729228
40
0.588747612472304
40
0.602847107355368
40
0.621592504447466
40
0.640340094072896
40
0.659086928444194
40
0.688040977445982
40
0.716995567647164
40
0.752353625689481
40
0.787713593783246
40
0.823074766925147
40
0.858434468293504
40
0.905622612032044
40
0.952811459842619
40
1
40
1
40
1
40
1
41
1
10
-1.69996145737016
20
2.58069190327936
30
0
41
1
10
-1.69992095822144
20
2.56700851942038
30
0
41
1
10
-1.69975854344721
20
2.53962250086008
30
0
41
1
10
-1.69928191728227
20
2.49848656286052
30
0
41
1
10
-1.69853853312526
20
2.45729319952743
30
0
41
1
10
-1.69751034634076
20
2.41604481200353
30
0
41
1
10
-1.69615121495757
20
2.37474296705239
30
0
41
1
10
-1.69454827242283
20
2.33676746068995
30
0
41
1
10
-1.6927795298442
20
2.3021363716331
30
0
41
1
10
-1.69089117358423
20
2.27086171519272
30
0
41
1
10
-1.68864651805012
20
2.23957313999463
30
0
41
1
10
-1.68638939319181
20
2.21317781175329
30
0
41
1
10
-1.68431326308742
20
2.19168162971401
30
0
41
1
10
-1.68255633383208
20
2.17508140514287
30
0
41
1
10
-1.68059119707161
20
2.15849382985688
30
0
41
1
10
-1.67837081010578
20
2.14193752138937
30
0
41
1
10
-1.67584926300457
20
2.12543063151539
30
0
41
1
10
-1.67344660777853
20
2.11172017763044
30
0
41
1
10
-1.67133519195785
20
2.10077522774768
30
0
41
1
10
-1.6696238403475
20
2.09257027487812
30
0
41
1
10
-1.66773783015773
20
2.08441537153163
30
0
41
1
10
-1.66563504408725
20
2.07634747088072
30
0
41
1
10
-1.6632702898567
20
2.06840474102748
30
0
41
1
10
-1.66086150094769
20
2.06137731473261
30
0
41
1
10
-1.65846644888365
20
2.05525465096628
30
0
41
1
10
-1.65609474001205
20
2.05006283296414
30
0
41
1
10
-1.65362658472868
20
2.04559439210818
30
0
41
1
10
-1.65111183143072
20
2.04189011715008
30
0
41
1
10
-1.64873645422822
20
2.03911849934316
30
0
41
1
10
-1.64627493873664
20
2.03698572670498
30
0
41
1
10
-1.64379111505297
20
2.03549718732433
30
0
41
1
10
-1.64118936691086
20
2.03468556721142
30
0
41
1
10
-1.63878716720807
20
2.03455616509411
30
0
41
1
10
-1.63665751023237
20
2.03492534927894
30
0
41
1
10
-1.63480284513945
20
2.03556533840504
30
0
41
1
10
-1.63261835854196
20
2.03667429083095
30
0
41
1
10
-1.63017544813874
20
2.03840933968116
30
0
41
1
10
-1.62755644717511
20
2.0408564384493
30
0
41
1
10
-1.6246810866149
20
2.04412957647197
30
0
41
1
10
-1.62159570626207
20
2.04825973467018
30
0
41
1
10
-1.61836987685337
20
2.05331062331608
30
0
41
1
10
-1.6153803536665
20
2.05866811957291
30
0
41
1
10
-1.61258784315043
20
2.06425618665631
30
0
41
1
10
-1.60995731785013
20
2.0700040502443
30
0
41
1
10
-1.6063753437295
20
2.07831684900014
30
0
41
1
10
-1.60199215866236
20
2.08933103806061
30
0
41
1
10
-1.59702726806092
20
2.10322198583046
30
0
41
1
10
-1.5923918493573
20
2.11736619691089
30
0
41
1
10
-1.58751938148137
20
2.13325608771884
30
0
41
1
10
-1.58242173371545
20
2.15088856636224
30
0
41
1
10
-1.5771621820834
20
2.17029753346185
30
0
41
1
10
-1.57122567116405
20
2.19339478587305
30
0
41
1
10
-1.56470457500978
20
2.22022464832939
30
0
41
1
10
-1.55717638039346
20
2.25308199095238
30
0
41
1
10
-1.54949696923513
20
2.28837378085825
30
0
41
1
10
-1.54169101154559
20
2.32610029105069
30
0
41
1
10
-1.53420003495307
20
2.36396027440139
30
0
41
1
10
-1.52615988090656
20
2.40615127106993
30
0
41
1
10
-1.51761490575844
20
2.45267792968215
30
0
41
1
10
-1.50864037031187
20
2.50355851181851
30
0
41
1
10
-1.50284618673236
20
2.53752902431439
30
0
41
1
10
-1.49999999999989
20
2.55452876952824
30
0
0
SPLINE
5
BF
100
AcDbEntity
8
SK1
62
256
6
ByLayer
370
18
48
1
60
0
100
AcDbSpline
70
4
71
3
72
21
73
17
40
0
40
0
40
0
40
0
40
0.0665546295669131
40
0.133111988110449
40
0.199670417938653
40
0.26622808176175
40
0.332782967380181
40
0.39933560405033
40
0.465890568631688
40
0.532446440686977
40
0.599001653684352
40
0.66555449871077
40
0.749164412757696
40
0.832777051532326
40
0.916389857692585
40
1
40
1
40
1
40
1
41
1
10
-1.49999999999989
20
2.55452876952822
30
0
41
1
10
-1.49606220869044
20
2.57799866576263
30
0
41
1
10
-1.4881321126482
20
2.62486937195786
30
0
41
1
10
-1.47607042627871
20
2.69496634764377
30
0
41
1
10
-1.46385216039406
20
2.76485380367859
30
0
41
1
10
-1.45148404027111
20
2.83452962834072
30
0
41
1
10
-1.43897350394283
20
2.90399253562639
30
0
41
1
10
-1.42632758074168
20
2.97324381438402
30
0
41
1
10
-1.41355280996543
20
3.04228487380036
30
0
41
1
10
-1.40065551670132
20
3.11111635979979
30
0
41
1
10
-1.38764242879054
20
3.17973692157312
30
0
41
1
10
-1.37339912926853
20
3.25399094908482
30
0
41
1
10
-1.3578979721363
20
3.33381279228821
30
0
41
1
10
-1.34111283018244
20
3.41912905656359
30
0
41
1
10
-1.32418477213007
20
3.50411540203218
30
0
41
1
10
-1.3128141541092
20
3.56055350996532
30
0
41
1
10
-1.30710678118653
20
3.58871725126215
30
0
0
SPLINE
5
C0
100
AcDbEntity
8
SK1
62
256
6
ByLayer
370
18
48
1
60
0
100
AcDbSpline
70
4
71
2
72
6
73
3
40
0
40
0
40
0
40
1
40
1
40
1
41
1
10
-22.5004365053367
20
13.4983092644178
30
0
41
1
10
-23.2502181378301
20
13.0395648429317
30
0
41
1
10
-24
20
12.580821031367
30
0
0
SPLINE
5
C1
100
AcDbEntity
8
SK1
62
256
6
ByLayer
370
18
48
1
60
0
100
AcDbSpline
70
4
71
2
72
6
73
3
40
0
40
0
40
0
40
1
40
1
40
1
41
1
10
-24
20
-12.579391058816
30
0
41
1
10
-23.2502160319263
20
-13.0379233734802
30
0
41
1
10
-22.5004319368462
20
-13.4964559392136
30
0
0
SPLINE
5
C2
100
AcDbEntity
8
SK1
62
256
6
ByLayer
370
18
48
1
60
0
100
AcDbSpline
70
4
71
3
72
59
73
55
40
0
40
0
40
0
40
0
40
0.0306903616756607
40
0.0608950521007033
40
0.0905226648211549
40
0.119486026390891
40
0.147703043869075
40
0.175097383658037
40
0.201598971189442
40
0.227144309870777
40
0.251676625753626
40
0.275145851106484
40
0.29750846518285
40
0.318727213874182
40
0.34109539786113
40
0.361953558268926
40
0.381273336859162
40
0.399090852973501
40
0.41661009579422
40
0.434311231894933
40
0.462472747409737
40
0.491027472454824
40
0.519937397576318
40
0.548399214201251
40
0.577119381754955
40
0.606055950239933
40
0.635059746722183
40
0.663160423730214
40
0.690127981423495
40
0.715961477169749
40
0.744672942852138
40
0.771876973244765
40
0.798560149120602
40
0.818605863214135
40
0.838537472959472
40
0.857441574934839
40
0.858013088049705
40
0.858156602082556
40
0.858311399459015
40
0.858697445032992
40
0.859918170988711
40
0.861829690777826
40
0.86550081920719
40
0.87047480304238
40
0.876759802948685
40
0.886036889564085
40
0.897208675510098
40
0.910275052469787
40
0.925234646716955
40
0.942085201710142
40
0.959515862410044
40
0.97858833047237
40
0.999299336005938
40
1
40
1
40
1
40
1
41
1
10
-1.49999999999995
20
13.8251486126088
30
0
41
1
10
-1.50361745313312
20
13.8251487465332
30
0
41
1
10
-1.51078317969139
20
13.8253429343688
30
0
41
1
10
-1.52141426755515
20
13.8262045390998
30
0
41
1
10
-1.53178105617993
20
13.8275991281195
30
0
41
1
10
-1.54183251429289
20
13.8294849511478
30
0
41
1
10
-1.55152009475348
20
13.8318142772515
30
0
41
1
10
-1.56080343156642
20
13.8345348967432
30
0
41
1
10
-1.56964933155604
20
13.8375914176671
30
0
41
1
10
-1.57803215865894
20
13.8409266022185
30
0
41
1
10
-1.58593354724799
20
13.844482611014
30
0
41
1
10
-1.59334200838281
20
13.8482021250686
30
0
41
1
10
-1.60025237247437
20
13.8520293371994
30
0
41
1
10
-1.60689931133923
20
13.8560525158129
30
0
41
1
10
-1.61323888207805
20
13.8602313365669
30
0
41
1
10
-1.61923226500293
20
13.8645189534791
30
0
41
1
10
-1.62464500240292
20
13.868689355835
30
0
41
1
10
-1.62961445117315
20
13.8727849151001
30
0
41
1
10
-1.63431036860973
20
13.8769078440921
30
0
41
1
10
-1.63976605252609
20
13.8820070259519
30
0
41
1
10
-1.64592567406114
20
13.8882505237083
30
0
41
1
10
-1.65264414213362
20
13.8957803698979
30
0
41
1
10
-1.65899411847588
20
13.9036693367705
30
0
41
1
10
-1.66494747969181
20
13.9118856517258
30
0
41
1
10
-1.67048001317191
20
13.9203949600127
30
0
41
1
10
-1.67560405339038
20
13.9292303431273
30
0
41
1
10
-1.68023583106146
20
13.9382515277953
30
0
41
1
10
-1.68431105627899
20
13.9472830869917
30
0
41
1
10
-1.6878050504638
20
13.9561543085692
30
0
41
1
10
-1.69090451778031
20
13.9652465996195
30
0
41
1
10
-1.69357023037151
20
13.9745054045523
30
0
41
1
10
-1.69579809009685
20
13.9839816106193
30
0
41
1
10
-1.69738613066454
20
13.9925485075152
30
0
41
1
10
-1.69849769014329
20
14.0003253727127
30
0
41
1
10
-1.69923604323148
20
14.0072199547666
30
0
41
1
10
-1.69957215594435
20
14.011861256182
30
0
41
1
10
-1.6996990967709
20
14.0141618438574
30
0
41
1
10
-1.69970472403494
20
14.0142650220687
30
0
41
1
10
-1.69970884654446
20
14.0143409922286
30
0
41
1
10
-1.69971708542964
20
14.0144941528465
30
0
41
1
10
-1.69972670628577
20
14.0146764920257
30
0
41
1
10
-1.69973997929525
20
14.0149326447239
30
0
41
1
10
-1.69975440620044
20
14.0152193064902
30
0
41
1
10
-1.6997703550718
20
14.0155458620031
30
0
41
1
10
-1.69978806769084
20
14.0159214727257
30
0
41
1
10
-1.69980705539468
20
14.0163413809722
30
0
41
1
10
-1.69982698585441
20
14.0168043176832
30
0
41
1
10
-1.69984686258333
20
14.0172917316756
30
0
41
1
10
-1.69986647431288
20
14.0178024812387
30
0
41
1
10
-1.69988511643508
20
14.0183217245734
30
0
41
1
10
-1.69990272400324
20
14.0188490960697
30
0
41
1
10
-1.69991919958952
20
14.0193834634669
30
0
41
1
10
-1.69992930692988
20
14.0197424495976
30
0
41
1
10
-1.6999342230354
20
14.0199259182275
30
0
41
1
10
-1.69993449052757
20
14.0199359156496
30
0
0
SPLINE
5
C3
100
AcDbEntity
8
SK1
62
256
6
ByLayer
370
18
48
1
60
0
100
AcDbSpline
70
4
71
3
72
59
73
55
40
0
40
0
40
0
40
0
40
0.0113749641603668
40
0.032139637042396
40
0.049070723598932
40
0.0641457662270601
40
0.0773627789069357
40
0.0887207080887823
40
0.0982198548105676
40
0.104717747101505
40
0.109930388244416
40
0.113866392903501
40
0.115993454336272
40
0.117439884486251
40
0.11793249351816
40
0.119018347025929
40
0.130040907755314
40
0.14056363551833
40
0.155841398396374
40
0.171090133091993
40
0.18638375839025
40
0.201716325547269
40
0.217095694546402
40
0.232834681079756
40
0.249067752500925
40
0.265798343476808
40
0.292253606944367
40
0.319874869029799
40
0.348661418086233
40
0.378405299972554
40
0.408102590181055
40
0.437578880539227
40
0.466790881240419
40
0.495122576863253
40
0.523124151251626
40
0.550761294129598
40
0.578002225250092
40
0.594910046269169
40
0.612352028634626
40
0.631214533885331
40
0.651481335784204
40
0.673127582738331
40
0.6948696172883
40
0.717788655457156
40
0.741846449711529
40
0.766998288675952
40
0.793192704729831
40
0.82037130675281
40
0.848468760607129
40
0.877412936435474
40
0.90712523655901
40
0.937521110780642
40
0.968510757527654
40
1
40
1
40
1
40
1
41
1
10
-1.69993350074616
20
-14.0199181094392
30
0
41
1
10
-1.6999309552503
20
-14.0198227325392
30
0
41
1
10
-1.69992336930579
20
-14.0195470840878
30
0
41
1
10
-1.69991029918838
20
-14.0191034058617
30
0
41
1
10
-1.69989369017937
20
-14.0185853726395
30
0
41
1
10
-1.69987703454281
20
-14.0181013833562
30
0
41
1
10
-1.6998598448158
20
-14.0176329031657
30
0
41
1
10
-1.69984226629753
20
-14.0171809998321
30
0
41
1
10
-1.69982517147348
20
-14.016764388438
30
0
41
1
10
-1.69980887094129
20
-14.0163851291468
30
0
41
1
10
-1.69979387256874
20
-14.0160494627839
30
0
41
1
10
-1.69977995473393
20
-14.0157485042029
30
0
41
1
10
-1.69976693180347
20
-14.0154758936965
30
0
41
1
10
-1.6997572470765
20
-14.0152776552218
30
0
41
1
10
-1.69974581759012
20
-14.0150484466812
30
0
41
1
10
-1.69967393744705
20
-14.0136393546032
30
0
41
1
10
-1.69953060314196
20
-14.0112879772908
30
0
41
1
10
-1.69920396321592
20
-14.0071142492975
30
0
41
1
10
-1.6987281084711
20
-14.0024059390474
30
0
41
1
10
-1.69806039006447
20
-13.997178097653
30
0
41
1
10
-1.69725367090931
20
-13.9919602605423
30
0
41
1
10
-1.69630674757992
20
-13.9867516308067
30
0
41
1
10
-1.69521156005664
20
-13.9815195341838
30
0
41
1
10
-1.69395230539089
20
-13.9762179545268
30
0
41
1
10
-1.69250712245818
20
-13.9708028203893
30
0
41
1
10
-1.69055673665202
20
-13.9642490686395
30
0
41
1
10
-1.68794246100008
20
-13.9565293974647
30
0
41
1
10
-1.6844648207715
20
-13.9476479010156
30
0
41
1
10
-1.6804038604899
20
-13.9386004868075
30
0
41
1
10
-1.6757822956196
20
-13.9295566564145
30
0
41
1
10
-1.67066330419195
20
-13.9206930430046
30
0
41
1
10
-1.66513180305082
20
-13.9121538125641
30
0
41
1
10
-1.65926710106369
20
-13.9040331478641
30
0
41
1
10
-1.65311276921682
20
-13.896346444576
30
0
41
1
10
-1.64671223038548
20
-13.8891038663297
30
0
41
1
10
-1.64005915012369
20
-13.8822670403208
30
0
41
1
10
-1.63402262749934
20
-13.8766247768669
30
0
41
1
10
-1.62866424831397
20
-13.8719859090409
30
0
41
1
10
-1.62391798352771
20
-13.8681170058167
30
0
41
1
10
-1.61874581534046
20
-13.8641640156406
30
0
41
1
10
-1.61304907807555
20
-13.8601072656548
30
0
41
1
10
-1.60693269525447
20
-13.856076838156
30
0
41
1
10
-1.6004090031852
20
-13.8521200237589
30
0
41
1
10
-1.59349508711999
20
-13.8482828168265
30
0
41
1
10
-1.58608088535901
20
-13.8445525879419
30
0
41
1
10
-1.57817148678103
20
-13.8409854692674
30
0
41
1
10
-1.56977833131606
20
-13.8376391279494
30
0
41
1
10
-1.56091978878743
20
-13.8345717761152
30
0
41
1
10
-1.55162155630472
20
-13.8318410364892
30
0
41
1
10
-1.54191695182181
20
-13.8295026869313
30
0
41
1
10
-1.53184653009071
20
-13.8276093101329
30
0
41
1
10
-1.52145909852961
20
-13.8262089831099
30
0
41
1
10
-1.51080598404956
20
-13.825343759084
30
0
41
1
10
-1.50362516986202
20
-13.8251487481215
30
0
41
1
10
-1.49999999999995
20
-13.8251486130384
30
0
0
SPLINE
5
C4
100
AcDbEntity
8
SK1
62
256
6
ByLayer
370
18
48
1
60
0
100
AcDbSpline
70
4
71
1
72
4
73
2
40
0
40
0
40
1
40
1
41
1
10
-1.49999999999995
20
-13.825148613052
30
0
41
1
10
-1.01333086163812
20
-13.825148613052
30
0
0
SPLINE
5
C5
100
AcDbEntity
8
SK1
62
256
6
ByLayer
370
18
48
1
60
0
100
AcDbSpline
70
4
71
3
72
61
73
57
40
0
40
0
40
0
40
0
40
0.0045275471024275
40
0.0463719104641636
40
0.0811308483372777
40
0.115891595953679
40
0.150649709914855
40
0.185416716284222
40
0.22018666351276
40
0.254951997820521
40
0.281039355924407
40
0.30713241106277
40
0.333223553404518
40
0.35930830254493
40
0.381160010882077
40
0.403024231840818
40
0.424888853868034
40
0.446745775885881
40
0.468591359189259
40
0.488832571196939
40
0.509078922435843
40
0.529317159179051
40
0.544726974268789
40
0.560147000341014
40
0.575563955089356
40
0.590969579082396
40
0.605798084271537
40
0.620633369406187
40
0.635459144556822
40
0.646844922779338
40
0.658241362557738
40
0.669636023059734
40
0.681019372654853
40
0.693563436064914
40
0.706147893528062
40
0.718750996708224
40
0.731351818316018
40
0.743931002183368
40
0.756471538784866
40
0.768996569815595
40
0.7815533172442
40
0.794130903825412
40
0.806713965917039
40
0.819283366489094
40
0.83181685571426
40
0.845680922597346
40
0.859559189836427
40
0.873440772273153
40
0.887309364312687
40
0.90154719980399
40
0.915793800157746
40
0.930042608424469
40
0.944283456474371
40
0.962852783172539
40
0.981428483628951
40
1
40
1
40
1
40
1
41
1
10
-1.01337633135228
20
13.8251486126161
30
0
41
1
10
-1.01285638230917
20
13.8251485535917
30
0
41
1
10
-1.00751929323979
20
13.8251463330685
30
0
41
1
10
-0.997955183913876
20
13.8251142557164
30
0
41
1
10
-0.984395494765816
20
13.8250026405883
30
0
41
1
10
-0.971268908739902
20
13.82484364115
30
0
41
1
10
-0.957686866544195
20
13.824631339599
30
0
41
1
10
-0.943616315100958
20
13.8243672989333
30
0
41
1
10
-0.929010474205523
20
13.824053794174
30
0
41
1
10
-0.915085380940023
20
13.8237232634455
30
0
41
1
10
-0.901966611252731
20
13.8233900702013
30
0
41
1
10
-0.889772828523615
20
13.823066507779
30
0
41
1
10
-0.877164190069483
20
13.8227210415179
30
0
41
1
10
-0.864816837945721
20
13.8223752256387
30
0
41
1
10
-0.852787919129414
20
13.8220339151634
30
0
41
1
10
-0.841126710601631
20
13.8217018941049
30
0
41
1
10
-0.829074904385672
20
13.8213604350646
30
0
41
1
10
-0.816608966379165
20
13.8210116073226
30
0
41
1
10
-0.804020048710129
20
13.8206660516006
30
0
41
1
10
-0.791318875060274
20
13.8203262377388
30
0
41
1
10
-0.778509441572448
20
13.8199952793984
30
0
41
1
10
-0.766293579918647
20
13.8196932918346
30
0
41
1
10
-0.754773393327366
20
13.8194217263636
30
0
41
1
10
-0.744046414022873
20
13.8191809866521
30
0
41
1
10
-0.733015780422924
20
13.8189473557771
30
0
41
1
10
-0.721818257683125
20
13.8187256435414
30
0
41
1
10
-0.710460348401208
20
13.8185174864074
30
0
41
1
10
-0.698954133026159
20
13.818324650627
30
0
41
1
10
-0.688070237036137
20
13.8181604775975
30
0
41
1
10
-0.677887719691572
20
13.818023129526
30
0
41
1
10
-0.668475857779622
20
13.8179096667438
30
0
41
1
10
-0.65891702872828
20
13.8178086342665
30
0
41
1
10
-0.648898573383608
20
13.8177180458888
30
0
41
1
10
-0.638404470943042
20
13.8176414037073
30
0
41
1
10
-0.627441193718501
20
13.8175814458185
30
0
41
1
10
-0.616376270684391
20
13.8175408289927
30
0
41
1
10
-0.60526050516397
20
13.8175201304322
30
0
41
1
10
-0.594144984298431
20
13.8175198465965
30
0
41
1
10
-0.583069733094794
20
13.8175406035768
30
0
41
1
10
-0.572058730741332
20
13.817582847953
30
0
41
1
10
-0.561127163426636
20
13.8176449100154
30
0
41
1
10
-0.55029714548333
20
13.8177255783347
30
0
41
1
10
-0.539606419638988
20
13.8178235067534
30
0
41
1
10
-0.529092292604972
20
13.8179373340585
30
0
41
1
10
-0.518412489974813
20
13.8180706080194
30
0
41
1
10
-0.50759909080056
20
13.8182237474155
30
0
41
1
10
-0.4966730152905
20
13.8183961399838
30
0
41
1
10
-0.486001667259154
20
13.8185808608785
30
0
41
1
10
-0.475498249457576
20
13.8187777157421
30
0
41
1
10
-0.465167857710614
20
13.8189852090674
30
0
41
1
10
-0.455010034694735
20
13.8192019936972
30
0
41
1
10
-0.445110877295839
20
13.8194246928095
30
0
41
1
10
-0.434487172044555
20
13.8196747853875
30
0
41
1
10
-0.423219855113918
20
13.8199519938697
30
0
41
1
10
-0.411397028388068
20
13.8202555002877
30
0
41
1
10
-0.403757175064517
20
13.8204577523805
30
0
41
1
10
-0.399999999999965
20
13.8205590132786
30
0
0
SPLINE
5
C6
100
AcDbEntity
8
SK1
62
256
6
ByLayer
370
18
48
1
60
0
100
AcDbSpline
70
4
71
1
72
4
73
2
40
0
40
0
40
1
40
1
41
1
10
-1.0133554105352
20
13.8251486126234
30
0
41
1
10
-1.49999999999995
20
13.8251486126234
30
0
0
SPLINE
5
C7
100
AcDbEntity
8
SK1
62
256
6
ByLayer
370
18
48
1
60
0
100
AcDbSpline
70
4
71
3
72
54
73
50
40
0
40
0
40
0
40
0
40
0.0582580771484249
40
0.116780480723956
40
0.175301588616378
40
0.233817357967756
40
0.280802380848082
40
0.327796340462619
40
0.374790402222025
40
0.42177879119844
40
0.468759141086593
40
0.501844186179562
40
0.534945977317303
40
0.568050178978224
40
0.601146914418032
40
0.634231472017069
40
0.667305023264788
40
0.689898154627568
40
0.712493810241138
40
0.735084428385019
40
0.752183595991534
40
0.769291502040487
40
0.786393897889525
40
0.803485547304989
40
0.814901479540648
40
0.826358124604866
40
0.837817497362255
40
0.84925413752168
40
0.860658241823201
40
0.872039048531758
40
0.880009393296946
40
0.887987689260904
40
0.895949058644486
40
0.901994815654523
40
0.908065182054546
40
0.914126880820663
40
0.920160767036919
40
0.926384672176818
40
0.932628955716542
40
0.938853256870011
40
0.945050321611769
40
0.951265248153682
40
0.957468560026267
40
0.96518922301379
40
0.972936084787019
40
0.980695771968737
40
0.988433978091636
40
0.994216845212125
40
1
40
1
40
1
40
1
41
1
10
-0.200000004351558
20
5.54683905522915
30
0
41
1
10
-0.199995774747484
20
5.53158444736737
30
0
41
1
10
-0.200147241161081
20
5.50095811837206
30
0
41
1
10
-0.200835653443138
20
5.45483962631601
30
0
41
1
10
-0.20204869079799
20
5.40850975422853
30
0
41
1
10
-0.203711483675071
20
5.36509302071229
30
0
41
1
10
-0.20572780702957
20
5.32462181752696
30
0
41
1
10
-0.208026869712938
20
5.28712324123573
30
0
41
1
10
-0.210822157045692
20
5.24954236163032
30
0
41
1
10
-0.214168629743168
20
5.2118899341176
30
0
41
1
10
-0.217740916528419
20
5.17789299729112
30
0
41
1
10
-0.221365613715491
20
5.14757468601373
30
0
41
1
10
-0.224916503416547
20
5.12095236659187
30
0
41
1
10
-0.228912549789408
20
5.09431501414637
30
0
41
1
10
-0.233419650959178
20
5.06768316821404
30
0
41
1
10
-0.238507226532958
20
5.04107778750282
30
0
41
1
10
-0.243632759896166
20
5.01732288075595
30
0
41
1
10
-0.248637121893265
20
4.99642178665477
30
0
41
1
10
-0.253389044112585
20
4.97837252199585
30
0
41
1
10
-0.258199002529521
20
4.96185598071739
30
0
41
1
10
-0.262978441715033
20
4.94687044907795
30
0
41
1
10
-0.267660466467745
20
4.9334142576788
30
0
41
1
10
-0.272772506014219
20
4.92007226433164
30
0
41
1
10
-0.277764551250549
20
4.90834653842215
30
0
41
1
10
-0.282484935503044
20
4.89819545485843
30
0
41
1
10
-0.286822203427601
20
4.8895851987245
30
0
41
1
10
-0.291514067835827
20
4.8811250816046
30
0
41
1
10
-0.29661047643852
20
4.87288514710554
30
0
41
1
10
-0.3021657926951
20
4.86493836406984
30
0
41
1
10
-0.307620572316438
20
4.85810996853497
30
0
41
1
10
-0.312856152633695
20
4.85235720656893
30
0
41
1
10
-0.317767768158301
20
4.84763230458326
30
0
41
1
10
-0.322606195176232
20
4.8436414195117
30
0
41
1
10
-0.327299384597937
20
4.84037004146129
30
0
41
1
10
-0.331758068528468
20
4.83775005359315
30
0
41
1
10
-0.336405286522777
20
4.8355226659725
30
0
41
1
10
-0.341261828431417
20
4.83373397277148
30
0
41
1
10
-0.34630180971241
20
4.83247781159265
30
0
41
1
10
-0.351460359469831
20
4.83177130436938
30
0
41
1
10
-0.356615188140645
20
4.83163527922183
30
0
41
1
10
-0.361697648500549
20
4.83207816255307
30
0
41
1
10
-0.366662897123314
20
4.83302377591515
30
0
41
1
10
-0.371877039867414
20
4.83453865386668
30
0
41
1
10
-0.377269754698858
20
4.83669481148775
30
0
41
1
10
-0.382778158326678
20
4.83951678108763
30
0
41
1
10
-0.388022029627297
20
4.84276561083501
30
0
41
1
10
-0.392591951251791
20
4.8460561191495
30
0
41
1
10
-0.396567737212497
20
4.84924839141244
30
0
41
1
10
-0.398869633670553
20
4.85125033087188
30
0
41
1
10
-0.399999999999912
20
4.85227506835235
30
0
0
SPLINE
5
C8
100
AcDbEntity
8
1
62
256
6
ByLayer
370
18
48
1
60
0
100
AcDbSpline
70
2053
71
3
72
287
73
283
40
0
40
0
40
0
40
0
40
0.0035743062795384
40
0.007149885748198
40
0.0107258825626194
40
0.0143014471181548
40
0.0178757408854599
40
0.0214501556613676
40
0.0250258663012473
40
0.0286020013860094
40
0.0321776961839299
40
0.0357520976682202
40
0.0395067410806711
40
0.0432629138389408
40
0.0470195875006272
40
0.0507757412977176
40
0.0545303688007719
40
0.0581050071841525
40
0.061680987471287
40
0.0652574084149248
40
0.0688333743804233
40
0.0724080007476032
40
0.0759827348590919
40
0.079558830334448
40
0.0831353739765536
40
0.0867114570199144
40
0.0902861807005972
40
0.094050927432634
40
0.097817283992021
40
0.101584171821344
40
0.105350515903636
40
0.109115252166538
40
0.112625964364279
40
0.116137994274759
40
0.119650460470982
40
0.123162483093805
40
0.12667318917702
40
0.130183947107193
40
0.133696031842914
40
0.137208556907883
40
0.140720636255153
40
0.144231389664271
40
0.147927854760702
40
0.15162587641934
40
0.155324415679601
40
0.159022432732244
40
0.162718893963958
40
0.166179170189265
40
0.169640727432299
40
0.173102711298947
40
0.17656426620668
40
0.180024540472618
40
0.183484830545711
40
0.186946404329676
40
0.190408406087051
40
0.19386997839086
40
0.197330267222071
40
0.200970460683206
40
0.204612150711971
40
0.208254340135244
40
0.211896029108292
40
0.215536221683621
40
0.218977350518674
40
0.222419744391718
40
0.225862560547674
40
0.229304953998204
40
0.232746082478756
40
0.236187213372058
40
0.23962960966661
40
0.243072428525942
40
0.246514824703722
40
0.249955955499048
40
0.25357450363469
40
0.257194523179592
40
0.260815034363591
40
0.264435054112483
40
0.268053602419279
40
0.271490251513523
40
0.274928160502381
40
0.278366490535958
40
0.281804400016358
40
0.28524104952301
40
0.288677693943929
40
0.292115597206204
40
0.295553921389914
40
0.298991825575585
40
0.302428470771248
40
0.306041649402147
40
0.309656288898357
40
0.313271417407302
40
0.316886058807876
40
0.320499239036629
40
0.323938211322858
40
0.327378440089334
40
0.330819089800858
40
0.334259321028362
40
0.337698295379434
40
0.341137246993595
40
0.344577450568506
40
0.348018074196977
40
0.351458281408152
40
0.354897236073191
40
0.358511870819128
40
0.362127951702102
40
0.365744518985029
40
0.369360606160354
40
0.372975246185858
40
0.376427540254971
40
0.379881084927096
40
0.383335050995791
40
0.386788602718451
40
0.390240902703057
40
0.393693141457832
40
0.397146618963904
40
0.400600514908502
40
0.404054001378451
40
0.407506247654013
40
0.411132607102852
40
0.414760385032242
40
0.418388643760807
40
0.42201643493167
40
0.425642805490607
40
0.429133456970625
40
0.432625355258299
40
0.436117676831128
40
0.439609588185474
40
0.443100250628554
40
0.446590806437514
40
0.450082589005003
40
0.453574788720697
40
0.457066585442142
40
0.460557153126339
40
0.464220500613241
40
0.467885241475468
40
0.471550456957739
40
0.475215215310419
40
0.478878577472319
40
0.482443274427522
40
0.486009232658831
40
0.489575619910742
40
0.493141592945582
40
0.496706302321046
40
0.500270900565552
40
0.503836740064598
40
0.507403000751687
40
0.510968852904247
40
0.514533461765077
40
0.518272902313333
40
0.522013757396488
40
0.52575509075248
40
0.529495956860652
40
0.533235406659198
40
0.536890113344161
40
0.540546130018276
40
0.544202586639961
40
0.547858607960375
40
0.551513318543631
40
0.555168011248518
40
0.558824012384195
40
0.562480449476059
40
0.566136448668592
40
0.569791139743163
40
0.573629333087023
40
0.577469052841189
40
0.581309276298452
40
0.585148984307891
40
0.588987167797422
40
0.592681461210675
40
0.596377137574543
40
0.600073266004545
40
0.60376892367437
40
0.60746320140289
40
0.611157651246135
40
0.614853518147745
40
0.618549844171937
40
0.62224568409772
40
0.625940111307415
40
0.629831846601527
40
0.633725293049309
40
0.637619288968095
40
0.641512693134364
40
0.645404392951002
40
0.649015065542167
40
0.652627155724937
40
0.656239700542392
40
0.659851754844182
40
0.663462397329834
40
0.667073328657544
40
0.670685731466917
40
0.674298606263604
40
0.677910971891122
40
0.681521872021371
40
0.6853370111498
40
0.689153949475714
40
0.692971466485869
40
0.696788361969617
40
0.700603465148996
40
0.704033193182045
40
0.707464266439104
40
0.710895777360491
40
0.71432682843735
40
0.717756537860367
40
0.721186398770471
40
0.724617630720028
40
0.72804931343776
40
0.731480531685076
40
0.734910381098391
40
0.738531560256167
40
0.742154366802629
40
0.745777715148556
40
0.74940051797348
40
0.753021694008567
40
0.756313922174399
40
0.759607369245161
40
0.762901226979283
40
0.766194680806232
40
0.769486914640646
40
0.772779071108701
40
0.776072430015406
40
0.779366198271815
40
0.782659571893239
40
0.785951740707186
40
0.789413235466938
40
0.792876096104687
40
0.796339426486067
40
0.799802312713953
40
0.803263828944887
40
0.806566084049075
40
0.809869490174521
40
0.813173293844313
40
0.816476724918916
40
0.819779000955509
40
0.823081075757549
40
0.826384264001533
40
0.829687837795376
40
0.832991052080099
40
0.836293148730141
40
0.839752884628993
40
0.843213857453864
40
0.84667525917301
40
0.850136261947943
40
0.853596022975204
40
0.857037046630164
40
0.860479247251383
40
0.863921854475163
40
0.867364080809149
40
0.870805126037045
40
0.874245982627978
40
0.877687982579875
40
0.881130375241657
40
0.884572395881406
40
0.888013269829216
40
0.89161576097667
40
0.895219534539003
40
0.898823745756438
40
0.902427537081929
40
0.906030043132826
40
0.909638517392998
40
0.913248260568612
40
0.91685843297225
40
0.920468186500879
40
0.924076669447283
40
0.927685092027508
40
0.931294774260886
40
0.93490487883988
40
0.938514564252806
40
0.942122989500682
40
0.945908307715199
40
0.949695081070418
40
0.953482338333931
40
0.957269107637319
40
0.961054422452222
40
0.964921130329984
40
0.96878940167382
40
0.972658189122828
40
0.976526448748947
40
0.980393146794977
40
0.984313424356124
40
0.988235354047624
40
0.9921578261241
40
0.99607973766682
40
1
40
1
40
1
40
1
41
1
10
40.7500002314658
20
2.90000015396927
30
0
41
1
10
40.7500000743836
20
2.89076069663911
30
0
41
1
10
40.7502053843108
20
2.87227882069565
30
0
41
1
10
40.7511291962975
20
2.84454723506253
30
0
41
1
10
40.7526686612875
20
2.81682468999625
30
0
41
1
10
40.754823844818
20
2.78912959856446
30
0
41
1
10
40.7575952798696
20
2.76147641231591
30
0
41
1
10
40.7609847871673
20
2.73387410363146
30
0
41
1
10
40.7649909463191
20
2.70633176366642
30
0
41
1
10
40.7696122178019
20
2.67886429510259
30
0
41
1
10
40.7748464514679
20
2.65149188337752
30
0
41
1
10
40.7807908396915
20
2.62377112866831
30
0
41
1
10
40.7874831153158
20
2.59571803266509
30
0
41
1
10
40.7949576162868
20
2.56735109678471
30
0
41
1
10
40.8031017560793
20
2.53914345703372
30
0
41
1
10
40.8119102590703
20
2.51111867130255
30
0
41
1
10
40.821228695639
20
2.48373858712031
30
0
41
1
10
40.8310200516405
20
2.45700357415368
30
0
41
1
10
40.8412450310928
20
2.4309104967511
30
0
41
1
10
40.8520602085455
20
2.40503270846966
30
0
41
1
10
40.8634585301191
20
2.37939028408351
30
0
41
1
10
40.8754355240514
20
2.35399781338057
30
0
41
1
10
40.8879897706433
20
2.32886526881703
30
0
41
1
10
40.9011164111456
20
2.3040012829525
30
0
41
1
10
40.9148084467013
20
2.27942024187024
30
0
41
1
10
40.9290563737812
20
2.25514162159575
30
0
41
1
10
40.9441158707031
20
2.23075535775599
30
0
41
1
10
40.9600192111812
20
2.20629134657948
30
0
41
1
10
40.9767941815805
20
2.18178069838736
30
0
41
1
10
40.9941584936133
20
2.15765754822402
30
0
41
1
10
41.0120981212288
20
2.13394345716462
30
0
41
1
10
41.0301873278341
20
2.11117819595125
30
0
41
1
10
41.0483774052392
20
2.08933996045385
30
0
41
1
10
41.0666200579617
20
2.06840205689596
30
0
41
1
10
41.0853337882074
20
2.04786197825887
30
0
41
1
10
41.104505044334
20
2.02773583807993
30
0
41
1
10
41.1241244337067
20
2.00803559234186
30
0
41
1
10
41.1441870098377
20
1.98876976913372
30
0
41
1
10
41.1646851697045
20
1.96994438352576
30
0
41
1
10
41.1856075537149
20
1.95157000176419
30
0
41
1
10
41.2069387099987
20
1.93366115011846
30
0
41
1
10
41.2290507452835
20
1.91592136231899
30
0
41
1
10
41.2519628873771
20
1.89838849522395
30
0
41
1
10
41.2756899460689
20
1.88109989967906
30
0
41
1
10
41.2998271355576
20
1.86436463361036
30
0
41
1
10
41.3243543777797
20
1.84819741676709
30
0
41
1
10
41.3487271628519
20
1.8329412942289
30
0
41
1
10
41.3729096238122
20
1.81856186614784
30
0
41
1
10
41.3968677535601
20
1.80502044326086
30
0
41
1
10
41.4211264651923
20
1.79200438738136
30
0
41
1
10
41.4456679376236
20
1.77952371578469
30
0
41
1
10
41.4704794663944
20
1.76758600393205
30
0
41
1
10
41.4955536299671
20
1.7561970456597
30
0
41
1
10
41.5208814993087
20
1.74535948990775
30
0
41
1
10
41.5464493096767
20
1.73507892721977
30
0
41
1
10
41.5722381909327
20
1.72536328371888
30
0
41
1
10
41.5986850289506
20
1.71606011832899
30
0
41
1
10
41.6257947664699
20
1.70720962344375
30
0
41
1
10
41.6535686156203
20
1.69885008344777
30
0
41
1
10
41.6815359453309
20
1.69113419356944
30
0
41
1
10
41.7096738164535
20
1.68406852740797
30
0
41
1
10
41.7374501580251
20
1.67777505762465
30
0
41
1
10
41.7648451909039
20
1.67221685892814
30
0
41
1
10
41.791841660532
20
1.66735355705025
30
0
41
1
10
41.8189433328423
20
1.66308219443505
30
0
41
1
10
41.8461303368312
20
1.65940600532851
30
0
41
1
10
41.8733883500024
20
1.65632761346634
30
0
41
1
10
41.9007086002966
20
1.653849691412
30
0
41
1
10
41.9280819686409
20
1.6519715333494
30
0
41
1
10
41.9554938970237
20
1.65069360171979
30
0
41
1
10
41.9829242774448
20
1.65001687647311
30
0
41
1
10
42.0108299759459
20
1.64994099824509
30
0
41
1
10
42.0392023506614
20
1.65050458051023
30
0
41
1
10
42.0680299539325
20
1.65174324548322
30
0
41
1
10
42.0968246231166
20
1.65364612692546
30
0
41
1
10
42.1255629771298
20
1.65621162518513
30
0
41
1
10
42.1537478947938
20
1.65938484000492
30
0
41
1
10
42.1813729100815
20
1.66312793058437
30
0
41
1
10
42.2084347941524
20
1.66740053170584
30
0
41
1
10
42.2353981830099
20
1.67226461803867
30
0
41
1
10
42.2622433648856
20
1.67771649327643
30
0
41
1
10
42.2889560304472
20
1.68375369670562
30
0
41
1
10
42.3155270893752
20
1.69037563149352
30
0
41
1
10
42.341948242657
20
1.69757841062432
30
0
41
1
10
42.3682057181272
20
1.70535747095982
30
0
41
1
10
42.3942803454673
20
1.71370691872164
30
0
41
1
10
42.4206012282463
20
1.72277525954463
30
0
41
1
10
42.447147481918
20
1.73259550520391
30
0
41
1
10
42.4738966030534
20
1.74319689179765
30
0
41
1
10
42.5003939301238
20
1.75440965705945
30
0
41
1
10
42.5266181270043
20
1.76622437510302
30
0
41
1
10
42.5521369423787
20
1.77843503671701
30
0
41
1
10
42.5769562711963
20
1.79100521886121
30
0
41
1
10
42.6010858250117
20
1.80389709958145
30
0
41
1
10
42.6249252973383
20
1.81731168547265
30
0
41
1
10
42.6484574196612
20
1.83123875761719
30
0
41
1
10
42.6716695638999
20
1.8456710007546
30
0
41
1
10
42.6945534371352
20
1.86060456416047
30
0
41
1
10
42.7171026236234
20
1.87603276040038
30
0
41
1
10
42.7393058337259
20
1.89194652171971
30
0
41
1
10
42.7611471204966
20
1.908333754765
30
0
41
1
10
42.7829803889304
20
1.9254726479603
30
0
41
1
10
42.8047752632546
20
1.9433866949521
30
0
41
1
10
42.826501191103
20
1.96209530181737
30
0
41
1
10
42.8477876141226
20
1.98129145974672
30
0
41
1
10
42.8686178745308
20
2.00095908324402
30
0
41
1
10
42.8886750551518
20
2.02078533636228
30
0
41
1
10
42.907975226279
20
2.04073960794694
30
0
41
1
10
42.9265384747156
20
2.06079110856325
30
0
41
1
10
42.9446537394867
20
2.08123618380868
30
0
41
1
10
42.9623083889266
20
2.10205932212185
30
0
41
1
10
42.9794931341526
20
2.12324916830153
30
0
41
1
10
42.9962017024651
20
2.14479906630994
30
0
41
1
10
43.0124305657059
20
2.16670040588173
30
0
41
1
10
43.0281724700804
20
2.18894089177115
30
0
41
1
10
43.0434167585575
20
2.21150384459681
30
0
41
1
10
43.0584034814688
20
2.23476160503494
30
0
41
1
10
43.0730970370207
20
2.25872556425648
30
0
41
1
10
43.0874630824112
20
2.28340338930421
30
0
41
1
10
43.1012560665561
20
2.30839027120802
30
0
41
1
10
43.114466130594
20
2.33366583445803
30
0
41
1
10
43.1269287398512
20
2.35889664841164
30
0
41
1
10
43.1386644006446
20
2.38406177504808
30
0
41
1
10
43.1496973747276
20
2.40914110621802
30
0
41
1
10
43.1601735291349
20
2.43444274067063
30
0
41
1
10
43.17008637722
20
2.45994796620794
30
0
41
1
10
43.1794311735696
20
2.48564294337128
30
0
41
1
10
43.1882045477714
20
2.51151930054533
30
0
41
1
10
43.1964062673378
20
2.5375678854804
30
0
41
1
10
43.2040338244492
20
2.56377505057902
30
0
41
1
10
43.2110829352675
20
2.59012188870992
30
0
41
1
10
43.2176572964336
20
2.6170314013289
30
0
41
1
10
43.2237203907526
20
2.6445025975246
30
0
41
1
10
43.2292379693876
20
2.67253165038434
30
0
41
1
10
43.2341120723194
20
2.70066394989352
30
0
41
1
10
43.2383402604559
20
2.72887773645158
30
0
41
1
10
43.2418886843576
20
2.75690345849701
30
0
41
1
10
43.2447759776309
20
2.78472925695307
30
0
41
1
10
43.24702400221
20
2.81234473903474
30
0
41
1
10
43.2486595978913
20
2.83998994549319
30
0
41
1
10
43.2496827017824
20
2.86764522402263
30
0
41
1
10
43.2500932985754
20
2.8952961043152
30
0
41
1
10
43.2498908782795
20
2.92293376904255
30
0
41
1
10
43.2490779588498
20
2.95054971436945
30
0
41
1
10
43.2476563661007
20
2.97813042977148
30
0
41
1
10
43.2456279754248
20
3.00565682994288
30
0
41
1
10
43.2429511135602
20
3.03356399705902
30
0
41
1
10
43.2395907461566
20
3.06183950618172
30
0
41
1
10
43.235514624921
20
3.09046898399767
30
0
41
1
10
43.2307794951741
20
3.11898962519752
30
0
41
1
10
43.2253896128016
20
3.14738016472176
30
0
41
1
10
43.2193935614254
20
3.17541198231391
30
0
41
1
10
43.2128095541894
20
3.20307927749632
30
0
41
1
10
43.2056584004931
20
3.23037834079257
30
0
41
1
10
43.197894060412
20
3.25750770671343
30
0
41
1
10
43.1895223051122
20
3.28444831876851
30
0
41
1
10
43.1805471197845
20
3.31118639196863
30
0
41
1
10
43.1709700712336
20
3.3377132370034
30
0
41
1
10
43.1607954828607
20
3.36402126194384
30
0
41
1
10
43.150028871719
20
3.39009745521853
30
0
41
1
10
43.1386776609411
20
3.41592350323331
30
0
41
1
10
43.1265473054557
20
3.44191391626418
30
0
41
1
10
43.1136051835253
20
3.46804456308737
30
0
41
1
10
43.0998219889253
20
3.49428993918976
30
0
41
1
10
43.085414959868
20
3.52021245787643
30
0
41
1
10
43.0703946717377
20
3.54579170750006
30
0
41
1
10
43.0549634948347
20
3.57069769842933
30
0
41
1
10
43.0391508769302
20
3.59493611541091
30
0
41
1
10
43.0229876881951
20
3.61851594334833
30
0
41
1
10
43.0062793000638
20
3.6417352888664
30
0
41
1
10
42.9890369819704
20
3.66457667153764
30
0
41
1
10
42.9712681004701
20
3.68702756122681
30
0
41
1
10
42.9529759708857
20
3.70907917512522
30
0
41
1
10
42.9341666043963
20
3.73072455723539
30
0
41
1
10
42.9148496339725
20
3.75195135086132
30
0
41
1
10
42.8950383001338
20
3.77274278060079
30
0
41
1
10
42.8743804173796
20
3.79344846182385
30
0
41
1
10
42.8528490047308
20
3.81403111526187
30
0
41
1
10
42.8304215002395
20
3.83445284768245
30
0
41
1
10
42.8074807504758
20
3.85434659606685
30
0
41
1
10
42.7840449427925
20
3.87369378257773
30
0
41
1
10
42.760702130195
20
3.89202821690752
30
0
41
1
10
42.7374987118938
20
3.90938605702637
30
0
41
1
10
42.7144793914623
20
3.9258079655207
30
0
41
1
10
42.6910693526437
20
3.94172282869703
30
0
41
1
10
42.6672854304557
20
3.95711695839211
30
0
41
1
10
42.6431387067172
20
3.97198023945912
30
0
41
1
10
42.6186352052964
20
3.98630454202879
30
0
41
1
10
42.5937834000963
20
4.00008469966519
30
0
41
1
10
42.5685975634718
20
4.0133114633135
30
0
41
1
10
42.543096888312
20
4.02597262614727
30
0
41
1
10
42.5168085675051
20
4.03828656753143
30
0
41
1
10
42.4897193809428
20
4.0502067452988
30
0
41
1
10
42.4618213242596
20
4.06168791998614
30
0
41
1
10
42.4336246385837
20
4.07250500248232
30
0
41
1
10
42.4051548237075
20
4.08264611117015
30
0
41
1
10
42.377396926832
20
4.09178344305472
30
0
41
1
10
42.3503910333893
20
4.0999880609425
30
0
41
1
10
42.3241715871975
20
4.1073342445322
30
0
41
1
10
42.2977783085064
20
4.1141134940266
30
0
41
1
10
42.2712314169659
20
4.12031949578031
30
0
41
1
10
42.2445450408766
20
4.12594721727255
30
0
41
1
10
42.2177278335226
20
4.13099195796494
30
0
41
1
10
42.1907895272189
20
4.13545282510515
30
0
41
1
10
42.1637459598981
20
4.13932714866119
30
0
41
1
10
42.1366185344719
20
4.14261116989038
30
0
41
1
10
42.1089171105961
20
4.14535181035947
30
0
41
1
10
42.080646432877
20
4.14750618895048
30
0
41
1
10
42.0518150478664
20
4.14903468579061
30
0
41
1
10
42.022948358253
20
4.14989834108308
30
0
41
1
10
41.9940722613125
20
4.15009621668123
30
0
41
1
10
41.9660793327579
20
4.14964137320849
30
0
41
1
10
41.9389804171751
20
4.14860108777658
30
0
41
1
10
41.9127807249108
20
4.14704397733566
30
0
41
1
10
41.886620910294
20
4.14493813537449
30
0
41
1
10
41.8605202536421
20
4.14228547830078
30
0
41
1
10
41.834492897781
20
4.13908725142952
30
0
41
1
10
41.8085475987047
20
4.13534347657505
30
0
41
1
10
41.7826924720657
20
4.13105755429392
30
0
41
1
10
41.7569406976661
20
4.12623294309406
30
0
41
1
10
41.7313108574656
20
4.12087388510195
30
0
41
1
10
41.7053793223254
20
4.11488246684356
30
0
41
1
10
41.6791626898624
20
4.10822746782147
30
0
41
1
10
41.6526790872249
20
4.10088118788264
30
0
41
1
10
41.6263774424442
20
4.0929598782253
30
0
41
1
10
41.6002779829436
20
4.08447096145532
30
0
41
1
10
41.5747920606709
20
4.07555857071687
30
0
41
1
10
41.5499173327912
20
4.06625547274251
30
0
41
1
10
41.5256479373446
20
4.05659593346445
30
0
41
1
10
41.5016017678873
20
4.04643920744171
30
0
41
1
10
41.4777948303376
20
4.03579351634911
30
0
41
1
10
41.4542390067204
20
4.02466508401323
30
0
41
1
10
41.4309413913921
20
4.01305737879624
30
0
41
1
10
41.407907455758
20
4.00097626450561
30
0
41
1
10
41.3851468279727
20
3.98842891005086
30
0
41
1
10
41.3626738753692
20
3.97542487077975
30
0
41
1
10
41.3401459390359
20
3.96175708885024
30
0
41
1
10
41.3175860960133
20
3.94740413619947
30
0
41
1
10
41.295017613918
20
3.93234762556126
30
0
41
1
10
41.2727984727124
20
3.91681820784813
30
0
41
1
10
41.250943265722
20
3.9008280678511
30
0
41
1
10
41.2295010298608
20
3.88441571692578
30
0
41
1
10
41.20847578965
20
3.86758919430294
30
0
41
1
10
41.1878692999584
20
3.8503583571534
30
0
41
1
10
41.1676520796086
20
3.83270242294861
30
0
41
1
10
41.1478366286345
20
3.8146342509926
30
0
41
1
10
41.1284320810564
20
3.79616345481397
30
0
41
1
10
41.1094439050276
20
3.77729547924526
30
0
41
1
10
41.0908755165221
20
3.75803741947831
30
0
41
1
10
41.0727339553093
20
3.73839899959981
30
0
41
1
10
41.0550300435885
20
3.71839372331843
30
0
41
1
10
41.0375012137797
20
3.6977125500525
30
0
41
1
10
41.0201770547865
20
3.67634112166958
30
0
41
1
10
41.0030866841095
20
3.65426799038603
30
0
41
1
10
40.986500259492
20
3.63182945327909
30
0
41
1
10
40.9704284373406
20
3.60904165944052
30
0
41
1
10
40.9548701878141
20
3.58590336790008
30
0
41
1
10
40.9398315707405
20
3.562420561368
30
0
41
1
10
40.9253162429067
20
3.53860073631856
30
0
41
1
10
40.9113386288413
20
3.51446913832208
30
0
41
1
10
40.8979077664718
20
3.49004261743792
30
0
41
1
10
40.8850302461227
20
3.46533331304851
30
0
41
1
10
40.8727106706799
20
3.44034814979033
30
0
41
1
10
40.8609511467991
20
3.41509530423999
30
0
41
1
10
40.8497566900947
20
3.38958731451404
30
0
41
1
10
40.8391347679772
20
3.3638416676326
30
0
41
1
10
40.8289267749059
20
3.33744653665717
30
0
41
1
10
40.8191705860476
20
3.310395894875
30
0
41
1
10
40.8099027996427
20
3.28268701548306
30
0
41
1
10
40.8012823645871
20
3.25476302669785
30
0
41
1
10
40.7933160484598
20
3.22664495182193
30
0
41
1
10
40.7859566620877
20
3.19814503205764
30
0
41
1
10
40.7792254140453
20
3.16926748997433
30
0
41
1
10
40.7731405154915
20
3.14001884526846
30
0
41
1
10
40.7677529891014
20
3.11061993153792
30
0
41
1
10
40.7630678732667
20
3.08109411092314
30
0
41
1
10
40.7590709041038
20
3.05132128724628
30
0
41
1
10
40.7557778309
20
3.02130972863573
30
0
41
1
10
40.7532005739237
20
2.99106927247113
30
0
41
1
10
40.75135619812
20
2.96075595657879
30
0
41
1
10
40.750247031227
20
2.9303933159944
30
0
41
1
10
40.7500004037519
20
2.91013389565722
30
0
41
1
10
40.7500002314658
20
2.90000015396927
30
0
0
LINE
5
70
100
AcDbEntity
8
1
62
256
6
ByLayer
370
18
48
1
60
0
100
AcDbLine
10
18.386419
20
20
30
0
11
0.3
21
20
31
0
39
0
210
0
220
0
230
1
0
LINE
5
72
100
AcDbEntity
8
1
62
256
6
ByLayer
370
18
48
1
60
0
100
AcDbLine
10
6.923205
20
-5.85989
30
0
11
9.076795
21
-5.85989
31
0
39
0
210
0
220
0
230
1
0
LINE
5
73
100
AcDbEntity
8
1
62
256
6
ByLayer
370
18
48
1
60
0
100
AcDbLine
10
9.076795
20
-19.122283
30
0
11
6.923205
21
-19.122283
31
0
39
0
210
0
220
0
230
1
0
LINE
5
74
100
AcDbEntity
8
1
62
256
6
ByLayer
370
18
48
1
60
0
100
AcDbLine
10
6.923205
20
19.122283
30
0
11
9.076795
21
19.122283
31
0
39
0
210
0
220
0
230
1
0
LINE
5
75
100
AcDbEntity
8
1
62
256
6
ByLayer
370
18
48
1
60
0
100
AcDbLine
10
9.076795
20
5.85989
30
0
11
6.923205
21
5.85989
31
0
39
0
210
0
220
0
230
1
0
LINE
5
76
100
AcDbEntity
8
1
62
256
6
ByLayer
370
18
48
1
60
0
100
AcDbLine
10
18.386419
20
-20
30
0
11
19.204445
21
-16.947086
31
0
39
0
210
0
220
0
230
1
0
LINE
5
77
100
AcDbEntity
8
1
62
256
6
ByLayer
370
18
48
1
60
0
100
AcDbLine
10
19.204445
20
16.947086
30
0
11
18.386419
21
20
31
0
39
0
210
0
220
0
230
1
0
LINE
5
78
100
AcDbEntity
8
1
62
256
6
ByLayer
370
18
48
1
60
0
100
AcDbLine
10
0.3
20
20
30
0
11
0
21
19.7
31
0
39
0
210
0
220
0
230
1
0
LINE
5
79
100
AcDbEntity
8
1
62
256
6
ByLayer
370
18
48
1
60
0
100
AcDbLine
10
0
20
-19.7
30
0
11
0.3
21
-20
31
0
39
0
210
0
220
0
230
1
0
LINE
5
7A
100
AcDbEntity
8
1
62
256
6
ByLayer
370
18
48
1
60
0
100
AcDbLine
10
9.076795
20
5.85989
30
0
11
9.076795
21
19.122283
31
0
39
0
210
0
220
0
230
1
0
LINE
5
7B
100
AcDbEntity
8
1
62
256
6
ByLayer
370
18
48
1
60
0
100
AcDbLine
10
9.336603
20
6.16973
30
0
11
9.336603
21
19.024574
31
0
39
0
210
0
220
0
230
1
0
LINE
5
7C
100
AcDbEntity
8
1
62
256
6
ByLayer
370
18
48
1
60
0
100
AcDbLine
10
6.663397
20
-19.024574
30
0
11
6.663397
21
-6.16973
31
0
39
0
210
0
220
0
230
1
0
LINE
5
7D
100
AcDbEntity
8
1
62
256
6
ByLayer
370
18
48
1
60
0
100
AcDbLine
10
6.923205
20
-19.122283
30
0
11
6.923205
21
-5.85989
31
0
39
0
210
0
220
0
230
1
0
LINE
5
7E
100
AcDbEntity
8
1
62
256
6
ByLayer
370
18
48
1
60
0
100
AcDbLine
10
6.663397
20
6.16973
30
0
11
6.663397
21
19.024574
31
0
39
0
210
0
220
0
230
1
0
LINE
5
7F
100
AcDbEntity
8
1
62
256
6
ByLayer
370
18
48
1
60
0
100
AcDbLine
10
6.923205
20
5.85989
30
0
11
6.923205
21
19.122283
31
0
39
0
210
0
220
0
230
1
0
LINE
5
80
100
AcDbEntity
8
1
62
256
6
ByLayer
370
18
48
1
60
0
100
AcDbLine
10
9.076795
20
-19.122283
30
0
11
9.076795
21
-5.85989
31
0
39
0
210
0
220
0
230
1
0
LINE
5
81
100
AcDbEntity
8
1
62
256
6
ByLayer
370
18
48
1
60
0
100
AcDbLine
10
9.336603
20
-19.024574
30
0
11
9.336603
21
-6.16973
31
0
39
0
210
0
220
0
230
1
0
LINE
5
82
100
AcDbEntity
8
1
62
256
6
ByLayer
370
18
48
1
60
0
100
AcDbLine
10
25
20
-12.5
30
0
11
46.42265
21
-12.5
31
0
39
0
210
0
220
0
230
1
0
LINE
5
83
100
AcDbEntity
8
1
62
256
6
ByLayer
370
18
48
1
60
0
100
AcDbLine
10
46.42265
20
12.5
30
0
11
25
21
12.5
31
0
39
0
210
0
220
0
230
1
0
LINE
5
84
100
AcDbEntity
8
1
62
256
6
ByLayer
370
18
48
1
60
0
100
AcDbLine
10
46.42265
20
-12.5
30
0
11
47
21
-11.5
31
0
39
0
210
0
220
0
230
1
0
LINE
5
85
100
AcDbEntity
8
1
62
256
6
ByLayer
370
18
48
1
60
0
100
AcDbLine
10
47
20
11.5
30
0
11
46.42265
21
12.5
31
0
39
0
210
0
220
0
230
1
0
LINE
5
86
100
AcDbEntity
8
SK1
62
256
6
ByLayer
370
18
48
1
60
0
100
AcDbLine
10
-2.5
20
-14
30
0
11
-2.5
21
14
31
0
39
0
210
0
220
0
230
1
0
LINE
5
88
100
AcDbEntity
8
SK1
62
256
6
ByLayer
370
18
48
1
60
0
100
AcDbLine
10
-24
20
12.580367
30
0
11
-24
21
-12.579498
31
0
39
0
210
0
220
0
230
1
0
LINE
5
89
100
AcDbEntity
8
SK1
62
256
6
ByLayer
370
18
48
1
60
0
100
AcDbLine
10
-1.5
20
13.825149
30
0
11
-1.5
21
2.554529
31
0
39
0
210
0
220
0
230
1
0
LINE
5
8A
100
AcDbEntity
8
SK1
62
256
6
ByLayer
370
18
48
1
60
0
100
AcDbLine
10
-1.5
20
-2.554526
30
0
11
-1.5
21
-13.825149
31
0
39
0
210
0
220
0
230
1
0
LINE
5
8B
100
AcDbEntity
8
SK1
62
256
6
ByLayer
370
18
48
1
60
0
100
AcDbLine
10
-0.4
20
-4.852275
30
0
11
-0.4
21
-13.820559
31
0
39
0
210
0
220
0
230
1
0
LINE
5
8C
100
AcDbEntity
8
SK1
62
256
6
ByLayer
370
18
48
1
60
0
100
AcDbLine
10
-0.4
20
13.820559
30
0
11
-0.4
21
4.852275
31
0
39
0
210
0
220
0
230
1
0
LINE
5
8D
100
AcDbEntity
8
1
62
256
6
ByLayer
370
18
48
1
60
0
100
AcDbLine
10
0.3
20
20
30
0
11
0.3
21
-20
31
0
39
0
210
0
220
0
230
1
0
LINE
5
8E
100
AcDbEntity
8
1
62
256
6
ByLayer
370
18
48
1
60
0
100
AcDbLine
10
18.386419
20
-20
30
0
11
18.386419
21
20
31
0
39
0
210
0
220
0
230
1
0
LINE
5
8F
100
AcDbEntity
8
1
62
256
6
ByLayer
370
18
48
1
60
0
100
AcDbLine
10
19.204445
20
-16.947086
30
0
11
19.204445
21
16.947086
31
0
39
0
210
0
220
0
230
1
0
LINE
5
90
100
AcDbEntity
8
1
62
256
6
ByLayer
370
18
48
1
60
0
100
AcDbLine
10
0
20
-19.7
30
0
11
0
21
19.7
31
0
39
0
210
0
220
0
230
1
0
LINE
5
91
100
AcDbEntity
8
1
62
256
6
ByLayer
370
18
48
1
60
0
100
AcDbLine
10
25
20
-12.5
30
0
11
25
21
12.5
31
0
39
0
210
0
220
0
230
1
0
LINE
5
92
100
AcDbEntity
8
SK1
62
256
6
ByLayer
370
18
48
1
60
0
100
AcDbLine
10
-0.2
20
-14.083485
30
0
11
-0.2
21
-5.547043
31
0
39
0
210
0
220
0
230
1
0
LINE
5
93
100
AcDbEntity
8
SK1
62
256
6
ByLayer
370
18
48
1
60
0
100
AcDbLine
10
-1.307107
20
-3.588717
30
0
11
-1.307107
21
3.588717
31
0
39
0
210
0
220
0
230
1
0
LINE
5
94
100
AcDbEntity
8
SK1
62
256
6
ByLayer
370
18
48
1
60
0
100
AcDbLine
10
-0.2
20
5.547043
30
0
11
-0.2
21
14.083485
31
0
39
0
210
0
220
0
230
1
0
LINE
5
95
100
AcDbEntity
8
1
62
256
6
ByLayer
370
18
48
1
60
0
100
AcDbLine
10
46.42265
20
-12.5
30
0
11
46.42265
21
12.5
31
0
39
0
210
0
220
0
230
1
0
LINE
5
96
100
AcDbEntity
8
1
62
256
6
ByLayer
370
18
48
1
60
0
100
AcDbLine
10
47
20
-11.5
30
0
11
47
21
11.5
31
0
39
0
210
0
220
0
230
1
0
LINE
5
97
100
AcDbEntity
8
1
62
256
6
ByLayer
370
18
48
1
60
0
100
AcDbLine
10
18.386419
20
-20
30
0
11
0.3
21
-20
31
0
39
0
210
0
220
0
230
1
0
LINE
5
98
100
AcDbEntity
8
4
62
256
6
ByLayer
370
13
48
0.05
60
0
100
AcDbLine
10
0
20
0
30
0
11
47
21
0
31
0
39
0
210
0
220
0
230
1
0
LINE
5
9A
100
AcDbEntity
8
81
62
256
6
ByLayer
370
18
48
1
60
0
100
AcDbLine
10
47
20
2.9
30
0
11
51.308149
21
2.9
31
0
39
0
210
0
220
0
230
1
0
LINE
5
9B
100
AcDbEntity
8
80
62
256
6
ByLayer
370
18
48
1
60
0
100
AcDbLine
10
0
20
0
30
0
11
-5
21
0
31
0
39
0
210
0
220
0
230
1
0
LINE
5
9C
100
AcDbEntity
8
SK4
62
256
6
ByLayer
370
18
48
0.05
60
0
100
AcDbLine
10
51.086422
20
0
30
0
11
-30
21
0
31
0
39
0
210
0
220
0
230
1
0
MTEXT
5
C9
100
AcDbEntity
8
SK6
62
256
6
ByLayer
370
18
48
1
60
0
100
AcDbMText
10
8.736255
20
-37.341135
30
0
210
0
220
0
230
1
1
\W0.7392;C4-CXS-47-07
40
3
41
0
44
1.084337
50
0
71
7
72
5
7
iso_b_vert
0
DIMENSION
5
DB
100
AcDbEntity
8
2
62
256
6
ByLayer
370
13
48
1
60
0
100
AcDbDimension
2
DimnDraft3D1
10
47
20
32.437152
30
0
11
19.450873
21
32.437152
31
0
70
32
71
5
72
1
41
1
210
0
220
0
230
1
3
Standard
100
AcDbAlignedDimension
13
0
23
21.7
33
0
14
47
24
13.5
34
0
50
0
100
AcDbRotatedDimension
1001
ACAD
1000
DSTYLE
1002
{
1070
   279
1070
     0
1070
   172
1070
     1
1070
   173
1070
     1
1070
   340
1005
CA
1070
    77
1070
     1
1070
    73
1070
     0
1070
   171
1070
     3
1070
   274
1070
     4
1070
   177
1070
   254
1070
   176
1070
   254
1070
   178
1070
   254
1070
    78
1070
     8
1070
    41
1041
3.175
1070
   147
1041
1.5
1070
    42
1041
2.0
1070
    44
1041
2.0
1070
   140
1041
3.0
1070
   343
1005
DC
1070
   344
1005
DC
1002
}
0
DIMENSION
5
F1
100
AcDbEntity
8
SK2
62
256
6
ByLayer
370
13
48
1
60
0
100
AcDbDimension
2
DimnDraft3D2
10
47
20
23.856551
30
0
11
32.885147
21
23.856551
31
0
70
32
71
5
72
1
41
1
210
0
220
0
230
1
3
Standard
100
AcDbAlignedDimension
13
25
23
14.5
33
0
14
47
24
13.5
34
0
50
0
100
AcDbRotatedDimension
1001
ACAD
1000
DSTYLE
1002
{
1070
   279
1070
     0
1070
   172
1070
     1
1070
   173
1070
     1
1070
   340
1005
CA
1070
    77
1070
     1
1070
    73
1070
     0
1070
   171
1070
     3
1070
   274
1070
     4
1070
   177
1070
   254
1070
   176
1070
   254
1070
   178
1070
   254
1070
    78
1070
     8
1070
    41
1041
3.175
1070
   147
1041
1.5
1070
    42
1041
2.0
1070
    44
1041
2.0
1070
   140
1041
3.0
1070
   343
1005
DC
1070
   344
1005
DC
1002
}
0
DIMENSION
5
FF
100
AcDbEntity
8
SK2
62
256
6
ByLayer
370
13
48
1
60
0
100
AcDbDimension
2
DimnDraft3D3
10
-39.255481
20
-20
30
0
11
-39.255481
21
-1.508992
31
0
70
32
71
5
72
1
41
1
210
0
220
0
230
1
3
Standard
100
AcDbAlignedDimension
13
-1.7
23
20
33
0
14
-1.7
24
-20
34
0
50
90
100
AcDbRotatedDimension
1001
ACAD
1000
DSTYLE
1002
{
1070
    74
1070
     0
1070
   279
1070
     0
1070
   172
1070
     1
1070
   173
1070
     1
1070
   340
1005
CA
1070
    77
1070
     1
1070
    73
1070
     0
1070
   171
1070
     3
1070
   274
1070
     4
1070
   177
1070
   254
1070
   176
1070
   254
1070
   178
1070
   254
1070
    78
1070
     8
1070
    41
1041
3.175
1070
   147
1041
1.5
1070
    42
1041
2.0
1070
    44
1041
2.0
1070
   140
1041
3.0
1070
   343
1005
DC
1070
   344
1005
DC
1002
}
0
DIMENSION
5
10D
100
AcDbEntity
8
SK2
62
256
6
ByLayer
370
13
48
1
60
0
100
AcDbDimension
2
DimnDraft3D4
10
74.829115
20
12.5
30
0
11
74.829115
21
-1.210341
31
0
70
32
71
5
72
1
41
1
210
0
220
0
230
1
3
Standard
100
AcDbAlignedDimension
13
48.42265
23
-12.5
33
0
14
48.42265
24
12.5
34
0
50
90
100
AcDbRotatedDimension
1001
ACAD
1000
DSTYLE
1002
{
1070
    74
1070
     0
1070
   279
1070
     0
1070
   172
1070
     1
1070
   173
1070
     1
1070
   340
1005
CA
1070
    77
1070
     1
1070
    73
1070
     0
1070
   171
1070
     3
1070
   274
1070
     4
1070
   177
1070
   254
1070
   176
1070
   254
1070
   178
1070
   254
1070
    78
1070
     8
1070
    41
1041
3.175
1070
   147
1041
1.5
1070
    42
1041
2.0
1070
    44
1041
2.0
1070
   140
1041
3.0
1070
   343
1005
DC
1070
   344
1005
DC
1002
}
0
DIMENSION
5
11B
100
AcDbEntity
8
2
62
256
6
ByLayer
370
13
48
1
60
0
100
AcDbDimension
2
DimnDraft3D5
10
60.195227
20
2.9
30
0
11
60.195227
21
-7.034031
31
0
70
32
71
5
72
1
41
1
210
0
220
0
230
1
3
Standard
100
AcDbAlignedDimension
13
53.086422
23
0
33
0
14
53.308149
24
2.9
34
0
50
90
100
AcDbRotatedDimension
1001
ACAD
1000
DSTYLE
1002
{
1070
    74
1070
     0
1070
   279
1070
     0
1070
   172
1070
     1
1070
   173
1070
     1
1070
   340
1005
CA
1070
    77
1070
     1
1070
    73
1070
     0
1070
   171
1070
     3
1070
   274
1070
     4
1070
   177
1070
   254
1070
   176
1070
   254
1070
   178
1070
   254
1070
    78
1070
     8
1070
    41
1041
3.175
1070
   147
1041
1.5
1070
    42
1041
2.0
1070
    44
1041
2.0
1070
   140
1041
3.0
1070
   343
1005
DC
1070
   344
1005
DC
1002
}
0
ENDSEC
0
SECTION
2
OBJECTS
0
DICTIONARY
5
186
330
0
100
AcDbDictionary
280
0
281
1
3
ACAD_GROUP
350
187
3
ACAD_MLINESTYLE
350
188
0
DICTIONARY
5
187
330
0
100
AcDbDictionary
280
0
281
1
0
DICTIONARY
5
188
330
0
100
AcDbDictionary
280
0
281
1
3
Standard
350
18
0
MLINESTYLE
5
18
330
188
100
AcDbMlineStyle
2
Standard
70
0
3

62
256
51
90
52
90
71
2
49
-0.5
62
256
6
ByLayer
49
0.5
62
256
6
ByLayer
0
RASTERVARIABLES
5
174
330

100
AcDbRasterVariables
90
0
70
1
71
1
72
1
0
ENDSEC
0
EOF
