  0
SECTION
  2
HEADER
  9
$ACADVER
  1
AC1015
  9
$ACADMAINTVER
 70
    20
  9
$DWGCODEPAGE
  3
ANSI_1252
  9
$INSBASE
 10
0.0
 20
0.0
 30
0.0
  9
$EXTMIN
 10
-34.39938178285888
 20
-42.39623908465285
 30
-0.0006418577654301
  9
$EXTMAX
 10
65.7398539818123
 20
21.51062084072123
 30
0.0009628845953387
  9
$LIMMIN
 10
-170.0
 20
-170.0
  9
$LIMMAX
 10
519.0
 20
260.0
  9
$ORTHOMODE
 70
     0
  9
$REGENMODE
 70
     1
  9
$FILLMODE
 70
     1
  9
$QTEXTMODE
 70
     0
  9
$MIRRTEXT
 70
     0
  9
$LTSCALE
 40
1.0
  9
$ATTMODE
 70
     1
  9
$TEXTSIZE
 40
3.5
  9
$TRACEWID
 40
1.0
  9
$TEXTSTYLE
  7
SIMPLEX
  9
$CLAYER
  8
1
  9
$CELTYPE
  6
BYLAYER
  9
$CECOLOR
 62
   256
  9
$CELTSCALE
 40
1.0
  9
$DISPSILH
 70
     0
  9
$DIMSCALE
 40
1.0
  9
$DIMASZ
 40
2.5
  9
$DIMEXO
 40
0.0
  9
$DIMDLI
 40
3.75
  9
$DIMRND
 40
0.0
  9
$DIMDLE
 40
0.0
  9
$DIMEXE
 40
1.25
  9
$DIMTP
 40
0.0
  9
$DIMTM
 40
0.0
  9
$DIMTXT
 40
3.5
  9
$DIMCEN
 40
0.0
  9
$DIMTSZ
 40
0.0
  9
$DIMTOL
 70
     0
  9
$DIMLIM
 70
     0
  9
$DIMTIH
 70
     0
  9
$DIMTOH
 70
     0
  9
$DIMSE1
 70
     0
  9
$DIMSE2
 70
     0
  9
$DIMTAD
 70
     1
  9
$DIMZIN
 70
     8
  9
$DIMBLK
  1

  9
$DIMASO
 70
     1
  9
$DIMSHO
 70
     1
  9
$DIMPOST
  1

  9
$DIMAPOST
  1

  9
$DIMALT
 70
     0
  9
$DIMALTD
 70
     3
  9
$DIMALTF
 40
0.039370078
  9
$DIMLFAC
 40
1.0
  9
$DIMTOFL
 70
     0
  9
$DIMTVP
 40
0.0
  9
$DIMTIX
 70
     0
  9
$DIMSOXD
 70
     0
  9
$DIMSAH
 70
     0
  9
$DIMBLK1
  1

  9
$DIMBLK2
  1

  9
$DIMSTYLE
  2
SANDVIK_STYLE
  9
$DIMCLRD
 70
     0
  9
$DIMCLRE
 70
     0
  9
$DIMCLRT
 70
     0
  9
$DIMTFAC
 40
1.0
  9
$DIMGAP
 40
0.625
  9
$DIMJUST
 70
     0
  9
$DIMSD1
 70
     0
  9
$DIMSD2
 70
     0
  9
$DIMTOLJ
 70
     0
  9
$DIMTZIN
 70
     8
  9
$DIMALTZ
 70
     0
  9
$DIMALTTZ
 70
     0
  9
$DIMUPT
 70
     0
  9
$DIMDEC
 70
     2
  9
$DIMTDEC
 70
     2
  9
$DIMALTU
 70
     2
  9
$DIMALTTD
 70
     3
  9
$DIMTXSTY
  7
SIMPLEX
  9
$DIMAUNIT
 70
     0
  9
$DIMADEC
 70
     2
  9
$DIMALTRND
 40
0.0
  9
$DIMAZIN
 70
     2
  9
$DIMDSEP
 70
    46
  9
$DIMATFIT
 70
     3
  9
$DIMFRAC
 70
     0
  9
$DIMLDRBLK
  1

  9
$DIMLUNIT
 70
     2
  9
$DIMLWD
 70
    -2
  9
$DIMLWE
 70
    -2
  9
$DIMTMOVE
 70
     0
  9
$LUNITS
 70
     2
  9
$LUPREC
 70
     4
  9
$SKETCHINC
 40
1.0
  9
$FILLETRAD
 40
0.0
  9
$AUNITS
 70
     0
  9
$AUPREC
 70
     0
  9
$MENU
  1
c:\tdm21\cad\caduti13\tdm13
  9
$ELEVATION
 40
0.0
  9
$PELEVATION
 40
0.0
  9
$THICKNESS
 40
0.0
  9
$LIMCHECK
 70
     0
  9
$CHAMFERA
 40
0.0
  9
$CHAMFERB
 40
0.0
  9
$CHAMFERC
 40
0.0
  9
$CHAMFERD
 40
0.0
  9
$SKPOLY
 70
     0
  9
$TDCREATE
 40
2455883.652280521
  9
$TDUCREATE
 40
2455883.568947188
  9
$TDUPDATE
 40
2456818.430449664
  9
$TDUUPDATE
 40
2456818.347116331
  9
$TDINDWG
 40
0.0035600000
  9
$TDUSRTIMER
 40
0.0035599769
  9
$USRTIMER
 70
     1
  9
$ANGBASE
 50
0.0
  9
$ANGDIR
 70
     0
  9
$PDMODE
 70
     1
  9
$PDSIZE
 40
0.0
  9
$PLINEWID
 40
0.0
  9
$SPLFRAME
 70
     0
  9
$SPLINETYPE
 70
     6
  9
$SPLINESEGS
 70
     8
  9
$HANDSEED
  5
E8667
  9
$SURFTAB1
 70
     6
  9
$SURFTAB2
 70
     6
  9
$SURFTYPE
 70
     6
  9
$SURFU
 70
     6
  9
$SURFV
 70
     6
  9
$UCSBASE
  2

  9
$UCSNAME
  2

  9
$UCSORG
 10
0.0
 20
0.0
 30
0.0
  9
$UCSXDIR
 10
1.0
 20
0.0
 30
0.0
  9
$UCSYDIR
 10
0.0
 20
1.0
 30
0.0
  9
$UCSORTHOREF
  2

  9
$UCSORTHOVIEW
 70
     0
  9
$UCSORGTOP
 10
0.0
 20
0.0
 30
0.0
  9
$UCSORGBOTTOM
 10
0.0
 20
0.0
 30
0.0
  9
$UCSORGLEFT
 10
0.0
 20
0.0
 30
0.0
  9
$UCSORGRIGHT
 10
0.0
 20
0.0
 30
0.0
  9
$UCSORGFRONT
 10
0.0
 20
0.0
 30
0.0
  9
$UCSORGBACK
 10
0.0
 20
0.0
 30
0.0
  9
$PUCSBASE
  2

  9
$PUCSNAME
  2

  9
$PUCSORG
 10
0.0
 20
0.0
 30
0.0
  9
$PUCSXDIR
 10
1.0
 20
0.0
 30
0.0
  9
$PUCSYDIR
 10
0.0
 20
1.0
 30
0.0
  9
$PUCSORTHOREF
  2

  9
$PUCSORTHOVIEW
 70
     0
  9
$PUCSORGTOP
 10
0.0
 20
0.0
 30
0.0
  9
$PUCSORGBOTTOM
 10
0.0
 20
0.0
 30
0.0
  9
$PUCSORGLEFT
 10
0.0
 20
0.0
 30
0.0
  9
$PUCSORGRIGHT
 10
0.0
 20
0.0
 30
0.0
  9
$PUCSORGFRONT
 10
0.0
 20
0.0
 30
0.0
  9
$PUCSORGBACK
 10
0.0
 20
0.0
 30
0.0
  9
$USERI1
 70
     0
  9
$USERI2
 70
     0
  9
$USERI3
 70
     0
  9
$USERI4
 70
     0
  9
$USERI5
 70
     0
  9
$USERR1
 40
0.0
  9
$USERR2
 40
0.0
  9
$USERR3
 40
0.0
  9
$USERR4
 40
0.0
  9
$USERR5
 40
0.0
  9
$WORLDVIEW
 70
     1
  9
$SHADEDGE
 70
     3
  9
$SHADEDIF
 70
    70
  9
$TILEMODE
 70
     1
  9
$MAXACTVP
 70
    64
  9
$PINSBASE
 10
0.0
 20
0.0
 30
0.0
  9
$PLIMCHECK
 70
     0
  9
$PEXTMIN
 10
0.0
 20
0.0
 30
0.0
  9
$PEXTMAX
 10
0.0
 20
0.0
 30
0.0
  9
$PLIMMIN
 10
0.0
 20
0.0
  9
$PLIMMAX
 10
12.0
 20
9.0
  9
$UNITMODE
 70
     0
  9
$VISRETAIN
 70
     0
  9
$PLINEGEN
 70
     0
  9
$PSLTSCALE
 70
     1
  9
$TREEDEPTH
 70
  3020
  9
$CMLSTYLE
  2
STANDARD
  9
$CMLJUST
 70
     0
  9
$CMLSCALE
 40
20.0
  9
$PROXYGRAPHICS
 70
     1
  9
$MEASUREMENT
 70
     1
  9
$CELWEIGHT
370
    -1
  9
$ENDCAPS
280
     0
  9
$JOINSTYLE
280
     0
  9
$LWDISPLAY
290
     0
  9
$INSUNITS
 70
     4
  9
$HYPERLINKBASE
  1

  9
$STYLESHEET
  1
MONOCHROME.CTB
  9
$XEDIT
290
     1
  9
$CEPSNTYPE
380
     0
  9
$PSTYLEMODE
290
     1
  9
$FINGERPRINTGUID
  2
{36B768E0-36AF-4475-81FB-06B9C40D017C}
  9
$VERSIONGUID
  2
{07895481-31C4-45DF-B322-32CF7C66B57C}
  9
$EXTNAMES
290
     1
  9
$PSVPSCALE
 40
0.0
  9
$OLESTARTUP
290
     0
  0
ENDSEC
  0
SECTION
  2
CLASSES
  0
CLASS
  1
ACDBDICTIONARYWDFLT
  2
AcDbDictionaryWithDefault
  3
ObjectDBX Classes
 90
        0
280
     0
281
     0
  0
CLASS
  1
ACDBPLACEHOLDER
  2
AcDbPlaceHolder
  3
ObjectDBX Classes
 90
        0
280
     0
281
     0
  0
CLASS
  1
LAYOUT
  2
AcDbLayout
  3
ObjectDBX Classes
 90
        0
280
     0
281
     0
  0
CLASS
  1
DICTIONARYVAR
  2
AcDbDictionaryVar
  3
ObjectDBX Classes
 90
        0
280
     0
281
     0
  0
CLASS
  1
TABLESTYLE
  2
AcDbTableStyle
  3
ObjectDBX Classes
 90
     4095
280
     0
281
     0
  0
CLASS
  1
MATERIAL
  2
AcDbMaterial
  3
ObjectDBX Classes
 90
     1153
280
     0
281
     0
  0
CLASS
  1
VISUALSTYLE
  2
AcDbVisualStyle
  3
ObjectDBX Classes
 90
     4095
280
     0
281
     0
  0
CLASS
  1
SCALE
  2
AcDbScale
  3
ObjectDBX Classes
 90
     1153
280
     0
281
     0
  0
CLASS
  1
MLEADERSTYLE
  2
AcDbMLeaderStyle
  3
ACDB_MLEADERSTYLE_CLASS
 90
     4095
280
     0
281
     0
  0
CLASS
  1
CELLSTYLEMAP
  2
AcDbCellStyleMap
  3
ObjectDBX Classes
 90
     1152
280
     0
281
     0
  0
CLASS
  1
SORTENTSTABLE
  2
AcDbSortentsTable
  3
ObjectDBX Classes
 90
        0
280
     0
281
     0
  0
CLASS
  1
ACDBSECTIONVIEWSTYLE
  2
AcDbSectionViewStyle
  3
ObjectDBX Classes
 90
     1025
280
     0
281
     0
  0
CLASS
  1
ACDBDETAILVIEWSTYLE
  2
AcDbDetailViewStyle
  3
ObjectDBX Classes
 90
     1025
280
     0
281
     0
  0
CLASS
  1
EXACXREFPANELOBJECT
  2
ExAcXREFPanelObject
  3
EXAC_ESW
 90
     1025
280
     0
281
     0
  0
CLASS
  1
NPOCOLLECTION
  2
AcDbImpNonPersistentObjectsCollection
  3
ObjectDBX Classes
 90
     1153
280
     0
281
     0
  0
ENDSEC
  0
SECTION
  2
TABLES
  0
TABLE
  2
VPORT
  5
8
330
0
100
AcDbSymbolTable
 70
     1
  0
VPORT
  5
3ED
330
8
100
AcDbSymbolTableRecord
100
AcDbViewportTableRecord
  2
*Active
 70
     0
 10
0.0
 20
0.0
 11
1.0
 21
1.0
 12
15.6702360994767
 22
-10.44280912196581
 13
0.0
 23
0.0
 14
5.0
 24
5.0
 15
5.0
 25
5.0
 16
0.0
 26
0.0
 36
1.0
 17
0.0
 27
0.0
 37
0.0
 40
71.51724622164405
 41
2.2
 42
50.0
 43
0.0
 44
0.0
 50
0.0
 51
0.0
 71
     0
 72
  2000
 73
     1
 74
     1
 75
     0
 76
     0
 77
     0
 78
     0
281
     0
 65
     1
110
0.0
120
0.0
130
0.0
111
1.0
121
0.0
131
0.0
112
0.0
122
1.0
132
0.0
 79
     0
146
0.0
1001
ACAD_NAV_VCDISPLAY
1070
     3
  0
ENDTAB
  0
TABLE
  2
LTYPE
  5
5
330
0
100
AcDbSymbolTable
 70
     3
  0
LTYPE
  5
12
330
5
100
AcDbSymbolTableRecord
100
AcDbLinetypeTableRecord
  2
BYBLOCK
 70
     0
  3

 72
    65
 73
     0
 40
0.0
  0
LTYPE
  5
13
330
5
100
AcDbSymbolTableRecord
100
AcDbLinetypeTableRecord
  2
BYLAYER
 70
     0
  3

 72
    65
 73
     0
 40
0.0
  0
LTYPE
  5
14
330
5
100
AcDbSymbolTableRecord
100
AcDbLinetypeTableRecord
  2
CONTINUOUS
 70
     0
  3
Solid line
 72
    65
 73
     0
 40
0.0
  0
LTYPE
  5
E810C
330
5
100
AcDbSymbolTableRecord
100
AcDbLinetypeTableRecord
  2
CENTER
 70
     0
  3
____ _ ____ _ ____ _ ____ _ ____ _ ____ _ ____
 72
    65
 73
     4
 40
0.1992
 49
0.1245
 74
     0
 49
-0.0249
 74
     0
 49
0.0249
 74
     0
 49
-0.0249
 74
     0
  0
LTYPE
  5
E810D
330
5
100
AcDbSymbolTableRecord
100
AcDbLinetypeTableRecord
  2
DASHED
 70
     0
  3
__ __ __ __ __ __ __ __ __ __ __ __ __ __ __ __
 72
    65
 73
     2
 40
0.29881
 49
0.1992
 74
     0
 49
-0.099604
 74
     0
  0
ENDTAB
  0
TABLE
  2
LAYER
  5
2
330
0
100
AcDbSymbolTable
 70
    39
  0
LAYER
  5
F
102
{ACAD_XDICTIONARY
360
E85D8
102
}
330
2
100
AcDbSymbolTableRecord
100
AcDbLayerTableRecord
  2
0
 70
     0
 62
     7
  6
CONTINUOUS
370
    -3
390
300
  0
LAYER
  5
23
102
{ACAD_XDICTIONARY
360
E85DA
102
}
330
2
100
AcDbSymbolTableRecord
100
AcDbLayerTableRecord
  2
1
 70
     0
 62
     4
  6
CONTINUOUS
370
    -3
390
300
  0
LAYER
  5
E810E
102
{ACAD_XDICTIONARY
360
E85DC
102
}
330
2
100
AcDbSymbolTableRecord
100
AcDbLayerTableRecord
  2
2
 70
     0
 62
     7
  6
CONTINUOUS
370
    -3
390
300
  0
LAYER
  5
E810F
102
{ACAD_XDICTIONARY
360
E85DE
102
}
330
2
100
AcDbSymbolTableRecord
100
AcDbLayerTableRecord
  2
61
 70
     0
 62
     5
  6
CONTINUOUS
370
    -3
390
300
  0
LAYER
  5
E8110
102
{ACAD_XDICTIONARY
360
E85E0
102
}
330
2
100
AcDbSymbolTableRecord
100
AcDbLayerTableRecord
  2
62
 70
     0
 62
    -5
  6
CONTINUOUS
370
    -3
390
300
  0
LAYER
  5
E8111
102
{ACAD_XDICTIONARY
360
E85E2
102
}
330
2
100
AcDbSymbolTableRecord
100
AcDbLayerTableRecord
  2
63
 70
     0
 62
    -5
  6
CONTINUOUS
370
    -3
390
300
  0
LAYER
  5
E8112
102
{ACAD_XDICTIONARY
360
E85E4
102
}
330
2
100
AcDbSymbolTableRecord
100
AcDbLayerTableRecord
  2
64
 70
     0
 62
    -5
  6
CONTINUOUS
370
    -3
390
300
  0
LAYER
  5
E8113
102
{ACAD_XDICTIONARY
360
E85E6
102
}
330
2
100
AcDbSymbolTableRecord
100
AcDbLayerTableRecord
  2
65
 70
     0
 62
    -5
  6
CONTINUOUS
370
    -3
390
300
  0
LAYER
  5
E8114
102
{ACAD_XDICTIONARY
360
E85E8
102
}
330
2
100
AcDbSymbolTableRecord
100
AcDbLayerTableRecord
  2
66
 70
     0
 62
    -5
  6
CONTINUOUS
370
    -3
390
300
  0
LAYER
  5
E8115
102
{ACAD_XDICTIONARY
360
E85EA
102
}
330
2
100
AcDbSymbolTableRecord
100
AcDbLayerTableRecord
  2
67
 70
     0
 62
    -5
  6
CONTINUOUS
370
    -3
390
300
  0
LAYER
  5
E8116
102
{ACAD_XDICTIONARY
360
E85EC
102
}
330
2
100
AcDbSymbolTableRecord
100
AcDbLayerTableRecord
  2
68
 70
     0
 62
    -5
  6
CONTINUOUS
370
    -3
390
300
  0
LAYER
  5
E8117
102
{ACAD_XDICTIONARY
360
E85EE
102
}
330
2
100
AcDbSymbolTableRecord
100
AcDbLayerTableRecord
  2
69
 70
     0
 62
    -5
  6
CONTINUOUS
370
    -3
390
300
  0
LAYER
  5
E8118
102
{ACAD_XDICTIONARY
360
E85F0
102
}
330
2
100
AcDbSymbolTableRecord
100
AcDbLayerTableRecord
  2
70
 70
     0
 62
     5
  6
CONTINUOUS
370
    -3
390
300
  0
LAYER
  5
E8119
102
{ACAD_XDICTIONARY
360
E85F2
102
}
330
2
100
AcDbSymbolTableRecord
100
AcDbLayerTableRecord
  2
3
 70
     0
 62
     1
  6
DASHED
370
    -3
390
300
  0
LAYER
  5
E811A
102
{ACAD_XDICTIONARY
360
E85F4
102
}
330
2
100
AcDbSymbolTableRecord
100
AcDbLayerTableRecord
  2
4
 70
     0
 62
    -2
  6
CENTER
370
    -3
390
300
  0
LAYER
  5
E811B
102
{ACAD_XDICTIONARY
360
E85F6
102
}
330
2
100
AcDbSymbolTableRecord
100
AcDbLayerTableRecord
  2
5
 70
     0
 62
    -7
  6
CONTINUOUS
370
    -3
390
300
  0
LAYER
  5
E811C
102
{ACAD_XDICTIONARY
360
E85F8
102
}
330
2
100
AcDbSymbolTableRecord
100
AcDbLayerTableRecord
  2
SK1
 70
     0
 62
     4
  6
CONTINUOUS
370
    -3
390
300
  0
LAYER
  5
E811D
102
{ACAD_XDICTIONARY
360
E85FA
102
}
330
2
100
AcDbSymbolTableRecord
100
AcDbLayerTableRecord
  2
6
 70
     0
 62
     5
  6
CONTINUOUS
370
    -3
390
300
  0
LAYER
  5
E811E
102
{ACAD_XDICTIONARY
360
E85FC
102
}
330
2
100
AcDbSymbolTableRecord
100
AcDbLayerTableRecord
  2
SK2
 70
     0
 62
     7
  6
CONTINUOUS
370
    -3
390
300
  0
LAYER
  5
E811F
102
{ACAD_XDICTIONARY
360
E85FE
102
}
330
2
100
AcDbSymbolTableRecord
100
AcDbLayerTableRecord
  2
SK3
 70
     0
 62
     1
  6
DASHED
370
    -3
390
300
  0
LAYER
  5
E8120
102
{ACAD_XDICTIONARY
360
E8600
102
}
330
2
100
AcDbSymbolTableRecord
100
AcDbLayerTableRecord
  2
SK4
 70
     0
 62
     2
  6
CENTER
370
    -3
390
300
  0
LAYER
  5
E8121
102
{ACAD_XDICTIONARY
360
E8602
102
}
330
2
100
AcDbSymbolTableRecord
100
AcDbLayerTableRecord
  2
CUT
 70
     0
 62
    -1
  6
CONTINUOUS
370
    -3
390
300
  0
LAYER
  5
E8122
102
{ACAD_XDICTIONARY
360
E8604
102
}
330
2
100
AcDbSymbolTableRecord
100
AcDbLayerTableRecord
  2
SK6
 70
     0
 62
     5
  6
CONTINUOUS
370
    -3
390
300
  0
LAYER
  5
E8123
102
{ACAD_XDICTIONARY
360
E8606
102
}
330
2
100
AcDbSymbolTableRecord
100
AcDbLayerTableRecord
  2
80
 70
     0
 62
    -2
  6
CENTER
370
    -3
390
300
  0
LAYER
  5
E8124
102
{ACAD_XDICTIONARY
360
E8608
102
}
330
2
100
AcDbSymbolTableRecord
100
AcDbLayerTableRecord
  2
81
 70
     0
 62
    -2
  6
CENTER
370
    -3
390
300
  0
LAYER
  5
E8125
102
{ACAD_XDICTIONARY
360
E860A
102
}
330
2
100
AcDbSymbolTableRecord
100
AcDbLayerTableRecord
  2
82
 70
     0
 62
    -2
  6
CENTER
370
    -3
390
300
  0
LAYER
  5
E8126
102
{ACAD_XDICTIONARY
360
E860C
102
}
330
2
100
AcDbSymbolTableRecord
100
AcDbLayerTableRecord
  2
NOCUT
 70
     0
 62
     7
  6
CONTINUOUS
370
    -3
390
300
  0
LAYER
  5
E8127
102
{ACAD_XDICTIONARY
360
E860E
102
}
330
2
100
AcDbSymbolTableRecord
100
AcDbLayerTableRecord
  2
50
 70
     0
 62
    -7
  6
CONTINUOUS
370
    -3
390
300
  0
LAYER
  5
E8128
102
{ACAD_XDICTIONARY
360
E8610
102
}
330
2
100
AcDbSymbolTableRecord
100
AcDbLayerTableRecord
  2
51
 70
     0
 62
     7
  6
CONTINUOUS
370
    -3
390
300
  0
LAYER
  5
E8129
102
{ACAD_XDICTIONARY
360
E8612
102
}
330
2
100
AcDbSymbolTableRecord
100
AcDbLayerTableRecord
  2
52
 70
     0
 62
    -7
  6
CONTINUOUS
370
    -3
390
300
  0
LAYER
  5
E812A
102
{ACAD_XDICTIONARY
360
E8614
102
}
330
2
100
AcDbSymbolTableRecord
100
AcDbLayerTableRecord
  2
53
 70
     0
 62
    -7
  6
CONTINUOUS
370
    -3
390
300
  0
LAYER
  5
E812B
102
{ACAD_XDICTIONARY
360
E8616
102
}
330
2
100
AcDbSymbolTableRecord
100
AcDbLayerTableRecord
  2
54
 70
     0
 62
    -7
  6
CONTINUOUS
370
    -3
390
300
  0
LAYER
  5
E812C
102
{ACAD_XDICTIONARY
360
E8618
102
}
330
2
100
AcDbSymbolTableRecord
100
AcDbLayerTableRecord
  2
55
 70
     0
 62
    -7
  6
CONTINUOUS
370
    -3
390
300
  0
LAYER
  5
E812D
102
{ACAD_XDICTIONARY
360
E861A
102
}
330
2
100
AcDbSymbolTableRecord
100
AcDbLayerTableRecord
  2
56
 70
     0
 62
    -7
  6
CONTINUOUS
370
    -3
390
300
  0
LAYER
  5
E812E
102
{ACAD_XDICTIONARY
360
E861C
102
}
330
2
100
AcDbSymbolTableRecord
100
AcDbLayerTableRecord
  2
57
 70
     0
 62
    -7
  6
CONTINUOUS
370
    -3
390
300
  0
LAYER
  5
E812F
102
{ACAD_XDICTIONARY
360
E861E
102
}
330
2
100
AcDbSymbolTableRecord
100
AcDbLayerTableRecord
  2
58
 70
     0
 62
    -7
  6
CONTINUOUS
370
    -3
390
300
  0
LAYER
  5
E8130
102
{ACAD_XDICTIONARY
360
E8620
102
}
330
2
100
AcDbSymbolTableRecord
100
AcDbLayerTableRecord
  2
2L
 70
     0
 62
     7
  6
CONTINUOUS
370
    -3
390
300
  0
LAYER
  5
E8131
102
{ACAD_XDICTIONARY
360
E8622
102
}
330
2
100
AcDbSymbolTableRecord
100
AcDbLayerTableRecord
  2
59
 70
     0
 62
    -7
  6
CONTINUOUS
370
    -3
390
300
  0
LAYER
  5
E8132
330
2
100
AcDbSymbolTableRecord
100
AcDbLayerTableRecord
  2
Defpoints
 70
     0
 62
     7
  6
CONTINUOUS
290
     0
370
    -3
390
300
  0
ENDTAB
  0
TABLE
  2
STYLE
  5
3
330
0
100
AcDbSymbolTable
 70
     4
  0
STYLE
  5
10
330
3
100
AcDbSymbolTableRecord
100
AcDbTextStyleTableRecord
  2
STANDARD
 70
     0
 40
0.0
 41
1.0
 50
0.0
 71
     0
 42
5.0
  3
txt
  4

  0
STYLE
  5
1E
330
3
100
AcDbSymbolTableRecord
100
AcDbTextStyleTableRecord
  2
SIMPLEX
 70
     0
 40
0.0
 41
1.0
 50
0.0
 71
     0
 42
3.5
  3
simplex
  4

  0
STYLE
  5
E8133
330
3
100
AcDbSymbolTableRecord
100
AcDbTextStyleTableRecord
  2
Annotative
 70
     0
 40
0.0
 41
1.0
 50
0.0
 71
     0
 42
0.2
  3
txt
  4

1001
AcadAnnotative
1000
AnnotativeData
1002
{
1070
     1
1070
     1
1002
}
  0
STYLE
  5
E8134
330
3
100
AcDbSymbolTableRecord
100
AcDbTextStyleTableRecord
  2
SANDVIK_STYLE
 70
     0
 40
0.11811
 41
1.0
 50
0.0
 71
     0
 42
0.11811
  3
simplex.shx
  4

  0
ENDTAB
  0
TABLE
  2
VIEW
  5
6
330
0
100
AcDbSymbolTable
 70
     0
  0
ENDTAB
  0
TABLE
  2
UCS
  5
7
330
0
100
AcDbSymbolTable
 70
     0
  0
ENDTAB
  0
TABLE
  2
APPID
  5
9
330
0
100
AcDbSymbolTable
 70
    11
  0
APPID
  5
11
330
9
100
AcDbSymbolTableRecord
100
AcDbRegAppTableRecord
  2
ACAD
 70
     0
  0
APPID
  5
3A6
330
9
100
AcDbSymbolTableRecord
100
AcDbRegAppTableRecord
  2
ACAD_PSEXT
 70
     0
  0
APPID
  5
3A8
330
9
100
AcDbSymbolTableRecord
100
AcDbRegAppTableRecord
  2
ACAD_EXEMPT_FROM_CAD_STANDARDS
 70
     0
  0
APPID
  5
43E
330
9
100
AcDbSymbolTableRecord
100
AcDbRegAppTableRecord
  2
ACAD_MLEADERVER
 70
     0
  0
APPID
  5
454
330
9
100
AcDbSymbolTableRecord
100
AcDbRegAppTableRecord
  2
ACAD_DSTYLE_DIMJAG
 70
     0
  0
APPID
  5
455
330
9
100
AcDbSymbolTableRecord
100
AcDbRegAppTableRecord
  2
ACAD_DSTYLE_DIMBREAK
 70
     0
  0
APPID
  5
456
330
9
100
AcDbSymbolTableRecord
100
AcDbRegAppTableRecord
  2
ACAD_DSTYLE_DIMTALN
 70
     0
  0
APPID
  5
4EE
330
9
100
AcDbSymbolTableRecord
100
AcDbRegAppTableRecord
  2
AcadAnnotative
 70
     0
  0
APPID
  5
4EF
330
9
100
AcDbSymbolTableRecord
100
AcDbRegAppTableRecord
  2
ACADIGES
 70
     0
  0
APPID
  5
4F0
330
9
100
AcDbSymbolTableRecord
100
AcDbRegAppTableRecord
  2
ACAD_DSTYLE_DIMJOGGED_JOGANGLE_SYMBOL
 70
     0
  0
APPID
  5
E8627
330
9
100
AcDbSymbolTableRecord
100
AcDbRegAppTableRecord
  2
ACAD_NAV_VCDISPLAY
 70
     0
  0
ENDTAB
  0
TABLE
  2
DIMSTYLE
  5
A
330
0
100
AcDbSymbolTable
 70
     5
100
AcDbDimStyleTable
 71
     1
340
457
  0
DIMSTYLE
105
457
102
{ACAD_REACTORS
330
E8558
330
E8557
330
E8556
102
}
330
A
100
AcDbSymbolTableRecord
100
AcDbDimStyleTableRecord
  2
SANDVIK_STYLE
 70
     0
 41
2.5
 42
0.0
 43
3.75
 44
1.25
 73
     0
 74
     0
 77
     1
 78
     8
 79
     2
140
3.5
141
0.0
143
0.039370078
147
0.625
171
     3
179
     2
271
     2
272
     2
274
     3
283
     0
284
     8
340
1E
1001
ACAD_DSTYLE_DIMBREAK
1070
   391
1040
3.75
1001
ACAD_DSTYLE_DIMJAG
1070
   388
1040
1.5
1001
ACAD_DSTYLE_DIMTALN
1070
   392
1070
     0
  0
DIMSTYLE
105
E8135
330
A
100
AcDbSymbolTableRecord
100
AcDbDimStyleTableRecord
  2
ISO-25
 70
     0
 41
2.5
 42
0.625
 43
3.75
 44
1.25
 73
     0
 74
     0
 77
     1
 78
     8
140
2.5
141
2.5
143
0.03937007874016
147
0.625
171
     3
172
     1
271
     2
272
     2
274
     3
278
    44
283
     0
284
     8
340
10
1001
ACAD_DSTYLE_DIMJOGGED_JOGANGLE_SYMBOL
1070
   384
1040
1.570796326794896
  0
DIMSTYLE
105
E8136
330
A
100
AcDbSymbolTableRecord
100
AcDbDimStyleTableRecord
  2
STANDARD
 70
     0
  4
 
 43
0.18
 44
2.5
 46
1.25
 73
     0
 74
     0
140
0.11811
141
-3.0
143
0.039
145
1.5
146
0.75
147
1.5
271
     2
272
     2
279
     2
340
E8134
  0
DIMSTYLE
105
E8137
330
A
100
AcDbSymbolTableRecord
100
AcDbDimStyleTableRecord
  2
Annotative
 70
     0
340
10
1001
AcadAnnotative
1000
AnnotativeData
1002
{
1070
     1
1070
     1
1002
}
  0
DIMSTYLE
105
E8138
330
A
100
AcDbSymbolTableRecord
100
AcDbDimStyleTableRecord
  2
SANDVIK_DIM
 70
     0
  4
 
 40
0.0
 42
0.0
 73
     0
 74
     0
 77
     1
 78
     8
173
     1
176
   256
177
   256
178
   256
271
     2
272
     2
279
     2
340
E8134
  0
ENDTAB
  0
TABLE
  2
BLOCK_RECORD
  5
1
330
0
100
AcDbSymbolTable
 70
     8
  0
BLOCK_RECORD
  5
18
330
1
100
AcDbSymbolTableRecord
100
AcDbBlockTableRecord
  2
*MODEL_SPACE
340
303
  0
BLOCK_RECORD
  5
338
330
1
100
AcDbSymbolTableRecord
100
AcDbBlockTableRecord
  2
*Paper_Space
340
33B
  0
BLOCK_RECORD
  5
E80C0
330
1
100
AcDbSymbolTableRecord
100
AcDbBlockTableRecord
  2
*D0
340
0
  0
BLOCK_RECORD
  5
E80C9
330
1
100
AcDbSymbolTableRecord
100
AcDbBlockTableRecord
  2
*D1
340
0
  0
BLOCK_RECORD
  5
E80D2
330
1
100
AcDbSymbolTableRecord
100
AcDbBlockTableRecord
  2
*D2
340
0
  0
BLOCK_RECORD
  5
E80DB
330
1
100
AcDbSymbolTableRecord
100
AcDbBlockTableRecord
  2
*D3
340
0
  0
BLOCK_RECORD
  5
E80E7
330
1
100
AcDbSymbolTableRecord
100
AcDbBlockTableRecord
  2
*D4
340
0
  0
BLOCK_RECORD
  5
E80F3
330
1
100
AcDbSymbolTableRecord
100
AcDbBlockTableRecord
  2
*D5
340
0
  0
BLOCK_RECORD
  5
E80FF
102
{ACAD_XDICTIONARY
360
E8100
102
}
330
1
100
AcDbSymbolTableRecord
100
AcDbBlockTableRecord
  2
_Zeropoint.dwg
340
0
102
{BLKREFS
331
E810A
102
}
  0
BLOCK_RECORD
  5
E8108
330
1
100
AcDbSymbolTableRecord
100
AcDbBlockTableRecord
  2
_nullpunkt
340
0
102
{BLKREFS
331
E8559
102
}
1001
ACAD
1000
DesignCenter Data
1002
{
1070
     1
1070
     4
1002
}
  0
ENDTAB
  0
ENDSEC
  0
SECTION
  2
BLOCKS
  0
BLOCK
  5
32
330
18
100
AcDbEntity
  8
0
100
AcDbBlockBegin
  2
*MODEL_SPACE
 70
     0
 10
0.0
 20
0.0
 30
0.0
  3
*MODEL_SPACE
  1

  0
ENDBLK
  5
33
330
18
100
AcDbEntity
  8
0
100
AcDbBlockEnd
  0
BLOCK
  5
339
330
338
100
AcDbEntity
 67
     1
  8
0
100
AcDbBlockBegin
  2
*Paper_Space
 70
     0
 10
0.0
 20
0.0
 30
0.0
  3
*Paper_Space
  1

  0
ENDBLK
  5
33A
330
338
100
AcDbEntity
 67
     1
  8
0
100
AcDbBlockEnd
  0
BLOCK
  5
E80C1
330
E80C0
100
AcDbEntity
  8
0
100
AcDbBlockBegin
  2
*D0
 70
     1
 10
0.0
 20
0.0
 30
0.0
  3
*D0
  1

  0
LINE
  5
E80C2
330
E80C0
100
AcDbEntity
  8
0
100
AcDbLine
 10
-20.0
 20
0.0625
 30
0.0
 11
-20.0
 21
28.513618
 31
0.0
  0
LINE
  5
E80C3
330
E80C0
100
AcDbEntity
  8
0
100
AcDbLine
 10
20.0
 20
0.0625
 30
0.0
 11
20.0
 21
28.513618
 31
0.0
  0
LINE
  5
E80C4
330
E80C0
100
AcDbEntity
  8
0
100
AcDbLine
 10
-20.0
 20
28.388618
 30
0.0
 11
20.0
 21
28.388618
 31
0.0
  0
SOLID
  5
E80C5
330
E80C0
100
AcDbEntity
  8
0
100
AcDbTrace
 10
-20.0
 20
28.388618
 30
0.0
 11
-17.0
 21
29.192465
 31
0.0
 12
-17.0
 22
27.58477
 32
0.0
 13
-17.0
 23
27.58477
 33
0.0
  0
SOLID
  5
E80C6
330
E80C0
100
AcDbEntity
  8
0
100
AcDbTrace
 10
20.0
 20
28.388618
 30
0.0
 11
17.0
 21
27.58477
 31
0.0
 12
17.0
 22
29.192465
 32
0.0
 13
17.0
 23
29.192465
 33
0.0
  0
TEXT
  5
E80C7
330
E80C0
100
AcDbEntity
  8
0
100
AcDbText
 10
-6.622935
 20
30.638618
 30
0.0
 40
3.0
  1
%%c40
100
AcDbText
  0
ENDBLK
  5
E80C8
330
E80C0
100
AcDbEntity
  8
0
100
AcDbBlockEnd
  0
BLOCK
  5
E80CA
330
E80C9
100
AcDbEntity
  8
0
100
AcDbBlockBegin
  2
*D1
 70
     1
 10
0.0
 20
0.0
 30
0.0
  3
*D1
  1

  0
LINE
  5
E80CB
330
E80C9
100
AcDbEntity
  8
0
100
AcDbLine
 10
0.0
 20
-53.172572
 30
0.0
 11
0.0
 21
-61.56999200000001
 31
0.0
  0
LINE
  5
E80CC
330
E80C9
100
AcDbEntity
  8
0
100
AcDbLine
 10
-27.0
 20
-50.0625
 30
0.0
 11
-27.0
 21
-61.56999200000001
 31
0.0
  0
LINE
  5
E80CD
330
E80C9
100
AcDbEntity
  8
0
100
AcDbLine
 10
0.0
 20
-61.44499200000001
 30
0.0
 11
-27.0
 21
-61.44499200000001
 31
0.0
  0
SOLID
  5
E80CE
330
E80C9
100
AcDbEntity
  8
0
100
AcDbTrace
 10
0.0
 20
-61.44499200000001
 30
0.0
 11
-3.0
 21
-62.248839
 31
0.0
 12
-3.0
 22
-60.641144
 32
0.0
 13
-3.0
 23
-60.641144
 33
0.0
  0
SOLID
  5
E80CF
330
E80C9
100
AcDbEntity
  8
0
100
AcDbTrace
 10
-27.0
 20
-61.44499200000001
 30
0.0
 11
-24.0
 21
-60.641144
 31
0.0
 12
-24.0
 22
-62.248839
 32
0.0
 13
-24.0
 23
-62.248839
 33
0.0
  0
TEXT
  5
E80D0
330
E80C9
100
AcDbEntity
  8
0
100
AcDbText
 10
-16.283221
 20
-59.944992
 30
0.0
 40
3.0
  1
27
100
AcDbText
  0
ENDBLK
  5
E80D1
330
E80C9
100
AcDbEntity
  8
0
100
AcDbBlockEnd
  0
BLOCK
  5
E80D3
330
E80D2
100
AcDbEntity
  8
0
100
AcDbBlockBegin
  2
*D2
 70
     1
 10
0.0
 20
0.0
 30
0.0
  3
*D2
  1

  0
LINE
  5
E80D4
330
E80D2
100
AcDbEntity
  8
0
100
AcDbLine
 10
-27.0625
 20
-50.0
 30
0.0
 11
-41.24035999999999
 21
-50.0
 31
0.0
  0
LINE
  5
E80D5
330
E80D2
100
AcDbEntity
  8
0
100
AcDbLine
 10
-20.0625
 20
0.0
 30
0.0
 11
-41.24035999999999
 21
0.0
 31
0.0
  0
LINE
  5
E80D6
330
E80D2
100
AcDbEntity
  8
0
100
AcDbLine
 10
-41.11536
 20
-50.0
 30
0.0
 11
-41.11536
 21
0.0
 31
0.0
  0
SOLID
  5
E80D7
330
E80D2
100
AcDbEntity
  8
0
100
AcDbTrace
 10
-41.11536
 20
-50.0
 30
0.0
 11
-41.91920800000001
 21
-47.0
 31
0.0
 12
-40.311513
 22
-47.0
 32
0.0
 13
-40.311513
 23
-47.0
 33
0.0
  0
SOLID
  5
E80D8
330
E80D2
100
AcDbEntity
  8
0
100
AcDbTrace
 10
-41.11536
 20
0.0
 30
0.0
 11
-40.311513
 21
-3.0
 31
0.0
 12
-41.91920800000001
 22
-3.0
 32
0.0
 13
-41.91920800000001
 23
-3.0
 33
0.0
  0
TEXT
  5
E80D9
330
E80D2
100
AcDbEntity
  8
0
100
AcDbText
 10
-42.61535999999996
 20
-23.748738
 30
0.0
 40
3.0
  1
50
 50
90.0
100
AcDbText
  0
ENDBLK
  5
E80DA
330
E80D2
100
AcDbEntity
  8
0
100
AcDbBlockEnd
  0
BLOCK
  5
E80DC
330
E80DB
100
AcDbEntity
  8
0
100
AcDbBlockBegin
  2
*D3
 70
     1
 10
0.0
 20
0.0
 30
0.0
  3
*D3
  1

  0
LINE
  5
E8588
330
E80DB
100
AcDbEntity
  8
SK2
 62
     0
370
    -2
100
AcDbLine
 10
-0.0625000000000012
 20
-20.0
 30
0.0
 11
-29.63861800000001
 21
-19.99999999999999
 31
0.0
  0
LINE
  5
E8589
330
E80DB
100
AcDbEntity
  8
SK2
 62
     0
370
    -2
100
AcDbLine
 10
-0.0624999999999988
 20
20.0
 30
0.0
 11
-29.638618
 21
20.00000000000001
 31
0.0
  0
LINE
  5
E858A
330
E80DB
100
AcDbEntity
  8
SK2
 62
     0
370
    -2
100
AcDbLine
 10
-28.38861800000001
 20
-17.49999999999999
 30
0.0
 11
-28.388618
 21
17.50000000000001
 31
0.0
  0
SOLID
  5
E858B
330
E80DB
100
AcDbEntity
  8
SK2
 62
     0
100
AcDbTrace
 10
-28.80528466666668
 20
-17.49999999999999
 30
0.0
 11
-27.97195133333334
 21
-17.49999999999999
 31
0.0
 12
-28.38861800000001
 22
-19.99999999999999
 32
0.0
 13
-28.38861800000001
 23
-19.99999999999999
 33
0.0
  0
SOLID
  5
E858C
330
E80DB
100
AcDbEntity
  8
SK2
 62
     0
100
AcDbTrace
 10
-28.80528466666667
 20
17.50000000000001
 30
0.0
 11
-27.97195133333334
 21
17.50000000000001
 31
0.0
 12
-28.388618
 22
20.00000000000001
 32
0.0
 13
-28.388618
 23
20.00000000000001
 33
0.0
  0
MTEXT
  5
E858D
330
E80DB
100
AcDbEntity
  8
SK2
 62
     0
100
AcDbMText
 10
-30.76361800000001
 20
0.000000000000002
 30
0.0
 40
3.5
 41
0.0
 71
     5
 72
     1
  1
%%c40
  7
SIMPLEX
 11
0.0000000000000001
 21
1.0
 31
0.0
 73
     1
 44
1.0
1001
ACAD
1000
MTEXTBEGIN
1070
    73
1070
     1
1070
    44
1040
1.0
1070
    74
1070
     0
1000
MTEXTEND
  0
POINT
  5
E858E
330
E80DB
100
AcDbEntity
  8
Defpoints
 62
     0
100
AcDbPoint
 10
-0.0625000000000012
 20
-20.0
 30
0.0
  0
POINT
  5
E858F
330
E80DB
100
AcDbEntity
  8
Defpoints
 62
     0
100
AcDbPoint
 10
-0.0624999999999988
 20
20.0
 30
0.0
  0
POINT
  5
E8590
330
E80DB
100
AcDbEntity
  8
Defpoints
 62
     0
100
AcDbPoint
 10
-28.388618
 20
20.00000000000001
 30
0.0
  0
ENDBLK
  5
E80E6
330
E80DB
100
AcDbEntity
  8
0
100
AcDbBlockEnd
  0
BLOCK
  5
E80E8
330
E80E7
100
AcDbEntity
  8
0
100
AcDbBlockBegin
  2
*D4
 70
     1
 10
0.0
 20
0.0
 30
0.0
  3
*D4
  1

  0
LINE
  5
E857F
330
E80E7
100
AcDbEntity
  8
2L
 62
     0
370
    -2
100
AcDbLine
 10
53.172572
 20
-0.0000000000000033
 30
0.0
 11
62.69499200000002
 21
-0.000000000000006
 31
0.0
  0
LINE
  5
E8580
330
E80E7
100
AcDbEntity
  8
2L
 62
     0
370
    -2
100
AcDbLine
 10
50.0625
 20
-27.00000000000001
 30
0.0
 11
62.69499200000001
 21
-27.00000000000001
 31
0.0
  0
LINE
  5
E8581
330
E80E7
100
AcDbEntity
  8
2L
 62
     0
370
    -2
100
AcDbLine
 10
61.44499200000002
 20
-2.500000000000004
 30
0.0
 11
61.44499200000001
 21
-24.50000000000001
 31
0.0
  0
SOLID
  5
E8582
330
E80E7
100
AcDbEntity
  8
2L
 62
     0
100
AcDbTrace
 10
61.02832533333335
 20
-2.500000000000004
 30
0.0
 11
61.86165866666668
 21
-2.500000000000004
 31
0.0
 12
61.44499200000002
 22
-0.0000000000000056
 32
0.0
 13
61.44499200000002
 23
-0.0000000000000056
 33
0.0
  0
SOLID
  5
E8583
330
E80E7
100
AcDbEntity
  8
2L
 62
     0
100
AcDbTrace
 10
61.02832533333334
 20
-24.50000000000001
 30
0.0
 11
61.86165866666667
 21
-24.50000000000001
 31
0.0
 12
61.44499200000001
 22
-27.00000000000001
 32
0.0
 13
61.44499200000001
 23
-27.00000000000001
 33
0.0
  0
MTEXT
  5
E8584
330
E80E7
100
AcDbEntity
  8
2L
 62
     0
100
AcDbMText
 10
59.06999200000001
 20
-13.5
 30
0.0
 40
3.5
 41
0.0
 71
     5
 72
     1
  1
27
  7
SIMPLEX
 11
0.0000000000000001
 21
1.0
 31
0.0
 73
     1
 44
1.0
1001
ACAD
1000
MTEXTBEGIN
1070
    73
1070
     1
1070
    44
1040
1.0
1070
    74
1070
     0
1000
MTEXTEND
  0
POINT
  5
E8585
330
E80E7
100
AcDbEntity
  8
Defpoints
 62
     0
100
AcDbPoint
 10
53.172572
 20
-0.0000000000000033
 30
0.0
  0
POINT
  5
E8586
330
E80E7
100
AcDbEntity
  8
Defpoints
 62
     0
100
AcDbPoint
 10
50.0625
 20
-27.00000000000001
 30
0.0
  0
POINT
  5
E8587
330
E80E7
100
AcDbEntity
  8
Defpoints
 62
     0
100
AcDbPoint
 10
61.44499200000001
 20
-27.00000000000001
 30
0.0
  0
ENDBLK
  5
E80F2
330
E80E7
100
AcDbEntity
  8
0
100
AcDbBlockEnd
  0
BLOCK
  5
E80F4
330
E80F3
100
AcDbEntity
  8
0
100
AcDbBlockBegin
  2
*D5
 70
     1
 10
0.0
 20
0.0
 30
0.0
  3
*D5
  1

  0
LINE
  5
E8576
330
E80F3
100
AcDbEntity
  8
2L
 62
     0
370
    -2
100
AcDbLine
 10
50.0
 20
-27.06250000000001
 30
0.0
 11
50.0
 21
-42.36536
 31
0.0
  0
LINE
  5
E8577
330
E80F3
100
AcDbEntity
  8
2L
 62
     0
370
    -2
100
AcDbLine
 10
-0.0000000000000012
 20
-20.0625
 30
0.0
 11
-0.0000000000000026
 21
-42.36536
 31
0.0
  0
LINE
  5
E8578
330
E80F3
100
AcDbEntity
  8
2L
 62
     0
370
    -2
100
AcDbLine
 10
47.5
 20
-41.11536
 30
0.0
 11
2.499999999999996
 21
-41.11536
 31
0.0
  0
SOLID
  5
E8579
330
E80F3
100
AcDbEntity
  8
2L
 62
     0
100
AcDbTrace
 10
47.5
 20
-40.69869333333333
 30
0.0
 11
47.5
 21
-41.53202666666665
 31
0.0
 12
50.0
 22
-41.11536
 32
0.0
 13
50.0
 23
-41.11536
 33
0.0
  0
SOLID
  5
E857A
330
E80F3
100
AcDbEntity
  8
2L
 62
     0
100
AcDbTrace
 10
2.499999999999996
 20
-40.69869333333333
 30
0.0
 11
2.499999999999996
 21
-41.53202666666665
 31
0.0
 12
-0.0000000000000025
 22
-41.11536
 32
0.0
 13
-0.0000000000000025
 23
-41.11536
 33
0.0
  0
MTEXT
  5
E857B
330
E80F3
100
AcDbEntity
  8
2L
 62
     0
100
AcDbMText
 10
25.0
 20
-38.74036
 30
0.0
 40
3.5
 41
0.0
 71
     5
 72
     1
  1
50
  7
SIMPLEX
 73
     1
 44
1.0
1001
ACAD
1000
MTEXTBEGIN
1070
    73
1070
     1
1070
    44
1040
1.0
1070
    74
1070
     0
1000
MTEXTEND
  0
POINT
  5
E857C
330
E80F3
100
AcDbEntity
  8
Defpoints
 62
     0
100
AcDbPoint
 10
50.0
 20
-27.06250000000001
 30
0.0
  0
POINT
  5
E857D
330
E80F3
100
AcDbEntity
  8
Defpoints
 62
     0
100
AcDbPoint
 10
-0.0000000000000012
 20
-20.0625
 30
0.0
  0
POINT
  5
E857E
330
E80F3
100
AcDbEntity
  8
Defpoints
 62
     0
100
AcDbPoint
 10
-0.0000000000000025
 20
-41.11536
 30
0.0
  0
ENDBLK
  5
E80FE
330
E80F3
100
AcDbEntity
  8
0
100
AcDbBlockEnd
  0
BLOCK
  5
E8102
330
E80FF
100
AcDbEntity
  8
0
100
AcDbBlockBegin
  2
_Zeropoint.dwg
 70
     0
 10
0.0
 20
0.0
 30
0.0
  3
_Zeropoint.dwg
  1

  0
HATCH
  5
E8103
330
E80FF
100
AcDbEntity
  8
2
100
AcDbHatch
 10
0.0
 20
0.0
 30
0.0
210
0.0
220
0.0
230
1.0
  2
_USER
 70
     0
 71
     1
 91
        2
 92
        7
 72
     1
 73
     1
 93
        3
 10
-2.5
 20
0.0
 42
0.4142135623730951
 10
0.0
 20
-2.5
 42
0.0
 10
0.0
 20
0.0
 42
0.0
 97
        3
330
E8104
330
E8106
330
E8105
 92
        7
 72
     1
 73
     1
 93
        3
 10
0.0
 20
2.5
 42
0.0
 10
0.0
 20
0.0
 42
0.0
 10
2.5
 20
0.0
 42
0.4142135623730951
 97
        3
330
E8105
330
E8104
330
E8106
 75
     0
 76
     0
 52
45.0
 41
0.5
 77
     0
 78
     1
 53
45.0
 43
0.0
 44
0.0
 45
-0.3535533905932737
 46
0.3535533905932738
 79
     0
 47
0.0807540860238484
 98
        2
 10
-1.081351813010084
 20
-0.6749528531090621
 10
1.100054950607727
 20
1.263145885468702
  0
LINE
  5
E8104
102
{ACAD_REACTORS
330
E8103
102
}
330
E80FF
100
AcDbEntity
  8
2
100
AcDbLine
 10
5.0
 20
0.0
 30
0.0
 11
-5.0
 21
0.0
 31
0.0
  0
LINE
  5
E8105
102
{ACAD_REACTORS
330
E8103
102
}
330
E80FF
100
AcDbEntity
  8
2
100
AcDbLine
 10
0.0
 20
5.0
 30
0.0
 11
0.0
 21
-5.0
 31
0.0
  0
CIRCLE
  5
E8106
102
{ACAD_REACTORS
330
E8103
102
}
330
E80FF
100
AcDbEntity
  8
2
100
AcDbCircle
 10
0.0
 20
0.0
 30
0.0
 40
2.5
  0
ENDBLK
  5
E8107
330
E80FF
100
AcDbEntity
  8
0
100
AcDbBlockEnd
  0
BLOCK
  5
E8109
330
E8108
100
AcDbEntity
  8
0
100
AcDbBlockBegin
  2
_nullpunkt
 70
     0
 10
0.0
 20
0.0
 30
0.0
  3
_nullpunkt
  1

  0
INSERT
  5
E810A
330
E8108
100
AcDbEntity
  8
0
100
AcDbBlockReference
  2
_Zeropoint.dwg
 10
0.0
 20
0.0
 30
0.0
  0
ENDBLK
  5
E810B
330
E8108
100
AcDbEntity
  8
0
100
AcDbBlockEnd
  0
ENDSEC
  0
SECTION
  2
ENTITIES
  0
LINE
  5
E8139
330
18
100
AcDbEntity
  8
1
100
AcDbLine
 10
42.714245
 20
-26.838762
 30
0.0
 11
21.125755
 21
-24.112566
 31
0.0
  0
LINE
  5
E813A
330
18
100
AcDbEntity
  8
1
100
AcDbLine
 10
49.838762
 20
-19.714245
 30
0.0
 11
47.371284
 21
-0.1745210000000029
 31
0.0
  0
LINE
  5
E813B
330
18
100
AcDbEntity
  8
1
100
AcDbLine
 10
47.371284
 20
-0.1745210000000029
 30
0.0
 11
36.241664
 21
10.955099
 31
0.0
  0
LINE
  5
E813C
330
18
100
AcDbEntity
  8
1
100
AcDbLine
 10
36.241664
 20
10.955099
 30
0.0
 11
25.696763
 21
21.5
 31
0.0
  0
LINE
  5
E813D
330
18
100
AcDbEntity
  8
1
100
AcDbLine
 10
19.3
 20
-5.986565000000001
 30
0.0
 11
19.3
 21
-19.595918
 31
0.0
  0
LINE
  5
E813E
330
18
100
AcDbEntity
  8
1
100
AcDbLine
 10
19.3
 20
-5.986565000000001
 30
0.0
 11
36.241664
 21
10.955099
 31
0.0
  0
LINE
  5
E813F
330
18
100
AcDbEntity
  8
1
100
AcDbLine
 10
0.0999999999999988
 20
-20.0
 30
0.0
 11
-0.0000000000000012
 21
-20.0
 31
0.0
  0
LINE
  5
E8140
330
18
100
AcDbEntity
  8
1
100
AcDbLine
 10
0.1000000000000012
 20
20.0
 30
0.0
 11
0.0000000000000012
 21
20.0
 31
0.0
  0
LINE
  5
E8141
330
18
100
AcDbEntity
  8
1
100
AcDbLine
 10
0.0000000000000012
 20
20.0
 30
0.0
 11
0.0000000000000012
 21
19.9
 31
0.0
  0
LINE
  5
E8142
330
18
100
AcDbEntity
  8
1
100
AcDbLine
 10
43.930659
 20
-11.950403
 30
0.0
 11
34.188561
 21
-2.208306000000002
 31
0.0
  0
LINE
  5
E8143
330
18
100
AcDbEntity
  8
1
100
AcDbLine
 10
25.208305
 20
-11.188562
 30
0.0
 11
34.950403
 21
-20.93066
 31
0.0
  0
LINE
  5
E8144
330
18
100
AcDbEntity
  8
1
100
AcDbLine
 10
25.364709
 20
-7.102325000000002
 30
0.0
 11
30.102325
 21
-2.364709999999999
 31
0.0
  0
LINE
  5
E8145
330
18
100
AcDbEntity
  8
1
100
AcDbLine
 10
24.756937
 20
-6.494527000000001
 30
0.0
 11
29.49454
 21
-1.756924
 31
0.0
  0
LINE
  5
E8146
330
18
100
AcDbEntity
  8
1
100
AcDbLine
 10
24.60052
 20
-10.580776
 30
0.0
 11
26.144383
 21
-12.124639
 31
0.0
  0
LINE
  5
E8147
330
18
100
AcDbEntity
  8
1
100
AcDbLine
 10
34.950403
 20
-20.93066
 30
0.0
 11
34.528732
 21
-20.50898800000001
 31
0.0
  0
LINE
  5
E8148
330
18
100
AcDbEntity
  8
1
100
AcDbLine
 10
45.146396
 20
-15.621302
 30
0.0
 11
44.923275
 21
-15.39818
 31
0.0
  0
LINE
  5
E8149
330
18
100
AcDbEntity
  8
1
100
AcDbLine
 10
44.824098
 20
-16.591328
 30
0.0
 11
44.719906
 21
-16.487136
 31
0.0
  0
LINE
  5
E814A
330
18
100
AcDbEntity
  8
1
100
AcDbLine
 10
39.59132800000001
 20
-21.824098
 30
0.0
 11
39.487136
 21
-21.719906
 31
0.0
  0
LINE
  5
E814B
330
18
100
AcDbEntity
  8
1
100
AcDbLine
 10
38.61779600000001
 20
-22.14289
 30
0.0
 11
38.395554
 21
-21.920648
 31
0.0
  0
LINE
  5
E814C
330
18
100
AcDbEntity
  8
1
100
AcDbLine
 10
39.59132800000001
 20
-21.824098
 30
0.0
 11
44.824098
 21
-16.591328
 31
0.0
  0
LINE
  5
E814D
330
18
100
AcDbEntity
  8
1
100
AcDbLine
 10
44.806284
 20
-14.955372
 30
0.0
 11
44.92814699999999
 21
-14.833509
 31
0.0
  0
LINE
  5
E814E
330
18
100
AcDbEntity
  8
1
100
AcDbLine
 10
42.207713
 20
-19.207713
 30
0.0
 11
42.103521
 21
-19.103521
 31
0.0
  0
LINE
  5
E814F
330
18
100
AcDbEntity
  8
1
100
AcDbLine
 10
44.719906
 20
-16.487136
 30
0.0
 11
39.487136
 21
-21.719906
 31
0.0
  0
LINE
  5
E8150
330
18
100
AcDbEntity
  8
1
100
AcDbLine
 10
38.11701
 20
-21.822446
 30
0.0
 11
37.42469000000003
 21
-21.59843400000001
 31
0.0
  0
LINE
  5
E8151
330
18
100
AcDbEntity
  8
1
100
AcDbLine
 10
37.104704
 20
-21.484229
 30
0.0
 11
34.528732
 21
-20.50898800000001
 31
0.0
  0
LINE
  5
E8152
330
18
100
AcDbEntity
  8
1
100
AcDbLine
 10
44.822446
 20
-15.11701
 30
0.0
 11
44.598434
 21
-14.42469
 31
0.0
  0
LINE
  5
E8153
330
18
100
AcDbEntity
  8
1
100
AcDbLine
 10
44.48422899999999
 20
-14.104704
 30
0.0
 11
43.508988
 21
-11.528732
 31
0.0
  0
LINE
  5
E8154
330
18
100
AcDbEntity
  8
1
100
AcDbLine
 10
28.610712
 20
-5.610712000000002
 30
0.0
 11
28.680173
 21
-5.680172999999999
 31
0.0
  0
LINE
  5
E8155
330
18
100
AcDbEntity
  8
1
100
AcDbLine
 10
30.653414
 20
-7.653415000000001
 30
0.0
 11
33.06154
 21
-6.999679000000001
 31
0.0
  0
LINE
  5
E8156
330
18
100
AcDbEntity
  8
1
100
AcDbLine
 10
33.06154
 20
-6.999679000000001
 30
0.0
 11
34.81593
 21
-8.754068000000001
 31
0.0
  0
LINE
  5
E8157
330
18
100
AcDbEntity
  8
1
100
AcDbLine
 10
34.81593
 20
-8.754068000000001
 30
0.0
 11
34.162193
 21
-11.162194
 31
0.0
  0
LINE
  5
E8158
330
18
100
AcDbEntity
  8
1
100
AcDbLine
 10
34.162193
 20
-11.162194
 30
0.0
 11
31.754067
 21
-11.81593
 31
0.0
  0
LINE
  5
E8159
330
18
100
AcDbEntity
  8
1
100
AcDbLine
 10
31.754067
 20
-11.81593
 30
0.0
 11
29.999678
 21
-10.061541
 31
0.0
  0
LINE
  5
E815A
330
18
100
AcDbEntity
  8
1
100
AcDbLine
 10
29.999678
 20
-10.061541
 30
0.0
 11
30.653414
 21
-7.653415000000001
 31
0.0
  0
LINE
  5
E815B
330
18
100
AcDbEntity
  8
1
100
AcDbLine
 10
34.328912
 20
-2.348657000000001
 30
0.0
 11
33.72112700000001
 21
-1.740870999999999
 31
0.0
  0
LINE
  5
E815C
330
18
100
AcDbEntity
  8
1
100
AcDbLine
 10
28.24965
 20
-14.229906
 30
0.0
 11
26.144383
 21
-12.124639
 31
0.0
  0
LINE
  5
E815D
330
18
100
AcDbEntity
  8
1
100
AcDbLine
 10
37.244451
 20
-22.23475800000001
 30
0.0
 11
37.611774
 21
-21.867435
 31
0.0
  0
LINE
  5
E815E
330
18
100
AcDbEntity
  8
1
100
AcDbLine
 10
36.996997
 20
-22.482203
 30
0.0
 11
37.611582
 21
-21.86761800000001
 31
0.0
  0
LINE
  5
E815F
330
18
100
AcDbEntity
  8
1
100
AcDbLine
 10
37.068767
 20
-22.059074
 30
0.0
 11
37.342685
 21
-21.785156
 31
0.0
  0
LINE
  5
E8160
330
18
100
AcDbEntity
  8
1
100
AcDbLine
 10
37.068767
 20
-22.059074
 30
0.0
 11
36.996997
 21
-22.482203
 31
0.0
  0
LINE
  5
E8161
330
18
100
AcDbEntity
  8
1
100
AcDbLine
 10
45.23475799999999
 20
-14.244451
 30
0.0
 11
44.86762
 21
-14.611589
 31
0.0
  0
LINE
  5
E8162
330
18
100
AcDbEntity
  8
1
100
AcDbLine
 10
45.482203
 20
-13.996997
 30
0.0
 11
44.867618
 21
-14.611582
 31
0.0
  0
LINE
  5
E8163
330
18
100
AcDbEntity
  8
1
100
AcDbLine
 10
45.059074
 20
-14.068767
 30
0.0
 11
44.785156
 21
-14.342686
 31
0.0
  0
LINE
  5
E8164
330
18
100
AcDbEntity
  8
1
100
AcDbLine
 10
45.059074
 20
-14.068767
 30
0.0
 11
45.482203
 21
-13.996997
 31
0.0
  0
LINE
  5
E8165
330
18
100
AcDbEntity
  8
1
100
AcDbLine
 10
46.545126
 20
-16.499418
 30
0.0
 11
39.499425
 21
-23.545118
 31
0.0
  0
LINE
  5
E8166
330
18
100
AcDbEntity
  8
1
100
AcDbLine
 10
37.713064
 20
-23.55189800000001
 30
0.0
 11
38.668081
 21
-24.506915
 31
0.0
  0
LINE
  5
E8167
330
18
100
AcDbEntity
  8
1
100
AcDbLine
 10
46.55189899999998
 20
-14.713064
 30
0.0
 11
47.50691599999998
 21
-15.668081
 31
0.0
  0
LINE
  5
E8168
330
18
100
AcDbEntity
  8
1
100
AcDbLine
 10
47.463508
 20
-15.624673
 30
0.0
 11
46.26715899999999
 21
-14.428324
 31
0.0
  0
LINE
  5
E8169
330
18
100
AcDbEntity
  8
1
100
AcDbLine
 10
47.500111
 20
-17.454426
 30
0.0
 11
40.454427
 21
-24.50011
 31
0.0
  0
LINE
  5
E816A
330
18
100
AcDbEntity
  8
1
100
AcDbLine
 10
40.411013
 20
-24.456697
 30
0.0
 11
47.45669699999999
 21
-17.411013
 31
0.0
  0
LINE
  5
E816B
330
18
100
AcDbEntity
  8
1
100
AcDbLine
 10
38.668061
 20
-24.50689500000001
 30
0.0
 11
38.624647
 21
-24.463482
 31
0.0
  0
LINE
  5
E816C
330
18
100
AcDbEntity
  8
1
100
AcDbLine
 10
38.624647
 20
-24.463482
 30
0.0
 11
37.428324
 21
-23.267159
 31
0.0
  0
LINE
  5
E816D
330
18
100
AcDbEntity
  8
1
100
AcDbLine
 10
40.454427
 20
-24.50011
 30
0.0
 11
40.411013
 21
-24.456697
 31
0.0
  0
LINE
  5
E816E
330
18
100
AcDbEntity
  8
1
100
AcDbLine
 10
47.500111
 20
-17.454426
 30
0.0
 11
47.45669699999999
 21
-17.411013
 31
0.0
  0
LINE
  5
E816F
330
18
100
AcDbEntity
  8
1
100
AcDbLine
 10
39.499425
 20
-23.545118
 30
0.0
 11
40.454427
 21
-24.50011
 31
0.0
  0
LINE
  5
E8170
330
18
100
AcDbEntity
  8
1
100
AcDbLine
 10
47.500111
 20
-17.454426
 30
0.0
 11
46.545126
 21
-16.499418
 31
0.0
  0
LINE
  5
E8171
330
18
100
AcDbEntity
  8
1
100
AcDbLine
 10
43.002981
 20
-21.887037
 30
0.0
 11
43.003029
 21
-21.887061
 31
0.0
  0
LINE
  5
E8172
330
18
100
AcDbEntity
  8
1
100
AcDbLine
 10
20.0
 20
20.0
 30
0.0
 11
0.0000000000000012
 21
20.0
 31
0.0
  0
LINE
  5
E8173
330
18
100
AcDbEntity
  8
1
100
AcDbLine
 10
0.0000000000000012
 20
20.0
 30
0.0
 11
-0.0000000000000012
 21
-20.0
 31
0.0
  0
LINE
  5
E8174
330
18
100
AcDbEntity
  8
SK1
100
AcDbLine
 10
-24.0
 20
13.173775
 30
0.0
 11
-24.0
 21
-13.173775
 31
0.0
  0
LINE
  5
E8175
330
18
100
AcDbEntity
  8
SK1
100
AcDbLine
 10
-1.599999999999999
 20
14.0625
 30
0.0
 11
-1.6
 21
-14.0625
 31
0.0
  0
LINE
  5
E8176
330
18
100
AcDbEntity
  8
SK1
100
AcDbLine
 10
0.0000000000000009
 20
13.912453
 30
0.0
 11
-1.599999999999999
 21
13.87245
 31
0.0
  0
LINE
  5
E8177
330
18
100
AcDbEntity
  8
SK1
100
AcDbLine
 10
-1.6
 20
-13.87245
 30
0.0
 11
0.0037489999999992
 21
-13.912547
 31
0.0
  0
LINE
  5
E8178
330
18
100
AcDbEntity
  8
1
100
AcDbLine
 10
6.663396999999998
 20
-6.169805999999997
 30
0.0
 11
6.663408999999997
 21
-19.02459
 31
0.0
  0
LINE
  5
E8179
330
18
100
AcDbEntity
  8
1
100
AcDbLine
 10
6.923205
 20
-5.859963999999997
 30
0.0
 11
6.923204999999997
 21
-19.12226
 31
0.0
  0
LINE
  5
E817A
330
18
100
AcDbEntity
  8
1
100
AcDbLine
 10
9.076794999999997
 20
-5.859963999999997
 30
0.0
 11
9.076794999999997
 21
-19.12226
 31
0.0
  0
LINE
  5
E817B
330
18
100
AcDbEntity
  8
1
100
AcDbLine
 10
9.336603
 20
-6.169805999999997
 30
0.0
 11
9.336590999999996
 21
-19.02459
 31
0.0
  0
LINE
  5
E817C
330
18
100
AcDbEntity
  8
1
100
AcDbLine
 10
6.663396999999998
 20
6.169805999999997
 30
0.0
 11
6.663408999999997
 21
19.02459
 31
0.0
  0
LINE
  5
E817D
330
18
100
AcDbEntity
  8
1
100
AcDbLine
 10
6.923205
 20
5.859963999999997
 30
0.0
 11
6.923205000000001
 21
19.12226
 31
0.0
  0
LINE
  5
E817E
330
18
100
AcDbEntity
  8
1
100
AcDbLine
 10
9.076794999999997
 20
5.859963999999997
 30
0.0
 11
9.076794999999997
 21
19.12226
 31
0.0
  0
LINE
  5
E817F
330
18
100
AcDbEntity
  8
1
100
AcDbLine
 10
9.336603
 20
6.169805999999997
 30
0.0
 11
9.336591000000002
 21
19.02459
 31
0.0
  0
LINE
  5
E8180
330
18
100
AcDbEntity
  8
SK1
100
AcDbLine
 10
-23.5
 20
13.46245
 30
0.0
 11
-23.5
 21
-13.46245
 31
0.0
  0
LINE
  5
E8181
330
18
100
AcDbEntity
  8
1
100
AcDbLine
 10
20.0
 20
-20.0
 30
0.0
 11
-0.0000000000000012
 21
-20.0
 31
0.0
  0
LINE
  5
E8182
330
18
100
AcDbEntity
  8
SK1
100
AcDbLine
 10
-1.599999999999999
 20
14.0625
 30
0.0
 11
-23.5
 21
13.46245
 31
0.0
  0
LINE
  5
E8183
330
18
100
AcDbEntity
  8
SK1
100
AcDbLine
 10
-1.6
 20
-14.0625
 30
0.0
 11
-23.5
 21
-13.46245
 31
0.0
  0
LINE
  5
E8184
330
18
100
AcDbEntity
  8
SK1
100
AcDbLine
 10
-24.0
 20
13.173775
 30
0.0
 11
-23.5
 21
13.46245
 31
0.0
  0
LINE
  5
E8185
330
18
100
AcDbEntity
  8
SK1
100
AcDbLine
 10
-24.0
 20
-13.173775
 30
0.0
 11
-23.5
 21
-13.46245
 31
0.0
  0
LINE
  5
E8186
330
18
100
AcDbEntity
  8
1
100
AcDbLine
 10
50.0
 20
-26.9
 30
0.0
 11
50.0
 21
-27.00000000000001
 31
0.0
  0
LINE
  5
E8187
330
18
100
AcDbEntity
  8
1
100
AcDbLine
 10
42.221825
 20
-34.778175
 30
0.0
 11
42.22111799999999
 21
-34.77888200000001
 31
0.0
  0
LINE
  5
E8188
330
18
100
AcDbEntity
  8
1
100
AcDbLine
 10
37.156257
 20
-22.99509200000001
 30
0.0
 11
37.713064
 21
-23.55189800000001
 31
0.0
  0
LINE
  5
E8189
330
18
100
AcDbEntity
  8
1
100
AcDbLine
 10
44.04306599999999
 20
-12.204231
 30
0.0
 11
46.26715899999999
 21
-14.428324
 31
0.0
  0
LINE
  5
E818A
330
18
100
AcDbEntity
  8
1
100
AcDbLine
 10
35.20423
 20
-21.04306600000001
 30
0.0
 11
37.428323
 21
-23.267159
 31
0.0
  0
LINE
  5
E818B
330
18
100
AcDbEntity
  8
1
100
AcDbLine
 10
45.99509199999999
 20
-14.156257
 30
0.0
 11
46.55189899999998
 21
-14.713064
 31
0.0
  0
LINE
  5
E818C
330
18
100
AcDbEntity
  8
1
100
AcDbLine
 10
49.838762
 20
-19.714245
 30
0.0
 11
49.873714
 21
-20.07378500000001
 31
0.0
  0
LINE
  5
E818D
330
18
100
AcDbEntity
  8
1
100
AcDbLine
 10
49.873714
 20
-20.07378500000001
 30
0.0
 11
49.888007
 21
-20.43496000000001
 31
0.0
  0
LINE
  5
E818E
330
18
100
AcDbEntity
  8
1
100
AcDbLine
 10
49.888007
 20
-20.43496000000001
 30
0.0
 11
49.881594
 21
-20.796587
 31
0.0
  0
LINE
  5
E818F
330
18
100
AcDbEntity
  8
1
100
AcDbLine
 10
49.881594
 20
-20.796587
 30
0.0
 11
49.854495
 21
-21.15748100000001
 31
0.0
  0
LINE
  5
E8190
330
18
100
AcDbEntity
  8
1
100
AcDbLine
 10
49.854495
 20
-21.15748100000001
 30
0.0
 11
49.8068
 21
-21.516458
 31
0.0
  0
LINE
  5
E8191
330
18
100
AcDbEntity
  8
1
100
AcDbLine
 10
49.8068
 20
-21.516458
 30
0.0
 11
49.738665
 21
-21.87234
 31
0.0
  0
LINE
  5
E8192
330
18
100
AcDbEntity
  8
1
100
AcDbLine
 10
49.738665
 20
-21.87234
 30
0.0
 11
49.65031299999999
 21
-22.223961
 31
0.0
  0
LINE
  5
E8193
330
18
100
AcDbEntity
  8
1
100
AcDbLine
 10
49.65031299999999
 20
-22.223961
 30
0.0
 11
49.542035
 21
-22.570169
 31
0.0
  0
LINE
  5
E8194
330
18
100
AcDbEntity
  8
1
100
AcDbLine
 10
49.542035
 20
-22.570169
 30
0.0
 11
49.414184
 21
-22.909828
 31
0.0
  0
LINE
  5
E8195
330
18
100
AcDbEntity
  8
1
100
AcDbLine
 10
49.414184
 20
-22.909828
 30
0.0
 11
49.267181
 21
-23.241823
 31
0.0
  0
LINE
  5
E8196
330
18
100
AcDbEntity
  8
1
100
AcDbLine
 10
49.267181
 20
-23.241823
 30
0.0
 11
49.10150699999999
 21
-23.565068
 31
0.0
  0
LINE
  5
E8197
330
18
100
AcDbEntity
  8
1
100
AcDbLine
 10
49.10150699999999
 20
-23.565068
 30
0.0
 11
48.91770499999999
 21
-23.878502
 31
0.0
  0
LINE
  5
E8198
330
18
100
AcDbEntity
  8
1
100
AcDbLine
 10
48.91770499999999
 20
-23.878502
 30
0.0
 11
48.71637800000002
 21
-24.181097
 31
0.0
  0
LINE
  5
E8199
330
18
100
AcDbEntity
  8
1
100
AcDbLine
 10
48.71637800000002
 20
-24.181097
 30
0.0
 11
48.498187
 21
-24.471861
 31
0.0
  0
LINE
  5
E819A
330
18
100
AcDbEntity
  8
1
100
AcDbLine
 10
48.498187
 20
-24.471861
 30
0.0
 11
48.263846
 21
-24.74984
 31
0.0
  0
LINE
  5
E819B
330
18
100
AcDbEntity
  8
1
100
AcDbLine
 10
48.263846
 20
-24.74984
 30
0.0
 11
48.014124
 21
-25.014124
 31
0.0
  0
LINE
  5
E819C
330
18
100
AcDbEntity
  8
1
100
AcDbLine
 10
48.014124
 20
-25.014124
 30
0.0
 11
47.74983999999999
 21
-25.263846
 31
0.0
  0
LINE
  5
E819D
330
18
100
AcDbEntity
  8
1
100
AcDbLine
 10
47.74983999999999
 20
-25.263846
 30
0.0
 11
47.47186099999999
 21
-25.498187
 31
0.0
  0
LINE
  5
E819E
330
18
100
AcDbEntity
  8
1
100
AcDbLine
 10
47.47186099999999
 20
-25.498187
 30
0.0
 11
47.18109699999998
 21
-25.716378
 31
0.0
  0
LINE
  5
E819F
330
18
100
AcDbEntity
  8
1
100
AcDbLine
 10
47.18109699999998
 20
-25.716378
 30
0.0
 11
46.878502
 21
-25.917705
 31
0.0
  0
LINE
  5
E81A0
330
18
100
AcDbEntity
  8
1
100
AcDbLine
 10
46.878502
 20
-25.917705
 30
0.0
 11
46.56506799999998
 21
-26.10150600000001
 31
0.0
  0
LINE
  5
E81A1
330
18
100
AcDbEntity
  8
1
100
AcDbLine
 10
46.56506799999998
 20
-26.10150600000001
 30
0.0
 11
46.241824
 21
-26.26718100000001
 31
0.0
  0
LINE
  5
E81A2
330
18
100
AcDbEntity
  8
1
100
AcDbLine
 10
46.241824
 20
-26.26718100000001
 30
0.0
 11
45.909828
 21
-26.41418400000001
 31
0.0
  0
LINE
  5
E81A3
330
18
100
AcDbEntity
  8
1
100
AcDbLine
 10
45.909828
 20
-26.41418400000001
 30
0.0
 11
45.57016899999999
 21
-26.542035
 31
0.0
  0
LINE
  5
E81A4
330
18
100
AcDbEntity
  8
1
100
AcDbLine
 10
45.57016899999999
 20
-26.542035
 30
0.0
 11
45.22396099999999
 21
-26.65031300000001
 31
0.0
  0
LINE
  5
E81A5
330
18
100
AcDbEntity
  8
1
100
AcDbLine
 10
45.22396099999999
 20
-26.65031300000001
 30
0.0
 11
44.87233999999999
 21
-26.73866500000001
 31
0.0
  0
LINE
  5
E81A6
330
18
100
AcDbEntity
  8
1
100
AcDbLine
 10
44.87233999999999
 20
-26.73866500000001
 30
0.0
 11
44.516458
 21
-26.80680000000001
 31
0.0
  0
LINE
  5
E81A7
330
18
100
AcDbEntity
  8
1
100
AcDbLine
 10
44.516458
 20
-26.80680000000001
 30
0.0
 11
44.157481
 21
-26.85449500000001
 31
0.0
  0
LINE
  5
E81A8
330
18
100
AcDbEntity
  8
1
100
AcDbLine
 10
44.157481
 20
-26.85449500000001
 30
0.0
 11
43.796588
 21
-26.881594
 31
0.0
  0
LINE
  5
E81A9
330
18
100
AcDbEntity
  8
1
100
AcDbLine
 10
43.796588
 20
-26.881594
 30
0.0
 11
43.43496
 21
-26.88800700000001
 31
0.0
  0
LINE
  5
E81AA
330
18
100
AcDbEntity
  8
1
100
AcDbLine
 10
43.43496
 20
-26.88800700000001
 30
0.0
 11
43.073785
 21
-26.873714
 31
0.0
  0
LINE
  5
E81AB
330
18
100
AcDbEntity
  8
1
100
AcDbLine
 10
43.073785
 20
-26.873714
 30
0.0
 11
42.714245
 21
-26.838762
 31
0.0
  0
LINE
  5
E81AC
330
18
100
AcDbEntity
  8
1
100
AcDbLine
 10
30.102326
 20
-2.364708999999999
 30
0.0
 11
30.320389
 21
-2.166920999999998
 31
0.0
  0
LINE
  5
E81AD
330
18
100
AcDbEntity
  8
1
100
AcDbLine
 10
30.320389
 20
-2.166920999999998
 30
0.0
 11
30.556627
 21
-1.991311999999999
 31
0.0
  0
LINE
  5
E81AE
330
18
100
AcDbEntity
  8
1
100
AcDbLine
 10
30.556627
 20
-1.991311999999999
 30
0.0
 11
30.808765
 21
-1.839574999999999
 31
0.0
  0
LINE
  5
E81AF
330
18
100
AcDbEntity
  8
1
100
AcDbLine
 10
30.808765
 20
-1.839574999999999
 30
0.0
 11
31.074374
 21
-1.713168999999999
 31
0.0
  0
LINE
  5
E81B0
330
18
100
AcDbEntity
  8
1
100
AcDbLine
 10
31.074374
 20
-1.713168999999999
 30
0.0
 11
31.35089600000001
 21
-1.613312999999999
 31
0.0
  0
LINE
  5
E81B1
330
18
100
AcDbEntity
  8
1
100
AcDbLine
 10
31.35089600000001
 20
-1.613312999999999
 30
0.0
 11
31.63567
 21
-1.540969000000002
 31
0.0
  0
LINE
  5
E81B2
330
18
100
AcDbEntity
  8
1
100
AcDbLine
 10
31.63567
 20
-1.540969000000002
 30
0.0
 11
31.925951
 21
-1.496831999999999
 31
0.0
  0
LINE
  5
E81B3
330
18
100
AcDbEntity
  8
1
100
AcDbLine
 10
31.925951
 20
-1.496831999999999
 30
0.0
 11
32.218944
 21
-1.481328000000002
 31
0.0
  0
LINE
  5
E81B4
330
18
100
AcDbEntity
  8
1
100
AcDbLine
 10
32.218944
 20
-1.481328000000002
 30
0.0
 11
32.511828
 21
-1.494607000000002
 31
0.0
  0
LINE
  5
E81B5
330
18
100
AcDbEntity
  8
1
100
AcDbLine
 10
32.511828
 20
-1.494607000000002
 30
0.0
 11
32.801782
 21
-1.536540000000002
 31
0.0
  0
LINE
  5
E81B6
330
18
100
AcDbEntity
  8
1
100
AcDbLine
 10
32.801782
 20
-1.536540000000002
 30
0.0
 11
33.086014
 21
-1.606724000000002
 31
0.0
  0
LINE
  5
E81B7
330
18
100
AcDbEntity
  8
1
100
AcDbLine
 10
33.086014
 20
-1.606724000000002
 30
0.0
 11
33.361786
 21
-1.704482000000002
 31
0.0
  0
LINE
  5
E81B8
330
18
100
AcDbEntity
  8
1
100
AcDbLine
 10
33.361786
 20
-1.704482000000002
 30
0.0
 11
33.626442
 21
-1.828872999999999
 31
0.0
  0
LINE
  5
E81B9
330
18
100
AcDbEntity
  8
1
100
AcDbLine
 10
33.626442
 20
-1.828872999999999
 30
0.0
 11
33.877435
 21
-1.978699999999999
 31
0.0
  0
LINE
  5
E81BA
330
18
100
AcDbEntity
  8
1
100
AcDbLine
 10
33.877435
 20
-1.978699999999999
 30
0.0
 11
34.112345
 21
-2.152519000000002
 31
0.0
  0
LINE
  5
E81BB
330
18
100
AcDbEntity
  8
1
100
AcDbLine
 10
34.112345
 20
-2.152519000000002
 30
0.0
 11
34.328912
 21
-2.348657000000001
 31
0.0
  0
LINE
  5
E81BC
330
18
100
AcDbEntity
  8
1
100
AcDbLine
 10
25.348656
 20
-11.328913
 30
0.0
 11
25.152519
 21
-11.112346
 31
0.0
  0
LINE
  5
E81BD
330
18
100
AcDbEntity
  8
1
100
AcDbLine
 10
25.152519
 20
-11.112346
 30
0.0
 11
24.978699
 21
-10.877435
 31
0.0
  0
LINE
  5
E81BE
330
18
100
AcDbEntity
  8
1
100
AcDbLine
 10
24.978699
 20
-10.877435
 30
0.0
 11
24.828873
 21
-10.626442
 31
0.0
  0
LINE
  5
E81BF
330
18
100
AcDbEntity
  8
1
100
AcDbLine
 10
24.828873
 20
-10.626442
 30
0.0
 11
24.704481
 21
-10.361786
 31
0.0
  0
LINE
  5
E81C0
330
18
100
AcDbEntity
  8
1
100
AcDbLine
 10
24.704481
 20
-10.361786
 30
0.0
 11
24.60672300000001
 21
-10.086013
 31
0.0
  0
LINE
  5
E81C1
330
18
100
AcDbEntity
  8
1
100
AcDbLine
 10
24.60672300000001
 20
-10.086013
 30
0.0
 11
24.536539
 21
-9.801782000000002
 31
0.0
  0
LINE
  5
E81C2
330
18
100
AcDbEntity
  8
1
100
AcDbLine
 10
24.536539
 20
-9.801782000000002
 30
0.0
 11
24.494606
 21
-9.511827000000002
 31
0.0
  0
LINE
  5
E81C3
330
18
100
AcDbEntity
  8
1
100
AcDbLine
 10
24.494606
 20
-9.511827000000002
 30
0.0
 11
24.481328
 21
-9.218942999999999
 31
0.0
  0
LINE
  5
E81C4
330
18
100
AcDbEntity
  8
1
100
AcDbLine
 10
24.481328
 20
-9.218942999999999
 30
0.0
 11
24.496832
 21
-8.925949000000002
 31
0.0
  0
LINE
  5
E81C5
330
18
100
AcDbEntity
  8
1
100
AcDbLine
 10
24.496832
 20
-8.925949000000002
 30
0.0
 11
24.540968
 21
-8.635667999999999
 31
0.0
  0
LINE
  5
E81C6
330
18
100
AcDbEntity
  8
1
100
AcDbLine
 10
24.540968
 20
-8.635667999999999
 30
0.0
 11
24.613313
 21
-8.350895000000001
 31
0.0
  0
LINE
  5
E81C7
330
18
100
AcDbEntity
  8
1
100
AcDbLine
 10
24.613313
 20
-8.350895000000001
 30
0.0
 11
24.713169
 21
-8.074372000000002
 31
0.0
  0
LINE
  5
E81C8
330
18
100
AcDbEntity
  8
1
100
AcDbLine
 10
24.713169
 20
-8.074372000000002
 30
0.0
 11
24.839575
 21
-7.808763000000002
 31
0.0
  0
LINE
  5
E81C9
330
18
100
AcDbEntity
  8
1
100
AcDbLine
 10
24.839575
 20
-7.808763000000002
 30
0.0
 11
24.991313
 21
-7.556625000000002
 31
0.0
  0
LINE
  5
E81CA
330
18
100
AcDbEntity
  8
1
100
AcDbLine
 10
24.991313
 20
-7.556625000000002
 30
0.0
 11
25.166922
 21
-7.320387000000001
 31
0.0
  0
LINE
  5
E81CB
330
18
100
AcDbEntity
  8
1
100
AcDbLine
 10
25.166922
 20
-7.320387000000001
 30
0.0
 11
25.36471000000001
 21
-7.102324000000002
 31
0.0
  0
LINE
  5
E81CC
330
18
100
AcDbEntity
  8
1
100
AcDbLine
 10
29.494541
 20
-1.756923
 30
0.0
 11
29.712604
 21
-1.559134999999999
 31
0.0
  0
LINE
  5
E81CD
330
18
100
AcDbEntity
  8
1
100
AcDbLine
 10
29.712604
 20
-1.559134999999999
 30
0.0
 11
29.948842
 21
-1.383526
 31
0.0
  0
LINE
  5
E81CE
330
18
100
AcDbEntity
  8
1
100
AcDbLine
 10
29.948842
 20
-1.383526
 30
0.0
 11
30.200979
 21
-1.231789000000001
 31
0.0
  0
LINE
  5
E81CF
330
18
100
AcDbEntity
  8
1
100
AcDbLine
 10
30.200979
 20
-1.231789000000001
 30
0.0
 11
30.46658900000001
 21
-1.105383000000001
 31
0.0
  0
LINE
  5
E81D0
330
18
100
AcDbEntity
  8
1
100
AcDbLine
 10
30.46658900000001
 20
-1.105383000000001
 30
0.0
 11
30.743111
 21
-1.005528000000001
 31
0.0
  0
LINE
  5
E81D1
330
18
100
AcDbEntity
  8
1
100
AcDbLine
 10
30.743111
 20
-1.005528000000001
 30
0.0
 11
31.02788400000001
 21
-0.9331830000000016
 31
0.0
  0
LINE
  5
E81D2
330
18
100
AcDbEntity
  8
1
100
AcDbLine
 10
31.02788400000001
 20
-0.9331830000000016
 30
0.0
 11
31.31816500000001
 21
-0.8890460000000018
 31
0.0
  0
LINE
  5
E81D3
330
18
100
AcDbEntity
  8
1
100
AcDbLine
 10
31.31816500000001
 20
-0.8890460000000018
 30
0.0
 11
31.611159
 21
-0.8735430000000018
 31
0.0
  0
LINE
  5
E81D4
330
18
100
AcDbEntity
  8
1
100
AcDbLine
 10
31.611159
 20
-0.8735430000000018
 30
0.0
 11
31.904043
 21
-0.8868210000000019
 31
0.0
  0
LINE
  5
E81D5
330
18
100
AcDbEntity
  8
1
100
AcDbLine
 10
31.904043
 20
-0.8868210000000019
 30
0.0
 11
32.193997
 21
-0.9287540000000019
 31
0.0
  0
LINE
  5
E81D6
330
18
100
AcDbEntity
  8
1
100
AcDbLine
 10
32.193997
 20
-0.9287540000000019
 30
0.0
 11
32.478229
 21
-0.9989380000000018
 31
0.0
  0
LINE
  5
E81D7
330
18
100
AcDbEntity
  8
1
100
AcDbLine
 10
32.478229
 20
-0.9989380000000018
 30
0.0
 11
32.75400100000001
 21
-1.096696000000001
 31
0.0
  0
LINE
  5
E81D8
330
18
100
AcDbEntity
  8
1
100
AcDbLine
 10
32.75400100000001
 20
-1.096696000000001
 30
0.0
 11
33.018657
 21
-1.221088000000001
 31
0.0
  0
LINE
  5
E81D9
330
18
100
AcDbEntity
  8
1
100
AcDbLine
 10
33.018657
 20
-1.221088000000001
 30
0.0
 11
33.269649
 21
-1.370913999999999
 31
0.0
  0
LINE
  5
E81DA
330
18
100
AcDbEntity
  8
1
100
AcDbLine
 10
33.269649
 20
-1.370913999999999
 30
0.0
 11
33.50456
 21
-1.544734000000002
 31
0.0
  0
LINE
  5
E81DB
330
18
100
AcDbEntity
  8
1
100
AcDbLine
 10
33.50456
 20
-1.544734000000002
 30
0.0
 11
33.72112700000001
 21
-1.740870999999999
 31
0.0
  0
LINE
  5
E81DC
330
18
100
AcDbEntity
  8
1
100
AcDbLine
 10
24.740871
 20
-10.721127
 30
0.0
 11
24.544733
 21
-10.50456
 31
0.0
  0
LINE
  5
E81DD
330
18
100
AcDbEntity
  8
1
100
AcDbLine
 10
24.544733
 20
-10.50456
 30
0.0
 11
24.370914
 21
-10.269649
 31
0.0
  0
LINE
  5
E81DE
330
18
100
AcDbEntity
  8
1
100
AcDbLine
 10
24.370914
 20
-10.269649
 30
0.0
 11
24.221087
 21
-10.018657
 31
0.0
  0
LINE
  5
E81DF
330
18
100
AcDbEntity
  8
1
100
AcDbLine
 10
24.221087
 20
-10.018657
 30
0.0
 11
24.096696
 21
-9.753999999999999
 31
0.0
  0
LINE
  5
E81E0
330
18
100
AcDbEntity
  8
1
100
AcDbLine
 10
24.096696
 20
-9.753999999999999
 30
0.0
 11
23.998938
 21
-9.478227999999999
 31
0.0
  0
LINE
  5
E81E1
330
18
100
AcDbEntity
  8
1
100
AcDbLine
 10
23.998938
 20
-9.478227999999999
 30
0.0
 11
23.928754
 21
-9.193996000000002
 31
0.0
  0
LINE
  5
E81E2
330
18
100
AcDbEntity
  8
1
100
AcDbLine
 10
23.928754
 20
-9.193996000000002
 30
0.0
 11
23.886821
 21
-8.904041000000002
 31
0.0
  0
LINE
  5
E81E3
330
18
100
AcDbEntity
  8
1
100
AcDbLine
 10
23.886821
 20
-8.904041000000002
 30
0.0
 11
23.873543
 21
-8.611157000000002
 31
0.0
  0
LINE
  5
E81E4
330
18
100
AcDbEntity
  8
1
100
AcDbLine
 10
23.873543
 20
-8.611157000000002
 30
0.0
 11
23.889046
 21
-8.318164000000001
 31
0.0
  0
LINE
  5
E81E5
330
18
100
AcDbEntity
  8
1
100
AcDbLine
 10
23.889046
 20
-8.318164000000001
 30
0.0
 11
23.933183
 21
-8.027883000000002
 31
0.0
  0
LINE
  5
E81E6
330
18
100
AcDbEntity
  8
1
100
AcDbLine
 10
23.933183
 20
-8.027883000000002
 30
0.0
 11
24.005528
 21
-7.743109000000001
 31
0.0
  0
LINE
  5
E81E7
330
18
100
AcDbEntity
  8
1
100
AcDbLine
 10
24.005528
 20
-7.743109000000001
 30
0.0
 11
24.105384
 21
-7.466587000000001
 31
0.0
  0
LINE
  5
E81E8
330
18
100
AcDbEntity
  8
1
100
AcDbLine
 10
24.105384
 20
-7.466587000000001
 30
0.0
 11
24.23179
 21
-7.200977000000002
 31
0.0
  0
LINE
  5
E81E9
330
18
100
AcDbEntity
  8
1
100
AcDbLine
 10
24.23179
 20
-7.200977000000002
 30
0.0
 11
24.383528
 21
-6.948840000000001
 31
0.0
  0
LINE
  5
E81EA
330
18
100
AcDbEntity
  8
1
100
AcDbLine
 10
24.383528
 20
-6.948840000000001
 30
0.0
 11
24.559137
 21
-6.712602000000002
 31
0.0
  0
LINE
  5
E81EB
330
18
100
AcDbEntity
  8
1
100
AcDbLine
 10
24.559137
 20
-6.712602000000002
 30
0.0
 11
24.756925
 21
-6.494538000000001
 31
0.0
  0
LINE
  5
E81EC
330
18
100
AcDbEntity
  8
1
100
AcDbLine
 10
28.610714
 20
-5.61071
 30
0.0
 11
28.992324
 21
-5.264581000000001
 31
0.0
  0
LINE
  5
E81ED
330
18
100
AcDbEntity
  8
1
100
AcDbLine
 10
28.992324
 20
-5.264581000000001
 30
0.0
 11
29.405741
 21
-4.957266000000001
 31
0.0
  0
LINE
  5
E81EE
330
18
100
AcDbEntity
  8
1
100
AcDbLine
 10
29.405741
 20
-4.957266000000001
 30
0.0
 11
29.846982
 21
-4.691724999999999
 31
0.0
  0
LINE
  5
E81EF
330
18
100
AcDbEntity
  8
1
100
AcDbLine
 10
29.846982
 20
-4.691724999999999
 30
0.0
 11
30.311798
 21
-4.470515999999999
 31
0.0
  0
LINE
  5
E81F0
330
18
100
AcDbEntity
  8
1
100
AcDbLine
 10
30.311798
 20
-4.470515999999999
 30
0.0
 11
30.795713
 21
-4.295768000000001
 31
0.0
  0
LINE
  5
E81F1
330
18
100
AcDbEntity
  8
1
100
AcDbLine
 10
30.795713
 20
-4.295768000000001
 30
0.0
 11
31.294066
 21
-4.169165000000002
 31
0.0
  0
LINE
  5
E81F2
330
18
100
AcDbEntity
  8
1
100
AcDbLine
 10
31.294066
 20
-4.169165000000002
 30
0.0
 11
31.802058
 21
-4.091925999999999
 31
0.0
  0
LINE
  5
E81F3
330
18
100
AcDbEntity
  8
1
100
AcDbLine
 10
31.802058
 20
-4.091925999999999
 30
0.0
 11
32.314796
 21
-4.064795000000001
 31
0.0
  0
LINE
  5
E81F4
330
18
100
AcDbEntity
  8
1
100
AcDbLine
 10
32.314796
 20
-4.064795000000001
 30
0.0
 11
32.82734400000001
 21
-4.088032
 31
0.0
  0
LINE
  5
E81F5
330
18
100
AcDbEntity
  8
1
100
AcDbLine
 10
32.82734400000001
 20
-4.088032
 30
0.0
 11
33.334763
 21
-4.161414999999998
 31
0.0
  0
LINE
  5
E81F6
330
18
100
AcDbEntity
  8
1
100
AcDbLine
 10
33.334763
 20
-4.161414999999998
 30
0.0
 11
33.832169
 21
-4.284237
 31
0.0
  0
LINE
  5
E81F7
330
18
100
AcDbEntity
  8
1
100
AcDbLine
 10
33.832169
 20
-4.284237
 30
0.0
 11
34.31477
 21
-4.455314000000001
 31
0.0
  0
LINE
  5
E81F8
330
18
100
AcDbEntity
  8
1
100
AcDbLine
 10
34.31477
 20
-4.455314000000001
 30
0.0
 11
34.777919
 21
-4.672998999999999
 31
0.0
  0
LINE
  5
E81F9
330
18
100
AcDbEntity
  8
1
100
AcDbLine
 10
34.777919
 20
-4.672998999999999
 30
0.0
 11
35.217156
 21
-4.935196000000001
 31
0.0
  0
LINE
  5
E81FA
330
18
100
AcDbEntity
  8
1
100
AcDbLine
 10
35.217156
 20
-4.935196000000001
 30
0.0
 11
35.628249
 21
-5.239380000000001
 31
0.0
  0
LINE
  5
E81FB
330
18
100
AcDbEntity
  8
1
100
AcDbLine
 10
35.628249
 20
-5.239380000000001
 30
0.0
 11
36.007241
 21
-5.582621000000001
 31
0.0
  0
LINE
  5
E81FC
330
18
100
AcDbEntity
  8
1
100
AcDbLine
 10
36.007241
 20
-5.582621000000001
 30
0.0
 11
36.350482
 21
-5.961613000000002
 31
0.0
  0
LINE
  5
E81FD
330
18
100
AcDbEntity
  8
1
100
AcDbLine
 10
36.350482
 20
-5.961613000000002
 30
0.0
 11
36.654665
 21
-6.372707000000002
 31
0.0
  0
LINE
  5
E81FE
330
18
100
AcDbEntity
  8
1
100
AcDbLine
 10
36.654665
 20
-6.372707000000002
 30
0.0
 11
36.916862
 21
-6.811944000000002
 31
0.0
  0
LINE
  5
E81FF
330
18
100
AcDbEntity
  8
1
100
AcDbLine
 10
36.916862
 20
-6.811944000000002
 30
0.0
 11
37.134547
 21
-7.275092999999999
 31
0.0
  0
LINE
  5
E8200
330
18
100
AcDbEntity
  8
1
100
AcDbLine
 10
37.134547
 20
-7.275092999999999
 30
0.0
 11
37.305624
 21
-7.757694000000002
 31
0.0
  0
LINE
  5
E8201
330
18
100
AcDbEntity
  8
1
100
AcDbLine
 10
37.305624
 20
-7.757694000000002
 30
0.0
 11
37.428445
 21
-8.255100000000002
 31
0.0
  0
LINE
  5
E8202
330
18
100
AcDbEntity
  8
1
100
AcDbLine
 10
37.428445
 20
-8.255100000000002
 30
0.0
 11
37.50182800000001
 21
-8.762520000000002
 31
0.0
  0
LINE
  5
E8203
330
18
100
AcDbEntity
  8
1
100
AcDbLine
 10
37.50182800000001
 20
-8.762520000000002
 30
0.0
 11
37.52506500000001
 21
-9.275066999999999
 31
0.0
  0
LINE
  5
E8204
330
18
100
AcDbEntity
  8
1
100
AcDbLine
 10
37.52506500000001
 20
-9.275066999999999
 30
0.0
 11
37.497933
 21
-9.787805999999999
 31
0.0
  0
LINE
  5
E8205
330
18
100
AcDbEntity
  8
1
100
AcDbLine
 10
37.497933
 20
-9.787805999999999
 30
0.0
 11
37.420694
 21
-10.295797
 31
0.0
  0
LINE
  5
E8206
330
18
100
AcDbEntity
  8
1
100
AcDbLine
 10
37.420694
 20
-10.295797
 30
0.0
 11
37.29409
 21
-10.79415
 31
0.0
  0
LINE
  5
E8207
330
18
100
AcDbEntity
  8
1
100
AcDbLine
 10
37.29409
 20
-10.79415
 30
0.0
 11
37.119342
 21
-11.278065
 31
0.0
  0
LINE
  5
E8208
330
18
100
AcDbEntity
  8
1
100
AcDbLine
 10
37.119342
 20
-11.278065
 30
0.0
 11
36.89813200000001
 21
-11.742881
 31
0.0
  0
LINE
  5
E8209
330
18
100
AcDbEntity
  8
1
100
AcDbLine
 10
36.89813200000001
 20
-11.742881
 30
0.0
 11
36.632591
 21
-12.184122
 31
0.0
  0
LINE
  5
E820A
330
18
100
AcDbEntity
  8
1
100
AcDbLine
 10
36.632591
 20
-12.184122
 30
0.0
 11
36.325276
 21
-12.597538
 31
0.0
  0
LINE
  5
E820B
330
18
100
AcDbEntity
  8
1
100
AcDbLine
 10
36.325276
 20
-12.597538
 30
0.0
 11
35.979146
 21
-12.979149
 31
0.0
  0
LINE
  5
E820C
330
18
100
AcDbEntity
  8
1
100
AcDbLine
 10
35.979146
 20
-12.979149
 30
0.0
 11
35.597536
 21
-13.325278
 31
0.0
  0
LINE
  5
E820D
330
18
100
AcDbEntity
  8
1
100
AcDbLine
 10
35.597536
 20
-13.325278
 30
0.0
 11
35.184119
 21
-13.632593
 31
0.0
  0
LINE
  5
E820E
330
18
100
AcDbEntity
  8
1
100
AcDbLine
 10
35.184119
 20
-13.632593
 30
0.0
 11
34.74287800000001
 21
-13.898134
 31
0.0
  0
LINE
  5
E820F
330
18
100
AcDbEntity
  8
1
100
AcDbLine
 10
34.74287800000001
 20
-13.898134
 30
0.0
 11
34.278062
 21
-14.119344
 31
0.0
  0
LINE
  5
E8210
330
18
100
AcDbEntity
  8
1
100
AcDbLine
 10
34.278062
 20
-14.119344
 30
0.0
 11
33.794147
 21
-14.294091
 31
0.0
  0
LINE
  5
E8211
330
18
100
AcDbEntity
  8
1
100
AcDbLine
 10
33.794147
 20
-14.294091
 30
0.0
 11
33.295794
 21
-14.420695
 31
0.0
  0
LINE
  5
E8212
330
18
100
AcDbEntity
  8
1
100
AcDbLine
 10
33.295794
 20
-14.420695
 30
0.0
 11
32.787802
 21
-14.497934
 31
0.0
  0
LINE
  5
E8213
330
18
100
AcDbEntity
  8
1
100
AcDbLine
 10
32.787802
 20
-14.497934
 30
0.0
 11
32.275064
 21
-14.525065
 31
0.0
  0
LINE
  5
E8214
330
18
100
AcDbEntity
  8
1
100
AcDbLine
 10
32.275064
 20
-14.525065
 30
0.0
 11
31.762517
 21
-14.501828
 31
0.0
  0
LINE
  5
E8215
330
18
100
AcDbEntity
  8
1
100
AcDbLine
 10
31.762517
 20
-14.501828
 30
0.0
 11
31.255097
 21
-14.428445
 31
0.0
  0
LINE
  5
E8216
330
18
100
AcDbEntity
  8
1
100
AcDbLine
 10
31.255097
 20
-14.428445
 30
0.0
 11
30.757691
 21
-14.305624
 31
0.0
  0
LINE
  5
E8217
330
18
100
AcDbEntity
  8
1
100
AcDbLine
 10
30.757691
 20
-14.305624
 30
0.0
 11
30.27509
 21
-14.134547
 31
0.0
  0
LINE
  5
E8218
330
18
100
AcDbEntity
  8
1
100
AcDbLine
 10
30.27509
 20
-14.134547
 30
0.0
 11
29.811941
 21
-13.916861
 31
0.0
  0
LINE
  5
E8219
330
18
100
AcDbEntity
  8
1
100
AcDbLine
 10
29.811941
 20
-13.916861
 30
0.0
 11
29.372705
 21
-13.654664
 31
0.0
  0
LINE
  5
E821A
330
18
100
AcDbEntity
  8
1
100
AcDbLine
 10
29.372705
 20
-13.654664
 30
0.0
 11
28.961611
 21
-13.350481
 31
0.0
  0
LINE
  5
E821B
330
18
100
AcDbEntity
  8
1
100
AcDbLine
 10
28.961611
 20
-13.350481
 30
0.0
 11
28.582618
 21
-13.00724
 31
0.0
  0
LINE
  5
E821C
330
18
100
AcDbEntity
  8
1
100
AcDbLine
 10
28.582618
 20
-13.00724
 30
0.0
 11
28.239378
 21
-12.628248
 31
0.0
  0
LINE
  5
E821D
330
18
100
AcDbEntity
  8
1
100
AcDbLine
 10
28.239378
 20
-12.628248
 30
0.0
 11
27.935194
 21
-12.217154
 31
0.0
  0
LINE
  5
E821E
330
18
100
AcDbEntity
  8
1
100
AcDbLine
 10
27.935194
 20
-12.217154
 30
0.0
 11
27.672997
 21
-11.777917
 31
0.0
  0
LINE
  5
E821F
330
18
100
AcDbEntity
  8
1
100
AcDbLine
 10
27.672997
 20
-11.777917
 30
0.0
 11
27.455312
 21
-11.314768
 31
0.0
  0
LINE
  5
E8220
330
18
100
AcDbEntity
  8
1
100
AcDbLine
 10
27.455312
 20
-11.314768
 30
0.0
 11
27.284235
 21
-10.832167
 31
0.0
  0
LINE
  5
E8221
330
18
100
AcDbEntity
  8
1
100
AcDbLine
 10
27.284235
 20
-10.832167
 30
0.0
 11
27.161414
 21
-10.334761
 31
0.0
  0
LINE
  5
E8222
330
18
100
AcDbEntity
  8
1
100
AcDbLine
 10
27.161414
 20
-10.334761
 30
0.0
 11
27.088032
 21
-9.827341999999999
 31
0.0
  0
LINE
  5
E8223
330
18
100
AcDbEntity
  8
1
100
AcDbLine
 10
27.088032
 20
-9.827341999999999
 30
0.0
 11
27.064794
 21
-9.314794000000002
 31
0.0
  0
LINE
  5
E8224
330
18
100
AcDbEntity
  8
1
100
AcDbLine
 10
27.064794
 20
-9.314794000000002
 30
0.0
 11
27.091926
 21
-8.802056000000002
 31
0.0
  0
LINE
  5
E8225
330
18
100
AcDbEntity
  8
1
100
AcDbLine
 10
27.091926
 20
-8.802056000000002
 30
0.0
 11
27.169165
 21
-8.294064000000002
 31
0.0
  0
LINE
  5
E8226
330
18
100
AcDbEntity
  8
1
100
AcDbLine
 10
27.169165
 20
-8.294064000000002
 30
0.0
 11
27.295768
 21
-7.795711000000001
 31
0.0
  0
LINE
  5
E8227
330
18
100
AcDbEntity
  8
1
100
AcDbLine
 10
27.295768
 20
-7.795711000000001
 30
0.0
 11
27.470516
 21
-7.311796000000001
 31
0.0
  0
LINE
  5
E8228
330
18
100
AcDbEntity
  8
1
100
AcDbLine
 10
27.470516
 20
-7.311796000000001
 30
0.0
 11
27.691726
 21
-6.846980000000002
 31
0.0
  0
LINE
  5
E8229
330
18
100
AcDbEntity
  8
1
100
AcDbLine
 10
27.691726
 20
-6.846980000000002
 30
0.0
 11
27.957267
 21
-6.405739000000001
 31
0.0
  0
LINE
  5
E822A
330
18
100
AcDbEntity
  8
1
100
AcDbLine
 10
27.957267
 20
-6.405739000000001
 30
0.0
 11
28.264582
 21
-5.992323000000002
 31
0.0
  0
LINE
  5
E822B
330
18
100
AcDbEntity
  8
1
100
AcDbLine
 10
28.264582
 20
-5.992323000000002
 30
0.0
 11
28.610712
 21
-5.610712000000002
 31
0.0
  0
LINE
  5
E822C
330
18
100
AcDbEntity
  8
1
100
AcDbLine
 10
28.680175
 20
-5.680172000000001
 30
0.0
 11
29.061785
 21
-5.334042000000001
 31
0.0
  0
LINE
  5
E822D
330
18
100
AcDbEntity
  8
1
100
AcDbLine
 10
29.061785
 20
-5.334042000000001
 30
0.0
 11
29.47520200000001
 21
-5.026727000000001
 31
0.0
  0
LINE
  5
E822E
330
18
100
AcDbEntity
  8
1
100
AcDbLine
 10
29.47520200000001
 20
-5.026727000000001
 30
0.0
 11
29.916443
 21
-4.761187000000001
 31
0.0
  0
LINE
  5
E822F
330
18
100
AcDbEntity
  8
1
100
AcDbLine
 10
29.916443
 20
-4.761187000000001
 30
0.0
 11
30.38125900000001
 21
-4.539977000000001
 31
0.0
  0
LINE
  5
E8230
330
18
100
AcDbEntity
  8
1
100
AcDbLine
 10
30.38125900000001
 20
-4.539977000000001
 30
0.0
 11
30.865174
 21
-4.365229000000002
 31
0.0
  0
LINE
  5
E8231
330
18
100
AcDbEntity
  8
1
100
AcDbLine
 10
30.865174
 20
-4.365229000000002
 30
0.0
 11
31.363527
 21
-4.238626
 31
0.0
  0
LINE
  5
E8232
330
18
100
AcDbEntity
  8
1
100
AcDbLine
 10
31.363527
 20
-4.238626
 30
0.0
 11
31.871519
 21
-4.161387000000002
 31
0.0
  0
LINE
  5
E8233
330
18
100
AcDbEntity
  8
1
100
AcDbLine
 10
31.871519
 20
-4.161387000000002
 30
0.0
 11
32.384258
 21
-4.134256000000001
 31
0.0
  0
LINE
  5
E8234
330
18
100
AcDbEntity
  8
1
100
AcDbLine
 10
32.384258
 20
-4.134256000000001
 30
0.0
 11
32.896805
 21
-4.157494000000001
 31
0.0
  0
LINE
  5
E8235
330
18
100
AcDbEntity
  8
1
100
AcDbLine
 10
32.896805
 20
-4.157494000000001
 30
0.0
 11
33.404225
 21
-4.230877000000001
 31
0.0
  0
LINE
  5
E8236
330
18
100
AcDbEntity
  8
1
100
AcDbLine
 10
33.404225
 20
-4.230877000000001
 30
0.0
 11
33.90163
 21
-4.353698000000001
 31
0.0
  0
LINE
  5
E8237
330
18
100
AcDbEntity
  8
1
100
AcDbLine
 10
33.90163
 20
-4.353698000000001
 30
0.0
 11
34.384231
 21
-4.524774999999999
 31
0.0
  0
LINE
  5
E8238
330
18
100
AcDbEntity
  8
1
100
AcDbLine
 10
34.384231
 20
-4.524774999999999
 30
0.0
 11
34.84738
 21
-4.742461000000001
 31
0.0
  0
LINE
  5
E8239
330
18
100
AcDbEntity
  8
1
100
AcDbLine
 10
34.84738
 20
-4.742461000000001
 30
0.0
 11
35.286617
 21
-5.004658
 31
0.0
  0
LINE
  5
E823A
330
18
100
AcDbEntity
  8
1
100
AcDbLine
 10
35.286617
 20
-5.004658
 30
0.0
 11
35.697711
 21
-5.308841000000001
 31
0.0
  0
LINE
  5
E823B
330
18
100
AcDbEntity
  8
1
100
AcDbLine
 10
35.697711
 20
-5.308841000000001
 30
0.0
 11
36.076703
 21
-5.652082
 31
0.0
  0
LINE
  5
E823C
330
18
100
AcDbEntity
  8
1
100
AcDbLine
 10
36.076703
 20
-5.652082
 30
0.0
 11
36.419943
 21
-6.031074000000002
 31
0.0
  0
LINE
  5
E823D
330
18
100
AcDbEntity
  8
1
100
AcDbLine
 10
36.419943
 20
-6.031074000000002
 30
0.0
 11
36.72412700000001
 21
-6.442168000000002
 31
0.0
  0
LINE
  5
E823E
330
18
100
AcDbEntity
  8
1
100
AcDbLine
 10
36.72412700000001
 20
-6.442168000000002
 30
0.0
 11
36.986323
 21
-6.881405000000002
 31
0.0
  0
LINE
  5
E823F
330
18
100
AcDbEntity
  8
1
100
AcDbLine
 10
36.986323
 20
-6.881405000000002
 30
0.0
 11
37.204008
 21
-7.344554000000002
 31
0.0
  0
LINE
  5
E8240
330
18
100
AcDbEntity
  8
1
100
AcDbLine
 10
37.204008
 20
-7.344554000000002
 30
0.0
 11
37.375085
 21
-7.827156000000002
 31
0.0
  0
LINE
  5
E8241
330
18
100
AcDbEntity
  8
1
100
AcDbLine
 10
37.375085
 20
-7.827156000000002
 30
0.0
 11
37.497906
 21
-8.324560999999999
 31
0.0
  0
LINE
  5
E8242
330
18
100
AcDbEntity
  8
1
100
AcDbLine
 10
37.497906
 20
-8.324560999999999
 30
0.0
 11
37.571289
 21
-8.831980999999997
 31
0.0
  0
LINE
  5
E8243
330
18
100
AcDbEntity
  8
1
100
AcDbLine
 10
37.571289
 20
-8.831980999999997
 30
0.0
 11
37.594526
 21
-9.344528000000002
 31
0.0
  0
LINE
  5
E8244
330
18
100
AcDbEntity
  8
1
100
AcDbLine
 10
37.594526
 20
-9.344528000000002
 30
0.0
 11
37.567394
 21
-9.857267
 31
0.0
  0
LINE
  5
E8245
330
18
100
AcDbEntity
  8
1
100
AcDbLine
 10
37.567394
 20
-9.857267
 30
0.0
 11
37.490155
 21
-10.365259
 31
0.0
  0
LINE
  5
E8246
330
18
100
AcDbEntity
  8
1
100
AcDbLine
 10
37.490155
 20
-10.365259
 30
0.0
 11
37.363551
 21
-10.863612
 31
0.0
  0
LINE
  5
E8247
330
18
100
AcDbEntity
  8
1
100
AcDbLine
 10
37.363551
 20
-10.863612
 30
0.0
 11
37.188803
 21
-11.347526
 31
0.0
  0
LINE
  5
E8248
330
18
100
AcDbEntity
  8
1
100
AcDbLine
 10
37.188803
 20
-11.347526
 30
0.0
 11
36.967593
 21
-11.812342
 31
0.0
  0
LINE
  5
E8249
330
18
100
AcDbEntity
  8
1
100
AcDbLine
 10
36.967593
 20
-11.812342
 30
0.0
 11
36.702052
 21
-12.253583
 31
0.0
  0
LINE
  5
E824A
330
18
100
AcDbEntity
  8
1
100
AcDbLine
 10
36.702052
 20
-12.253583
 30
0.0
 11
36.394737
 21
-12.666999
 31
0.0
  0
LINE
  5
E824B
330
18
100
AcDbEntity
  8
1
100
AcDbLine
 10
36.394737
 20
-12.666999
 30
0.0
 11
36.048608
 21
-13.04861
 31
0.0
  0
LINE
  5
E824C
330
18
100
AcDbEntity
  8
1
100
AcDbLine
 10
36.048608
 20
-13.04861
 30
0.0
 11
35.666997
 21
-13.394739
 31
0.0
  0
LINE
  5
E824D
330
18
100
AcDbEntity
  8
1
100
AcDbLine
 10
35.666997
 20
-13.394739
 30
0.0
 11
35.25358
 21
-13.702054
 31
0.0
  0
LINE
  5
E824E
330
18
100
AcDbEntity
  8
1
100
AcDbLine
 10
35.25358
 20
-13.702054
 30
0.0
 11
34.812339
 21
-13.967595
 31
0.0
  0
LINE
  5
E824F
330
18
100
AcDbEntity
  8
1
100
AcDbLine
 10
34.812339
 20
-13.967595
 30
0.0
 11
34.34752299999999
 21
-14.188805
 31
0.0
  0
LINE
  5
E8250
330
18
100
AcDbEntity
  8
1
100
AcDbLine
 10
34.34752299999999
 20
-14.188805
 30
0.0
 11
33.86360900000001
 21
-14.363553
 31
0.0
  0
LINE
  5
E8251
330
18
100
AcDbEntity
  8
1
100
AcDbLine
 10
33.86360900000001
 20
-14.363553
 30
0.0
 11
33.365255
 21
-14.490156
 31
0.0
  0
LINE
  5
E8252
330
18
100
AcDbEntity
  8
1
100
AcDbLine
 10
33.365255
 20
-14.490156
 30
0.0
 11
32.857264
 21
-14.567395
 31
0.0
  0
LINE
  5
E8253
330
18
100
AcDbEntity
  8
1
100
AcDbLine
 10
32.857264
 20
-14.567395
 30
0.0
 11
32.344525
 21
-14.594527
 31
0.0
  0
LINE
  5
E8254
330
18
100
AcDbEntity
  8
1
100
AcDbLine
 10
32.344525
 20
-14.594527
 30
0.0
 11
31.831978
 21
-14.571289
 31
0.0
  0
LINE
  5
E8255
330
18
100
AcDbEntity
  8
1
100
AcDbLine
 10
31.831978
 20
-14.571289
 30
0.0
 11
31.32455800000001
 21
-14.497906
 31
0.0
  0
LINE
  5
E8256
330
18
100
AcDbEntity
  8
1
100
AcDbLine
 10
31.32455800000001
 20
-14.497906
 30
0.0
 11
30.827152
 21
-14.375085
 31
0.0
  0
LINE
  5
E8257
330
18
100
AcDbEntity
  8
1
100
AcDbLine
 10
30.827152
 20
-14.375085
 30
0.0
 11
30.344551
 21
-14.204008
 31
0.0
  0
LINE
  5
E8258
330
18
100
AcDbEntity
  8
1
100
AcDbLine
 10
30.344551
 20
-14.204008
 30
0.0
 11
29.881402
 21
-13.986323
 31
0.0
  0
LINE
  5
E8259
330
18
100
AcDbEntity
  8
1
100
AcDbLine
 10
29.881402
 20
-13.986323
 30
0.0
 11
29.442166
 21
-13.724126
 31
0.0
  0
LINE
  5
E825A
330
18
100
AcDbEntity
  8
1
100
AcDbLine
 10
29.442166
 20
-13.724126
 30
0.0
 11
29.031072
 21
-13.419942
 31
0.0
  0
LINE
  5
E825B
330
18
100
AcDbEntity
  8
1
100
AcDbLine
 10
29.031072
 20
-13.419942
 30
0.0
 11
28.65208
 21
-13.076701
 31
0.0
  0
LINE
  5
E825C
330
18
100
AcDbEntity
  8
1
100
AcDbLine
 10
28.65208
 20
-13.076701
 30
0.0
 11
28.308839
 21
-12.697709
 31
0.0
  0
LINE
  5
E825D
330
18
100
AcDbEntity
  8
1
100
AcDbLine
 10
28.308839
 20
-12.697709
 30
0.0
 11
28.004655
 21
-12.286615
 31
0.0
  0
LINE
  5
E825E
330
18
100
AcDbEntity
  8
1
100
AcDbLine
 10
28.004655
 20
-12.286615
 30
0.0
 11
27.742459
 21
-11.847379
 31
0.0
  0
LINE
  5
E825F
330
18
100
AcDbEntity
  8
1
100
AcDbLine
 10
27.742459
 20
-11.847379
 30
0.0
 11
27.524774
 21
-11.384229
 31
0.0
  0
LINE
  5
E8260
330
18
100
AcDbEntity
  8
1
100
AcDbLine
 10
27.524774
 20
-11.384229
 30
0.0
 11
27.353697
 21
-10.901628
 31
0.0
  0
LINE
  5
E8261
330
18
100
AcDbEntity
  8
1
100
AcDbLine
 10
27.353697
 20
-10.901628
 30
0.0
 11
27.230875
 21
-10.404223
 31
0.0
  0
LINE
  5
E8262
330
18
100
AcDbEntity
  8
1
100
AcDbLine
 10
27.230875
 20
-10.404223
 30
0.0
 11
27.157493
 21
-9.896803000000002
 31
0.0
  0
LINE
  5
E8263
330
18
100
AcDbEntity
  8
1
100
AcDbLine
 10
27.157493
 20
-9.896803000000002
 30
0.0
 11
27.134255
 21
-9.384256000000002
 31
0.0
  0
LINE
  5
E8264
330
18
100
AcDbEntity
  8
1
100
AcDbLine
 10
27.134255
 20
-9.384256000000002
 30
0.0
 11
27.161387
 21
-8.871516999999997
 31
0.0
  0
LINE
  5
E8265
330
18
100
AcDbEntity
  8
1
100
AcDbLine
 10
27.161387
 20
-8.871516999999997
 30
0.0
 11
27.238626
 21
-8.363524999999999
 31
0.0
  0
LINE
  5
E8266
330
18
100
AcDbEntity
  8
1
100
AcDbLine
 10
27.238626
 20
-8.363524999999999
 30
0.0
 11
27.36523
 21
-7.865172000000002
 31
0.0
  0
LINE
  5
E8267
330
18
100
AcDbEntity
  8
1
100
AcDbLine
 10
27.36523
 20
-7.865172000000002
 30
0.0
 11
27.539978
 21
-7.381257000000002
 31
0.0
  0
LINE
  5
E8268
330
18
100
AcDbEntity
  8
1
100
AcDbLine
 10
27.539978
 20
-7.381257000000002
 30
0.0
 11
27.761187
 21
-6.916441000000002
 31
0.0
  0
LINE
  5
E8269
330
18
100
AcDbEntity
  8
1
100
AcDbLine
 10
27.761187
 20
-6.916441000000002
 30
0.0
 11
28.026728
 21
-6.4752
 31
0.0
  0
LINE
  5
E826A
330
18
100
AcDbEntity
  8
1
100
AcDbLine
 10
28.026728
 20
-6.4752
 30
0.0
 11
28.334043
 21
-6.061784000000001
 31
0.0
  0
LINE
  5
E826B
330
18
100
AcDbEntity
  8
1
100
AcDbLine
 10
28.334043
 20
-6.061784000000001
 30
0.0
 11
28.680173
 21
-5.680172999999999
 31
0.0
  0
LINE
  5
E826C
330
18
100
AcDbEntity
  8
1
100
AcDbLine
 10
30.65341500000001
 20
-7.653414000000001
 30
0.0
 11
30.835135
 21
-7.488591000000002
 31
0.0
  0
LINE
  5
E826D
330
18
100
AcDbEntity
  8
1
100
AcDbLine
 10
30.835135
 20
-7.488591000000002
 30
0.0
 11
31.032
 21
-7.342249999999999
 31
0.0
  0
LINE
  5
E826E
330
18
100
AcDbEntity
  8
1
100
AcDbLine
 10
31.032
 20
-7.342249999999999
 30
0.0
 11
31.242115
 21
-7.215802
 31
0.0
  0
LINE
  5
E826F
330
18
100
AcDbEntity
  8
1
100
AcDbLine
 10
31.242115
 20
-7.215802
 30
0.0
 11
31.463456
 21
-7.110464000000002
 31
0.0
  0
LINE
  5
E8270
330
18
100
AcDbEntity
  8
1
100
AcDbLine
 10
31.463456
 20
-7.110464000000002
 30
0.0
 11
31.693891
 21
-7.027251000000001
 31
0.0
  0
LINE
  5
E8271
330
18
100
AcDbEntity
  8
1
100
AcDbLine
 10
31.693891
 20
-7.027251000000001
 30
0.0
 11
31.931202
 21
-6.966963999999999
 31
0.0
  0
LINE
  5
E8272
330
18
100
AcDbEntity
  8
1
100
AcDbLine
 10
31.931202
 20
-6.966963999999999
 30
0.0
 11
32.17310300000001
 21
-6.930184000000001
 31
0.0
  0
LINE
  5
E8273
330
18
100
AcDbEntity
  8
1
100
AcDbLine
 10
32.17310300000001
 20
-6.930184000000001
 30
0.0
 11
32.41726400000001
 21
-6.917264000000002
 31
0.0
  0
LINE
  5
E8274
330
18
100
AcDbEntity
  8
1
100
AcDbLine
 10
32.41726400000001
 20
-6.917264000000002
 30
0.0
 11
32.66133400000001
 21
-6.928329000000001
 31
0.0
  0
LINE
  5
E8275
330
18
100
AcDbEntity
  8
1
100
AcDbLine
 10
32.66133400000001
 20
-6.928329000000001
 30
0.0
 11
32.902963
 21
-6.963274000000001
 31
0.0
  0
LINE
  5
E8276
330
18
100
AcDbEntity
  8
1
100
AcDbLine
 10
32.902963
 20
-6.963274000000001
 30
0.0
 11
33.139823
 21
-7.021760000000002
 31
0.0
  0
LINE
  5
E8277
330
18
100
AcDbEntity
  8
1
100
AcDbLine
 10
33.139823
 20
-7.021760000000002
 30
0.0
 11
33.369633
 21
-7.103225000000001
 31
0.0
  0
LINE
  5
E8278
330
18
100
AcDbEntity
  8
1
100
AcDbLine
 10
33.369633
 20
-7.103225000000001
 30
0.0
 11
33.59018
 21
-7.206885000000002
 31
0.0
  0
LINE
  5
E8279
330
18
100
AcDbEntity
  8
1
100
AcDbLine
 10
33.59018
 20
-7.206885000000002
 30
0.0
 11
33.79934
 21
-7.331741
 31
0.0
  0
LINE
  5
E827A
330
18
100
AcDbEntity
  8
1
100
AcDbLine
 10
33.79934
 20
-7.331741
 30
0.0
 11
33.995099
 21
-7.476590000000001
 31
0.0
  0
LINE
  5
E827B
330
18
100
AcDbEntity
  8
1
100
AcDbLine
 10
33.995099
 20
-7.476590000000001
 30
0.0
 11
34.17557100000002
 21
-7.640038000000002
 31
0.0
  0
LINE
  5
E827C
330
18
100
AcDbEntity
  8
1
100
AcDbLine
 10
34.17557100000002
 20
-7.640038000000002
 30
0.0
 11
34.339019
 21
-7.820511000000001
 31
0.0
  0
LINE
  5
E827D
330
18
100
AcDbEntity
  8
1
100
AcDbLine
 10
34.339019
 20
-7.820511000000001
 30
0.0
 11
34.483869
 21
-8.016270000000002
 31
0.0
  0
LINE
  5
E827E
330
18
100
AcDbEntity
  8
1
100
AcDbLine
 10
34.483869
 20
-8.016270000000002
 30
0.0
 11
34.608724
 21
-8.225430000000002
 31
0.0
  0
LINE
  5
E827F
330
18
100
AcDbEntity
  8
1
100
AcDbLine
 10
34.608724
 20
-8.225430000000002
 30
0.0
 11
34.712384
 21
-8.445977000000002
 31
0.0
  0
LINE
  5
E8280
330
18
100
AcDbEntity
  8
1
100
AcDbLine
 10
34.712384
 20
-8.445977000000002
 30
0.0
 11
34.793849
 21
-8.675788000000002
 31
0.0
  0
LINE
  5
E8281
330
18
100
AcDbEntity
  8
1
100
AcDbLine
 10
34.793849
 20
-8.675788000000002
 30
0.0
 11
34.852335
 21
-8.912647000000001
 31
0.0
  0
LINE
  5
E8282
330
18
100
AcDbEntity
  8
1
100
AcDbLine
 10
34.852335
 20
-8.912647000000001
 30
0.0
 11
34.887279
 21
-9.154275999999999
 31
0.0
  0
LINE
  5
E8283
330
18
100
AcDbEntity
  8
1
100
AcDbLine
 10
34.887279
 20
-9.154275999999999
 30
0.0
 11
34.898345
 21
-9.398346
 31
0.0
  0
LINE
  5
E8284
330
18
100
AcDbEntity
  8
1
100
AcDbLine
 10
34.898345
 20
-9.398346
 30
0.0
 11
34.885425
 21
-9.642507
 31
0.0
  0
LINE
  5
E8285
330
18
100
AcDbEntity
  8
1
100
AcDbLine
 10
34.885425
 20
-9.642507
 30
0.0
 11
34.848644
 21
-9.884408000000002
 31
0.0
  0
LINE
  5
E8286
330
18
100
AcDbEntity
  8
1
100
AcDbLine
 10
34.848644
 20
-9.884408000000002
 30
0.0
 11
34.788357
 21
-10.121719
 31
0.0
  0
LINE
  5
E8287
330
18
100
AcDbEntity
  8
1
100
AcDbLine
 10
34.788357
 20
-10.121719
 30
0.0
 11
34.705143
 21
-10.352155
 31
0.0
  0
LINE
  5
E8288
330
18
100
AcDbEntity
  8
1
100
AcDbLine
 10
34.705143
 20
-10.352155
 30
0.0
 11
34.599805
 21
-10.573495
 31
0.0
  0
LINE
  5
E8289
330
18
100
AcDbEntity
  8
1
100
AcDbLine
 10
34.599805
 20
-10.573495
 30
0.0
 11
34.473357
 21
-10.78361
 31
0.0
  0
LINE
  5
E828A
330
18
100
AcDbEntity
  8
1
100
AcDbLine
 10
34.473357
 20
-10.78361
 30
0.0
 11
34.327016
 21
-10.980475
 31
0.0
  0
LINE
  5
E828B
330
18
100
AcDbEntity
  8
1
100
AcDbLine
 10
34.327016
 20
-10.980475
 30
0.0
 11
34.162193
 21
-11.162194
 31
0.0
  0
LINE
  5
E828C
330
18
100
AcDbEntity
  8
1
100
AcDbLine
 10
34.162193
 20
-11.162194
 30
0.0
 11
33.980474
 21
-11.327018
 31
0.0
  0
LINE
  5
E828D
330
18
100
AcDbEntity
  8
1
100
AcDbLine
 10
33.980474
 20
-11.327018
 30
0.0
 11
33.783608
 21
-11.473358
 31
0.0
  0
LINE
  5
E828E
330
18
100
AcDbEntity
  8
1
100
AcDbLine
 10
33.783608
 20
-11.473358
 30
0.0
 11
33.573494
 21
-11.599806
 31
0.0
  0
LINE
  5
E828F
330
18
100
AcDbEntity
  8
1
100
AcDbLine
 10
33.573494
 20
-11.599806
 30
0.0
 11
33.352153
 21
-11.705144
 31
0.0
  0
LINE
  5
E8290
330
18
100
AcDbEntity
  8
1
100
AcDbLine
 10
33.352153
 20
-11.705144
 30
0.0
 11
33.121717
 21
-11.788358
 31
0.0
  0
LINE
  5
E8291
330
18
100
AcDbEntity
  8
1
100
AcDbLine
 10
33.121717
 20
-11.788358
 30
0.0
 11
32.884406
 21
-11.848645
 31
0.0
  0
LINE
  5
E8292
330
18
100
AcDbEntity
  8
1
100
AcDbLine
 10
32.884406
 20
-11.848645
 30
0.0
 11
32.642505
 21
-11.885425
 31
0.0
  0
LINE
  5
E8293
330
18
100
AcDbEntity
  8
1
100
AcDbLine
 10
32.642505
 20
-11.885425
 30
0.0
 11
32.398344
 21
-11.898345
 31
0.0
  0
LINE
  5
E8294
330
18
100
AcDbEntity
  8
1
100
AcDbLine
 10
32.398344
 20
-11.898345
 30
0.0
 11
32.154274
 21
-11.88728
 31
0.0
  0
LINE
  5
E8295
330
18
100
AcDbEntity
  8
1
100
AcDbLine
 10
32.154274
 20
-11.88728
 30
0.0
 11
31.912645
 21
-11.852335
 31
0.0
  0
LINE
  5
E8296
330
18
100
AcDbEntity
  8
1
100
AcDbLine
 10
31.912645
 20
-11.852335
 30
0.0
 11
31.675786
 21
-11.793849
 31
0.0
  0
LINE
  5
E8297
330
18
100
AcDbEntity
  8
1
100
AcDbLine
 10
31.675786
 20
-11.793849
 30
0.0
 11
31.445976
 21
-11.712384
 31
0.0
  0
LINE
  5
E8298
330
18
100
AcDbEntity
  8
1
100
AcDbLine
 10
31.445976
 20
-11.712384
 30
0.0
 11
31.22542800000001
 21
-11.608724
 31
0.0
  0
LINE
  5
E8299
330
18
100
AcDbEntity
  8
1
100
AcDbLine
 10
31.22542800000001
 20
-11.608724
 30
0.0
 11
31.016268
 21
-11.483869
 31
0.0
  0
LINE
  5
E829A
330
18
100
AcDbEntity
  8
1
100
AcDbLine
 10
31.016268
 20
-11.483869
 30
0.0
 11
30.820509
 21
-11.339019
 31
0.0
  0
LINE
  5
E829B
330
18
100
AcDbEntity
  8
1
100
AcDbLine
 10
30.820509
 20
-11.339019
 30
0.0
 11
30.640037
 21
-11.175571
 31
0.0
  0
LINE
  5
E829C
330
18
100
AcDbEntity
  8
1
100
AcDbLine
 10
30.640037
 20
-11.175571
 30
0.0
 11
30.476589
 21
-10.995099
 31
0.0
  0
LINE
  5
E829D
330
18
100
AcDbEntity
  8
1
100
AcDbLine
 10
30.476589
 20
-10.995099
 30
0.0
 11
30.33174000000001
 21
-10.79934
 31
0.0
  0
LINE
  5
E829E
330
18
100
AcDbEntity
  8
1
100
AcDbLine
 10
30.33174000000001
 20
-10.79934
 30
0.0
 11
30.206884
 21
-10.590179
 31
0.0
  0
LINE
  5
E829F
330
18
100
AcDbEntity
  8
1
100
AcDbLine
 10
30.206884
 20
-10.590179
 30
0.0
 11
30.103224
 21
-10.369632
 31
0.0
  0
LINE
  5
E82A0
330
18
100
AcDbEntity
  8
1
100
AcDbLine
 10
30.103224
 20
-10.369632
 30
0.0
 11
30.02175900000001
 21
-10.139822
 31
0.0
  0
LINE
  5
E82A1
330
18
100
AcDbEntity
  8
1
100
AcDbLine
 10
30.02175900000001
 20
-10.139822
 30
0.0
 11
29.963273
 21
-9.902961999999996
 31
0.0
  0
LINE
  5
E82A2
330
18
100
AcDbEntity
  8
1
100
AcDbLine
 10
29.963273
 20
-9.902961999999996
 30
0.0
 11
29.928329
 21
-9.661334
 31
0.0
  0
LINE
  5
E82A3
330
18
100
AcDbEntity
  8
1
100
AcDbLine
 10
29.928329
 20
-9.661334
 30
0.0
 11
29.917263
 21
-9.417263999999999
 31
0.0
  0
LINE
  5
E82A4
330
18
100
AcDbEntity
  8
1
100
AcDbLine
 10
29.917263
 20
-9.417263999999999
 30
0.0
 11
29.93018300000001
 21
-9.173102999999999
 31
0.0
  0
LINE
  5
E82A5
330
18
100
AcDbEntity
  8
1
100
AcDbLine
 10
29.93018300000001
 20
-9.173102999999999
 30
0.0
 11
29.966964
 21
-8.931202000000002
 31
0.0
  0
LINE
  5
E82A6
330
18
100
AcDbEntity
  8
1
100
AcDbLine
 10
29.966964
 20
-8.931202000000002
 30
0.0
 11
30.027251
 21
-8.693891000000002
 31
0.0
  0
LINE
  5
E82A7
330
18
100
AcDbEntity
  8
1
100
AcDbLine
 10
30.027251
 20
-8.693891000000002
 30
0.0
 11
30.110464
 21
-8.463455000000001
 31
0.0
  0
LINE
  5
E82A8
330
18
100
AcDbEntity
  8
1
100
AcDbLine
 10
30.110464
 20
-8.463455000000001
 30
0.0
 11
30.21580200000001
 21
-8.242114000000002
 31
0.0
  0
LINE
  5
E82A9
330
18
100
AcDbEntity
  8
1
100
AcDbLine
 10
30.21580200000001
 20
-8.242114000000002
 30
0.0
 11
30.34225
 21
-8.031999000000002
 31
0.0
  0
LINE
  5
E82AA
330
18
100
AcDbEntity
  8
1
100
AcDbLine
 10
30.34225
 20
-8.031999000000002
 30
0.0
 11
30.488591
 21
-7.835134
 31
0.0
  0
LINE
  5
E82AB
330
18
100
AcDbEntity
  8
1
100
AcDbLine
 10
30.488591
 20
-7.835134
 30
0.0
 11
30.653414
 21
-7.653415000000001
 31
0.0
  0
LINE
  5
E82AC
330
18
100
AcDbEntity
  8
1
100
AcDbLine
 10
39.49943
 20
-23.54511400000001
 30
0.0
 11
39.30742
 21
-23.70293
 31
0.0
  0
LINE
  5
E82AD
330
18
100
AcDbEntity
  8
1
100
AcDbLine
 10
39.30742
 20
-23.70293
 30
0.0
 11
39.088594
 21
-23.820487
 31
0.0
  0
LINE
  5
E82AE
330
18
100
AcDbEntity
  8
1
100
AcDbLine
 10
39.088594
 20
-23.820487
 30
0.0
 11
38.851362
 21
-23.893268
 31
0.0
  0
LINE
  5
E82AF
330
18
100
AcDbEntity
  8
1
100
AcDbLine
 10
38.851362
 20
-23.893268
 30
0.0
 11
38.604842
 21
-23.918475
 31
0.0
  0
LINE
  5
E82B0
330
18
100
AcDbEntity
  8
1
100
AcDbLine
 10
38.604842
 20
-23.918475
 30
0.0
 11
38.358505
 21
-23.895139
 31
0.0
  0
LINE
  5
E82B1
330
18
100
AcDbEntity
  8
1
100
AcDbLine
 10
38.358505
 20
-23.895139
 30
0.0
 11
38.12182
 21
-23.824159
 31
0.0
  0
LINE
  5
E82B2
330
18
100
AcDbEntity
  8
1
100
AcDbLine
 10
38.12182
 20
-23.824159
 30
0.0
 11
37.903881
 21
-23.708261
 31
0.0
  0
LINE
  5
E82B3
330
18
100
AcDbEntity
  8
1
100
AcDbLine
 10
37.903881
 20
-23.708261
 30
0.0
 11
37.713064
 21
-23.55189800000001
 31
0.0
  0
LINE
  5
E82B4
330
18
100
AcDbEntity
  8
1
100
AcDbLine
 10
46.55189899999998
 20
-14.713064
 30
0.0
 11
46.708261
 21
-14.903881
 31
0.0
  0
LINE
  5
E82B5
330
18
100
AcDbEntity
  8
1
100
AcDbLine
 10
46.708261
 20
-14.903881
 30
0.0
 11
46.824159
 21
-15.12182
 31
0.0
  0
LINE
  5
E82B6
330
18
100
AcDbEntity
  8
1
100
AcDbLine
 10
46.824159
 20
-15.12182
 30
0.0
 11
46.89514
 21
-15.358505
 31
0.0
  0
LINE
  5
E82B7
330
18
100
AcDbEntity
  8
1
100
AcDbLine
 10
46.89514
 20
-15.358505
 30
0.0
 11
46.918475
 21
-15.604842
 31
0.0
  0
LINE
  5
E82B8
330
18
100
AcDbEntity
  8
1
100
AcDbLine
 10
46.918475
 20
-15.604842
 30
0.0
 11
46.89326799999999
 21
-15.851362
 31
0.0
  0
LINE
  5
E82B9
330
18
100
AcDbEntity
  8
1
100
AcDbLine
 10
46.89326799999999
 20
-15.851362
 30
0.0
 11
46.820487
 21
-16.088594
 31
0.0
  0
LINE
  5
E82BA
330
18
100
AcDbEntity
  8
1
100
AcDbLine
 10
46.820487
 20
-16.088594
 30
0.0
 11
46.70293
 21
-16.30742
 31
0.0
  0
LINE
  5
E82BB
330
18
100
AcDbEntity
  8
1
100
AcDbLine
 10
46.70293
 20
-16.30742
 30
0.0
 11
46.54511399999999
 21
-16.49943
 31
0.0
  0
LINE
  5
E82BC
330
18
100
AcDbEntity
  8
1
100
AcDbLine
 10
40.454427
 20
-24.50011
 30
0.0
 11
40.26241599999996
 21
-24.657926
 31
0.0
  0
LINE
  5
E82BD
330
18
100
AcDbEntity
  8
1
100
AcDbLine
 10
40.26241599999996
 20
-24.657926
 30
0.0
 11
40.043591
 21
-24.775484
 31
0.0
  0
LINE
  5
E82BE
330
18
100
AcDbEntity
  8
1
100
AcDbLine
 10
40.043591
 20
-24.775484
 30
0.0
 11
39.806359
 21
-24.84826400000001
 31
0.0
  0
LINE
  5
E82BF
330
18
100
AcDbEntity
  8
1
100
AcDbLine
 10
39.806359
 20
-24.84826400000001
 30
0.0
 11
39.559838
 21
-24.873471
 31
0.0
  0
LINE
  5
E82C0
330
18
100
AcDbEntity
  8
1
100
AcDbLine
 10
39.559838
 20
-24.873471
 30
0.0
 11
39.313502
 21
-24.850136
 31
0.0
  0
LINE
  5
E82C1
330
18
100
AcDbEntity
  8
1
100
AcDbLine
 10
39.313502
 20
-24.850136
 30
0.0
 11
39.076816
 21
-24.779155
 31
0.0
  0
LINE
  5
E82C2
330
18
100
AcDbEntity
  8
1
100
AcDbLine
 10
39.076816
 20
-24.779155
 30
0.0
 11
38.85887800000001
 21
-24.663257
 31
0.0
  0
LINE
  5
E82C3
330
18
100
AcDbEntity
  8
1
100
AcDbLine
 10
38.85887800000001
 20
-24.663257
 30
0.0
 11
38.668061
 21
-24.50689500000001
 31
0.0
  0
LINE
  5
E82C4
330
18
100
AcDbEntity
  8
1
100
AcDbLine
 10
47.46348199999999
 20
-15.624647
 30
0.0
 11
47.619844
 21
-15.815464
 31
0.0
  0
LINE
  5
E82C5
330
18
100
AcDbEntity
  8
1
100
AcDbLine
 10
47.619844
 20
-15.815464
 30
0.0
 11
47.73574299999999
 21
-16.033403
 31
0.0
  0
LINE
  5
E82C6
330
18
100
AcDbEntity
  8
1
100
AcDbLine
 10
47.73574299999999
 20
-16.033403
 30
0.0
 11
47.80672299999999
 21
-16.270088
 31
0.0
  0
LINE
  5
E82C7
330
18
100
AcDbEntity
  8
1
100
AcDbLine
 10
47.80672299999999
 20
-16.270088
 30
0.0
 11
47.830058
 21
-16.516425
 31
0.0
  0
LINE
  5
E82C8
330
18
100
AcDbEntity
  8
1
100
AcDbLine
 10
47.830058
 20
-16.516425
 30
0.0
 11
47.80485099999999
 21
-16.762946
 31
0.0
  0
LINE
  5
E82C9
330
18
100
AcDbEntity
  8
1
100
AcDbLine
 10
47.80485099999999
 20
-16.762946
 30
0.0
 11
47.732071
 21
-17.000177
 31
0.0
  0
LINE
  5
E82CA
330
18
100
AcDbEntity
  8
1
100
AcDbLine
 10
47.732071
 20
-17.000177
 30
0.0
 11
47.614513
 21
-17.219003
 31
0.0
  0
LINE
  5
E82CB
330
18
100
AcDbEntity
  8
1
100
AcDbLine
 10
47.614513
 20
-17.219003
 30
0.0
 11
47.45669699999999
 21
-17.411013
 31
0.0
  0
LINE
  5
E82CC
330
18
100
AcDbEntity
  8
1
100
AcDbLine
 10
40.411013
 20
-24.456697
 30
0.0
 11
40.219003
 21
-24.614513
 31
0.0
  0
LINE
  5
E82CD
330
18
100
AcDbEntity
  8
1
100
AcDbLine
 10
40.219003
 20
-24.614513
 30
0.0
 11
40.00017800000001
 21
-24.73207
 31
0.0
  0
LINE
  5
E82CE
330
18
100
AcDbEntity
  8
1
100
AcDbLine
 10
40.00017800000001
 20
-24.73207
 30
0.0
 11
39.762946
 21
-24.804851
 31
0.0
  0
LINE
  5
E82CF
330
18
100
AcDbEntity
  8
1
100
AcDbLine
 10
39.762946
 20
-24.804851
 30
0.0
 11
39.516425
 21
-24.830058
 31
0.0
  0
LINE
  5
E82D0
330
18
100
AcDbEntity
  8
1
100
AcDbLine
 10
39.516425
 20
-24.830058
 30
0.0
 11
39.270089
 21
-24.80672300000001
 31
0.0
  0
LINE
  5
E82D1
330
18
100
AcDbEntity
  8
1
100
AcDbLine
 10
39.270089
 20
-24.80672300000001
 30
0.0
 11
39.033403
 21
-24.73574200000001
 31
0.0
  0
LINE
  5
E82D2
330
18
100
AcDbEntity
  8
1
100
AcDbLine
 10
39.033403
 20
-24.73574200000001
 30
0.0
 11
38.815464
 21
-24.619844
 31
0.0
  0
LINE
  5
E82D3
330
18
100
AcDbEntity
  8
1
100
AcDbLine
 10
38.815464
 20
-24.619844
 30
0.0
 11
38.624647
 21
-24.463482
 31
0.0
  0
LINE
  5
E82D4
330
18
100
AcDbEntity
  8
1
100
AcDbLine
 10
47.506895
 20
-15.66806
 30
0.0
 11
47.663257
 21
-15.858877
 31
0.0
  0
LINE
  5
E82D5
330
18
100
AcDbEntity
  8
1
100
AcDbLine
 10
47.663257
 20
-15.858877
 30
0.0
 11
47.779156
 21
-16.076816
 31
0.0
  0
LINE
  5
E82D6
330
18
100
AcDbEntity
  8
1
100
AcDbLine
 10
47.779156
 20
-16.076816
 30
0.0
 11
47.850136
 21
-16.313502
 31
0.0
  0
LINE
  5
E82D7
330
18
100
AcDbEntity
  8
1
100
AcDbLine
 10
47.850136
 20
-16.313502
 30
0.0
 11
47.873471
 21
-16.559838
 31
0.0
  0
LINE
  5
E82D8
330
18
100
AcDbEntity
  8
1
100
AcDbLine
 10
47.873471
 20
-16.559838
 30
0.0
 11
47.848264
 21
-16.806359
 31
0.0
  0
LINE
  5
E82D9
330
18
100
AcDbEntity
  8
1
100
AcDbLine
 10
47.848264
 20
-16.806359
 30
0.0
 11
47.775484
 21
-17.043591
 31
0.0
  0
LINE
  5
E82DA
330
18
100
AcDbEntity
  8
1
100
AcDbLine
 10
47.775484
 20
-17.043591
 30
0.0
 11
47.657927
 21
-17.262416
 31
0.0
  0
LINE
  5
E82DB
330
18
100
AcDbEntity
  8
1
100
AcDbLine
 10
47.657927
 20
-17.262416
 30
0.0
 11
47.500111
 21
-17.454426
 31
0.0
  0
LINE
  5
E82DC
330
18
100
AcDbEntity
  8
1
100
AcDbLine
 10
46.855108
 20
-15.016273
 30
0.0
 11
47.17517199999998
 21
-15.205276
 31
0.0
  0
LINE
  5
E82DD
330
18
100
AcDbEntity
  8
1
100
AcDbLine
 10
47.17517199999998
 20
-15.205276
 30
0.0
 11
47.483585
 21
-15.412568
 31
0.0
  0
LINE
  5
E82DE
330
18
100
AcDbEntity
  8
1
100
AcDbLine
 10
47.483585
 20
-15.412568
 30
0.0
 11
47.77931599999997
 21
-15.637457
 31
0.0
  0
LINE
  5
E82DF
330
18
100
AcDbEntity
  8
1
100
AcDbLine
 10
47.77931599999997
 20
-15.637457
 30
0.0
 11
48.06137899999999
 21
-15.879192
 31
0.0
  0
LINE
  5
E82E0
330
18
100
AcDbEntity
  8
1
100
AcDbLine
 10
48.06137899999999
 20
-15.879192
 30
0.0
 11
48.328832
 21
-16.136967
 31
0.0
  0
LINE
  5
E82E1
330
18
100
AcDbEntity
  8
1
100
AcDbLine
 10
48.328832
 20
-16.136967
 30
0.0
 11
48.580783
 21
-16.40992
 31
0.0
  0
LINE
  5
E82E2
330
18
100
AcDbEntity
  8
1
100
AcDbLine
 10
48.580783
 20
-16.40992
 30
0.0
 11
48.816389
 21
-16.697142
 31
0.0
  0
LINE
  5
E82E3
330
18
100
AcDbEntity
  8
1
100
AcDbLine
 10
48.816389
 20
-16.697142
 30
0.0
 11
49.034866
 21
-16.997672
 31
0.0
  0
LINE
  5
E82E4
330
18
100
AcDbEntity
  8
1
100
AcDbLine
 10
49.034866
 20
-16.997672
 30
0.0
 11
49.235484
 21
-17.310508
 31
0.0
  0
LINE
  5
E82E5
330
18
100
AcDbEntity
  8
1
100
AcDbLine
 10
49.235484
 20
-17.310508
 30
0.0
 11
49.417572
 21
-17.634606
 31
0.0
  0
LINE
  5
E82E6
330
18
100
AcDbEntity
  8
1
100
AcDbLine
 10
49.417572
 20
-17.634606
 30
0.0
 11
49.58052399999999
 21
-17.968884
 31
0.0
  0
LINE
  5
E82E7
330
18
100
AcDbEntity
  8
1
100
AcDbLine
 10
49.58052399999999
 20
-17.968884
 30
0.0
 11
49.723795
 21
-18.312226
 31
0.0
  0
LINE
  5
E82E8
330
18
100
AcDbEntity
  8
1
100
AcDbLine
 10
49.723795
 20
-18.312226
 30
0.0
 11
49.846908
 21
-18.663487
 31
0.0
  0
LINE
  5
E82E9
330
18
100
AcDbEntity
  8
1
100
AcDbLine
 10
49.846908
 20
-18.663487
 30
0.0
 11
49.94945
 21
-19.021492
 31
0.0
  0
LINE
  5
E82EA
330
18
100
AcDbEntity
  8
1
100
AcDbLine
 10
49.94945
 20
-19.021492
 30
0.0
 11
50.031081
 21
-19.385049
 31
0.0
  0
LINE
  5
E82EB
330
18
100
AcDbEntity
  8
1
100
AcDbLine
 10
50.031081
 20
-19.385049
 30
0.0
 11
50.091527
 21
-19.752943
 31
0.0
  0
LINE
  5
E82EC
330
18
100
AcDbEntity
  8
1
100
AcDbLine
 10
50.091527
 20
-19.752943
 30
0.0
 11
50.130586
 21
-20.123945
 31
0.0
  0
LINE
  5
E82ED
330
18
100
AcDbEntity
  8
1
100
AcDbLine
 10
50.130586
 20
-20.123945
 30
0.0
 11
50.14812899999999
 21
-20.496819
 31
0.0
  0
LINE
  5
E82EE
330
18
100
AcDbEntity
  8
1
100
AcDbLine
 10
50.14812899999999
 20
-20.496819
 30
0.0
 11
50.14409699999998
 21
-20.870319
 31
0.0
  0
LINE
  5
E82EF
330
18
100
AcDbEntity
  8
1
100
AcDbLine
 10
50.14409699999998
 20
-20.870319
 30
0.0
 11
50.118503
 21
-21.243198
 31
0.0
  0
LINE
  5
E82F0
330
18
100
AcDbEntity
  8
1
100
AcDbLine
 10
50.118503
 20
-21.243198
 30
0.0
 11
50.071432
 21
-21.614212
 31
0.0
  0
LINE
  5
E82F1
330
18
100
AcDbEntity
  8
1
100
AcDbLine
 10
50.071432
 20
-21.614212
 30
0.0
 11
50.003042
 21
-21.982122
 31
0.0
  0
LINE
  5
E82F2
330
18
100
AcDbEntity
  8
1
100
AcDbLine
 10
50.003042
 20
-21.982122
 30
0.0
 11
49.913562
 21
-22.345701
 31
0.0
  0
LINE
  5
E82F3
330
18
100
AcDbEntity
  8
1
100
AcDbLine
 10
49.913562
 20
-22.345701
 30
0.0
 11
49.80328899999999
 21
-22.70373500000001
 31
0.0
  0
LINE
  5
E82F4
330
18
100
AcDbEntity
  8
1
100
AcDbLine
 10
49.80328899999999
 20
-22.70373500000001
 30
0.0
 11
49.672592
 21
-23.05502800000001
 31
0.0
  0
LINE
  5
E82F5
330
18
100
AcDbEntity
  8
1
100
AcDbLine
 10
49.672592
 20
-23.05502800000001
 30
0.0
 11
49.521906
 21
-23.39840800000001
 31
0.0
  0
LINE
  5
E82F6
330
18
100
AcDbEntity
  8
1
100
AcDbLine
 10
49.521906
 20
-23.39840800000001
 30
0.0
 11
49.35173599999998
 21
-23.732729
 31
0.0
  0
LINE
  5
E82F7
330
18
100
AcDbEntity
  8
1
100
AcDbLine
 10
49.35173599999998
 20
-23.732729
 30
0.0
 11
49.162649
 21
-24.05687600000001
 31
0.0
  0
LINE
  5
E82F8
330
18
100
AcDbEntity
  8
1
100
AcDbLine
 10
49.162649
 20
-24.05687600000001
 30
0.0
 11
48.955276
 21
-24.369765
 31
0.0
  0
LINE
  5
E82F9
330
18
100
AcDbEntity
  8
1
100
AcDbLine
 10
48.955276
 20
-24.369765
 30
0.0
 11
48.73031
 21
-24.670353
 31
0.0
  0
LINE
  5
E82FA
330
18
100
AcDbEntity
  8
1
100
AcDbLine
 10
48.73031
 20
-24.670353
 30
0.0
 11
48.4885
 21
-24.957636
 31
0.0
  0
LINE
  5
E82FB
330
18
100
AcDbEntity
  8
1
100
AcDbLine
 10
48.4885
 20
-24.957636
 30
0.0
 11
48.230656
 21
-25.23065600000001
 31
0.0
  0
LINE
  5
E82FC
330
18
100
AcDbEntity
  8
1
100
AcDbLine
 10
48.230656
 20
-25.23065600000001
 30
0.0
 11
47.95763599999999
 21
-25.48850100000001
 31
0.0
  0
LINE
  5
E82FD
330
18
100
AcDbEntity
  8
1
100
AcDbLine
 10
47.95763599999999
 20
-25.48850100000001
 30
0.0
 11
47.670353
 21
-25.73031
 31
0.0
  0
LINE
  5
E82FE
330
18
100
AcDbEntity
  8
1
100
AcDbLine
 10
47.670353
 20
-25.73031
 30
0.0
 11
47.36976499999999
 21
-25.955277
 31
0.0
  0
LINE
  5
E82FF
330
18
100
AcDbEntity
  8
1
100
AcDbLine
 10
47.36976499999999
 20
-25.955277
 30
0.0
 11
47.05687499999998
 21
-26.162649
 31
0.0
  0
LINE
  5
E8300
330
18
100
AcDbEntity
  8
1
100
AcDbLine
 10
47.05687499999998
 20
-26.162649
 30
0.0
 11
46.73272899999999
 21
-26.35173700000001
 31
0.0
  0
LINE
  5
E8301
330
18
100
AcDbEntity
  8
1
100
AcDbLine
 10
46.73272899999999
 20
-26.35173700000001
 30
0.0
 11
46.398408
 21
-26.52190700000001
 31
0.0
  0
LINE
  5
E8302
330
18
100
AcDbEntity
  8
1
100
AcDbLine
 10
46.398408
 20
-26.52190700000001
 30
0.0
 11
46.055027
 21
-26.672592
 31
0.0
  0
LINE
  5
E8303
330
18
100
AcDbEntity
  8
1
100
AcDbLine
 10
46.055027
 20
-26.672592
 30
0.0
 11
45.703734
 21
-26.80328900000001
 31
0.0
  0
LINE
  5
E8304
330
18
100
AcDbEntity
  8
1
100
AcDbLine
 10
45.703734
 20
-26.80328900000001
 30
0.0
 11
45.3457
 21
-26.913562
 31
0.0
  0
LINE
  5
E8305
330
18
100
AcDbEntity
  8
1
100
AcDbLine
 10
45.3457
 20
-26.913562
 30
0.0
 11
44.982122
 21
-27.003043
 31
0.0
  0
LINE
  5
E8306
330
18
100
AcDbEntity
  8
1
100
AcDbLine
 10
44.982122
 20
-27.003043
 30
0.0
 11
44.61421099999999
 21
-27.07143200000001
 31
0.0
  0
LINE
  5
E8307
330
18
100
AcDbEntity
  8
1
100
AcDbLine
 10
44.61421099999999
 20
-27.07143200000001
 30
0.0
 11
44.24319699999998
 21
-27.11850300000001
 31
0.0
  0
LINE
  5
E8308
330
18
100
AcDbEntity
  8
1
100
AcDbLine
 10
44.24319699999998
 20
-27.11850300000001
 30
0.0
 11
43.87031799999999
 21
-27.144097
 31
0.0
  0
LINE
  5
E8309
330
18
100
AcDbEntity
  8
1
100
AcDbLine
 10
43.87031799999999
 20
-27.144097
 30
0.0
 11
43.49681799999999
 21
-27.148129
 31
0.0
  0
LINE
  5
E830A
330
18
100
AcDbEntity
  8
1
100
AcDbLine
 10
43.49681799999999
 20
-27.148129
 30
0.0
 11
43.12394499999999
 21
-27.130586
 31
0.0
  0
LINE
  5
E830B
330
18
100
AcDbEntity
  8
1
100
AcDbLine
 10
43.12394499999999
 20
-27.130586
 30
0.0
 11
42.752942
 21
-27.09152600000001
 31
0.0
  0
LINE
  5
E830C
330
18
100
AcDbEntity
  8
1
100
AcDbLine
 10
42.752942
 20
-27.09152600000001
 30
0.0
 11
42.385048
 21
-27.03108100000001
 31
0.0
  0
LINE
  5
E830D
330
18
100
AcDbEntity
  8
1
100
AcDbLine
 10
42.385048
 20
-27.03108100000001
 30
0.0
 11
42.021492
 21
-26.94945000000001
 31
0.0
  0
LINE
  5
E830E
330
18
100
AcDbEntity
  8
1
100
AcDbLine
 10
42.021492
 20
-26.94945000000001
 30
0.0
 11
41.663486
 21
-26.84690700000001
 31
0.0
  0
LINE
  5
E830F
330
18
100
AcDbEntity
  8
1
100
AcDbLine
 10
41.663486
 20
-26.84690700000001
 30
0.0
 11
41.312226
 21
-26.72379500000001
 31
0.0
  0
LINE
  5
E8310
330
18
100
AcDbEntity
  8
1
100
AcDbLine
 10
41.312226
 20
-26.72379500000001
 30
0.0
 11
40.968884
 21
-26.58052400000001
 31
0.0
  0
LINE
  5
E8311
330
18
100
AcDbEntity
  8
1
100
AcDbLine
 10
40.968884
 20
-26.58052400000001
 30
0.0
 11
40.63460599999999
 21
-26.417572
 31
0.0
  0
LINE
  5
E8312
330
18
100
AcDbEntity
  8
1
100
AcDbLine
 10
40.63460599999999
 20
-26.417572
 30
0.0
 11
40.310508
 21
-26.23548300000001
 31
0.0
  0
LINE
  5
E8313
330
18
100
AcDbEntity
  8
1
100
AcDbLine
 10
40.310508
 20
-26.23548300000001
 30
0.0
 11
39.99767100000001
 21
-26.034866
 31
0.0
  0
LINE
  5
E8314
330
18
100
AcDbEntity
  8
1
100
AcDbLine
 10
39.99767100000001
 20
-26.034866
 30
0.0
 11
39.697141
 21
-25.81638900000001
 31
0.0
  0
LINE
  5
E8315
330
18
100
AcDbEntity
  8
1
100
AcDbLine
 10
39.697141
 20
-25.81638900000001
 30
0.0
 11
39.40992
 21
-25.58078200000001
 31
0.0
  0
LINE
  5
E8316
330
18
100
AcDbEntity
  8
1
100
AcDbLine
 10
39.40992
 20
-25.58078200000001
 30
0.0
 11
39.136966
 21
-25.32883200000001
 31
0.0
  0
LINE
  5
E8317
330
18
100
AcDbEntity
  8
1
100
AcDbLine
 10
39.136966
 20
-25.32883200000001
 30
0.0
 11
38.879192
 21
-25.06137900000001
 31
0.0
  0
LINE
  5
E8318
330
18
100
AcDbEntity
  8
1
100
AcDbLine
 10
38.879192
 20
-25.06137900000001
 30
0.0
 11
38.637457
 21
-24.77931600000001
 31
0.0
  0
LINE
  5
E8319
330
18
100
AcDbEntity
  8
1
100
AcDbLine
 10
38.637457
 20
-24.77931600000001
 30
0.0
 11
38.412568
 21
-24.483584
 31
0.0
  0
LINE
  5
E831A
330
18
100
AcDbEntity
  8
1
100
AcDbLine
 10
38.412568
 20
-24.483584
 30
0.0
 11
38.205276
 21
-24.17517200000001
 31
0.0
  0
LINE
  5
E831B
330
18
100
AcDbEntity
  8
1
100
AcDbLine
 10
38.205276
 20
-24.17517200000001
 30
0.0
 11
38.016272
 21
-23.85510700000001
 31
0.0
  0
LINE
  5
E831C
330
18
100
AcDbEntity
  8
1
100
AcDbLine
 10
16.847637
 20
-9.060159999999999
 30
0.0
 11
16.808391
 21
-9.028607000000002
 31
0.0
  0
LINE
  5
E831D
330
18
100
AcDbEntity
  8
1
100
AcDbLine
 10
16.808391
 20
-9.028607000000002
 30
0.0
 11
16.769621
 21
-8.948174000000001
 31
0.0
  0
LINE
  5
E831E
330
18
100
AcDbEntity
  8
1
100
AcDbLine
 10
16.769621
 20
-8.948174000000001
 30
0.0
 11
16.695378
 21
-8.645145000000001
 31
0.0
  0
LINE
  5
E831F
330
18
100
AcDbEntity
  8
1
100
AcDbLine
 10
16.695378
 20
-8.645145000000001
 30
0.0
 11
16.598851
 21
-7.866821000000001
 31
0.0
  0
LINE
  5
E8320
330
18
100
AcDbEntity
  8
1
100
AcDbLine
 10
16.598851
 20
-7.866821000000001
 30
0.0
 11
16.529263
 21
-6.777911000000001
 31
0.0
  0
LINE
  5
E8321
330
18
100
AcDbEntity
  8
1
100
AcDbLine
 10
16.529263
 20
-6.777911000000001
 30
0.0
 11
16.50170499999999
 21
-5.936632000000001
 31
0.0
  0
LINE
  5
E8322
330
18
100
AcDbEntity
  8
1
100
AcDbLine
 10
16.50170499999999
 20
-5.936632000000001
 30
0.0
 11
16.497309
 21
-4.160824999999999
 31
0.0
  0
LINE
  5
E8323
330
18
100
AcDbEntity
  8
1
100
AcDbLine
 10
16.497309
 20
-4.160824999999999
 30
0.0
 11
16.538403
 21
-2.916026
 31
0.0
  0
LINE
  5
E8324
330
18
100
AcDbEntity
  8
1
100
AcDbLine
 10
16.538403
 20
-2.916026
 30
0.0
 11
16.612981
 21
-1.896709999999997
 31
0.0
  0
LINE
  5
E8325
330
18
100
AcDbEntity
  8
1
100
AcDbLine
 10
16.612981
 20
-1.896709999999997
 30
0.0
 11
16.677439
 21
-1.398329
 31
0.0
  0
LINE
  5
E8326
330
18
100
AcDbEntity
  8
1
100
AcDbLine
 10
16.677439
 20
-1.398329
 30
0.0
 11
16.750129
 21
-1.074080999999997
 31
0.0
  0
LINE
  5
E8327
330
18
100
AcDbEntity
  8
1
100
AcDbLine
 10
16.750129
 20
-1.074080999999997
 30
0.0
 11
16.788474
 21
-0.9825110000000007
 31
0.0
  0
LINE
  5
E8328
330
18
100
AcDbEntity
  8
1
100
AcDbLine
 10
16.788474
 20
-0.9825110000000007
 30
0.0
 11
16.827536
 21
-0.939650000000001
 31
0.0
  0
LINE
  5
E8329
330
18
100
AcDbEntity
  8
1
100
AcDbLine
 10
16.827536
 20
-0.939650000000001
 30
0.0
 11
16.866842
 21
-0.946017000000001
 31
0.0
  0
LINE
  5
E832A
330
18
100
AcDbEntity
  8
1
100
AcDbLine
 10
16.866842
 20
-0.946017000000001
 30
0.0
 11
16.905914
 21
-1.001537000000001
 31
0.0
  0
LINE
  5
E832B
330
18
100
AcDbEntity
  8
1
100
AcDbLine
 10
16.905914
 20
-1.001537000000001
 30
0.0
 11
16.981474
 21
-1.256750000000001
 31
0.0
  0
LINE
  5
E832C
330
18
100
AcDbEntity
  8
1
100
AcDbLine
 10
17.000501
 20
-18.073575
 30
0.0
 11
16.837743
 21
-17.068354
 31
0.0
  0
LINE
  5
E832D
330
18
100
AcDbEntity
  8
1
100
AcDbLine
 10
16.837743
 20
-17.068354
 30
0.0
 11
16.68518
 21
-15.872337
 31
0.0
  0
LINE
  5
E832E
330
18
100
AcDbEntity
  8
1
100
AcDbLine
 10
16.68518
 20
-15.872337
 30
0.0
 11
16.50055
 21
-14.004253
 31
0.0
  0
LINE
  5
E832F
330
18
100
AcDbEntity
  8
1
100
AcDbLine
 10
16.50055
 20
-14.004253
 30
0.0
 11
16.340727
 21
-11.858072
 31
0.0
  0
LINE
  5
E8330
330
18
100
AcDbEntity
  8
1
100
AcDbLine
 10
16.340727
 20
-11.858072
 30
0.0
 11
16.208886
 21
-9.476413000000002
 31
0.0
  0
LINE
  5
E8331
330
18
100
AcDbEntity
  8
1
100
AcDbLine
 10
16.208886
 20
-9.476413000000002
 30
0.0
 11
16.107643
 21
-6.906569999999997
 31
0.0
  0
LINE
  5
E8332
330
18
100
AcDbEntity
  8
1
100
AcDbLine
 10
16.107643
 20
-6.906569999999997
 30
0.0
 11
16.03901
 21
-4.199576000000001
 31
0.0
  0
LINE
  5
E8333
330
18
100
AcDbEntity
  8
1
100
AcDbLine
 10
16.03901
 20
-4.199576000000001
 30
0.0
 11
16.017374
 21
-2.811369
 31
0.0
  0
LINE
  5
E8334
330
18
100
AcDbEntity
  8
1
100
AcDbLine
 10
16.017374
 20
-2.811369
 30
0.0
 11
16.0
 21
-0.000000000000001
 31
0.0
  0
LINE
  5
E8335
330
18
100
AcDbEntity
  8
1
100
AcDbLine
 10
16.0
 20
-0.000000000000001
 30
0.0
 11
16.017374
 21
2.811367999999998
 31
0.0
  0
LINE
  5
E8336
330
18
100
AcDbEntity
  8
1
100
AcDbLine
 10
16.017374
 20
2.811367999999998
 30
0.0
 11
16.069149
 21
5.566907999999997
 31
0.0
  0
LINE
  5
E8337
330
18
100
AcDbEntity
  8
1
100
AcDbLine
 10
16.069149
 20
5.566907999999997
 30
0.0
 11
16.154299
 21
8.211899999999998
 31
0.0
  0
LINE
  5
E8338
330
18
100
AcDbEntity
  8
1
100
AcDbLine
 10
16.154299
 20
8.211899999999998
 30
0.0
 11
16.271132
 21
10.69382
 31
0.0
  0
LINE
  5
E8339
330
18
100
AcDbEntity
  8
1
100
AcDbLine
 10
16.271132
 20
10.69382
 30
0.0
 11
16.417327
 21
12.963381
 31
0.0
  0
LINE
  5
E833A
330
18
100
AcDbEntity
  8
1
100
AcDbLine
 10
16.417327
 20
12.963381
 30
0.0
 11
16.589983
 21
14.975514
 31
0.0
  0
LINE
  5
E833B
330
18
100
AcDbEntity
  8
1
100
AcDbLine
 10
16.589983
 20
14.975514
 30
0.0
 11
16.734794
 21
16.291426
 31
0.0
  0
LINE
  5
E833C
330
18
100
AcDbEntity
  8
1
100
AcDbLine
 10
16.734794
 20
16.291426
 30
0.0
 11
16.890951
 21
17.425227
 31
0.0
  0
LINE
  5
E833D
330
18
100
AcDbEntity
  8
1
100
AcDbLine
 10
16.890951
 20
17.425227
 30
0.0
 11
17.000501
 21
18.073575
 31
0.0
  0
LINE
  5
E833E
330
18
100
AcDbEntity
  8
1
100
AcDbLine
 10
37.833509
 20
-21.928147
 30
0.0
 11
38.61779600000001
 21
-22.14289
 31
0.0
  0
LINE
  5
E833F
330
18
100
AcDbEntity
  8
1
100
AcDbLine
 10
44.92814699999999
 20
-14.833509
 30
0.0
 11
45.14289
 21
-15.617796
 31
0.0
  0
LINE
  5
E8340
330
18
100
AcDbEntity
  8
1
100
AcDbLine
 10
20.500778
 20
21.5
 30
0.0
 11
25.696763
 21
21.5
 31
0.0
  0
LINE
  5
E8341
330
18
100
AcDbEntity
  8
80
100
AcDbLine
 10
0.0
 20
0.0
 30
0.0
 11
-26.055364
 21
0.0000000000000016
 31
0.0
  0
LINE
  5
E8342
330
18
100
AcDbEntity
  8
81
100
AcDbLine
 10
0.0
 20
0.0
 30
0.0
 11
53.11007199999998
 21
-0.0000000000000033
 31
0.0
  0
LINE
  5
E8343
330
18
100
AcDbEntity
  8
4
100
AcDbLine
 10
0.0
 20
0.0
 30
0.0
 11
50.446254
 21
-0.0000000000000031
 31
0.0
  0
LINE
  5
E8344
330
18
100
AcDbEntity
  8
SK4
100
AcDbLine
 10
65.72707
 20
-0.000000000000004
 30
0.0
 11
-34.388618
 21
0.0000000000000021
 31
0.0
  0
POINT
  5
E8345
330
18
100
AcDbEntity
  8
81
100
AcDbPoint
 10
50.0
 20
-27.00000000000001
 30
0.0
 50
90.0
  0
POINT
  5
E8346
330
18
100
AcDbEntity
  8
80
100
AcDbPoint
 10
0.0
 20
0.0
 30
0.0
 50
90.0
  0
TEXT
  5
E8347
330
18
100
AcDbEntity
  8
SK6
100
AcDbText
 10
3.699999999999998
 20
-18.534079
 30
0.0
 40
2.7
  1
C4-CRSNL-27050-12ID
 50
90.0
 41
0.6395936008230453
  7
SANDVIK_STYLE
 72
     5
 11
3.700000000000001
 21
12.55017
 31
0.0
100
AcDbText
  0
POLYLINE
  5
E8348
330
18
100
AcDbEntity
  8
1
100
AcDb3dPolyline
 66
     1
 10
0.0
 20
0.0
 30
0.0
 70
     8
  0
VERTEX
  5
E8349
330
E8348
100
AcDbEntity
  8
1
100
AcDbVertex
100
AcDb3dPolylineVertex
 10
34.950403
 20
-20.93066
 30
0.0
 70
    32
  0
VERTEX
  5
E834A
330
E8348
100
AcDbEntity
  8
1
100
AcDbVertex
100
AcDb3dPolylineVertex
 10
35.170723
 20
-21.011737
 30
0.0
 70
    32
  0
VERTEX
  5
E834B
330
E8348
100
AcDbEntity
  8
1
100
AcDbVertex
100
AcDb3dPolylineVertex
 10
35.391042
 20
-21.092814
 30
0.0
 70
    32
  0
VERTEX
  5
E834C
330
E8348
100
AcDbEntity
  8
1
100
AcDbVertex
100
AcDb3dPolylineVertex
 10
35.611362
 20
-21.173891
 30
0.0
 70
    32
  0
VERTEX
  5
E834D
330
E8348
100
AcDbEntity
  8
1
100
AcDbVertex
100
AcDb3dPolylineVertex
 10
35.831682
 20
-21.254969
 30
0.0
 70
    32
  0
VERTEX
  5
E834E
330
E8348
100
AcDbEntity
  8
1
100
AcDbVertex
100
AcDb3dPolylineVertex
 10
36.052002
 20
-21.336046
 30
0.0
 70
    32
  0
VERTEX
  5
E834F
330
E8348
100
AcDbEntity
  8
1
100
AcDbVertex
100
AcDb3dPolylineVertex
 10
36.272321
 20
-21.417123
 30
0.0
 70
    32
  0
VERTEX
  5
E8350
330
E8348
100
AcDbEntity
  8
1
100
AcDbVertex
100
AcDb3dPolylineVertex
 10
36.492641
 20
-21.4982
 30
0.0
 70
    32
  0
VERTEX
  5
E8351
330
E8348
100
AcDbEntity
  8
1
100
AcDbVertex
100
AcDb3dPolylineVertex
 10
36.712961
 20
-21.579277
 30
0.0
 70
    32
  0
VERTEX
  5
E8352
330
E8348
100
AcDbEntity
  8
1
100
AcDbVertex
100
AcDb3dPolylineVertex
 10
36.936021
 20
-21.652372
 30
0.0
 70
    32
  0
VERTEX
  5
E8353
330
E8348
100
AcDbEntity
  8
1
100
AcDbVertex
100
AcDb3dPolylineVertex
 10
37.15969000000001
 20
-21.723692
 30
0.0
 70
    32
  0
VERTEX
  5
E8354
330
E8348
100
AcDbEntity
  8
1
100
AcDbVertex
100
AcDb3dPolylineVertex
 10
37.383358
 20
-21.795012
 30
0.0
 70
    32
  0
VERTEX
  5
E8355
330
E8348
100
AcDbEntity
  8
1
100
AcDbVertex
100
AcDb3dPolylineVertex
 10
37.60705
 20
-21.866254
 30
0.0
 70
    32
  0
VERTEX
  5
E8356
330
E8348
100
AcDbEntity
  8
1
100
AcDbVertex
100
AcDb3dPolylineVertex
 10
37.833509
 20
-21.928147
 30
0.0
 70
    32
  0
SEQEND
  5
E8357
330
E8348
100
AcDbEntity
  8
1
  0
POLYLINE
  5
E8358
330
18
100
AcDbEntity
  8
1
100
AcDb3dPolyline
 66
     1
 10
0.0
 20
0.0
 30
0.0
 70
     8
  0
VERTEX
  5
E8359
330
E8358
100
AcDbEntity
  8
1
100
AcDbVertex
100
AcDb3dPolylineVertex
 10
43.930659
 20
-11.950403
 30
0.0
 70
    32
  0
VERTEX
  5
E835A
330
E8358
100
AcDbEntity
  8
1
100
AcDbVertex
100
AcDb3dPolylineVertex
 10
44.011687
 20
-12.170742
 30
0.0
 70
    32
  0
VERTEX
  5
E835B
330
E8358
100
AcDbEntity
  8
1
100
AcDbVertex
100
AcDb3dPolylineVertex
 10
44.09271599999999
 20
-12.391081
 30
0.0
 70
    32
  0
VERTEX
  5
E835C
330
E8358
100
AcDbEntity
  8
1
100
AcDbVertex
100
AcDb3dPolylineVertex
 10
44.17374399999999
 20
-12.611419
 30
0.0
 70
    32
  0
VERTEX
  5
E835D
330
E8358
100
AcDbEntity
  8
1
100
AcDbVertex
100
AcDb3dPolylineVertex
 10
44.25477299999999
 20
-12.831758
 30
0.0
 70
    32
  0
VERTEX
  5
E835E
330
E8358
100
AcDbEntity
  8
1
100
AcDbVertex
100
AcDb3dPolylineVertex
 10
44.335801
 20
-13.052097
 30
0.0
 70
    32
  0
VERTEX
  5
E835F
330
E8358
100
AcDbEntity
  8
1
100
AcDbVertex
100
AcDb3dPolylineVertex
 10
44.41683
 20
-13.272436
 30
0.0
 70
    32
  0
VERTEX
  5
E8360
330
E8358
100
AcDbEntity
  8
1
100
AcDbVertex
100
AcDb3dPolylineVertex
 10
44.49785799999999
 20
-13.492774
 30
0.0
 70
    32
  0
VERTEX
  5
E8361
330
E8358
100
AcDbEntity
  8
1
100
AcDbVertex
100
AcDb3dPolylineVertex
 10
44.574127
 20
-13.714799
 30
0.0
 70
    32
  0
VERTEX
  5
E8362
330
E8358
100
AcDbEntity
  8
1
100
AcDbVertex
100
AcDb3dPolylineVertex
 10
44.64986399999999
 20
-13.937012
 30
0.0
 70
    32
  0
VERTEX
  5
E8363
330
E8358
100
AcDbEntity
  8
1
100
AcDbVertex
100
AcDb3dPolylineVertex
 10
44.7256
 20
-14.159226
 30
0.0
 70
    32
  0
VERTEX
  5
E8364
330
E8358
100
AcDbEntity
  8
1
100
AcDbVertex
100
AcDb3dPolylineVertex
 10
44.80133699999998
 20
-14.381439
 30
0.0
 70
    32
  0
VERTEX
  5
E8365
330
E8358
100
AcDbEntity
  8
1
100
AcDbVertex
100
AcDb3dPolylineVertex
 10
44.86494699999999
 20
-14.607411
 30
0.0
 70
    32
  0
VERTEX
  5
E8366
330
E8358
100
AcDbEntity
  8
1
100
AcDbVertex
100
AcDb3dPolylineVertex
 10
44.92814699999999
 20
-14.833509
 30
0.0
 70
    32
  0
SEQEND
  5
E8367
330
E8358
100
AcDbEntity
  8
1
  0
POLYLINE
  5
E8368
330
18
100
AcDbEntity
  8
1
100
AcDb3dPolyline
 66
     1
 10
0.0
 20
0.0
 30
0.0
 70
     8
  0
VERTEX
  5
E8369
330
E8368
100
AcDbEntity
  8
1
100
AcDbVertex
100
AcDb3dPolylineVertex
 10
44.824098
 20
-16.591328
 30
0.0
 70
    32
  0
VERTEX
  5
E836A
330
E8368
100
AcDbEntity
  8
1
100
AcDbVertex
100
AcDb3dPolylineVertex
 10
44.855462
 20
-16.554159
 30
0.0
 70
    32
  0
VERTEX
  5
E836B
330
E8368
100
AcDbEntity
  8
1
100
AcDbVertex
100
AcDb3dPolylineVertex
 10
44.886827
 20
-16.516989
 30
0.0
 70
    32
  0
VERTEX
  5
E836C
330
E8368
100
AcDbEntity
  8
1
100
AcDbVertex
100
AcDb3dPolylineVertex
 10
44.91819099999999
 20
-16.47982
 30
0.0
 70
    32
  0
VERTEX
  5
E836D
330
E8368
100
AcDbEntity
  8
1
100
AcDbVertex
100
AcDb3dPolylineVertex
 10
44.94955599999999
 20
-16.44265
 30
0.0
 70
    32
  0
VERTEX
  5
E836E
330
E8368
100
AcDbEntity
  8
1
100
AcDbVertex
100
AcDb3dPolylineVertex
 10
44.97737599999999
 20
-16.402988
 30
0.0
 70
    32
  0
VERTEX
  5
E836F
330
E8368
100
AcDbEntity
  8
1
100
AcDbVertex
100
AcDb3dPolylineVertex
 10
45.001749
 20
-16.360902
 30
0.0
 70
    32
  0
VERTEX
  5
E8370
330
E8368
100
AcDbEntity
  8
1
100
AcDbVertex
100
AcDb3dPolylineVertex
 10
45.02612199999999
 20
-16.318816
 30
0.0
 70
    32
  0
VERTEX
  5
E8371
330
E8368
100
AcDbEntity
  8
1
100
AcDbVertex
100
AcDb3dPolylineVertex
 10
45.050495
 20
-16.27673
 30
0.0
 70
    32
  0
VERTEX
  5
E8372
330
E8368
100
AcDbEntity
  8
1
100
AcDbVertex
100
AcDb3dPolylineVertex
 10
45.074186
 20
-16.23433
 30
0.0
 70
    32
  0
VERTEX
  5
E8373
330
E8368
100
AcDbEntity
  8
1
100
AcDbVertex
100
AcDb3dPolylineVertex
 10
45.090232
 20
-16.188419
 30
0.0
 70
    32
  0
VERTEX
  5
E8374
330
E8368
100
AcDbEntity
  8
1
100
AcDbVertex
100
AcDb3dPolylineVertex
 10
45.106278
 20
-16.142508
 30
0.0
 70
    32
  0
VERTEX
  5
E8375
330
E8368
100
AcDbEntity
  8
1
100
AcDbVertex
100
AcDb3dPolylineVertex
 10
45.122324
 20
-16.096597
 30
0.0
 70
    32
  0
VERTEX
  5
E8376
330
E8368
100
AcDbEntity
  8
1
100
AcDbVertex
100
AcDb3dPolylineVertex
 10
45.13837
 20
-16.050686
 30
0.0
 70
    32
  0
VERTEX
  5
E8377
330
E8368
100
AcDbEntity
  8
1
100
AcDbVertex
100
AcDb3dPolylineVertex
 10
45.148782
 20
-16.003333
 30
0.0
 70
    32
  0
VERTEX
  5
E8378
330
E8368
100
AcDbEntity
  8
1
100
AcDbVertex
100
AcDb3dPolylineVertex
 10
45.156774
 20
-15.95536
 30
0.0
 70
    32
  0
VERTEX
  5
E8379
330
E8368
100
AcDbEntity
  8
1
100
AcDbVertex
100
AcDb3dPolylineVertex
 10
45.164765
 20
-15.907387
 30
0.0
 70
    32
  0
VERTEX
  5
E837A
330
E8368
100
AcDbEntity
  8
1
100
AcDbVertex
100
AcDb3dPolylineVertex
 10
45.166481
 20
-15.858871
 30
0.0
 70
    32
  0
VERTEX
  5
E837B
330
E8368
100
AcDbEntity
  8
1
100
AcDbVertex
100
AcDb3dPolylineVertex
 10
45.166845
 20
-15.810238
 30
0.0
 70
    32
  0
VERTEX
  5
E837C
330
E8368
100
AcDbEntity
  8
1
100
AcDbVertex
100
AcDb3dPolylineVertex
 10
45.167209
 20
-15.761605
 30
0.0
 70
    32
  0
VERTEX
  5
E837D
330
E8368
100
AcDbEntity
  8
1
100
AcDbVertex
100
AcDb3dPolylineVertex
 10
45.15949899999998
 20
-15.713636
 30
0.0
 70
    32
  0
VERTEX
  5
E837E
330
E8368
100
AcDbEntity
  8
1
100
AcDbVertex
100
AcDb3dPolylineVertex
 10
45.15119399999998
 20
-15.665716
 30
0.0
 70
    32
  0
VERTEX
  5
E837F
330
E8368
100
AcDbEntity
  8
1
100
AcDbVertex
100
AcDb3dPolylineVertex
 10
45.14289
 20
-15.617796
 30
0.0
 70
    32
  0
SEQEND
  5
E8380
330
E8368
100
AcDbEntity
  8
1
  0
POLYLINE
  5
E8381
330
18
100
AcDbEntity
  8
1
100
AcDb3dPolyline
 66
     1
 10
0.0
 20
0.0
 30
0.0
 70
     8
  0
VERTEX
  5
E8382
330
E8381
100
AcDbEntity
  8
1
100
AcDbVertex
100
AcDb3dPolylineVertex
 10
39.4871
 20
-21.719854
 30
0.0
 70
    32
  0
VERTEX
  5
E8383
330
E8381
100
AcDbEntity
  8
1
100
AcDbVertex
100
AcDb3dPolylineVertex
 10
39.437011
 20
-21.755179
 30
0.0
 70
    32
  0
VERTEX
  5
E8384
330
E8381
100
AcDbEntity
  8
1
100
AcDbVertex
100
AcDb3dPolylineVertex
 10
39.386921
 20
-21.790505
 30
0.0
 70
    32
  0
VERTEX
  5
E8385
330
E8381
100
AcDbEntity
  8
1
100
AcDbVertex
100
AcDb3dPolylineVertex
 10
39.336832
 20
-21.82583000000001
 30
0.0
 70
    32
  0
VERTEX
  5
E8386
330
E8381
100
AcDbEntity
  8
1
100
AcDbVertex
100
AcDb3dPolylineVertex
 10
39.286743
 20
-21.861155
 30
0.0
 70
    32
  0
VERTEX
  5
E8387
330
E8381
100
AcDbEntity
  8
1
100
AcDbVertex
100
AcDb3dPolylineVertex
 10
39.23134000000001
 20
-21.886274
 30
0.0
 70
    32
  0
VERTEX
  5
E8388
330
E8381
100
AcDbEntity
  8
1
100
AcDbVertex
100
AcDb3dPolylineVertex
 10
39.173673
 20
-21.907043
 30
0.0
 70
    32
  0
VERTEX
  5
E8389
330
E8381
100
AcDbEntity
  8
1
100
AcDbVertex
100
AcDb3dPolylineVertex
 10
39.11600700000001
 20
-21.927812
 30
0.0
 70
    32
  0
VERTEX
  5
E838A
330
E8381
100
AcDbEntity
  8
1
100
AcDbVertex
100
AcDb3dPolylineVertex
 10
39.05834
 20
-21.94858100000001
 30
0.0
 70
    32
  0
VERTEX
  5
E838B
330
E8381
100
AcDbEntity
  8
1
100
AcDbVertex
100
AcDb3dPolylineVertex
 10
38.9996
 20
-21.96452900000001
 30
0.0
 70
    32
  0
VERTEX
  5
E838C
330
E8381
100
AcDbEntity
  8
1
100
AcDbVertex
100
AcDb3dPolylineVertex
 10
38.938568
 20
-21.97017500000001
 30
0.0
 70
    32
  0
VERTEX
  5
E838D
330
E8381
100
AcDbEntity
  8
1
100
AcDbVertex
100
AcDb3dPolylineVertex
 10
38.877535
 20
-21.975821
 30
0.0
 70
    32
  0
VERTEX
  5
E838E
330
E8381
100
AcDbEntity
  8
1
100
AcDbVertex
100
AcDb3dPolylineVertex
 10
38.816503
 20
-21.981468
 30
0.0
 70
    32
  0
VERTEX
  5
E838F
330
E8381
100
AcDbEntity
  8
1
100
AcDbVertex
100
AcDb3dPolylineVertex
 10
38.755471
 20
-21.987114
 30
0.0
 70
    32
  0
VERTEX
  5
E8390
330
E8381
100
AcDbEntity
  8
1
100
AcDbVertex
100
AcDb3dPolylineVertex
 10
38.694643
 20
-21.98182500000001
 30
0.0
 70
    32
  0
VERTEX
  5
E8391
330
E8381
100
AcDbEntity
  8
1
100
AcDbVertex
100
AcDb3dPolylineVertex
 10
38.633865
 20
-21.97389900000001
 30
0.0
 70
    32
  0
VERTEX
  5
E8392
330
E8381
100
AcDbEntity
  8
1
100
AcDbVertex
100
AcDb3dPolylineVertex
 10
38.573087
 20
-21.96597200000001
 30
0.0
 70
    32
  0
VERTEX
  5
E8393
330
E8381
100
AcDbEntity
  8
1
100
AcDbVertex
100
AcDb3dPolylineVertex
 10
38.51237000000001
 20
-21.957771
 30
0.0
 70
    32
  0
VERTEX
  5
E8394
330
E8381
100
AcDbEntity
  8
1
100
AcDbVertex
100
AcDb3dPolylineVertex
 10
38.453957
 20
-21.939202
 30
0.0
 70
    32
  0
VERTEX
  5
E8395
330
E8381
100
AcDbEntity
  8
1
100
AcDbVertex
100
AcDb3dPolylineVertex
 10
38.395545
 20
-21.920633
 30
0.0
 70
    32
  0
SEQEND
  5
E8396
330
E8381
100
AcDbEntity
  8
1
  0
POLYLINE
  5
E8397
330
18
100
AcDbEntity
  8
1
100
AcDb3dPolyline
 66
     1
 10
0.0
 20
0.0
 30
0.0
 70
     8
  0
VERTEX
  5
E8398
330
E8397
100
AcDbEntity
  8
1
100
AcDbVertex
100
AcDb3dPolylineVertex
 10
44.719854
 20
-16.4871
 30
0.0
 70
    32
  0
VERTEX
  5
E8399
330
E8397
100
AcDbEntity
  8
1
100
AcDbVertex
100
AcDb3dPolylineVertex
 10
44.753797
 20
-16.446366
 30
0.0
 70
    32
  0
VERTEX
  5
E839A
330
E8397
100
AcDbEntity
  8
1
100
AcDbVertex
100
AcDb3dPolylineVertex
 10
44.78774
 20
-16.405631
 30
0.0
 70
    32
  0
VERTEX
  5
E839B
330
E8397
100
AcDbEntity
  8
1
100
AcDbVertex
100
AcDb3dPolylineVertex
 10
44.819709
 20
-16.363518
 30
0.0
 70
    32
  0
VERTEX
  5
E839C
330
E8397
100
AcDbEntity
  8
1
100
AcDbVertex
100
AcDb3dPolylineVertex
 10
44.84625499999999
 20
-16.317619
 30
0.0
 70
    32
  0
VERTEX
  5
E839D
330
E8397
100
AcDbEntity
  8
1
100
AcDbVertex
100
AcDb3dPolylineVertex
 10
44.872801
 20
-16.27172
 30
0.0
 70
    32
  0
VERTEX
  5
E839E
330
E8397
100
AcDbEntity
  8
1
100
AcDbVertex
100
AcDb3dPolylineVertex
 10
44.895319
 20
-16.223875
 30
0.0
 70
    32
  0
VERTEX
  5
E839F
330
E8397
100
AcDbEntity
  8
1
100
AcDbVertex
100
AcDb3dPolylineVertex
 10
44.914772
 20
-16.174549
 30
0.0
 70
    32
  0
VERTEX
  5
E83A0
330
E8397
100
AcDbEntity
  8
1
100
AcDbVertex
100
AcDb3dPolylineVertex
 10
44.934225
 20
-16.125224
 30
0.0
 70
    32
  0
VERTEX
  5
E83A1
330
E8397
100
AcDbEntity
  8
1
100
AcDbVertex
100
AcDb3dPolylineVertex
 10
44.94586199999999
 20
-16.073581
 30
0.0
 70
    32
  0
VERTEX
  5
E83A2
330
E8397
100
AcDbEntity
  8
1
100
AcDbVertex
100
AcDb3dPolylineVertex
 10
44.956439
 20
-16.021624
 30
0.0
 70
    32
  0
VERTEX
  5
E83A3
330
E8397
100
AcDbEntity
  8
1
100
AcDbVertex
100
AcDb3dPolylineVertex
 10
44.967017
 20
-15.969667
 30
0.0
 70
    32
  0
VERTEX
  5
E83A4
330
E8397
100
AcDbEntity
  8
1
100
AcDbVertex
100
AcDb3dPolylineVertex
 10
44.97759499999999
 20
-15.917709
 30
0.0
 70
    32
  0
VERTEX
  5
E83A5
330
E8397
100
AcDbEntity
  8
1
100
AcDbVertex
100
AcDb3dPolylineVertex
 10
44.984469
 20
-15.86541099999999
 30
0.0
 70
    32
  0
VERTEX
  5
E83A6
330
E8397
100
AcDbEntity
  8
1
100
AcDbVertex
100
AcDb3dPolylineVertex
 10
44.983573
 20
-15.812395
 30
0.0
 70
    32
  0
VERTEX
  5
E83A7
330
E8397
100
AcDbEntity
  8
1
100
AcDbVertex
100
AcDb3dPolylineVertex
 10
44.98267799999999
 20
-15.75938
 30
0.0
 70
    32
  0
VERTEX
  5
E83A8
330
E8397
100
AcDbEntity
  8
1
100
AcDbVertex
100
AcDb3dPolylineVertex
 10
44.981782
 20
-15.706365
 30
0.0
 70
    32
  0
VERTEX
  5
E83A9
330
E8397
100
AcDbEntity
  8
1
100
AcDbVertex
100
AcDb3dPolylineVertex
 10
44.98088599999999
 20
-15.653349
 30
0.0
 70
    32
  0
VERTEX
  5
E83AA
330
E8397
100
AcDbEntity
  8
1
100
AcDbVertex
100
AcDb3dPolylineVertex
 10
44.971546
 20
-15.601435
 30
0.0
 70
    32
  0
VERTEX
  5
E83AB
330
E8397
100
AcDbEntity
  8
1
100
AcDbVertex
100
AcDb3dPolylineVertex
 10
44.958818
 20
-15.549963
 30
0.0
 70
    32
  0
VERTEX
  5
E83AC
330
E8397
100
AcDbEntity
  8
1
100
AcDbVertex
100
AcDb3dPolylineVertex
 10
44.946089
 20
-15.49849
 30
0.0
 70
    32
  0
VERTEX
  5
E83AD
330
E8397
100
AcDbEntity
  8
1
100
AcDbVertex
100
AcDb3dPolylineVertex
 10
44.93336099999999
 20
-15.447018
 30
0.0
 70
    32
  0
VERTEX
  5
E83AE
330
E8397
100
AcDbEntity
  8
1
100
AcDbVertex
100
AcDb3dPolylineVertex
 10
44.920633
 20
-15.395545
 30
0.0
 70
    32
  0
SEQEND
  5
E83AF
330
E8397
100
AcDbEntity
  8
1
  0
POLYLINE
  5
E83B0
330
18
100
AcDbEntity
  8
1
100
AcDb3dPolyline
 66
     1
 10
0.0
 20
0.0
 30
0.0
 70
     8
  0
VERTEX
  5
E83B1
330
E83B0
100
AcDbEntity
  8
1
100
AcDbVertex
100
AcDb3dPolylineVertex
 10
39.59132800000001
 20
-21.824098
 30
0.0
 70
    32
  0
VERTEX
  5
E83B2
330
E83B0
100
AcDbEntity
  8
1
100
AcDbVertex
100
AcDb3dPolylineVertex
 10
39.547568
 20
-21.85946400000001
 30
0.0
 70
    32
  0
VERTEX
  5
E83B3
330
E83B0
100
AcDbEntity
  8
1
100
AcDbVertex
100
AcDb3dPolylineVertex
 10
39.50380900000001
 20
-21.89482900000001
 30
0.0
 70
    32
  0
VERTEX
  5
E83B4
330
E83B0
100
AcDbEntity
  8
1
100
AcDbVertex
100
AcDb3dPolylineVertex
 10
39.460049
 20
-21.93019500000001
 30
0.0
 70
    32
  0
VERTEX
  5
E83B5
330
E83B0
100
AcDbEntity
  8
1
100
AcDbVertex
100
AcDb3dPolylineVertex
 10
39.416289
 20
-21.96556000000001
 30
0.0
 70
    32
  0
VERTEX
  5
E83B6
330
E83B0
100
AcDbEntity
  8
1
100
AcDbVertex
100
AcDb3dPolylineVertex
 10
39.369636
 20
-21.996524
 30
0.0
 70
    32
  0
VERTEX
  5
E83B7
330
E83B0
100
AcDbEntity
  8
1
100
AcDbVertex
100
AcDb3dPolylineVertex
 10
39.319816
 20
-22.022671
 30
0.0
 70
    32
  0
VERTEX
  5
E83B8
330
E83B0
100
AcDbEntity
  8
1
100
AcDbVertex
100
AcDb3dPolylineVertex
 10
39.269997
 20
-22.04881900000001
 30
0.0
 70
    32
  0
VERTEX
  5
E83B9
330
E83B0
100
AcDbEntity
  8
1
100
AcDbVertex
100
AcDb3dPolylineVertex
 10
39.22017800000001
 20
-22.074966
 30
0.0
 70
    32
  0
VERTEX
  5
E83BA
330
E83B0
100
AcDbEntity
  8
1
100
AcDbVertex
100
AcDb3dPolylineVertex
 10
39.17035900000001
 20
-22.10111400000001
 30
0.0
 70
    32
  0
VERTEX
  5
E83BB
330
E83B0
100
AcDbEntity
  8
1
100
AcDbVertex
100
AcDb3dPolylineVertex
 10
39.116035
 20
-22.115311
 30
0.0
 70
    32
  0
VERTEX
  5
E83BC
330
E83B0
100
AcDbEntity
  8
1
100
AcDbVertex
100
AcDb3dPolylineVertex
 10
39.06135300000001
 20
-22.128559
 30
0.0
 70
    32
  0
VERTEX
  5
E83BD
330
E83B0
100
AcDbEntity
  8
1
100
AcDbVertex
100
AcDb3dPolylineVertex
 10
39.00667
 20
-22.141807
 30
0.0
 70
    32
  0
VERTEX
  5
E83BE
330
E83B0
100
AcDbEntity
  8
1
100
AcDbVertex
100
AcDb3dPolylineVertex
 10
38.951988
 20
-22.155055
 30
0.0
 70
    32
  0
VERTEX
  5
E83BF
330
E83B0
100
AcDbEntity
  8
1
100
AcDbVertex
100
AcDb3dPolylineVertex
 10
38.896881
 20
-22.16471
 30
0.0
 70
    32
  0
VERTEX
  5
E83C0
330
E83B0
100
AcDbEntity
  8
1
100
AcDbVertex
100
AcDb3dPolylineVertex
 10
38.840617
 20
-22.164608
 30
0.0
 70
    32
  0
VERTEX
  5
E83C1
330
E83B0
100
AcDbEntity
  8
1
100
AcDbVertex
100
AcDb3dPolylineVertex
 10
38.78435300000001
 20
-22.164506
 30
0.0
 70
    32
  0
VERTEX
  5
E83C2
330
E83B0
100
AcDbEntity
  8
1
100
AcDbVertex
100
AcDb3dPolylineVertex
 10
38.72808900000001
 20
-22.16440400000001
 30
0.0
 70
    32
  0
VERTEX
  5
E83C3
330
E83B0
100
AcDbEntity
  8
1
100
AcDbVertex
100
AcDb3dPolylineVertex
 10
38.672857
 20
-22.154465
 30
0.0
 70
    32
  0
VERTEX
  5
E83C4
330
E83B0
100
AcDbEntity
  8
1
100
AcDbVertex
100
AcDb3dPolylineVertex
 10
38.61779600000001
 20
-22.14289
 30
0.0
 70
    32
  0
SEQEND
  5
E83C5
330
E83B0
100
AcDbEntity
  8
1
  0
POLYLINE
  5
E83C6
330
18
100
AcDbEntity
  8
1
100
AcDb3dPolyline
 66
     1
 10
0.0
 20
0.0
 30
0.0
 70
     8
  0
VERTEX
  5
E83C7
330
E83C6
100
AcDbEntity
  8
1
100
AcDbVertex
100
AcDb3dPolylineVertex
 10
9.076794999999997
 20
5.859963999999997
 30
0.0
 70
    32
  0
VERTEX
  5
E83C8
330
E83C6
100
AcDbEntity
  8
1
100
AcDbVertex
100
AcDb3dPolylineVertex
 10
8.358932000000001
 20
5.859963999999997
 30
0.0
 70
    32
  0
VERTEX
  5
E83C9
330
E83C6
100
AcDbEntity
  8
1
100
AcDbVertex
100
AcDb3dPolylineVertex
 10
7.641067999999997
 20
5.859963999999997
 30
0.0
 70
    32
  0
VERTEX
  5
E83CA
330
E83C6
100
AcDbEntity
  8
1
100
AcDbVertex
100
AcDb3dPolylineVertex
 10
6.923205
 20
5.859963999999997
 30
0.0
 70
    32
  0
SEQEND
  5
E83CB
330
E83C6
100
AcDbEntity
  8
1
  0
POLYLINE
  5
E83CC
330
18
100
AcDbEntity
  8
1
100
AcDb3dPolyline
 66
     1
 10
0.0
 20
0.0
 30
0.0
 70
     8
  0
VERTEX
  5
E83CD
330
E83CC
100
AcDbEntity
  8
1
100
AcDbVertex
100
AcDb3dPolylineVertex
 10
9.336603
 20
-6.169805999999997
 30
0.0
 70
    32
  0
VERTEX
  5
E83CE
330
E83CC
100
AcDbEntity
  8
1
100
AcDbVertex
100
AcDb3dPolylineVertex
 10
9.392151999999999
 20
-6.379526999999997
 30
0.0
 70
    32
  0
VERTEX
  5
E83CF
330
E83CC
100
AcDbEntity
  8
1
100
AcDbVertex
100
AcDb3dPolylineVertex
 10
9.447701999999999
 20
-6.589249000000001
 30
0.0
 70
    32
  0
VERTEX
  5
E83D0
330
E83CC
100
AcDbEntity
  8
1
100
AcDbVertex
100
AcDb3dPolylineVertex
 10
9.503250999999997
 20
-6.798969999999997
 30
0.0
 70
    32
  0
VERTEX
  5
E83D1
330
E83CC
100
AcDbEntity
  8
1
100
AcDbVertex
100
AcDb3dPolylineVertex
 10
9.558799999999999
 20
-7.008691000000001
 30
0.0
 70
    32
  0
VERTEX
  5
E83D2
330
E83CC
100
AcDbEntity
  8
1
100
AcDbVertex
100
AcDb3dPolylineVertex
 10
9.611342
 20
-7.219174999999999
 30
0.0
 70
    32
  0
VERTEX
  5
E83D3
330
E83CC
100
AcDbEntity
  8
1
100
AcDbVertex
100
AcDb3dPolylineVertex
 10
9.662366
 20
-7.430042999999997
 30
0.0
 70
    32
  0
VERTEX
  5
E83D4
330
E83CC
100
AcDbEntity
  8
1
100
AcDbVertex
100
AcDb3dPolylineVertex
 10
9.713389999999996
 20
-7.640911
 30
0.0
 70
    32
  0
VERTEX
  5
E83D5
330
E83CC
100
AcDbEntity
  8
1
100
AcDbVertex
100
AcDb3dPolylineVertex
 10
9.764412999999999
 20
-7.851778999999997
 30
0.0
 70
    32
  0
VERTEX
  5
E83D6
330
E83CC
100
AcDbEntity
  8
1
100
AcDbVertex
100
AcDb3dPolylineVertex
 10
9.813822999999999
 20
-8.063017999999999
 30
0.0
 70
    32
  0
VERTEX
  5
E83D7
330
E83CC
100
AcDbEntity
  8
1
100
AcDbVertex
100
AcDb3dPolylineVertex
 10
9.859958999999999
 20
-8.275008999999997
 30
0.0
 70
    32
  0
VERTEX
  5
E83D8
330
E83CC
100
AcDbEntity
  8
1
100
AcDbVertex
100
AcDb3dPolylineVertex
 10
9.906095
 20
-8.487
 30
0.0
 70
    32
  0
VERTEX
  5
E83D9
330
E83CC
100
AcDbEntity
  8
1
100
AcDbVertex
100
AcDb3dPolylineVertex
 10
9.952230999999999
 20
-8.698990999999999
 30
0.0
 70
    32
  0
VERTEX
  5
E83DA
330
E83CC
100
AcDbEntity
  8
1
100
AcDbVertex
100
AcDb3dPolylineVertex
 10
9.998367
 20
-8.910982
 30
0.0
 70
    32
  0
VERTEX
  5
E83DB
330
E83CC
100
AcDbEntity
  8
1
100
AcDbVertex
100
AcDb3dPolylineVertex
 10
10.039547
 20
-9.123991
 30
0.0
 70
    32
  0
VERTEX
  5
E83DC
330
E83CC
100
AcDbEntity
  8
1
100
AcDbVertex
100
AcDb3dPolylineVertex
 10
10.080711
 20
-9.337003999999996
 30
0.0
 70
    32
  0
VERTEX
  5
E83DD
330
E83CC
100
AcDbEntity
  8
1
100
AcDbVertex
100
AcDb3dPolylineVertex
 10
10.121875
 20
-9.550015999999999
 30
0.0
 70
    32
  0
VERTEX
  5
E83DE
330
E83CC
100
AcDbEntity
  8
1
100
AcDbVertex
100
AcDb3dPolylineVertex
 10
10.163038
 20
-9.763028999999999
 30
0.0
 70
    32
  0
VERTEX
  5
E83DF
330
E83CC
100
AcDbEntity
  8
1
100
AcDbVertex
100
AcDb3dPolylineVertex
 10
10.199286
 20
-9.976925999999997
 30
0.0
 70
    32
  0
VERTEX
  5
E83E0
330
E83CC
100
AcDbEntity
  8
1
100
AcDbVertex
100
AcDb3dPolylineVertex
 10
10.235005
 20
-10.190919
 30
0.0
 70
    32
  0
VERTEX
  5
E83E1
330
E83CC
100
AcDbEntity
  8
1
100
AcDbVertex
100
AcDb3dPolylineVertex
 10
10.270723
 20
-10.404912
 30
0.0
 70
    32
  0
VERTEX
  5
E83E2
330
E83CC
100
AcDbEntity
  8
1
100
AcDbVertex
100
AcDb3dPolylineVertex
 10
10.306442
 20
-10.618905
 30
0.0
 70
    32
  0
VERTEX
  5
E83E3
330
E83CC
100
AcDbEntity
  8
1
100
AcDbVertex
100
AcDb3dPolylineVertex
 10
10.336987
 20
-10.833682
 30
0.0
 70
    32
  0
VERTEX
  5
E83E4
330
E83CC
100
AcDbEntity
  8
1
100
AcDbVertex
100
AcDb3dPolylineVertex
 10
10.3663
 20
-11.048646
 30
0.0
 70
    32
  0
VERTEX
  5
E83E5
330
E83CC
100
AcDbEntity
  8
1
100
AcDbVertex
100
AcDb3dPolylineVertex
 10
10.395612
 20
-11.26361
 30
0.0
 70
    32
  0
VERTEX
  5
E83E6
330
E83CC
100
AcDbEntity
  8
1
100
AcDbVertex
100
AcDb3dPolylineVertex
 10
10.424925
 20
-11.478574
 30
0.0
 70
    32
  0
VERTEX
  5
E83E7
330
E83CC
100
AcDbEntity
  8
1
100
AcDbVertex
100
AcDb3dPolylineVertex
 10
10.448988
 20
-11.694163
 30
0.0
 70
    32
  0
VERTEX
  5
E83E8
330
E83CC
100
AcDbEntity
  8
1
100
AcDbVertex
100
AcDb3dPolylineVertex
 10
10.470923
 20
-11.910004
 30
0.0
 70
    32
  0
VERTEX
  5
E83E9
330
E83CC
100
AcDbEntity
  8
1
100
AcDbVertex
100
AcDb3dPolylineVertex
 10
10.492857
 20
-12.125846
 30
0.0
 70
    32
  0
VERTEX
  5
E83EA
330
E83CC
100
AcDbEntity
  8
1
100
AcDbVertex
100
AcDb3dPolylineVertex
 10
10.514792
 20
-12.341688
 30
0.0
 70
    32
  0
VERTEX
  5
E83EB
330
E83CC
100
AcDbEntity
  8
1
100
AcDbVertex
100
AcDb3dPolylineVertex
 10
10.531604
 20
-12.55795
 30
0.0
 70
    32
  0
VERTEX
  5
E83EC
330
E83CC
100
AcDbEntity
  8
1
100
AcDbVertex
100
AcDb3dPolylineVertex
 10
10.54519
 20
-12.774478
 30
0.0
 70
    32
  0
VERTEX
  5
E83ED
330
E83CC
100
AcDbEntity
  8
1
100
AcDbVertex
100
AcDb3dPolylineVertex
 10
10.558775
 20
-12.991005
 30
0.0
 70
    32
  0
VERTEX
  5
E83EE
330
E83CC
100
AcDbEntity
  8
1
100
AcDbVertex
100
AcDb3dPolylineVertex
 10
10.57236
 20
-13.207533
 30
0.0
 70
    32
  0
VERTEX
  5
E83EF
330
E83CC
100
AcDbEntity
  8
1
100
AcDbVertex
100
AcDb3dPolylineVertex
 10
10.581195
 20
-13.424256
 30
0.0
 70
    32
  0
VERTEX
  5
E83F0
330
E83CC
100
AcDbEntity
  8
1
100
AcDbVertex
100
AcDb3dPolylineVertex
 10
10.585479
 20
-13.641167
 30
0.0
 70
    32
  0
VERTEX
  5
E83F1
330
E83CC
100
AcDbEntity
  8
1
100
AcDbVertex
100
AcDb3dPolylineVertex
 10
10.589764
 20
-13.858078
 30
0.0
 70
    32
  0
VERTEX
  5
E83F2
330
E83CC
100
AcDbEntity
  8
1
100
AcDbVertex
100
AcDb3dPolylineVertex
 10
10.594048
 20
-14.074989
 30
0.0
 70
    32
  0
VERTEX
  5
E83F3
330
E83CC
100
AcDbEntity
  8
1
100
AcDbVertex
100
AcDb3dPolylineVertex
 10
10.594764
 20
-14.291897
 30
0.0
 70
    32
  0
VERTEX
  5
E83F4
330
E83CC
100
AcDbEntity
  8
1
100
AcDbVertex
100
AcDb3dPolylineVertex
 10
10.59009
 20
-14.5088
 30
0.0
 70
    32
  0
VERTEX
  5
E83F5
330
E83CC
100
AcDbEntity
  8
1
100
AcDbVertex
100
AcDb3dPolylineVertex
 10
10.585415
 20
-14.725703
 30
0.0
 70
    32
  0
VERTEX
  5
E83F6
330
E83CC
100
AcDbEntity
  8
1
100
AcDbVertex
100
AcDb3dPolylineVertex
 10
10.576448
 20
-14.942419
 30
0.0
 70
    32
  0
VERTEX
  5
E83F7
330
E83CC
100
AcDbEntity
  8
1
100
AcDbVertex
100
AcDb3dPolylineVertex
 10
10.562203
 20
-15.158904
 30
0.0
 70
    32
  0
VERTEX
  5
E83F8
330
E83CC
100
AcDbEntity
  8
1
100
AcDbVertex
100
AcDb3dPolylineVertex
 10
10.54795799999999
 20
-15.375389
 30
0.0
 70
    32
  0
VERTEX
  5
E83F9
330
E83CC
100
AcDbEntity
  8
1
100
AcDbVertex
100
AcDb3dPolylineVertex
 10
10.527853
 20
-15.591332
 30
0.0
 70
    32
  0
VERTEX
  5
E83FA
330
E83CC
100
AcDbEntity
  8
1
100
AcDbVertex
100
AcDb3dPolylineVertex
 10
10.502139
 20
-15.806756
 30
0.0
 70
    32
  0
VERTEX
  5
E83FB
330
E83CC
100
AcDbEntity
  8
1
100
AcDbVertex
100
AcDb3dPolylineVertex
 10
10.476425
 20
-16.022181
 30
0.0
 70
    32
  0
VERTEX
  5
E83FC
330
E83CC
100
AcDbEntity
  8
1
100
AcDbVertex
100
AcDb3dPolylineVertex
 10
10.443222
 20
-16.23646
 30
0.0
 70
    32
  0
VERTEX
  5
E83FD
330
E83CC
100
AcDbEntity
  8
1
100
AcDbVertex
100
AcDb3dPolylineVertex
 10
10.403426
 20
-16.449733
 30
0.0
 70
    32
  0
VERTEX
  5
E83FE
330
E83CC
100
AcDbEntity
  8
1
100
AcDbVertex
100
AcDb3dPolylineVertex
 10
10.36363
 20
-16.663005
 30
0.0
 70
    32
  0
VERTEX
  5
E83FF
330
E83CC
100
AcDbEntity
  8
1
100
AcDbVertex
100
AcDb3dPolylineVertex
 10
10.323833
 20
-16.876277
 30
0.0
 70
    32
  0
VERTEX
  5
E8400
330
E83CC
100
AcDbEntity
  8
1
100
AcDbVertex
100
AcDb3dPolylineVertex
 10
10.272403
 20
-17.086928
 30
0.0
 70
    32
  0
VERTEX
  5
E8401
330
E83CC
100
AcDbEntity
  8
1
100
AcDbVertex
100
AcDb3dPolylineVertex
 10
10.216905
 20
-17.296663
 30
0.0
 70
    32
  0
VERTEX
  5
E8402
330
E83CC
100
AcDbEntity
  8
1
100
AcDbVertex
100
AcDb3dPolylineVertex
 10
10.149713
 20
-17.502896
 30
0.0
 70
    32
  0
VERTEX
  5
E8403
330
E83CC
100
AcDbEntity
  8
1
100
AcDbVertex
100
AcDb3dPolylineVertex
 10
10.08080599999999
 20
-17.708616
 30
0.0
 70
    32
  0
VERTEX
  5
E8404
330
E83CC
100
AcDbEntity
  8
1
100
AcDbVertex
100
AcDb3dPolylineVertex
 10
9.996892999999998
 20
-17.908684
 30
0.0
 70
    32
  0
VERTEX
  5
E8405
330
E83CC
100
AcDbEntity
  8
1
100
AcDbVertex
100
AcDb3dPolylineVertex
 10
9.911336999999996
 20
-18.107984
 30
0.0
 70
    32
  0
VERTEX
  5
E8406
330
E83CC
100
AcDbEntity
  8
1
100
AcDbVertex
100
AcDb3dPolylineVertex
 10
9.811544999999997
 20
-18.300625
 30
0.0
 70
    32
  0
VERTEX
  5
E8407
330
E83CC
100
AcDbEntity
  8
1
100
AcDbVertex
100
AcDb3dPolylineVertex
 10
9.708882999999998
 20
-18.491597
 30
0.0
 70
    32
  0
VERTEX
  5
E8408
330
E83CC
100
AcDbEntity
  8
1
100
AcDbVertex
100
AcDb3dPolylineVertex
 10
9.590933999999997
 20
-18.673687
 30
0.0
 70
    32
  0
VERTEX
  5
E8409
330
E83CC
100
AcDbEntity
  8
1
100
AcDbVertex
100
AcDb3dPolylineVertex
 10
9.471832999999998
 20
-18.854948
 30
0.0
 70
    32
  0
VERTEX
  5
E840A
330
E83CC
100
AcDbEntity
  8
1
100
AcDbVertex
100
AcDb3dPolylineVertex
 10
9.336590999999996
 20
-19.02459
 30
0.0
 70
    32
  0
SEQEND
  5
E840B
330
E83CC
100
AcDbEntity
  8
1
  0
POLYLINE
  5
E840C
330
18
100
AcDbEntity
  8
1
100
AcDb3dPolyline
 66
     1
 10
0.0
 20
0.0
 30
0.0
 70
     8
  0
VERTEX
  5
E840D
330
E840C
100
AcDbEntity
  8
1
100
AcDbVertex
100
AcDb3dPolylineVertex
 10
6.663396999999998
 20
-6.169805999999997
 30
0.0
 70
    32
  0
VERTEX
  5
E840E
330
E840C
100
AcDbEntity
  8
1
100
AcDbVertex
100
AcDb3dPolylineVertex
 10
6.601196999999999
 20
-6.402305
 30
0.0
 70
    32
  0
VERTEX
  5
E840F
330
E840C
100
AcDbEntity
  8
1
100
AcDbVertex
100
AcDb3dPolylineVertex
 10
6.539220999999997
 20
-6.634861999999999
 30
0.0
 70
    32
  0
VERTEX
  5
E8410
330
E840C
100
AcDbEntity
  8
1
100
AcDbVertex
100
AcDb3dPolylineVertex
 10
6.48184
 20
-6.868596000000001
 30
0.0
 70
    32
  0
VERTEX
  5
E8411
330
E840C
100
AcDbEntity
  8
1
100
AcDbVertex
100
AcDb3dPolylineVertex
 10
6.424458
 20
-7.102330999999997
 30
0.0
 70
    32
  0
VERTEX
  5
E8412
330
E840C
100
AcDbEntity
  8
1
100
AcDbVertex
100
AcDb3dPolylineVertex
 10
6.367076999999999
 20
-7.336066
 30
0.0
 70
    32
  0
VERTEX
  5
E8413
330
E840C
100
AcDbEntity
  8
1
100
AcDbVertex
100
AcDb3dPolylineVertex
 10
6.309694999999997
 20
-7.569800999999999
 30
0.0
 70
    32
  0
VERTEX
  5
E8414
330
E840C
100
AcDbEntity
  8
1
100
AcDbVertex
100
AcDb3dPolylineVertex
 10
6.252313999999997
 20
-7.803536
 30
0.0
 70
    32
  0
VERTEX
  5
E8415
330
E840C
100
AcDbEntity
  8
1
100
AcDbVertex
100
AcDb3dPolylineVertex
 10
6.194931999999997
 20
-8.037271
 30
0.0
 70
    32
  0
VERTEX
  5
E8416
330
E840C
100
AcDbEntity
  8
1
100
AcDbVertex
100
AcDb3dPolylineVertex
 10
6.137550999999997
 20
-8.271005999999998
 30
0.0
 70
    32
  0
VERTEX
  5
E8417
330
E840C
100
AcDbEntity
  8
1
100
AcDbVertex
100
AcDb3dPolylineVertex
 10
6.085650999999997
 20
-8.505986
 30
0.0
 70
    32
  0
VERTEX
  5
E8418
330
E840C
100
AcDbEntity
  8
1
100
AcDbVertex
100
AcDb3dPolylineVertex
 10
6.036353999999997
 20
-8.741559
 30
0.0
 70
    32
  0
VERTEX
  5
E8419
330
E840C
100
AcDbEntity
  8
1
100
AcDbVertex
100
AcDb3dPolylineVertex
 10
5.987056999999999
 20
-8.977132
 30
0.0
 70
    32
  0
VERTEX
  5
E841A
330
E840C
100
AcDbEntity
  8
1
100
AcDbVertex
100
AcDb3dPolylineVertex
 10
5.937759999999999
 20
-9.212703999999996
 30
0.0
 70
    32
  0
VERTEX
  5
E841B
330
E840C
100
AcDbEntity
  8
1
100
AcDbVertex
100
AcDb3dPolylineVertex
 10
5.894507999999999
 20
-9.449460999999999
 30
0.0
 70
    32
  0
VERTEX
  5
E841C
330
E840C
100
AcDbEntity
  8
1
100
AcDbVertex
100
AcDb3dPolylineVertex
 10
5.851300999999997
 20
-9.686225999999999
 30
0.0
 70
    32
  0
VERTEX
  5
E841D
330
E840C
100
AcDbEntity
  8
1
100
AcDbVertex
100
AcDb3dPolylineVertex
 10
5.808093999999997
 20
-9.922990999999999
 30
0.0
 70
    32
  0
VERTEX
  5
E841E
330
E840C
100
AcDbEntity
  8
1
100
AcDbVertex
100
AcDb3dPolylineVertex
 10
5.766911999999997
 20
-10.160097
 30
0.0
 70
    32
  0
VERTEX
  5
E841F
330
E840C
100
AcDbEntity
  8
1
100
AcDbVertex
100
AcDb3dPolylineVertex
 10
5.730325999999998
 20
-10.397975
 30
0.0
 70
    32
  0
VERTEX
  5
E8420
330
E840C
100
AcDbEntity
  8
1
100
AcDbVertex
100
AcDb3dPolylineVertex
 10
5.693739999999999
 20
-10.635853
 30
0.0
 70
    32
  0
VERTEX
  5
E8421
330
E840C
100
AcDbEntity
  8
1
100
AcDbVertex
100
AcDb3dPolylineVertex
 10
5.657154999999997
 20
-10.873732
 30
0.0
 70
    32
  0
VERTEX
  5
E8422
330
E840C
100
AcDbEntity
  8
1
100
AcDbVertex
100
AcDb3dPolylineVertex
 10
5.624976999999997
 20
-11.11222
 30
0.0
 70
    32
  0
VERTEX
  5
E8423
330
E840C
100
AcDbEntity
  8
1
100
AcDbVertex
100
AcDb3dPolylineVertex
 10
5.595540999999997
 20
-11.351089
 30
0.0
 70
    32
  0
VERTEX
  5
E8424
330
E840C
100
AcDbEntity
  8
1
100
AcDbVertex
100
AcDb3dPolylineVertex
 10
5.566105999999997
 20
-11.589958
 30
0.0
 70
    32
  0
VERTEX
  5
E8425
330
E840C
100
AcDbEntity
  8
1
100
AcDbVertex
100
AcDb3dPolylineVertex
 10
5.536669999999999
 20
-11.828826
 30
0.0
 70
    32
  0
VERTEX
  5
E8426
330
E840C
100
AcDbEntity
  8
1
100
AcDbVertex
100
AcDb3dPolylineVertex
 10
5.516573999999997
 20
-12.068646
 30
0.0
 70
    32
  0
VERTEX
  5
E8427
330
E840C
100
AcDbEntity
  8
1
100
AcDbVertex
100
AcDb3dPolylineVertex
 10
5.497257999999997
 20
-12.308545
 30
0.0
 70
    32
  0
VERTEX
  5
E8428
330
E840C
100
AcDbEntity
  8
1
100
AcDbVertex
100
AcDb3dPolylineVertex
 10
5.477941999999997
 20
-12.548444
 30
0.0
 70
    32
  0
VERTEX
  5
E8429
330
E840C
100
AcDbEntity
  8
1
100
AcDbVertex
100
AcDb3dPolylineVertex
 10
5.458625999999997
 20
-12.788343
 30
0.0
 70
    32
  0
VERTEX
  5
E842A
330
E840C
100
AcDbEntity
  8
1
100
AcDbVertex
100
AcDb3dPolylineVertex
 10
5.439309999999997
 20
-13.028241
 30
0.0
 70
    32
  0
VERTEX
  5
E842B
330
E840C
100
AcDbEntity
  8
1
100
AcDbVertex
100
AcDb3dPolylineVertex
 10
5.425580999999997
 20
-13.268465
 30
0.0
 70
    32
  0
VERTEX
  5
E842C
330
E840C
100
AcDbEntity
  8
1
100
AcDbVertex
100
AcDb3dPolylineVertex
 10
5.417015999999997
 20
-13.508988
 30
0.0
 70
    32
  0
VERTEX
  5
E842D
330
E840C
100
AcDbEntity
  8
1
100
AcDbVertex
100
AcDb3dPolylineVertex
 10
5.408450999999997
 20
-13.74951
 30
0.0
 70
    32
  0
VERTEX
  5
E842E
330
E840C
100
AcDbEntity
  8
1
100
AcDbVertex
100
AcDb3dPolylineVertex
 10
5.407384999999997
 20
-13.990155
 30
0.0
 70
    32
  0
VERTEX
  5
E842F
330
E840C
100
AcDbEntity
  8
1
100
AcDbVertex
100
AcDb3dPolylineVertex
 10
5.408143999999999
 20
-14.230829
 30
0.0
 70
    32
  0
VERTEX
  5
E8430
330
E840C
100
AcDbEntity
  8
1
100
AcDbVertex
100
AcDb3dPolylineVertex
 10
5.408902999999997
 20
-14.471503
 30
0.0
 70
    32
  0
VERTEX
  5
E8431
330
E840C
100
AcDbEntity
  8
1
100
AcDbVertex
100
AcDb3dPolylineVertex
 10
5.413430999999999
 20
-14.712061
 30
0.0
 70
    32
  0
VERTEX
  5
E8432
330
E840C
100
AcDbEntity
  8
1
100
AcDbVertex
100
AcDb3dPolylineVertex
 10
5.427583999999997
 20
-14.952319
 30
0.0
 70
    32
  0
VERTEX
  5
E8433
330
E840C
100
AcDbEntity
  8
1
100
AcDbVertex
100
AcDb3dPolylineVertex
 10
5.441736999999998
 20
-15.192578
 30
0.0
 70
    32
  0
VERTEX
  5
E8434
330
E840C
100
AcDbEntity
  8
1
100
AcDbVertex
100
AcDb3dPolylineVertex
 10
5.455889999999999
 20
-15.432837
 30
0.0
 70
    32
  0
VERTEX
  5
E8435
330
E840C
100
AcDbEntity
  8
1
100
AcDbVertex
100
AcDb3dPolylineVertex
 10
5.483118999999997
 20
-15.671865
 30
0.0
 70
    32
  0
VERTEX
  5
E8436
330
E840C
100
AcDbEntity
  8
1
100
AcDbVertex
100
AcDb3dPolylineVertex
 10
5.514060999999997
 20
-15.910543
 30
0.0
 70
    32
  0
VERTEX
  5
E8437
330
E840C
100
AcDbEntity
  8
1
100
AcDbVertex
100
AcDb3dPolylineVertex
 10
5.545003999999997
 20
-16.149221
 30
0.0
 70
    32
  0
VERTEX
  5
E8438
330
E840C
100
AcDbEntity
  8
1
100
AcDbVertex
100
AcDb3dPolylineVertex
 10
5.579311999999998
 20
-16.387366
 30
0.0
 70
    32
  0
VERTEX
  5
E8439
330
E840C
100
AcDbEntity
  8
1
100
AcDbVertex
100
AcDb3dPolylineVertex
 10
5.623632999999997
 20
-16.623925
 30
0.0
 70
    32
  0
VERTEX
  5
E843A
330
E840C
100
AcDbEntity
  8
1
100
AcDbVertex
100
AcDb3dPolylineVertex
 10
5.670618999999997
 20
-16.859915
 30
0.0
 70
    32
  0
VERTEX
  5
E843B
330
E840C
100
AcDbEntity
  8
1
100
AcDbVertex
100
AcDb3dPolylineVertex
 10
5.726761999999999
 20
-17.093951
 30
0.0
 70
    32
  0
VERTEX
  5
E843C
330
E840C
100
AcDbEntity
  8
1
100
AcDbVertex
100
AcDb3dPolylineVertex
 10
5.786718999999997
 20
-17.326921
 30
0.0
 70
    32
  0
VERTEX
  5
E843D
330
E840C
100
AcDbEntity
  8
1
100
AcDbVertex
100
AcDb3dPolylineVertex
 10
5.859919999999998
 20
-17.556195
 30
0.0
 70
    32
  0
VERTEX
  5
E843E
330
E840C
100
AcDbEntity
  8
1
100
AcDbVertex
100
AcDb3dPolylineVertex
 10
5.938091999999997
 20
-17.783615
 30
0.0
 70
    32
  0
VERTEX
  5
E843F
330
E840C
100
AcDbEntity
  8
1
100
AcDbVertex
100
AcDb3dPolylineVertex
 10
6.032805999999999
 20
-18.00487099999999
 30
0.0
 70
    32
  0
VERTEX
  5
E8440
330
E840C
100
AcDbEntity
  8
1
100
AcDbVertex
100
AcDb3dPolylineVertex
 10
6.132953999999998
 20
-18.223426
 30
0.0
 70
    32
  0
VERTEX
  5
E8441
330
E840C
100
AcDbEntity
  8
1
100
AcDbVertex
100
AcDb3dPolylineVertex
 10
6.252055999999997
 20
-18.432565
 30
0.0
 70
    32
  0
VERTEX
  5
E8442
330
E840C
100
AcDbEntity
  8
1
100
AcDbVertex
100
AcDb3dPolylineVertex
 10
6.375210999999997
 20
-18.639051
 30
0.0
 70
    32
  0
VERTEX
  5
E8443
330
E840C
100
AcDbEntity
  8
1
100
AcDbVertex
100
AcDb3dPolylineVertex
 10
6.519309999999999
 20
-18.831821
 30
0.0
 70
    32
  0
VERTEX
  5
E8444
330
E840C
100
AcDbEntity
  8
1
100
AcDbVertex
100
AcDb3dPolylineVertex
 10
6.663408999999997
 20
-19.02459
 30
0.0
 70
    32
  0
SEQEND
  5
E8445
330
E840C
100
AcDbEntity
  8
1
  0
POLYLINE
  5
E8446
330
18
100
AcDbEntity
  8
1
100
AcDb3dPolyline
 66
     1
 10
0.0
 20
0.0
 30
0.0
 70
     8
  0
VERTEX
  5
E8447
330
E8446
100
AcDbEntity
  8
1
100
AcDbVertex
100
AcDb3dPolylineVertex
 10
6.663396999999998
 20
6.169805999999997
 30
0.0
 70
    32
  0
VERTEX
  5
E8448
330
E8446
100
AcDbEntity
  8
1
100
AcDbVertex
100
AcDb3dPolylineVertex
 10
6.605600999999999
 20
6.39053
 30
0.0
 70
    32
  0
VERTEX
  5
E8449
330
E8446
100
AcDbEntity
  8
1
100
AcDbVertex
100
AcDb3dPolylineVertex
 10
6.547805
 20
6.611253999999997
 30
0.0
 70
    32
  0
VERTEX
  5
E844A
330
E8446
100
AcDbEntity
  8
1
100
AcDbVertex
100
AcDb3dPolylineVertex
 10
6.490008999999997
 20
6.831977999999997
 30
0.0
 70
    32
  0
VERTEX
  5
E844B
330
E8446
100
AcDbEntity
  8
1
100
AcDbVertex
100
AcDb3dPolylineVertex
 10
6.432211999999998
 20
7.052702
 30
0.0
 70
    32
  0
VERTEX
  5
E844C
330
E8446
100
AcDbEntity
  8
1
100
AcDbVertex
100
AcDb3dPolylineVertex
 10
6.374416
 20
7.273424999999997
 30
0.0
 70
    32
  0
VERTEX
  5
E844D
330
E8446
100
AcDbEntity
  8
1
100
AcDbVertex
100
AcDb3dPolylineVertex
 10
6.321966000000001
 20
7.49546
 30
0.0
 70
    32
  0
VERTEX
  5
E844E
330
E8446
100
AcDbEntity
  8
1
100
AcDbVertex
100
AcDb3dPolylineVertex
 10
6.271116999999997
 20
7.717886999999997
 30
0.0
 70
    32
  0
VERTEX
  5
E844F
330
E8446
100
AcDbEntity
  8
1
100
AcDbVertex
100
AcDb3dPolylineVertex
 10
6.220266999999997
 20
7.940313999999997
 30
0.0
 70
    32
  0
VERTEX
  5
E8450
330
E8446
100
AcDbEntity
  8
1
100
AcDbVertex
100
AcDb3dPolylineVertex
 10
6.169417000000001
 20
8.162741
 30
0.0
 70
    32
  0
VERTEX
  5
E8451
330
E8446
100
AcDbEntity
  8
1
100
AcDbVertex
100
AcDb3dPolylineVertex
 10
6.118567999999998
 20
8.385168
 30
0.0
 70
    32
  0
VERTEX
  5
E8452
330
E8446
100
AcDbEntity
  8
1
100
AcDbVertex
100
AcDb3dPolylineVertex
 10
6.067718000000001
 20
8.607594999999998
 30
0.0
 70
    32
  0
VERTEX
  5
E8453
330
E8446
100
AcDbEntity
  8
1
100
AcDbVertex
100
AcDb3dPolylineVertex
 10
6.018031999999998
 20
8.830268999999997
 30
0.0
 70
    32
  0
VERTEX
  5
E8454
330
E8446
100
AcDbEntity
  8
1
100
AcDbVertex
100
AcDb3dPolylineVertex
 10
5.973994000000001
 20
9.054144
 30
0.0
 70
    32
  0
VERTEX
  5
E8455
330
E8446
100
AcDbEntity
  8
1
100
AcDbVertex
100
AcDb3dPolylineVertex
 10
5.929955999999998
 20
9.278019999999999
 30
0.0
 70
    32
  0
VERTEX
  5
E8456
330
E8446
100
AcDbEntity
  8
1
100
AcDbVertex
100
AcDb3dPolylineVertex
 10
5.885919000000001
 20
9.501894999999999
 30
0.0
 70
    32
  0
VERTEX
  5
E8457
330
E8446
100
AcDbEntity
  8
1
100
AcDbVertex
100
AcDb3dPolylineVertex
 10
5.843033000000001
 20
9.725981
 30
0.0
 70
    32
  0
VERTEX
  5
E8458
330
E8446
100
AcDbEntity
  8
1
100
AcDbVertex
100
AcDb3dPolylineVertex
 10
5.805044999999998
 20
9.950960999999999
 30
0.0
 70
    32
  0
VERTEX
  5
E8459
330
E8446
100
AcDbEntity
  8
1
100
AcDbVertex
100
AcDb3dPolylineVertex
 10
5.767057000000001
 20
10.175942
 30
0.0
 70
    32
  0
VERTEX
  5
E845A
330
E8446
100
AcDbEntity
  8
1
100
AcDbVertex
100
AcDb3dPolylineVertex
 10
5.729067999999998
 20
10.400923
 30
0.0
 70
    32
  0
VERTEX
  5
E845B
330
E8446
100
AcDbEntity
  8
1
100
AcDbVertex
100
AcDb3dPolylineVertex
 10
5.692548000000001
 20
10.626128
 30
0.0
 70
    32
  0
VERTEX
  5
E845C
330
E8446
100
AcDbEntity
  8
1
100
AcDbVertex
100
AcDb3dPolylineVertex
 10
5.661430000000001
 20
10.852162
 30
0.0
 70
    32
  0
VERTEX
  5
E845D
330
E8446
100
AcDbEntity
  8
1
100
AcDbVertex
100
AcDb3dPolylineVertex
 10
5.630311999999999
 20
11.078195
 30
0.0
 70
    32
  0
VERTEX
  5
E845E
330
E8446
100
AcDbEntity
  8
1
100
AcDbVertex
100
AcDb3dPolylineVertex
 10
5.599192999999997
 20
11.304229
 30
0.0
 70
    32
  0
VERTEX
  5
E845F
330
E8446
100
AcDbEntity
  8
1
100
AcDbVertex
100
AcDb3dPolylineVertex
 10
5.569931999999997
 20
11.530485
 30
0.0
 70
    32
  0
VERTEX
  5
E8460
330
E8446
100
AcDbEntity
  8
1
100
AcDbVertex
100
AcDb3dPolylineVertex
 10
5.546516999999997
 20
11.757446
 30
0.0
 70
    32
  0
VERTEX
  5
E8461
330
E8446
100
AcDbEntity
  8
1
100
AcDbVertex
100
AcDb3dPolylineVertex
 10
5.523101000000001
 20
11.984407
 30
0.0
 70
    32
  0
VERTEX
  5
E8462
330
E8446
100
AcDbEntity
  8
1
100
AcDbVertex
100
AcDb3dPolylineVertex
 10
5.499685999999997
 20
12.211368
 30
0.0
 70
    32
  0
VERTEX
  5
E8463
330
E8446
100
AcDbEntity
  8
1
100
AcDbVertex
100
AcDb3dPolylineVertex
 10
5.478589000000001
 20
12.438523
 30
0.0
 70
    32
  0
VERTEX
  5
E8464
330
E8446
100
AcDbEntity
  8
1
100
AcDbVertex
100
AcDb3dPolylineVertex
 10
5.463712000000001
 20
12.666203
 30
0.0
 70
    32
  0
VERTEX
  5
E8465
330
E8446
100
AcDbEntity
  8
1
100
AcDbVertex
100
AcDb3dPolylineVertex
 10
5.448836
 20
12.893883
 30
0.0
 70
    32
  0
VERTEX
  5
E8466
330
E8446
100
AcDbEntity
  8
1
100
AcDbVertex
100
AcDb3dPolylineVertex
 10
5.433958999999997
 20
13.121563
 30
0.0
 70
    32
  0
VERTEX
  5
E8467
330
E8446
100
AcDbEntity
  8
1
100
AcDbVertex
100
AcDb3dPolylineVertex
 10
5.421406000000001
 20
13.349355
 30
0.0
 70
    32
  0
VERTEX
  5
E8468
330
E8446
100
AcDbEntity
  8
1
100
AcDbVertex
100
AcDb3dPolylineVertex
 10
5.414201999999997
 20
13.577407
 30
0.0
 70
    32
  0
VERTEX
  5
E8469
330
E8446
100
AcDbEntity
  8
1
100
AcDbVertex
100
AcDb3dPolylineVertex
 10
5.406998999999999
 20
13.805459
 30
0.0
 70
    32
  0
VERTEX
  5
E846A
330
E8446
100
AcDbEntity
  8
1
100
AcDbVertex
100
AcDb3dPolylineVertex
 10
5.403658999999997
 20
14.033568
 30
0.0
 70
    32
  0
VERTEX
  5
E846B
330
E8446
100
AcDbEntity
  8
1
100
AcDbVertex
100
AcDb3dPolylineVertex
 10
5.404016000000001
 20
14.261733
 30
0.0
 70
    32
  0
VERTEX
  5
E846C
330
E8446
100
AcDbEntity
  8
1
100
AcDbVertex
100
AcDb3dPolylineVertex
 10
5.404373000000001
 20
14.489898
 30
0.0
 70
    32
  0
VERTEX
  5
E846D
330
E8446
100
AcDbEntity
  8
1
100
AcDbVertex
100
AcDb3dPolylineVertex
 10
5.411566999999998
 20
14.71791
 30
0.0
 70
    32
  0
VERTEX
  5
E846E
330
E8446
100
AcDbEntity
  8
1
100
AcDbVertex
100
AcDb3dPolylineVertex
 10
5.421463000000001
 20
14.945861
 30
0.0
 70
    32
  0
VERTEX
  5
E846F
330
E8446
100
AcDbEntity
  8
1
100
AcDbVertex
100
AcDb3dPolylineVertex
 10
5.431358999999997
 20
15.173811
 30
0.0
 70
    32
  0
VERTEX
  5
E8470
330
E8446
100
AcDbEntity
  8
1
100
AcDbVertex
100
AcDb3dPolylineVertex
 10
5.451867
 20
15.401032
 30
0.0
 70
    32
  0
VERTEX
  5
E8471
330
E8446
100
AcDbEntity
  8
1
100
AcDbVertex
100
AcDb3dPolylineVertex
 10
5.473271999999997
 20
15.628191
 30
0.0
 70
    32
  0
VERTEX
  5
E8472
330
E8446
100
AcDbEntity
  8
1
100
AcDbVertex
100
AcDb3dPolylineVertex
 10
5.496360000000001
 20
15.855141
 30
0.0
 70
    32
  0
VERTEX
  5
E8473
330
E8446
100
AcDbEntity
  8
1
100
AcDbVertex
100
AcDb3dPolylineVertex
 10
5.531177999999997
 20
16.080634
 30
0.0
 70
    32
  0
VERTEX
  5
E8474
330
E8446
100
AcDbEntity
  8
1
100
AcDbVertex
100
AcDb3dPolylineVertex
 10
5.565996000000001
 20
16.306127
 30
0.0
 70
    32
  0
VERTEX
  5
E8475
330
E8446
100
AcDbEntity
  8
1
100
AcDbVertex
100
AcDb3dPolylineVertex
 10
5.605692999999997
 20
16.530697
 30
0.0
 70
    32
  0
VERTEX
  5
E8476
330
E8446
100
AcDbEntity
  8
1
100
AcDbVertex
100
AcDb3dPolylineVertex
 10
5.655663999999998
 20
16.753323
 30
0.0
 70
    32
  0
VERTEX
  5
E8477
330
E8446
100
AcDbEntity
  8
1
100
AcDbVertex
100
AcDb3dPolylineVertex
 10
5.705635
 20
16.975949
 30
0.0
 70
    32
  0
VERTEX
  5
E8478
330
E8446
100
AcDbEntity
  8
1
100
AcDbVertex
100
AcDb3dPolylineVertex
 10
5.762902999999997
 20
17.196683
 30
0.0
 70
    32
  0
VERTEX
  5
E8479
330
E8446
100
AcDbEntity
  8
1
100
AcDbVertex
100
AcDb3dPolylineVertex
 10
5.827402999999997
 20
17.415542
 30
0.0
 70
    32
  0
VERTEX
  5
E847A
330
E8446
100
AcDbEntity
  8
1
100
AcDbVertex
100
AcDb3dPolylineVertex
 10
5.898958000000001
 20
17.632025
 30
0.0
 70
    32
  0
VERTEX
  5
E847B
330
E8446
100
AcDbEntity
  8
1
100
AcDbVertex
100
AcDb3dPolylineVertex
 10
5.980008999999999
 20
17.845309
 30
0.0
 70
    32
  0
VERTEX
  5
E847C
330
E8446
100
AcDbEntity
  8
1
100
AcDbVertex
100
AcDb3dPolylineVertex
 10
6.068394000000001
 20
18.055401
 30
0.0
 70
    32
  0
VERTEX
  5
E847D
330
E8446
100
AcDbEntity
  8
1
100
AcDbVertex
100
AcDb3dPolylineVertex
 10
6.169255000000001
 20
18.260063
 30
0.0
 70
    32
  0
VERTEX
  5
E847E
330
E8446
100
AcDbEntity
  8
1
100
AcDbVertex
100
AcDb3dPolylineVertex
 10
6.275210999999997
 20
18.461861
 30
0.0
 70
    32
  0
VERTEX
  5
E847F
330
E8446
100
AcDbEntity
  8
1
100
AcDbVertex
100
AcDb3dPolylineVertex
 10
6.397635000000001
 20
18.654401
 30
0.0
 70
    32
  0
VERTEX
  5
E8480
330
E8446
100
AcDbEntity
  8
1
100
AcDbVertex
100
AcDb3dPolylineVertex
 10
6.521605999999997
 20
18.845841
 30
0.0
 70
    32
  0
VERTEX
  5
E8481
330
E8446
100
AcDbEntity
  8
1
100
AcDbVertex
100
AcDb3dPolylineVertex
 10
6.663408999999997
 20
19.02459
 30
0.0
 70
    32
  0
SEQEND
  5
E8482
330
E8446
100
AcDbEntity
  8
1
  0
POLYLINE
  5
E8483
330
18
100
AcDbEntity
  8
1
100
AcDb3dPolyline
 66
     1
 10
0.0
 20
0.0
 30
0.0
 70
     8
  0
VERTEX
  5
E8484
330
E8483
100
AcDbEntity
  8
1
100
AcDbVertex
100
AcDb3dPolylineVertex
 10
16.981475
 20
17.860571
 30
0.0
 70
    32
  0
VERTEX
  5
E8485
330
E8483
100
AcDbEntity
  8
1
100
AcDbVertex
100
AcDb3dPolylineVertex
 10
16.986672
 20
17.961645
 30
0.0
 70
    32
  0
VERTEX
  5
E8486
330
E8483
100
AcDbEntity
  8
1
100
AcDbVertex
100
AcDb3dPolylineVertex
 10
16.998876
 20
18.061883
 30
0.0
 70
    32
  0
VERTEX
  5
E8487
330
E8483
100
AcDbEntity
  8
1
100
AcDbVertex
100
AcDb3dPolylineVertex
 10
17.019969
 20
18.160714
 30
0.0
 70
    32
  0
VERTEX
  5
E8488
330
E8483
100
AcDbEntity
  8
1
100
AcDbVertex
100
AcDb3dPolylineVertex
 10
17.053025
 20
18.25637099999999
 30
0.0
 70
    32
  0
VERTEX
  5
E8489
330
E8483
100
AcDbEntity
  8
1
100
AcDbVertex
100
AcDb3dPolylineVertex
 10
17.099668
 20
18.345814
 30
0.0
 70
    32
  0
VERTEX
  5
E848A
330
E8483
100
AcDbEntity
  8
1
100
AcDbVertex
100
AcDb3dPolylineVertex
 10
17.150406
 20
18.433385
 30
0.0
 70
    32
  0
VERTEX
  5
E848B
330
E8483
100
AcDbEntity
  8
1
100
AcDbVertex
100
AcDb3dPolylineVertex
 10
17.203208
 20
18.519422
 30
0.0
 70
    32
  0
VERTEX
  5
E848C
330
E8483
100
AcDbEntity
  8
1
100
AcDbVertex
100
AcDb3dPolylineVertex
 10
17.27238599999999
 20
18.593295
 30
0.0
 70
    32
  0
VERTEX
  5
E848D
330
E8483
100
AcDbEntity
  8
1
100
AcDbVertex
100
AcDb3dPolylineVertex
 10
17.341565
 20
18.667169
 30
0.0
 70
    32
  0
VERTEX
  5
E848E
330
E8483
100
AcDbEntity
  8
1
100
AcDbVertex
100
AcDb3dPolylineVertex
 10
17.416543
 20
18.734608
 30
0.0
 70
    32
  0
VERTEX
  5
E848F
330
E8483
100
AcDbEntity
  8
1
100
AcDbVertex
100
AcDb3dPolylineVertex
 10
17.497182
 20
18.795765
 30
0.0
 70
    32
  0
VERTEX
  5
E8490
330
E8483
100
AcDbEntity
  8
1
100
AcDbVertex
100
AcDb3dPolylineVertex
 10
17.577822
 20
18.856922
 30
0.0
 70
    32
  0
VERTEX
  5
E8491
330
E8483
100
AcDbEntity
  8
1
100
AcDbVertex
100
AcDb3dPolylineVertex
 10
17.66614
 20
18.906144
 30
0.0
 70
    32
  0
VERTEX
  5
E8492
330
E8483
100
AcDbEntity
  8
1
100
AcDbVertex
100
AcDb3dPolylineVertex
 10
17.755218
 20
18.954187
 30
0.0
 70
    32
  0
VERTEX
  5
E8493
330
E8483
100
AcDbEntity
  8
1
100
AcDbVertex
100
AcDb3dPolylineVertex
 10
17.844296
 20
19.00223
 30
0.0
 70
    32
  0
VERTEX
  5
E8494
330
E8483
100
AcDbEntity
  8
1
100
AcDbVertex
100
AcDb3dPolylineVertex
 10
17.933373
 20
19.050273
 30
0.0
 70
    32
  0
VERTEX
  5
E8495
330
E8483
100
AcDbEntity
  8
1
100
AcDbVertex
100
AcDb3dPolylineVertex
 10
18.025867
 20
19.090698
 30
0.0
 70
    32
  0
VERTEX
  5
E8496
330
E8483
100
AcDbEntity
  8
1
100
AcDbVertex
100
AcDb3dPolylineVertex
 10
18.12099
 20
19.125261
 30
0.0
 70
    32
  0
VERTEX
  5
E8497
330
E8483
100
AcDbEntity
  8
1
100
AcDbVertex
100
AcDb3dPolylineVertex
 10
18.216113
 20
19.159824
 30
0.0
 70
    32
  0
VERTEX
  5
E8498
330
E8483
100
AcDbEntity
  8
1
100
AcDbVertex
100
AcDb3dPolylineVertex
 10
18.311235
 20
19.194387
 30
0.0
 70
    32
  0
VERTEX
  5
E8499
330
E8483
100
AcDbEntity
  8
1
100
AcDbVertex
100
AcDb3dPolylineVertex
 10
18.406921
 20
19.227117
 30
0.0
 70
    32
  0
VERTEX
  5
E849A
330
E8483
100
AcDbEntity
  8
1
100
AcDbVertex
100
AcDb3dPolylineVertex
 10
18.505046
 20
19.251905
 30
0.0
 70
    32
  0
VERTEX
  5
E849B
330
E8483
100
AcDbEntity
  8
1
100
AcDbVertex
100
AcDb3dPolylineVertex
 10
18.603171
 20
19.276692
 30
0.0
 70
    32
  0
VERTEX
  5
E849C
330
E8483
100
AcDbEntity
  8
1
100
AcDbVertex
100
AcDb3dPolylineVertex
 10
18.701296
 20
19.30148
 30
0.0
 70
    32
  0
VERTEX
  5
E849D
330
E8483
100
AcDbEntity
  8
1
100
AcDbVertex
100
AcDb3dPolylineVertex
 10
18.799421
 20
19.326268
 30
0.0
 70
    32
  0
VERTEX
  5
E849E
330
E8483
100
AcDbEntity
  8
1
100
AcDbVertex
100
AcDb3dPolylineVertex
 10
18.89888
 20
19.344678
 30
0.0
 70
    32
  0
VERTEX
  5
E849F
330
E8483
100
AcDbEntity
  8
1
100
AcDbVertex
100
AcDb3dPolylineVertex
 10
18.998713
 20
19.361304
 30
0.0
 70
    32
  0
VERTEX
  5
E84A0
330
E8483
100
AcDbEntity
  8
1
100
AcDbVertex
100
AcDb3dPolylineVertex
 10
19.098545
 20
19.377929
 30
0.0
 70
    32
  0
VERTEX
  5
E84A1
330
E8483
100
AcDbEntity
  8
1
100
AcDbVertex
100
AcDb3dPolylineVertex
 10
19.198377
 20
19.394555
 30
0.0
 70
    32
  0
VERTEX
  5
E84A2
330
E8483
100
AcDbEntity
  8
1
100
AcDbVertex
100
AcDb3dPolylineVertex
 10
19.29821
 20
19.41118
 30
0.0
 70
    32
  0
VERTEX
  5
E84A3
330
E8483
100
AcDbEntity
  8
1
100
AcDbVertex
100
AcDb3dPolylineVertex
 10
19.398042
 20
19.427806
 30
0.0
 70
    32
  0
VERTEX
  5
E84A4
330
E8483
100
AcDbEntity
  8
1
100
AcDbVertex
100
AcDb3dPolylineVertex
 10
19.497875
 20
19.444432
 30
0.0
 70
    32
  0
VERTEX
  5
E84A5
330
E8483
100
AcDbEntity
  8
1
100
AcDbVertex
100
AcDb3dPolylineVertex
 10
19.597707
 20
19.461057
 30
0.0
 70
    32
  0
VERTEX
  5
E84A6
330
E8483
100
AcDbEntity
  8
1
100
AcDbVertex
100
AcDb3dPolylineVertex
 10
19.698235
 20
19.47267
 30
0.0
 70
    32
  0
VERTEX
  5
E84A7
330
E8483
100
AcDbEntity
  8
1
100
AcDbVertex
100
AcDb3dPolylineVertex
 10
19.798824
 20
19.483848
 30
0.0
 70
    32
  0
VERTEX
  5
E84A8
330
E8483
100
AcDbEntity
  8
1
100
AcDbVertex
100
AcDb3dPolylineVertex
 10
19.899412
 20
19.495026
 30
0.0
 70
    32
  0
VERTEX
  5
E84A9
330
E8483
100
AcDbEntity
  8
1
100
AcDbVertex
100
AcDb3dPolylineVertex
 10
20.0
 20
19.506204
 30
0.0
 70
    32
  0
SEQEND
  5
E84AA
330
E8483
100
AcDbEntity
  8
1
  0
POLYLINE
  5
E84AB
330
18
100
AcDbEntity
  8
1
100
AcDb3dPolyline
 66
     1
 10
0.0
 20
0.0
 30
0.0
 70
     8
  0
VERTEX
  5
E84AC
330
E84AB
100
AcDbEntity
  8
1
100
AcDbVertex
100
AcDb3dPolylineVertex
 10
9.336603
 20
6.169805999999997
 30
0.0
 70
    32
  0
VERTEX
  5
E84AD
330
E84AB
100
AcDbEntity
  8
1
100
AcDbVertex
100
AcDb3dPolylineVertex
 10
9.400107999999999
 20
6.416225999999999
 30
0.0
 70
    32
  0
VERTEX
  5
E84AE
330
E84AB
100
AcDbEntity
  8
1
100
AcDbVertex
100
AcDb3dPolylineVertex
 10
9.463613
 20
6.662645999999997
 30
0.0
 70
    32
  0
VERTEX
  5
E84AF
330
E84AB
100
AcDbEntity
  8
1
100
AcDbVertex
100
AcDb3dPolylineVertex
 10
9.527117999999999
 20
6.909065999999997
 30
0.0
 70
    32
  0
VERTEX
  5
E84B0
330
E84AB
100
AcDbEntity
  8
1
100
AcDbVertex
100
AcDb3dPolylineVertex
 10
9.590623
 20
7.155485999999998
 30
0.0
 70
    32
  0
VERTEX
  5
E84B1
330
E84AB
100
AcDbEntity
  8
1
100
AcDbVertex
100
AcDb3dPolylineVertex
 10
9.654128
 20
7.401905999999997
 30
0.0
 70
    32
  0
VERTEX
  5
E84B2
330
E84AB
100
AcDbEntity
  8
1
100
AcDbVertex
100
AcDb3dPolylineVertex
 10
9.717632999999999
 20
7.648325999999997
 30
0.0
 70
    32
  0
VERTEX
  5
E84B3
330
E84AB
100
AcDbEntity
  8
1
100
AcDbVertex
100
AcDb3dPolylineVertex
 10
9.771872999999999
 20
7.896945999999998
 30
0.0
 70
    32
  0
VERTEX
  5
E84B4
330
E84AB
100
AcDbEntity
  8
1
100
AcDbVertex
100
AcDb3dPolylineVertex
 10
9.825917999999999
 20
8.145611999999998
 30
0.0
 70
    32
  0
VERTEX
  5
E84B5
330
E84AB
100
AcDbEntity
  8
1
100
AcDbVertex
100
AcDb3dPolylineVertex
 10
9.879963
 20
8.394277999999998
 30
0.0
 70
    32
  0
VERTEX
  5
E84B6
330
E84AB
100
AcDbEntity
  8
1
100
AcDbVertex
100
AcDb3dPolylineVertex
 10
9.934008
 20
8.642943999999998
 30
0.0
 70
    32
  0
VERTEX
  5
E84B7
330
E84AB
100
AcDbEntity
  8
1
100
AcDbVertex
100
AcDb3dPolylineVertex
 10
9.988053
 20
8.89161
 30
0.0
 70
    32
  0
VERTEX
  5
E84B8
330
E84AB
100
AcDbEntity
  8
1
100
AcDbVertex
100
AcDb3dPolylineVertex
 10
10.042098
 20
9.140276
 30
0.0
 70
    32
  0
VERTEX
  5
E84B9
330
E84AB
100
AcDbEntity
  8
1
100
AcDbVertex
100
AcDb3dPolylineVertex
 10
10.092839
 20
9.389602
 30
0.0
 70
    32
  0
VERTEX
  5
E84BA
330
E84AB
100
AcDbEntity
  8
1
100
AcDbVertex
100
AcDb3dPolylineVertex
 10
10.138349
 20
9.639969999999999
 30
0.0
 70
    32
  0
VERTEX
  5
E84BB
330
E84AB
100
AcDbEntity
  8
1
100
AcDbVertex
100
AcDb3dPolylineVertex
 10
10.183859
 20
9.890339
 30
0.0
 70
    32
  0
VERTEX
  5
E84BC
330
E84AB
100
AcDbEntity
  8
1
100
AcDbVertex
100
AcDb3dPolylineVertex
 10
10.229368
 20
10.140708
 30
0.0
 70
    32
  0
VERTEX
  5
E84BD
330
E84AB
100
AcDbEntity
  8
1
100
AcDbVertex
100
AcDb3dPolylineVertex
 10
10.269019
 20
10.392055
 30
0.0
 70
    32
  0
VERTEX
  5
E84BE
330
E84AB
100
AcDbEntity
  8
1
100
AcDbVertex
100
AcDb3dPolylineVertex
 10
10.307331
 20
10.643626
 30
0.0
 70
    32
  0
VERTEX
  5
E84BF
330
E84AB
100
AcDbEntity
  8
1
100
AcDbVertex
100
AcDb3dPolylineVertex
 10
10.345642
 20
10.895197
 30
0.0
 70
    32
  0
VERTEX
  5
E84C0
330
E84AB
100
AcDbEntity
  8
1
100
AcDbVertex
100
AcDb3dPolylineVertex
 10
10.381942
 20
11.147041
 30
0.0
 70
    32
  0
VERTEX
  5
E84C1
330
E84AB
100
AcDbEntity
  8
1
100
AcDbVertex
100
AcDb3dPolylineVertex
 10
10.412021
 20
11.399728
 30
0.0
 70
    32
  0
VERTEX
  5
E84C2
330
E84AB
100
AcDbEntity
  8
1
100
AcDbVertex
100
AcDb3dPolylineVertex
 10
10.442101
 20
11.652416
 30
0.0
 70
    32
  0
VERTEX
  5
E84C3
330
E84AB
100
AcDbEntity
  8
1
100
AcDbVertex
100
AcDb3dPolylineVertex
 10
10.47218
 20
11.905103
 30
0.0
 70
    32
  0
VERTEX
  5
E84C4
330
E84AB
100
AcDbEntity
  8
1
100
AcDbVertex
100
AcDb3dPolylineVertex
 10
10.495958
 20
12.158424
 30
0.0
 70
    32
  0
VERTEX
  5
E84C5
330
E84AB
100
AcDbEntity
  8
1
100
AcDbVertex
100
AcDb3dPolylineVertex
 10
10.516756
 20
12.412044
 30
0.0
 70
    32
  0
VERTEX
  5
E84C6
330
E84AB
100
AcDbEntity
  8
1
100
AcDbVertex
100
AcDb3dPolylineVertex
 10
10.537555
 20
12.665664
 30
0.0
 70
    32
  0
VERTEX
  5
E84C7
330
E84AB
100
AcDbEntity
  8
1
100
AcDbVertex
100
AcDb3dPolylineVertex
 10
10.557146
 20
12.919358
 30
0.0
 70
    32
  0
VERTEX
  5
E84C8
330
E84AB
100
AcDbEntity
  8
1
100
AcDbVertex
100
AcDb3dPolylineVertex
 10
10.567613
 20
13.173614
 30
0.0
 70
    32
  0
VERTEX
  5
E84C9
330
E84AB
100
AcDbEntity
  8
1
100
AcDbVertex
100
AcDb3dPolylineVertex
 10
10.578079
 20
13.427871
 30
0.0
 70
    32
  0
VERTEX
  5
E84CA
330
E84AB
100
AcDbEntity
  8
1
100
AcDbVertex
100
AcDb3dPolylineVertex
 10
10.588546
 20
13.682127
 30
0.0
 70
    32
  0
VERTEX
  5
E84CB
330
E84AB
100
AcDbEntity
  8
1
100
AcDbVertex
100
AcDb3dPolylineVertex
 10
10.592458
 20
13.9365
 30
0.0
 70
    32
  0
VERTEX
  5
E84CC
330
E84AB
100
AcDbEntity
  8
1
100
AcDbVertex
100
AcDb3dPolylineVertex
 10
10.591128
 20
14.190968
 30
0.0
 70
    32
  0
VERTEX
  5
E84CD
330
E84AB
100
AcDbEntity
  8
1
100
AcDbVertex
100
AcDb3dPolylineVertex
 10
10.589799
 20
14.445436
 30
0.0
 70
    32
  0
VERTEX
  5
E84CE
330
E84AB
100
AcDbEntity
  8
1
100
AcDbVertex
100
AcDb3dPolylineVertex
 10
10.588469
 20
14.699904
 30
0.0
 70
    32
  0
VERTEX
  5
E84CF
330
E84AB
100
AcDbEntity
  8
1
100
AcDbVertex
100
AcDb3dPolylineVertex
 10
10.572062
 20
14.953835
 30
0.0
 70
    32
  0
VERTEX
  5
E84D0
330
E84AB
100
AcDbEntity
  8
1
100
AcDbVertex
100
AcDb3dPolylineVertex
 10
10.555274
 20
15.207752
 30
0.0
 70
    32
  0
VERTEX
  5
E84D1
330
E84AB
100
AcDbEntity
  8
1
100
AcDbVertex
100
AcDb3dPolylineVertex
 10
10.538486
 20
15.461669
 30
0.0
 70
    32
  0
VERTEX
  5
E84D2
330
E84AB
100
AcDbEntity
  8
1
100
AcDbVertex
100
AcDb3dPolylineVertex
 10
10.51395
 20
15.71477
 30
0.0
 70
    32
  0
VERTEX
  5
E84D3
330
E84AB
100
AcDbEntity
  8
1
100
AcDbVertex
100
AcDb3dPolylineVertex
 10
10.477448
 20
15.96661
 30
0.0
 70
    32
  0
VERTEX
  5
E84D4
330
E84AB
100
AcDbEntity
  8
1
100
AcDbVertex
100
AcDb3dPolylineVertex
 10
10.440947
 20
16.218449
 30
0.0
 70
    32
  0
VERTEX
  5
E84D5
330
E84AB
100
AcDbEntity
  8
1
100
AcDbVertex
100
AcDb3dPolylineVertex
 10
10.404445
 20
16.470289
 30
0.0
 70
    32
  0
VERTEX
  5
E84D6
330
E84AB
100
AcDbEntity
  8
1
100
AcDbVertex
100
AcDb3dPolylineVertex
 10
10.350655
 20
16.718857
 30
0.0
 70
    32
  0
VERTEX
  5
E84D7
330
E84AB
100
AcDbEntity
  8
1
100
AcDbVertex
100
AcDb3dPolylineVertex
 10
10.292584
 20
16.966613
 30
0.0
 70
    32
  0
VERTEX
  5
E84D8
330
E84AB
100
AcDbEntity
  8
1
100
AcDbVertex
100
AcDb3dPolylineVertex
 10
10.234513
 20
17.21437
 30
0.0
 70
    32
  0
VERTEX
  5
E84D9
330
E84AB
100
AcDbEntity
  8
1
100
AcDbVertex
100
AcDb3dPolylineVertex
 10
10.159274
 20
17.457434
 30
0.0
 70
    32
  0
VERTEX
  5
E84DA
330
E84AB
100
AcDbEntity
  8
1
100
AcDbVertex
100
AcDb3dPolylineVertex
 10
10.075239
 20
17.69749
 30
0.0
 70
    32
  0
VERTEX
  5
E84DB
330
E84AB
100
AcDbEntity
  8
1
100
AcDbVertex
100
AcDb3dPolylineVertex
 10
9.983708999999999
 20
17.93492999999999
 30
0.0
 70
    32
  0
VERTEX
  5
E84DC
330
E84AB
100
AcDbEntity
  8
1
100
AcDbVertex
100
AcDb3dPolylineVertex
 10
9.878087999999999
 20
18.16617
 30
0.0
 70
    32
  0
VERTEX
  5
E84DD
330
E84AB
100
AcDbEntity
  8
1
100
AcDbVertex
100
AcDb3dPolylineVertex
 10
9.76487
 20
18.394068
 30
0.0
 70
    32
  0
VERTEX
  5
E84DE
330
E84AB
100
AcDbEntity
  8
1
100
AcDbVertex
100
AcDb3dPolylineVertex
 10
9.631415999999999
 20
18.610438
 30
0.0
 70
    32
  0
VERTEX
  5
E84DF
330
E84AB
100
AcDbEntity
  8
1
100
AcDbVertex
100
AcDb3dPolylineVertex
 10
9.493111000000002
 20
18.824043
 30
0.0
 70
    32
  0
VERTEX
  5
E84E0
330
E84AB
100
AcDbEntity
  8
1
100
AcDbVertex
100
AcDb3dPolylineVertex
 10
9.336591000000002
 20
19.02459
 30
0.0
 70
    32
  0
SEQEND
  5
E84E1
330
E84AB
100
AcDbEntity
  8
1
  0
POLYLINE
  5
E84E2
330
18
100
AcDbEntity
  8
1
100
AcDb3dPolyline
 66
     1
 10
0.0
 20
0.0
 30
0.0
 70
     8
  0
VERTEX
  5
E84E3
330
E84E2
100
AcDbEntity
  8
1
100
AcDbVertex
100
AcDb3dPolylineVertex
 10
6.923204999999997
 20
-19.12226
 30
0.0
 70
    32
  0
VERTEX
  5
E84E4
330
E84E2
100
AcDbEntity
  8
1
100
AcDbVertex
100
AcDb3dPolylineVertex
 10
7.641067999999997
 20
-19.12226
 30
0.0
 70
    32
  0
VERTEX
  5
E84E5
330
E84E2
100
AcDbEntity
  8
1
100
AcDbVertex
100
AcDb3dPolylineVertex
 10
8.358931999999999
 20
-19.12226
 30
0.0
 70
    32
  0
VERTEX
  5
E84E6
330
E84E2
100
AcDbEntity
  8
1
100
AcDbVertex
100
AcDb3dPolylineVertex
 10
9.076794999999997
 20
-19.12226
 30
0.0
 70
    32
  0
SEQEND
  5
E84E7
330
E84E2
100
AcDbEntity
  8
1
  0
POLYLINE
  5
E84E8
330
18
100
AcDbEntity
  8
1
100
AcDb3dPolyline
 66
     1
 10
0.0
 20
0.0
 30
0.0
 70
     8
  0
VERTEX
  5
E84E9
330
E84E8
100
AcDbEntity
  8
1
100
AcDbVertex
100
AcDb3dPolylineVertex
 10
6.923205000000001
 20
19.12226
 30
0.0
 70
    32
  0
VERTEX
  5
E84EA
330
E84E8
100
AcDbEntity
  8
1
100
AcDbVertex
100
AcDb3dPolylineVertex
 10
7.641067999999997
 20
19.12226
 30
0.0
 70
    32
  0
VERTEX
  5
E84EB
330
E84E8
100
AcDbEntity
  8
1
100
AcDbVertex
100
AcDb3dPolylineVertex
 10
8.358932000000002
 20
19.12226
 30
0.0
 70
    32
  0
VERTEX
  5
E84EC
330
E84E8
100
AcDbEntity
  8
1
100
AcDbVertex
100
AcDb3dPolylineVertex
 10
9.076794999999997
 20
19.12226
 30
0.0
 70
    32
  0
SEQEND
  5
E84ED
330
E84E8
100
AcDbEntity
  8
1
  0
POLYLINE
  5
E84EE
330
18
100
AcDbEntity
  8
1
100
AcDb3dPolyline
 66
     1
 10
0.0
 20
0.0
 30
0.0
 70
     8
  0
VERTEX
  5
E84EF
330
E84EE
100
AcDbEntity
  8
1
100
AcDbVertex
100
AcDb3dPolylineVertex
 10
9.076794999999997
 20
-5.859963999999997
 30
0.0
 70
    32
  0
VERTEX
  5
E84F0
330
E84EE
100
AcDbEntity
  8
1
100
AcDbVertex
100
AcDb3dPolylineVertex
 10
8.358932000000001
 20
-5.859963999999997
 30
0.0
 70
    32
  0
VERTEX
  5
E84F1
330
E84EE
100
AcDbEntity
  8
1
100
AcDbVertex
100
AcDb3dPolylineVertex
 10
7.641067999999997
 20
-5.859963999999997
 30
0.0
 70
    32
  0
VERTEX
  5
E84F2
330
E84EE
100
AcDbEntity
  8
1
100
AcDbVertex
100
AcDb3dPolylineVertex
 10
6.923205
 20
-5.859963999999997
 30
0.0
 70
    32
  0
SEQEND
  5
E84F3
330
E84EE
100
AcDbEntity
  8
1
  0
POLYLINE
  5
E84F4
330
18
100
AcDbEntity
  8
1
100
AcDb3dPolyline
 66
     1
 10
0.0
 20
0.0
 30
0.0
 70
     8
  0
VERTEX
  5
E84F5
330
E84F4
100
AcDbEntity
  8
1
100
AcDbVertex
100
AcDb3dPolylineVertex
 10
20.500778
 20
21.5
 30
0.0
 70
    32
  0
VERTEX
  5
E84F6
330
E84F4
100
AcDbEntity
  8
1
100
AcDbVertex
100
AcDb3dPolylineVertex
 10
20.333852
 20
20.865306
 30
0.0
 70
    32
  0
VERTEX
  5
E84F7
330
E84F4
100
AcDbEntity
  8
1
100
AcDbVertex
100
AcDb3dPolylineVertex
 10
20.166926
 20
20.230612
 30
0.0
 70
    32
  0
VERTEX
  5
E84F8
330
E84F4
100
AcDbEntity
  8
1
100
AcDbVertex
100
AcDb3dPolylineVertex
 10
20.0
 20
19.595918
 30
0.0
 70
    32
  0
SEQEND
  5
E84F9
330
E84F4
100
AcDbEntity
  8
1
  0
POLYLINE
  5
E84FA
330
18
100
AcDbEntity
  8
1
100
AcDb3dPolyline
 66
     1
 10
0.0
 20
0.0
 30
0.0
 70
     8
  0
VERTEX
  5
E84FB
330
E84FA
100
AcDbEntity
  8
1
100
AcDbVertex
100
AcDb3dPolylineVertex
 10
16.981475
 20
-8.787355000000001
 30
0.0
 70
    32
  0
VERTEX
  5
E84FC
330
E84FA
100
AcDbEntity
  8
1
100
AcDbVertex
100
AcDb3dPolylineVertex
 10
17.000593
 20
-8.610811000000001
 30
0.0
 70
    32
  0
VERTEX
  5
E84FD
330
E84FA
100
AcDbEntity
  8
1
100
AcDbVertex
100
AcDb3dPolylineVertex
 10
17.03181
 20
-8.435680000000001
 30
0.0
 70
    32
  0
VERTEX
  5
E84FE
330
E84FA
100
AcDbEntity
  8
1
100
AcDbVertex
100
AcDb3dPolylineVertex
 10
17.064713
 20
-8.260940000000001
 30
0.0
 70
    32
  0
VERTEX
  5
E84FF
330
E84FA
100
AcDbEntity
  8
1
100
AcDbVertex
100
AcDb3dPolylineVertex
 10
17.113849
 20
-8.089969000000001
 30
0.0
 70
    32
  0
VERTEX
  5
E8500
330
E84FA
100
AcDbEntity
  8
1
100
AcDbVertex
100
AcDb3dPolylineVertex
 10
17.162985
 20
-7.918997999999997
 30
0.0
 70
    32
  0
VERTEX
  5
E8501
330
E84FA
100
AcDbEntity
  8
1
100
AcDbVertex
100
AcDb3dPolylineVertex
 10
17.212122
 20
-7.748027000000001
 30
0.0
 70
    32
  0
VERTEX
  5
E8502
330
E84FA
100
AcDbEntity
  8
1
100
AcDbVertex
100
AcDb3dPolylineVertex
 10
17.261258
 20
-7.577057
 30
0.0
 70
    32
  0
VERTEX
  5
E8503
330
E84FA
100
AcDbEntity
  8
1
100
AcDbVertex
100
AcDb3dPolylineVertex
 10
17.308367
 20
-7.405533000000001
 30
0.0
 70
    32
  0
VERTEX
  5
E8504
330
E84FA
100
AcDbEntity
  8
1
100
AcDbVertex
100
AcDb3dPolylineVertex
 10
17.352794
 20
-7.233278999999997
 30
0.0
 70
    32
  0
VERTEX
  5
E8505
330
E84FA
100
AcDbEntity
  8
1
100
AcDbVertex
100
AcDb3dPolylineVertex
 10
17.397221
 20
-7.061024000000001
 30
0.0
 70
    32
  0
VERTEX
  5
E8506
330
E84FA
100
AcDbEntity
  8
1
100
AcDbVertex
100
AcDb3dPolylineVertex
 10
17.43346
 20
-6.886868999999999
 30
0.0
 70
    32
  0
VERTEX
  5
E8507
330
E84FA
100
AcDbEntity
  8
1
100
AcDbVertex
100
AcDb3dPolylineVertex
 10
17.469455
 20
-6.712657
 30
0.0
 70
    32
  0
VERTEX
  5
E8508
330
E84FA
100
AcDbEntity
  8
1
100
AcDbVertex
100
AcDb3dPolylineVertex
 10
17.498932
 20
-6.537344
 30
0.0
 70
    32
  0
VERTEX
  5
E8509
330
E84FA
100
AcDbEntity
  8
1
100
AcDbVertex
100
AcDb3dPolylineVertex
 10
17.52218
 20
-6.360978000000001
 30
0.0
 70
    32
  0
VERTEX
  5
E850A
330
E84FA
100
AcDbEntity
  8
1
100
AcDbVertex
100
AcDb3dPolylineVertex
 10
17.544845
 20
-6.184555999999997
 30
0.0
 70
    32
  0
VERTEX
  5
E850B
330
E84FA
100
AcDbEntity
  8
1
100
AcDbVertex
100
AcDb3dPolylineVertex
 10
17.555589
 20
-6.006988999999999
 30
0.0
 70
    32
  0
VERTEX
  5
E850C
330
E84FA
100
AcDbEntity
  8
1
100
AcDbVertex
100
AcDb3dPolylineVertex
 10
17.566332
 20
-5.829422
 30
0.0
 70
    32
  0
VERTEX
  5
E850D
330
E84FA
100
AcDbEntity
  8
1
100
AcDbVertex
100
AcDb3dPolylineVertex
 10
17.571864
 20
-5.651669
 30
0.0
 70
    32
  0
VERTEX
  5
E850E
330
E84FA
100
AcDbEntity
  8
1
100
AcDbVertex
100
AcDb3dPolylineVertex
 10
17.573828
 20
-5.473789
 30
0.0
 70
    32
  0
VERTEX
  5
E850F
330
E84FA
100
AcDbEntity
  8
1
100
AcDbVertex
100
AcDb3dPolylineVertex
 10
17.574148
 20
-5.295941
 30
0.0
 70
    32
  0
VERTEX
  5
E8510
330
E84FA
100
AcDbEntity
  8
1
100
AcDbVertex
100
AcDb3dPolylineVertex
 10
17.564927
 20
-5.118288999999998
 30
0.0
 70
    32
  0
VERTEX
  5
E8511
330
E84FA
100
AcDbEntity
  8
1
100
AcDbVertex
100
AcDb3dPolylineVertex
 10
17.555706
 20
-4.940637000000001
 30
0.0
 70
    32
  0
VERTEX
  5
E8512
330
E84FA
100
AcDbEntity
  8
1
100
AcDbVertex
100
AcDb3dPolylineVertex
 10
17.546485
 20
-4.762983999999998
 30
0.0
 70
    32
  0
VERTEX
  5
E8513
330
E84FA
100
AcDbEntity
  8
1
100
AcDbVertex
100
AcDb3dPolylineVertex
 10
17.537264
 20
-4.585332000000001
 30
0.0
 70
    32
  0
VERTEX
  5
E8514
330
E84FA
100
AcDbEntity
  8
1
100
AcDbVertex
100
AcDb3dPolylineVertex
 10
17.525111
 20
-4.407926999999999
 30
0.0
 70
    32
  0
VERTEX
  5
E8515
330
E84FA
100
AcDbEntity
  8
1
100
AcDbVertex
100
AcDb3dPolylineVertex
 10
17.504416
 20
-4.231243
 30
0.0
 70
    32
  0
VERTEX
  5
E8516
330
E84FA
100
AcDbEntity
  8
1
100
AcDbVertex
100
AcDb3dPolylineVertex
 10
17.483721
 20
-4.054559999999998
 30
0.0
 70
    32
  0
VERTEX
  5
E8517
330
E84FA
100
AcDbEntity
  8
1
100
AcDbVertex
100
AcDb3dPolylineVertex
 10
17.463026
 20
-3.877876
 30
0.0
 70
    32
  0
VERTEX
  5
E8518
330
E84FA
100
AcDbEntity
  8
1
100
AcDbVertex
100
AcDb3dPolylineVertex
 10
17.44233
 20
-3.701191999999998
 30
0.0
 70
    32
  0
VERTEX
  5
E8519
330
E84FA
100
AcDbEntity
  8
1
100
AcDbVertex
100
AcDb3dPolylineVertex
 10
17.418301
 20
-3.524991000000001
 30
0.0
 70
    32
  0
VERTEX
  5
E851A
330
E84FA
100
AcDbEntity
  8
1
100
AcDbVertex
100
AcDb3dPolylineVertex
 10
17.388116
 20
-3.349679
 30
0.0
 70
    32
  0
VERTEX
  5
E851B
330
E84FA
100
AcDbEntity
  8
1
100
AcDbVertex
100
AcDb3dPolylineVertex
 10
17.357932
 20
-3.174366999999998
 30
0.0
 70
    32
  0
VERTEX
  5
E851C
330
E84FA
100
AcDbEntity
  8
1
100
AcDbVertex
100
AcDb3dPolylineVertex
 10
17.327748
 20
-2.999054999999998
 30
0.0
 70
    32
  0
VERTEX
  5
E851D
330
E84FA
100
AcDbEntity
  8
1
100
AcDbVertex
100
AcDb3dPolylineVertex
 10
17.297563
 20
-2.823742999999998
 30
0.0
 70
    32
  0
VERTEX
  5
E851E
330
E84FA
100
AcDbEntity
  8
1
100
AcDbVertex
100
AcDb3dPolylineVertex
 10
17.266968
 20
-2.648515000000001
 30
0.0
 70
    32
  0
VERTEX
  5
E851F
330
E84FA
100
AcDbEntity
  8
1
100
AcDbVertex
100
AcDb3dPolylineVertex
 10
17.225828
 20
-2.475445999999998
 30
0.0
 70
    32
  0
VERTEX
  5
E8520
330
E84FA
100
AcDbEntity
  8
1
100
AcDbVertex
100
AcDb3dPolylineVertex
 10
17.184687
 20
-2.302376999999999
 30
0.0
 70
    32
  0
VERTEX
  5
E8521
330
E84FA
100
AcDbEntity
  8
1
100
AcDbVertex
100
AcDb3dPolylineVertex
 10
17.143547
 20
-2.129307999999999
 30
0.0
 70
    32
  0
VERTEX
  5
E8522
330
E84FA
100
AcDbEntity
  8
1
100
AcDbVertex
100
AcDb3dPolylineVertex
 10
17.102407
 20
-1.956238999999999
 30
0.0
 70
    32
  0
VERTEX
  5
E8523
330
E84FA
100
AcDbEntity
  8
1
100
AcDbVertex
100
AcDb3dPolylineVertex
 10
17.061266
 20
-1.78317
 30
0.0
 70
    32
  0
VERTEX
  5
E8524
330
E84FA
100
AcDbEntity
  8
1
100
AcDbVertex
100
AcDb3dPolylineVertex
 10
17.020126
 20
-1.610101
 30
0.0
 70
    32
  0
VERTEX
  5
E8525
330
E84FA
100
AcDbEntity
  8
1
100
AcDbVertex
100
AcDb3dPolylineVertex
 10
16.998226
 20
-1.433850999999999
 30
0.0
 70
    32
  0
VERTEX
  5
E8526
330
E84FA
100
AcDbEntity
  8
1
100
AcDbVertex
100
AcDb3dPolylineVertex
 10
16.981475
 20
-1.256750000000001
 30
0.0
 70
    32
  0
SEQEND
  5
E8527
330
E84FA
100
AcDbEntity
  8
1
  0
POLYLINE
  5
E8528
330
18
100
AcDbEntity
  8
1
100
AcDb3dPolyline
 66
     1
 10
0.0
 20
0.0
 30
0.0
 70
     8
  0
VERTEX
  5
E8529
330
E8528
100
AcDbEntity
  8
1
100
AcDbVertex
100
AcDb3dPolylineVertex
 10
20.0
 20
-19.506817
 30
0.0
 70
    32
  0
VERTEX
  5
E852A
330
E8528
100
AcDbEntity
  8
1
100
AcDbVertex
100
AcDb3dPolylineVertex
 10
19.899459
 20
-19.494013
 30
0.0
 70
    32
  0
VERTEX
  5
E852B
330
E8528
100
AcDbEntity
  8
1
100
AcDbVertex
100
AcDb3dPolylineVertex
 10
19.798918
 20
-19.481209
 30
0.0
 70
    32
  0
VERTEX
  5
E852C
330
E8528
100
AcDbEntity
  8
1
100
AcDbVertex
100
AcDb3dPolylineVertex
 10
19.698378
 20
-19.468405
 30
0.0
 70
    32
  0
VERTEX
  5
E852D
330
E8528
100
AcDbEntity
  8
1
100
AcDbVertex
100
AcDb3dPolylineVertex
 10
19.597837
 20
-19.455602
 30
0.0
 70
    32
  0
VERTEX
  5
E852E
330
E8528
100
AcDbEntity
  8
1
100
AcDbVertex
100
AcDb3dPolylineVertex
 10
19.497296
 20
-19.442798
 30
0.0
 70
    32
  0
VERTEX
  5
E852F
330
E8528
100
AcDbEntity
  8
1
100
AcDbVertex
100
AcDb3dPolylineVertex
 10
19.396755
 20
-19.429994
 30
0.0
 70
    32
  0
VERTEX
  5
E8530
330
E8528
100
AcDbEntity
  8
1
100
AcDbVertex
100
AcDb3dPolylineVertex
 10
19.296214
 20
-19.41719
 30
0.0
 70
    32
  0
VERTEX
  5
E8531
330
E8528
100
AcDbEntity
  8
1
100
AcDbVertex
100
AcDb3dPolylineVertex
 10
19.196052
 20
-19.402031
 30
0.0
 70
    32
  0
VERTEX
  5
E8532
330
E8528
100
AcDbEntity
  8
1
100
AcDbVertex
100
AcDb3dPolylineVertex
 10
19.096552
 20
-19.382739
 30
0.0
 70
    32
  0
VERTEX
  5
E8533
330
E8528
100
AcDbEntity
  8
1
100
AcDbVertex
100
AcDb3dPolylineVertex
 10
18.997052
 20
-19.363447
 30
0.0
 70
    32
  0
VERTEX
  5
E8534
330
E8528
100
AcDbEntity
  8
1
100
AcDbVertex
100
AcDb3dPolylineVertex
 10
18.89755199999999
 20
-19.344156
 30
0.0
 70
    32
  0
VERTEX
  5
E8535
330
E8528
100
AcDbEntity
  8
1
100
AcDbVertex
100
AcDb3dPolylineVertex
 10
18.798052
 20
-19.324864
 30
0.0
 70
    32
  0
VERTEX
  5
E8536
330
E8528
100
AcDbEntity
  8
1
100
AcDbVertex
100
AcDb3dPolylineVertex
 10
18.698552
 20
-19.305572
 30
0.0
 70
    32
  0
VERTEX
  5
E8537
330
E8528
100
AcDbEntity
  8
1
100
AcDbVertex
100
AcDb3dPolylineVertex
 10
18.599468
 20
-19.284508
 30
0.0
 70
    32
  0
VERTEX
  5
E8538
330
E8528
100
AcDbEntity
  8
1
100
AcDbVertex
100
AcDb3dPolylineVertex
 10
18.501772
 20
-19.257531
 30
0.0
 70
    32
  0
VERTEX
  5
E8539
330
E8528
100
AcDbEntity
  8
1
100
AcDbVertex
100
AcDb3dPolylineVertex
 10
18.404075
 20
-19.230554
 30
0.0
 70
    32
  0
VERTEX
  5
E853A
330
E8528
100
AcDbEntity
  8
1
100
AcDbVertex
100
AcDb3dPolylineVertex
 10
18.306782
 20
-19.202316
 30
0.0
 70
    32
  0
VERTEX
  5
E853B
330
E8528
100
AcDbEntity
  8
1
100
AcDbVertex
100
AcDb3dPolylineVertex
 10
18.211584
 20
-19.167537
 30
0.0
 70
    32
  0
VERTEX
  5
E853C
330
E8528
100
AcDbEntity
  8
1
100
AcDbVertex
100
AcDb3dPolylineVertex
 10
18.116385
 20
-19.132758
 30
0.0
 70
    32
  0
VERTEX
  5
E853D
330
E8528
100
AcDbEntity
  8
1
100
AcDbVertex
100
AcDb3dPolylineVertex
 10
18.021561
 20
-19.097095
 30
0.0
 70
    32
  0
VERTEX
  5
E853E
330
E8528
100
AcDbEntity
  8
1
100
AcDbVertex
100
AcDb3dPolylineVertex
 10
17.930414
 20
-19.052772
 30
0.0
 70
    32
  0
VERTEX
  5
E853F
330
E8528
100
AcDbEntity
  8
1
100
AcDbVertex
100
AcDb3dPolylineVertex
 10
17.839266
 20
-19.008449
 30
0.0
 70
    32
  0
VERTEX
  5
E8540
330
E8528
100
AcDbEntity
  8
1
100
AcDbVertex
100
AcDb3dPolylineVertex
 10
17.748155
 20
-18.964061
 30
0.0
 70
    32
  0
VERTEX
  5
E8541
330
E8528
100
AcDbEntity
  8
1
100
AcDbVertex
100
AcDb3dPolylineVertex
 10
17.663063
 20
-18.909
 30
0.0
 70
    32
  0
VERTEX
  5
E8542
330
E8528
100
AcDbEntity
  8
1
100
AcDbVertex
100
AcDb3dPolylineVertex
 10
17.577972
 20
-18.853938
 30
0.0
 70
    32
  0
VERTEX
  5
E8543
330
E8528
100
AcDbEntity
  8
1
100
AcDbVertex
100
AcDb3dPolylineVertex
 10
17.49288
 20
-18.798877
 30
0.0
 70
    32
  0
VERTEX
  5
E8544
330
E8528
100
AcDbEntity
  8
1
100
AcDbVertex
100
AcDb3dPolylineVertex
 10
17.413749
 20
-18.735673
 30
0.0
 70
    32
  0
VERTEX
  5
E8545
330
E8528
100
AcDbEntity
  8
1
100
AcDbVertex
100
AcDb3dPolylineVertex
 10
17.335556
 20
-18.671188
 30
0.0
 70
    32
  0
VERTEX
  5
E8546
330
E8528
100
AcDbEntity
  8
1
100
AcDbVertex
100
AcDb3dPolylineVertex
 10
17.26407
 20
-18.600026
 30
0.0
 70
    32
  0
VERTEX
  5
E8547
330
E8528
100
AcDbEntity
  8
1
100
AcDbVertex
100
AcDb3dPolylineVertex
 10
17.199926
 20
-18.521554
 30
0.0
 70
    32
  0
VERTEX
  5
E8548
330
E8528
100
AcDbEntity
  8
1
100
AcDbVertex
100
AcDb3dPolylineVertex
 10
17.139388
 20
-18.440853
 30
0.0
 70
    32
  0
VERTEX
  5
E8549
330
E8528
100
AcDbEntity
  8
1
100
AcDbVertex
100
AcDb3dPolylineVertex
 10
17.097877
 20
-18.34839
 30
0.0
 70
    32
  0
VERTEX
  5
E854A
330
E8528
100
AcDbEntity
  8
1
100
AcDbVertex
100
AcDb3dPolylineVertex
 10
17.056367
 20
-18.255928
 30
0.0
 70
    32
  0
VERTEX
  5
E854B
330
E8528
100
AcDbEntity
  8
1
100
AcDbVertex
100
AcDb3dPolylineVertex
 10
17.023985
 20
-18.160488
 30
0.0
 70
    32
  0
VERTEX
  5
E854C
330
E8528
100
AcDbEntity
  8
1
100
AcDbVertex
100
AcDb3dPolylineVertex
 10
17.002986
 20
-18.061334
 30
0.0
 70
    32
  0
VERTEX
  5
E854D
330
E8528
100
AcDbEntity
  8
1
100
AcDbVertex
100
AcDb3dPolylineVertex
 10
16.98451099999999
 20
-17.961878
 30
0.0
 70
    32
  0
VERTEX
  5
E854E
330
E8528
100
AcDbEntity
  8
1
100
AcDbVertex
100
AcDb3dPolylineVertex
 10
16.981475
 20
-17.860571
 30
0.0
 70
    32
  0
SEQEND
  5
E854F
330
E8528
100
AcDbEntity
  8
1
  0
POLYLINE
  5
E8550
330
18
100
AcDbEntity
  8
1
100
AcDb3dPolyline
 66
     1
 10
0.0
 20
0.0
 30
0.0
 70
     8
  0
VERTEX
  5
E8551
330
E8550
100
AcDbEntity
  8
1
100
AcDbVertex
100
AcDb3dPolylineVertex
 10
21.125755
 20
-24.112566
 30
0.0
 70
    32
  0
VERTEX
  5
E8552
330
E8550
100
AcDbEntity
  8
1
100
AcDbVertex
100
AcDb3dPolylineVertex
 10
20.750503
 20
-22.690689
 30
0.0
 70
    32
  0
VERTEX
  5
E8553
330
E8550
100
AcDbEntity
  8
1
100
AcDbVertex
100
AcDb3dPolylineVertex
 10
20.375252
 20
-21.268813
 30
0.0
 70
    32
  0
VERTEX
  5
E8554
330
E8550
100
AcDbEntity
  8
1
100
AcDbVertex
100
AcDb3dPolylineVertex
 10
20.0
 20
-19.846936
 30
0.0
 70
    32
  0
SEQEND
  5
E8555
330
E8550
100
AcDbEntity
  8
1
  0
DIMENSION
  5
E8556
330
18
100
AcDbEntity
  8
SK2
100
AcDbDimension
  2
*D3
 10
-28.388618
 20
20.00000000000001
 30
0.0
 11
-30.76361800000001
 21
0.000000000000002
 31
0.0
 70
    32
  1
%%c40
 71
     5
 42
40.0
  3
SANDVIK_STYLE
100
AcDbAlignedDimension
 13
-0.0625000000000012
 23
-20.0
 33
0.0
 14
-0.0624999999999988
 24
20.0
 34
0.0
 50
90.0
100
AcDbRotatedDimension
  0
DIMENSION
  5
E8557
330
18
100
AcDbEntity
  8
2L
100
AcDbDimension
  2
*D4
 10
61.44499200000001
 20
-27.00000000000001
 30
0.0
 11
59.06999200000001
 21
-13.5
 31
0.0
 70
    32
  1
27
 71
     5
 42
27.00000000000001
  3
SANDVIK_STYLE
100
AcDbAlignedDimension
 13
53.172572
 23
-0.0000000000000033
 33
0.0
 14
50.0625
 24
-27.00000000000001
 34
0.0
 50
90.0
100
AcDbRotatedDimension
  0
DIMENSION
  5
E8558
330
18
100
AcDbEntity
  8
2L
100
AcDbDimension
  2
*D5
 10
-0.0000000000000025
 20
-41.11536
 30
0.0
 11
25.0
 21
-38.74036
 31
0.0
 70
    32
  1
50
 71
     5
 42
50.0
  3
SANDVIK_STYLE
100
AcDbAlignedDimension
 13
50.0
 23
-27.06250000000001
 33
0.0
 14
-0.0000000000000012
 24
-20.0625
 34
0.0
 50
180.0
100
AcDbRotatedDimension
  0
INSERT
  5
E8559
330
18
100
AcDbEntity
  8
5
100
AcDbBlockReference
  2
_nullpunkt
 10
0.0
 20
0.0
 30
0.0
  0
TEXT
  5
E855A
330
18
100
AcDbEntity
  8
5
100
AcDbText
 10
0.0
 20
0.0
 30
0.0
 40
0.1
  1
ISOORIENTED
100
AcDbText
  0
ENDSEC
  0
SECTION
  2
OBJECTS
  0
DICTIONARY
  5
C
330
0
100
AcDbDictionary
281
     1
  3
ACAD_2007HEADERVARS_RT
350
E862B
  3
ACAD_CIP_PREVIOUS_PRODUCT_INFO
350
E85D5
  3
ACAD_COLOR
350
387
  3
ACAD_DETAILVIEWSTYLE
350
E85D2
  3
ACAD_GROUP
350
D
  3
ACAD_LAYOUT
350
301
  3
ACAD_MATERIAL
350
386
  3
ACAD_MLEADERSTYLE
350
43C
  3
ACAD_MLINESTYLE
350
E
  3
ACAD_PLOTSETTINGS
350
302
  3
ACAD_PLOTSTYLENAME
350
2FF
  3
ACAD_SCALELIST
350
41A
  3
ACAD_SECTIONVIEWSTYLE
350
E85D0
  3
ACAD_TABLESTYLE
350
388
  3
ACAD_VISUALSTYLE
350
3F2
  3
ACDB_RECOMPOSE_DATA
350
E8629
  3
AcDbVariableDictionary
350
357
  3
DWGPROPS
350
E862A
  0
DICTIONARY
  5
E85D8
330
F
100
AcDbDictionary
280
     1
281
     1
  3
ADSK_XREC_LAYER_RECONCILED
360
E85D9
  0
DICTIONARY
  5
E85DA
330
23
100
AcDbDictionary
280
     1
281
     1
  3
ADSK_XREC_LAYER_RECONCILED
360
E85DB
  0
DICTIONARY
  5
E85DC
330
E810E
100
AcDbDictionary
280
     1
281
     1
  3
ADSK_XREC_LAYER_RECONCILED
360
E85DD
  0
DICTIONARY
  5
E85DE
330
E810F
100
AcDbDictionary
280
     1
281
     1
  3
ADSK_XREC_LAYER_RECONCILED
360
E85DF
  0
DICTIONARY
  5
E85E0
330
E8110
100
AcDbDictionary
280
     1
281
     1
  3
ADSK_XREC_LAYER_RECONCILED
360
E85E1
  0
DICTIONARY
  5
E85E2
330
E8111
100
AcDbDictionary
280
     1
281
     1
  3
ADSK_XREC_LAYER_RECONCILED
360
E85E3
  0
DICTIONARY
  5
E85E4
330
E8112
100
AcDbDictionary
280
     1
281
     1
  3
ADSK_XREC_LAYER_RECONCILED
360
E85E5
  0
DICTIONARY
  5
E85E6
330
E8113
100
AcDbDictionary
280
     1
281
     1
  3
ADSK_XREC_LAYER_RECONCILED
360
E85E7
  0
DICTIONARY
  5
E85E8
330
E8114
100
AcDbDictionary
280
     1
281
     1
  3
ADSK_XREC_LAYER_RECONCILED
360
E85E9
  0
DICTIONARY
  5
E85EA
330
E8115
100
AcDbDictionary
280
     1
281
     1
  3
ADSK_XREC_LAYER_RECONCILED
360
E85EB
  0
DICTIONARY
  5
E85EC
330
E8116
100
AcDbDictionary
280
     1
281
     1
  3
ADSK_XREC_LAYER_RECONCILED
360
E85ED
  0
DICTIONARY
  5
E85EE
330
E8117
100
AcDbDictionary
280
     1
281
     1
  3
ADSK_XREC_LAYER_RECONCILED
360
E85EF
  0
DICTIONARY
  5
E85F0
330
E8118
100
AcDbDictionary
280
     1
281
     1
  3
ADSK_XREC_LAYER_RECONCILED
360
E85F1
  0
DICTIONARY
  5
E85F2
330
E8119
100
AcDbDictionary
280
     1
281
     1
  3
ADSK_XREC_LAYER_RECONCILED
360
E85F3
  0
DICTIONARY
  5
E85F4
330
E811A
100
AcDbDictionary
280
     1
281
     1
  3
ADSK_XREC_LAYER_RECONCILED
360
E85F5
  0
DICTIONARY
  5
E85F6
330
E811B
100
AcDbDictionary
280
     1
281
     1
  3
ADSK_XREC_LAYER_RECONCILED
360
E85F7
  0
DICTIONARY
  5
E85F8
330
E811C
100
AcDbDictionary
280
     1
281
     1
  3
ADSK_XREC_LAYER_RECONCILED
360
E85F9
  0
DICTIONARY
  5
E85FA
330
E811D
100
AcDbDictionary
280
     1
281
     1
  3
ADSK_XREC_LAYER_RECONCILED
360
E85FB
  0
DICTIONARY
  5
E85FC
330
E811E
100
AcDbDictionary
280
     1
281
     1
  3
ADSK_XREC_LAYER_RECONCILED
360
E85FD
  0
DICTIONARY
  5
E85FE
330
E811F
100
AcDbDictionary
280
     1
281
     1
  3
ADSK_XREC_LAYER_RECONCILED
360
E85FF
  0
DICTIONARY
  5
E8600
330
E8120
100
AcDbDictionary
280
     1
281
     1
  3
ADSK_XREC_LAYER_RECONCILED
360
E8601
  0
DICTIONARY
  5
E8602
330
E8121
100
AcDbDictionary
280
     1
281
     1
  3
ADSK_XREC_LAYER_RECONCILED
360
E8603
  0
DICTIONARY
  5
E8604
330
E8122
100
AcDbDictionary
280
     1
281
     1
  3
ADSK_XREC_LAYER_RECONCILED
360
E8605
  0
DICTIONARY
  5
E8606
330
E8123
100
AcDbDictionary
280
     1
281
     1
  3
ADSK_XREC_LAYER_RECONCILED
360
E8607
  0
DICTIONARY
  5
E8608
330
E8124
100
AcDbDictionary
280
     1
281
     1
  3
ADSK_XREC_LAYER_RECONCILED
360
E8609
  0
DICTIONARY
  5
E860A
330
E8125
100
AcDbDictionary
280
     1
281
     1
  3
ADSK_XREC_LAYER_RECONCILED
360
E860B
  0
DICTIONARY
  5
E860C
330
E8126
100
AcDbDictionary
280
     1
281
     1
  3
ADSK_XREC_LAYER_RECONCILED
360
E860D
  0
DICTIONARY
  5
E860E
330
E8127
100
AcDbDictionary
280
     1
281
     1
  3
ADSK_XREC_LAYER_RECONCILED
360
E860F
  0
DICTIONARY
  5
E8610
330
E8128
100
AcDbDictionary
280
     1
281
     1
  3
ADSK_XREC_LAYER_RECONCILED
360
E8611
  0
DICTIONARY
  5
E8612
330
E8129
100
AcDbDictionary
280
     1
281
     1
  3
ADSK_XREC_LAYER_RECONCILED
360
E8613
  0
DICTIONARY
  5
E8614
330
E812A
100
AcDbDictionary
280
     1
281
     1
  3
ADSK_XREC_LAYER_RECONCILED
360
E8615
  0
DICTIONARY
  5
E8616
330
E812B
100
AcDbDictionary
280
     1
281
     1
  3
ADSK_XREC_LAYER_RECONCILED
360
E8617
  0
DICTIONARY
  5
E8618
330
E812C
100
AcDbDictionary
280
     1
281
     1
  3
ADSK_XREC_LAYER_RECONCILED
360
E8619
  0
DICTIONARY
  5
E861A
330
E812D
100
AcDbDictionary
280
     1
281
     1
  3
ADSK_XREC_LAYER_RECONCILED
360
E861B
  0
DICTIONARY
  5
E861C
330
E812E
100
AcDbDictionary
280
     1
281
     1
  3
ADSK_XREC_LAYER_RECONCILED
360
E861D
  0
DICTIONARY
  5
E861E
330
E812F
100
AcDbDictionary
280
     1
281
     1
  3
ADSK_XREC_LAYER_RECONCILED
360
E861F
  0
DICTIONARY
  5
E8620
330
E8130
100
AcDbDictionary
280
     1
281
     1
  3
ADSK_XREC_LAYER_RECONCILED
360
E8621
  0
DICTIONARY
  5
E8622
330
E8131
100
AcDbDictionary
280
     1
281
     1
  3
ADSK_XREC_LAYER_RECONCILED
360
E8623
  0
DICTIONARY
  5
E8100
330
E80FF
100
AcDbDictionary
280
     1
281
     1
  3
ACAD_SORTENTS
360
E8101
  0
DICTIONARY
  5
E862B
102
{ACAD_REACTORS
330
C
102
}
330
C
100
AcDbDictionary
281
     1
  3
DIMJOGANG
350
E862C
  0
XRECORD
  5
E85D5
102
{ACAD_REACTORS
330
C
102
}
330
C
100
AcDbXrecord
280
     1
300
AMECH_PP
300
2013
300
PDSU_F_S
  0
DICTIONARY
  5
387
102
{ACAD_REACTORS
330
C
102
}
330
C
100
AcDbDictionary
281
     1
  0
DICTIONARY
  5
E85D2
102
{ACAD_REACTORS
330
C
102
}
330
C
100
AcDbDictionary
281
     1
  3
Metric50
350
E85D3
  0
DICTIONARY
  5
D
102
{ACAD_REACTORS
330
C
102
}
330
C
100
AcDbDictionary
281
     1
  0
DICTIONARY
  5
301
102
{ACAD_REACTORS
330
C
102
}
330
C
100
AcDbDictionary
281
     1
  3
Layout1
350
33B
  3
Model
350
303
  0
DICTIONARY
  5
386
102
{ACAD_REACTORS
330
C
102
}
330
C
100
AcDbDictionary
281
     1
  3
ByBlock
350
3F0
  3
ByLayer
350
3EF
  3
Global
350
3F1
  0
DICTIONARY
  5
43C
102
{ACAD_REACTORS
330
C
102
}
330
C
100
AcDbDictionary
281
     1
  3
Standard
350
43D
  0
DICTIONARY
  5
E
102
{ACAD_REACTORS
330
C
102
}
330
C
100
AcDbDictionary
281
     1
  3
STANDARD
350
1B
  0
DICTIONARY
  5
302
102
{ACAD_REACTORS
330
C
102
}
330
C
100
AcDbDictionary
281
     1
  0
ACDBDICTIONARYWDFLT
  5
2FF
102
{ACAD_REACTORS
330
C
102
}
330
C
100
AcDbDictionary
281
     1
  3
Normal
350
300
100
AcDbDictionaryWithDefault
340
300
  0
DICTIONARY
  5
41A
102
{ACAD_REACTORS
330
C
102
}
330
C
100
AcDbDictionary
281
     1
  3
A0
350
41B
  3
A1
350
41C
  3
A2
350
41D
  3
A3
350
41E
  3
A4
350
41F
  3
A5
350
420
  3
A6
350
421
  3
A7
350
422
  3
A8
350
423
  3
A9
350
424
  3
B0
350
425
  3
B1
350
426
  3
B2
350
427
  3
B3
350
428
  3
B4
350
429
  3
B5
350
42A
  3
B6
350
42B
  3
B7
350
42C
  3
B8
350
42D
  3
B9
350
42E
  3
C0
350
42F
  3
C1
350
430
  3
C2
350
431
  3
C3
350
432
  3
C4
350
433
  3
C5
350
434
  3
C6
350
435
  3
C7
350
436
  3
C8
350
437
  3
C9
350
438
  3
D0
350
439
  3
D1
350
43A
  3
D2
350
43B
  0
DICTIONARY
  5
E85D0
102
{ACAD_REACTORS
330
C
102
}
330
C
100
AcDbDictionary
281
     1
  3
Metric50
350
E85D1
  0
DICTIONARY
  5
388
102
{ACAD_REACTORS
330
C
102
}
330
C
100
AcDbDictionary
281
     1
  3
Standard
350
389
  0
DICTIONARY
  5
3F2
102
{ACAD_REACTORS
330
C
102
}
330
C
100
AcDbDictionary
281
     1
  3
2dWireframe
350
3F8
  3
3D Hidden
350
3FA
  3
3dWireframe
350
3F9
  3
Basic
350
3F7
  3
Brighten
350
3FE
  3
ColorChange
350
402
  3
Conceptual
350
3FB
  3
Dim
350
3FD
  3
EdgeColorOff
350
44E
  3
Facepattern
350
401
  3
Flat
350
3F3
  3
FlatWithEdges
350
3F4
  3
Gouraud
350
3F5
  3
GouraudWithEdges
350
3F6
  3
Hidden
350
E85CA
  3
JitterOff
350
44C
  3
Linepattern
350
400
  3
OverhangOff
350
44D
  3
Realistic
350
3FC
  3
Shaded
350
E85CF
  3
Shaded with edges
350
E85CE
  3
Shades of Gray
350
E85CB
  3
Sketchy
350
E85CC
  3
Thicken
350
3FF
  3
Wireframe
350
E85C9
  3
X-Ray
350
E85CD
  0
XRECORD
  5
E8629
102
{ACAD_REACTORS
330
C
102
}
330
C
100
AcDbXrecord
280
     1
 90
        1
330
389
  0
DICTIONARY
  5
357
102
{ACAD_REACTORS
330
C
102
}
330
C
100
AcDbDictionary
281
     1
  3
CANNOSCALE
350
449
  3
CMLEADERSTYLE
350
447
  3
CTABLESTYLE
350
38E
  3
CVIEWDETAILSTYLE
350
E8624
  3
CVIEWSECTIONSTYLE
350
E8625
  3
DIMASSOC
350
359
  3
HIDETEXT
350
358
  3
INDEXCTL
350
1260
  3
LAYEREVAL
350
458
  3
LAYERNOTIFY
350
459
  3
LIGHTINGUNITS
350
44A
  3
MSLTSCALE
350
448
  3
SORTENTS
350
125F
  3
XCLIPFRAME
350
E8626
  0
XRECORD
  5
E862A
102
{ACAD_REACTORS
330
C
102
}
330
C
100
AcDbXrecord
280
     1
  1
DWGPROPS COOKIE
  2

  3

  4

  6

  7

  8
Micke
  9

300
=
301
=
302
=
303
=
304
=
305
=
306
=
307
=
308
=
309
=
 40
0.0035590625
 41
2455883.652280521
 42
2456818.430449664
  1

 90
        0
  0
XRECORD
  5
E85D9
102
{ACAD_REACTORS
330
E85D8
102
}
330
E85D8
100
AcDbXrecord
280
     1
290
     1
  0
XRECORD
  5
E85DB
102
{ACAD_REACTORS
330
E85DA
102
}
330
E85DA
100
AcDbXrecord
280
     1
290
     1
  0
XRECORD
  5
E85DD
102
{ACAD_REACTORS
330
E85DC
102
}
330
E85DC
100
AcDbXrecord
280
     1
290
     1
  0
XRECORD
  5
E85DF
102
{ACAD_REACTORS
330
E85DE
102
}
330
E85DE
100
AcDbXrecord
280
     1
290
     1
  0
XRECORD
  5
E85E1
102
{ACAD_REACTORS
330
E85E0
102
}
330
E85E0
100
AcDbXrecord
280
     1
290
     1
  0
XRECORD
  5
E85E3
102
{ACAD_REACTORS
330
E85E2
102
}
330
E85E2
100
AcDbXrecord
280
     1
290
     1
  0
XRECORD
  5
E85E5
102
{ACAD_REACTORS
330
E85E4
102
}
330
E85E4
100
AcDbXrecord
280
     1
290
     1
  0
XRECORD
  5
E85E7
102
{ACAD_REACTORS
330
E85E6
102
}
330
E85E6
100
AcDbXrecord
280
     1
290
     1
  0
XRECORD
  5
E85E9
102
{ACAD_REACTORS
330
E85E8
102
}
330
E85E8
100
AcDbXrecord
280
     1
290
     1
  0
XRECORD
  5
E85EB
102
{ACAD_REACTORS
330
E85EA
102
}
330
E85EA
100
AcDbXrecord
280
     1
290
     1
  0
XRECORD
  5
E85ED
102
{ACAD_REACTORS
330
E85EC
102
}
330
E85EC
100
AcDbXrecord
280
     1
290
     1
  0
XRECORD
  5
E85EF
102
{ACAD_REACTORS
330
E85EE
102
}
330
E85EE
100
AcDbXrecord
280
     1
290
     1
  0
XRECORD
  5
E85F1
102
{ACAD_REACTORS
330
E85F0
102
}
330
E85F0
100
AcDbXrecord
280
     1
290
     1
  0
XRECORD
  5
E85F3
102
{ACAD_REACTORS
330
E85F2
102
}
330
E85F2
100
AcDbXrecord
280
     1
290
     1
  0
XRECORD
  5
E85F5
102
{ACAD_REACTORS
330
E85F4
102
}
330
E85F4
100
AcDbXrecord
280
     1
290
     1
  0
XRECORD
  5
E85F7
102
{ACAD_REACTORS
330
E85F6
102
}
330
E85F6
100
AcDbXrecord
280
     1
290
     1
  0
XRECORD
  5
E85F9
102
{ACAD_REACTORS
330
E85F8
102
}
330
E85F8
100
AcDbXrecord
280
     1
290
     1
  0
XRECORD
  5
E85FB
102
{ACAD_REACTORS
330
E85FA
102
}
330
E85FA
100
AcDbXrecord
280
     1
290
     1
  0
XRECORD
  5
E85FD
102
{ACAD_REACTORS
330
E85FC
102
}
330
E85FC
100
AcDbXrecord
280
     1
290
     1
  0
XRECORD
  5
E85FF
102
{ACAD_REACTORS
330
E85FE
102
}
330
E85FE
100
AcDbXrecord
280
     1
290
     1
  0
XRECORD
  5
E8601
102
{ACAD_REACTORS
330
E8600
102
}
330
E8600
100
AcDbXrecord
280
     1
290
     1
  0
XRECORD
  5
E8603
102
{ACAD_REACTORS
330
E8602
102
}
330
E8602
100
AcDbXrecord
280
     1
290
     1
  0
XRECORD
  5
E8605
102
{ACAD_REACTORS
330
E8604
102
}
330
E8604
100
AcDbXrecord
280
     1
290
     1
  0
XRECORD
  5
E8607
102
{ACAD_REACTORS
330
E8606
102
}
330
E8606
100
AcDbXrecord
280
     1
290
     1
  0
XRECORD
  5
E8609
102
{ACAD_REACTORS
330
E8608
102
}
330
E8608
100
AcDbXrecord
280
     1
290
     1
  0
XRECORD
  5
E860B
102
{ACAD_REACTORS
330
E860A
102
}
330
E860A
100
AcDbXrecord
280
     1
290
     1
  0
XRECORD
  5
E860D
102
{ACAD_REACTORS
330
E860C
102
}
330
E860C
100
AcDbXrecord
280
     1
290
     1
  0
XRECORD
  5
E860F
102
{ACAD_REACTORS
330
E860E
102
}
330
E860E
100
AcDbXrecord
280
     1
290
     1
  0
XRECORD
  5
E8611
102
{ACAD_REACTORS
330
E8610
102
}
330
E8610
100
AcDbXrecord
280
     1
290
     1
  0
XRECORD
  5
E8613
102
{ACAD_REACTORS
330
E8612
102
}
330
E8612
100
AcDbXrecord
280
     1
290
     1
  0
XRECORD
  5
E8615
102
{ACAD_REACTORS
330
E8614
102
}
330
E8614
100
AcDbXrecord
280
     1
290
     1
  0
XRECORD
  5
E8617
102
{ACAD_REACTORS
330
E8616
102
}
330
E8616
100
AcDbXrecord
280
     1
290
     1
  0
XRECORD
  5
E8619
102
{ACAD_REACTORS
330
E8618
102
}
330
E8618
100
AcDbXrecord
280
     1
290
     1
  0
XRECORD
  5
E861B
102
{ACAD_REACTORS
330
E861A
102
}
330
E861A
100
AcDbXrecord
280
     1
290
     1
  0
XRECORD
  5
E861D
102
{ACAD_REACTORS
330
E861C
102
}
330
E861C
100
AcDbXrecord
280
     1
290
     1
  0
XRECORD
  5
E861F
102
{ACAD_REACTORS
330
E861E
102
}
330
E861E
100
AcDbXrecord
280
     1
290
     1
  0
XRECORD
  5
E8621
102
{ACAD_REACTORS
330
E8620
102
}
330
E8620
100
AcDbXrecord
280
     1
290
     1
  0
XRECORD
  5
E8623
102
{ACAD_REACTORS
330
E8622
102
}
330
E8622
100
AcDbXrecord
280
     1
290
     1
  0
SORTENTSTABLE
  5
E8101
102
{ACAD_REACTORS
330
E8100
102
}
330
E8100
100
AcDbSortentsTable
330
E80FF
  0
XRECORD
  5
E862C
102
{ACAD_REACTORS
330
E862B
102
}
330
E862B
100
AcDbXrecord
280
     1
 40
1.570796326794896
  0
ACDBDETAILVIEWSTYLE
  5
E85D3
102
{ACAD_REACTORS
330
E85D2
102
}
330
E85D2
100
AcDbModelDocViewStyle
 70
     0
  3
Metric50
290
     0
100
AcDbDetailViewStyle
 70
     0
 71
     0
 90
        3
 71
     1
340
10
 40
5.0
340
0
 40
5.0
300

 40
0.0
280
     1
 71
     2
340
14
 90
       25
 71
     3
340
10
 40
5.0
 90
        0
 40
15.0
 90
        1
300
%<\AcVar ViewDetailId>% (%<\AcVar ViewScale \f "%sn">%)
 71
     4
340
14
 90
       25
340
14
 90
       25
280
     0
  0
LAYOUT
  5
33B
102
{ACAD_XDICTIONARY
360
E862F
102
}
102
{ACAD_REACTORS
330
301
102
}
330
301
100
AcDbPlotSettings
  1

  2
Lexmark Optra PS2
  4

  6

 40
0.0
 41
0.0
 42
0.0
 43
0.0
 44
0.0
 45
0.0
 46
0.0
 47
0.0
 48
0.0
 49
0.0
140
0.0
141
0.0
142
1.0
143
1.0
 70
   688
 72
     0
 73
     0
 74
     5
  7
monochrome.ctb
 75
    16
147
1.0
148
0.0
149
0.0
100
AcDbLayout
  1
Layout1
 70
     1
 71
     1
 10
0.0
 20
0.0
 11
12.0
 21
9.0
 12
0.0
 22
0.0
 32
0.0
 14
0.0
 24
0.0
 34
0.0
 15
0.0
 25
0.0
 35
0.0
146
0.0
 13
0.0
 23
0.0
 33
0.0
 16
1.0
 26
0.0
 36
0.0
 17
0.0
 27
1.0
 37
0.0
 76
     0
330
338
  0
LAYOUT
  5
303
102
{ACAD_XDICTIONARY
360
E862D
102
}
102
{ACAD_REACTORS
330
301
102
}
330
301
100
AcDbPlotSettings
  1

  2
Default Windows System Printer.pc3
  4
A4
  6

 40
6.805083274841307
 41
5.535083293914794
 42
6.974411010742187
 43
7.14373779296875
 44
209.9733276367186
 45
296.9259948730469
 46
67.83299579489725
 47
0.0
 48
0.0
 49
0.0
140
0.0
141
0.0
142
1.0
143
0.3604333568168785
 70
  3764
 72
     1
 73
     1
 74
     1
  7
monochrome.ctb
 75
     0
147
2.774437995504559
148
-82.35087775247029
149
-53.69369632994493
100
AcDbLayout
  1
Model
 70
     1
 71
     0
 10
0.0
 20
0.0
 11
12.0
 21
9.0
 12
0.0
 22
0.0
 32
0.0
 14
0.0
 24
0.0
 34
0.0
 15
0.0
 25
0.0
 35
0.0
146
0.0
 13
0.0
 23
0.0
 33
0.0
 16
1.0
 26
0.0
 36
0.0
 17
0.0
 27
1.0
 37
0.0
 76
     0
330
18
331
3ED
1001
ACAD_PSEXT
1000
Default Windows System Printer.pc3
1000
Lexmark Optra Rx
1000
Lexmark Rx
1000
Erstellt von Lexmark Benutzerdefinierte Installation,Nov 13,2005,10:03
1070
     0
  0
MATERIAL
  5
3F0
102
{ACAD_XDICTIONARY
360
E859B
102
}
102
{ACAD_REACTORS
330
386
102
}
330
386
100
AcDbMaterial
  1
ByBlock
 73
     1
 78
     1
172
     1
176
     1
270
     1
274
     1
  0
MATERIAL
  5
3EF
102
{ACAD_XDICTIONARY
360
E8599
102
}
102
{ACAD_REACTORS
330
386
102
}
330
386
100
AcDbMaterial
  1
ByLayer
 73
     1
 78
     1
172
     1
176
     1
270
     1
274
     1
  0
MATERIAL
  5
3F1
102
{ACAD_XDICTIONARY
360
E859D
102
}
102
{ACAD_REACTORS
330
386
102
}
330
386
100
AcDbMaterial
  1
Global
 73
     1
 78
     1
172
     1
176
     1
270
     1
274
     1
  0
MLEADERSTYLE
  5
43D
102
{ACAD_REACTORS
330
43C
102
}
330
43C
100
AcDbMLeaderStyle
170
     2
171
     1
172
     0
 90
        2
 40
0.0
 41
0.0
173
     1
 91
-1056964608
340
12
 92
       -2
290
     1
 42
2.0
291
     1
 43
0.36
  3
Standard
 44
4.0
300

342
10
174
     1
178
     6
175
     1
176
     0
 93
-1056964608
 45
4.0
292
     0
297
     0
 46
4.0
 94
-1056964608
 47
1.0
 49
1.0
140
1.0
293
     1
141
0.0
294
     1
177
     0
142
1.0
295
     0
296
     0
143
0.125
1001
ACAD_MLEADERVER
1070
     2
  0
MLINESTYLE
  5
1B
102
{ACAD_REACTORS
330
E
102
}
330
E
100
AcDbMlineStyle
  2
STANDARD
 70
     0
  3

 62
     0
 51
90.0
 52
90.0
 71
     2
 49
0.5
 62
   256
  6
BYLAYER
 49
-0.5
 62
   256
  6
BYLAYER
  0
ACDBPLACEHOLDER
  5
300
102
{ACAD_REACTORS
330
2FF
102
}
330
2FF
  0
SCALE
  5
41B
102
{ACAD_REACTORS
330
41A
102
}
330
41A
100
AcDbScale
 70
     0
300
1:1
140
1.0
141
1.0
290
     1
  0
SCALE
  5
41C
102
{ACAD_REACTORS
330
41A
102
}
330
41A
100
AcDbScale
 70
     0
300
1:2
140
1.0
141
2.0
290
     0
  0
SCALE
  5
41D
102
{ACAD_REACTORS
330
41A
102
}
330
41A
100
AcDbScale
 70
     0
300
1:4
140
1.0
141
4.0
290
     0
  0
SCALE
  5
41E
102
{ACAD_REACTORS
330
41A
102
}
330
41A
100
AcDbScale
 70
     0
300
1:5
140
1.0
141
5.0
290
     0
  0
SCALE
  5
41F
102
{ACAD_REACTORS
330
41A
102
}
330
41A
100
AcDbScale
 70
     0
300
1:8
140
1.0
141
8.0
290
     0
  0
SCALE
  5
420
102
{ACAD_REACTORS
330
41A
102
}
330
41A
100
AcDbScale
 70
     0
300
1:10
140
1.0
141
10.0
290
     0
  0
SCALE
  5
421
102
{ACAD_REACTORS
330
41A
102
}
330
41A
100
AcDbScale
 70
     0
300
1:16
140
1.0
141
16.0
290
     0
  0
SCALE
  5
422
102
{ACAD_REACTORS
330
41A
102
}
330
41A
100
AcDbScale
 70
     0
300
1:20
140
1.0
141
20.0
290
     0
  0
SCALE
  5
423
102
{ACAD_REACTORS
330
41A
102
}
330
41A
100
AcDbScale
 70
     0
300
1:30
140
1.0
141
30.0
290
     0
  0
SCALE
  5
424
102
{ACAD_REACTORS
330
41A
102
}
330
41A
100
AcDbScale
 70
     0
300
1:40
140
1.0
141
40.0
290
     0
  0
SCALE
  5
425
102
{ACAD_REACTORS
330
41A
102
}
330
41A
100
AcDbScale
 70
     0
300
1:50
140
1.0
141
50.0
290
     0
  0
SCALE
  5
426
102
{ACAD_REACTORS
330
41A
102
}
330
41A
100
AcDbScale
 70
     0
300
1:100
140
1.0
141
100.0
290
     0
  0
SCALE
  5
427
102
{ACAD_REACTORS
330
41A
102
}
330
41A
100
AcDbScale
 70
     0
300
2:1
140
2.0
141
1.0
290
     0
  0
SCALE
  5
428
102
{ACAD_REACTORS
330
41A
102
}
330
41A
100
AcDbScale
 70
     0
300
4:1
140
4.0
141
1.0
290
     0
  0
SCALE
  5
429
102
{ACAD_REACTORS
330
41A
102
}
330
41A
100
AcDbScale
 70
     0
300
8:1
140
8.0
141
1.0
290
     0
  0
SCALE
  5
42A
102
{ACAD_REACTORS
330
41A
102
}
330
41A
100
AcDbScale
 70
     0
300
10:1
140
10.0
141
1.0
290
     0
  0
SCALE
  5
42B
102
{ACAD_REACTORS
330
41A
102
}
330
41A
100
AcDbScale
 70
     0
300
100:1
140
100.0
141
1.0
290
     0
  0
SCALE
  5
42C
102
{ACAD_REACTORS
330
41A
102
}
330
41A
100
AcDbScale
 70
     0
300
1/128" = 1'-0"
140
0.0078125
141
12.0
290
     0
  0
SCALE
  5
42D
102
{ACAD_REACTORS
330
41A
102
}
330
41A
100
AcDbScale
 70
     0
300
1/64" = 1'-0"
140
0.015625
141
12.0
290
     0
  0
SCALE
  5
42E
102
{ACAD_REACTORS
330
41A
102
}
330
41A
100
AcDbScale
 70
     0
300
1/32" = 1'-0"
140
0.03125
141
12.0
290
     0
  0
SCALE
  5
42F
102
{ACAD_REACTORS
330
41A
102
}
330
41A
100
AcDbScale
 70
     0
300
1/16" = 1'-0"
140
0.0625
141
12.0
290
     0
  0
SCALE
  5
430
102
{ACAD_REACTORS
330
41A
102
}
330
41A
100
AcDbScale
 70
     0
300
3/32" = 1'-0"
140
0.09375
141
12.0
290
     0
  0
SCALE
  5
431
102
{ACAD_REACTORS
330
41A
102
}
330
41A
100
AcDbScale
 70
     0
300
1/8" = 1'-0"
140
0.125
141
12.0
290
     0
  0
SCALE
  5
432
102
{ACAD_REACTORS
330
41A
102
}
330
41A
100
AcDbScale
 70
     0
300
3/16" = 1'-0"
140
0.1875
141
12.0
290
     0
  0
SCALE
  5
433
102
{ACAD_REACTORS
330
41A
102
}
330
41A
100
AcDbScale
 70
     0
300
1/4" = 1'-0"
140
0.25
141
12.0
290
     0
  0
SCALE
  5
434
102
{ACAD_REACTORS
330
41A
102
}
330
41A
100
AcDbScale
 70
     0
300
3/8" = 1'-0"
140
0.375
141
12.0
290
     0
  0
SCALE
  5
435
102
{ACAD_REACTORS
330
41A
102
}
330
41A
100
AcDbScale
 70
     0
300
1/2" = 1'-0"
140
0.5
141
12.0
290
     0
  0
SCALE
  5
436
102
{ACAD_REACTORS
330
41A
102
}
330
41A
100
AcDbScale
 70
     0
300
3/4" = 1'-0"
140
0.75
141
12.0
290
     0
  0
SCALE
  5
437
102
{ACAD_REACTORS
330
41A
102
}
330
41A
100
AcDbScale
 70
     0
300
1" = 1'-0"
140
1.0
141
12.0
290
     0
  0
SCALE
  5
438
102
{ACAD_REACTORS
330
41A
102
}
330
41A
100
AcDbScale
 70
     0
300
1-1/2" = 1'-0"
140
1.5
141
12.0
290
     0
  0
SCALE
  5
439
102
{ACAD_REACTORS
330
41A
102
}
330
41A
100
AcDbScale
 70
     0
300
3" = 1'-0"
140
3.0
141
12.0
290
     0
  0
SCALE
  5
43A
102
{ACAD_REACTORS
330
41A
102
}
330
41A
100
AcDbScale
 70
     0
300
6" = 1'-0"
140
6.0
141
12.0
290
     0
  0
SCALE
  5
43B
102
{ACAD_REACTORS
330
41A
102
}
330
41A
100
AcDbScale
 70
     0
300
1'-0" = 1'-0"
140
12.0
141
12.0
290
     0
  0
ACDBSECTIONVIEWSTYLE
  5
E85D1
102
{ACAD_REACTORS
330
E85D0
102
}
330
E85D0
100
AcDbModelDocViewStyle
 70
     0
  3
Metric50
290
     0
100
AcDbSectionViewStyle
 70
     0
 71
     0
 90
      102
 71
     1
340
10
 40
5.0
340
0
340
0
 40
5.0
300
I, O, Q, S, X, Z
 40
10.0
 90
        0
 40
2.5
 90
        0
 71
     2
340
14
 90
       25
340
14
 90
       50
 40
5.0
 40
2.5
 40
5.0
 71
     3
340
10
 40
5.0
 90
        0
 40
15.0
 90
        1
300
%<\AcVar ViewSectionStartId>%-%<\AcVar ViewSectionEndId>% (%<\AcVar ViewScale \f "%sn">%)
 71
     4
300
ANSI31
 40
1.0
 90
        0
290
     0
290
     0
 90
        6
 40
0.0
 40
1.570796326794896
 40
0.2617993877991494
 40
1.308996938995747
 40
-0.2617993877991494
 40
1.832595714594046
  0
TABLESTYLE
  5
389
102
{ACAD_XDICTIONARY
360
444
102
}
102
{ACAD_REACTORS
330
388
102
}
330
388
100
AcDbTableStyle
  3
Standard
 70
     0
 71
     0
 40
1.5
 41
1.5
280
     0
281
     0
  7
STANDARD
140
4.5
170
     2
 62
     0
 63
     7
283
     0
274
    -2
284
     1
 64
     0
275
    -2
285
     1
 65
     0
276
    -2
286
     1
 66
     0
277
    -2
287
     1
 67
     0
278
    -2
288
     1
 68
     0
279
    -2
289
     1
 69
     0
  7
STANDARD
140
6.0
170
     5
 62
     0
 63
     7
283
     0
274
    -2
284
     1
 64
     0
275
    -2
285
     1
 65
     0
276
    -2
286
     1
 66
     0
277
    -2
287
     1
 67
     0
278
    -2
288
     1
 68
     0
279
    -2
289
     1
 69
     0
  7
STANDARD
140
4.5
170
     5
 62
     0
 63
     7
283
     0
274
    -2
284
     1
 64
     0
275
    -2
285
     1
 65
     0
276
    -2
286
     1
 66
     0
277
    -2
287
     1
 67
     0
278
    -2
288
     1
 68
     0
279
    -2
289
     1
 69
     0
  0
VISUALSTYLE
  5
3F8
102
{ACAD_XDICTIONARY
360
E863C
102
}
102
{ACAD_REACTORS
330
3F2
102
}
330
3F2
100
AcDbVisualStyle
  2

 70
     4
 71
     0
 72
     2
 73
     0
 90
        0
 40
-0.6
 41
-30.0
 62
     5
 63
     7
 74
     1
 91
        4
 64
     7
 65
   257
 75
     1
175
     1
 42
1.0
 92
        0
 66
   257
 43
1.0
 76
     1
 77
     6
 78
     2
 67
     7
 79
     5
170
     0
171
     0
290
     0
174
     0
 93
        1
 44
0.0
173
     0
291
     0
 45
0.0
1001
ACAD
1000
AcDbSavedByObjectVersion
1070
     0
  0
VISUALSTYLE
  5
3FA
102
{ACAD_XDICTIONARY
360
E8640
102
}
102
{ACAD_REACTORS
330
3F2
102
}
330
3F2
100
AcDbVisualStyle
  2

 70
     6
 71
     1
 72
     2
 73
     2
 90
        0
 40
-0.6
 41
-30.0
 62
     5
 63
     7
 74
     2
 91
        2
 64
     7
 65
   257
 75
     2
175
     1
 42
40.0
 92
        0
 66
   257
 43
1.0
 76
     1
 77
     6
 78
     2
 67
     7
 79
     3
170
     0
171
     0
290
     0
174
     0
 93
        1
 44
0.0
173
     0
291
     0
 45
0.0
1001
ACAD
1000
AcDbSavedByObjectVersion
1070
     0
  0
VISUALSTYLE
  5
3F9
102
{ACAD_XDICTIONARY
360
E863E
102
}
102
{ACAD_REACTORS
330
3F2
102
}
330
3F2
100
AcDbVisualStyle
  2

 70
     5
 71
     0
 72
     2
 73
     0
 90
        0
 40
-0.6
 41
-30.0
 62
     5
 63
     7
 74
     1
 91
        4
 64
     7
 65
   257
 75
     1
175
     1
 42
1.0
 92
        0
 66
   257
 43
1.0
 76
     1
 77
     6
 78
     2
 67
     7
 79
     5
170
     0
171
     0
290
     0
174
     0
 93
        1
 44
0.0
173
     0
291
     0
 45
0.0
1001
ACAD
1000
AcDbSavedByObjectVersion
1070
     0
  0
VISUALSTYLE
  5
3F7
102
{ACAD_XDICTIONARY
360
E863A
102
}
102
{ACAD_REACTORS
330
3F2
102
}
330
3F2
100
AcDbVisualStyle
  2

 70
     7
 71
     1
 72
     0
 73
     1
 90
        0
 40
-0.6
 41
-30.0
 62
     5
 63
     7
 74
     0
 91
        4
 64
     7
 65
   257
 75
     1
175
     1
 42
1.0
 92
        8
 66
     7
 43
1.0
 76
     1
 77
     6
 78
     2
 67
     7
 79
     5
170
     0
171
     0
290
     0
174
     0
 93
        1
 44
0.0
173
     0
291
     1
 45
0.0
1001
ACAD
1000
AcDbSavedByObjectVersion
1070
     0
  0
VISUALSTYLE
  5
3FE
102
{ACAD_XDICTIONARY
360
E8648
102
}
102
{ACAD_REACTORS
330
3F2
102
}
330
3F2
100
AcDbVisualStyle
  2

 70
    12
 71
     2
 72
     2
 73
     0
 90
        0
 40
-0.6
 41
-30.0
 62
     5
 63
     7
 74
     1
 91
        4
 64
     7
 65
   257
 75
     1
175
     1
 42
1.0
 92
        8
 66
     7
 43
1.0
 76
     1
 77
     6
 78
     2
 67
     7
 79
     5
170
     0
171
     0
290
     0
174
     0
 93
        1
 44
50.0
173
     0
291
     1
 45
0.0
1001
ACAD
1000
AcDbSavedByObjectVersion
1070
     0
  0
VISUALSTYLE
  5
402
102
{ACAD_XDICTIONARY
360
E8650
102
}
102
{ACAD_REACTORS
330
3F2
102
}
330
3F2
100
AcDbVisualStyle
  2

 70
    16
 71
     2
 72
     2
 73
     3
 90
        0
 40
-0.6
 41
-30.0
 62
     5
 63
     8
 74
     1
 91
        4
 64
     7
 65
   257
 75
     1
175
     1
 42
1.0
 92
        8
 66
     8
 43
1.0
 76
     1
 77
     6
 78
     2
 67
     7
 79
     5
170
     0
171
     0
290
     0
174
     0
 93
        1
 44
0.0
173
     0
291
     1
 45
0.0
1001
ACAD
1000
AcDbSavedByObjectVersion
1070
     0
  0
VISUALSTYLE
  5
3FB
102
{ACAD_XDICTIONARY
360
E8642
102
}
102
{ACAD_REACTORS
330
3F2
102
}
330
3F2
100
AcDbVisualStyle
  2

 70
     9
 71
     3
 72
     2
 73
     0
 90
        0
 40
-0.6
 41
-30.0
 62
     5
 63
     7
 74
     2
 91
        2
 64
     7
 65
   257
 75
     1
175
     1
 42
40.0
 92
        8
 66
     7
 43
1.0
 76
     1
 77
     6
 78
     2
 67
     7
 79
     3
170
     0
171
     0
290
     0
174
     0
 93
        1
 44
0.0
173
     0
291
     0
 45
0.0
1001
ACAD
1000
AcDbSavedByObjectVersion
1070
     0
  0
VISUALSTYLE
  5
3FD
102
{ACAD_XDICTIONARY
360
E8646
102
}
102
{ACAD_REACTORS
330
3F2
102
}
330
3F2
100
AcDbVisualStyle
  2

 70
    11
 71
     2
 72
     2
 73
     0
 90
        0
 40
-0.6
 41
-30.0
 62
     5
 63
     7
 74
     1
 91
        4
 64
     7
 65
   257
 75
     1
175
     1
 42
1.0
 92
        8
 66
     7
 43
1.0
 76
     1
 77
     6
 78
     2
 67
     7
 79
     5
170
     0
171
     0
290
     0
174
     0
 93
        1
 44
-50.0
173
     0
291
     1
 45
0.0
1001
ACAD
1000
AcDbSavedByObjectVersion
1070
     0
  0
VISUALSTYLE
  5
44E
102
{ACAD_XDICTIONARY
360
E8656
102
}
102
{ACAD_REACTORS
330
3F2
102
}
330
3F2
100
AcDbVisualStyle
  2

 70
    22
 71
     2
 72
     2
 73
     0
 90
        0
 40
-0.6
 41
-30.0
 62
     5
 63
     7
 74
     1
 91
        4
 64
     7
 65
   257
 75
     1
175
     1
 42
1.0
 92
        8
 66
     7
 43
1.0
 76
     1
 77
     6
 78
     2
 67
     7
 79
     5
170
     0
171
     0
290
     0
174
     0
 93
        1
 44
0.0
173
     0
291
     1
 45
0.0
1001
ACAD
1000
AcDbSavedByObjectVersion
1070
     0
  0
VISUALSTYLE
  5
401
102
{ACAD_XDICTIONARY
360
E864E
102
}
102
{ACAD_REACTORS
330
3F2
102
}
330
3F2
100
AcDbVisualStyle
  2

 70
    15
 71
     2
 72
     2
 73
     0
 90
        0
 40
-0.6
 41
-30.0
 62
     5
 63
     7
 74
     1
 91
        4
 64
     7
 65
   257
 75
     1
175
     1
 42
1.0
 92
        8
 66
     7
 43
1.0
 76
     1
 77
     6
 78
     2
 67
     7
 79
     5
170
     0
171
     0
290
     0
174
     0
 93
        1
 44
0.0
173
     0
291
     1
 45
0.0
1001
ACAD
1000
AcDbSavedByObjectVersion
1070
     0
  0
VISUALSTYLE
  5
3F3
102
{ACAD_XDICTIONARY
360
E8632
102
}
102
{ACAD_REACTORS
330
3F2
102
}
330
3F2
100
AcDbVisualStyle
  2

 70
     0
 71
     2
 72
     1
 73
     1
 90
        2
 40
-0.6
 41
30.0
 62
     5
 63
     7
 74
     0
 91
        4
 64
     7
 65
   257
 75
     1
175
     1
 42
1.0
 92
        8
 66
     7
 43
1.0
 76
     1
 77
     6
 78
     2
 67
     7
 79
     5
170
     0
171
     0
290
     0
174
     0
 93
       13
 44
0.0
173
     0
291
     1
 45
0.0
1001
ACAD
1000
AcDbSavedByObjectVersion
1070
     0
  0
VISUALSTYLE
  5
3F4
102
{ACAD_XDICTIONARY
360
E8634
102
}
102
{ACAD_REACTORS
330
3F2
102
}
330
3F2
100
AcDbVisualStyle
  2

 70
     1
 71
     2
 72
     1
 73
     1
 90
        2
 40
-0.6
 41
30.0
 62
     5
 63
     7
 74
     1
 91
        4
 64
     7
 65
   257
 75
     1
175
     1
 42
1.0
 92
        0
 66
   257
 43
1.0
 76
     1
 77
     6
 78
     2
 67
     7
 79
     5
170
     0
171
     0
290
     0
174
     0
 93
       13
 44
0.0
173
     0
291
     1
 45
0.0
1001
ACAD
1000
AcDbSavedByObjectVersion
1070
     0
  0
VISUALSTYLE
  5
3F5
102
{ACAD_XDICTIONARY
360
E8636
102
}
102
{ACAD_REACTORS
330
3F2
102
}
330
3F2
100
AcDbVisualStyle
  2

 70
     2
 71
     2
 72
     2
 73
     1
 90
        2
 40
-0.6
 41
30.0
 62
     5
 63
     7
 74
     0
 91
        4
 64
     7
 65
   257
 75
     1
175
     1
 42
1.0
 92
        0
 66
     7
 43
1.0
 76
     1
 77
     6
 78
     2
 67
     7
 79
     5
170
     0
171
     0
290
     0
174
     0
 93
       13
 44
0.0
173
     0
291
     1
 45
0.0
1001
ACAD
1000
AcDbSavedByObjectVersion
1070
     0
  0
VISUALSTYLE
  5
3F6
102
{ACAD_XDICTIONARY
360
E8638
102
}
102
{ACAD_REACTORS
330
3F2
102
}
330
3F2
100
AcDbVisualStyle
  2

 70
     3
 71
     2
 72
     2
 73
     1
 90
        2
 40
-0.6
 41
30.0
 62
     5
 63
     7
 74
     1
 91
        4
 64
     7
 65
   257
 75
     1
175
     1
 42
1.0
 92
        0
 66
   257
 43
1.0
 76
     1
 77
     6
 78
     2
 67
     7
 79
     5
170
     0
171
     0
290
     0
174
     0
 93
       13
 44
0.0
173
     0
291
     1
 45
0.0
1001
ACAD
1000
AcDbSavedByObjectVersion
1070
     0
  0
VISUALSTYLE
  5
E85CA
102
{ACAD_XDICTIONARY
360
E865B
102
}
102
{ACAD_REACTORS
330
3F2
102
}
330
3F2
100
AcDbVisualStyle
  2
Hidden
 70
     6
 71
     1
 72
     2
 73
     2
 90
        0
 40
-0.6
 41
-30.0
 62
     5
 63
     7
 74
     2
 91
        2
 64
     7
 65
   257
 75
     2
175
     1
 42
40.0
 92
        0
 66
   257
 43
1.0
 76
     1
 77
     6
 78
     2
 67
     7
 79
     3
170
     0
171
     0
290
     0
174
     0
 93
        1
 44
0.0
173
     0
291
     0
 45
0.0
1001
ACAD
1000
AcDbSavedByObjectVersion
1070
     0
  0
VISUALSTYLE
  5
44C
102
{ACAD_XDICTIONARY
360
E8652
102
}
102
{ACAD_REACTORS
330
3F2
102
}
330
3F2
100
AcDbVisualStyle
  2

 70
    20
 71
     2
 72
     2
 73
     0
 90
        0
 40
-0.6
 41
-30.0
 62
     5
 63
     7
 74
     1
 91
        4
 64
     7
 65
   257
 75
     1
175
     1
 42
1.0
 92
       10
 66
     7
 43
1.0
 76
     1
 77
     6
 78
     2
 67
     7
 79
     5
170
     0
171
     0
290
     0
174
     0
 93
        1
 44
0.0
173
     0
291
     1
 45
0.0
1001
ACAD
1000
AcDbSavedByObjectVersion
1070
     0
  0
VISUALSTYLE
  5
400
102
{ACAD_XDICTIONARY
360
E864C
102
}
102
{ACAD_REACTORS
330
3F2
102
}
330
3F2
100
AcDbVisualStyle
  2

 70
    14
 71
     2
 72
     2
 73
     0
 90
        0
 40
-0.6
 41
-30.0
 62
     5
 63
     7
 74
     1
 91
        4
 64
     7
 65
   257
 75
     7
175
     7
 42
1.0
 92
        8
 66
     7
 43
1.0
 76
     1
 77
     6
 78
     2
 67
     7
 79
     5
170
     0
171
     0
290
     0
174
     0
 93
        1
 44
0.0
173
     0
291
     1
 45
0.0
1001
ACAD
1000
AcDbSavedByObjectVersion
1070
     0
  0
VISUALSTYLE
  5
44D
102
{ACAD_XDICTIONARY
360
E8654
102
}
102
{ACAD_REACTORS
330
3F2
102
}
330
3F2
100
AcDbVisualStyle
  2

 70
    21
 71
     2
 72
     2
 73
     0
 90
        0
 40
-0.6
 41
-30.0
 62
     5
 63
     7
 74
     1
 91
        4
 64
     7
 65
   257
 75
     1
175
     1
 42
1.0
 92
        9
 66
     7
 43
1.0
 76
     1
 77
     6
 78
     2
 67
     7
 79
     5
170
     0
171
     0
290
     0
174
     0
 93
        1
 44
0.0
173
     0
291
     1
 45
0.0
1001
ACAD
1000
AcDbSavedByObjectVersion
1070
     0
  0
VISUALSTYLE
  5
3FC
102
{ACAD_XDICTIONARY
360
E8644
102
}
102
{ACAD_REACTORS
330
3F2
102
}
330
3F2
100
AcDbVisualStyle
  2

 70
     8
 71
     2
 72
     2
 73
     0
 90
        0
 40
-0.6
 41
-30.0
 62
     5
 63
     7
 74
     1
 91
        0
 64
     7
 65
   257
 75
     1
175
     1
 42
1.0
 92
        8
 66
     8
 43
1.0
 76
     1
 77
     6
 78
     2
 67
     7
 79
     5
170
     0
171
     0
290
     0
174
     0
 93
       13
 44
0.0
173
     0
291
     0
 45
0.0
1001
ACAD
1000
AcDbSavedByObjectVersion
1070
     0
  0
VISUALSTYLE
  5
E85CF
102
{ACAD_XDICTIONARY
360
E8665
102
}
102
{ACAD_REACTORS
330
3F2
102
}
330
3F2
100
AcDbVisualStyle
  2
Shaded
 70
    27
 71
     2
 72
     2
 73
     1
 90
        2
 40
-0.6
 41
30.0
 62
     5
 63
     7
 74
     0
 91
        4
 64
     7
 65
   257
 75
     1
175
     1
 42
1.0
 92
        8
 66
   257
 43
1.0
 76
     1
 77
     6
 78
     2
 67
     8
 79
     3
170
     0
171
     0
290
     0
174
     0
 93
        5
 44
0.0
173
     0
291
     0
 45
0.0
1001
ACAD
1000
AcDbSavedByObjectVersion
1070
     0
  0
VISUALSTYLE
  5
E85CE
102
{ACAD_XDICTIONARY
360
E8663
102
}
102
{ACAD_REACTORS
330
3F2
102
}
330
3F2
100
AcDbVisualStyle
  2
Shaded with edges
 70
    26
 71
     2
 72
     2
 73
     1
 90
        2
 40
-0.6
 41
30.0
 62
     5
 63
     7
 74
     1
 91
       10
 64
     7
 65
   257
 75
     2
175
     1
 42
1.0
 92
        8
 66
   257
 43
1.0
 76
     1
 77
     6
 78
     2
 67
     7
 79
     3
170
     0
171
     0
290
     0
174
     0
 93
        5
 44
0.0
173
     0
291
     0
 45
0.0
1001
ACAD
1000
AcDbSavedByObjectVersion
1070
     0
  0
VISUALSTYLE
  5
E85CB
102
{ACAD_XDICTIONARY
360
E865D
102
}
102
{ACAD_REACTORS
330
3F2
102
}
330
3F2
100
AcDbVisualStyle
  2
Shades of Gray
 70
    23
 71
     2
 72
     2
 73
     3
 90
        0
 40
-0.6
 41
-30.0
 62
     5
 63
     7
 74
     2
 91
        2
 64
     7
 65
     7
 75
     1
175
     1
 42
40.0
 92
        8
 66
     7
 43
1.0
 76
     1
 77
     6
 78
     2
 67
     7
 79
     3
170
     0
171
     0
290
     0
174
     0
 93
        1
 44
0.0
173
     0
291
     0
 45
0.0
1001
ACAD
1000
AcDbSavedByObjectVersion
1070
     0
  0
VISUALSTYLE
  5
E85CC
102
{ACAD_XDICTIONARY
360
E865F
102
}
102
{ACAD_REACTORS
330
3F2
102
}
330
3F2
100
AcDbVisualStyle
  2
Sketchy
 70
    24
 71
     1
 72
     2
 73
     2
 90
        0
 40
-0.6
 41
-30.0
 62
     5
 63
     7
 74
     2
 91
        2
 64
     7
 65
     7
 75
     1
175
     1
 42
40.0
 92
       11
 66
     7
 43
1.0
 76
     1
 77
     6
 78
     2
 67
     7
 79
     6
170
     0
171
     0
290
     0
174
     0
 93
        1
 44
0.0
173
     0
291
     0
 45
0.0
1001
ACAD
1000
AcDbSavedByObjectVersion
1070
     0
  0
VISUALSTYLE
  5
3FF
102
{ACAD_XDICTIONARY
360
E864A
102
}
102
{ACAD_REACTORS
330
3F2
102
}
330
3F2
100
AcDbVisualStyle
  2

 70
    13
 71
     2
 72
     2
 73
     0
 90
        0
 40
-0.6
 41
-30.0
 62
     5
 63
     7
 74
     1
 91
        4
 64
     7
 65
   257
 75
     1
175
     1
 42
1.0
 92
       12
 66
     7
 43
1.0
 76
     1
 77
     6
 78
     2
 67
     7
 79
     5
170
     0
171
     0
290
     0
174
     0
 93
        1
 44
0.0
173
     0
291
     1
 45
0.0
1001
ACAD
1000
AcDbSavedByObjectVersion
1070
     0
  0
VISUALSTYLE
  5
E85C9
102
{ACAD_XDICTIONARY
360
E8659
102
}
102
{ACAD_REACTORS
330
3F2
102
}
330
3F2
100
AcDbVisualStyle
  2
Wireframe
 70
     5
 71
     0
 72
     2
 73
     0
 90
        0
 40
-0.6
 41
-30.0
 62
     5
 63
     7
 74
     1
 91
        4
 64
     7
 65
   257
 75
     1
175
     1
 42
1.0
 92
        0
 66
   257
 43
1.0
 76
     1
 77
     6
 78
     2
 67
     7
 79
     3
170
     0
171
     0
290
     0
174
     0
 93
        1
 44
0.0
173
     0
291
     0
 45
0.0
1001
ACAD
1000
AcDbSavedByObjectVersion
1070
     0
  0
VISUALSTYLE
  5
E85CD
102
{ACAD_XDICTIONARY
360
E8661
102
}
102
{ACAD_REACTORS
330
3F2
102
}
330
3F2
100
AcDbVisualStyle
  2
X-Ray
 70
    25
 71
     2
 72
     2
 73
     1
 90
        1
 40
0.5
 41
-30.0
 62
     5
 63
     7
 74
     1
 91
        0
 64
     7
 65
   257
 75
     1
175
     1
 42
1.0
 92
        8
 66
     7
 43
1.0
 76
     1
 77
     6
 78
     2
 67
     7
 79
     3
170
     0
171
     0
290
     0
174
     0
 93
       13
 44
0.0
173
     0
291
     0
 45
0.0
1001
ACAD
1000
AcDbSavedByObjectVersion
1070
     0
  0
DICTIONARYVAR
  5
449
102
{ACAD_REACTORS
330
357
102
}
330
357
100
DictionaryVariables
280
     0
  1
1:1
  0
DICTIONARYVAR
  5
447
102
{ACAD_REACTORS
330
357
102
}
330
357
100
DictionaryVariables
280
     0
  1
STANDARD
  0
DICTIONARYVAR
  5
38E
102
{ACAD_REACTORS
330
357
102
}
330
357
100
DictionaryVariables
280
     0
  1
STANDARD
  0
DICTIONARYVAR
  5
E8624
102
{ACAD_REACTORS
330
357
102
}
330
357
100
DictionaryVariables
280
     0
  1
Metric50
  0
DICTIONARYVAR
  5
E8625
102
{ACAD_REACTORS
330
357
102
}
330
357
100
DictionaryVariables
280
     0
  1
Metric50
  0
DICTIONARYVAR
  5
359
102
{ACAD_REACTORS
330
357
102
}
330
357
100
DictionaryVariables
280
     0
  1
2
  0
DICTIONARYVAR
  5
358
102
{ACAD_REACTORS
330
357
102
}
330
357
100
DictionaryVariables
280
     0
  1
1
  0
DICTIONARYVAR
  5
1260
102
{ACAD_REACTORS
330
357
102
}
330
357
100
DictionaryVariables
280
     0
  1
0
  0
DICTIONARYVAR
  5
458
102
{ACAD_REACTORS
330
357
102
}
330
357
100
DictionaryVariables
280
     0
  1
1
  0
DICTIONARYVAR
  5
459
102
{ACAD_REACTORS
330
357
102
}
330
357
100
DictionaryVariables
280
     0
  1
15
  0
DICTIONARYVAR
  5
44A
102
{ACAD_REACTORS
330
357
102
}
330
357
100
DictionaryVariables
280
     0
  1
0
  0
DICTIONARYVAR
  5
448
102
{ACAD_REACTORS
330
357
102
}
330
357
100
DictionaryVariables
280
     0
  1
0
  0
DICTIONARYVAR
  5
125F
102
{ACAD_REACTORS
330
357
102
}
330
357
100
DictionaryVariables
280
     0
  1
127
  0
DICTIONARYVAR
  5
E8626
102
{ACAD_REACTORS
330
357
102
}
330
357
100
DictionaryVariables
280
     0
  1
2
  0
DICTIONARY
  5
E862F
330
33B
100
AcDbDictionary
280
     1
281
     1
  3
ACAD_XREC_ROUNDTRIP
360
E8630
  0
DICTIONARY
  5
E862D
330
303
100
AcDbDictionary
280
     1
281
     1
  3
ACAD_XREC_ROUNDTRIP
360
E862E
  0
DICTIONARY
  5
E859B
330
3F0
100
AcDbDictionary
280
     1
281
     1
  3
ACAD_XREC_ROUNDTRIP
360
E859C
  0
DICTIONARY
  5
E8599
330
3EF
100
AcDbDictionary
280
     1
281
     1
  3
ACAD_XREC_ROUNDTRIP
360
E859A
  0
DICTIONARY
  5
E859D
330
3F1
100
AcDbDictionary
280
     1
281
     1
  3
ACAD_XREC_ROUNDTRIP
360
E859E
  0
DICTIONARY
  5
444
330
389
100
AcDbDictionary
280
     1
281
     1
  3
ACAD_ROUNDTRIP_2008_TABLESTYLE_CELLSTYLEMAP
360
E8628
  3
ACAD_XREC_ROUNDTRIP
360
E8631
  0
DICTIONARY
  5
E863C
330
3F8
100
AcDbDictionary
280
     1
281
     1
  3
ACAD_XREC_ROUNDTRIP
360
E863D
  0
DICTIONARY
  5
E8640
330
3FA
100
AcDbDictionary
280
     1
281
     1
  3
ACAD_XREC_ROUNDTRIP
360
E8641
  0
DICTIONARY
  5
E863E
330
3F9
100
AcDbDictionary
280
     1
281
     1
  3
ACAD_XREC_ROUNDTRIP
360
E863F
  0
DICTIONARY
  5
E863A
330
3F7
100
AcDbDictionary
280
     1
281
     1
  3
ACAD_XREC_ROUNDTRIP
360
E863B
  0
DICTIONARY
  5
E8648
330
3FE
100
AcDbDictionary
280
     1
281
     1
  3
ACAD_XREC_ROUNDTRIP
360
E8649
  0
DICTIONARY
  5
E8650
330
402
100
AcDbDictionary
280
     1
281
     1
  3
ACAD_XREC_ROUNDTRIP
360
E8651
  0
DICTIONARY
  5
E8642
330
3FB
100
AcDbDictionary
280
     1
281
     1
  3
ACAD_XREC_ROUNDTRIP
360
E8643
  0
DICTIONARY
  5
E8646
330
3FD
100
AcDbDictionary
280
     1
281
     1
  3
ACAD_XREC_ROUNDTRIP
360
E8647
  0
DICTIONARY
  5
E8656
330
44E
100
AcDbDictionary
280
     1
281
     1
  3
ACAD_XREC_ROUNDTRIP
360
E8657
  0
DICTIONARY
  5
E864E
330
401
100
AcDbDictionary
280
     1
281
     1
  3
ACAD_XREC_ROUNDTRIP
360
E864F
  0
DICTIONARY
  5
E8632
330
3F3
100
AcDbDictionary
280
     1
281
     1
  3
ACAD_XREC_ROUNDTRIP
360
E8633
  0
DICTIONARY
  5
E8634
330
3F4
100
AcDbDictionary
280
     1
281
     1
  3
ACAD_XREC_ROUNDTRIP
360
E8635
  0
DICTIONARY
  5
E8636
330
3F5
100
AcDbDictionary
280
     1
281
     1
  3
ACAD_XREC_ROUNDTRIP
360
E8637
  0
DICTIONARY
  5
E8638
330
3F6
100
AcDbDictionary
280
     1
281
     1
  3
ACAD_XREC_ROUNDTRIP
360
E8639
  0
DICTIONARY
  5
E865B
330
E85CA
100
AcDbDictionary
280
     1
281
     1
  3
ACAD_XREC_ROUNDTRIP
360
E865C
  0
DICTIONARY
  5
E8652
330
44C
100
AcDbDictionary
280
     1
281
     1
  3
ACAD_XREC_ROUNDTRIP
360
E8653
  0
DICTIONARY
  5
E864C
330
400
100
AcDbDictionary
280
     1
281
     1
  3
ACAD_XREC_ROUNDTRIP
360
E864D
  0
DICTIONARY
  5
E8654
330
44D
100
AcDbDictionary
280
     1
281
     1
  3
ACAD_XREC_ROUNDTRIP
360
E8655
  0
DICTIONARY
  5
E8644
330
3FC
100
AcDbDictionary
280
     1
281
     1
  3
ACAD_XREC_ROUNDTRIP
360
E8645
  0
DICTIONARY
  5
E8665
330
E85CF
100
AcDbDictionary
280
     1
281
     1
  3
ACAD_XREC_ROUNDTRIP
360
E8666
  0
DICTIONARY
  5
E8663
330
E85CE
100
AcDbDictionary
280
     1
281
     1
  3
ACAD_XREC_ROUNDTRIP
360
E8664
  0
DICTIONARY
  5
E865D
330
E85CB
100
AcDbDictionary
280
     1
281
     1
  3
ACAD_XREC_ROUNDTRIP
360
E865E
  0
DICTIONARY
  5
E865F
330
E85CC
100
AcDbDictionary
280
     1
281
     1
  3
ACAD_XREC_ROUNDTRIP
360
E8660
  0
DICTIONARY
  5
E864A
330
3FF
100
AcDbDictionary
280
     1
281
     1
  3
ACAD_XREC_ROUNDTRIP
360
E864B
  0
DICTIONARY
  5
E8659
330
E85C9
100
AcDbDictionary
280
     1
281
     1
  3
ACAD_XREC_ROUNDTRIP
360
E865A
  0
DICTIONARY
  5
E8661
330
E85CD
100
AcDbDictionary
280
     1
281
     1
  3
ACAD_XREC_ROUNDTRIP
360
E8662
  0
XRECORD
  5
E8630
102
{ACAD_REACTORS
330
E862F
102
}
330
E862F
100
AcDbXrecord
280
     1
102
SHADEPLOT
 70
     0
102
SHADEPLOTRESLEVEL
 70
     2
102
SHADEPLOTCUSTOMDPI
 70
   300
  0
XRECORD
  5
E862E
102
{ACAD_REACTORS
330
E862D
102
}
330
E862D
100
AcDbXrecord
280
     1
102
SHADEPLOT
 70
     1
102
SHADEPLOTRESLEVEL
 70
     2
102
SHADEPLOTCUSTOMDPI
 70
   300
  0
XRECORD
  5
E859C
102
{ACAD_REACTORS
330
E859B
102
}
330
E859B
100
AcDbXrecord
280
     1
102
MATERIAL
148
0.0
149
0.0
149
0.0
 93
        0
 94
      127
282
     0
 72
     1
 77
     1
171
     1
175
     1
179
     1
273
     0
  0
XRECORD
  5
E859A
102
{ACAD_REACTORS
330
E8599
102
}
330
E8599
100
AcDbXrecord
280
     1
102
MATERIAL
148
0.0
149
0.0
149
0.0
 93
        0
 94
      127
282
     0
 72
     1
 77
     1
171
     1
175
     1
179
     1
273
     0
  0
XRECORD
  5
E859E
102
{ACAD_REACTORS
330
E859D
102
}
330
E859D
100
AcDbXrecord
280
     1
102
MATERIAL
148
0.0
149
0.0
149
0.0
 93
        0
 94
      127
282
     0
 72
     1
 77
     1
171
     1
175
     1
179
     1
273
     0
  0
CELLSTYLEMAP
  5
E8628
102
{ACAD_REACTORS
330
444
102
}
330
444
100
AcDbCellStyleMap
 90
        3
300
CELLSTYLE
  1
TABLEFORMAT_BEGIN
 90
        5
170
     1
 91
        0
 92
    32768
 62
   257
 93
        1
300
CONTENTFORMAT
  1
CONTENTFORMAT_BEGIN
 90
        0
 91
        0
 92
        4
 93
        0
300

 40
0.0
140
1.0
 94
        5
 62
     0
340
10
144
6.0
309
CONTENTFORMAT_END
171
     1
301
MARGIN
  1
CELLMARGIN_BEGIN
 40
1.5
 40
1.5
 40
1.5
 40
1.5
 40
0.18
 40
0.18
309
CELLMARGIN_END
 94
        6
 95
        1
302
GRIDFORMAT
  1
GRIDFORMAT_BEGIN
 90
        0
 91
        1
 62
     0
 92
       -2
340
0
 93
        0
 40
0.045
309
GRIDFORMAT_END
 95
        2
302
GRIDFORMAT
  1
GRIDFORMAT_BEGIN
 90
        0
 91
        1
 62
     0
 92
       -2
340
0
 93
        0
 40
0.045
309
GRIDFORMAT_END
 95
        4
302
GRIDFORMAT
  1
GRIDFORMAT_BEGIN
 90
        0
 91
        1
 62
     0
 92
       -2
340
0
 93
        0
 40
0.045
309
GRIDFORMAT_END
 95
        8
302
GRIDFORMAT
  1
GRIDFORMAT_BEGIN
 90
        0
 91
        1
 62
     0
 92
       -2
340
0
 93
        0
 40
0.045
309
GRIDFORMAT_END
 95
       16
302
GRIDFORMAT
  1
GRIDFORMAT_BEGIN
 90
        0
 91
        1
 62
     0
 92
       -2
340
0
 93
        0
 40
0.045
309
GRIDFORMAT_END
 95
       32
302
GRIDFORMAT
  1
GRIDFORMAT_BEGIN
 90
        0
 91
        1
 62
     0
 92
       -2
340
0
 93
        0
 40
0.045
309
GRIDFORMAT_END
309
TABLEFORMAT_END
  1
CELLSTYLE_BEGIN
 90
        1
 91
        1
300
_TITLE
309
CELLSTYLE_END
300
CELLSTYLE
  1
TABLEFORMAT_BEGIN
 90
        5
170
     1
 91
        0
 92
        0
 62
   257
 93
        1
300
CONTENTFORMAT
  1
CONTENTFORMAT_BEGIN
 90
        0
 91
        0
 92
        4
 93
        0
300

 40
0.0
140
1.0
 94
        5
 62
     0
340
10
144
4.5
309
CONTENTFORMAT_END
171
     1
301
MARGIN
  1
CELLMARGIN_BEGIN
 40
1.5
 40
1.5
 40
1.5
 40
1.5
 40
0.18
 40
0.18
309
CELLMARGIN_END
 94
        6
 95
        1
302
GRIDFORMAT
  1
GRIDFORMAT_BEGIN
 90
        0
 91
        1
 62
     0
 92
       -2
340
0
 93
        0
 40
0.045
309
GRIDFORMAT_END
 95
        2
302
GRIDFORMAT
  1
GRIDFORMAT_BEGIN
 90
        0
 91
        1
 62
     0
 92
       -2
340
0
 93
        0
 40
0.045
309
GRIDFORMAT_END
 95
        4
302
GRIDFORMAT
  1
GRIDFORMAT_BEGIN
 90
        0
 91
        1
 62
     0
 92
       -2
340
0
 93
        0
 40
0.045
309
GRIDFORMAT_END
 95
        8
302
GRIDFORMAT
  1
GRIDFORMAT_BEGIN
 90
        0
 91
        1
 62
     0
 92
       -2
340
0
 93
        0
 40
0.045
309
GRIDFORMAT_END
 95
       16
302
GRIDFORMAT
  1
GRIDFORMAT_BEGIN
 90
        0
 91
        1
 62
     0
 92
       -2
340
0
 93
        0
 40
0.045
309
GRIDFORMAT_END
 95
       32
302
GRIDFORMAT
  1
GRIDFORMAT_BEGIN
 90
        0
 91
        1
 62
     0
 92
       -2
340
0
 93
        0
 40
0.045
309
GRIDFORMAT_END
309
TABLEFORMAT_END
  1
CELLSTYLE_BEGIN
 90
        2
 91
        1
300
_HEADER
309
CELLSTYLE_END
300
CELLSTYLE
  1
TABLEFORMAT_BEGIN
 90
        5
170
     1
 91
        0
 92
        0
 62
   257
 93
        1
300
CONTENTFORMAT
  1
CONTENTFORMAT_BEGIN
 90
        0
 91
        0
 92
        4
 93
        0
300

 40
0.0
140
1.0
 94
        2
 62
     0
340
10
144
4.5
309
CONTENTFORMAT_END
171
     1
301
MARGIN
  1
CELLMARGIN_BEGIN
 40
1.5
 40
1.5
 40
1.5
 40
1.5
 40
0.18
 40
0.18
309
CELLMARGIN_END
 94
        6
 95
        1
302
GRIDFORMAT
  1
GRIDFORMAT_BEGIN
 90
        0
 91
        1
 62
     0
 92
       -2
340
0
 93
        0
 40
0.045
309
GRIDFORMAT_END
 95
        2
302
GRIDFORMAT
  1
GRIDFORMAT_BEGIN
 90
        0
 91
        1
 62
     0
 92
       -2
340
0
 93
        0
 40
0.045
309
GRIDFORMAT_END
 95
        4
302
GRIDFORMAT
  1
GRIDFORMAT_BEGIN
 90
        0
 91
        1
 62
     0
 92
       -2
340
0
 93
        0
 40
0.045
309
GRIDFORMAT_END
 95
        8
302
GRIDFORMAT
  1
GRIDFORMAT_BEGIN
 90
        0
 91
        1
 62
     0
 92
       -2
340
0
 93
        0
 40
0.045
309
GRIDFORMAT_END
 95
       16
302
GRIDFORMAT
  1
GRIDFORMAT_BEGIN
 90
        0
 91
        1
 62
     0
 92
       -2
340
0
 93
        0
 40
0.045
309
GRIDFORMAT_END
 95
       32
302
GRIDFORMAT
  1
GRIDFORMAT_BEGIN
 90
        0
 91
        1
 62
     0
 92
       -2
340
0
 93
        0
 40
0.045
309
GRIDFORMAT_END
309
TABLEFORMAT_END
  1
CELLSTYLE_BEGIN
 90
        3
 91
        2
300
_DATA
309
CELLSTYLE_END
  0
XRECORD
  5
E8631
102
{ACAD_REACTORS
330
444
102
}
330
444
100
AcDbXrecord
280
     1
102
ACAD_ROUNDTRIP_PRE2007_TABLESTYLE
 90
        4
 91
        0
  1

 92
        4
 93
        0
  2

 94
        4
 95
        0
  3

  0
XRECORD
  5
E863D
102
{ACAD_REACTORS
330
E863C
102
}
330
E863C
100
AcDbXrecord
280
     1
102
RTVSPost2010Prop28
280
     1
102
RTVSPost2010PropOp28
 70
     1
102
RTVSPost2010Prop29
280
     1
102
RTVSPost2010PropOp29
 70
     1
102
RTVSPost2010Prop30
280
     0
102
RTVSPost2010PropOp30
 70
     1
102
RTVSPost2010Prop31
280
     0
102
RTVSPost2010PropOp31
 70
     1
102
RTVSPost2010Prop32
280
     0
102
RTVSPost2010PropOp32
 70
     1
102
RTVSPost2010Prop33
280
     0
102
RTVSPost2010PropOp33
 70
     1
102
RTVSPost2010Prop34
280
     0
102
RTVSPost2010PropOp34
 70
     1
102
RTVSPost2010Prop35
280
     0
102
RTVSPost2010PropOp35
 70
     1
102
RTVSPost2010Prop36
280
     0
102
RTVSPost2010PropOp36
 70
     1
102
RTVSPost2010Prop37
 90
       50
102
RTVSPost2010PropOp37
 70
     1
102
RTVSPost2010Prop38
140
0.0
102
RTVSPost2010PropOp38
 70
     1
102
RTVSPost2010Prop39
140
1.0
102
RTVSPost2010PropOp39
 70
     1
102
RTVSPost2010Prop40
 90
        0
102
RTVSPost2010PropOp40
 70
     1
102
RTVSPost2010Prop41ColorIndex
 90
       18
102
RTVSPost2010Prop41ColorRGB
 90
        0
102
RTVSPost2010PropOp41
 70
     1
102
RTVSPost2010Prop42
 90
       50
102
RTVSPost2010PropOp42
 70
     1
102
RTVSPost2010Prop43
 90
        3
102
RTVSPost2010PropOp43
 70
     1
102
RTVSPost2010Prop44ColorIndex
 90
        5
102
RTVSPost2010Prop44ColorRGB
 90
      255
102
RTVSPost2010PropOp44
 70
     1
102
RTVSPost2010Prop45
280
     0
102
RTVSPost2010PropOp45
 70
     1
102
RTVSPost2010Prop46
 90
       50
102
RTVSPost2010PropOp46
 70
     1
102
RTVSPost2010Prop47
 90
       50
102
RTVSPost2010PropOp47
 70
     1
102
RTVSPost2010Prop48
 90
       50
102
RTVSPost2010PropOp48
 70
     1
102
RTVSPost2010Prop49
280
     0
102
RTVSPost2010PropOp49
 70
     1
102
RTVSPost2010Prop50
 90
       50
102
RTVSPost2010PropOp50
 70
     1
102
RTVSPost2010Prop51ColorIndex
 90
      256
102
RTVSPost2010Prop51ColorRGB
 90
-16777216
102
RTVSPost2010PropOp51
 70
     0
102
RTVSPost2010Prop52
140
1.0
102
RTVSPost2010PropOp52
 70
     0
102
RTVSPost2010Prop53
 90
        2
102
RTVSPost2010PropOp53
 70
     1
102
RTVSPost2010Prop54
  1
strokes_ogs.tif
102
RTVSPost2010PropOp54
 70
     1
102
RTVSPost2010Prop55
280
     0
102
RTVSPost2010PropOp55
 70
     1
102
RTVSPost2010Prop56
140
1.0
102
RTVSPost2010PropOp56
 70
     1
102
RTVSPost2010Prop57
140
1.0
102
RTVSPost2010PropOp57
 70
     1
102
RTVSPropertyOp0
 70
     1
102
RTVSPropertyOp1
 70
     1
102
RTVSPropertyOp2
 70
     1
102
RTVSPropertyOp3
 70
     1
102
RTVSPropertyOp4
 70
     1
102
RTVSPropertyOp5
 70
     1
102
RTVSPropertyOp6
 70
     1
102
RTVSPropertyOp7
 70
     1
102
RTVSPropertyOp8
 70
     1
102
RTVSPropertyOp9
 70
     1
102
RTVSPropertyOp10
 70
     1
102
RTVSPropertyOp11
 70
     1
102
RTVSPropertyOp12
 70
     1
102
RTVSPropertyOp13
 70
     1
102
RTVSPropertyOp14
 70
     1
102
RTVSPropertyOp15
 70
     1
102
RTVSPropertyOp16
 70
     1
102
RTVSPropertyOp17
 70
     1
102
RTVSPropertyOp18
 70
     1
102
RTVSPropertyOp19
 70
     1
102
RTVSPropertyOp20
 70
     1
102
RTVSPropertyOp21
 70
     1
102
RTVSPropertyOp22
 70
     1
102
RTVSPropertyOp23
 70
     1
102
RTVSPropertyOp24
 70
     1
102
RTVSPropertyOp25
 70
     1
102
RTVSPropertyOp26
 70
     1
102
RTVSPropertyOp27
 70
     1
102
RTVSPropertyOp28
 70
     1
102
RTVSPropertyOp29
 70
     1
102
RTVSPropertyOp30
 70
     1
102
RTVSPropertyOp31
 70
     1
102
RTVSPropertyOp32
 70
     1
102
RTVSPropertyOp33
 70
     1
102
RTVSPropertyOp34
 70
     1
102
RTVSPropertyOp35
 70
     1
102
RTVSPropertyOp36
 70
     1
102
RTVSPropertyOp37
 70
     1
102
RTVSPropertyOp38
 70
     1
102
RTVSPropertyOp39
 70
     1
102
RTVSPropertyOp40
 70
     1
102
RTVSPropertyOp41
 70
     1
102
RTVSPropertyOp42
 70
     1
102
RTVSPropertyOp43
 70
     1
102
RTVSPropertyOp44
 70
     1
102
RTVSPropertyOp45
 70
     1
102
RTVSPropertyOp46
 70
     1
102
RTVSPropertyOp47
 70
     1
102
RTVSPropertyOp48
 70
     1
102
RTVSPropertyOp49
 70
     1
102
RTVSPropertyOp50
 70
     1
102
RTVSPropertyOp51
 70
     0
102
RTVSPropertyOp52
 70
     0
102
RTVSPropertyOp53
 70
     1
102
RTVSPropertyOp54
 70
     1
102
RTVSPropertyOp55
 70
     1
102
RTVSPropertyOp56
 70
     1
102
RTVSPropertyOp57
 70
     1
102
RTVSPropertyOp58
 70
     1
102
RTVSPropertyOp59
 70
     1
102
RTVSPropertyOp60
 70
     1
102
RTVSPropertyOp61
 70
     1
102
RTVSPropertyOp62
 70
     1
  0
XRECORD
  5
E8641
102
{ACAD_REACTORS
330
E8640
102
}
330
E8640
100
AcDbXrecord
280
     1
102
RTVSPost2010Prop28
280
     0
102
RTVSPost2010PropOp28
 70
     1
102
RTVSPost2010Prop29
280
     1
102
RTVSPost2010PropOp29
 70
     1
102
RTVSPost2010Prop30
280
     1
102
RTVSPost2010PropOp30
 70
     1
102
RTVSPost2010Prop31
280
     0
102
RTVSPost2010PropOp31
 70
     1
102
RTVSPost2010Prop32
280
     0
102
RTVSPost2010PropOp32
 70
     1
102
RTVSPost2010Prop33
280
     0
102
RTVSPost2010PropOp33
 70
     1
102
RTVSPost2010Prop34
280
     0
102
RTVSPost2010PropOp34
 70
     1
102
RTVSPost2010Prop35
280
     0
102
RTVSPost2010PropOp35
 70
     1
102
RTVSPost2010Prop36
280
     0
102
RTVSPost2010PropOp36
 70
     1
102
RTVSPost2010Prop37
 90
       50
102
RTVSPost2010PropOp37
 70
     1
102
RTVSPost2010Prop38
140
0.0
102
RTVSPost2010PropOp38
 70
     1
102
RTVSPost2010Prop39
140
1.0
102
RTVSPost2010PropOp39
 70
     1
102
RTVSPost2010Prop40
 90
        0
102
RTVSPost2010PropOp40
 70
     1
102
RTVSPost2010Prop41ColorIndex
 90
       18
102
RTVSPost2010Prop41ColorRGB
 90
        0
102
RTVSPost2010PropOp41
 70
     1
102
RTVSPost2010Prop42
 90
       50
102
RTVSPost2010PropOp42
 70
     1
102
RTVSPost2010Prop43
 90
        3
102
RTVSPost2010PropOp43
 70
     1
102
RTVSPost2010Prop44ColorIndex
 90
        5
102
RTVSPost2010Prop44ColorRGB
 90
      255
102
RTVSPost2010PropOp44
 70
     1
102
RTVSPost2010Prop45
280
     0
102
RTVSPost2010PropOp45
 70
     1
102
RTVSPost2010Prop46
 90
       50
102
RTVSPost2010PropOp46
 70
     1
102
RTVSPost2010Prop47
 90
       50
102
RTVSPost2010PropOp47
 70
     1
102
RTVSPost2010Prop48
 90
       50
102
RTVSPost2010PropOp48
 70
     1
102
RTVSPost2010Prop49
280
     0
102
RTVSPost2010PropOp49
 70
     1
102
RTVSPost2010Prop50
 90
       50
102
RTVSPost2010PropOp50
 70
     1
102
RTVSPost2010Prop51ColorIndex
 90
      256
102
RTVSPost2010Prop51ColorRGB
 90
-16777216
102
RTVSPost2010PropOp51
 70
     0
102
RTVSPost2010Prop52
140
1.0
102
RTVSPost2010PropOp52
 70
     0
102
RTVSPost2010Prop53
 90
        2
102
RTVSPost2010PropOp53
 70
     1
102
RTVSPost2010Prop54
  1
strokes_ogs.tif
102
RTVSPost2010PropOp54
 70
     1
102
RTVSPost2010Prop55
280
     0
102
RTVSPost2010PropOp55
 70
     1
102
RTVSPost2010Prop56
140
1.0
102
RTVSPost2010PropOp56
 70
     1
102
RTVSPost2010Prop57
140
1.0
102
RTVSPost2010PropOp57
 70
     1
102
RTVSPropertyOp0
 70
     1
102
RTVSPropertyOp1
 70
     1
102
RTVSPropertyOp2
 70
     1
102
RTVSPropertyOp3
 70
     1
102
RTVSPropertyOp4
 70
     1
102
RTVSPropertyOp5
 70
     1
102
RTVSPropertyOp6
 70
     1
102
RTVSPropertyOp7
 70
     1
102
RTVSPropertyOp8
 70
     1
102
RTVSPropertyOp9
 70
     1
102
RTVSPropertyOp10
 70
     1
102
RTVSPropertyOp11
 70
     1
102
RTVSPropertyOp12
 70
     1
102
RTVSPropertyOp13
 70
     1
102
RTVSPropertyOp14
 70
     1
102
RTVSPropertyOp15
 70
     1
102
RTVSPropertyOp16
 70
     1
102
RTVSPropertyOp17
 70
     1
102
RTVSPropertyOp18
 70
     1
102
RTVSPropertyOp19
 70
     1
102
RTVSPropertyOp20
 70
     1
102
RTVSPropertyOp21
 70
     1
102
RTVSPropertyOp22
 70
     1
102
RTVSPropertyOp23
 70
     1
102
RTVSPropertyOp24
 70
     1
102
RTVSPropertyOp25
 70
     1
102
RTVSPropertyOp26
 70
     1
102
RTVSPropertyOp27
 70
     1
102
RTVSPropertyOp28
 70
     1
102
RTVSPropertyOp29
 70
     1
102
RTVSPropertyOp30
 70
     1
102
RTVSPropertyOp31
 70
     1
102
RTVSPropertyOp32
 70
     1
102
RTVSPropertyOp33
 70
     1
102
RTVSPropertyOp34
 70
     1
102
RTVSPropertyOp35
 70
     1
102
RTVSPropertyOp36
 70
     1
102
RTVSPropertyOp37
 70
     1
102
RTVSPropertyOp38
 70
     1
102
RTVSPropertyOp39
 70
     1
102
RTVSPropertyOp40
 70
     1
102
RTVSPropertyOp41
 70
     1
102
RTVSPropertyOp42
 70
     1
102
RTVSPropertyOp43
 70
     1
102
RTVSPropertyOp44
 70
     1
102
RTVSPropertyOp45
 70
     1
102
RTVSPropertyOp46
 70
     1
102
RTVSPropertyOp47
 70
     1
102
RTVSPropertyOp48
 70
     1
102
RTVSPropertyOp49
 70
     1
102
RTVSPropertyOp50
 70
     1
102
RTVSPropertyOp51
 70
     0
102
RTVSPropertyOp52
 70
     0
102
RTVSPropertyOp53
 70
     1
102
RTVSPropertyOp54
 70
     1
102
RTVSPropertyOp55
 70
     1
102
RTVSPropertyOp56
 70
     1
102
RTVSPropertyOp57
 70
     1
102
RTVSPropertyOp58
 70
     1
102
RTVSPropertyOp59
 70
     1
102
RTVSPropertyOp60
 70
     1
102
RTVSPropertyOp61
 70
     1
102
RTVSPropertyOp62
 70
     1
  0
XRECORD
  5
E863F
102
{ACAD_REACTORS
330
E863E
102
}
330
E863E
100
AcDbXrecord
280
     1
102
RTVSPost2010Prop28
280
     0
102
RTVSPost2010PropOp28
 70
     1
102
RTVSPost2010Prop29
280
     1
102
RTVSPost2010PropOp29
 70
     1
102
RTVSPost2010Prop30
280
     1
102
RTVSPost2010PropOp30
 70
     1
102
RTVSPost2010Prop31
280
     0
102
RTVSPost2010PropOp31
 70
     1
102
RTVSPost2010Prop32
280
     0
102
RTVSPost2010PropOp32
 70
     1
102
RTVSPost2010Prop33
280
     0
102
RTVSPost2010PropOp33
 70
     1
102
RTVSPost2010Prop34
280
     0
102
RTVSPost2010PropOp34
 70
     1
102
RTVSPost2010Prop35
280
     0
102
RTVSPost2010PropOp35
 70
     1
102
RTVSPost2010Prop36
280
     0
102
RTVSPost2010PropOp36
 70
     1
102
RTVSPost2010Prop37
 90
       50
102
RTVSPost2010PropOp37
 70
     1
102
RTVSPost2010Prop38
140
0.0
102
RTVSPost2010PropOp38
 70
     1
102
RTVSPost2010Prop39
140
1.0
102
RTVSPost2010PropOp39
 70
     1
102
RTVSPost2010Prop40
 90
        0
102
RTVSPost2010PropOp40
 70
     1
102
RTVSPost2010Prop41ColorIndex
 90
       18
102
RTVSPost2010Prop41ColorRGB
 90
        0
102
RTVSPost2010PropOp41
 70
     1
102
RTVSPost2010Prop42
 90
       50
102
RTVSPost2010PropOp42
 70
     1
102
RTVSPost2010Prop43
 90
        3
102
RTVSPost2010PropOp43
 70
     1
102
RTVSPost2010Prop44ColorIndex
 90
        5
102
RTVSPost2010Prop44ColorRGB
 90
      255
102
RTVSPost2010PropOp44
 70
     1
102
RTVSPost2010Prop45
280
     0
102
RTVSPost2010PropOp45
 70
     1
102
RTVSPost2010Prop46
 90
       50
102
RTVSPost2010PropOp46
 70
     1
102
RTVSPost2010Prop47
 90
       50
102
RTVSPost2010PropOp47
 70
     1
102
RTVSPost2010Prop48
 90
       50
102
RTVSPost2010PropOp48
 70
     1
102
RTVSPost2010Prop49
280
     0
102
RTVSPost2010PropOp49
 70
     1
102
RTVSPost2010Prop50
 90
       50
102
RTVSPost2010PropOp50
 70
     1
102
RTVSPost2010Prop51ColorIndex
 90
      256
102
RTVSPost2010Prop51ColorRGB
 90
-16777216
102
RTVSPost2010PropOp51
 70
     0
102
RTVSPost2010Prop52
140
1.0
102
RTVSPost2010PropOp52
 70
     0
102
RTVSPost2010Prop53
 90
        2
102
RTVSPost2010PropOp53
 70
     1
102
RTVSPost2010Prop54
  1
strokes_ogs.tif
102
RTVSPost2010PropOp54
 70
     1
102
RTVSPost2010Prop55
280
     0
102
RTVSPost2010PropOp55
 70
     1
102
RTVSPost2010Prop56
140
1.0
102
RTVSPost2010PropOp56
 70
     1
102
RTVSPost2010Prop57
140
1.0
102
RTVSPost2010PropOp57
 70
     1
102
RTVSPropertyOp0
 70
     1
102
RTVSPropertyOp1
 70
     1
102
RTVSPropertyOp2
 70
     1
102
RTVSPropertyOp3
 70
     1
102
RTVSPropertyOp4
 70
     1
102
RTVSPropertyOp5
 70
     1
102
RTVSPropertyOp6
 70
     1
102
RTVSPropertyOp7
 70
     1
102
RTVSPropertyOp8
 70
     1
102
RTVSPropertyOp9
 70
     1
102
RTVSPropertyOp10
 70
     1
102
RTVSPropertyOp11
 70
     1
102
RTVSPropertyOp12
 70
     1
102
RTVSPropertyOp13
 70
     1
102
RTVSPropertyOp14
 70
     1
102
RTVSPropertyOp15
 70
     1
102
RTVSPropertyOp16
 70
     1
102
RTVSPropertyOp17
 70
     1
102
RTVSPropertyOp18
 70
     1
102
RTVSPropertyOp19
 70
     1
102
RTVSPropertyOp20
 70
     1
102
RTVSPropertyOp21
 70
     1
102
RTVSPropertyOp22
 70
     1
102
RTVSPropertyOp23
 70
     1
102
RTVSPropertyOp24
 70
     1
102
RTVSPropertyOp25
 70
     1
102
RTVSPropertyOp26
 70
     1
102
RTVSPropertyOp27
 70
     1
102
RTVSPropertyOp28
 70
     1
102
RTVSPropertyOp29
 70
     1
102
RTVSPropertyOp30
 70
     1
102
RTVSPropertyOp31
 70
     1
102
RTVSPropertyOp32
 70
     1
102
RTVSPropertyOp33
 70
     1
102
RTVSPropertyOp34
 70
     1
102
RTVSPropertyOp35
 70
     1
102
RTVSPropertyOp36
 70
     1
102
RTVSPropertyOp37
 70
     1
102
RTVSPropertyOp38
 70
     1
102
RTVSPropertyOp39
 70
     1
102
RTVSPropertyOp40
 70
     1
102
RTVSPropertyOp41
 70
     1
102
RTVSPropertyOp42
 70
     1
102
RTVSPropertyOp43
 70
     1
102
RTVSPropertyOp44
 70
     1
102
RTVSPropertyOp45
 70
     1
102
RTVSPropertyOp46
 70
     1
102
RTVSPropertyOp47
 70
     1
102
RTVSPropertyOp48
 70
     1
102
RTVSPropertyOp49
 70
     1
102
RTVSPropertyOp50
 70
     1
102
RTVSPropertyOp51
 70
     0
102
RTVSPropertyOp52
 70
     0
102
RTVSPropertyOp53
 70
     1
102
RTVSPropertyOp54
 70
     1
102
RTVSPropertyOp55
 70
     1
102
RTVSPropertyOp56
 70
     1
102
RTVSPropertyOp57
 70
     1
102
RTVSPropertyOp58
 70
     1
102
RTVSPropertyOp59
 70
     1
102
RTVSPropertyOp60
 70
     1
102
RTVSPropertyOp61
 70
     1
102
RTVSPropertyOp62
 70
     1
  0
XRECORD
  5
E863B
102
{ACAD_REACTORS
330
E863A
102
}
330
E863A
100
AcDbXrecord
280
     1
102
RTVSPost2010Prop28
280
     0
102
RTVSPost2010PropOp28
 70
     1
102
RTVSPost2010Prop29
280
     1
102
RTVSPost2010PropOp29
 70
     1
102
RTVSPost2010Prop30
280
     1
102
RTVSPost2010PropOp30
 70
     1
102
RTVSPost2010Prop31
280
     0
102
RTVSPost2010PropOp31
 70
     1
102
RTVSPost2010Prop32
280
     0
102
RTVSPost2010PropOp32
 70
     1
102
RTVSPost2010Prop33
280
     0
102
RTVSPost2010PropOp33
 70
     1
102
RTVSPost2010Prop34
280
     0
102
RTVSPost2010PropOp34
 70
     1
102
RTVSPost2010Prop35
280
     0
102
RTVSPost2010PropOp35
 70
     1
102
RTVSPost2010Prop36
280
     0
102
RTVSPost2010PropOp36
 70
     1
102
RTVSPost2010Prop37
 90
       50
102
RTVSPost2010PropOp37
 70
     1
102
RTVSPost2010Prop38
140
0.0
102
RTVSPost2010PropOp38
 70
     1
102
RTVSPost2010Prop39
140
1.0
102
RTVSPost2010PropOp39
 70
     1
102
RTVSPost2010Prop40
 90
        0
102
RTVSPost2010PropOp40
 70
     1
102
RTVSPost2010Prop41ColorIndex
 90
       18
102
RTVSPost2010Prop41ColorRGB
 90
        0
102
RTVSPost2010PropOp41
 70
     1
102
RTVSPost2010Prop42
 90
       50
102
RTVSPost2010PropOp42
 70
     1
102
RTVSPost2010Prop43
 90
        3
102
RTVSPost2010PropOp43
 70
     1
102
RTVSPost2010Prop44ColorIndex
 90
        5
102
RTVSPost2010Prop44ColorRGB
 90
      255
102
RTVSPost2010PropOp44
 70
     1
102
RTVSPost2010Prop45
280
     0
102
RTVSPost2010PropOp45
 70
     1
102
RTVSPost2010Prop46
 90
       50
102
RTVSPost2010PropOp46
 70
     1
102
RTVSPost2010Prop47
 90
       50
102
RTVSPost2010PropOp47
 70
     1
102
RTVSPost2010Prop48
 90
       50
102
RTVSPost2010PropOp48
 70
     1
102
RTVSPost2010Prop49
280
     0
102
RTVSPost2010PropOp49
 70
     1
102
RTVSPost2010Prop50
 90
       50
102
RTVSPost2010PropOp50
 70
     1
102
RTVSPost2010Prop51ColorIndex
 90
      256
102
RTVSPost2010Prop51ColorRGB
 90
-16777216
102
RTVSPost2010PropOp51
 70
     0
102
RTVSPost2010Prop52
140
1.0
102
RTVSPost2010PropOp52
 70
     0
102
RTVSPost2010Prop53
 90
        2
102
RTVSPost2010PropOp53
 70
     1
102
RTVSPost2010Prop54
  1
strokes_ogs.tif
102
RTVSPost2010PropOp54
 70
     1
102
RTVSPost2010Prop55
280
     0
102
RTVSPost2010PropOp55
 70
     1
102
RTVSPost2010Prop56
140
1.0
102
RTVSPost2010PropOp56
 70
     1
102
RTVSPost2010Prop57
140
1.0
102
RTVSPost2010PropOp57
 70
     1
102
RTVSPropertyOp0
 70
     1
102
RTVSPropertyOp1
 70
     1
102
RTVSPropertyOp2
 70
     1
102
RTVSPropertyOp3
 70
     1
102
RTVSPropertyOp4
 70
     1
102
RTVSPropertyOp5
 70
     1
102
RTVSPropertyOp6
 70
     1
102
RTVSPropertyOp7
 70
     1
102
RTVSPropertyOp8
 70
     1
102
RTVSPropertyOp9
 70
     1
102
RTVSPropertyOp10
 70
     1
102
RTVSPropertyOp11
 70
     1
102
RTVSPropertyOp12
 70
     1
102
RTVSPropertyOp13
 70
     1
102
RTVSPropertyOp14
 70
     1
102
RTVSPropertyOp15
 70
     1
102
RTVSPropertyOp16
 70
     1
102
RTVSPropertyOp17
 70
     1
102
RTVSPropertyOp18
 70
     1
102
RTVSPropertyOp19
 70
     1
102
RTVSPropertyOp20
 70
     1
102
RTVSPropertyOp21
 70
     1
102
RTVSPropertyOp22
 70
     1
102
RTVSPropertyOp23
 70
     1
102
RTVSPropertyOp24
 70
     1
102
RTVSPropertyOp25
 70
     1
102
RTVSPropertyOp26
 70
     1
102
RTVSPropertyOp27
 70
     1
102
RTVSPropertyOp28
 70
     1
102
RTVSPropertyOp29
 70
     1
102
RTVSPropertyOp30
 70
     1
102
RTVSPropertyOp31
 70
     1
102
RTVSPropertyOp32
 70
     1
102
RTVSPropertyOp33
 70
     1
102
RTVSPropertyOp34
 70
     1
102
RTVSPropertyOp35
 70
     1
102
RTVSPropertyOp36
 70
     1
102
RTVSPropertyOp37
 70
     1
102
RTVSPropertyOp38
 70
     1
102
RTVSPropertyOp39
 70
     1
102
RTVSPropertyOp40
 70
     1
102
RTVSPropertyOp41
 70
     1
102
RTVSPropertyOp42
 70
     1
102
RTVSPropertyOp43
 70
     1
102
RTVSPropertyOp44
 70
     1
102
RTVSPropertyOp45
 70
     1
102
RTVSPropertyOp46
 70
     1
102
RTVSPropertyOp47
 70
     1
102
RTVSPropertyOp48
 70
     1
102
RTVSPropertyOp49
 70
     1
102
RTVSPropertyOp50
 70
     1
102
RTVSPropertyOp51
 70
     0
102
RTVSPropertyOp52
 70
     0
102
RTVSPropertyOp53
 70
     1
102
RTVSPropertyOp54
 70
     1
102
RTVSPropertyOp55
 70
     1
102
RTVSPropertyOp56
 70
     1
102
RTVSPropertyOp57
 70
     1
102
RTVSPropertyOp58
 70
     1
102
RTVSPropertyOp59
 70
     1
102
RTVSPropertyOp60
 70
     1
102
RTVSPropertyOp61
 70
     1
102
RTVSPropertyOp62
 70
     1
  0
XRECORD
  5
E8649
102
{ACAD_REACTORS
330
E8648
102
}
330
E8648
100
AcDbXrecord
280
     1
102
RTVSPost2010Prop28
280
     0
102
RTVSPost2010PropOp28
 70
     1
102
RTVSPost2010Prop29
280
     1
102
RTVSPost2010PropOp29
 70
     1
102
RTVSPost2010Prop30
280
     1
102
RTVSPost2010PropOp30
 70
     1
102
RTVSPost2010Prop31
280
     0
102
RTVSPost2010PropOp31
 70
     1
102
RTVSPost2010Prop32
280
     0
102
RTVSPost2010PropOp32
 70
     1
102
RTVSPost2010Prop33
280
     0
102
RTVSPost2010PropOp33
 70
     1
102
RTVSPost2010Prop34
280
     0
102
RTVSPost2010PropOp34
 70
     1
102
RTVSPost2010Prop35
280
     0
102
RTVSPost2010PropOp35
 70
     1
102
RTVSPost2010Prop36
280
     0
102
RTVSPost2010PropOp36
 70
     1
102
RTVSPost2010Prop37
 90
       50
102
RTVSPost2010PropOp37
 70
     1
102
RTVSPost2010Prop38
140
0.0
102
RTVSPost2010PropOp38
 70
     1
102
RTVSPost2010Prop39
140
1.0
102
RTVSPost2010PropOp39
 70
     1
102
RTVSPost2010Prop40
 90
        0
102
RTVSPost2010PropOp40
 70
     1
102
RTVSPost2010Prop41ColorIndex
 90
       18
102
RTVSPost2010Prop41ColorRGB
 90
        0
102
RTVSPost2010PropOp41
 70
     1
102
RTVSPost2010Prop42
 90
       50
102
RTVSPost2010PropOp42
 70
     1
102
RTVSPost2010Prop43
 90
        3
102
RTVSPost2010PropOp43
 70
     1
102
RTVSPost2010Prop44ColorIndex
 90
        5
102
RTVSPost2010Prop44ColorRGB
 90
      255
102
RTVSPost2010PropOp44
 70
     1
102
RTVSPost2010Prop45
280
     0
102
RTVSPost2010PropOp45
 70
     1
102
RTVSPost2010Prop46
 90
       50
102
RTVSPost2010PropOp46
 70
     1
102
RTVSPost2010Prop47
 90
       50
102
RTVSPost2010PropOp47
 70
     1
102
RTVSPost2010Prop48
 90
       50
102
RTVSPost2010PropOp48
 70
     1
102
RTVSPost2010Prop49
280
     0
102
RTVSPost2010PropOp49
 70
     1
102
RTVSPost2010Prop50
 90
       50
102
RTVSPost2010PropOp50
 70
     1
102
RTVSPost2010Prop51ColorIndex
 90
      256
102
RTVSPost2010Prop51ColorRGB
 90
-16777216
102
RTVSPost2010PropOp51
 70
     0
102
RTVSPost2010Prop52
140
1.0
102
RTVSPost2010PropOp52
 70
     0
102
RTVSPost2010Prop53
 90
        2
102
RTVSPost2010PropOp53
 70
     1
102
RTVSPost2010Prop54
  1
strokes_ogs.tif
102
RTVSPost2010PropOp54
 70
     1
102
RTVSPost2010Prop55
280
     0
102
RTVSPost2010PropOp55
 70
     1
102
RTVSPost2010Prop56
140
1.0
102
RTVSPost2010PropOp56
 70
     1
102
RTVSPost2010Prop57
140
1.0
102
RTVSPost2010PropOp57
 70
     1
102
RTVSPropertyOp0
 70
     1
102
RTVSPropertyOp1
 70
     1
102
RTVSPropertyOp2
 70
     1
102
RTVSPropertyOp3
 70
     1
102
RTVSPropertyOp4
 70
     1
102
RTVSPropertyOp5
 70
     1
102
RTVSPropertyOp6
 70
     1
102
RTVSPropertyOp7
 70
     1
102
RTVSPropertyOp8
 70
     1
102
RTVSPropertyOp9
 70
     1
102
RTVSPropertyOp10
 70
     1
102
RTVSPropertyOp11
 70
     1
102
RTVSPropertyOp12
 70
     1
102
RTVSPropertyOp13
 70
     1
102
RTVSPropertyOp14
 70
     1
102
RTVSPropertyOp15
 70
     1
102
RTVSPropertyOp16
 70
     1
102
RTVSPropertyOp17
 70
     1
102
RTVSPropertyOp18
 70
     1
102
RTVSPropertyOp19
 70
     1
102
RTVSPropertyOp20
 70
     1
102
RTVSPropertyOp21
 70
     1
102
RTVSPropertyOp22
 70
     1
102
RTVSPropertyOp23
 70
     1
102
RTVSPropertyOp24
 70
     1
102
RTVSPropertyOp25
 70
     1
102
RTVSPropertyOp26
 70
     1
102
RTVSPropertyOp27
 70
     1
102
RTVSPropertyOp28
 70
     1
102
RTVSPropertyOp29
 70
     1
102
RTVSPropertyOp30
 70
     1
102
RTVSPropertyOp31
 70
     1
102
RTVSPropertyOp32
 70
     1
102
RTVSPropertyOp33
 70
     1
102
RTVSPropertyOp34
 70
     1
102
RTVSPropertyOp35
 70
     1
102
RTVSPropertyOp36
 70
     1
102
RTVSPropertyOp37
 70
     1
102
RTVSPropertyOp38
 70
     1
102
RTVSPropertyOp39
 70
     1
102
RTVSPropertyOp40
 70
     1
102
RTVSPropertyOp41
 70
     1
102
RTVSPropertyOp42
 70
     1
102
RTVSPropertyOp43
 70
     1
102
RTVSPropertyOp44
 70
     1
102
RTVSPropertyOp45
 70
     1
102
RTVSPropertyOp46
 70
     1
102
RTVSPropertyOp47
 70
     1
102
RTVSPropertyOp48
 70
     1
102
RTVSPropertyOp49
 70
     1
102
RTVSPropertyOp50
 70
     1
102
RTVSPropertyOp51
 70
     0
102
RTVSPropertyOp52
 70
     0
102
RTVSPropertyOp53
 70
     1
102
RTVSPropertyOp54
 70
     1
102
RTVSPropertyOp55
 70
     1
102
RTVSPropertyOp56
 70
     1
102
RTVSPropertyOp57
 70
     1
102
RTVSPropertyOp58
 70
     1
102
RTVSPropertyOp59
 70
     1
102
RTVSPropertyOp60
 70
     1
102
RTVSPropertyOp61
 70
     1
102
RTVSPropertyOp62
 70
     1
  0
XRECORD
  5
E8651
102
{ACAD_REACTORS
330
E8650
102
}
330
E8650
100
AcDbXrecord
280
     1
102
RTVSPost2010Prop28
280
     0
102
RTVSPost2010PropOp28
 70
     1
102
RTVSPost2010Prop29
280
     1
102
RTVSPost2010PropOp29
 70
     1
102
RTVSPost2010Prop30
280
     1
102
RTVSPost2010PropOp30
 70
     1
102
RTVSPost2010Prop31
280
     0
102
RTVSPost2010PropOp31
 70
     1
102
RTVSPost2010Prop32
280
     0
102
RTVSPost2010PropOp32
 70
     1
102
RTVSPost2010Prop33
280
     0
102
RTVSPost2010PropOp33
 70
     1
102
RTVSPost2010Prop34
280
     0
102
RTVSPost2010PropOp34
 70
     1
102
RTVSPost2010Prop35
280
     0
102
RTVSPost2010PropOp35
 70
     1
102
RTVSPost2010Prop36
280
     0
102
RTVSPost2010PropOp36
 70
     1
102
RTVSPost2010Prop37
 90
       50
102
RTVSPost2010PropOp37
 70
     1
102
RTVSPost2010Prop38
140
0.0
102
RTVSPost2010PropOp38
 70
     1
102
RTVSPost2010Prop39
140
1.0
102
RTVSPost2010PropOp39
 70
     1
102
RTVSPost2010Prop40
 90
        0
102
RTVSPost2010PropOp40
 70
     1
102
RTVSPost2010Prop41ColorIndex
 90
       18
102
RTVSPost2010Prop41ColorRGB
 90
        0
102
RTVSPost2010PropOp41
 70
     1
102
RTVSPost2010Prop42
 90
       50
102
RTVSPost2010PropOp42
 70
     1
102
RTVSPost2010Prop43
 90
        3
102
RTVSPost2010PropOp43
 70
     1
102
RTVSPost2010Prop44ColorIndex
 90
        5
102
RTVSPost2010Prop44ColorRGB
 90
      255
102
RTVSPost2010PropOp44
 70
     1
102
RTVSPost2010Prop45
280
     0
102
RTVSPost2010PropOp45
 70
     1
102
RTVSPost2010Prop46
 90
       50
102
RTVSPost2010PropOp46
 70
     1
102
RTVSPost2010Prop47
 90
       50
102
RTVSPost2010PropOp47
 70
     1
102
RTVSPost2010Prop48
 90
       50
102
RTVSPost2010PropOp48
 70
     1
102
RTVSPost2010Prop49
280
     0
102
RTVSPost2010PropOp49
 70
     1
102
RTVSPost2010Prop50
 90
       50
102
RTVSPost2010PropOp50
 70
     1
102
RTVSPost2010Prop51ColorIndex
 90
      256
102
RTVSPost2010Prop51ColorRGB
 90
-16777216
102
RTVSPost2010PropOp51
 70
     0
102
RTVSPost2010Prop52
140
1.0
102
RTVSPost2010PropOp52
 70
     0
102
RTVSPost2010Prop53
 90
        2
102
RTVSPost2010PropOp53
 70
     1
102
RTVSPost2010Prop54
  1
strokes_ogs.tif
102
RTVSPost2010PropOp54
 70
     1
102
RTVSPost2010Prop55
280
     0
102
RTVSPost2010PropOp55
 70
     1
102
RTVSPost2010Prop56
140
1.0
102
RTVSPost2010PropOp56
 70
     1
102
RTVSPost2010Prop57
140
1.0
102
RTVSPost2010PropOp57
 70
     1
102
RTVSPropertyOp0
 70
     1
102
RTVSPropertyOp1
 70
     1
102
RTVSPropertyOp2
 70
     1
102
RTVSPropertyOp3
 70
     1
102
RTVSPropertyOp4
 70
     1
102
RTVSPropertyOp5
 70
     1
102
RTVSPropertyOp6
 70
     1
102
RTVSPropertyOp7
 70
     1
102
RTVSPropertyOp8
 70
     1
102
RTVSPropertyOp9
 70
     1
102
RTVSPropertyOp10
 70
     1
102
RTVSPropertyOp11
 70
     1
102
RTVSPropertyOp12
 70
     1
102
RTVSPropertyOp13
 70
     1
102
RTVSPropertyOp14
 70
     1
102
RTVSPropertyOp15
 70
     1
102
RTVSPropertyOp16
 70
     1
102
RTVSPropertyOp17
 70
     1
102
RTVSPropertyOp18
 70
     1
102
RTVSPropertyOp19
 70
     1
102
RTVSPropertyOp20
 70
     1
102
RTVSPropertyOp21
 70
     1
102
RTVSPropertyOp22
 70
     1
102
RTVSPropertyOp23
 70
     1
102
RTVSPropertyOp24
 70
     1
102
RTVSPropertyOp25
 70
     1
102
RTVSPropertyOp26
 70
     1
102
RTVSPropertyOp27
 70
     1
102
RTVSPropertyOp28
 70
     1
102
RTVSPropertyOp29
 70
     1
102
RTVSPropertyOp30
 70
     1
102
RTVSPropertyOp31
 70
     1
102
RTVSPropertyOp32
 70
     1
102
RTVSPropertyOp33
 70
     1
102
RTVSPropertyOp34
 70
     1
102
RTVSPropertyOp35
 70
     1
102
RTVSPropertyOp36
 70
     1
102
RTVSPropertyOp37
 70
     1
102
RTVSPropertyOp38
 70
     1
102
RTVSPropertyOp39
 70
     1
102
RTVSPropertyOp40
 70
     1
102
RTVSPropertyOp41
 70
     1
102
RTVSPropertyOp42
 70
     1
102
RTVSPropertyOp43
 70
     1
102
RTVSPropertyOp44
 70
     1
102
RTVSPropertyOp45
 70
     1
102
RTVSPropertyOp46
 70
     1
102
RTVSPropertyOp47
 70
     1
102
RTVSPropertyOp48
 70
     1
102
RTVSPropertyOp49
 70
     1
102
RTVSPropertyOp50
 70
     1
102
RTVSPropertyOp51
 70
     0
102
RTVSPropertyOp52
 70
     0
102
RTVSPropertyOp53
 70
     1
102
RTVSPropertyOp54
 70
     1
102
RTVSPropertyOp55
 70
     1
102
RTVSPropertyOp56
 70
     1
102
RTVSPropertyOp57
 70
     1
102
RTVSPropertyOp58
 70
     1
102
RTVSPropertyOp59
 70
     1
102
RTVSPropertyOp60
 70
     1
102
RTVSPropertyOp61
 70
     1
102
RTVSPropertyOp62
 70
     1
  0
XRECORD
  5
E8643
102
{ACAD_REACTORS
330
E8642
102
}
330
E8642
100
AcDbXrecord
280
     1
102
RTVSPost2010Prop28
280
     0
102
RTVSPost2010PropOp28
 70
     1
102
RTVSPost2010Prop29
280
     1
102
RTVSPost2010PropOp29
 70
     1
102
RTVSPost2010Prop30
280
     1
102
RTVSPost2010PropOp30
 70
     1
102
RTVSPost2010Prop31
280
     0
102
RTVSPost2010PropOp31
 70
     1
102
RTVSPost2010Prop32
280
     0
102
RTVSPost2010PropOp32
 70
     1
102
RTVSPost2010Prop33
280
     0
102
RTVSPost2010PropOp33
 70
     1
102
RTVSPost2010Prop34
280
     0
102
RTVSPost2010PropOp34
 70
     1
102
RTVSPost2010Prop35
280
     0
102
RTVSPost2010PropOp35
 70
     1
102
RTVSPost2010Prop36
280
     0
102
RTVSPost2010PropOp36
 70
     1
102
RTVSPost2010Prop37
 90
       50
102
RTVSPost2010PropOp37
 70
     1
102
RTVSPost2010Prop38
140
0.0
102
RTVSPost2010PropOp38
 70
     1
102
RTVSPost2010Prop39
140
1.0
102
RTVSPost2010PropOp39
 70
     1
102
RTVSPost2010Prop40
 90
        0
102
RTVSPost2010PropOp40
 70
     1
102
RTVSPost2010Prop41ColorIndex
 90
       18
102
RTVSPost2010Prop41ColorRGB
 90
        0
102
RTVSPost2010PropOp41
 70
     1
102
RTVSPost2010Prop42
 90
       50
102
RTVSPost2010PropOp42
 70
     1
102
RTVSPost2010Prop43
 90
        3
102
RTVSPost2010PropOp43
 70
     1
102
RTVSPost2010Prop44ColorIndex
 90
        5
102
RTVSPost2010Prop44ColorRGB
 90
      255
102
RTVSPost2010PropOp44
 70
     1
102
RTVSPost2010Prop45
280
     0
102
RTVSPost2010PropOp45
 70
     1
102
RTVSPost2010Prop46
 90
       50
102
RTVSPost2010PropOp46
 70
     1
102
RTVSPost2010Prop47
 90
       50
102
RTVSPost2010PropOp47
 70
     1
102
RTVSPost2010Prop48
 90
       50
102
RTVSPost2010PropOp48
 70
     1
102
RTVSPost2010Prop49
280
     0
102
RTVSPost2010PropOp49
 70
     1
102
RTVSPost2010Prop50
 90
       50
102
RTVSPost2010PropOp50
 70
     1
102
RTVSPost2010Prop51ColorIndex
 90
      256
102
RTVSPost2010Prop51ColorRGB
 90
-16777216
102
RTVSPost2010PropOp51
 70
     0
102
RTVSPost2010Prop52
140
1.0
102
RTVSPost2010PropOp52
 70
     0
102
RTVSPost2010Prop53
 90
        2
102
RTVSPost2010PropOp53
 70
     1
102
RTVSPost2010Prop54
  1
strokes_ogs.tif
102
RTVSPost2010PropOp54
 70
     1
102
RTVSPost2010Prop55
280
     0
102
RTVSPost2010PropOp55
 70
     1
102
RTVSPost2010Prop56
140
1.0
102
RTVSPost2010PropOp56
 70
     1
102
RTVSPost2010Prop57
140
1.0
102
RTVSPost2010PropOp57
 70
     1
102
RTVSPropertyOp0
 70
     1
102
RTVSPropertyOp1
 70
     1
102
RTVSPropertyOp2
 70
     1
102
RTVSPropertyOp3
 70
     1
102
RTVSPropertyOp4
 70
     1
102
RTVSPropertyOp5
 70
     1
102
RTVSPropertyOp6
 70
     1
102
RTVSPropertyOp7
 70
     1
102
RTVSPropertyOp8
 70
     1
102
RTVSPropertyOp9
 70
     1
102
RTVSPropertyOp10
 70
     1
102
RTVSPropertyOp11
 70
     1
102
RTVSPropertyOp12
 70
     1
102
RTVSPropertyOp13
 70
     1
102
RTVSPropertyOp14
 70
     1
102
RTVSPropertyOp15
 70
     1
102
RTVSPropertyOp16
 70
     1
102
RTVSPropertyOp17
 70
     1
102
RTVSPropertyOp18
 70
     1
102
RTVSPropertyOp19
 70
     1
102
RTVSPropertyOp20
 70
     1
102
RTVSPropertyOp21
 70
     1
102
RTVSPropertyOp22
 70
     1
102
RTVSPropertyOp23
 70
     1
102
RTVSPropertyOp24
 70
     1
102
RTVSPropertyOp25
 70
     1
102
RTVSPropertyOp26
 70
     1
102
RTVSPropertyOp27
 70
     1
102
RTVSPropertyOp28
 70
     1
102
RTVSPropertyOp29
 70
     1
102
RTVSPropertyOp30
 70
     1
102
RTVSPropertyOp31
 70
     1
102
RTVSPropertyOp32
 70
     1
102
RTVSPropertyOp33
 70
     1
102
RTVSPropertyOp34
 70
     1
102
RTVSPropertyOp35
 70
     1
102
RTVSPropertyOp36
 70
     1
102
RTVSPropertyOp37
 70
     1
102
RTVSPropertyOp38
 70
     1
102
RTVSPropertyOp39
 70
     1
102
RTVSPropertyOp40
 70
     1
102
RTVSPropertyOp41
 70
     1
102
RTVSPropertyOp42
 70
     1
102
RTVSPropertyOp43
 70
     1
102
RTVSPropertyOp44
 70
     1
102
RTVSPropertyOp45
 70
     1
102
RTVSPropertyOp46
 70
     1
102
RTVSPropertyOp47
 70
     1
102
RTVSPropertyOp48
 70
     1
102
RTVSPropertyOp49
 70
     1
102
RTVSPropertyOp50
 70
     1
102
RTVSPropertyOp51
 70
     0
102
RTVSPropertyOp52
 70
     0
102
RTVSPropertyOp53
 70
     1
102
RTVSPropertyOp54
 70
     1
102
RTVSPropertyOp55
 70
     1
102
RTVSPropertyOp56
 70
     1
102
RTVSPropertyOp57
 70
     1
102
RTVSPropertyOp58
 70
     1
102
RTVSPropertyOp59
 70
     1
102
RTVSPropertyOp60
 70
     1
102
RTVSPropertyOp61
 70
     1
102
RTVSPropertyOp62
 70
     1
  0
XRECORD
  5
E8647
102
{ACAD_REACTORS
330
E8646
102
}
330
E8646
100
AcDbXrecord
280
     1
102
RTVSPost2010Prop28
280
     0
102
RTVSPost2010PropOp28
 70
     1
102
RTVSPost2010Prop29
280
     1
102
RTVSPost2010PropOp29
 70
     1
102
RTVSPost2010Prop30
280
     1
102
RTVSPost2010PropOp30
 70
     1
102
RTVSPost2010Prop31
280
     0
102
RTVSPost2010PropOp31
 70
     1
102
RTVSPost2010Prop32
280
     0
102
RTVSPost2010PropOp32
 70
     1
102
RTVSPost2010Prop33
280
     0
102
RTVSPost2010PropOp33
 70
     1
102
RTVSPost2010Prop34
280
     0
102
RTVSPost2010PropOp34
 70
     1
102
RTVSPost2010Prop35
280
     0
102
RTVSPost2010PropOp35
 70
     1
102
RTVSPost2010Prop36
280
     0
102
RTVSPost2010PropOp36
 70
     1
102
RTVSPost2010Prop37
 90
       50
102
RTVSPost2010PropOp37
 70
     1
102
RTVSPost2010Prop38
140
0.0
102
RTVSPost2010PropOp38
 70
     1
102
RTVSPost2010Prop39
140
1.0
102
RTVSPost2010PropOp39
 70
     1
102
RTVSPost2010Prop40
 90
        0
102
RTVSPost2010PropOp40
 70
     1
102
RTVSPost2010Prop41ColorIndex
 90
       18
102
RTVSPost2010Prop41ColorRGB
 90
        0
102
RTVSPost2010PropOp41
 70
     1
102
RTVSPost2010Prop42
 90
       50
102
RTVSPost2010PropOp42
 70
     1
102
RTVSPost2010Prop43
 90
        3
102
RTVSPost2010PropOp43
 70
     1
102
RTVSPost2010Prop44ColorIndex
 90
        5
102
RTVSPost2010Prop44ColorRGB
 90
      255
102
RTVSPost2010PropOp44
 70
     1
102
RTVSPost2010Prop45
280
     0
102
RTVSPost2010PropOp45
 70
     1
102
RTVSPost2010Prop46
 90
       50
102
RTVSPost2010PropOp46
 70
     1
102
RTVSPost2010Prop47
 90
       50
102
RTVSPost2010PropOp47
 70
     1
102
RTVSPost2010Prop48
 90
       50
102
RTVSPost2010PropOp48
 70
     1
102
RTVSPost2010Prop49
280
     0
102
RTVSPost2010PropOp49
 70
     1
102
RTVSPost2010Prop50
 90
       50
102
RTVSPost2010PropOp50
 70
     1
102
RTVSPost2010Prop51ColorIndex
 90
      256
102
RTVSPost2010Prop51ColorRGB
 90
-16777216
102
RTVSPost2010PropOp51
 70
     0
102
RTVSPost2010Prop52
140
1.0
102
RTVSPost2010PropOp52
 70
     0
102
RTVSPost2010Prop53
 90
        2
102
RTVSPost2010PropOp53
 70
     1
102
RTVSPost2010Prop54
  1
strokes_ogs.tif
102
RTVSPost2010PropOp54
 70
     1
102
RTVSPost2010Prop55
280
     0
102
RTVSPost2010PropOp55
 70
     1
102
RTVSPost2010Prop56
140
1.0
102
RTVSPost2010PropOp56
 70
     1
102
RTVSPost2010Prop57
140
1.0
102
RTVSPost2010PropOp57
 70
     1
102
RTVSPropertyOp0
 70
     1
102
RTVSPropertyOp1
 70
     1
102
RTVSPropertyOp2
 70
     1
102
RTVSPropertyOp3
 70
     1
102
RTVSPropertyOp4
 70
     1
102
RTVSPropertyOp5
 70
     1
102
RTVSPropertyOp6
 70
     1
102
RTVSPropertyOp7
 70
     1
102
RTVSPropertyOp8
 70
     1
102
RTVSPropertyOp9
 70
     1
102
RTVSPropertyOp10
 70
     1
102
RTVSPropertyOp11
 70
     1
102
RTVSPropertyOp12
 70
     1
102
RTVSPropertyOp13
 70
     1
102
RTVSPropertyOp14
 70
     1
102
RTVSPropertyOp15
 70
     1
102
RTVSPropertyOp16
 70
     1
102
RTVSPropertyOp17
 70
     1
102
RTVSPropertyOp18
 70
     1
102
RTVSPropertyOp19
 70
     1
102
RTVSPropertyOp20
 70
     1
102
RTVSPropertyOp21
 70
     1
102
RTVSPropertyOp22
 70
     1
102
RTVSPropertyOp23
 70
     1
102
RTVSPropertyOp24
 70
     1
102
RTVSPropertyOp25
 70
     1
102
RTVSPropertyOp26
 70
     1
102
RTVSPropertyOp27
 70
     1
102
RTVSPropertyOp28
 70
     1
102
RTVSPropertyOp29
 70
     1
102
RTVSPropertyOp30
 70
     1
102
RTVSPropertyOp31
 70
     1
102
RTVSPropertyOp32
 70
     1
102
RTVSPropertyOp33
 70
     1
102
RTVSPropertyOp34
 70
     1
102
RTVSPropertyOp35
 70
     1
102
RTVSPropertyOp36
 70
     1
102
RTVSPropertyOp37
 70
     1
102
RTVSPropertyOp38
 70
     1
102
RTVSPropertyOp39
 70
     1
102
RTVSPropertyOp40
 70
     1
102
RTVSPropertyOp41
 70
     1
102
RTVSPropertyOp42
 70
     1
102
RTVSPropertyOp43
 70
     1
102
RTVSPropertyOp44
 70
     1
102
RTVSPropertyOp45
 70
     1
102
RTVSPropertyOp46
 70
     1
102
RTVSPropertyOp47
 70
     1
102
RTVSPropertyOp48
 70
     1
102
RTVSPropertyOp49
 70
     1
102
RTVSPropertyOp50
 70
     1
102
RTVSPropertyOp51
 70
     0
102
RTVSPropertyOp52
 70
     0
102
RTVSPropertyOp53
 70
     1
102
RTVSPropertyOp54
 70
     1
102
RTVSPropertyOp55
 70
     1
102
RTVSPropertyOp56
 70
     1
102
RTVSPropertyOp57
 70
     1
102
RTVSPropertyOp58
 70
     1
102
RTVSPropertyOp59
 70
     1
102
RTVSPropertyOp60
 70
     1
102
RTVSPropertyOp61
 70
     1
102
RTVSPropertyOp62
 70
     1
  0
XRECORD
  5
E8657
102
{ACAD_REACTORS
330
E8656
102
}
330
E8656
100
AcDbXrecord
280
     1
102
RTVSPost2010Prop28
280
     0
102
RTVSPost2010PropOp28
 70
     1
102
RTVSPost2010Prop29
280
     1
102
RTVSPost2010PropOp29
 70
     1
102
RTVSPost2010Prop30
280
     1
102
RTVSPost2010PropOp30
 70
     1
102
RTVSPost2010Prop31
280
     0
102
RTVSPost2010PropOp31
 70
     1
102
RTVSPost2010Prop32
280
     0
102
RTVSPost2010PropOp32
 70
     1
102
RTVSPost2010Prop33
280
     0
102
RTVSPost2010PropOp33
 70
     1
102
RTVSPost2010Prop34
280
     0
102
RTVSPost2010PropOp34
 70
     1
102
RTVSPost2010Prop35
280
     0
102
RTVSPost2010PropOp35
 70
     1
102
RTVSPost2010Prop36
280
     0
102
RTVSPost2010PropOp36
 70
     1
102
RTVSPost2010Prop37
 90
       50
102
RTVSPost2010PropOp37
 70
     1
102
RTVSPost2010Prop38
140
0.0
102
RTVSPost2010PropOp38
 70
     1
102
RTVSPost2010Prop39
140
1.0
102
RTVSPost2010PropOp39
 70
     1
102
RTVSPost2010Prop40
 90
        0
102
RTVSPost2010PropOp40
 70
     1
102
RTVSPost2010Prop41ColorIndex
 90
       18
102
RTVSPost2010Prop41ColorRGB
 90
        0
102
RTVSPost2010PropOp41
 70
     1
102
RTVSPost2010Prop42
 90
       50
102
RTVSPost2010PropOp42
 70
     1
102
RTVSPost2010Prop43
 90
        3
102
RTVSPost2010PropOp43
 70
     1
102
RTVSPost2010Prop44ColorIndex
 90
        5
102
RTVSPost2010Prop44ColorRGB
 90
      255
102
RTVSPost2010PropOp44
 70
     1
102
RTVSPost2010Prop45
280
     0
102
RTVSPost2010PropOp45
 70
     1
102
RTVSPost2010Prop46
 90
       50
102
RTVSPost2010PropOp46
 70
     1
102
RTVSPost2010Prop47
 90
       50
102
RTVSPost2010PropOp47
 70
     1
102
RTVSPost2010Prop48
 90
       50
102
RTVSPost2010PropOp48
 70
     1
102
RTVSPost2010Prop49
280
     0
102
RTVSPost2010PropOp49
 70
     1
102
RTVSPost2010Prop50
 90
       50
102
RTVSPost2010PropOp50
 70
     1
102
RTVSPost2010Prop51ColorIndex
 90
      256
102
RTVSPost2010Prop51ColorRGB
 90
-16777216
102
RTVSPost2010PropOp51
 70
     0
102
RTVSPost2010Prop52
140
1.0
102
RTVSPost2010PropOp52
 70
     0
102
RTVSPost2010Prop53
 90
        2
102
RTVSPost2010PropOp53
 70
     1
102
RTVSPost2010Prop54
  1
strokes_ogs.tif
102
RTVSPost2010PropOp54
 70
     1
102
RTVSPost2010Prop55
280
     0
102
RTVSPost2010PropOp55
 70
     1
102
RTVSPost2010Prop56
140
1.0
102
RTVSPost2010PropOp56
 70
     1
102
RTVSPost2010Prop57
140
1.0
102
RTVSPost2010PropOp57
 70
     1
102
RTVSPropertyOp0
 70
     0
102
RTVSPropertyOp1
 70
     0
102
RTVSPropertyOp2
 70
     0
102
RTVSPropertyOp3
 70
     0
102
RTVSPropertyOp4
 70
     0
102
RTVSPropertyOp5
 70
     0
102
RTVSPropertyOp6
 70
     0
102
RTVSPropertyOp7
 70
     0
102
RTVSPropertyOp8
 70
     0
102
RTVSPropertyOp9
 70
     0
102
RTVSPropertyOp10
 70
     0
102
RTVSPropertyOp11
 70
     0
102
RTVSPropertyOp12
 70
     0
102
RTVSPropertyOp13
 70
     0
102
RTVSPropertyOp14
 70
     2
102
RTVSPropertyOp15
 70
     0
102
RTVSPropertyOp16
 70
     0
102
RTVSPropertyOp17
 70
     0
102
RTVSPropertyOp18
 70
     0
102
RTVSPropertyOp19
 70
     0
102
RTVSPropertyOp20
 70
     0
102
RTVSPropertyOp21
 70
     0
102
RTVSPropertyOp22
 70
     0
102
RTVSPropertyOp23
 70
     0
102
RTVSPropertyOp24
 70
     0
102
RTVSPropertyOp25
 70
     0
102
RTVSPropertyOp26
 70
     0
102
RTVSPropertyOp27
 70
     0
102
RTVSPropertyOp28
 70
     1
102
RTVSPropertyOp29
 70
     1
102
RTVSPropertyOp30
 70
     1
102
RTVSPropertyOp31
 70
     1
102
RTVSPropertyOp32
 70
     1
102
RTVSPropertyOp33
 70
     1
102
RTVSPropertyOp34
 70
     1
102
RTVSPropertyOp35
 70
     1
102
RTVSPropertyOp36
 70
     1
102
RTVSPropertyOp37
 70
     1
102
RTVSPropertyOp38
 70
     1
102
RTVSPropertyOp39
 70
     1
102
RTVSPropertyOp40
 70
     1
102
RTVSPropertyOp41
 70
     1
102
RTVSPropertyOp42
 70
     1
102
RTVSPropertyOp43
 70
     1
102
RTVSPropertyOp44
 70
     1
102
RTVSPropertyOp45
 70
     1
102
RTVSPropertyOp46
 70
     1
102
RTVSPropertyOp47
 70
     1
102
RTVSPropertyOp48
 70
     1
102
RTVSPropertyOp49
 70
     1
102
RTVSPropertyOp50
 70
     1
102
RTVSPropertyOp51
 70
     0
102
RTVSPropertyOp52
 70
     0
102
RTVSPropertyOp53
 70
     1
102
RTVSPropertyOp54
 70
     1
102
RTVSPropertyOp55
 70
     1
102
RTVSPropertyOp56
 70
     1
102
RTVSPropertyOp57
 70
     1
102
RTVSPropertyOp58
 70
     1
102
RTVSPropertyOp59
 70
     1
102
RTVSPropertyOp60
 70
     1
102
RTVSPropertyOp61
 70
     1
102
RTVSPropertyOp62
 70
     1
  0
XRECORD
  5
E864F
102
{ACAD_REACTORS
330
E864E
102
}
330
E864E
100
AcDbXrecord
280
     1
102
RTVSPost2010Prop28
280
     0
102
RTVSPost2010PropOp28
 70
     1
102
RTVSPost2010Prop29
280
     1
102
RTVSPost2010PropOp29
 70
     1
102
RTVSPost2010Prop30
280
     1
102
RTVSPost2010PropOp30
 70
     1
102
RTVSPost2010Prop31
280
     0
102
RTVSPost2010PropOp31
 70
     1
102
RTVSPost2010Prop32
280
     0
102
RTVSPost2010PropOp32
 70
     1
102
RTVSPost2010Prop33
280
     0
102
RTVSPost2010PropOp33
 70
     1
102
RTVSPost2010Prop34
280
     0
102
RTVSPost2010PropOp34
 70
     1
102
RTVSPost2010Prop35
280
     0
102
RTVSPost2010PropOp35
 70
     1
102
RTVSPost2010Prop36
280
     0
102
RTVSPost2010PropOp36
 70
     1
102
RTVSPost2010Prop37
 90
       50
102
RTVSPost2010PropOp37
 70
     1
102
RTVSPost2010Prop38
140
0.0
102
RTVSPost2010PropOp38
 70
     1
102
RTVSPost2010Prop39
140
1.0
102
RTVSPost2010PropOp39
 70
     1
102
RTVSPost2010Prop40
 90
        0
102
RTVSPost2010PropOp40
 70
     1
102
RTVSPost2010Prop41ColorIndex
 90
       18
102
RTVSPost2010Prop41ColorRGB
 90
        0
102
RTVSPost2010PropOp41
 70
     1
102
RTVSPost2010Prop42
 90
       50
102
RTVSPost2010PropOp42
 70
     1
102
RTVSPost2010Prop43
 90
        3
102
RTVSPost2010PropOp43
 70
     1
102
RTVSPost2010Prop44ColorIndex
 90
        5
102
RTVSPost2010Prop44ColorRGB
 90
      255
102
RTVSPost2010PropOp44
 70
     1
102
RTVSPost2010Prop45
280
     0
102
RTVSPost2010PropOp45
 70
     1
102
RTVSPost2010Prop46
 90
       50
102
RTVSPost2010PropOp46
 70
     1
102
RTVSPost2010Prop47
 90
       50
102
RTVSPost2010PropOp47
 70
     1
102
RTVSPost2010Prop48
 90
       50
102
RTVSPost2010PropOp48
 70
     1
102
RTVSPost2010Prop49
280
     0
102
RTVSPost2010PropOp49
 70
     1
102
RTVSPost2010Prop50
 90
       50
102
RTVSPost2010PropOp50
 70
     1
102
RTVSPost2010Prop51ColorIndex
 90
      256
102
RTVSPost2010Prop51ColorRGB
 90
-16777216
102
RTVSPost2010PropOp51
 70
     0
102
RTVSPost2010Prop52
140
1.0
102
RTVSPost2010PropOp52
 70
     0
102
RTVSPost2010Prop53
 90
        2
102
RTVSPost2010PropOp53
 70
     1
102
RTVSPost2010Prop54
  1
strokes_ogs.tif
102
RTVSPost2010PropOp54
 70
     1
102
RTVSPost2010Prop55
280
     0
102
RTVSPost2010PropOp55
 70
     1
102
RTVSPost2010Prop56
140
1.0
102
RTVSPost2010PropOp56
 70
     1
102
RTVSPost2010Prop57
140
1.0
102
RTVSPost2010PropOp57
 70
     1
102
RTVSPropertyOp0
 70
     1
102
RTVSPropertyOp1
 70
     1
102
RTVSPropertyOp2
 70
     1
102
RTVSPropertyOp3
 70
     1
102
RTVSPropertyOp4
 70
     1
102
RTVSPropertyOp5
 70
     1
102
RTVSPropertyOp6
 70
     1
102
RTVSPropertyOp7
 70
     1
102
RTVSPropertyOp8
 70
     1
102
RTVSPropertyOp9
 70
     1
102
RTVSPropertyOp10
 70
     1
102
RTVSPropertyOp11
 70
     1
102
RTVSPropertyOp12
 70
     1
102
RTVSPropertyOp13
 70
     1
102
RTVSPropertyOp14
 70
     1
102
RTVSPropertyOp15
 70
     1
102
RTVSPropertyOp16
 70
     1
102
RTVSPropertyOp17
 70
     1
102
RTVSPropertyOp18
 70
     1
102
RTVSPropertyOp19
 70
     1
102
RTVSPropertyOp20
 70
     1
102
RTVSPropertyOp21
 70
     1
102
RTVSPropertyOp22
 70
     1
102
RTVSPropertyOp23
 70
     1
102
RTVSPropertyOp24
 70
     1
102
RTVSPropertyOp25
 70
     1
102
RTVSPropertyOp26
 70
     1
102
RTVSPropertyOp27
 70
     1
102
RTVSPropertyOp28
 70
     1
102
RTVSPropertyOp29
 70
     1
102
RTVSPropertyOp30
 70
     1
102
RTVSPropertyOp31
 70
     1
102
RTVSPropertyOp32
 70
     1
102
RTVSPropertyOp33
 70
     1
102
RTVSPropertyOp34
 70
     1
102
RTVSPropertyOp35
 70
     1
102
RTVSPropertyOp36
 70
     1
102
RTVSPropertyOp37
 70
     1
102
RTVSPropertyOp38
 70
     1
102
RTVSPropertyOp39
 70
     1
102
RTVSPropertyOp40
 70
     1
102
RTVSPropertyOp41
 70
     1
102
RTVSPropertyOp42
 70
     1
102
RTVSPropertyOp43
 70
     1
102
RTVSPropertyOp44
 70
     1
102
RTVSPropertyOp45
 70
     1
102
RTVSPropertyOp46
 70
     1
102
RTVSPropertyOp47
 70
     1
102
RTVSPropertyOp48
 70
     1
102
RTVSPropertyOp49
 70
     1
102
RTVSPropertyOp50
 70
     1
102
RTVSPropertyOp51
 70
     0
102
RTVSPropertyOp52
 70
     0
102
RTVSPropertyOp53
 70
     1
102
RTVSPropertyOp54
 70
     1
102
RTVSPropertyOp55
 70
     1
102
RTVSPropertyOp56
 70
     1
102
RTVSPropertyOp57
 70
     1
102
RTVSPropertyOp58
 70
     1
102
RTVSPropertyOp59
 70
     1
102
RTVSPropertyOp60
 70
     1
102
RTVSPropertyOp61
 70
     1
102
RTVSPropertyOp62
 70
     1
  0
XRECORD
  5
E8633
102
{ACAD_REACTORS
330
E8632
102
}
330
E8632
100
AcDbXrecord
280
     1
102
RTVSPost2010Prop28
280
     0
102
RTVSPost2010PropOp28
 70
     1
102
RTVSPost2010Prop29
280
     1
102
RTVSPost2010PropOp29
 70
     1
102
RTVSPost2010Prop30
280
     1
102
RTVSPost2010PropOp30
 70
     1
102
RTVSPost2010Prop31
280
     0
102
RTVSPost2010PropOp31
 70
     1
102
RTVSPost2010Prop32
280
     0
102
RTVSPost2010PropOp32
 70
     1
102
RTVSPost2010Prop33
280
     0
102
RTVSPost2010PropOp33
 70
     1
102
RTVSPost2010Prop34
280
     0
102
RTVSPost2010PropOp34
 70
     1
102
RTVSPost2010Prop35
280
     0
102
RTVSPost2010PropOp35
 70
     1
102
RTVSPost2010Prop36
280
     0
102
RTVSPost2010PropOp36
 70
     1
102
RTVSPost2010Prop37
 90
       50
102
RTVSPost2010PropOp37
 70
     1
102
RTVSPost2010Prop38
140
0.0
102
RTVSPost2010PropOp38
 70
     1
102
RTVSPost2010Prop39
140
1.0
102
RTVSPost2010PropOp39
 70
     1
102
RTVSPost2010Prop40
 90
        0
102
RTVSPost2010PropOp40
 70
     1
102
RTVSPost2010Prop41ColorIndex
 90
       18
102
RTVSPost2010Prop41ColorRGB
 90
        0
102
RTVSPost2010PropOp41
 70
     1
102
RTVSPost2010Prop42
 90
       50
102
RTVSPost2010PropOp42
 70
     1
102
RTVSPost2010Prop43
 90
        3
102
RTVSPost2010PropOp43
 70
     1
102
RTVSPost2010Prop44ColorIndex
 90
        5
102
RTVSPost2010Prop44ColorRGB
 90
      255
102
RTVSPost2010PropOp44
 70
     1
102
RTVSPost2010Prop45
280
     0
102
RTVSPost2010PropOp45
 70
     1
102
RTVSPost2010Prop46
 90
       50
102
RTVSPost2010PropOp46
 70
     1
102
RTVSPost2010Prop47
 90
       50
102
RTVSPost2010PropOp47
 70
     1
102
RTVSPost2010Prop48
 90
       50
102
RTVSPost2010PropOp48
 70
     1
102
RTVSPost2010Prop49
280
     0
102
RTVSPost2010PropOp49
 70
     1
102
RTVSPost2010Prop50
 90
       50
102
RTVSPost2010PropOp50
 70
     1
102
RTVSPost2010Prop51ColorIndex
 90
      256
102
RTVSPost2010Prop51ColorRGB
 90
-16777216
102
RTVSPost2010PropOp51
 70
     0
102
RTVSPost2010Prop52
140
1.0
102
RTVSPost2010PropOp52
 70
     0
102
RTVSPost2010Prop53
 90
        2
102
RTVSPost2010PropOp53
 70
     1
102
RTVSPost2010Prop54
  1
strokes_ogs.tif
102
RTVSPost2010PropOp54
 70
     1
102
RTVSPost2010Prop55
280
     0
102
RTVSPost2010PropOp55
 70
     1
102
RTVSPost2010Prop56
140
1.0
102
RTVSPost2010PropOp56
 70
     1
102
RTVSPost2010Prop57
140
1.0
102
RTVSPost2010PropOp57
 70
     1
102
RTVSPropertyOp0
 70
     1
102
RTVSPropertyOp1
 70
     1
102
RTVSPropertyOp2
 70
     1
102
RTVSPropertyOp3
 70
     1
102
RTVSPropertyOp4
 70
     1
102
RTVSPropertyOp5
 70
     1
102
RTVSPropertyOp6
 70
     1
102
RTVSPropertyOp7
 70
     1
102
RTVSPropertyOp8
 70
     1
102
RTVSPropertyOp9
 70
     1
102
RTVSPropertyOp10
 70
     1
102
RTVSPropertyOp11
 70
     1
102
RTVSPropertyOp12
 70
     1
102
RTVSPropertyOp13
 70
     1
102
RTVSPropertyOp14
 70
     1
102
RTVSPropertyOp15
 70
     1
102
RTVSPropertyOp16
 70
     1
102
RTVSPropertyOp17
 70
     1
102
RTVSPropertyOp18
 70
     1
102
RTVSPropertyOp19
 70
     1
102
RTVSPropertyOp20
 70
     1
102
RTVSPropertyOp21
 70
     1
102
RTVSPropertyOp22
 70
     1
102
RTVSPropertyOp23
 70
     1
102
RTVSPropertyOp24
 70
     1
102
RTVSPropertyOp25
 70
     1
102
RTVSPropertyOp26
 70
     1
102
RTVSPropertyOp27
 70
     1
102
RTVSPropertyOp28
 70
     1
102
RTVSPropertyOp29
 70
     1
102
RTVSPropertyOp30
 70
     1
102
RTVSPropertyOp31
 70
     1
102
RTVSPropertyOp32
 70
     1
102
RTVSPropertyOp33
 70
     1
102
RTVSPropertyOp34
 70
     1
102
RTVSPropertyOp35
 70
     1
102
RTVSPropertyOp36
 70
     1
102
RTVSPropertyOp37
 70
     1
102
RTVSPropertyOp38
 70
     1
102
RTVSPropertyOp39
 70
     1
102
RTVSPropertyOp40
 70
     1
102
RTVSPropertyOp41
 70
     1
102
RTVSPropertyOp42
 70
     1
102
RTVSPropertyOp43
 70
     1
102
RTVSPropertyOp44
 70
     1
102
RTVSPropertyOp45
 70
     1
102
RTVSPropertyOp46
 70
     1
102
RTVSPropertyOp47
 70
     1
102
RTVSPropertyOp48
 70
     1
102
RTVSPropertyOp49
 70
     1
102
RTVSPropertyOp50
 70
     1
102
RTVSPropertyOp51
 70
     0
102
RTVSPropertyOp52
 70
     0
102
RTVSPropertyOp53
 70
     1
102
RTVSPropertyOp54
 70
     1
102
RTVSPropertyOp55
 70
     1
102
RTVSPropertyOp56
 70
     1
102
RTVSPropertyOp57
 70
     1
102
RTVSPropertyOp58
 70
     1
102
RTVSPropertyOp59
 70
     1
102
RTVSPropertyOp60
 70
     1
102
RTVSPropertyOp61
 70
     1
102
RTVSPropertyOp62
 70
     1
  0
XRECORD
  5
E8635
102
{ACAD_REACTORS
330
E8634
102
}
330
E8634
100
AcDbXrecord
280
     1
102
RTVSPost2010Prop28
280
     0
102
RTVSPost2010PropOp28
 70
     1
102
RTVSPost2010Prop29
280
     1
102
RTVSPost2010PropOp29
 70
     1
102
RTVSPost2010Prop30
280
     1
102
RTVSPost2010PropOp30
 70
     1
102
RTVSPost2010Prop31
280
     0
102
RTVSPost2010PropOp31
 70
     1
102
RTVSPost2010Prop32
280
     0
102
RTVSPost2010PropOp32
 70
     1
102
RTVSPost2010Prop33
280
     0
102
RTVSPost2010PropOp33
 70
     1
102
RTVSPost2010Prop34
280
     0
102
RTVSPost2010PropOp34
 70
     1
102
RTVSPost2010Prop35
280
     0
102
RTVSPost2010PropOp35
 70
     1
102
RTVSPost2010Prop36
280
     0
102
RTVSPost2010PropOp36
 70
     1
102
RTVSPost2010Prop37
 90
       50
102
RTVSPost2010PropOp37
 70
     1
102
RTVSPost2010Prop38
140
0.0
102
RTVSPost2010PropOp38
 70
     1
102
RTVSPost2010Prop39
140
1.0
102
RTVSPost2010PropOp39
 70
     1
102
RTVSPost2010Prop40
 90
        0
102
RTVSPost2010PropOp40
 70
     1
102
RTVSPost2010Prop41ColorIndex
 90
       18
102
RTVSPost2010Prop41ColorRGB
 90
        0
102
RTVSPost2010PropOp41
 70
     1
102
RTVSPost2010Prop42
 90
       50
102
RTVSPost2010PropOp42
 70
     1
102
RTVSPost2010Prop43
 90
        3
102
RTVSPost2010PropOp43
 70
     1
102
RTVSPost2010Prop44ColorIndex
 90
        5
102
RTVSPost2010Prop44ColorRGB
 90
      255
102
RTVSPost2010PropOp44
 70
     1
102
RTVSPost2010Prop45
280
     0
102
RTVSPost2010PropOp45
 70
     1
102
RTVSPost2010Prop46
 90
       50
102
RTVSPost2010PropOp46
 70
     1
102
RTVSPost2010Prop47
 90
       50
102
RTVSPost2010PropOp47
 70
     1
102
RTVSPost2010Prop48
 90
       50
102
RTVSPost2010PropOp48
 70
     1
102
RTVSPost2010Prop49
280
     0
102
RTVSPost2010PropOp49
 70
     1
102
RTVSPost2010Prop50
 90
       50
102
RTVSPost2010PropOp50
 70
     1
102
RTVSPost2010Prop51ColorIndex
 90
      256
102
RTVSPost2010Prop51ColorRGB
 90
-16777216
102
RTVSPost2010PropOp51
 70
     0
102
RTVSPost2010Prop52
140
1.0
102
RTVSPost2010PropOp52
 70
     0
102
RTVSPost2010Prop53
 90
        2
102
RTVSPost2010PropOp53
 70
     1
102
RTVSPost2010Prop54
  1
strokes_ogs.tif
102
RTVSPost2010PropOp54
 70
     1
102
RTVSPost2010Prop55
280
     0
102
RTVSPost2010PropOp55
 70
     1
102
RTVSPost2010Prop56
140
1.0
102
RTVSPost2010PropOp56
 70
     1
102
RTVSPost2010Prop57
140
1.0
102
RTVSPost2010PropOp57
 70
     1
102
RTVSPropertyOp0
 70
     1
102
RTVSPropertyOp1
 70
     1
102
RTVSPropertyOp2
 70
     1
102
RTVSPropertyOp3
 70
     1
102
RTVSPropertyOp4
 70
     1
102
RTVSPropertyOp5
 70
     1
102
RTVSPropertyOp6
 70
     1
102
RTVSPropertyOp7
 70
     1
102
RTVSPropertyOp8
 70
     1
102
RTVSPropertyOp9
 70
     1
102
RTVSPropertyOp10
 70
     1
102
RTVSPropertyOp11
 70
     1
102
RTVSPropertyOp12
 70
     1
102
RTVSPropertyOp13
 70
     1
102
RTVSPropertyOp14
 70
     1
102
RTVSPropertyOp15
 70
     1
102
RTVSPropertyOp16
 70
     1
102
RTVSPropertyOp17
 70
     1
102
RTVSPropertyOp18
 70
     1
102
RTVSPropertyOp19
 70
     1
102
RTVSPropertyOp20
 70
     1
102
RTVSPropertyOp21
 70
     1
102
RTVSPropertyOp22
 70
     1
102
RTVSPropertyOp23
 70
     1
102
RTVSPropertyOp24
 70
     1
102
RTVSPropertyOp25
 70
     1
102
RTVSPropertyOp26
 70
     1
102
RTVSPropertyOp27
 70
     1
102
RTVSPropertyOp28
 70
     1
102
RTVSPropertyOp29
 70
     1
102
RTVSPropertyOp30
 70
     1
102
RTVSPropertyOp31
 70
     1
102
RTVSPropertyOp32
 70
     1
102
RTVSPropertyOp33
 70
     1
102
RTVSPropertyOp34
 70
     1
102
RTVSPropertyOp35
 70
     1
102
RTVSPropertyOp36
 70
     1
102
RTVSPropertyOp37
 70
     1
102
RTVSPropertyOp38
 70
     1
102
RTVSPropertyOp39
 70
     1
102
RTVSPropertyOp40
 70
     1
102
RTVSPropertyOp41
 70
     1
102
RTVSPropertyOp42
 70
     1
102
RTVSPropertyOp43
 70
     1
102
RTVSPropertyOp44
 70
     1
102
RTVSPropertyOp45
 70
     1
102
RTVSPropertyOp46
 70
     1
102
RTVSPropertyOp47
 70
     1
102
RTVSPropertyOp48
 70
     1
102
RTVSPropertyOp49
 70
     1
102
RTVSPropertyOp50
 70
     1
102
RTVSPropertyOp51
 70
     0
102
RTVSPropertyOp52
 70
     0
102
RTVSPropertyOp53
 70
     1
102
RTVSPropertyOp54
 70
     1
102
RTVSPropertyOp55
 70
     1
102
RTVSPropertyOp56
 70
     1
102
RTVSPropertyOp57
 70
     1
102
RTVSPropertyOp58
 70
     1
102
RTVSPropertyOp59
 70
     1
102
RTVSPropertyOp60
 70
     1
102
RTVSPropertyOp61
 70
     1
102
RTVSPropertyOp62
 70
     1
  0
XRECORD
  5
E8637
102
{ACAD_REACTORS
330
E8636
102
}
330
E8636
100
AcDbXrecord
280
     1
102
RTVSPost2010Prop28
280
     0
102
RTVSPost2010PropOp28
 70
     1
102
RTVSPost2010Prop29
280
     1
102
RTVSPost2010PropOp29
 70
     1
102
RTVSPost2010Prop30
280
     1
102
RTVSPost2010PropOp30
 70
     1
102
RTVSPost2010Prop31
280
     0
102
RTVSPost2010PropOp31
 70
     1
102
RTVSPost2010Prop32
280
     0
102
RTVSPost2010PropOp32
 70
     1
102
RTVSPost2010Prop33
280
     0
102
RTVSPost2010PropOp33
 70
     1
102
RTVSPost2010Prop34
280
     0
102
RTVSPost2010PropOp34
 70
     1
102
RTVSPost2010Prop35
280
     0
102
RTVSPost2010PropOp35
 70
     1
102
RTVSPost2010Prop36
280
     0
102
RTVSPost2010PropOp36
 70
     1
102
RTVSPost2010Prop37
 90
       50
102
RTVSPost2010PropOp37
 70
     1
102
RTVSPost2010Prop38
140
0.0
102
RTVSPost2010PropOp38
 70
     1
102
RTVSPost2010Prop39
140
1.0
102
RTVSPost2010PropOp39
 70
     1
102
RTVSPost2010Prop40
 90
        0
102
RTVSPost2010PropOp40
 70
     1
102
RTVSPost2010Prop41ColorIndex
 90
       18
102
RTVSPost2010Prop41ColorRGB
 90
        0
102
RTVSPost2010PropOp41
 70
     1
102
RTVSPost2010Prop42
 90
       50
102
RTVSPost2010PropOp42
 70
     1
102
RTVSPost2010Prop43
 90
        3
102
RTVSPost2010PropOp43
 70
     1
102
RTVSPost2010Prop44ColorIndex
 90
        5
102
RTVSPost2010Prop44ColorRGB
 90
      255
102
RTVSPost2010PropOp44
 70
     1
102
RTVSPost2010Prop45
280
     0
102
RTVSPost2010PropOp45
 70
     1
102
RTVSPost2010Prop46
 90
       50
102
RTVSPost2010PropOp46
 70
     1
102
RTVSPost2010Prop47
 90
       50
102
RTVSPost2010PropOp47
 70
     1
102
RTVSPost2010Prop48
 90
       50
102
RTVSPost2010PropOp48
 70
     1
102
RTVSPost2010Prop49
280
     0
102
RTVSPost2010PropOp49
 70
     1
102
RTVSPost2010Prop50
 90
       50
102
RTVSPost2010PropOp50
 70
     1
102
RTVSPost2010Prop51ColorIndex
 90
      256
102
RTVSPost2010Prop51ColorRGB
 90
-16777216
102
RTVSPost2010PropOp51
 70
     0
102
RTVSPost2010Prop52
140
1.0
102
RTVSPost2010PropOp52
 70
     0
102
RTVSPost2010Prop53
 90
        2
102
RTVSPost2010PropOp53
 70
     1
102
RTVSPost2010Prop54
  1
strokes_ogs.tif
102
RTVSPost2010PropOp54
 70
     1
102
RTVSPost2010Prop55
280
     0
102
RTVSPost2010PropOp55
 70
     1
102
RTVSPost2010Prop56
140
1.0
102
RTVSPost2010PropOp56
 70
     1
102
RTVSPost2010Prop57
140
1.0
102
RTVSPost2010PropOp57
 70
     1
102
RTVSPropertyOp0
 70
     1
102
RTVSPropertyOp1
 70
     1
102
RTVSPropertyOp2
 70
     1
102
RTVSPropertyOp3
 70
     1
102
RTVSPropertyOp4
 70
     1
102
RTVSPropertyOp5
 70
     1
102
RTVSPropertyOp6
 70
     1
102
RTVSPropertyOp7
 70
     1
102
RTVSPropertyOp8
 70
     1
102
RTVSPropertyOp9
 70
     1
102
RTVSPropertyOp10
 70
     1
102
RTVSPropertyOp11
 70
     1
102
RTVSPropertyOp12
 70
     1
102
RTVSPropertyOp13
 70
     1
102
RTVSPropertyOp14
 70
     1
102
RTVSPropertyOp15
 70
     1
102
RTVSPropertyOp16
 70
     1
102
RTVSPropertyOp17
 70
     1
102
RTVSPropertyOp18
 70
     1
102
RTVSPropertyOp19
 70
     1
102
RTVSPropertyOp20
 70
     1
102
RTVSPropertyOp21
 70
     1
102
RTVSPropertyOp22
 70
     1
102
RTVSPropertyOp23
 70
     1
102
RTVSPropertyOp24
 70
     1
102
RTVSPropertyOp25
 70
     1
102
RTVSPropertyOp26
 70
     1
102
RTVSPropertyOp27
 70
     1
102
RTVSPropertyOp28
 70
     1
102
RTVSPropertyOp29
 70
     1
102
RTVSPropertyOp30
 70
     1
102
RTVSPropertyOp31
 70
     1
102
RTVSPropertyOp32
 70
     1
102
RTVSPropertyOp33
 70
     1
102
RTVSPropertyOp34
 70
     1
102
RTVSPropertyOp35
 70
     1
102
RTVSPropertyOp36
 70
     1
102
RTVSPropertyOp37
 70
     1
102
RTVSPropertyOp38
 70
     1
102
RTVSPropertyOp39
 70
     1
102
RTVSPropertyOp40
 70
     1
102
RTVSPropertyOp41
 70
     1
102
RTVSPropertyOp42
 70
     1
102
RTVSPropertyOp43
 70
     1
102
RTVSPropertyOp44
 70
     1
102
RTVSPropertyOp45
 70
     1
102
RTVSPropertyOp46
 70
     1
102
RTVSPropertyOp47
 70
     1
102
RTVSPropertyOp48
 70
     1
102
RTVSPropertyOp49
 70
     1
102
RTVSPropertyOp50
 70
     1
102
RTVSPropertyOp51
 70
     0
102
RTVSPropertyOp52
 70
     0
102
RTVSPropertyOp53
 70
     1
102
RTVSPropertyOp54
 70
     1
102
RTVSPropertyOp55
 70
     1
102
RTVSPropertyOp56
 70
     1
102
RTVSPropertyOp57
 70
     1
102
RTVSPropertyOp58
 70
     1
102
RTVSPropertyOp59
 70
     1
102
RTVSPropertyOp60
 70
     1
102
RTVSPropertyOp61
 70
     1
102
RTVSPropertyOp62
 70
     1
  0
XRECORD
  5
E8639
102
{ACAD_REACTORS
330
E8638
102
}
330
E8638
100
AcDbXrecord
280
     1
102
RTVSPost2010Prop28
280
     0
102
RTVSPost2010PropOp28
 70
     1
102
RTVSPost2010Prop29
280
     1
102
RTVSPost2010PropOp29
 70
     1
102
RTVSPost2010Prop30
280
     1
102
RTVSPost2010PropOp30
 70
     1
102
RTVSPost2010Prop31
280
     0
102
RTVSPost2010PropOp31
 70
     1
102
RTVSPost2010Prop32
280
     0
102
RTVSPost2010PropOp32
 70
     1
102
RTVSPost2010Prop33
280
     0
102
RTVSPost2010PropOp33
 70
     1
102
RTVSPost2010Prop34
280
     0
102
RTVSPost2010PropOp34
 70
     1
102
RTVSPost2010Prop35
280
     0
102
RTVSPost2010PropOp35
 70
     1
102
RTVSPost2010Prop36
280
     0
102
RTVSPost2010PropOp36
 70
     1
102
RTVSPost2010Prop37
 90
       50
102
RTVSPost2010PropOp37
 70
     1
102
RTVSPost2010Prop38
140
0.0
102
RTVSPost2010PropOp38
 70
     1
102
RTVSPost2010Prop39
140
1.0
102
RTVSPost2010PropOp39
 70
     1
102
RTVSPost2010Prop40
 90
        0
102
RTVSPost2010PropOp40
 70
     1
102
RTVSPost2010Prop41ColorIndex
 90
       18
102
RTVSPost2010Prop41ColorRGB
 90
        0
102
RTVSPost2010PropOp41
 70
     1
102
RTVSPost2010Prop42
 90
       50
102
RTVSPost2010PropOp42
 70
     1
102
RTVSPost2010Prop43
 90
        3
102
RTVSPost2010PropOp43
 70
     1
102
RTVSPost2010Prop44ColorIndex
 90
        5
102
RTVSPost2010Prop44ColorRGB
 90
      255
102
RTVSPost2010PropOp44
 70
     1
102
RTVSPost2010Prop45
280
     0
102
RTVSPost2010PropOp45
 70
     1
102
RTVSPost2010Prop46
 90
       50
102
RTVSPost2010PropOp46
 70
     1
102
RTVSPost2010Prop47
 90
       50
102
RTVSPost2010PropOp47
 70
     1
102
RTVSPost2010Prop48
 90
       50
102
RTVSPost2010PropOp48
 70
     1
102
RTVSPost2010Prop49
280
     0
102
RTVSPost2010PropOp49
 70
     1
102
RTVSPost2010Prop50
 90
       50
102
RTVSPost2010PropOp50
 70
     1
102
RTVSPost2010Prop51ColorIndex
 90
      256
102
RTVSPost2010Prop51ColorRGB
 90
-16777216
102
RTVSPost2010PropOp51
 70
     0
102
RTVSPost2010Prop52
140
1.0
102
RTVSPost2010PropOp52
 70
     0
102
RTVSPost2010Prop53
 90
        2
102
RTVSPost2010PropOp53
 70
     1
102
RTVSPost2010Prop54
  1
strokes_ogs.tif
102
RTVSPost2010PropOp54
 70
     1
102
RTVSPost2010Prop55
280
     0
102
RTVSPost2010PropOp55
 70
     1
102
RTVSPost2010Prop56
140
1.0
102
RTVSPost2010PropOp56
 70
     1
102
RTVSPost2010Prop57
140
1.0
102
RTVSPost2010PropOp57
 70
     1
102
RTVSPropertyOp0
 70
     1
102
RTVSPropertyOp1
 70
     1
102
RTVSPropertyOp2
 70
     1
102
RTVSPropertyOp3
 70
     1
102
RTVSPropertyOp4
 70
     1
102
RTVSPropertyOp5
 70
     1
102
RTVSPropertyOp6
 70
     1
102
RTVSPropertyOp7
 70
     1
102
RTVSPropertyOp8
 70
     1
102
RTVSPropertyOp9
 70
     1
102
RTVSPropertyOp10
 70
     1
102
RTVSPropertyOp11
 70
     1
102
RTVSPropertyOp12
 70
     1
102
RTVSPropertyOp13
 70
     1
102
RTVSPropertyOp14
 70
     1
102
RTVSPropertyOp15
 70
     1
102
RTVSPropertyOp16
 70
     1
102
RTVSPropertyOp17
 70
     1
102
RTVSPropertyOp18
 70
     1
102
RTVSPropertyOp19
 70
     1
102
RTVSPropertyOp20
 70
     1
102
RTVSPropertyOp21
 70
     1
102
RTVSPropertyOp22
 70
     1
102
RTVSPropertyOp23
 70
     1
102
RTVSPropertyOp24
 70
     1
102
RTVSPropertyOp25
 70
     1
102
RTVSPropertyOp26
 70
     1
102
RTVSPropertyOp27
 70
     1
102
RTVSPropertyOp28
 70
     1
102
RTVSPropertyOp29
 70
     1
102
RTVSPropertyOp30
 70
     1
102
RTVSPropertyOp31
 70
     1
102
RTVSPropertyOp32
 70
     1
102
RTVSPropertyOp33
 70
     1
102
RTVSPropertyOp34
 70
     1
102
RTVSPropertyOp35
 70
     1
102
RTVSPropertyOp36
 70
     1
102
RTVSPropertyOp37
 70
     1
102
RTVSPropertyOp38
 70
     1
102
RTVSPropertyOp39
 70
     1
102
RTVSPropertyOp40
 70
     1
102
RTVSPropertyOp41
 70
     1
102
RTVSPropertyOp42
 70
     1
102
RTVSPropertyOp43
 70
     1
102
RTVSPropertyOp44
 70
     1
102
RTVSPropertyOp45
 70
     1
102
RTVSPropertyOp46
 70
     1
102
RTVSPropertyOp47
 70
     1
102
RTVSPropertyOp48
 70
     1
102
RTVSPropertyOp49
 70
     1
102
RTVSPropertyOp50
 70
     1
102
RTVSPropertyOp51
 70
     0
102
RTVSPropertyOp52
 70
     0
102
RTVSPropertyOp53
 70
     1
102
RTVSPropertyOp54
 70
     1
102
RTVSPropertyOp55
 70
     1
102
RTVSPropertyOp56
 70
     1
102
RTVSPropertyOp57
 70
     1
102
RTVSPropertyOp58
 70
     1
102
RTVSPropertyOp59
 70
     1
102
RTVSPropertyOp60
 70
     1
102
RTVSPropertyOp61
 70
     1
102
RTVSPropertyOp62
 70
     1
  0
XRECORD
  5
E865C
102
{ACAD_REACTORS
330
E865B
102
}
330
E865B
100
AcDbXrecord
280
     1
102
RTVSPost2010Prop28
280
     0
102
RTVSPost2010PropOp28
 70
     1
102
RTVSPost2010Prop29
280
     1
102
RTVSPost2010PropOp29
 70
     1
102
RTVSPost2010Prop30
280
     1
102
RTVSPost2010PropOp30
 70
     1
102
RTVSPost2010Prop31
280
     0
102
RTVSPost2010PropOp31
 70
     1
102
RTVSPost2010Prop32
280
     0
102
RTVSPost2010PropOp32
 70
     1
102
RTVSPost2010Prop33
280
     0
102
RTVSPost2010PropOp33
 70
     1
102
RTVSPost2010Prop34
280
     0
102
RTVSPost2010PropOp34
 70
     1
102
RTVSPost2010Prop35
280
     0
102
RTVSPost2010PropOp35
 70
     1
102
RTVSPost2010Prop36
280
     0
102
RTVSPost2010PropOp36
 70
     1
102
RTVSPost2010Prop37
 90
       50
102
RTVSPost2010PropOp37
 70
     1
102
RTVSPost2010Prop38
140
0.0
102
RTVSPost2010PropOp38
 70
     1
102
RTVSPost2010Prop39
140
1.0
102
RTVSPost2010PropOp39
 70
     1
102
RTVSPost2010Prop40
 90
        0
102
RTVSPost2010PropOp40
 70
     1
102
RTVSPost2010Prop41ColorIndex
 90
       18
102
RTVSPost2010Prop41ColorRGB
 90
        0
102
RTVSPost2010PropOp41
 70
     1
102
RTVSPost2010Prop42
 90
       50
102
RTVSPost2010PropOp42
 70
     1
102
RTVSPost2010Prop43
 90
        3
102
RTVSPost2010PropOp43
 70
     1
102
RTVSPost2010Prop44ColorIndex
 90
        5
102
RTVSPost2010Prop44ColorRGB
 90
      255
102
RTVSPost2010PropOp44
 70
     1
102
RTVSPost2010Prop45
280
     0
102
RTVSPost2010PropOp45
 70
     1
102
RTVSPost2010Prop46
 90
       50
102
RTVSPost2010PropOp46
 70
     1
102
RTVSPost2010Prop47
 90
       50
102
RTVSPost2010PropOp47
 70
     1
102
RTVSPost2010Prop48
 90
       50
102
RTVSPost2010PropOp48
 70
     1
102
RTVSPost2010Prop49
280
     0
102
RTVSPost2010PropOp49
 70
     1
102
RTVSPost2010Prop50
 90
       50
102
RTVSPost2010PropOp50
 70
     1
102
RTVSPost2010Prop51ColorIndex
 90
      256
102
RTVSPost2010Prop51ColorRGB
 90
-16777216
102
RTVSPost2010PropOp51
 70
     0
102
RTVSPost2010Prop52
140
1.0
102
RTVSPost2010PropOp52
 70
     0
102
RTVSPost2010Prop53
 90
        2
102
RTVSPost2010PropOp53
 70
     1
102
RTVSPost2010Prop54
  1
strokes_ogs.tif
102
RTVSPost2010PropOp54
 70
     1
102
RTVSPost2010Prop55
280
     0
102
RTVSPost2010PropOp55
 70
     1
102
RTVSPost2010Prop56
140
1.0
102
RTVSPost2010PropOp56
 70
     1
102
RTVSPost2010Prop57
140
1.0
102
RTVSPost2010PropOp57
 70
     1
102
RTVSPropertyOp0
 70
     1
102
RTVSPropertyOp1
 70
     1
102
RTVSPropertyOp2
 70
     1
102
RTVSPropertyOp3
 70
     1
102
RTVSPropertyOp4
 70
     1
102
RTVSPropertyOp5
 70
     1
102
RTVSPropertyOp6
 70
     1
102
RTVSPropertyOp7
 70
     1
102
RTVSPropertyOp8
 70
     1
102
RTVSPropertyOp9
 70
     1
102
RTVSPropertyOp10
 70
     1
102
RTVSPropertyOp11
 70
     1
102
RTVSPropertyOp12
 70
     1
102
RTVSPropertyOp13
 70
     1
102
RTVSPropertyOp14
 70
     1
102
RTVSPropertyOp15
 70
     1
102
RTVSPropertyOp16
 70
     1
102
RTVSPropertyOp17
 70
     1
102
RTVSPropertyOp18
 70
     1
102
RTVSPropertyOp19
 70
     1
102
RTVSPropertyOp20
 70
     1
102
RTVSPropertyOp21
 70
     1
102
RTVSPropertyOp22
 70
     1
102
RTVSPropertyOp23
 70
     1
102
RTVSPropertyOp24
 70
     1
102
RTVSPropertyOp25
 70
     1
102
RTVSPropertyOp26
 70
     1
102
RTVSPropertyOp27
 70
     1
102
RTVSPropertyOp28
 70
     1
102
RTVSPropertyOp29
 70
     1
102
RTVSPropertyOp30
 70
     1
102
RTVSPropertyOp31
 70
     1
102
RTVSPropertyOp32
 70
     1
102
RTVSPropertyOp33
 70
     1
102
RTVSPropertyOp34
 70
     1
102
RTVSPropertyOp35
 70
     1
102
RTVSPropertyOp36
 70
     1
102
RTVSPropertyOp37
 70
     1
102
RTVSPropertyOp38
 70
     1
102
RTVSPropertyOp39
 70
     1
102
RTVSPropertyOp40
 70
     1
102
RTVSPropertyOp41
 70
     1
102
RTVSPropertyOp42
 70
     1
102
RTVSPropertyOp43
 70
     1
102
RTVSPropertyOp44
 70
     1
102
RTVSPropertyOp45
 70
     1
102
RTVSPropertyOp46
 70
     1
102
RTVSPropertyOp47
 70
     1
102
RTVSPropertyOp48
 70
     1
102
RTVSPropertyOp49
 70
     1
102
RTVSPropertyOp50
 70
     1
102
RTVSPropertyOp51
 70
     0
102
RTVSPropertyOp52
 70
     0
102
RTVSPropertyOp53
 70
     1
102
RTVSPropertyOp54
 70
     1
102
RTVSPropertyOp55
 70
     1
102
RTVSPropertyOp56
 70
     1
102
RTVSPropertyOp57
 70
     1
102
RTVSPropertyOp58
 70
     1
102
RTVSPropertyOp59
 70
     1
102
RTVSPropertyOp60
 70
     1
102
RTVSPropertyOp61
 70
     1
102
RTVSPropertyOp62
 70
     1
  0
XRECORD
  5
E8653
102
{ACAD_REACTORS
330
E8652
102
}
330
E8652
100
AcDbXrecord
280
     1
102
RTVSPost2010Prop28
280
     0
102
RTVSPost2010PropOp28
 70
     1
102
RTVSPost2010Prop29
280
     1
102
RTVSPost2010PropOp29
 70
     1
102
RTVSPost2010Prop30
280
     1
102
RTVSPost2010PropOp30
 70
     1
102
RTVSPost2010Prop31
280
     0
102
RTVSPost2010PropOp31
 70
     1
102
RTVSPost2010Prop32
280
     0
102
RTVSPost2010PropOp32
 70
     1
102
RTVSPost2010Prop33
280
     0
102
RTVSPost2010PropOp33
 70
     1
102
RTVSPost2010Prop34
280
     0
102
RTVSPost2010PropOp34
 70
     1
102
RTVSPost2010Prop35
280
     0
102
RTVSPost2010PropOp35
 70
     1
102
RTVSPost2010Prop36
280
     0
102
RTVSPost2010PropOp36
 70
     1
102
RTVSPost2010Prop37
 90
       50
102
RTVSPost2010PropOp37
 70
     1
102
RTVSPost2010Prop38
140
0.0
102
RTVSPost2010PropOp38
 70
     1
102
RTVSPost2010Prop39
140
1.0
102
RTVSPost2010PropOp39
 70
     1
102
RTVSPost2010Prop40
 90
        0
102
RTVSPost2010PropOp40
 70
     1
102
RTVSPost2010Prop41ColorIndex
 90
       18
102
RTVSPost2010Prop41ColorRGB
 90
        0
102
RTVSPost2010PropOp41
 70
     1
102
RTVSPost2010Prop42
 90
       50
102
RTVSPost2010PropOp42
 70
     1
102
RTVSPost2010Prop43
 90
        3
102
RTVSPost2010PropOp43
 70
     1
102
RTVSPost2010Prop44ColorIndex
 90
        5
102
RTVSPost2010Prop44ColorRGB
 90
      255
102
RTVSPost2010PropOp44
 70
     1
102
RTVSPost2010Prop45
280
     0
102
RTVSPost2010PropOp45
 70
     1
102
RTVSPost2010Prop46
 90
       50
102
RTVSPost2010PropOp46
 70
     1
102
RTVSPost2010Prop47
 90
       50
102
RTVSPost2010PropOp47
 70
     1
102
RTVSPost2010Prop48
 90
       50
102
RTVSPost2010PropOp48
 70
     1
102
RTVSPost2010Prop49
280
     0
102
RTVSPost2010PropOp49
 70
     1
102
RTVSPost2010Prop50
 90
       50
102
RTVSPost2010PropOp50
 70
     1
102
RTVSPost2010Prop51ColorIndex
 90
      256
102
RTVSPost2010Prop51ColorRGB
 90
-16777216
102
RTVSPost2010PropOp51
 70
     0
102
RTVSPost2010Prop52
140
1.0
102
RTVSPost2010PropOp52
 70
     0
102
RTVSPost2010Prop53
 90
        2
102
RTVSPost2010PropOp53
 70
     1
102
RTVSPost2010Prop54
  1
strokes_ogs.tif
102
RTVSPost2010PropOp54
 70
     1
102
RTVSPost2010Prop55
280
     0
102
RTVSPost2010PropOp55
 70
     1
102
RTVSPost2010Prop56
140
1.0
102
RTVSPost2010PropOp56
 70
     1
102
RTVSPost2010Prop57
140
1.0
102
RTVSPost2010PropOp57
 70
     1
102
RTVSPropertyOp0
 70
     0
102
RTVSPropertyOp1
 70
     0
102
RTVSPropertyOp2
 70
     0
102
RTVSPropertyOp3
 70
     0
102
RTVSPropertyOp4
 70
     0
102
RTVSPropertyOp5
 70
     0
102
RTVSPropertyOp6
 70
     0
102
RTVSPropertyOp7
 70
     0
102
RTVSPropertyOp8
 70
     0
102
RTVSPropertyOp9
 70
     0
102
RTVSPropertyOp10
 70
     0
102
RTVSPropertyOp11
 70
     0
102
RTVSPropertyOp12
 70
     0
102
RTVSPropertyOp13
 70
     0
102
RTVSPropertyOp14
 70
     2
102
RTVSPropertyOp15
 70
     0
102
RTVSPropertyOp16
 70
     0
102
RTVSPropertyOp17
 70
     0
102
RTVSPropertyOp18
 70
     0
102
RTVSPropertyOp19
 70
     0
102
RTVSPropertyOp20
 70
     0
102
RTVSPropertyOp21
 70
     0
102
RTVSPropertyOp22
 70
     0
102
RTVSPropertyOp23
 70
     0
102
RTVSPropertyOp24
 70
     0
102
RTVSPropertyOp25
 70
     0
102
RTVSPropertyOp26
 70
     0
102
RTVSPropertyOp27
 70
     0
102
RTVSPropertyOp28
 70
     1
102
RTVSPropertyOp29
 70
     1
102
RTVSPropertyOp30
 70
     1
102
RTVSPropertyOp31
 70
     1
102
RTVSPropertyOp32
 70
     1
102
RTVSPropertyOp33
 70
     1
102
RTVSPropertyOp34
 70
     1
102
RTVSPropertyOp35
 70
     1
102
RTVSPropertyOp36
 70
     1
102
RTVSPropertyOp37
 70
     1
102
RTVSPropertyOp38
 70
     1
102
RTVSPropertyOp39
 70
     1
102
RTVSPropertyOp40
 70
     1
102
RTVSPropertyOp41
 70
     1
102
RTVSPropertyOp42
 70
     1
102
RTVSPropertyOp43
 70
     1
102
RTVSPropertyOp44
 70
     1
102
RTVSPropertyOp45
 70
     1
102
RTVSPropertyOp46
 70
     1
102
RTVSPropertyOp47
 70
     1
102
RTVSPropertyOp48
 70
     1
102
RTVSPropertyOp49
 70
     1
102
RTVSPropertyOp50
 70
     1
102
RTVSPropertyOp51
 70
     0
102
RTVSPropertyOp52
 70
     0
102
RTVSPropertyOp53
 70
     1
102
RTVSPropertyOp54
 70
     1
102
RTVSPropertyOp55
 70
     1
102
RTVSPropertyOp56
 70
     1
102
RTVSPropertyOp57
 70
     1
102
RTVSPropertyOp58
 70
     1
102
RTVSPropertyOp59
 70
     1
102
RTVSPropertyOp60
 70
     1
102
RTVSPropertyOp61
 70
     1
102
RTVSPropertyOp62
 70
     1
  0
XRECORD
  5
E864D
102
{ACAD_REACTORS
330
E864C
102
}
330
E864C
100
AcDbXrecord
280
     1
102
RTVSPost2010Prop28
280
     0
102
RTVSPost2010PropOp28
 70
     1
102
RTVSPost2010Prop29
280
     1
102
RTVSPost2010PropOp29
 70
     1
102
RTVSPost2010Prop30
280
     1
102
RTVSPost2010PropOp30
 70
     1
102
RTVSPost2010Prop31
280
     0
102
RTVSPost2010PropOp31
 70
     1
102
RTVSPost2010Prop32
280
     0
102
RTVSPost2010PropOp32
 70
     1
102
RTVSPost2010Prop33
280
     0
102
RTVSPost2010PropOp33
 70
     1
102
RTVSPost2010Prop34
280
     0
102
RTVSPost2010PropOp34
 70
     1
102
RTVSPost2010Prop35
280
     0
102
RTVSPost2010PropOp35
 70
     1
102
RTVSPost2010Prop36
280
     0
102
RTVSPost2010PropOp36
 70
     1
102
RTVSPost2010Prop37
 90
       50
102
RTVSPost2010PropOp37
 70
     1
102
RTVSPost2010Prop38
140
0.0
102
RTVSPost2010PropOp38
 70
     1
102
RTVSPost2010Prop39
140
1.0
102
RTVSPost2010PropOp39
 70
     1
102
RTVSPost2010Prop40
 90
        0
102
RTVSPost2010PropOp40
 70
     1
102
RTVSPost2010Prop41ColorIndex
 90
       18
102
RTVSPost2010Prop41ColorRGB
 90
        0
102
RTVSPost2010PropOp41
 70
     1
102
RTVSPost2010Prop42
 90
       50
102
RTVSPost2010PropOp42
 70
     1
102
RTVSPost2010Prop43
 90
        3
102
RTVSPost2010PropOp43
 70
     1
102
RTVSPost2010Prop44ColorIndex
 90
        5
102
RTVSPost2010Prop44ColorRGB
 90
      255
102
RTVSPost2010PropOp44
 70
     1
102
RTVSPost2010Prop45
280
     0
102
RTVSPost2010PropOp45
 70
     1
102
RTVSPost2010Prop46
 90
       50
102
RTVSPost2010PropOp46
 70
     1
102
RTVSPost2010Prop47
 90
       50
102
RTVSPost2010PropOp47
 70
     1
102
RTVSPost2010Prop48
 90
       50
102
RTVSPost2010PropOp48
 70
     1
102
RTVSPost2010Prop49
280
     0
102
RTVSPost2010PropOp49
 70
     1
102
RTVSPost2010Prop50
 90
       50
102
RTVSPost2010PropOp50
 70
     1
102
RTVSPost2010Prop51ColorIndex
 90
      256
102
RTVSPost2010Prop51ColorRGB
 90
-16777216
102
RTVSPost2010PropOp51
 70
     0
102
RTVSPost2010Prop52
140
1.0
102
RTVSPost2010PropOp52
 70
     0
102
RTVSPost2010Prop53
 90
        2
102
RTVSPost2010PropOp53
 70
     1
102
RTVSPost2010Prop54
  1
strokes_ogs.tif
102
RTVSPost2010PropOp54
 70
     1
102
RTVSPost2010Prop55
280
     0
102
RTVSPost2010PropOp55
 70
     1
102
RTVSPost2010Prop56
140
1.0
102
RTVSPost2010PropOp56
 70
     1
102
RTVSPost2010Prop57
140
1.0
102
RTVSPost2010PropOp57
 70
     1
102
RTVSPropertyOp0
 70
     1
102
RTVSPropertyOp1
 70
     1
102
RTVSPropertyOp2
 70
     1
102
RTVSPropertyOp3
 70
     1
102
RTVSPropertyOp4
 70
     1
102
RTVSPropertyOp5
 70
     1
102
RTVSPropertyOp6
 70
     1
102
RTVSPropertyOp7
 70
     1
102
RTVSPropertyOp8
 70
     1
102
RTVSPropertyOp9
 70
     1
102
RTVSPropertyOp10
 70
     1
102
RTVSPropertyOp11
 70
     1
102
RTVSPropertyOp12
 70
     1
102
RTVSPropertyOp13
 70
     1
102
RTVSPropertyOp14
 70
     1
102
RTVSPropertyOp15
 70
     1
102
RTVSPropertyOp16
 70
     1
102
RTVSPropertyOp17
 70
     1
102
RTVSPropertyOp18
 70
     1
102
RTVSPropertyOp19
 70
     1
102
RTVSPropertyOp20
 70
     1
102
RTVSPropertyOp21
 70
     1
102
RTVSPropertyOp22
 70
     1
102
RTVSPropertyOp23
 70
     1
102
RTVSPropertyOp24
 70
     1
102
RTVSPropertyOp25
 70
     1
102
RTVSPropertyOp26
 70
     1
102
RTVSPropertyOp27
 70
     1
102
RTVSPropertyOp28
 70
     1
102
RTVSPropertyOp29
 70
     1
102
RTVSPropertyOp30
 70
     1
102
RTVSPropertyOp31
 70
     1
102
RTVSPropertyOp32
 70
     1
102
RTVSPropertyOp33
 70
     1
102
RTVSPropertyOp34
 70
     1
102
RTVSPropertyOp35
 70
     1
102
RTVSPropertyOp36
 70
     1
102
RTVSPropertyOp37
 70
     1
102
RTVSPropertyOp38
 70
     1
102
RTVSPropertyOp39
 70
     1
102
RTVSPropertyOp40
 70
     1
102
RTVSPropertyOp41
 70
     1
102
RTVSPropertyOp42
 70
     1
102
RTVSPropertyOp43
 70
     1
102
RTVSPropertyOp44
 70
     1
102
RTVSPropertyOp45
 70
     1
102
RTVSPropertyOp46
 70
     1
102
RTVSPropertyOp47
 70
     1
102
RTVSPropertyOp48
 70
     1
102
RTVSPropertyOp49
 70
     1
102
RTVSPropertyOp50
 70
     1
102
RTVSPropertyOp51
 70
     0
102
RTVSPropertyOp52
 70
     0
102
RTVSPropertyOp53
 70
     1
102
RTVSPropertyOp54
 70
     1
102
RTVSPropertyOp55
 70
     1
102
RTVSPropertyOp56
 70
     1
102
RTVSPropertyOp57
 70
     1
102
RTVSPropertyOp58
 70
     1
102
RTVSPropertyOp59
 70
     1
102
RTVSPropertyOp60
 70
     1
102
RTVSPropertyOp61
 70
     1
102
RTVSPropertyOp62
 70
     1
  0
XRECORD
  5
E8655
102
{ACAD_REACTORS
330
E8654
102
}
330
E8654
100
AcDbXrecord
280
     1
102
RTVSPost2010Prop28
280
     0
102
RTVSPost2010PropOp28
 70
     1
102
RTVSPost2010Prop29
280
     1
102
RTVSPost2010PropOp29
 70
     1
102
RTVSPost2010Prop30
280
     1
102
RTVSPost2010PropOp30
 70
     1
102
RTVSPost2010Prop31
280
     0
102
RTVSPost2010PropOp31
 70
     1
102
RTVSPost2010Prop32
280
     0
102
RTVSPost2010PropOp32
 70
     1
102
RTVSPost2010Prop33
280
     0
102
RTVSPost2010PropOp33
 70
     1
102
RTVSPost2010Prop34
280
     0
102
RTVSPost2010PropOp34
 70
     1
102
RTVSPost2010Prop35
280
     0
102
RTVSPost2010PropOp35
 70
     1
102
RTVSPost2010Prop36
280
     0
102
RTVSPost2010PropOp36
 70
     1
102
RTVSPost2010Prop37
 90
       50
102
RTVSPost2010PropOp37
 70
     1
102
RTVSPost2010Prop38
140
0.0
102
RTVSPost2010PropOp38
 70
     1
102
RTVSPost2010Prop39
140
1.0
102
RTVSPost2010PropOp39
 70
     1
102
RTVSPost2010Prop40
 90
        0
102
RTVSPost2010PropOp40
 70
     1
102
RTVSPost2010Prop41ColorIndex
 90
       18
102
RTVSPost2010Prop41ColorRGB
 90
        0
102
RTVSPost2010PropOp41
 70
     1
102
RTVSPost2010Prop42
 90
       50
102
RTVSPost2010PropOp42
 70
     1
102
RTVSPost2010Prop43
 90
        3
102
RTVSPost2010PropOp43
 70
     1
102
RTVSPost2010Prop44ColorIndex
 90
        5
102
RTVSPost2010Prop44ColorRGB
 90
      255
102
RTVSPost2010PropOp44
 70
     1
102
RTVSPost2010Prop45
280
     0
102
RTVSPost2010PropOp45
 70
     1
102
RTVSPost2010Prop46
 90
       50
102
RTVSPost2010PropOp46
 70
     1
102
RTVSPost2010Prop47
 90
       50
102
RTVSPost2010PropOp47
 70
     1
102
RTVSPost2010Prop48
 90
       50
102
RTVSPost2010PropOp48
 70
     1
102
RTVSPost2010Prop49
280
     0
102
RTVSPost2010PropOp49
 70
     1
102
RTVSPost2010Prop50
 90
       50
102
RTVSPost2010PropOp50
 70
     1
102
RTVSPost2010Prop51ColorIndex
 90
      256
102
RTVSPost2010Prop51ColorRGB
 90
-16777216
102
RTVSPost2010PropOp51
 70
     0
102
RTVSPost2010Prop52
140
1.0
102
RTVSPost2010PropOp52
 70
     0
102
RTVSPost2010Prop53
 90
        2
102
RTVSPost2010PropOp53
 70
     1
102
RTVSPost2010Prop54
  1
strokes_ogs.tif
102
RTVSPost2010PropOp54
 70
     1
102
RTVSPost2010Prop55
280
     0
102
RTVSPost2010PropOp55
 70
     1
102
RTVSPost2010Prop56
140
1.0
102
RTVSPost2010PropOp56
 70
     1
102
RTVSPost2010Prop57
140
1.0
102
RTVSPost2010PropOp57
 70
     1
102
RTVSPropertyOp0
 70
     0
102
RTVSPropertyOp1
 70
     0
102
RTVSPropertyOp2
 70
     0
102
RTVSPropertyOp3
 70
     0
102
RTVSPropertyOp4
 70
     0
102
RTVSPropertyOp5
 70
     0
102
RTVSPropertyOp6
 70
     0
102
RTVSPropertyOp7
 70
     0
102
RTVSPropertyOp8
 70
     0
102
RTVSPropertyOp9
 70
     0
102
RTVSPropertyOp10
 70
     0
102
RTVSPropertyOp11
 70
     0
102
RTVSPropertyOp12
 70
     0
102
RTVSPropertyOp13
 70
     0
102
RTVSPropertyOp14
 70
     2
102
RTVSPropertyOp15
 70
     0
102
RTVSPropertyOp16
 70
     0
102
RTVSPropertyOp17
 70
     0
102
RTVSPropertyOp18
 70
     0
102
RTVSPropertyOp19
 70
     0
102
RTVSPropertyOp20
 70
     0
102
RTVSPropertyOp21
 70
     0
102
RTVSPropertyOp22
 70
     0
102
RTVSPropertyOp23
 70
     0
102
RTVSPropertyOp24
 70
     0
102
RTVSPropertyOp25
 70
     0
102
RTVSPropertyOp26
 70
     0
102
RTVSPropertyOp27
 70
     0
102
RTVSPropertyOp28
 70
     1
102
RTVSPropertyOp29
 70
     1
102
RTVSPropertyOp30
 70
     1
102
RTVSPropertyOp31
 70
     1
102
RTVSPropertyOp32
 70
     1
102
RTVSPropertyOp33
 70
     1
102
RTVSPropertyOp34
 70
     1
102
RTVSPropertyOp35
 70
     1
102
RTVSPropertyOp36
 70
     1
102
RTVSPropertyOp37
 70
     1
102
RTVSPropertyOp38
 70
     1
102
RTVSPropertyOp39
 70
     1
102
RTVSPropertyOp40
 70
     1
102
RTVSPropertyOp41
 70
     1
102
RTVSPropertyOp42
 70
     1
102
RTVSPropertyOp43
 70
     1
102
RTVSPropertyOp44
 70
     1
102
RTVSPropertyOp45
 70
     1
102
RTVSPropertyOp46
 70
     1
102
RTVSPropertyOp47
 70
     1
102
RTVSPropertyOp48
 70
     1
102
RTVSPropertyOp49
 70
     1
102
RTVSPropertyOp50
 70
     1
102
RTVSPropertyOp51
 70
     0
102
RTVSPropertyOp52
 70
     0
102
RTVSPropertyOp53
 70
     1
102
RTVSPropertyOp54
 70
     1
102
RTVSPropertyOp55
 70
     1
102
RTVSPropertyOp56
 70
     1
102
RTVSPropertyOp57
 70
     1
102
RTVSPropertyOp58
 70
     1
102
RTVSPropertyOp59
 70
     1
102
RTVSPropertyOp60
 70
     1
102
RTVSPropertyOp61
 70
     1
102
RTVSPropertyOp62
 70
     1
  0
XRECORD
  5
E8645
102
{ACAD_REACTORS
330
E8644
102
}
330
E8644
100
AcDbXrecord
280
     1
102
RTVSPost2010Prop28
280
     0
102
RTVSPost2010PropOp28
 70
     1
102
RTVSPost2010Prop29
280
     1
102
RTVSPost2010PropOp29
 70
     1
102
RTVSPost2010Prop30
280
     1
102
RTVSPost2010PropOp30
 70
     1
102
RTVSPost2010Prop31
280
     0
102
RTVSPost2010PropOp31
 70
     1
102
RTVSPost2010Prop32
280
     0
102
RTVSPost2010PropOp32
 70
     1
102
RTVSPost2010Prop33
280
     0
102
RTVSPost2010PropOp33
 70
     1
102
RTVSPost2010Prop34
280
     0
102
RTVSPost2010PropOp34
 70
     1
102
RTVSPost2010Prop35
280
     0
102
RTVSPost2010PropOp35
 70
     1
102
RTVSPost2010Prop36
280
     0
102
RTVSPost2010PropOp36
 70
     1
102
RTVSPost2010Prop37
 90
       50
102
RTVSPost2010PropOp37
 70
     1
102
RTVSPost2010Prop38
140
0.0
102
RTVSPost2010PropOp38
 70
     1
102
RTVSPost2010Prop39
140
1.0
102
RTVSPost2010PropOp39
 70
     1
102
RTVSPost2010Prop40
 90
        0
102
RTVSPost2010PropOp40
 70
     1
102
RTVSPost2010Prop41ColorIndex
 90
       18
102
RTVSPost2010Prop41ColorRGB
 90
        0
102
RTVSPost2010PropOp41
 70
     1
102
RTVSPost2010Prop42
 90
       50
102
RTVSPost2010PropOp42
 70
     1
102
RTVSPost2010Prop43
 90
        3
102
RTVSPost2010PropOp43
 70
     1
102
RTVSPost2010Prop44ColorIndex
 90
        5
102
RTVSPost2010Prop44ColorRGB
 90
      255
102
RTVSPost2010PropOp44
 70
     1
102
RTVSPost2010Prop45
280
     0
102
RTVSPost2010PropOp45
 70
     1
102
RTVSPost2010Prop46
 90
       50
102
RTVSPost2010PropOp46
 70
     1
102
RTVSPost2010Prop47
 90
       50
102
RTVSPost2010PropOp47
 70
     1
102
RTVSPost2010Prop48
 90
       50
102
RTVSPost2010PropOp48
 70
     1
102
RTVSPost2010Prop49
280
     0
102
RTVSPost2010PropOp49
 70
     1
102
RTVSPost2010Prop50
 90
       50
102
RTVSPost2010PropOp50
 70
     1
102
RTVSPost2010Prop51ColorIndex
 90
      256
102
RTVSPost2010Prop51ColorRGB
 90
-16777216
102
RTVSPost2010PropOp51
 70
     0
102
RTVSPost2010Prop52
140
1.0
102
RTVSPost2010PropOp52
 70
     0
102
RTVSPost2010Prop53
 90
        2
102
RTVSPost2010PropOp53
 70
     1
102
RTVSPost2010Prop54
  1
strokes_ogs.tif
102
RTVSPost2010PropOp54
 70
     1
102
RTVSPost2010Prop55
280
     0
102
RTVSPost2010PropOp55
 70
     1
102
RTVSPost2010Prop56
140
1.0
102
RTVSPost2010PropOp56
 70
     1
102
RTVSPost2010Prop57
140
1.0
102
RTVSPost2010PropOp57
 70
     1
102
RTVSPropertyOp0
 70
     1
102
RTVSPropertyOp1
 70
     1
102
RTVSPropertyOp2
 70
     1
102
RTVSPropertyOp3
 70
     1
102
RTVSPropertyOp4
 70
     1
102
RTVSPropertyOp5
 70
     1
102
RTVSPropertyOp6
 70
     1
102
RTVSPropertyOp7
 70
     1
102
RTVSPropertyOp8
 70
     1
102
RTVSPropertyOp9
 70
     1
102
RTVSPropertyOp10
 70
     1
102
RTVSPropertyOp11
 70
     1
102
RTVSPropertyOp12
 70
     1
102
RTVSPropertyOp13
 70
     1
102
RTVSPropertyOp14
 70
     1
102
RTVSPropertyOp15
 70
     1
102
RTVSPropertyOp16
 70
     1
102
RTVSPropertyOp17
 70
     1
102
RTVSPropertyOp18
 70
     1
102
RTVSPropertyOp19
 70
     1
102
RTVSPropertyOp20
 70
     1
102
RTVSPropertyOp21
 70
     1
102
RTVSPropertyOp22
 70
     1
102
RTVSPropertyOp23
 70
     1
102
RTVSPropertyOp24
 70
     1
102
RTVSPropertyOp25
 70
     1
102
RTVSPropertyOp26
 70
     1
102
RTVSPropertyOp27
 70
     1
102
RTVSPropertyOp28
 70
     1
102
RTVSPropertyOp29
 70
     1
102
RTVSPropertyOp30
 70
     1
102
RTVSPropertyOp31
 70
     1
102
RTVSPropertyOp32
 70
     1
102
RTVSPropertyOp33
 70
     1
102
RTVSPropertyOp34
 70
     1
102
RTVSPropertyOp35
 70
     1
102
RTVSPropertyOp36
 70
     1
102
RTVSPropertyOp37
 70
     1
102
RTVSPropertyOp38
 70
     1
102
RTVSPropertyOp39
 70
     1
102
RTVSPropertyOp40
 70
     1
102
RTVSPropertyOp41
 70
     1
102
RTVSPropertyOp42
 70
     1
102
RTVSPropertyOp43
 70
     1
102
RTVSPropertyOp44
 70
     1
102
RTVSPropertyOp45
 70
     1
102
RTVSPropertyOp46
 70
     1
102
RTVSPropertyOp47
 70
     1
102
RTVSPropertyOp48
 70
     1
102
RTVSPropertyOp49
 70
     1
102
RTVSPropertyOp50
 70
     1
102
RTVSPropertyOp51
 70
     0
102
RTVSPropertyOp52
 70
     0
102
RTVSPropertyOp53
 70
     1
102
RTVSPropertyOp54
 70
     1
102
RTVSPropertyOp55
 70
     1
102
RTVSPropertyOp56
 70
     1
102
RTVSPropertyOp57
 70
     1
102
RTVSPropertyOp58
 70
     1
102
RTVSPropertyOp59
 70
     1
102
RTVSPropertyOp60
 70
     1
102
RTVSPropertyOp61
 70
     1
102
RTVSPropertyOp62
 70
     1
  0
XRECORD
  5
E8666
102
{ACAD_REACTORS
330
E8665
102
}
330
E8665
100
AcDbXrecord
280
     1
102
RTVSPost2010Prop28
280
     0
102
RTVSPost2010PropOp28
 70
     1
102
RTVSPost2010Prop29
280
     1
102
RTVSPost2010PropOp29
 70
     1
102
RTVSPost2010Prop30
280
     1
102
RTVSPost2010PropOp30
 70
     1
102
RTVSPost2010Prop31
280
     0
102
RTVSPost2010PropOp31
 70
     1
102
RTVSPost2010Prop32
280
     0
102
RTVSPost2010PropOp32
 70
     1
102
RTVSPost2010Prop33
280
     0
102
RTVSPost2010PropOp33
 70
     1
102
RTVSPost2010Prop34
280
     0
102
RTVSPost2010PropOp34
 70
     1
102
RTVSPost2010Prop35
280
     0
102
RTVSPost2010PropOp35
 70
     1
102
RTVSPost2010Prop36
280
     0
102
RTVSPost2010PropOp36
 70
     1
102
RTVSPost2010Prop37
 90
       50
102
RTVSPost2010PropOp37
 70
     1
102
RTVSPost2010Prop38
140
0.0
102
RTVSPost2010PropOp38
 70
     1
102
RTVSPost2010Prop39
140
1.0
102
RTVSPost2010PropOp39
 70
     1
102
RTVSPost2010Prop40
 90
        0
102
RTVSPost2010PropOp40
 70
     1
102
RTVSPost2010Prop41ColorIndex
 90
       18
102
RTVSPost2010Prop41ColorRGB
 90
        0
102
RTVSPost2010PropOp41
 70
     1
102
RTVSPost2010Prop42
 90
       50
102
RTVSPost2010PropOp42
 70
     1
102
RTVSPost2010Prop43
 90
        3
102
RTVSPost2010PropOp43
 70
     1
102
RTVSPost2010Prop44ColorIndex
 90
        5
102
RTVSPost2010Prop44ColorRGB
 90
      255
102
RTVSPost2010PropOp44
 70
     1
102
RTVSPost2010Prop45
280
     0
102
RTVSPost2010PropOp45
 70
     1
102
RTVSPost2010Prop46
 90
       50
102
RTVSPost2010PropOp46
 70
     1
102
RTVSPost2010Prop47
 90
       50
102
RTVSPost2010PropOp47
 70
     1
102
RTVSPost2010Prop48
 90
       50
102
RTVSPost2010PropOp48
 70
     1
102
RTVSPost2010Prop49
280
     0
102
RTVSPost2010PropOp49
 70
     1
102
RTVSPost2010Prop50
 90
       50
102
RTVSPost2010PropOp50
 70
     1
102
RTVSPost2010Prop51ColorIndex
 90
      256
102
RTVSPost2010Prop51ColorRGB
 90
-16777216
102
RTVSPost2010PropOp51
 70
     0
102
RTVSPost2010Prop52
140
1.0
102
RTVSPost2010PropOp52
 70
     0
102
RTVSPost2010Prop53
 90
        2
102
RTVSPost2010PropOp53
 70
     1
102
RTVSPost2010Prop54
  1
strokes_ogs.tif
102
RTVSPost2010PropOp54
 70
     1
102
RTVSPost2010Prop55
280
     0
102
RTVSPost2010PropOp55
 70
     1
102
RTVSPost2010Prop56
140
1.0
102
RTVSPost2010PropOp56
 70
     1
102
RTVSPost2010Prop57
140
1.0
102
RTVSPost2010PropOp57
 70
     1
102
RTVSPropertyOp0
 70
     1
102
RTVSPropertyOp1
 70
     1
102
RTVSPropertyOp2
 70
     1
102
RTVSPropertyOp3
 70
     1
102
RTVSPropertyOp4
 70
     1
102
RTVSPropertyOp5
 70
     1
102
RTVSPropertyOp6
 70
     1
102
RTVSPropertyOp7
 70
     1
102
RTVSPropertyOp8
 70
     1
102
RTVSPropertyOp9
 70
     1
102
RTVSPropertyOp10
 70
     1
102
RTVSPropertyOp11
 70
     1
102
RTVSPropertyOp12
 70
     1
102
RTVSPropertyOp13
 70
     1
102
RTVSPropertyOp14
 70
     1
102
RTVSPropertyOp15
 70
     1
102
RTVSPropertyOp16
 70
     1
102
RTVSPropertyOp17
 70
     1
102
RTVSPropertyOp18
 70
     1
102
RTVSPropertyOp19
 70
     1
102
RTVSPropertyOp20
 70
     1
102
RTVSPropertyOp21
 70
     1
102
RTVSPropertyOp22
 70
     1
102
RTVSPropertyOp23
 70
     1
102
RTVSPropertyOp24
 70
     1
102
RTVSPropertyOp25
 70
     1
102
RTVSPropertyOp26
 70
     1
102
RTVSPropertyOp27
 70
     1
102
RTVSPropertyOp28
 70
     1
102
RTVSPropertyOp29
 70
     1
102
RTVSPropertyOp30
 70
     1
102
RTVSPropertyOp31
 70
     1
102
RTVSPropertyOp32
 70
     1
102
RTVSPropertyOp33
 70
     1
102
RTVSPropertyOp34
 70
     1
102
RTVSPropertyOp35
 70
     1
102
RTVSPropertyOp36
 70
     1
102
RTVSPropertyOp37
 70
     1
102
RTVSPropertyOp38
 70
     1
102
RTVSPropertyOp39
 70
     1
102
RTVSPropertyOp40
 70
     1
102
RTVSPropertyOp41
 70
     1
102
RTVSPropertyOp42
 70
     1
102
RTVSPropertyOp43
 70
     1
102
RTVSPropertyOp44
 70
     1
102
RTVSPropertyOp45
 70
     1
102
RTVSPropertyOp46
 70
     1
102
RTVSPropertyOp47
 70
     1
102
RTVSPropertyOp48
 70
     1
102
RTVSPropertyOp49
 70
     1
102
RTVSPropertyOp50
 70
     1
102
RTVSPropertyOp51
 70
     0
102
RTVSPropertyOp52
 70
     0
102
RTVSPropertyOp53
 70
     1
102
RTVSPropertyOp54
 70
     1
102
RTVSPropertyOp55
 70
     1
102
RTVSPropertyOp56
 70
     1
102
RTVSPropertyOp57
 70
     1
102
RTVSPropertyOp58
 70
     1
102
RTVSPropertyOp59
 70
     1
102
RTVSPropertyOp60
 70
     1
102
RTVSPropertyOp61
 70
     1
102
RTVSPropertyOp62
 70
     1
  0
XRECORD
  5
E8664
102
{ACAD_REACTORS
330
E8663
102
}
330
E8663
100
AcDbXrecord
280
     1
102
RTVSPost2010Prop28
280
     0
102
RTVSPost2010PropOp28
 70
     1
102
RTVSPost2010Prop29
280
     1
102
RTVSPost2010PropOp29
 70
     1
102
RTVSPost2010Prop30
280
     1
102
RTVSPost2010PropOp30
 70
     1
102
RTVSPost2010Prop31
280
     0
102
RTVSPost2010PropOp31
 70
     1
102
RTVSPost2010Prop32
280
     0
102
RTVSPost2010PropOp32
 70
     1
102
RTVSPost2010Prop33
280
     0
102
RTVSPost2010PropOp33
 70
     1
102
RTVSPost2010Prop34
280
     0
102
RTVSPost2010PropOp34
 70
     1
102
RTVSPost2010Prop35
280
     0
102
RTVSPost2010PropOp35
 70
     1
102
RTVSPost2010Prop36
280
     0
102
RTVSPost2010PropOp36
 70
     1
102
RTVSPost2010Prop37
 90
       50
102
RTVSPost2010PropOp37
 70
     1
102
RTVSPost2010Prop38
140
0.0
102
RTVSPost2010PropOp38
 70
     1
102
RTVSPost2010Prop39
140
1.0
102
RTVSPost2010PropOp39
 70
     1
102
RTVSPost2010Prop40
 90
        0
102
RTVSPost2010PropOp40
 70
     1
102
RTVSPost2010Prop41ColorIndex
 90
       18
102
RTVSPost2010Prop41ColorRGB
 90
        0
102
RTVSPost2010PropOp41
 70
     1
102
RTVSPost2010Prop42
 90
       50
102
RTVSPost2010PropOp42
 70
     1
102
RTVSPost2010Prop43
 90
        3
102
RTVSPost2010PropOp43
 70
     1
102
RTVSPost2010Prop44ColorIndex
 90
        5
102
RTVSPost2010Prop44ColorRGB
 90
      255
102
RTVSPost2010PropOp44
 70
     1
102
RTVSPost2010Prop45
280
     0
102
RTVSPost2010PropOp45
 70
     1
102
RTVSPost2010Prop46
 90
       50
102
RTVSPost2010PropOp46
 70
     1
102
RTVSPost2010Prop47
 90
       50
102
RTVSPost2010PropOp47
 70
     1
102
RTVSPost2010Prop48
 90
       50
102
RTVSPost2010PropOp48
 70
     1
102
RTVSPost2010Prop49
280
     0
102
RTVSPost2010PropOp49
 70
     1
102
RTVSPost2010Prop50
 90
       50
102
RTVSPost2010PropOp50
 70
     1
102
RTVSPost2010Prop51ColorIndex
 90
      256
102
RTVSPost2010Prop51ColorRGB
 90
-16777216
102
RTVSPost2010PropOp51
 70
     0
102
RTVSPost2010Prop52
140
1.0
102
RTVSPost2010PropOp52
 70
     0
102
RTVSPost2010Prop53
 90
        2
102
RTVSPost2010PropOp53
 70
     1
102
RTVSPost2010Prop54
  1
strokes_ogs.tif
102
RTVSPost2010PropOp54
 70
     1
102
RTVSPost2010Prop55
280
     0
102
RTVSPost2010PropOp55
 70
     1
102
RTVSPost2010Prop56
140
1.0
102
RTVSPost2010PropOp56
 70
     1
102
RTVSPost2010Prop57
140
1.0
102
RTVSPost2010PropOp57
 70
     1
102
RTVSPropertyOp0
 70
     1
102
RTVSPropertyOp1
 70
     1
102
RTVSPropertyOp2
 70
     1
102
RTVSPropertyOp3
 70
     1
102
RTVSPropertyOp4
 70
     1
102
RTVSPropertyOp5
 70
     1
102
RTVSPropertyOp6
 70
     1
102
RTVSPropertyOp7
 70
     1
102
RTVSPropertyOp8
 70
     1
102
RTVSPropertyOp9
 70
     1
102
RTVSPropertyOp10
 70
     1
102
RTVSPropertyOp11
 70
     1
102
RTVSPropertyOp12
 70
     1
102
RTVSPropertyOp13
 70
     1
102
RTVSPropertyOp14
 70
     1
102
RTVSPropertyOp15
 70
     1
102
RTVSPropertyOp16
 70
     1
102
RTVSPropertyOp17
 70
     1
102
RTVSPropertyOp18
 70
     1
102
RTVSPropertyOp19
 70
     1
102
RTVSPropertyOp20
 70
     1
102
RTVSPropertyOp21
 70
     1
102
RTVSPropertyOp22
 70
     1
102
RTVSPropertyOp23
 70
     1
102
RTVSPropertyOp24
 70
     1
102
RTVSPropertyOp25
 70
     1
102
RTVSPropertyOp26
 70
     1
102
RTVSPropertyOp27
 70
     1
102
RTVSPropertyOp28
 70
     1
102
RTVSPropertyOp29
 70
     1
102
RTVSPropertyOp30
 70
     1
102
RTVSPropertyOp31
 70
     1
102
RTVSPropertyOp32
 70
     1
102
RTVSPropertyOp33
 70
     1
102
RTVSPropertyOp34
 70
     1
102
RTVSPropertyOp35
 70
     1
102
RTVSPropertyOp36
 70
     1
102
RTVSPropertyOp37
 70
     1
102
RTVSPropertyOp38
 70
     1
102
RTVSPropertyOp39
 70
     1
102
RTVSPropertyOp40
 70
     1
102
RTVSPropertyOp41
 70
     1
102
RTVSPropertyOp42
 70
     1
102
RTVSPropertyOp43
 70
     1
102
RTVSPropertyOp44
 70
     1
102
RTVSPropertyOp45
 70
     1
102
RTVSPropertyOp46
 70
     1
102
RTVSPropertyOp47
 70
     1
102
RTVSPropertyOp48
 70
     1
102
RTVSPropertyOp49
 70
     1
102
RTVSPropertyOp50
 70
     1
102
RTVSPropertyOp51
 70
     0
102
RTVSPropertyOp52
 70
     0
102
RTVSPropertyOp53
 70
     1
102
RTVSPropertyOp54
 70
     1
102
RTVSPropertyOp55
 70
     1
102
RTVSPropertyOp56
 70
     1
102
RTVSPropertyOp57
 70
     1
102
RTVSPropertyOp58
 70
     1
102
RTVSPropertyOp59
 70
     1
102
RTVSPropertyOp60
 70
     1
102
RTVSPropertyOp61
 70
     1
102
RTVSPropertyOp62
 70
     1
  0
XRECORD
  5
E865E
102
{ACAD_REACTORS
330
E865D
102
}
330
E865D
100
AcDbXrecord
280
     1
102
RTVSPost2010Prop28
280
     0
102
RTVSPost2010PropOp28
 70
     1
102
RTVSPost2010Prop29
280
     1
102
RTVSPost2010PropOp29
 70
     1
102
RTVSPost2010Prop30
280
     1
102
RTVSPost2010PropOp30
 70
     1
102
RTVSPost2010Prop31
280
     0
102
RTVSPost2010PropOp31
 70
     1
102
RTVSPost2010Prop32
280
     0
102
RTVSPost2010PropOp32
 70
     1
102
RTVSPost2010Prop33
280
     0
102
RTVSPost2010PropOp33
 70
     1
102
RTVSPost2010Prop34
280
     0
102
RTVSPost2010PropOp34
 70
     1
102
RTVSPost2010Prop35
280
     0
102
RTVSPost2010PropOp35
 70
     1
102
RTVSPost2010Prop36
280
     0
102
RTVSPost2010PropOp36
 70
     1
102
RTVSPost2010Prop37
 90
       50
102
RTVSPost2010PropOp37
 70
     1
102
RTVSPost2010Prop38
140
0.0
102
RTVSPost2010PropOp38
 70
     1
102
RTVSPost2010Prop39
140
1.0
102
RTVSPost2010PropOp39
 70
     1
102
RTVSPost2010Prop40
 90
        0
102
RTVSPost2010PropOp40
 70
     1
102
RTVSPost2010Prop41ColorIndex
 90
       18
102
RTVSPost2010Prop41ColorRGB
 90
        0
102
RTVSPost2010PropOp41
 70
     1
102
RTVSPost2010Prop42
 90
       50
102
RTVSPost2010PropOp42
 70
     1
102
RTVSPost2010Prop43
 90
        3
102
RTVSPost2010PropOp43
 70
     1
102
RTVSPost2010Prop44ColorIndex
 90
        5
102
RTVSPost2010Prop44ColorRGB
 90
      255
102
RTVSPost2010PropOp44
 70
     1
102
RTVSPost2010Prop45
280
     0
102
RTVSPost2010PropOp45
 70
     1
102
RTVSPost2010Prop46
 90
       50
102
RTVSPost2010PropOp46
 70
     1
102
RTVSPost2010Prop47
 90
       50
102
RTVSPost2010PropOp47
 70
     1
102
RTVSPost2010Prop48
 90
       50
102
RTVSPost2010PropOp48
 70
     1
102
RTVSPost2010Prop49
280
     0
102
RTVSPost2010PropOp49
 70
     1
102
RTVSPost2010Prop50
 90
       50
102
RTVSPost2010PropOp50
 70
     1
102
RTVSPost2010Prop51ColorIndex
 90
      256
102
RTVSPost2010Prop51ColorRGB
 90
-16777216
102
RTVSPost2010PropOp51
 70
     0
102
RTVSPost2010Prop52
140
1.0
102
RTVSPost2010PropOp52
 70
     0
102
RTVSPost2010Prop53
 90
        2
102
RTVSPost2010PropOp53
 70
     1
102
RTVSPost2010Prop54
  1
strokes_ogs.tif
102
RTVSPost2010PropOp54
 70
     1
102
RTVSPost2010Prop55
280
     0
102
RTVSPost2010PropOp55
 70
     1
102
RTVSPost2010Prop56
140
1.0
102
RTVSPost2010PropOp56
 70
     1
102
RTVSPost2010Prop57
140
1.0
102
RTVSPost2010PropOp57
 70
     1
102
RTVSPropertyOp0
 70
     1
102
RTVSPropertyOp1
 70
     1
102
RTVSPropertyOp2
 70
     1
102
RTVSPropertyOp3
 70
     1
102
RTVSPropertyOp4
 70
     1
102
RTVSPropertyOp5
 70
     1
102
RTVSPropertyOp6
 70
     1
102
RTVSPropertyOp7
 70
     1
102
RTVSPropertyOp8
 70
     1
102
RTVSPropertyOp9
 70
     1
102
RTVSPropertyOp10
 70
     1
102
RTVSPropertyOp11
 70
     1
102
RTVSPropertyOp12
 70
     1
102
RTVSPropertyOp13
 70
     1
102
RTVSPropertyOp14
 70
     1
102
RTVSPropertyOp15
 70
     1
102
RTVSPropertyOp16
 70
     1
102
RTVSPropertyOp17
 70
     1
102
RTVSPropertyOp18
 70
     1
102
RTVSPropertyOp19
 70
     1
102
RTVSPropertyOp20
 70
     1
102
RTVSPropertyOp21
 70
     1
102
RTVSPropertyOp22
 70
     1
102
RTVSPropertyOp23
 70
     1
102
RTVSPropertyOp24
 70
     1
102
RTVSPropertyOp25
 70
     1
102
RTVSPropertyOp26
 70
     1
102
RTVSPropertyOp27
 70
     1
102
RTVSPropertyOp28
 70
     1
102
RTVSPropertyOp29
 70
     1
102
RTVSPropertyOp30
 70
     1
102
RTVSPropertyOp31
 70
     1
102
RTVSPropertyOp32
 70
     1
102
RTVSPropertyOp33
 70
     1
102
RTVSPropertyOp34
 70
     1
102
RTVSPropertyOp35
 70
     1
102
RTVSPropertyOp36
 70
     1
102
RTVSPropertyOp37
 70
     1
102
RTVSPropertyOp38
 70
     1
102
RTVSPropertyOp39
 70
     1
102
RTVSPropertyOp40
 70
     1
102
RTVSPropertyOp41
 70
     1
102
RTVSPropertyOp42
 70
     1
102
RTVSPropertyOp43
 70
     1
102
RTVSPropertyOp44
 70
     1
102
RTVSPropertyOp45
 70
     1
102
RTVSPropertyOp46
 70
     1
102
RTVSPropertyOp47
 70
     1
102
RTVSPropertyOp48
 70
     1
102
RTVSPropertyOp49
 70
     1
102
RTVSPropertyOp50
 70
     1
102
RTVSPropertyOp51
 70
     0
102
RTVSPropertyOp52
 70
     0
102
RTVSPropertyOp53
 70
     1
102
RTVSPropertyOp54
 70
     1
102
RTVSPropertyOp55
 70
     1
102
RTVSPropertyOp56
 70
     1
102
RTVSPropertyOp57
 70
     1
102
RTVSPropertyOp58
 70
     1
102
RTVSPropertyOp59
 70
     1
102
RTVSPropertyOp60
 70
     1
102
RTVSPropertyOp61
 70
     1
102
RTVSPropertyOp62
 70
     1
  0
XRECORD
  5
E8660
102
{ACAD_REACTORS
330
E865F
102
}
330
E865F
100
AcDbXrecord
280
     1
102
RTVSPost2010Prop28
280
     0
102
RTVSPost2010PropOp28
 70
     1
102
RTVSPost2010Prop29
280
     1
102
RTVSPost2010PropOp29
 70
     1
102
RTVSPost2010Prop30
280
     1
102
RTVSPost2010PropOp30
 70
     1
102
RTVSPost2010Prop31
280
     0
102
RTVSPost2010PropOp31
 70
     1
102
RTVSPost2010Prop32
280
     0
102
RTVSPost2010PropOp32
 70
     1
102
RTVSPost2010Prop33
280
     0
102
RTVSPost2010PropOp33
 70
     1
102
RTVSPost2010Prop34
280
     0
102
RTVSPost2010PropOp34
 70
     1
102
RTVSPost2010Prop35
280
     0
102
RTVSPost2010PropOp35
 70
     1
102
RTVSPost2010Prop36
280
     0
102
RTVSPost2010PropOp36
 70
     1
102
RTVSPost2010Prop37
 90
       50
102
RTVSPost2010PropOp37
 70
     1
102
RTVSPost2010Prop38
140
0.0
102
RTVSPost2010PropOp38
 70
     1
102
RTVSPost2010Prop39
140
1.0
102
RTVSPost2010PropOp39
 70
     1
102
RTVSPost2010Prop40
 90
        0
102
RTVSPost2010PropOp40
 70
     1
102
RTVSPost2010Prop41ColorIndex
 90
       18
102
RTVSPost2010Prop41ColorRGB
 90
        0
102
RTVSPost2010PropOp41
 70
     1
102
RTVSPost2010Prop42
 90
       50
102
RTVSPost2010PropOp42
 70
     1
102
RTVSPost2010Prop43
 90
        3
102
RTVSPost2010PropOp43
 70
     1
102
RTVSPost2010Prop44ColorIndex
 90
        5
102
RTVSPost2010Prop44ColorRGB
 90
      255
102
RTVSPost2010PropOp44
 70
     1
102
RTVSPost2010Prop45
280
     0
102
RTVSPost2010PropOp45
 70
     1
102
RTVSPost2010Prop46
 90
       50
102
RTVSPost2010PropOp46
 70
     1
102
RTVSPost2010Prop47
 90
       50
102
RTVSPost2010PropOp47
 70
     1
102
RTVSPost2010Prop48
 90
       50
102
RTVSPost2010PropOp48
 70
     1
102
RTVSPost2010Prop49
280
     0
102
RTVSPost2010PropOp49
 70
     1
102
RTVSPost2010Prop50
 90
       50
102
RTVSPost2010PropOp50
 70
     1
102
RTVSPost2010Prop51ColorIndex
 90
      256
102
RTVSPost2010Prop51ColorRGB
 90
-16777216
102
RTVSPost2010PropOp51
 70
     0
102
RTVSPost2010Prop52
140
1.0
102
RTVSPost2010PropOp52
 70
     0
102
RTVSPost2010Prop53
 90
        2
102
RTVSPost2010PropOp53
 70
     1
102
RTVSPost2010Prop54
  1
strokes_ogs.tif
102
RTVSPost2010PropOp54
 70
     1
102
RTVSPost2010Prop55
280
     0
102
RTVSPost2010PropOp55
 70
     1
102
RTVSPost2010Prop56
140
1.0
102
RTVSPost2010PropOp56
 70
     1
102
RTVSPost2010Prop57
140
1.0
102
RTVSPost2010PropOp57
 70
     1
102
RTVSPropertyOp0
 70
     1
102
RTVSPropertyOp1
 70
     1
102
RTVSPropertyOp2
 70
     1
102
RTVSPropertyOp3
 70
     1
102
RTVSPropertyOp4
 70
     1
102
RTVSPropertyOp5
 70
     1
102
RTVSPropertyOp6
 70
     1
102
RTVSPropertyOp7
 70
     1
102
RTVSPropertyOp8
 70
     1
102
RTVSPropertyOp9
 70
     1
102
RTVSPropertyOp10
 70
     1
102
RTVSPropertyOp11
 70
     1
102
RTVSPropertyOp12
 70
     1
102
RTVSPropertyOp13
 70
     1
102
RTVSPropertyOp14
 70
     1
102
RTVSPropertyOp15
 70
     1
102
RTVSPropertyOp16
 70
     1
102
RTVSPropertyOp17
 70
     1
102
RTVSPropertyOp18
 70
     1
102
RTVSPropertyOp19
 70
     1
102
RTVSPropertyOp20
 70
     1
102
RTVSPropertyOp21
 70
     1
102
RTVSPropertyOp22
 70
     1
102
RTVSPropertyOp23
 70
     1
102
RTVSPropertyOp24
 70
     1
102
RTVSPropertyOp25
 70
     1
102
RTVSPropertyOp26
 70
     1
102
RTVSPropertyOp27
 70
     1
102
RTVSPropertyOp28
 70
     1
102
RTVSPropertyOp29
 70
     1
102
RTVSPropertyOp30
 70
     1
102
RTVSPropertyOp31
 70
     1
102
RTVSPropertyOp32
 70
     1
102
RTVSPropertyOp33
 70
     1
102
RTVSPropertyOp34
 70
     1
102
RTVSPropertyOp35
 70
     1
102
RTVSPropertyOp36
 70
     1
102
RTVSPropertyOp37
 70
     1
102
RTVSPropertyOp38
 70
     1
102
RTVSPropertyOp39
 70
     1
102
RTVSPropertyOp40
 70
     1
102
RTVSPropertyOp41
 70
     1
102
RTVSPropertyOp42
 70
     1
102
RTVSPropertyOp43
 70
     1
102
RTVSPropertyOp44
 70
     1
102
RTVSPropertyOp45
 70
     1
102
RTVSPropertyOp46
 70
     1
102
RTVSPropertyOp47
 70
     1
102
RTVSPropertyOp48
 70
     1
102
RTVSPropertyOp49
 70
     1
102
RTVSPropertyOp50
 70
     1
102
RTVSPropertyOp51
 70
     0
102
RTVSPropertyOp52
 70
     0
102
RTVSPropertyOp53
 70
     1
102
RTVSPropertyOp54
 70
     1
102
RTVSPropertyOp55
 70
     1
102
RTVSPropertyOp56
 70
     1
102
RTVSPropertyOp57
 70
     1
102
RTVSPropertyOp58
 70
     1
102
RTVSPropertyOp59
 70
     1
102
RTVSPropertyOp60
 70
     1
102
RTVSPropertyOp61
 70
     1
102
RTVSPropertyOp62
 70
     1
  0
XRECORD
  5
E864B
102
{ACAD_REACTORS
330
E864A
102
}
330
E864A
100
AcDbXrecord
280
     1
102
RTVSPost2010Prop28
280
     0
102
RTVSPost2010PropOp28
 70
     1
102
RTVSPost2010Prop29
280
     1
102
RTVSPost2010PropOp29
 70
     1
102
RTVSPost2010Prop30
280
     1
102
RTVSPost2010PropOp30
 70
     1
102
RTVSPost2010Prop31
280
     0
102
RTVSPost2010PropOp31
 70
     1
102
RTVSPost2010Prop32
280
     0
102
RTVSPost2010PropOp32
 70
     1
102
RTVSPost2010Prop33
280
     0
102
RTVSPost2010PropOp33
 70
     1
102
RTVSPost2010Prop34
280
     0
102
RTVSPost2010PropOp34
 70
     1
102
RTVSPost2010Prop35
280
     0
102
RTVSPost2010PropOp35
 70
     1
102
RTVSPost2010Prop36
280
     0
102
RTVSPost2010PropOp36
 70
     1
102
RTVSPost2010Prop37
 90
       50
102
RTVSPost2010PropOp37
 70
     1
102
RTVSPost2010Prop38
140
0.0
102
RTVSPost2010PropOp38
 70
     1
102
RTVSPost2010Prop39
140
1.0
102
RTVSPost2010PropOp39
 70
     1
102
RTVSPost2010Prop40
 90
        0
102
RTVSPost2010PropOp40
 70
     1
102
RTVSPost2010Prop41ColorIndex
 90
       18
102
RTVSPost2010Prop41ColorRGB
 90
        0
102
RTVSPost2010PropOp41
 70
     1
102
RTVSPost2010Prop42
 90
       50
102
RTVSPost2010PropOp42
 70
     1
102
RTVSPost2010Prop43
 90
        3
102
RTVSPost2010PropOp43
 70
     1
102
RTVSPost2010Prop44ColorIndex
 90
        5
102
RTVSPost2010Prop44ColorRGB
 90
      255
102
RTVSPost2010PropOp44
 70
     1
102
RTVSPost2010Prop45
280
     0
102
RTVSPost2010PropOp45
 70
     1
102
RTVSPost2010Prop46
 90
       50
102
RTVSPost2010PropOp46
 70
     1
102
RTVSPost2010Prop47
 90
       50
102
RTVSPost2010PropOp47
 70
     1
102
RTVSPost2010Prop48
 90
       50
102
RTVSPost2010PropOp48
 70
     1
102
RTVSPost2010Prop49
280
     0
102
RTVSPost2010PropOp49
 70
     1
102
RTVSPost2010Prop50
 90
       50
102
RTVSPost2010PropOp50
 70
     1
102
RTVSPost2010Prop51ColorIndex
 90
      256
102
RTVSPost2010Prop51ColorRGB
 90
-16777216
102
RTVSPost2010PropOp51
 70
     0
102
RTVSPost2010Prop52
140
1.0
102
RTVSPost2010PropOp52
 70
     0
102
RTVSPost2010Prop53
 90
        2
102
RTVSPost2010PropOp53
 70
     1
102
RTVSPost2010Prop54
  1
strokes_ogs.tif
102
RTVSPost2010PropOp54
 70
     1
102
RTVSPost2010Prop55
280
     0
102
RTVSPost2010PropOp55
 70
     1
102
RTVSPost2010Prop56
140
1.0
102
RTVSPost2010PropOp56
 70
     1
102
RTVSPost2010Prop57
140
1.0
102
RTVSPost2010PropOp57
 70
     1
102
RTVSPropertyOp0
 70
     1
102
RTVSPropertyOp1
 70
     1
102
RTVSPropertyOp2
 70
     1
102
RTVSPropertyOp3
 70
     1
102
RTVSPropertyOp4
 70
     1
102
RTVSPropertyOp5
 70
     1
102
RTVSPropertyOp6
 70
     1
102
RTVSPropertyOp7
 70
     1
102
RTVSPropertyOp8
 70
     1
102
RTVSPropertyOp9
 70
     1
102
RTVSPropertyOp10
 70
     1
102
RTVSPropertyOp11
 70
     1
102
RTVSPropertyOp12
 70
     1
102
RTVSPropertyOp13
 70
     1
102
RTVSPropertyOp14
 70
     1
102
RTVSPropertyOp15
 70
     1
102
RTVSPropertyOp16
 70
     1
102
RTVSPropertyOp17
 70
     1
102
RTVSPropertyOp18
 70
     1
102
RTVSPropertyOp19
 70
     1
102
RTVSPropertyOp20
 70
     1
102
RTVSPropertyOp21
 70
     1
102
RTVSPropertyOp22
 70
     1
102
RTVSPropertyOp23
 70
     1
102
RTVSPropertyOp24
 70
     1
102
RTVSPropertyOp25
 70
     1
102
RTVSPropertyOp26
 70
     1
102
RTVSPropertyOp27
 70
     1
102
RTVSPropertyOp28
 70
     1
102
RTVSPropertyOp29
 70
     1
102
RTVSPropertyOp30
 70
     1
102
RTVSPropertyOp31
 70
     1
102
RTVSPropertyOp32
 70
     1
102
RTVSPropertyOp33
 70
     1
102
RTVSPropertyOp34
 70
     1
102
RTVSPropertyOp35
 70
     1
102
RTVSPropertyOp36
 70
     1
102
RTVSPropertyOp37
 70
     1
102
RTVSPropertyOp38
 70
     1
102
RTVSPropertyOp39
 70
     1
102
RTVSPropertyOp40
 70
     1
102
RTVSPropertyOp41
 70
     1
102
RTVSPropertyOp42
 70
     1
102
RTVSPropertyOp43
 70
     1
102
RTVSPropertyOp44
 70
     1
102
RTVSPropertyOp45
 70
     1
102
RTVSPropertyOp46
 70
     1
102
RTVSPropertyOp47
 70
     1
102
RTVSPropertyOp48
 70
     1
102
RTVSPropertyOp49
 70
     1
102
RTVSPropertyOp50
 70
     1
102
RTVSPropertyOp51
 70
     0
102
RTVSPropertyOp52
 70
     0
102
RTVSPropertyOp53
 70
     1
102
RTVSPropertyOp54
 70
     1
102
RTVSPropertyOp55
 70
     1
102
RTVSPropertyOp56
 70
     1
102
RTVSPropertyOp57
 70
     1
102
RTVSPropertyOp58
 70
     1
102
RTVSPropertyOp59
 70
     1
102
RTVSPropertyOp60
 70
     1
102
RTVSPropertyOp61
 70
     1
102
RTVSPropertyOp62
 70
     1
  0
XRECORD
  5
E865A
102
{ACAD_REACTORS
330
E8659
102
}
330
E8659
100
AcDbXrecord
280
     1
102
RTVSPost2010Prop28
280
     0
102
RTVSPost2010PropOp28
 70
     1
102
RTVSPost2010Prop29
280
     1
102
RTVSPost2010PropOp29
 70
     1
102
RTVSPost2010Prop30
280
     1
102
RTVSPost2010PropOp30
 70
     1
102
RTVSPost2010Prop31
280
     0
102
RTVSPost2010PropOp31
 70
     1
102
RTVSPost2010Prop32
280
     0
102
RTVSPost2010PropOp32
 70
     1
102
RTVSPost2010Prop33
280
     0
102
RTVSPost2010PropOp33
 70
     1
102
RTVSPost2010Prop34
280
     0
102
RTVSPost2010PropOp34
 70
     1
102
RTVSPost2010Prop35
280
     0
102
RTVSPost2010PropOp35
 70
     1
102
RTVSPost2010Prop36
280
     0
102
RTVSPost2010PropOp36
 70
     1
102
RTVSPost2010Prop37
 90
       50
102
RTVSPost2010PropOp37
 70
     1
102
RTVSPost2010Prop38
140
0.0
102
RTVSPost2010PropOp38
 70
     1
102
RTVSPost2010Prop39
140
1.0
102
RTVSPost2010PropOp39
 70
     1
102
RTVSPost2010Prop40
 90
        0
102
RTVSPost2010PropOp40
 70
     1
102
RTVSPost2010Prop41ColorIndex
 90
       18
102
RTVSPost2010Prop41ColorRGB
 90
        0
102
RTVSPost2010PropOp41
 70
     1
102
RTVSPost2010Prop42
 90
       50
102
RTVSPost2010PropOp42
 70
     1
102
RTVSPost2010Prop43
 90
        3
102
RTVSPost2010PropOp43
 70
     1
102
RTVSPost2010Prop44ColorIndex
 90
        5
102
RTVSPost2010Prop44ColorRGB
 90
      255
102
RTVSPost2010PropOp44
 70
     1
102
RTVSPost2010Prop45
280
     0
102
RTVSPost2010PropOp45
 70
     1
102
RTVSPost2010Prop46
 90
       50
102
RTVSPost2010PropOp46
 70
     1
102
RTVSPost2010Prop47
 90
       50
102
RTVSPost2010PropOp47
 70
     1
102
RTVSPost2010Prop48
 90
       50
102
RTVSPost2010PropOp48
 70
     1
102
RTVSPost2010Prop49
280
     0
102
RTVSPost2010PropOp49
 70
     1
102
RTVSPost2010Prop50
 90
       50
102
RTVSPost2010PropOp50
 70
     1
102
RTVSPost2010Prop51ColorIndex
 90
      256
102
RTVSPost2010Prop51ColorRGB
 90
-16777216
102
RTVSPost2010PropOp51
 70
     0
102
RTVSPost2010Prop52
140
1.0
102
RTVSPost2010PropOp52
 70
     0
102
RTVSPost2010Prop53
 90
        2
102
RTVSPost2010PropOp53
 70
     1
102
RTVSPost2010Prop54
  1
strokes_ogs.tif
102
RTVSPost2010PropOp54
 70
     1
102
RTVSPost2010Prop55
280
     0
102
RTVSPost2010PropOp55
 70
     1
102
RTVSPost2010Prop56
140
1.0
102
RTVSPost2010PropOp56
 70
     1
102
RTVSPost2010Prop57
140
1.0
102
RTVSPost2010PropOp57
 70
     1
102
RTVSPropertyOp0
 70
     1
102
RTVSPropertyOp1
 70
     1
102
RTVSPropertyOp2
 70
     1
102
RTVSPropertyOp3
 70
     1
102
RTVSPropertyOp4
 70
     1
102
RTVSPropertyOp5
 70
     1
102
RTVSPropertyOp6
 70
     1
102
RTVSPropertyOp7
 70
     1
102
RTVSPropertyOp8
 70
     1
102
RTVSPropertyOp9
 70
     1
102
RTVSPropertyOp10
 70
     1
102
RTVSPropertyOp11
 70
     1
102
RTVSPropertyOp12
 70
     1
102
RTVSPropertyOp13
 70
     1
102
RTVSPropertyOp14
 70
     1
102
RTVSPropertyOp15
 70
     1
102
RTVSPropertyOp16
 70
     1
102
RTVSPropertyOp17
 70
     1
102
RTVSPropertyOp18
 70
     1
102
RTVSPropertyOp19
 70
     1
102
RTVSPropertyOp20
 70
     1
102
RTVSPropertyOp21
 70
     1
102
RTVSPropertyOp22
 70
     1
102
RTVSPropertyOp23
 70
     1
102
RTVSPropertyOp24
 70
     1
102
RTVSPropertyOp25
 70
     1
102
RTVSPropertyOp26
 70
     1
102
RTVSPropertyOp27
 70
     1
102
RTVSPropertyOp28
 70
     1
102
RTVSPropertyOp29
 70
     1
102
RTVSPropertyOp30
 70
     1
102
RTVSPropertyOp31
 70
     1
102
RTVSPropertyOp32
 70
     1
102
RTVSPropertyOp33
 70
     1
102
RTVSPropertyOp34
 70
     1
102
RTVSPropertyOp35
 70
     1
102
RTVSPropertyOp36
 70
     1
102
RTVSPropertyOp37
 70
     1
102
RTVSPropertyOp38
 70
     1
102
RTVSPropertyOp39
 70
     1
102
RTVSPropertyOp40
 70
     1
102
RTVSPropertyOp41
 70
     1
102
RTVSPropertyOp42
 70
     1
102
RTVSPropertyOp43
 70
     1
102
RTVSPropertyOp44
 70
     1
102
RTVSPropertyOp45
 70
     1
102
RTVSPropertyOp46
 70
     1
102
RTVSPropertyOp47
 70
     1
102
RTVSPropertyOp48
 70
     1
102
RTVSPropertyOp49
 70
     1
102
RTVSPropertyOp50
 70
     1
102
RTVSPropertyOp51
 70
     0
102
RTVSPropertyOp52
 70
     0
102
RTVSPropertyOp53
 70
     1
102
RTVSPropertyOp54
 70
     1
102
RTVSPropertyOp55
 70
     1
102
RTVSPropertyOp56
 70
     1
102
RTVSPropertyOp57
 70
     1
102
RTVSPropertyOp58
 70
     1
102
RTVSPropertyOp59
 70
     1
102
RTVSPropertyOp60
 70
     1
102
RTVSPropertyOp61
 70
     1
102
RTVSPropertyOp62
 70
     1
  0
XRECORD
  5
E8662
102
{ACAD_REACTORS
330
E8661
102
}
330
E8661
100
AcDbXrecord
280
     1
102
RTVSPost2010Prop28
280
     0
102
RTVSPost2010PropOp28
 70
     1
102
RTVSPost2010Prop29
280
     1
102
RTVSPost2010PropOp29
 70
     1
102
RTVSPost2010Prop30
280
     1
102
RTVSPost2010PropOp30
 70
     1
102
RTVSPost2010Prop31
280
     0
102
RTVSPost2010PropOp31
 70
     1
102
RTVSPost2010Prop32
280
     0
102
RTVSPost2010PropOp32
 70
     1
102
RTVSPost2010Prop33
280
     0
102
RTVSPost2010PropOp33
 70
     1
102
RTVSPost2010Prop34
280
     0
102
RTVSPost2010PropOp34
 70
     1
102
RTVSPost2010Prop35
280
     0
102
RTVSPost2010PropOp35
 70
     1
102
RTVSPost2010Prop36
280
     0
102
RTVSPost2010PropOp36
 70
     1
102
RTVSPost2010Prop37
 90
       50
102
RTVSPost2010PropOp37
 70
     1
102
RTVSPost2010Prop38
140
0.0
102
RTVSPost2010PropOp38
 70
     1
102
RTVSPost2010Prop39
140
1.0
102
RTVSPost2010PropOp39
 70
     1
102
RTVSPost2010Prop40
 90
        0
102
RTVSPost2010PropOp40
 70
     1
102
RTVSPost2010Prop41ColorIndex
 90
       18
102
RTVSPost2010Prop41ColorRGB
 90
        0
102
RTVSPost2010PropOp41
 70
     1
102
RTVSPost2010Prop42
 90
       50
102
RTVSPost2010PropOp42
 70
     1
102
RTVSPost2010Prop43
 90
        3
102
RTVSPost2010PropOp43
 70
     1
102
RTVSPost2010Prop44ColorIndex
 90
        5
102
RTVSPost2010Prop44ColorRGB
 90
      255
102
RTVSPost2010PropOp44
 70
     1
102
RTVSPost2010Prop45
280
     0
102
RTVSPost2010PropOp45
 70
     1
102
RTVSPost2010Prop46
 90
       50
102
RTVSPost2010PropOp46
 70
     1
102
RTVSPost2010Prop47
 90
       50
102
RTVSPost2010PropOp47
 70
     1
102
RTVSPost2010Prop48
 90
       50
102
RTVSPost2010PropOp48
 70
     1
102
RTVSPost2010Prop49
280
     0
102
RTVSPost2010PropOp49
 70
     1
102
RTVSPost2010Prop50
 90
       50
102
RTVSPost2010PropOp50
 70
     1
102
RTVSPost2010Prop51ColorIndex
 90
      256
102
RTVSPost2010Prop51ColorRGB
 90
-16777216
102
RTVSPost2010PropOp51
 70
     0
102
RTVSPost2010Prop52
140
1.0
102
RTVSPost2010PropOp52
 70
     0
102
RTVSPost2010Prop53
 90
        2
102
RTVSPost2010PropOp53
 70
     1
102
RTVSPost2010Prop54
  1
strokes_ogs.tif
102
RTVSPost2010PropOp54
 70
     1
102
RTVSPost2010Prop55
280
     0
102
RTVSPost2010PropOp55
 70
     1
102
RTVSPost2010Prop56
140
1.0
102
RTVSPost2010PropOp56
 70
     1
102
RTVSPost2010Prop57
140
1.0
102
RTVSPost2010PropOp57
 70
     1
102
RTVSPropertyOp0
 70
     1
102
RTVSPropertyOp1
 70
     1
102
RTVSPropertyOp2
 70
     1
102
RTVSPropertyOp3
 70
     1
102
RTVSPropertyOp4
 70
     1
102
RTVSPropertyOp5
 70
     1
102
RTVSPropertyOp6
 70
     1
102
RTVSPropertyOp7
 70
     1
102
RTVSPropertyOp8
 70
     1
102
RTVSPropertyOp9
 70
     1
102
RTVSPropertyOp10
 70
     1
102
RTVSPropertyOp11
 70
     1
102
RTVSPropertyOp12
 70
     1
102
RTVSPropertyOp13
 70
     1
102
RTVSPropertyOp14
 70
     1
102
RTVSPropertyOp15
 70
     1
102
RTVSPropertyOp16
 70
     1
102
RTVSPropertyOp17
 70
     1
102
RTVSPropertyOp18
 70
     1
102
RTVSPropertyOp19
 70
     1
102
RTVSPropertyOp20
 70
     1
102
RTVSPropertyOp21
 70
     1
102
RTVSPropertyOp22
 70
     1
102
RTVSPropertyOp23
 70
     1
102
RTVSPropertyOp24
 70
     1
102
RTVSPropertyOp25
 70
     1
102
RTVSPropertyOp26
 70
     1
102
RTVSPropertyOp27
 70
     1
102
RTVSPropertyOp28
 70
     1
102
RTVSPropertyOp29
 70
     1
102
RTVSPropertyOp30
 70
     1
102
RTVSPropertyOp31
 70
     1
102
RTVSPropertyOp32
 70
     1
102
RTVSPropertyOp33
 70
     1
102
RTVSPropertyOp34
 70
     1
102
RTVSPropertyOp35
 70
     1
102
RTVSPropertyOp36
 70
     1
102
RTVSPropertyOp37
 70
     1
102
RTVSPropertyOp38
 70
     1
102
RTVSPropertyOp39
 70
     1
102
RTVSPropertyOp40
 70
     1
102
RTVSPropertyOp41
 70
     1
102
RTVSPropertyOp42
 70
     1
102
RTVSPropertyOp43
 70
     1
102
RTVSPropertyOp44
 70
     1
102
RTVSPropertyOp45
 70
     1
102
RTVSPropertyOp46
 70
     1
102
RTVSPropertyOp47
 70
     1
102
RTVSPropertyOp48
 70
     1
102
RTVSPropertyOp49
 70
     1
102
RTVSPropertyOp50
 70
     1
102
RTVSPropertyOp51
 70
     0
102
RTVSPropertyOp52
 70
     0
102
RTVSPropertyOp53
 70
     1
102
RTVSPropertyOp54
 70
     1
102
RTVSPropertyOp55
 70
     1
102
RTVSPropertyOp56
 70
     1
102
RTVSPropertyOp57
 70
     1
102
RTVSPropertyOp58
 70
     1
102
RTVSPropertyOp59
 70
     1
102
RTVSPropertyOp60
 70
     1
102
RTVSPropertyOp61
 70
     1
102
RTVSPropertyOp62
 70
     1
  0
ENDSEC
  0
EOF
