0
SECTION
2
HEADER
9
$ACADVER
1
AC1015
9
$DWGCODEPAGE
3
ANSI_1252
9
$HANDSEED
5
173
9
$ANGBASE
50
0
9
$ANGDIR
70
0
9
$ATTMODE
70
1
9
$AUNITS
70
0
9
$AUPREC
70
0
9
$CECOLOR
62
256
9
$CELTSCALE
40
1
9
$CELTYPE
6
ByLayer
9
$CELWEIGHT
370
18
9
$CLAYER
8
0
9
$CMLJUST
70
0
9
$CMLSCALE
40
1
9
$CMLSTYLE
2
Standard
9
$DIMSTYLE
2
Standard
9
$TEXTSIZE
40
0.2
9
$TEXTSTYLE
7
Standard
9
$LUNITS
70
2
9
$LUPREC
70
4
9
$EXTNAMES
290
1
9
$INSUNITS
70
4
9
$LTSCALE
40
1
9
$LWDISPLAY
290
1
9
$PDMODE
70
0
9
$PDSIZE
40
0
9
$PLINEGEN
70
0
0
ENDSEC
0
SECTION
2
CLASSES
0
CLASS
1
RASTERVARIABLES
2
AcDbRasterVariables
3
ISM
90
0
280
0
281
0
0
ENDSEC
0
SECTION
2
TABLES
0
TABLE
2
VPORT
5
169
100
AcDbSymbolTable
0
VPORT
5
1
100
AcDbSymbolTableRecord
100
AcDbViewportTableRecord
2
*Active
70
0
10
0
20
0
11
1
21
1
12
-1
22
1
13
0
23
0
14
0.5
24
0.5
15
10
25
10
16
0
26
0
36
1
17
0
27
0
37
0
0
ENDTAB
0
TABLE
2
LTYPE
5
16a
100
AcDbSymbolTable
0
LTYPE
5
14
100
AcDbSymbolTableRecord
100
AcDbLinetypeTableRecord
70
0
2
ByBlock
3

72
65
73
0
40
0
0
LTYPE
5
15
100
AcDbSymbolTableRecord
100
AcDbLinetypeTableRecord
70
0
2
ByLayer
3

72
65
73
0
40
0
0
LTYPE
5
16
100
AcDbSymbolTableRecord
100
AcDbLinetypeTableRecord
70
0
2
CONTINUOUS
3
Solid line
72
65
73
0
40
0
0
LTYPE
5
6A
100
AcDbSymbolTableRecord
100
AcDbLinetypeTableRecord
70
0
2
CENTER
3
____ _ ____ _ ____ _ ____
72
65
73
4
40
47.5
49
22
74
0
49
-8.5
74
0
49
8.5
74
0
49
-8.5
74
0
0
LTYPE
5
6B
100
AcDbSymbolTableRecord
100
AcDbLinetypeTableRecord
70
0
2
DASHED
3
__ __ __ __ __ __ __ __ __
72
65
73
2
40
25.72
49
12.86
74
0
49
-12.86
74
0
0
ENDTAB
0
TABLE
2
LAYER
5
16b
100
AcDbSymbolTable
0
LAYER
5
10
100
AcDbSymbolTableRecord
100
AcDbLayerTableRecord
2
0
70
0
62
7
6
CONTINUOUS
290
1
370
-3
390
0
0
LAYER
5
6D
100
AcDbSymbolTableRecord
100
AcDbLayerTableRecord
2
80
70
0
62
-6
6
CONTINUOUS
290
1
370
-3
390
0
0
LAYER
5
6F
100
AcDbSymbolTableRecord
100
AcDbLayerTableRecord
2
81
70
0
62
-3
6
CONTINUOUS
290
1
370
-3
390
0
0
LAYER
5
71
100
AcDbSymbolTableRecord
100
AcDbLayerTableRecord
2
1
70
0
62
4
6
CONTINUOUS
290
1
370
-3
390
0
0
LAYER
5
AA
100
AcDbSymbolTableRecord
100
AcDbLayerTableRecord
2
4
70
0
62
-2
6
CENTER
290
1
370
-3
390
0
0
LAYER
5
E8
100
AcDbSymbolTableRecord
100
AcDbLayerTableRecord
2
2
70
0
62
7
6
CONTINUOUS
290
1
370
-3
390
0
0
LAYER
5
155
100
AcDbSymbolTableRecord
100
AcDbLayerTableRecord
2
SK1
70
0
62
4
6
CONTINUOUS
290
1
370
-3
390
0
0
LAYER
5
156
100
AcDbSymbolTableRecord
100
AcDbLayerTableRecord
2
SK4
70
0
62
2
6
CENTER
290
1
370
-3
390
0
0
LAYER
5
157
100
AcDbSymbolTableRecord
100
AcDbLayerTableRecord
2
SK6
70
0
62
5
6
CONTINUOUS
290
1
370
-3
390
0
0
LAYER
5
158
100
AcDbSymbolTableRecord
100
AcDbLayerTableRecord
2
SK2
70
0
62
7
6
CONTINUOUS
290
1
370
-3
390
0
0
ENDTAB
0
TABLE
2
STYLE
5
16c
100
AcDbSymbolTable
0
STYLE
5
11
100
AcDbSymbolTableRecord
100
AcDbTextStyleTableRecord
2
Standard
3
txt
70
0
71
0
40
0
41
1
42
0
50
0
0
STYLE
5
CD
100
AcDbSymbolTableRecord
100
AcDbTextStyleTableRecord
2
iso_b_vert
3
simplex.shx
70
0
71
0
40
0
41
1
42
0
50
0
0
STYLE
5
CE
100
AcDbSymbolTableRecord
100
AcDbTextStyleTableRecord
2
DWGDirectTextStyle
3
simplex
70
0
71
0
40
0
41
1
42
0
50
0
0
ENDTAB
0
TABLE
2
DIMSTYLE
5
16d
100
AcDbSymbolTable
100
AcDbDimStyleTable
0
DIMSTYLE
105
27
100
AcDbSymbolTableRecord
100
AcDbDimStyleTableRecord
2
Standard
70
0
3
<>
41
0.18
42
0.0625
44
0.18
140
0.18
147
0.09
73
0
74
0
77
1
271
2
275
0
278
52
280
0
340
11
0
ENDTAB
0
TABLE
2
VIEW
5
16e
100
AcDbSymbolTable
0
ENDTAB
0
TABLE
2
UCS
5
16f
100
AcDbSymbolTable
0
ENDTAB
0
TABLE
2
APPID
5
170
100
AcDbSymbolTable
0
APPID
5
12
100
AcDbSymbolTableRecord
100
AcDbRegAppTableRecord
2
ACAD
70
0
0
ENDTAB
0
TABLE
2
BLOCK_RECORD
5
171
100
AcDbSymbolTable
0
BLOCK_RECORD
5
1F
100
AcDbSymbolTableRecord
100
AcDbBlockTableRecord
2
*Model_Space
340
0
70
0
0
BLOCK_RECORD
5
1B
100
AcDbSymbolTableRecord
100
AcDbBlockTableRecord
2
*Paper_Space
340
0
70
0
0
BLOCK_RECORD
5
23
100
AcDbSymbolTableRecord
100
AcDbBlockTableRecord
2
*Paper_Space0
340
0
70
0
0
BLOCK_RECORD
5
D0
100
AcDbSymbolTableRecord
100
AcDbBlockTableRecord
2
DimnDraft3D1
340
0
70
0
0
BLOCK_RECORD
5
DC
100
AcDbSymbolTableRecord
100
AcDbBlockTableRecord
2
DimnDraft3D2
340
0
70
0
0
BLOCK_RECORD
5
E6
100
AcDbSymbolTableRecord
100
AcDbBlockTableRecord
2
DimnDraft3D3
340
0
70
0
0
BLOCK_RECORD
5
F1
100
AcDbSymbolTableRecord
100
AcDbBlockTableRecord
2
DimnDraft3D4
340
0
70
0
0
ENDTAB
0
ENDSEC
0
SECTION
2
BLOCKS
0
BLOCK
5
20
100
AcDbEntity
8
0
100
AcDbBlockBegin
2
*Model_Space
70
0
10
0
20
0
30
0
3
*Model_Space
0
ENDBLK
5
21
100
AcDbEntity
8
0
100
AcDbBlockEnd
0
BLOCK
5
1C
100
AcDbEntity
8
0
100
AcDbBlockBegin
2
*Paper_Space
70
0
10
0
20
0
30
0
3
*Paper_Space
0
ENDBLK
5
1D
100
AcDbEntity
8
0
100
AcDbBlockEnd
0
BLOCK
5
24
100
AcDbEntity
8
0
100
AcDbBlockBegin
2
*Paper_Space0
70
0
10
0
20
0
30
0
3
*Paper_Space0
0
ENDBLK
5
25
100
AcDbEntity
8
0
100
AcDbBlockEnd
0
BLOCK
5
D9
100
AcDbEntity
8
0
100
AcDbBlockBegin
2
DimnDraft3D1
70
0
10
0
20
0
30
0
3
DimnDraft3D1
0
MTEXT
5
D1
100
AcDbEntity
8
SK2
62
256
6
ByLayer
370
18
48
1
60
0
100
AcDbMText
10
-35
20
2.739474
30
0
210
0
220
0
230
1
1
\W0.7183;40
40
3
41
0
44
1.084337
50
90
71
7
72
5
7
iso_b_vert
0
MTEXT
5
D3
100
AcDbEntity
8
SK2
62
256
6
ByLayer
370
18
48
1
60
0
100
AcDbMText
10
-35
20
-3.537089
30
0
210
0
220
0
230
1
1
%%c
40
3
41
0
44
1.084337
50
90
71
7
72
5
7
iso_b_vert
0
LINE
5
D4
100
AcDbEntity
8
SK2
62
256
6
ByLayer
370
13
48
1
60
0
100
AcDbLine
10
-1.7
20
-20
30
0
11
-35.5
21
-20
31
0
39
0
210
0
220
0
230
1
0
LINE
5
D5
100
AcDbEntity
8
SK2
62
256
6
ByLayer
370
13
48
1
60
0
100
AcDbLine
10
-1.7
20
20
30
0
11
-35.5
21
20
31
0
39
0
210
0
220
0
230
1
0
LINE
5
D6
100
AcDbEntity
8
SK2
62
256
6
ByLayer
370
13
48
1
60
0
100
AcDbLine
10
-33.5
20
-20
30
0
11
-33.5
21
20
31
0
39
0
210
0
220
0
230
1
0
SOLID
5
D7
100
AcDbEntity
8
SK2
62
256
6
ByLayer
370
13
48
1
60
0
100
AcDbTrace
10
-33.5
20
-20
30
0
11
-33.833706
21
-16.825001
31
0
12
-33.166294
22
-16.824999
32
0
13
-33.5
23
-20
33
0
39
0
210
0
220
0
230
1
0
SOLID
5
D8
100
AcDbEntity
8
SK2
62
256
6
ByLayer
370
13
48
1
60
0
100
AcDbTrace
10
-33.5
20
20
30
0
11
-33.166294
21
16.825001
31
0
12
-33.833706
22
16.824999
32
0
13
-33.5
23
20
33
0
39
0
210
0
220
0
230
1
0
ENDBLK
5
DA
100
AcDbEntity
8
0
100
AcDbBlockEnd
0
BLOCK
5
E3
100
AcDbEntity
8
0
100
AcDbBlockBegin
2
DimnDraft3D2
70
0
10
0
20
0
30
0
3
DimnDraft3D2
0
MTEXT
5
DD
100
AcDbEntity
8
SK2
62
256
6
ByLayer
370
18
48
1
60
0
100
AcDbMText
10
80.75
20
5.872368
30
0
210
0
220
0
230
1
1
\W0.5144;13
40
3
41
0
44
1.084337
50
90
71
7
72
5
7
iso_b_vert
0
LINE
5
DE
100
AcDbEntity
8
SK2
62
256
6
ByLayer
370
13
48
1
60
0
100
AcDbLine
10
70.8
20
0
30
0
11
83.5
21
0
31
0
39
0
210
0
220
0
230
1
0
LINE
5
DF
100
AcDbEntity
8
SK2
62
256
6
ByLayer
370
13
48
1
60
0
100
AcDbLine
10
50.5
20
13
30
0
11
83.5
21
13
31
0
39
0
210
0
220
0
230
1
0
LINE
5
E0
100
AcDbEntity
8
SK2
62
256
6
ByLayer
370
13
48
1
60
0
100
AcDbLine
10
81.5
20
-7.5
30
0
11
81.5
21
20.5
31
0
39
0
210
0
220
0
230
1
0
SOLID
5
E1
100
AcDbEntity
8
SK2
62
256
6
ByLayer
370
13
48
1
60
0
100
AcDbTrace
10
81.5
20
0
30
0
11
81.833706
21
-3.174999
31
0
12
81.166294
22
-3.175001
32
0
13
81.5
23
0
33
0
39
0
210
0
220
0
230
1
0
SOLID
5
E2
100
AcDbEntity
8
SK2
62
256
6
ByLayer
370
13
48
1
60
0
100
AcDbTrace
10
81.5
20
13
30
0
11
81.166294
21
16.174999
31
0
12
81.833706
22
16.175001
32
0
13
81.5
23
13
33
0
39
0
210
0
220
0
230
1
0
ENDBLK
5
E4
100
AcDbEntity
8
0
100
AcDbBlockEnd
0
BLOCK
5
EE
100
AcDbEntity
8
0
100
AcDbBlockBegin
2
DimnDraft3D3
70
0
10
0
20
0
30
0
3
DimnDraft3D3
0
MTEXT
5
E7
100
AcDbEntity
8
2
62
256
6
ByLayer
370
18
48
1
60
0
100
AcDbMText
10
21.321053
20
46.124205
30
0
210
0
220
0
230
1
1
\W0.7640;48.5
40
3
41
0
44
1.084337
50
0
71
7
72
5
7
iso_b_vert
0
LINE
5
E9
100
AcDbEntity
8
2
62
256
6
ByLayer
370
13
48
1
60
0
100
AcDbLine
10
0
20
21.7
30
0
11
0
21
47.374205
31
0
39
0
210
0
220
0
230
1
0
LINE
5
EA
100
AcDbEntity
8
2
62
256
6
ByLayer
370
13
48
1
60
0
100
AcDbLine
10
48.5
20
20
30
0
11
48.5
21
47.374205
31
0
39
0
210
0
220
0
230
1
0
LINE
5
EB
100
AcDbEntity
8
2
62
256
6
ByLayer
370
13
48
1
60
0
100
AcDbLine
10
0
20
45.374205
30
0
11
48.5
21
45.374205
31
0
39
0
210
0
220
0
230
1
0
SOLID
5
EC
100
AcDbEntity
8
2
62
256
6
ByLayer
370
13
48
1
60
0
100
AcDbTrace
10
0
20
45.374205
30
0
11
3.174999
21
45.70791
31
0
12
3.175001
22
45.040499
32
0
13
0
23
45.374205
33
0
39
0
210
0
220
0
230
1
0
SOLID
5
ED
100
AcDbEntity
8
2
62
256
6
ByLayer
370
13
48
1
60
0
100
AcDbTrace
10
48.5
20
45.374205
30
0
11
45.325001
21
45.040499
31
0
12
45.324999
22
45.70791
32
0
13
48.5
23
45.374205
33
0
39
0
210
0
220
0
230
1
0
ENDBLK
5
EF
100
AcDbEntity
8
0
100
AcDbBlockEnd
0
BLOCK
5
F9
100
AcDbEntity
8
0
100
AcDbBlockBegin
2
DimnDraft3D4
70
0
10
0
20
0
30
0
3
DimnDraft3D4
0
MTEXT
5
F2
100
AcDbEntity
8
SK2
62
256
6
ByLayer
370
18
48
1
60
0
100
AcDbMText
10
51.7
20
34.803859
30
0
210
0
220
0
230
1
1
\W0.7361;40
40
3
41
0
44
1.084337
50
0
71
7
72
5
7
iso_b_vert
0
MTEXT
5
F3
100
AcDbEntity
8
SK2
62
256
6
ByLayer
370
18
48
1
60
0
100
AcDbMText
10
45.423437
20
34.803859
30
0
210
0
220
0
230
1
1
%%c
40
3
41
0
44
1.084337
50
0
71
7
72
5
7
iso_b_vert
0
LINE
5
F4
100
AcDbEntity
8
SK2
62
256
6
ByLayer
370
13
48
1
60
0
100
AcDbLine
10
29.5
20
14.324519
30
0
11
29.5
21
35.303859
31
0
39
0
210
0
220
0
230
1
0
LINE
5
F5
100
AcDbEntity
8
SK2
62
256
6
ByLayer
370
13
48
1
60
0
100
AcDbLine
10
68.5
20
14.324519
30
0
11
68.5
21
35.303859
31
0
39
0
210
0
220
0
230
1
0
LINE
5
F6
100
AcDbEntity
8
SK2
62
256
6
ByLayer
370
13
48
1
60
0
100
AcDbLine
10
29.5
20
33.303859
30
0
11
68.5
21
33.303859
31
0
39
0
210
0
220
0
230
1
0
SOLID
5
F7
100
AcDbEntity
8
SK2
62
256
6
ByLayer
370
13
48
1
60
0
100
AcDbTrace
10
29.5
20
33.303859
30
0
11
32.674999
21
33.637565
31
0
12
32.675001
22
32.970153
32
0
13
29.5
23
33.303859
33
0
39
0
210
0
220
0
230
1
0
SOLID
5
F8
100
AcDbEntity
8
SK2
62
256
6
ByLayer
370
13
48
1
60
0
100
AcDbTrace
10
68.5
20
33.303859
30
0
11
65.325001
21
32.970153
31
0
12
65.324999
22
33.637565
32
0
13
68.5
23
33.303859
33
0
39
0
210
0
220
0
230
1
0
ENDBLK
5
FA
100
AcDbEntity
8
0
100
AcDbBlockEnd
0
ENDSEC
0
SECTION
2
ENTITIES
0
CIRCLE
5
AF
100
AcDbEntity
8
1
62
256
6
ByLayer
370
18
48
1
60
0
100
AcDbCircle
10
-48.5
20
-2
30
0
40
4.14143307609568
39
0
210
0
220
0
230
-1
0
CIRCLE
5
B0
100
AcDbEntity
8
1
62
256
6
ByLayer
370
18
48
1
60
0
100
AcDbCircle
10
-48.5
20
-2
30
0
40
3.17170746233157
39
0
210
0
220
0
230
-1
0
ELLIPSE
5
B1
100
AcDbEntity
8
1
62
256
6
ByLayer
370
18
48
1
60
0
100
AcDbEllipse
10
-0.948929
20
0
30
0
11
-9.36741787978187
21
19.74174915275
31
0
210
0
220
0
230
-1
40
0.341999
41
2.04527312608989
42
2.98886640869145
0
ELLIPSE
5
B2
100
AcDbEntity
8
1
62
256
6
ByLayer
370
18
48
1
60
0
100
AcDbEllipse
10
-0.948929
20
0
30
0
11
-9.36741787978183
21
-19.74174915275
31
0
210
0
220
0
230
-1
40
0.341999
41
-2.98886640869145
42
-2.04527312608989
0
ELLIPSE
5
B3
100
AcDbEntity
8
1
62
256
6
ByLayer
370
18
48
1
60
0
100
AcDbEllipse
10
16.948929
20
0
30
0
11
-9.36741787978176
21
-19.7417491527499
31
0
210
0
220
0
230
-1
40
0.341999
41
0.152726244898346
42
1.09631952749991
0
ELLIPSE
5
B4
100
AcDbEntity
8
1
62
256
6
ByLayer
370
18
48
1
60
0
100
AcDbEllipse
10
16.948929
20
0
30
0
11
-9.36741787978207
21
19.7417491527502
31
0
210
0
220
0
230
-1
40
0.341999
41
-1.0963195274999
42
-0.152726244898338
0
ELLIPSE
5
B5
100
AcDbEntity
8
1
62
256
6
ByLayer
370
18
48
1
60
0
100
AcDbEllipse
10
46.8
20
-31.758198
30
0
11
-15.5563491883665
21
-16.9767761067191
31
0
210
0
220
0
230
-1
40
0.916331
41
2.75189371110707
42
2.85684037042797
0
POINT
5
6C
100
AcDbEntity
8
80
62
256
6
ByLayer
370
18
48
1
60
0
100
AcDbPoint
10
0
20
0
30
0
39
0
210
0
220
0
230
1
50
360
0
POINT
5
6E
100
AcDbEntity
8
81
62
256
6
ByLayer
370
18
48
1
60
0
100
AcDbPoint
10
48.5
20
13
30
0
39
0
210
0
220
0
230
1
50
360
0
SPLINE
5
B6
100
AcDbEntity
8
1
62
256
6
ByLayer
370
18
48
1
60
0
100
AcDbSpline
70
4
71
3
72
13
73
9
40
0
40
0
40
0
40
0
40
0.0076032659670073
40
0.117695821508583
40
0.259929979044513
40
0.484696993414037
40
0.914227471159985
40
1
40
1
40
1
40
1
41
1
10
9.07679491924312
20
-19.1222825906926
30
0
41
1
10
9.0779165683736
20
-19.1222824818149
30
0
41
1
10
9.09524690692502
20
-19.1222238234749
30
0
41
1
10
9.13361485617011
20
-19.1199368878565
30
0
41
1
10
9.19462779634861
20
-19.1089570197387
30
0
41
1
10
9.2707857603667
20
-19.0818012839434
30
0
41
1
10
9.31257902055504
20
-19.0507737102901
30
0
41
1
10
9.33345251254607
20
-19.0283578482605
30
0
41
1
10
9.33660254037844
20
-19.0245744101322
30
0
0
SPLINE
5
B7
100
AcDbEntity
8
1
62
256
6
ByLayer
370
18
48
1
60
0
100
AcDbSpline
70
4
71
3
72
13
73
9
40
0
40
0
40
0
40
0
40
0.0076032659669176
40
0.117695821508536
40
0.259929979044415
40
0.484696993413919
40
0.914227471159632
40
1
40
1
40
1
40
1
41
1
10
6.9232050807569
20
-5.8598898045693
30
0
41
1
10
6.92208343162644
20
-5.85989017094226
30
0
41
1
10
6.90475309307502
20
-5.86008143011455
30
0
41
1
10
6.86638514382994
20
-5.8675487658006
30
0
41
1
10
6.80537220365141
20
-5.90327508738741
30
0
41
1
10
6.72921423963341
20
-5.99082752985901
30
0
41
1
10
6.68742097944501
20
-6.08874001225087
30
0
41
1
10
6.66654748745395
20
-6.15805995337823
30
0
41
1
10
6.66339745962156
20
-6.16973001948566
30
0
0
SPLINE
5
B8
100
AcDbEntity
8
1
62
256
6
ByLayer
370
18
48
1
60
0
100
AcDbSpline
70
4
71
3
72
13
73
9
40
0
40
0
40
0
40
0
40
0.0076032659670082
40
0.117695821508584
40
0.259929979044517
40
0.484696993414058
40
0.914227471160009
40
1
40
1
40
1
40
1
41
1
10
9.07679491924312
20
-5.8598898045693
30
0
41
1
10
9.0779165683736
20
-5.85989017094226
30
0
41
1
10
9.09524690692503
20
-5.86008143011455
30
0
41
1
10
9.13361485617011
20
-5.86754876580059
30
0
41
1
10
9.19462779634861
20
-5.90327508738749
30
0
41
1
10
9.27078576036669
20
-5.99082752985906
30
0
41
1
10
9.31257902055504
20
-6.08874001225094
30
0
41
1
10
9.33345251254607
20
-6.15805995337827
30
0
41
1
10
9.33660254037844
20
-6.16973001948565
30
0
0
SPLINE
5
B9
100
AcDbEntity
8
1
62
256
6
ByLayer
370
18
48
1
60
0
100
AcDbSpline
70
4
71
3
72
13
73
9
40
0
40
0
40
0
40
0
40
0.0076032659669164
40
0.117695821508531
40
0.259929979044431
40
0.484696993413861
40
0.914227471159576
40
1
40
1
40
1
40
1
41
1
10
6.9232050807569
20
-19.1222825906926
30
0
41
1
10
6.92208343162644
20
-19.1222824818149
30
0
41
1
10
6.90475309307503
20
-19.1222238234749
30
0
41
1
10
6.86638514382993
20
-19.1199368878565
30
0
41
1
10
6.80537220365143
20
-19.1089570197387
30
0
41
1
10
6.72921423963337
20
-19.0818012839434
30
0
41
1
10
6.68742097944506
20
-19.0507737102901
30
0
41
1
10
6.66654748745395
20
-19.0283578482605
30
0
41
1
10
6.66339745962156
20
-19.0245744101322
30
0
0
SPLINE
5
BA
100
AcDbEntity
8
1
62
256
6
ByLayer
370
18
48
1
60
0
100
AcDbSpline
70
4
71
3
72
13
73
9
40
0
40
0
40
0
40
0
40
0.0076032659670077
40
0.117695821508625
40
0.259929979044524
40
0.484696993414064
40
0.914227471160039
40
1
40
1
40
1
40
1
41
1
10
9.07679491924312
20
19.1222825906926
30
0
41
1
10
9.0779165683736
20
19.122282481815
30
0
41
1
10
9.09524690692504
20
19.1222238234747
30
0
41
1
10
9.13361485617012
20
19.1199368878567
30
0
41
1
10
9.19462779634861
20
19.1089570197386
30
0
41
1
10
9.27078576036673
20
19.0818012839435
30
0
41
1
10
9.31257902055504
20
19.0507737102902
30
0
41
1
10
9.33345251254607
20
19.0283578482605
30
0
41
1
10
9.33660254037844
20
19.0245744101322
30
0
0
SPLINE
5
BB
100
AcDbEntity
8
1
62
256
6
ByLayer
370
18
48
1
60
0
100
AcDbSpline
70
4
71
3
72
13
73
9
40
0
40
0
40
0
40
0
40
0.0076032659669159
40
0.117695821508528
40
0.259929979044409
40
0.484696993413858
40
0.914227471159511
40
1
40
1
40
1
40
1
41
1
10
6.9232050807569
20
5.85988980456935
30
0
41
1
10
6.92208343162644
20
5.85989017094229
30
0
41
1
10
6.904753093075
20
5.86008143011429
30
0
41
1
10
6.86638514382994
20
5.86754876580071
30
0
41
1
10
6.80537220365146
20
5.90327508738742
30
0
41
1
10
6.72921423963336
20
5.990827529859
30
0
41
1
10
6.68742097944509
20
6.0887400122509
30
0
41
1
10
6.66654748745396
20
6.15805995337825
30
0
41
1
10
6.66339745962156
20
6.1697300194857
30
0
0
SPLINE
5
BC
100
AcDbEntity
8
1
62
256
6
ByLayer
370
18
48
1
60
0
100
AcDbSpline
70
4
71
3
72
12
73
8
40
0
40
0
40
0
40
0
40
0.26571994221729
40
0.599036009118064
40
0.761657831218627
40
0.897560774262825
40
1
40
1
40
1
40
1
41
1
10
9.33660254037844
20
6.1697300194857
30
0
41
1
10
9.3273998115192
20
6.1330121365146
30
0
41
1
10
9.29891794835862
20
6.05402946027792
30
0
41
1
10
9.2458654836379
20
5.9573757123208
30
0
41
1
10
9.18004381265053
20
5.89343195669856
30
0
41
1
10
9.12695767963685
20
5.86526993273041
30
0
41
1
10
9.09237493297185
20
5.86026502058234
30
0
41
1
10
9.07679491924312
20
5.85988980456935
30
0
0
SPLINE
5
BD
100
AcDbEntity
8
1
62
256
6
ByLayer
370
18
48
1
60
0
100
AcDbSpline
70
4
71
3
72
13
73
9
40
0
40
0
40
0
40
0
40
0.0076032659670068
40
0.117695821508582
40
0.259929979044468
40
0.484696993413962
40
0.914227471159873
40
1
40
1
40
1
40
1
41
1
10
6.9232050807569
20
19.1222825906926
30
0
41
1
10
6.92208343162642
20
19.122282481815
30
0
41
1
10
6.90475309307499
20
19.1222238234746
30
0
41
1
10
6.86638514382992
20
19.1199368878567
30
0
41
1
10
6.80537220365143
20
19.1089570197386
30
0
41
1
10
6.7292142396333
20
19.0818012839435
30
0
41
1
10
6.68742097944504
20
19.0507737102901
30
0
41
1
10
6.66654748745394
20
19.0283578482605
30
0
41
1
10
6.66339745962156
20
19.0245744101322
30
0
0
SPLINE
5
BE
100
AcDbEntity
8
SK1
62
256
6
ByLayer
370
18
48
1
60
0
100
AcDbSpline
70
4
71
2
72
6
73
3
40
0
40
0
40
0
40
1
40
1
40
1
41
1
10
-24
20
-12.5792497938497
30
0
41
1
10
-23.2502022102615
20
-13.0377782396152
30
0
41
1
10
-22.5004044652876
20
-13.4963063088984
30
0
0
SPLINE
5
BF
100
AcDbEntity
8
SK1
62
256
6
ByLayer
370
18
48
1
60
0
100
AcDbSpline
70
4
71
2
72
6
73
3
40
0
40
0
40
0
40
1
40
1
40
1
41
1
10
-22.5003908339724
20
13.4978821830651
30
0
41
1
10
-23.2501954183652
20
13.0391711291607
30
0
41
1
10
-24
20
12.5804568955075
30
0
0
SPLINE
5
C0
100
AcDbEntity
8
SK1
62
256
6
ByLayer
370
18
48
1
60
0
100
AcDbSpline
70
4
71
2
72
6
73
3
40
0
40
0
40
0
40
1
40
1
40
1
41
1
10
-22.5004731679057
20
-13.4975184982324
30
0
41
1
10
-12.1000849164641
20
-13.7588124518229
30
0
41
1
10
-1.6996966650224
20
-14.0201064054133
30
0
0
SPLINE
5
C1
100
AcDbEntity
8
SK1
62
256
6
ByLayer
370
18
48
1
60
0
100
AcDbSpline
70
4
71
2
72
6
73
3
40
0
40
0
40
0
40
1
40
1
40
1
41
1
10
-1.7001974408282
20
14.020093824208
30
0
41
1
10
-12.100335304367
20
13.7588061612327
30
0
41
1
10
-22.5004731679057
20
13.4975184982574
30
0
0
SPLINE
5
C2
100
AcDbEntity
8
SK1
62
256
6
ByLayer
370
18
48
1
60
0
100
AcDbSpline
70
4
71
3
72
28
73
24
40
0
40
0
40
0
40
0
40
0.135761604367414
40
0.171393453920926
40
0.207013399897749
40
0.242626361604989
40
0.27823494329286
40
0.31390832860647
40
0.349584187522073
40
0.385186569077601
40
0.420788041797325
40
0.459394668871367
40
0.498001770629949
40
0.510451995856266
40
0.560286350705111
40
0.610122130581079
40
0.659960864488943
40
0.709804772522138
40
0.759657503608692
40
0.809525762807934
40
0.834490367187038
40
0.859450952034394
40
1
40
1
40
1
40
1
41
1
10
-1.69968986264464
20
14.0200937890883
30
0
41
1
10
-1.69976034727379
20
12.9935052306126
30
0
41
1
10
-1.69980112056069
20
11.8025468809912
30
0
41
1
10
-1.69984920911925
20
9.99922692389706
30
0
41
1
10
-1.69987049333829
20
9.01390199709131
30
0
41
1
10
-1.69988814682154
20
7.98625494242402
30
0
41
1
10
-1.69990238266623
20
6.92526240371217
30
0
41
1
10
-1.69991365359892
20
5.83786022482686
30
0
41
1
10
-1.69992232358784
20
4.7304347200597
30
0
41
1
10
-1.69992876461603
20
3.60852101839104
30
0
41
1
10
-1.69993335571259
20
2.44444429914822
30
0
41
1
10
-1.69993618105338
20
1.24040176779017
30
0
41
1
10
-1.69993705779558
20
0.280068910638832
30
0
41
1
10
-1.69993655718765
20
-0.8002385376355
30
0
41
1
10
-1.699934872982
20
-2.00021167707732
30
0
41
1
10
-1.69992917167315
20
-3.58855965479478
30
0
41
1
10
-1.69991968360342
20
-5.15557402967945
30
0
41
1
10
-1.69990559197047
20
-6.68969804201428
30
0
41
1
10
-1.69988583653807
20
-8.17648465184412
30
0
41
1
10
-1.69986366555418
20
-9.36063593999962
30
0
41
1
10
-1.69984230050957
20
-10.2594393288995
30
0
41
1
10
-1.69979804266859
20
-11.9005467432782
30
0
41
1
10
-1.69975833973289
20
-13.0466561665981
30
0
41
1
10
-1.6996966648194
20
-14.020106397333
30
0
0
SPLINE
5
C3
100
AcDbEntity
8
1
62
256
6
ByLayer
370
18
48
1
60
0
100
AcDbSpline
70
4
71
3
72
12
73
8
40
0
40
0
40
0
40
0
40
0.187602193993072
40
0.375207678665588
40
0.568358666430465
40
0.761514448571135
40
1
40
1
40
1
40
1
41
1
10
22.7396867478008
20
11.7532188823548
30
0
41
1
10
22.5510796021795
20
11.772593786915
30
0
41
1
10
22.1724212137489
20
11.8229536389658
30
0
41
1
10
21.5921229781742
20
11.9338597848097
30
0
41
1
10
21.0064925554892
20
12.083020172077
30
0
41
1
10
20.3735136464332
20
12.2859268092497
30
0
41
1
10
19.9455094843435
20
12.4568261169774
30
0
41
1
10
19.7113262672456
20
12.5606801384869
30
0
0
SPLINE
5
C4
100
AcDbEntity
8
1
62
256
6
ByLayer
370
18
48
1
60
0
100
AcDbSpline
70
4
71
3
72
11
73
7
40
0
40
0
40
0
40
0
40
0.246376842452024
40
0.494167273476892
40
0.746238686968864
40
1
40
1
40
1
40
1
41
1
10
19.7113262672456
20
-16.5169148599364
30
0
41
1
10
19.9367756269138
20
-16.3313919033476
30
0
41
1
10
20.4022582557526
20
-15.9809219405913
30
0
41
1
10
21.1511316696348
20
-15.5137748892038
30
0
41
1
10
21.9369317154005
20
-15.1159909794187
30
0
41
1
10
22.4697825858132
20
-14.9013347397742
30
0
41
1
10
22.739686747817
20
-14.8066453623795
30
0
0
SPLINE
5
C5
100
AcDbEntity
8
1
62
256
6
ByLayer
370
18
48
1
60
0
100
AcDbSpline
70
2053
71
3
72
39
73
35
40
0
40
0
40
0
40
0
40
0.0174385706813802
40
0.0348778033736294
40
0.058795672715256
40
0.0827833090304033
40
0.106714415333433
40
0.13291567813931
40
0.159184463555152
40
0.185405893062582
40
0.216212263829816
40
0.247128499408168
40
0.278075327306578
40
0.308923555925085
40
0.34908938635542
40
0.389399701197178
40
0.429724774861972
40
0.469910801975864
40
0.500025299922766
40
0.541747754600164
40
0.583621433089821
40
0.625484360174399
40
0.66719209999992
40
0.699323635239163
40
0.73155551919694
40
0.763758242750635
40
0.795849882892945
40
0.827117965228105
40
0.858458326999122
40
0.889687543536645
40
0.915759628600362
40
0.941904011669837
40
0.967957463444043
40
1
40
1
40
1
40
1
41
1
10
19.7113262672456
20
12.5606801384869
30
0
41
1
10
19.5126162219614
20
12.6492909972098
30
0
41
1
10
19.1256159801291
20
12.8362331721055
30
0
41
1
10
18.5066928638431
20
13.1862091928826
30
0
41
1
10
17.8696148491145
20
13.6128771104851
30
0
41
1
10
17.236574425001
20
14.1164049142428
30
0
41
1
10
16.654630045219
20
14.6585801923159
30
0
41
1
10
16.1340587521018
20
15.2282208996884
30
0
41
1
10
15.6767986294743
20
15.8121251792025
30
0
41
1
10
15.2706071847055
20
16.4150597060313
30
0
41
1
10
14.9233477030905
20
17.0194660456411
30
0
41
1
10
14.6366433987649
20
17.6098760310019
30
0
41
1
10
14.4167214297002
20
18.1468668892897
30
0
41
1
10
14.2355290989672
20
18.6702032453457
30
0
41
1
10
14.0955537880705
20
19.1471542350365
30
0
41
1
10
13.9984763264586
20
19.5476565986837
30
0
41
1
10
13.9440053820959
20
19.8287757112345
30
0
41
1
10
13.9204161574596
20
19.9729167516189
30
0
41
1
10
13.9130647002053
20
20.0163300136744
30
0
41
1
10
13.9212114383731
20
19.9538268682669
30
0
41
1
10
13.9561462465939
20
19.750523331854
30
0
41
1
10
14.0290911373015
20
19.4166697367068
30
0
41
1
10
14.1408248621058
20
18.9897368948258
30
0
41
1
10
14.2900024667067
20
18.5016996205748
30
0
41
1
10
14.4770158671774
20
17.9875374779476
30
0
41
1
10
14.7277674619121
20
17.4103773070328
30
0
41
1
10
15.0519791984952
20
16.7827680977647
30
0
41
1
10
15.4627449102963
20
16.1135796330194
30
0
41
1
10
15.9691058645949
20
15.4226076322047
30
0
41
1
10
16.5510073467635
20
14.7604062225097
30
0
41
1
10
17.1978941551552
20
14.1476777771311
30
0
41
1
10
17.886219780749
20
13.5985327669494
30
0
41
1
10
18.7139880894616
20
13.0502144471699
30
0
41
1
10
19.3446471678161
20
12.7254802601068
30
0
41
1
10
19.7113262672456
20
12.5606801384869
30
0
0
SPLINE
5
C6
100
AcDbEntity
8
1
62
256
6
ByLayer
370
18
48
1
60
0
100
AcDbSpline
70
2053
71
3
72
26
73
22
40
0
40
0
40
0
40
0
40
0.0422908000621884
40
0.0968905236175693
40
0.15169709768255
40
0.206379409518033
40
0.261564898084254
40
0.316947598558791
40
0.372363373203471
40
0.427594119042659
40
0.502573331915729
40
0.577752828228996
40
0.65272080249998
40
0.703252020173516
40
0.753947261675655
40
0.804601140682319
40
0.85507576325932
40
0.902874114241811
40
0.950776901726937
40
0.998511993517556
40
1
40
1
40
1
40
1
41
1
10
19.7113262672456
20
-16.5169148599364
30
0
41
1
10
19.513658401833
20
-16.6822349114278
30
0
41
1
10
19.0919687237643
20
-17.0549986558207
30
0
41
1
10
18.5498982073343
20
-17.6265653437353
30
0
41
1
10
18.086460997412
20
-18.1980882603165
30
0
41
1
10
17.727745751296
20
-18.7106439399197
30
0
41
1
10
17.4555923817889
20
-19.1449175657437
30
0
41
1
10
17.2568181172188
20
-19.4973354020621
30
0
41
1
10
17.1221289327225
20
-19.7622538371658
30
0
41
1
10
17.0313767242006
20
-19.9554556303794
30
0
41
1
10
16.994333904198
20
-20.0275417686274
30
0
41
1
10
17.0376734465655
20
-19.9338572974011
30
0
41
1
10
17.1561696897231
20
-19.6978343042444
30
0
41
1
10
17.3246844249214
20
-19.3767485998677
30
0
41
1
10
17.5259768695006
20
-19.0267203623663
30
0
41
1
10
17.7942215499203
20
-18.6095607018686
30
0
41
1
10
18.1339228266984
20
-18.1395841001869
30
0
41
1
10
18.5535900362901
20
-17.6261076306335
30
0
41
1
10
19.0597551901943
20
-17.0887831131202
30
0
41
1
10
19.4740720197576
20
-16.7127850643621
30
0
41
1
10
19.7043472652535
20
-16.522663432499
30
0
41
1
10
19.7113262672456
20
-16.5169148599364
30
0
0
SPLINE
5
C7
100
AcDbEntity
8
1
62
256
6
ByLayer
370
18
48
1
60
0
100
AcDbSpline
70
4
71
2
72
6
73
3
40
0
40
0
40
0
40
1
40
1
40
1
41
1
10
38.6226821331374
20
-12.0960779858783
30
0
41
1
10
38.0279454143991
20
-12.6212747034607
30
0
41
1
10
37.5349391798385
20
-13.1950630006655
30
0
0
SPLINE
5
C8
100
AcDbEntity
8
1
62
256
6
ByLayer
370
18
48
1
60
0
100
AcDbSpline
70
4
71
3
72
24
73
20
40
0
40
0
40
0
40
0
40
0.0303131862814632
40
0.0606980643885376
40
0.115145879806664
40
0.169788555348677
40
0.224587678693312
40
0.27924948152435
40
0.354348354379764
40
0.429740993134166
40
0.505179909703904
40
0.580469415692408
40
0.655481460940949
40
0.715225402774832
40
0.775141433751219
40
0.835007486542531
40
0.894683069395369
40
0.947345696926041
40
1
40
1
40
1
40
1
41
1
10
68.3
20
-0.54936872163941
30
0
41
1
10
68.2810920747417
20
-0.757716016326078
30
0
41
1
10
68.2359495324264
20
-1.1603800263265
30
0
41
1
10
68.1199797313146
20
-1.85998265039101
30
0
41
1
10
67.9417158927756
20
-2.64476818272653
30
0
41
1
10
67.6796323274532
20
-3.49103202229886
30
0
41
1
10
67.367687585427
20
-4.27841281805651
30
0
41
1
10
66.9625766203693
20
-5.12372417219153
30
0
41
1
10
66.4391293413148
20
-6.0295290883546
30
0
41
1
10
65.7680398736357
20
-6.96823785445381
30
0
41
1
10
64.9992256857172
20
-7.84856092372598
30
0
41
1
10
64.1318407331893
20
-8.66216239956936
30
0
41
1
10
63.229379312937
20
-9.3536553501542
30
0
41
1
10
62.3113112495999
20
-9.93174885611255
30
0
41
1
10
61.3981199700919
20
-10.4041449589876
30
0
41
1
10
60.4197312665718
20
-10.8075862000729
30
0
41
1
10
59.4193498241979
20
-11.1187577032271
30
0
41
1
10
58.4077047314397
20
-11.3394853555287
30
0
41
1
10
57.7350006920652
20
-11.4269022830936
30
0
41
1
10
57.3915325358709
20
-11.4578361857684
30
0
0
SPLINE
5
C9
100
AcDbEntity
8
1
62
256
6
ByLayer
370
18
48
1
60
0
100
AcDbSpline
70
4
71
3
72
33
73
29
40
0
40
0
40
0
40
0
40
0.0664661444454614
40
0.132941858520203
40
0.199376968474014
40
0.235331165235584
40
0.271408286307376
40
0.307439422454494
40
0.343342015269142
40
0.379149388524764
40
0.401588635606769
40
0.424059564800668
40
0.446439555661967
40
0.467212937862269
40
0.487964905249699
40
0.511806149459967
40
0.535660194235611
40
0.559232137121252
40
0.582838510694604
40
0.612943914616154
40
0.64317836419792
40
0.673381203081642
40
0.727572374185769
40
0.781848326081004
40
0.836314247395492
40
0.890935159093395
40
0.945569361332512
40
1
40
1
40
1
40
1
41
1
10
38.6226821331398
20
-12.0960779858728
30
0
41
1
10
37.8328910164649
20
-11.7432018131656
30
0
41
1
10
36.266170263645
20
-11.0111089216117
30
0
41
1
10
33.9478208294712
20
-9.84623307684495
30
0
41
1
10
32.0301106479733
20
-8.77265190398459
30
0
41
1
10
30.4926224999004
20
-7.83348544844092
30
0
41
1
10
29.3197783191759
20
-7.05752129172677
30
0
41
1
10
28.1892357506355
20
-6.22155086580964
30
0
41
1
10
27.1204761963532
20
-5.31271820077635
30
0
41
1
10
26.2550120834745
20
-4.44330803330259
30
0
41
1
10
25.5798602871311
20
-3.6376846232536
30
0
41
1
10
25.0801707095647
20
-2.91710280970471
30
0
41
1
10
24.6734302093356
20
-2.16384971416628
30
0
41
1
10
24.3798350837764
20
-1.38322514290522
30
0
41
1
10
24.2004627439342
20
-0.548046652215927
30
0
41
1
10
24.1811575924132
20
0.348284531533684
30
0
41
1
10
24.3380579578175
20
1.26768756667299
30
0
41
1
10
24.6590676664583
20
2.1388194021737
30
0
41
1
10
25.1396409437025
20
3.02494526219487
30
0
41
1
10
25.7833454439864
20
3.91111142007088
30
0
41
1
10
26.578248386746
20
4.78287106172986
30
0
41
1
10
27.6748850788979
20
5.79509801400933
30
0
41
1
10
29.089896365503
20
6.9178072994439
30
0
41
1
10
30.8452628783858
20
8.10881449616423
30
0
41
1
10
32.6758145692785
20
9.19075318817035
30
0
41
1
10
34.559351070876
20
10.186507307853
30
0
41
1
10
36.476396848056
20
11.1143836825776
30
0
41
1
10
37.7640630067142
20
11.7101469540836
30
0
41
1
10
38.4102832130752
20
12
30
0
0
SPLINE
5
CA
100
AcDbEntity
8
1
62
256
6
ByLayer
370
18
48
1
60
0
100
AcDbSpline
70
4
71
3
72
10
73
6
40
0
40
0
40
0
40
0
40
0.305477471486432
40
0.649182578060641
40
1
40
1
40
1
40
1
41
1
10
26.2010491562286
20
12
30
0
41
1
10
25.8462792980342
20
11.9118104294929
30
0
41
1
10
25.0936217538899
20
11.7653903493805
30
0
41
1
10
23.9245250527812
20
11.6775911581451
30
0
41
1
10
23.1351617245384
20
11.7113510398324
30
0
41
1
10
22.7396867478008
20
11.7532188823548
30
0
0
SPLINE
5
CB
100
AcDbEntity
8
1
62
256
6
ByLayer
370
18
48
1
60
0
100
AcDbSpline
70
4
71
3
72
11
73
7
40
0
40
0
40
0
40
0
40
0.247004395482566
40
0.493990152975661
40
0.747006636260042
40
1
40
1
40
1
40
1
41
1
10
22.739686747817
20
-14.8066453623795
30
0
41
1
10
22.92329312641
20
-14.7414516790668
30
0
41
1
10
23.3000948098531
20
-14.6211140741201
30
0
41
1
10
23.8999367868946
20
-14.4675092673695
30
0
41
1
10
24.5321671856546
20
-14.3477688065937
30
0
41
1
10
24.9723330106315
20
-14.2945881454209
30
0
41
1
10
25.1965201026455
20
-14.2745347957518
30
0
0
LINE
5
70
100
AcDbEntity
8
1
62
256
6
ByLayer
370
18
48
1
60
0
100
AcDbLine
10
9.076795
20
-5.85989
30
0
11
6.923205
21
-5.85989
31
0
39
0
210
0
220
0
230
1
0
LINE
5
72
100
AcDbEntity
8
1
62
256
6
ByLayer
370
18
48
1
60
0
100
AcDbLine
10
6.923205
20
-19.122283
30
0
11
9.076795
21
-19.122283
31
0
39
0
210
0
220
0
230
1
0
LINE
5
73
100
AcDbEntity
8
1
62
256
6
ByLayer
370
18
48
1
60
0
100
AcDbLine
10
9.076795
20
5.85989
30
0
11
6.923205
21
5.85989
31
0
39
0
210
0
220
0
230
1
0
LINE
5
74
100
AcDbEntity
8
1
62
256
6
ByLayer
370
18
48
1
60
0
100
AcDbLine
10
6.923205
20
19.122283
30
0
11
9.076795
21
19.122283
31
0
39
0
210
0
220
0
230
1
0
LINE
5
75
100
AcDbEntity
8
SK1
62
256
6
ByLayer
370
18
48
1
60
0
100
AcDbLine
10
-22.500473
20
13.497518
30
0
11
-22.500473
21
-13.497518
31
0
39
0
210
0
220
0
230
1
0
LINE
5
77
100
AcDbEntity
8
SK1
62
256
6
ByLayer
370
18
48
1
60
0
100
AcDbLine
10
-24
20
-12.579541
30
0
11
-24
21
12.580508
31
0
39
0
210
0
220
0
230
1
0
LINE
5
78
100
AcDbEntity
8
1
62
256
6
ByLayer
370
18
48
1
60
0
100
AcDbLine
10
9.076795
20
-5.85989
30
0
11
9.076795
21
-19.122283
31
0
39
0
210
0
220
0
230
1
0
LINE
5
79
100
AcDbEntity
8
1
62
256
6
ByLayer
370
18
48
1
60
0
100
AcDbLine
10
6.923205
20
-5.85989
30
0
11
6.923205
21
-19.122283
31
0
39
0
210
0
220
0
230
1
0
LINE
5
7A
100
AcDbEntity
8
1
62
256
6
ByLayer
370
18
48
1
60
0
100
AcDbLine
10
9.076795
20
5.85989
30
0
11
9.076795
21
19.122283
31
0
39
0
210
0
220
0
230
1
0
LINE
5
7B
100
AcDbEntity
8
1
62
256
6
ByLayer
370
18
48
1
60
0
100
AcDbLine
10
6.923205
20
5.85989
30
0
11
6.923205
21
19.122283
31
0
39
0
210
0
220
0
230
1
0
LINE
5
7C
100
AcDbEntity
8
1
62
256
6
ByLayer
370
18
48
1
60
0
100
AcDbLine
10
0
20
-19.7
30
0
11
0.3
21
-20
31
0
39
0
210
0
220
0
230
1
0
LINE
5
7D
100
AcDbEntity
8
1
62
256
6
ByLayer
370
18
48
1
60
0
100
AcDbLine
10
0.3
20
20
30
0
11
0
21
19.7
31
0
39
0
210
0
220
0
230
1
0
LINE
5
7E
100
AcDbEntity
8
1
62
256
6
ByLayer
370
18
48
1
60
0
100
AcDbLine
10
0
20
-19.7
30
0
11
0
21
19.7
31
0
39
0
210
0
220
0
230
1
0
LINE
5
7F
100
AcDbEntity
8
SK1
62
256
6
ByLayer
370
18
48
1
60
0
100
AcDbLine
10
0
20
-13.9
30
0
11
-1.699704
21
-13.9
31
0
39
0
210
0
220
0
230
1
0
LINE
5
80
100
AcDbEntity
8
SK1
62
256
6
ByLayer
370
18
48
1
60
0
100
AcDbLine
10
0
20
13.9
30
0
11
-1.699704
21
13.9
31
0
39
0
210
0
220
0
230
1
0
LINE
5
81
100
AcDbEntity
8
1
62
256
6
ByLayer
370
18
48
1
60
0
100
AcDbLine
10
19.711326
20
12.56068
30
0
11
19.711326
21
-16.516915
31
0
39
0
210
0
220
0
230
1
0
LINE
5
82
100
AcDbEntity
8
1
62
256
6
ByLayer
370
18
48
1
60
0
100
AcDbLine
10
29.5
20
12
30
0
11
29.5
21
12.324519
31
0
39
0
210
0
220
0
230
1
0
LINE
5
83
100
AcDbEntity
8
1
62
256
6
ByLayer
370
18
48
1
60
0
100
AcDbLine
10
33.600505
20
18
30
0
11
33.600505
21
23.5
31
0
39
0
210
0
220
0
230
1
0
LINE
5
84
100
AcDbEntity
8
1
62
256
6
ByLayer
370
18
48
1
60
0
100
AcDbLine
10
33.600505
20
23.5
30
0
11
34.100505
21
24
31
0
39
0
210
0
220
0
230
1
0
LINE
5
85
100
AcDbEntity
8
1
62
256
6
ByLayer
370
18
48
1
60
0
100
AcDbLine
10
43.100505
20
24
30
0
11
43.600505
21
23.5
31
0
39
0
210
0
220
0
230
1
0
LINE
5
86
100
AcDbEntity
8
1
62
256
6
ByLayer
370
18
48
1
60
0
100
AcDbLine
10
43.600505
20
23.5
30
0
11
43.600505
21
18
31
0
39
0
210
0
220
0
230
1
0
LINE
5
87
100
AcDbEntity
8
1
62
256
6
ByLayer
370
18
48
1
60
0
100
AcDbLine
10
26.201049
20
12
30
0
11
38.410283
21
12
31
0
39
0
210
0
220
0
230
1
0
LINE
5
88
100
AcDbEntity
8
1
62
256
6
ByLayer
370
18
48
1
60
0
100
AcDbLine
10
43.100505
20
24
30
0
11
34.100505
21
24
31
0
39
0
210
0
220
0
230
1
0
LINE
5
89
100
AcDbEntity
8
1
62
256
6
ByLayer
370
18
48
1
60
0
100
AcDbLine
10
43.600505
20
18
30
0
11
33.600505
21
18
31
0
39
0
210
0
220
0
230
1
0
LINE
5
8A
100
AcDbEntity
8
1
62
256
6
ByLayer
370
18
48
1
60
0
100
AcDbLine
10
41.600505
20
18
30
0
11
41.600505
21
13.324519
31
0
39
0
210
0
220
0
230
1
0
LINE
5
8B
100
AcDbEntity
8
1
62
256
6
ByLayer
370
18
48
1
60
0
100
AcDbLine
10
35.600505
20
13.324519
30
0
11
35.600505
21
18
31
0
39
0
210
0
220
0
230
1
0
LINE
5
8C
100
AcDbEntity
8
1
62
256
6
ByLayer
370
18
48
1
60
0
100
AcDbLine
10
25.19652
20
-14.274535
30
0
11
37.534939
21
-13.195063
31
0
39
0
210
0
220
0
230
1
0
LINE
5
8D
100
AcDbEntity
8
1
62
256
6
ByLayer
370
18
48
1
60
0
100
AcDbLine
10
53.399495
20
23.5
30
0
11
53.899495
21
24
31
0
39
0
210
0
220
0
230
1
0
LINE
5
8E
100
AcDbEntity
8
1
62
256
6
ByLayer
370
18
48
1
60
0
100
AcDbLine
10
53.399495
20
18
30
0
11
53.399495
21
23.5
31
0
39
0
210
0
220
0
230
1
0
LINE
5
8F
100
AcDbEntity
8
1
62
256
6
ByLayer
370
18
48
1
60
0
100
AcDbLine
10
68.5
20
12.324519
30
0
11
68.5
21
12
31
0
39
0
210
0
220
0
230
1
0
LINE
5
90
100
AcDbEntity
8
1
62
256
6
ByLayer
370
18
48
1
60
0
100
AcDbLine
10
63.399495
20
23.5
30
0
11
63.399495
21
18
31
0
39
0
210
0
220
0
230
1
0
LINE
5
91
100
AcDbEntity
8
1
62
256
6
ByLayer
370
18
48
1
60
0
100
AcDbLine
10
62.899495
20
24
30
0
11
63.399495
21
23.5
31
0
39
0
210
0
220
0
230
1
0
LINE
5
92
100
AcDbEntity
8
1
62
256
6
ByLayer
370
18
48
1
60
0
100
AcDbLine
10
62.899495
20
24
30
0
11
53.899495
21
24
31
0
39
0
210
0
220
0
230
1
0
LINE
5
93
100
AcDbEntity
8
1
62
256
6
ByLayer
370
18
48
1
60
0
100
AcDbLine
10
63.399495
20
18
30
0
11
53.399495
21
18
31
0
39
0
210
0
220
0
230
1
0
LINE
5
94
100
AcDbEntity
8
1
62
256
6
ByLayer
370
18
48
1
60
0
100
AcDbLine
10
68.8
20
12
30
0
11
68.8
21
5.165657
31
0
39
0
210
0
220
0
230
1
0
LINE
5
95
100
AcDbEntity
8
1
62
256
6
ByLayer
370
18
48
1
60
0
100
AcDbLine
10
61.399495
20
18
30
0
11
61.399495
21
13.324519
31
0
39
0
210
0
220
0
230
1
0
LINE
5
96
100
AcDbEntity
8
1
62
256
6
ByLayer
370
18
48
1
60
0
100
AcDbLine
10
55.399495
20
13.324519
30
0
11
55.399495
21
18
31
0
39
0
210
0
220
0
230
1
0
LINE
5
97
100
AcDbEntity
8
1
62
256
6
ByLayer
370
18
48
1
60
0
100
AcDbLine
10
68.5
20
12
30
0
11
29.5
21
12
31
0
39
0
210
0
220
0
230
1
0
LINE
5
98
100
AcDbEntity
8
1
62
256
6
ByLayer
370
18
48
1
60
0
100
AcDbLine
10
38.410283
20
12
30
0
11
55.279976
21
12
31
0
39
0
210
0
220
0
230
1
0
LINE
5
99
100
AcDbEntity
8
1
62
256
6
ByLayer
370
18
48
1
60
0
100
AcDbLine
10
55.279976
20
12
30
0
11
68.8
21
12
31
0
39
0
210
0
220
0
230
1
0
LINE
5
9A
100
AcDbEntity
8
1
62
256
6
ByLayer
370
18
48
1
60
0
100
AcDbLine
10
38.622682
20
-12.096078
30
0
11
55.279976
21
-10.638754
31
0
39
0
210
0
220
0
230
1
0
LINE
5
9B
100
AcDbEntity
8
1
62
256
6
ByLayer
370
18
48
1
60
0
100
AcDbLine
10
55.279976
20
-10.638754
30
0
11
55.279976
21
12
31
0
39
0
210
0
220
0
230
1
0
LINE
5
9C
100
AcDbEntity
8
1
62
256
6
ByLayer
370
18
48
1
60
0
100
AcDbLine
10
57.35983
20
-11.46061
30
0
11
37.534939
21
-13.195063
31
0
39
0
210
0
220
0
230
1
0
LINE
5
9D
100
AcDbEntity
8
1
62
256
6
ByLayer
370
18
48
1
60
0
100
AcDbLine
10
68.3
20
-0.549369
30
0
11
68.8
21
5.165657
31
0
39
0
210
0
220
0
230
1
0
LINE
5
9E
100
AcDbEntity
8
1
62
256
6
ByLayer
370
18
48
1
60
0
100
AcDbLine
10
29.5
20
12.324519
30
0
11
30.5
21
13.324519
31
0
39
0
210
0
220
0
230
1
0
LINE
5
9F
100
AcDbEntity
8
1
62
256
6
ByLayer
370
18
48
1
60
0
100
AcDbLine
10
68.5
20
12.324519
30
0
11
67.5
21
13.324519
31
0
39
0
210
0
220
0
230
1
0
LINE
5
A0
100
AcDbEntity
8
1
62
256
6
ByLayer
370
18
48
1
60
0
100
AcDbLine
10
67.5
20
13.324519
30
0
11
30.5
21
13.324519
31
0
39
0
210
0
220
0
230
1
0
LINE
5
A1
100
AcDbEntity
8
1
62
256
6
ByLayer
370
18
48
1
60
0
100
AcDbLine
10
0.3
20
20
30
0
11
13.915559
21
20
31
0
39
0
210
0
220
0
230
1
0
LINE
5
A2
100
AcDbEntity
8
1
62
256
6
ByLayer
370
18
48
1
60
0
100
AcDbLine
10
17.008348
20
-20
30
0
11
0.3
21
-20
31
0
39
0
210
0
220
0
230
1
0
LINE
5
A3
100
AcDbEntity
8
1
62
256
6
ByLayer
370
18
48
1
60
0
100
AcDbLine
10
49.654701
20
0
30
0
11
50.809401
21
-2
31
0
39
0
210
0
220
0
230
1
0
LINE
5
A4
100
AcDbEntity
8
1
62
256
6
ByLayer
370
18
48
1
60
0
100
AcDbLine
10
50.809401
20
-2
30
0
11
49.654701
21
-4
31
0
39
0
210
0
220
0
230
1
0
LINE
5
A5
100
AcDbEntity
8
1
62
256
6
ByLayer
370
18
48
1
60
0
100
AcDbLine
10
47.345299
20
0
30
0
11
46.190599
21
-2
31
0
39
0
210
0
220
0
230
1
0
LINE
5
A6
100
AcDbEntity
8
1
62
256
6
ByLayer
370
18
48
1
60
0
100
AcDbLine
10
49.654701
20
-4
30
0
11
47.345299
21
-4
31
0
39
0
210
0
220
0
230
1
0
LINE
5
A7
100
AcDbEntity
8
1
62
256
6
ByLayer
370
18
48
1
60
0
100
AcDbLine
10
47.345299
20
-4
30
0
11
46.190599
21
-2
31
0
39
0
210
0
220
0
230
1
0
LINE
5
A8
100
AcDbEntity
8
1
62
256
6
ByLayer
370
18
48
1
60
0
100
AcDbLine
10
47.345299
20
0
30
0
11
49.654701
21
0
31
0
39
0
210
0
220
0
230
1
0
LINE
5
A9
100
AcDbEntity
8
4
62
256
6
ByLayer
370
13
48
0.05
60
0
100
AcDbLine
10
0
20
0
30
0
11
68.8
21
0
31
0
39
0
210
0
220
0
230
1
0
LINE
5
AB
100
AcDbEntity
8
SK4
62
256
6
ByLayer
370
13
48
0.05
60
0
100
AcDbLine
10
70.510838
20
0
30
0
11
-27
21
0
31
0
39
0
210
0
220
0
230
1
0
LINE
5
AD
100
AcDbEntity
8
80
62
256
6
ByLayer
370
13
48
1
60
0
100
AcDbLine
10
0
20
0
30
0
11
-8
21
0
31
0
39
0
210
0
220
0
230
1
0
LINE
5
AE
100
AcDbEntity
8
81
62
256
6
ByLayer
370
13
48
1
60
0
100
AcDbLine
10
48.5
20
13
30
0
11
48.5
21
18
31
0
39
0
210
0
220
0
230
1
0
MTEXT
5
CC
100
AcDbEntity
8
SK6
62
256
6
ByLayer
370
18
48
1
60
0
100
AcDbMText
10
-2.543344
20
-31.194866
30
0
210
0
220
0
230
1
1
\W0.7201;C4-570-40-RF
40
3.5
41
0
44
1.084337
50
0
71
7
72
5
7
iso_b_vert
0
DIMENSION
5
DB
100
AcDbEntity
8
SK2
62
256
6
ByLayer
370
13
48
1
60
0
100
AcDbDimension
2
DimnDraft3D1
10
-35.5
20
20
30
0
11
-35.75
21
1.989474
31
0
70
33
71
5
72
1
41
1
210
0
220
0
230
1
3
Standard
100
AcDbAlignedDimension
13
-1.7
23
-20
33
0
14
-1.7
24
20
34
0
1001
ACAD
1000
DSTYLE
1002
{
1070
   279
1070
     0
1070
    74
1070
     0
1070
   173
1070
     1
1070
   340
1005
CD
1070
   271
1070
     3
1070
   272
1070
     3
1070
    77
1070
     1
1070
    73
1070
     0
1070
   171
1070
     3
1070
   274
1070
     3
1070
   177
1070
   254
1070
   176
1070
   254
1070
   178
1070
   254
1070
    78
1070
     8
1070
    41
1041
3.175
1070
   147
1041
1.5
1070
    42
1041
2.0
1070
    44
1041
2.0
1070
   140
1041
3.0
1070
   343
1005
0
1070
   344
1005
0
1002
}
0
DIMENSION
5
E5
100
AcDbEntity
8
SK2
62
256
6
ByLayer
370
13
48
1
60
0
100
AcDbDimension
2
DimnDraft3D2
10
13
20
-81.5
30
0
11
7.877632
21
-81.5
31
0
70
32
71
5
72
1
41
1
210
0
220
0
230
1
3
Standard
100
AcDbAlignedDimension
13
0
23
-70.8
33
0
14
13
24
-50.5
34
0
50
0
100
AcDbRotatedDimension
1001
ACAD
1000
DSTYLE
1002
{
1070
   279
1070
     0
1070
   172
1070
     1
1070
   173
1070
     1
1070
   340
1005
CD
1070
   271
1070
     3
1070
   272
1070
     3
1070
    77
1070
     1
1070
    73
1070
     0
1070
   171
1070
     3
1070
   274
1070
     3
1070
   177
1070
   254
1070
   176
1070
   254
1070
   178
1070
   254
1070
    78
1070
     8
1070
    41
1041
3.175
1070
   147
1041
1.5
1070
    42
1041
2.0
1070
    44
1041
2.0
1070
   140
1041
3.0
1070
   343
1005
0
1070
   344
1005
0
1002
}
0
DIMENSION
5
F0
100
AcDbEntity
8
2
62
256
6
ByLayer
370
13
48
1
60
0
100
AcDbDimension
2
DimnDraft3D3
10
48.5
20
45.374205
30
0
11
20.571053
21
45.374205
31
0
70
32
71
5
72
1
41
1
210
0
220
0
230
1
3
Standard
100
AcDbAlignedDimension
13
0
23
21.7
33
0
14
48.5
24
20
34
0
50
0
100
AcDbRotatedDimension
1001
ACAD
1000
DSTYLE
1002
{
1070
   279
1070
     0
1070
   172
1070
     1
1070
   173
1070
     1
1070
   340
1005
CD
1070
   271
1070
     3
1070
   272
1070
     3
1070
    77
1070
     1
1070
    73
1070
     0
1070
   171
1070
     3
1070
   274
1070
     3
1070
   177
1070
   254
1070
   176
1070
   254
1070
   178
1070
   254
1070
    78
1070
     8
1070
    41
1041
3.175
1070
   147
1041
1.5
1070
    42
1041
2.0
1070
    44
1041
2.0
1070
   140
1041
3.0
1070
   343
1005
0
1070
   344
1005
0
1002
}
0
DIMENSION
5
FB
100
AcDbEntity
8
SK2
62
256
6
ByLayer
370
13
48
1
60
0
100
AcDbDimension
2
DimnDraft3D4
10
68.5
20
35.303859
30
0
11
50.95
21
35.553859
31
0
70
33
71
5
72
1
41
1
210
0
220
0
230
1
3
Standard
100
AcDbAlignedDimension
13
29.5
23
14.324519
33
0
14
68.5
24
14.324519
34
0
1001
ACAD
1000
DSTYLE
1002
{
1070
   279
1070
     0
1070
    74
1070
     0
1070
   173
1070
     1
1070
   340
1005
CD
1070
   271
1070
     3
1070
   272
1070
     3
1070
    77
1070
     1
1070
    73
1070
     0
1070
   171
1070
     3
1070
   274
1070
     3
1070
   177
1070
   254
1070
   176
1070
   254
1070
   178
1070
   254
1070
    78
1070
     8
1070
    41
1041
3.175
1070
   147
1041
1.5
1070
    42
1041
2.0
1070
    44
1041
2.0
1070
   140
1041
3.0
1070
   343
1005
0
1070
   344
1005
0
1002
}
0
ENDSEC
0
SECTION
2
OBJECTS
0
DICTIONARY
5
166
330
0
100
AcDbDictionary
280
0
281
1
3
ACAD_GROUP
350
167
3
ACAD_MLINESTYLE
350
168
0
DICTIONARY
5
167
330
0
100
AcDbDictionary
280
0
281
1
0
DICTIONARY
5
168
330
0
100
AcDbDictionary
280
0
281
1
3
Standard
350
18
0
MLINESTYLE
5
18
330
168
100
AcDbMlineStyle
2
Standard
70
0
3

62
256
51
90
52
90
71
2
49
-0.5
62
256
6
ByLayer
49
0.5
62
256
6
ByLayer
0
RASTERVARIABLES
5
154
330

100
AcDbRasterVariables
90
0
70
1
71
1
72
1
0
ENDSEC
0
EOF
