0
SECTION
2
HEADER
9
$ACADVER
1
AC1015
9
$DWGCODEPAGE
3
ANSI_1252
9
$HANDSEED
5
172
9
$ANGBASE
50
0
9
$ANGDIR
70
0
9
$ATTMODE
70
1
9
$AUNITS
70
0
9
$AUPREC
70
0
9
$CECOLOR
62
256
9
$CELTSCALE
40
1
9
$CELTYPE
6
ByLayer
9
$CELWEIGHT
370
18
9
$CLAYER
8
0
9
$CMLJUST
70
0
9
$CMLSCALE
40
1
9
$CMLSTYLE
2
Standard
9
$DIMSTYLE
2
Standard
9
$TEXTSIZE
40
0.2
9
$TEXTSTYLE
7
Standard
9
$LUNITS
70
2
9
$LUPREC
70
4
9
$EXTNAMES
290
1
9
$INSUNITS
70
4
9
$LTSCALE
40
1
9
$LWDISPLAY
290
1
9
$PDMODE
70
0
9
$PDSIZE
40
0
9
$PLINEGEN
70
0
0
ENDSEC
0
SECTION
2
CLASSES
0
CLASS
1
RASTERVARIABLES
2
AcDbRasterVariables
3
ISM
90
0
280
0
281
0
0
ENDSEC
0
SECTION
2
TABLES
0
TABLE
2
VPORT
5
168
100
AcDbSymbolTable
0
VPORT
5
1
100
AcDbSymbolTableRecord
100
AcDbViewportTableRecord
2
*Active
70
0
10
0
20
0
11
1
21
1
12
-1
22
1
13
0
23
0
14
0.5
24
0.5
15
10
25
10
16
0
26
0
36
1
17
0
27
0
37
0
0
ENDTAB
0
TABLE
2
LTYPE
5
169
100
AcDbSymbolTable
0
LTYPE
5
14
100
AcDbSymbolTableRecord
100
AcDbLinetypeTableRecord
70
0
2
ByBlock
3

72
65
73
0
40
0
0
LTYPE
5
15
100
AcDbSymbolTableRecord
100
AcDbLinetypeTableRecord
70
0
2
ByLayer
3

72
65
73
0
40
0
0
LTYPE
5
16
100
AcDbSymbolTableRecord
100
AcDbLinetypeTableRecord
70
0
2
CONTINUOUS
3
Solid line
72
65
73
0
40
0
0
LTYPE
5
6A
100
AcDbSymbolTableRecord
100
AcDbLinetypeTableRecord
70
0
2
CENTER
3
____ _ ____ _ ____ _ ____
72
65
73
4
40
47.5
49
22
74
0
49
-8.5
74
0
49
8.5
74
0
49
-8.5
74
0
0
LTYPE
5
6B
100
AcDbSymbolTableRecord
100
AcDbLinetypeTableRecord
70
0
2
DASHED
3
__ __ __ __ __ __ __ __ __
72
65
73
2
40
25.72
49
12.86
74
0
49
-12.86
74
0
0
ENDTAB
0
TABLE
2
LAYER
5
16a
100
AcDbSymbolTable
0
LAYER
5
10
100
AcDbSymbolTableRecord
100
AcDbLayerTableRecord
2
0
70
0
62
7
6
CONTINUOUS
290
1
370
-3
390
0
0
LAYER
5
6D
100
AcDbSymbolTableRecord
100
AcDbLayerTableRecord
2
80
70
0
62
-6
6
CONTINUOUS
290
1
370
-3
390
0
0
LAYER
5
6F
100
AcDbSymbolTableRecord
100
AcDbLayerTableRecord
2
81
70
0
62
-3
6
CONTINUOUS
290
1
370
-3
390
0
0
LAYER
5
71
100
AcDbSymbolTableRecord
100
AcDbLayerTableRecord
2
1
70
0
62
4
6
CONTINUOUS
290
1
370
-3
390
0
0
LAYER
5
A9
100
AcDbSymbolTableRecord
100
AcDbLayerTableRecord
2
4
70
0
62
-2
6
CENTER
290
1
370
-3
390
0
0
LAYER
5
E7
100
AcDbSymbolTableRecord
100
AcDbLayerTableRecord
2
2
70
0
62
7
6
CONTINUOUS
290
1
370
-3
390
0
0
LAYER
5
154
100
AcDbSymbolTableRecord
100
AcDbLayerTableRecord
2
SK1
70
0
62
4
6
CONTINUOUS
290
1
370
-3
390
0
0
LAYER
5
155
100
AcDbSymbolTableRecord
100
AcDbLayerTableRecord
2
SK4
70
0
62
2
6
CENTER
290
1
370
-3
390
0
0
LAYER
5
156
100
AcDbSymbolTableRecord
100
AcDbLayerTableRecord
2
SK6
70
0
62
5
6
CONTINUOUS
290
1
370
-3
390
0
0
LAYER
5
157
100
AcDbSymbolTableRecord
100
AcDbLayerTableRecord
2
SK2
70
0
62
7
6
CONTINUOUS
290
1
370
-3
390
0
0
ENDTAB
0
TABLE
2
STYLE
5
16b
100
AcDbSymbolTable
0
STYLE
5
11
100
AcDbSymbolTableRecord
100
AcDbTextStyleTableRecord
2
Standard
3
txt
70
0
71
0
40
0
41
1
42
0
50
0
0
STYLE
5
CC
100
AcDbSymbolTableRecord
100
AcDbTextStyleTableRecord
2
iso_b_vert
3
simplex.shx
70
0
71
0
40
0
41
1
42
0
50
0
0
STYLE
5
CD
100
AcDbSymbolTableRecord
100
AcDbTextStyleTableRecord
2
DWGDirectTextStyle
3
simplex
70
0
71
0
40
0
41
1
42
0
50
0
0
ENDTAB
0
TABLE
2
DIMSTYLE
5
16c
100
AcDbSymbolTable
100
AcDbDimStyleTable
0
DIMSTYLE
105
27
100
AcDbSymbolTableRecord
100
AcDbDimStyleTableRecord
2
Standard
70
0
3
<>
41
0.18
42
0.0625
44
0.18
140
0.18
147
0.09
73
0
74
0
77
1
271
2
275
0
278
52
280
0
340
11
0
ENDTAB
0
TABLE
2
VIEW
5
16d
100
AcDbSymbolTable
0
ENDTAB
0
TABLE
2
UCS
5
16e
100
AcDbSymbolTable
0
ENDTAB
0
TABLE
2
APPID
5
16f
100
AcDbSymbolTable
0
APPID
5
12
100
AcDbSymbolTableRecord
100
AcDbRegAppTableRecord
2
ACAD
70
0
0
ENDTAB
0
TABLE
2
BLOCK_RECORD
5
170
100
AcDbSymbolTable
0
BLOCK_RECORD
5
1F
100
AcDbSymbolTableRecord
100
AcDbBlockTableRecord
2
*Model_Space
340
0
70
0
0
BLOCK_RECORD
5
1B
100
AcDbSymbolTableRecord
100
AcDbBlockTableRecord
2
*Paper_Space
340
0
70
0
0
BLOCK_RECORD
5
23
100
AcDbSymbolTableRecord
100
AcDbBlockTableRecord
2
*Paper_Space0
340
0
70
0
0
BLOCK_RECORD
5
CF
100
AcDbSymbolTableRecord
100
AcDbBlockTableRecord
2
DimnDraft3D1
340
0
70
0
0
BLOCK_RECORD
5
DB
100
AcDbSymbolTableRecord
100
AcDbBlockTableRecord
2
DimnDraft3D2
340
0
70
0
0
BLOCK_RECORD
5
E5
100
AcDbSymbolTableRecord
100
AcDbBlockTableRecord
2
DimnDraft3D3
340
0
70
0
0
BLOCK_RECORD
5
F0
100
AcDbSymbolTableRecord
100
AcDbBlockTableRecord
2
DimnDraft3D4
340
0
70
0
0
ENDTAB
0
ENDSEC
0
SECTION
2
BLOCKS
0
BLOCK
5
20
100
AcDbEntity
8
0
100
AcDbBlockBegin
2
*Model_Space
70
0
10
0
20
0
30
0
3
*Model_Space
0
ENDBLK
5
21
100
AcDbEntity
8
0
100
AcDbBlockEnd
0
BLOCK
5
1C
100
AcDbEntity
8
0
100
AcDbBlockBegin
2
*Paper_Space
70
0
10
0
20
0
30
0
3
*Paper_Space
0
ENDBLK
5
1D
100
AcDbEntity
8
0
100
AcDbBlockEnd
0
BLOCK
5
24
100
AcDbEntity
8
0
100
AcDbBlockBegin
2
*Paper_Space0
70
0
10
0
20
0
30
0
3
*Paper_Space0
0
ENDBLK
5
25
100
AcDbEntity
8
0
100
AcDbBlockEnd
0
BLOCK
5
D8
100
AcDbEntity
8
0
100
AcDbBlockBegin
2
DimnDraft3D1
70
0
10
0
20
0
30
0
3
DimnDraft3D1
0
MTEXT
5
D0
100
AcDbEntity
8
SK2
62
256
6
ByLayer
370
18
48
1
60
0
100
AcDbMText
10
-35
20
2.739474
30
0
210
0
220
0
230
1
1
\W0.7183;40
40
3
41
0
44
1.084337
50
90
71
7
72
5
7
iso_b_vert
0
MTEXT
5
D2
100
AcDbEntity
8
SK2
62
256
6
ByLayer
370
18
48
1
60
0
100
AcDbMText
10
-35
20
-3.537089
30
0
210
0
220
0
230
1
1
%%c
40
3
41
0
44
1.084337
50
90
71
7
72
5
7
iso_b_vert
0
LINE
5
D3
100
AcDbEntity
8
SK2
62
256
6
ByLayer
370
13
48
1
60
0
100
AcDbLine
10
-1.7
20
20
30
0
11
-35.5
21
20
31
0
39
0
210
0
220
0
230
1
0
LINE
5
D4
100
AcDbEntity
8
SK2
62
256
6
ByLayer
370
13
48
1
60
0
100
AcDbLine
10
-1.7
20
-20
30
0
11
-35.5
21
-20
31
0
39
0
210
0
220
0
230
1
0
LINE
5
D5
100
AcDbEntity
8
SK2
62
256
6
ByLayer
370
13
48
1
60
0
100
AcDbLine
10
-33.5
20
20
30
0
11
-33.5
21
-20
31
0
39
0
210
0
220
0
230
1
0
SOLID
5
D6
100
AcDbEntity
8
SK2
62
256
6
ByLayer
370
13
48
1
60
0
100
AcDbTrace
10
-33.5
20
20
30
0
11
-33.166294
21
16.825001
31
0
12
-33.833706
22
16.824999
32
0
13
-33.5
23
20
33
0
39
0
210
0
220
0
230
1
0
SOLID
5
D7
100
AcDbEntity
8
SK2
62
256
6
ByLayer
370
13
48
1
60
0
100
AcDbTrace
10
-33.5
20
-20
30
0
11
-33.833706
21
-16.825001
31
0
12
-33.166294
22
-16.824999
32
0
13
-33.5
23
-20
33
0
39
0
210
0
220
0
230
1
0
ENDBLK
5
D9
100
AcDbEntity
8
0
100
AcDbBlockEnd
0
BLOCK
5
E2
100
AcDbEntity
8
0
100
AcDbBlockBegin
2
DimnDraft3D2
70
0
10
0
20
0
30
0
3
DimnDraft3D2
0
MTEXT
5
DC
100
AcDbEntity
8
SK2
62
256
6
ByLayer
370
18
48
1
60
0
100
AcDbMText
10
70.75
20
-7.127632
30
0
210
0
220
0
230
1
1
\W0.5144;13
40
3
41
0
44
1.084337
50
90
71
7
72
5
7
iso_b_vert
0
LINE
5
DD
100
AcDbEntity
8
SK2
62
256
6
ByLayer
370
13
48
1
60
0
100
AcDbLine
10
60.842029
20
0
30
0
11
73.5
21
0
31
0
39
0
210
0
220
0
230
1
0
LINE
5
DE
100
AcDbEntity
8
SK2
62
256
6
ByLayer
370
13
48
1
60
0
100
AcDbLine
10
45.5
20
-13
30
0
11
73.5
21
-13
31
0
39
0
210
0
220
0
230
1
0
LINE
5
DF
100
AcDbEntity
8
SK2
62
256
6
ByLayer
370
13
48
1
60
0
100
AcDbLine
10
71.5
20
7.5
30
0
11
71.5
21
-20.5
31
0
39
0
210
0
220
0
230
1
0
SOLID
5
E0
100
AcDbEntity
8
SK2
62
256
6
ByLayer
370
13
48
1
60
0
100
AcDbTrace
10
71.5
20
0
30
0
11
71.166294
21
3.174999
31
0
12
71.833706
22
3.175001
32
0
13
71.5
23
0
33
0
39
0
210
0
220
0
230
1
0
SOLID
5
E1
100
AcDbEntity
8
SK2
62
256
6
ByLayer
370
13
48
1
60
0
100
AcDbTrace
10
71.5
20
-13
30
0
11
71.833706
21
-16.174999
31
0
12
71.166294
22
-16.175001
32
0
13
71.5
23
-13
33
0
39
0
210
0
220
0
230
1
0
ENDBLK
5
E3
100
AcDbEntity
8
0
100
AcDbBlockEnd
0
BLOCK
5
ED
100
AcDbEntity
8
0
100
AcDbBlockBegin
2
DimnDraft3D3
70
0
10
0
20
0
30
0
3
DimnDraft3D3
0
MTEXT
5
E6
100
AcDbEntity
8
2
62
256
6
ByLayer
370
18
48
1
60
0
100
AcDbMText
10
18.821053
20
-43.943336
30
0
210
0
220
0
230
1
1
\W0.7640;43.5
40
3
41
0
44
1.084337
50
0
71
7
72
5
7
iso_b_vert
0
LINE
5
E8
100
AcDbEntity
8
2
62
256
6
ByLayer
370
13
48
1
60
0
100
AcDbLine
10
0
20
-21.7
30
0
11
0
21
-46.693336
31
0
39
0
210
0
220
0
230
1
0
LINE
5
E9
100
AcDbEntity
8
2
62
256
6
ByLayer
370
13
48
1
60
0
100
AcDbLine
10
43.5
20
-20
30
0
11
43.5
21
-46.693336
31
0
39
0
210
0
220
0
230
1
0
LINE
5
EA
100
AcDbEntity
8
2
62
256
6
ByLayer
370
13
48
1
60
0
100
AcDbLine
10
0
20
-44.693336
30
0
11
43.5
21
-44.693336
31
0
39
0
210
0
220
0
230
1
0
SOLID
5
EB
100
AcDbEntity
8
2
62
256
6
ByLayer
370
13
48
1
60
0
100
AcDbTrace
10
0
20
-44.693336
30
0
11
3.174999
21
-44.35963
31
0
12
3.175001
22
-45.027042
32
0
13
0
23
-44.693336
33
0
39
0
210
0
220
0
230
1
0
SOLID
5
EC
100
AcDbEntity
8
2
62
256
6
ByLayer
370
13
48
1
60
0
100
AcDbTrace
10
43.5
20
-44.693336
30
0
11
40.325001
21
-45.027042
31
0
12
40.324999
22
-44.35963
32
0
13
43.5
23
-44.693336
33
0
39
0
210
0
220
0
230
1
0
ENDBLK
5
EE
100
AcDbEntity
8
0
100
AcDbBlockEnd
0
BLOCK
5
F8
100
AcDbEntity
8
0
100
AcDbBlockBegin
2
DimnDraft3D4
70
0
10
0
20
0
30
0
3
DimnDraft3D4
0
MTEXT
5
F1
100
AcDbEntity
8
SK2
62
256
6
ByLayer
370
18
48
1
60
0
100
AcDbMText
10
46.857895
20
-32.920703
30
0
210
0
220
0
230
1
1
\W0.6740;32
40
3
41
0
44
1.084337
50
0
71
7
72
5
7
iso_b_vert
0
MTEXT
5
F2
100
AcDbEntity
8
SK2
62
256
6
ByLayer
370
18
48
1
60
0
100
AcDbMText
10
40.581332
20
-32.920703
30
0
210
0
220
0
230
1
1
%%c
40
3
41
0
44
1.084337
50
0
71
7
72
5
7
iso_b_vert
0
LINE
5
F3
100
AcDbEntity
8
SK2
62
256
6
ByLayer
370
13
48
1
60
0
100
AcDbLine
10
28.5
20
-14.324519
30
0
11
28.5
21
-36.420703
31
0
39
0
210
0
220
0
230
1
0
LINE
5
F4
100
AcDbEntity
8
SK2
62
256
6
ByLayer
370
13
48
1
60
0
100
AcDbLine
10
59.5
20
-14.324519
30
0
11
59.5
21
-36.420703
31
0
39
0
210
0
220
0
230
1
0
LINE
5
F5
100
AcDbEntity
8
SK2
62
256
6
ByLayer
370
13
48
1
60
0
100
AcDbLine
10
28.5
20
-34.420703
30
0
11
59.5
21
-34.420703
31
0
39
0
210
0
220
0
230
1
0
SOLID
5
F6
100
AcDbEntity
8
SK2
62
256
6
ByLayer
370
13
48
1
60
0
100
AcDbTrace
10
28.5
20
-34.420703
30
0
11
31.674999
21
-34.086997
31
0
12
31.675001
22
-34.754409
32
0
13
28.5
23
-34.420703
33
0
39
0
210
0
220
0
230
1
0
SOLID
5
F7
100
AcDbEntity
8
SK2
62
256
6
ByLayer
370
13
48
1
60
0
100
AcDbTrace
10
59.5
20
-34.420703
30
0
11
56.325001
21
-34.754409
31
0
12
56.324999
22
-34.086997
32
0
13
59.5
23
-34.420703
33
0
39
0
210
0
220
0
230
1
0
ENDBLK
5
F9
100
AcDbEntity
8
0
100
AcDbBlockEnd
0
ENDSEC
0
SECTION
2
ENTITIES
0
ARC
5
AA
100
AcDbEntity
8
1
62
256
6
ByLayer
370
18
48
1
60
0
100
AcDbCircle
39
0
10
31.971825
20
-22.5
30
0
40
0.499999999999966
210
0
220
0
230
1
100
AcDbArc
50
180
51
270
0
ARC
5
AB
100
AcDbEntity
8
1
62
256
6
ByLayer
370
18
48
1
60
0
100
AcDbCircle
39
0
10
39.471825
20
-22.5
30
0
40
0.500000000000019
210
0
220
0
230
1
100
AcDbArc
50
270
51
0
0
ARC
5
AC
100
AcDbEntity
8
1
62
256
6
ByLayer
370
18
48
1
60
0
100
AcDbCircle
39
0
10
47.528175
20
-22.5
30
0
40
0.500000000000019
210
0
220
0
230
1
100
AcDbArc
50
180
51
270
0
ARC
5
AD
100
AcDbEntity
8
1
62
256
6
ByLayer
370
18
48
1
60
0
100
AcDbCircle
39
0
10
55.028175
20
-22.5
30
0
40
0.500000000000019
210
0
220
0
230
1
100
AcDbArc
50
270
51
0
0
CIRCLE
5
AE
100
AcDbEntity
8
1
62
256
6
ByLayer
370
18
48
1
60
0
100
AcDbCircle
10
43.5
20
2
30
0
40
4.14143307609568
39
0
210
0
220
0
230
1
0
CIRCLE
5
AF
100
AcDbEntity
8
1
62
256
6
ByLayer
370
18
48
1
60
0
100
AcDbCircle
10
43.5
20
2
30
0
40
3.17170746233157
39
0
210
0
220
0
230
1
0
ELLIPSE
5
B0
100
AcDbEntity
8
1
62
256
6
ByLayer
370
18
48
1
60
0
100
AcDbEllipse
10
-0.948929
20
0
30
0
11
-9.36741787978188
21
-19.74174915275
31
0
210
0
220
0
230
1
40
0.341999
41
2.04527312608989
42
2.98886640869145
0
ELLIPSE
5
B1
100
AcDbEntity
8
1
62
256
6
ByLayer
370
18
48
1
60
0
100
AcDbEllipse
10
-0.948929
20
0
30
0
11
-9.36741787978183
21
19.74174915275
31
0
210
0
220
0
230
1
40
0.341999
41
-2.98886640869145
42
-2.04527312608989
0
ELLIPSE
5
B2
100
AcDbEntity
8
1
62
256
6
ByLayer
370
18
48
1
60
0
100
AcDbEllipse
10
16.948929
20
0
30
0
11
-9.36741787978177
21
19.7417491527499
31
0
210
0
220
0
230
1
40
0.341999
41
0.152726244898346
42
1.09631952749991
0
ELLIPSE
5
B3
100
AcDbEntity
8
1
62
256
6
ByLayer
370
18
48
1
60
0
100
AcDbEllipse
10
16.948929
20
0
30
0
11
-9.36741787978208
21
-19.7417491527502
31
0
210
0
220
0
230
1
40
0.341999
41
-1.0963195274999
42
-0.152726244898338
0
ELLIPSE
5
B4
100
AcDbEntity
8
1
62
256
6
ByLayer
370
18
48
1
60
0
100
AcDbEllipse
10
26.7
20
3.462802
30
0
11
-5.85192227744148
21
6.27793883098899
31
0
210
0
220
0
230
1
40
0.868886
41
-0.820505038922897
42
-0.722142801745837
0
ELLIPSE
5
B5
100
AcDbEntity
8
1
62
256
6
ByLayer
370
18
48
1
60
0
100
AcDbEllipse
10
41.8
20
25.638855
30
0
11
-13.1668251228509
21
14.1253623691557
31
0
210
0
220
0
230
1
40
0.868886
41
2.75919647579
42
2.87845497728403
0
ELLIPSE
5
B6
100
AcDbEntity
8
1
62
256
6
ByLayer
370
18
48
1
60
0
100
AcDbEllipse
10
224.074541
20
0.000146
30
0
11
-201.079416592932
21
14.2117639157071
31
0
210
0
220
0
230
1
40
0.069982
41
0.168328794054077
42
0.17562271974689
0
POINT
5
6C
100
AcDbEntity
8
80
62
256
6
ByLayer
370
18
48
1
60
0
100
AcDbPoint
10
0
20
0
30
0
39
0
210
0
220
0
230
1
50
360
0
POINT
5
6E
100
AcDbEntity
8
81
62
256
6
ByLayer
370
18
48
1
60
0
100
AcDbPoint
10
43.5
20
-13
30
0
39
0
210
0
220
0
230
1
50
360
0
SPLINE
5
B7
100
AcDbEntity
8
1
62
256
6
ByLayer
370
18
48
1
60
0
100
AcDbSpline
70
4
71
3
72
13
73
9
40
0
40
0
40
0
40
0
40
0.0076032659670073
40
0.117695821508583
40
0.259929979044513
40
0.484696993414037
40
0.914227471159985
40
1
40
1
40
1
40
1
41
1
10
9.07679491924312
20
19.1222825906926
30
0
41
1
10
9.0779165683736
20
19.1222824818149
30
0
41
1
10
9.09524690692502
20
19.1222238234749
30
0
41
1
10
9.13361485617011
20
19.1199368878565
30
0
41
1
10
9.19462779634861
20
19.1089570197387
30
0
41
1
10
9.2707857603667
20
19.0818012839434
30
0
41
1
10
9.31257902055504
20
19.0507737102901
30
0
41
1
10
9.33345251254607
20
19.0283578482605
30
0
41
1
10
9.33660254037844
20
19.0245744101322
30
0
0
SPLINE
5
B8
100
AcDbEntity
8
1
62
256
6
ByLayer
370
18
48
1
60
0
100
AcDbSpline
70
4
71
3
72
13
73
9
40
0
40
0
40
0
40
0
40
0.0076032659669176
40
0.117695821508536
40
0.259929979044415
40
0.484696993413919
40
0.914227471159632
40
1
40
1
40
1
40
1
41
1
10
6.9232050807569
20
5.8598898045693
30
0
41
1
10
6.92208343162644
20
5.85989017094226
30
0
41
1
10
6.90475309307502
20
5.86008143011455
30
0
41
1
10
6.86638514382994
20
5.8675487658006
30
0
41
1
10
6.80537220365141
20
5.90327508738741
30
0
41
1
10
6.72921423963341
20
5.99082752985901
30
0
41
1
10
6.68742097944501
20
6.08874001225087
30
0
41
1
10
6.66654748745395
20
6.15805995337823
30
0
41
1
10
6.66339745962156
20
6.16973001948566
30
0
0
SPLINE
5
B9
100
AcDbEntity
8
1
62
256
6
ByLayer
370
18
48
1
60
0
100
AcDbSpline
70
4
71
3
72
13
73
9
40
0
40
0
40
0
40
0
40
0.0076032659670082
40
0.117695821508584
40
0.259929979044517
40
0.484696993414058
40
0.914227471160009
40
1
40
1
40
1
40
1
41
1
10
9.07679491924312
20
5.8598898045693
30
0
41
1
10
9.0779165683736
20
5.85989017094226
30
0
41
1
10
9.09524690692503
20
5.86008143011455
30
0
41
1
10
9.13361485617011
20
5.86754876580059
30
0
41
1
10
9.19462779634861
20
5.90327508738749
30
0
41
1
10
9.27078576036669
20
5.99082752985906
30
0
41
1
10
9.31257902055504
20
6.08874001225094
30
0
41
1
10
9.33345251254607
20
6.15805995337827
30
0
41
1
10
9.33660254037844
20
6.16973001948565
30
0
0
SPLINE
5
BA
100
AcDbEntity
8
1
62
256
6
ByLayer
370
18
48
1
60
0
100
AcDbSpline
70
4
71
3
72
13
73
9
40
0
40
0
40
0
40
0
40
0.0076032659669164
40
0.117695821508531
40
0.259929979044431
40
0.484696993413861
40
0.914227471159576
40
1
40
1
40
1
40
1
41
1
10
6.9232050807569
20
19.1222825906926
30
0
41
1
10
6.92208343162644
20
19.1222824818149
30
0
41
1
10
6.90475309307503
20
19.1222238234749
30
0
41
1
10
6.86638514382993
20
19.1199368878565
30
0
41
1
10
6.80537220365143
20
19.1089570197387
30
0
41
1
10
6.72921423963337
20
19.0818012839434
30
0
41
1
10
6.68742097944506
20
19.0507737102901
30
0
41
1
10
6.66654748745395
20
19.0283578482605
30
0
41
1
10
6.66339745962156
20
19.0245744101322
30
0
0
SPLINE
5
BB
100
AcDbEntity
8
1
62
256
6
ByLayer
370
18
48
1
60
0
100
AcDbSpline
70
4
71
3
72
13
73
9
40
0
40
0
40
0
40
0
40
0.0076032659670077
40
0.117695821508625
40
0.259929979044524
40
0.484696993414064
40
0.914227471160039
40
1
40
1
40
1
40
1
41
1
10
9.07679491924312
20
-19.1222825906926
30
0
41
1
10
9.0779165683736
20
-19.122282481815
30
0
41
1
10
9.09524690692504
20
-19.1222238234747
30
0
41
1
10
9.13361485617012
20
-19.1199368878567
30
0
41
1
10
9.19462779634861
20
-19.1089570197386
30
0
41
1
10
9.27078576036673
20
-19.0818012839435
30
0
41
1
10
9.31257902055504
20
-19.0507737102902
30
0
41
1
10
9.33345251254607
20
-19.0283578482605
30
0
41
1
10
9.33660254037844
20
-19.0245744101322
30
0
0
SPLINE
5
BC
100
AcDbEntity
8
1
62
256
6
ByLayer
370
18
48
1
60
0
100
AcDbSpline
70
4
71
3
72
13
73
9
40
0
40
0
40
0
40
0
40
0.0076032659669159
40
0.117695821508528
40
0.259929979044409
40
0.484696993413858
40
0.914227471159511
40
1
40
1
40
1
40
1
41
1
10
6.9232050807569
20
-5.85988980456935
30
0
41
1
10
6.92208343162644
20
-5.85989017094229
30
0
41
1
10
6.904753093075
20
-5.86008143011429
30
0
41
1
10
6.86638514382994
20
-5.86754876580071
30
0
41
1
10
6.80537220365146
20
-5.90327508738742
30
0
41
1
10
6.72921423963336
20
-5.990827529859
30
0
41
1
10
6.68742097944509
20
-6.0887400122509
30
0
41
1
10
6.66654748745396
20
-6.15805995337825
30
0
41
1
10
6.66339745962156
20
-6.1697300194857
30
0
0
SPLINE
5
BD
100
AcDbEntity
8
1
62
256
6
ByLayer
370
18
48
1
60
0
100
AcDbSpline
70
4
71
3
72
12
73
8
40
0
40
0
40
0
40
0
40
0.26571994221729
40
0.599036009118064
40
0.761657831218627
40
0.897560774262825
40
1
40
1
40
1
40
1
41
1
10
9.33660254037844
20
-6.1697300194857
30
0
41
1
10
9.3273998115192
20
-6.1330121365146
30
0
41
1
10
9.29891794835862
20
-6.05402946027792
30
0
41
1
10
9.2458654836379
20
-5.9573757123208
30
0
41
1
10
9.18004381265053
20
-5.89343195669856
30
0
41
1
10
9.12695767963685
20
-5.86526993273041
30
0
41
1
10
9.09237493297185
20
-5.86026502058234
30
0
41
1
10
9.07679491924312
20
-5.85988980456935
30
0
0
SPLINE
5
BE
100
AcDbEntity
8
1
62
256
6
ByLayer
370
18
48
1
60
0
100
AcDbSpline
70
4
71
3
72
13
73
9
40
0
40
0
40
0
40
0
40
0.0076032659670068
40
0.117695821508582
40
0.259929979044468
40
0.484696993413962
40
0.914227471159873
40
1
40
1
40
1
40
1
41
1
10
6.9232050807569
20
-19.1222825906926
30
0
41
1
10
6.92208343162642
20
-19.122282481815
30
0
41
1
10
6.90475309307499
20
-19.1222238234746
30
0
41
1
10
6.86638514382992
20
-19.1199368878567
30
0
41
1
10
6.80537220365143
20
-19.1089570197386
30
0
41
1
10
6.7292142396333
20
-19.0818012839435
30
0
41
1
10
6.68742097944504
20
-19.0507737102901
30
0
41
1
10
6.66654748745394
20
-19.0283578482605
30
0
41
1
10
6.66339745962156
20
-19.0245744101322
30
0
0
SPLINE
5
BF
100
AcDbEntity
8
SK1
62
256
6
ByLayer
370
18
48
1
60
0
100
AcDbSpline
70
4
71
2
72
6
73
3
40
0
40
0
40
0
40
1
40
1
40
1
41
1
10
-24
20
-12.5792497938497
30
0
41
1
10
-23.2502022102615
20
-13.0377782396152
30
0
41
1
10
-22.5004044652876
20
-13.4963063088984
30
0
0
SPLINE
5
C0
100
AcDbEntity
8
SK1
62
256
6
ByLayer
370
18
48
1
60
0
100
AcDbSpline
70
4
71
2
72
6
73
3
40
0
40
0
40
0
40
1
40
1
40
1
41
1
10
-22.5003908339724
20
13.4978821830651
30
0
41
1
10
-23.2501954183652
20
13.0391711291607
30
0
41
1
10
-24
20
12.5804568955075
30
0
0
SPLINE
5
C1
100
AcDbEntity
8
SK1
62
256
6
ByLayer
370
18
48
1
60
0
100
AcDbSpline
70
4
71
2
72
6
73
3
40
0
40
0
40
0
40
1
40
1
40
1
41
1
10
-22.5004731679057
20
-13.4975184982324
30
0
41
1
10
-12.1000849164641
20
-13.7588124518229
30
0
41
1
10
-1.6996966650224
20
-14.0201064054133
30
0
0
SPLINE
5
C2
100
AcDbEntity
8
SK1
62
256
6
ByLayer
370
18
48
1
60
0
100
AcDbSpline
70
4
71
2
72
6
73
3
40
0
40
0
40
0
40
1
40
1
40
1
41
1
10
-1.7001974408282
20
14.020093824208
30
0
41
1
10
-12.100335304367
20
13.7588061612327
30
0
41
1
10
-22.5004731679057
20
13.4975184982574
30
0
0
SPLINE
5
C3
100
AcDbEntity
8
SK1
62
256
6
ByLayer
370
18
48
1
60
0
100
AcDbSpline
70
4
71
3
72
28
73
24
40
0
40
0
40
0
40
0
40
0.135761604367414
40
0.171393453920926
40
0.207013399897749
40
0.242626361604989
40
0.27823494329286
40
0.31390832860647
40
0.349584187522073
40
0.385186569077601
40
0.420788041797325
40
0.459394668871367
40
0.498001770629949
40
0.510451995856266
40
0.560286350705111
40
0.610122130581079
40
0.659960864488943
40
0.709804772522138
40
0.759657503608692
40
0.809525762807934
40
0.834490367187038
40
0.859450952034394
40
1
40
1
40
1
40
1
41
1
10
-1.69968986264464
20
14.0200937890883
30
0
41
1
10
-1.69976034727379
20
12.9935052306126
30
0
41
1
10
-1.69980112056069
20
11.8025468809912
30
0
41
1
10
-1.69984920911925
20
9.99922692389706
30
0
41
1
10
-1.69987049333829
20
9.01390199709131
30
0
41
1
10
-1.69988814682154
20
7.98625494242402
30
0
41
1
10
-1.69990238266623
20
6.92526240371217
30
0
41
1
10
-1.69991365359892
20
5.83786022482686
30
0
41
1
10
-1.69992232358784
20
4.7304347200597
30
0
41
1
10
-1.69992876461603
20
3.60852101839104
30
0
41
1
10
-1.69993335571259
20
2.44444429914822
30
0
41
1
10
-1.69993618105338
20
1.24040176779017
30
0
41
1
10
-1.69993705779558
20
0.280068910638832
30
0
41
1
10
-1.69993655718765
20
-0.8002385376355
30
0
41
1
10
-1.699934872982
20
-2.00021167707732
30
0
41
1
10
-1.69992917167315
20
-3.58855965479478
30
0
41
1
10
-1.69991968360342
20
-5.15557402967945
30
0
41
1
10
-1.69990559197047
20
-6.68969804201428
30
0
41
1
10
-1.69988583653807
20
-8.17648465184412
30
0
41
1
10
-1.69986366555418
20
-9.36063593999962
30
0
41
1
10
-1.69984230050957
20
-10.2594393288995
30
0
41
1
10
-1.69979804266859
20
-11.9005467432782
30
0
41
1
10
-1.69975833973289
20
-13.0466561665981
30
0
41
1
10
-1.6996966648194
20
-14.020106397333
30
0
0
SPLINE
5
C4
100
AcDbEntity
8
1
62
256
6
ByLayer
370
18
48
1
60
0
100
AcDbSpline
70
2053
71
3
72
56
73
52
40
0
40
0
40
0
40
0
40
0.003587342172215
40
0.0210808121967041
40
0.0386339832546832
40
0.056126416613373
40
0.0729765324296547
40
0.0898808862311976
40
0.106731681501609
40
0.123545502546523
40
0.140412164152364
40
0.157229536456525
40
0.174430336880798
40
0.191681996788953
40
0.208891652679342
40
0.227530022734576
40
0.246217263224989
40
0.264869696944422
40
0.28641000424521
40
0.308027158262404
40
0.329665994088842
40
0.351235967424145
40
0.37976023594035
40
0.408387052415522
40
0.437026319172598
40
0.46556762499962
40
0.500012587461493
40
0.530094346216382
40
0.560285110692981
40
0.590468580298633
40
0.620540355005109
40
0.643830593609385
40
0.667193771102842
40
0.690535816984291
40
0.713797144638885
40
0.73641246184501
40
0.759079973384803
40
0.781667124577762
40
0.800525333103574
40
0.819435847507608
40
0.838280577808868
40
0.857216704511145
40
0.876222725435903
40
0.895152933019908
40
0.912458961107367
40
0.929823122179219
40
0.947128487275069
40
0.963949600648873
40
0.980824649341318
40
0.997646730585891
40
1
40
1
40
1
40
1
41
1
10
26.0224989991992
20
-12
30
0
41
1
10
25.9619417233175
20
-11.9800746165623
30
0
41
1
10
25.6046262109891
20
-11.8664016714273
30
0
41
1
10
24.9309073581545
20
-11.6941064823506
30
0
41
1
10
23.9880729076577
20
-11.5451203831872
30
0
41
1
10
23.0418556047269
20
-11.4857153320262
30
0
41
1
10
22.105798501347
20
-11.5182933106174
30
0
41
1
10
21.1916426322601
20
-11.6337070357219
30
0
41
1
10
20.2993017354794
20
-11.8294416334783
30
0
41
1
10
19.441217732383
20
-12.1040146401527
30
0
41
1
10
18.6261176485058
20
-12.4461974259907
30
0
41
1
10
17.8559326812877
20
-12.850635945074
30
0
41
1
10
17.1421934130849
20
-13.3104295766543
30
0
41
1
10
16.4891867192203
20
-13.8119898783962
30
0
41
1
10
15.8887812453358
20
-14.3543499556523
30
0
41
1
10
15.3511468471811
20
-14.9264479702563
30
0
41
1
10
14.8779893346886
20
-15.5150041841674
30
0
41
1
10
14.4581467296884
20
-16.1230598691788
30
0
41
1
10
14.0988865450636
20
-16.734103422277
30
0
41
1
10
13.8009859712638
20
-17.3338165108598
30
0
41
1
10
13.5700255593525
20
-17.8854339022934
30
0
41
1
10
13.3764438857059
20
-18.4338462606815
30
0
41
1
10
13.2251267479442
20
-18.9463570047223
30
0
41
1
10
13.1184256784552
20
-19.3920582669181
30
0
41
1
10
13.0563846257791
20
-19.7221728055154
30
0
41
1
10
13.021467250014
20
-19.9460581197224
30
0
41
1
10
13.0098134315883
20
-20.0261973769941
30
0
41
1
10
13.0179038902153
20
-19.9534520392068
30
0
41
1
10
13.0488746891556
20
-19.7483448136256
30
0
41
1
10
13.1154401308783
20
-19.4114831411097
30
0
41
1
10
13.219256677677
20
-18.9799562451131
30
0
41
1
10
13.359888433221
20
-18.4854476713022
30
0
41
1
10
13.5387703739698
20
-17.9627983306965
30
0
41
1
10
13.7811156130864
20
-17.3754633425152
30
0
41
1
10
14.0968440437028
20
-16.7365253836924
30
0
41
1
10
14.4992109650655
20
-16.0549672084652
30
0
41
1
10
14.9974446181193
20
-15.3507876445709
30
0
41
1
10
15.5725583747701
20
-14.6747501721144
30
0
41
1
10
16.2141245866914
20
-14.0479961057554
30
0
41
1
10
16.8990300269367
20
-13.4847253635044
30
0
41
1
10
17.6658586125131
20
-12.9610214370456
30
0
41
1
10
18.5132511807743
20
-12.4972158808645
30
0
41
1
10
19.4274438296213
20
-12.1058453550417
30
0
41
1
10
20.3678937010659
20
-11.8087768037255
30
0
41
1
10
21.3173841011204
20
-11.6120685120123
30
0
41
1
10
22.2587458255793
20
-11.5065933457922
30
0
41
1
10
23.1999978359925
20
-11.4894124485802
30
0
41
1
10
24.1281692225879
20
-11.5624648076536
30
0
41
1
10
25.0318739788976
20
-11.7166116266688
30
0
41
1
10
25.6582588933954
20
-11.8825193146322
30
0
41
1
10
25.982781282869
20
-11.9869366841708
30
0
41
1
10
26.0224989991992
20
-12
30
0
0
SPLINE
5
C5
100
AcDbEntity
8
1
62
256
6
ByLayer
370
18
48
1
60
0
100
AcDbSpline
70
2053
71
3
72
41
73
37
40
0
40
0
40
0
40
0
40
0.0280398052518229
40
0.056083786672941
40
0.0779434677181434
40
0.0998677035108323
40
0.12173827016804
40
0.145399307146216
40
0.169122876804596
40
0.192801325855316
40
0.228783325914961
40
0.2649019153327
40
0.300938644401223
40
0.337200756590157
40
0.373592789028349
40
0.410004843553337
40
0.446294353596193
40
0.473145287669592
40
0.499996353503891
40
0.539096280039731
40
0.578337924501709
40
0.617567087516685
40
0.656649931192671
40
0.686153928131769
40
0.715749061220412
40
0.74531744221913
40
0.774784840189319
40
0.803740533510982
40
0.832763521889521
40
0.861683480277658
40
0.885803853042855
40
0.909990951756196
40
0.934093964873761
40
0.95604253161635
40
0.978057394296137
40
1
40
1
40
1
40
1
41
1
10
24.5021964349319
20
12.8236072919568
30
0
41
1
10
24.1324909179846
20
12.9068459653305
30
0
41
1
10
23.4165066864281
20
13.1073218910044
30
0
41
1
10
22.4775665976273
20
13.4874955631425
30
0
41
1
10
21.6808444410359
20
13.9036874274804
30
0
41
1
10
21.0099845853729
20
14.3253452515477
30
0
41
1
10
20.3839096325842
20
14.7893340094344
30
0
41
1
10
19.8130537165321
20
15.2866684752673
30
0
41
1
10
19.3005162337638
20
15.8051281983637
30
0
41
1
10
18.781582333431
20
16.4097349393633
30
0
41
1
10
18.2983678850436
20
17.0784085992889
30
0
41
1
10
17.8826323731432
20
17.7745275185808
30
0
41
1
10
17.5738319695367
20
18.395751992524
30
0
41
1
10
17.3488172029727
20
18.9227366820671
30
0
41
1
10
17.1911042186949
20
19.3523348429496
30
0
41
1
10
17.0887051436858
20
19.6791995265263
30
0
41
1
10
17.033200055812
20
19.8792725175527
30
0
41
1
10
17.0051471995107
20
19.9797509194522
30
0
41
1
10
16.9964877564609
20
20.0149072212245
30
0
41
1
10
17.0094703884633
20
19.9559646158842
30
0
41
1
10
17.0611580460222
20
19.7625878239639
30
0
41
1
10
17.1609673114982
20
19.4453508827876
30
0
41
1
10
17.3056540918705
20
19.0424456302823
30
0
41
1
10
17.489920348174
20
18.5863518171518
30
0
41
1
10
17.7097525412691
20
18.1119096932064
30
0
41
1
10
17.9940559130103
20
17.5818332510581
30
0
41
1
10
18.3517475063604
20
17.0066259159423
30
0
41
1
10
18.7951121697868
20
16.3947023640067
30
0
41
1
10
19.3322075829529
20
15.7649133495098
30
0
41
1
10
19.93868288566
20
15.1660646778136
30
0
41
1
10
20.6027872401907
20
14.6173479660471
30
0
41
1
10
21.3016512622983
20
14.1304771476631
30
0
41
1
10
22.0505231010331
20
13.6989020272959
30
0
41
1
10
22.8382059163405
20
13.3349489814659
30
0
41
1
10
23.6489765861078
20
13.0393423566371
30
0
41
1
10
24.2136723012365
20
12.8882387054822
30
0
41
1
10
24.5021964349319
20
12.8236072919568
30
0
0
SPLINE
5
C6
100
AcDbEntity
8
1
62
256
6
ByLayer
370
18
48
1
60
0
100
AcDbSpline
70
4
71
3
72
11
73
7
40
0
40
0
40
0
40
0
40
0.253241701583116
40
0.493868678353116
40
0.739834312870977
40
1
40
1
40
1
40
1
41
1
10
24.5021964349319
20
12.8236072919568
30
0
41
1
10
24.5623462275115
20
12.7073707221346
30
0
41
1
10
24.6983671739766
20
12.4874699350551
30
0
41
1
10
24.95504636425
20
12.1735724663062
30
0
41
1
10
25.2721178298451
20
11.8852019683079
30
0
41
1
10
25.5281063137914
20
11.7266843890496
30
0
41
1
10
25.6705300000338
20
11.6535028804823
30
0
0
SPLINE
5
C7
100
AcDbEntity
8
1
62
256
6
ByLayer
370
18
48
1
60
0
100
AcDbSpline
70
4
71
1
72
4
73
2
40
0
40
0
40
1
40
1
41
1
10
25.2675272532901
20
12.6855097636095
30
0
41
1
10
24.5021964349319
20
12.8236072919568
30
0
0
SPLINE
5
C8
100
AcDbEntity
8
1
62
256
6
ByLayer
370
18
48
1
60
0
100
AcDbSpline
70
4
71
1
72
4
73
2
40
0
40
0
40
1
40
1
41
1
10
49.436098480245
20
-11.589219128138
30
0
41
1
10
50.0462112512353
20
-12
30
0
0
SPLINE
5
C9
100
AcDbEntity
8
1
62
256
6
ByLayer
370
18
48
1
60
0
100
AcDbSpline
70
4
71
3
72
20
73
16
40
0
40
0
40
0
40
0
40
0.0338541220573323
40
0.0678031375099434
40
0.136964408920007
40
0.20648981411019
40
0.275975188744516
40
0.378033579060303
40
0.480479179884757
40
0.582864375601667
40
0.684840073677214
40
0.775079468512772
40
0.865506007070304
40
0.95562683821243
40
1
40
1
40
1
40
1
41
1
10
59.3
20
1.6412312738001
30
0
41
1
10
59.2855300040387
20
1.7993115160134
30
0
41
1
10
59.2503506286224
20
2.10399855003032
30
0
41
1
10
59.1514176382495
20
2.66469748836881
30
0
41
1
10
58.9893316438365
20
3.3041557629409
30
0
41
1
10
58.741649642567
20
3.98935649187811
30
0
41
1
10
58.4000687544591
20
4.71875835612481
30
0
41
1
10
57.9351736605409
20
5.49890463462922
30
0
41
1
10
57.3111961178767
20
6.2942300839245
30
0
41
1
10
56.5815522454055
20
7.01097006380023
30
0
41
1
10
55.7763602860483
20
7.61981602277854
30
0
41
1
10
54.9057979483331
20
8.1228360088756
30
0
41
1
10
53.9851218168548
20
8.51337839973555
30
0
41
1
10
53.1494021088725
20
8.7489945924042
30
0
41
1
10
52.6212946512013
20
8.84077638611515
30
0
41
1
10
52.4438272229466
20
8.86612988175138
30
0
0
SPLINE
5
CA
100
AcDbEntity
8
1
62
256
6
ByLayer
370
18
48
1
60
0
100
AcDbSpline
70
4
71
3
72
37
73
33
40
0
40
0
40
0
40
0
40
0.0004255362920981
40
0.0268682238314217
40
0.053318477295496
40
0.0795352996992081
40
0.105767773917281
40
0.129803838930763
40
0.153930154506494
40
0.178000201464271
40
0.21193187680252
40
0.245993825821738
40
0.279987463869872
40
0.330868809385019
40
0.381937771443049
40
0.432890999229466
40
0.472951827155864
40
0.513013846513078
40
0.558439497821115
40
0.604033657056269
40
0.649597743420947
40
0.694982229068742
40
0.732127841177201
40
0.769338179155848
40
0.806431044399097
40
0.833491711985797
40
0.860607775589718
40
0.887627595078004
40
0.918909081186734
40
0.950158501288581
40
0.975084322781077
40
1
40
1
40
1
40
1
41
1
10
26.7
20
-11.589219128138
30
0
41
1
10
26.6957032639144
20
-11.5892191611547
30
0
41
1
10
26.4244381555715
20
-11.5889153913296
30
0
41
1
10
25.8852700290433
20
-11.5486371069267
30
0
41
1
10
25.1095465387392
20
-11.3809549210071
30
0
41
1
10
24.3805713332858
20
-11.1088955744128
30
0
41
1
10
23.7289233179966
20
-10.7580969272933
30
0
41
1
10
23.1559448746172
20
-10.343117329242
30
0
41
1
10
22.6564697285351
20
-9.88317872968364
30
0
41
1
10
22.1525195727141
20
-9.30507086240717
30
0
41
1
10
21.671249041869
20
-8.59193052212815
30
0
41
1
10
21.234242714108
20
-7.73918841157836
30
0
41
1
10
20.8228172563541
20
-6.68770192688849
30
0
41
1
10
20.4695276751075
20
-5.42131781661114
30
0
41
1
10
20.2011385086367
20
-3.94069085237684
30
0
41
1
10
20.047874869732
20
-2.53051031805399
30
0
41
1
10
19.9691087734805
20
-1.21372622331399
30
0
41
1
10
19.9455276760523
20
0.0541494705943836
30
0
41
1
10
19.9722593307662
20
1.37801768292726
30
0
41
1
10
20.0631650825855
20
2.74817356556785
30
0
41
1
10
20.2277206998921
20
4.09863136288077
30
0
41
1
10
20.4603669148259
20
5.33666414057313
30
0
41
1
10
20.7552920878444
20
6.4571923454086
30
0
41
1
10
21.111019488783
20
7.45954029065582
30
0
41
1
10
21.5214768381168
20
8.32257150173453
30
0
41
1
10
21.9700917598072
20
9.04764617251529
30
0
41
1
10
22.4343983116856
20
9.64632704415943
30
0
41
1
10
22.9960570987225
20
10.2168169418892
30
0
41
1
10
23.6733004292508
20
10.7312735393374
30
0
41
1
10
24.4204947830148
20
11.1311606414372
30
0
41
1
10
25.1775421984735
20
11.3974808530795
30
0
41
1
10
25.6644496709427
20
11.4989952206832
30
0
41
1
10
25.914370378811
20
11.5346384707355
30
0
0
LINE
5
70
100
AcDbEntity
8
1
62
256
6
ByLayer
370
18
48
1
60
0
100
AcDbLine
10
9.076795
20
5.85989
30
0
11
6.923205
21
5.85989
31
0
39
0
210
0
220
0
230
1
0
LINE
5
72
100
AcDbEntity
8
1
62
256
6
ByLayer
370
18
48
1
60
0
100
AcDbLine
10
6.923205
20
19.122283
30
0
11
9.076795
21
19.122283
31
0
39
0
210
0
220
0
230
1
0
LINE
5
73
100
AcDbEntity
8
1
62
256
6
ByLayer
370
18
48
1
60
0
100
AcDbLine
10
9.076795
20
-5.85989
30
0
11
6.923205
21
-5.85989
31
0
39
0
210
0
220
0
230
1
0
LINE
5
74
100
AcDbEntity
8
1
62
256
6
ByLayer
370
18
48
1
60
0
100
AcDbLine
10
6.923205
20
-19.122283
30
0
11
9.076795
21
-19.122283
31
0
39
0
210
0
220
0
230
1
0
LINE
5
75
100
AcDbEntity
8
SK1
62
256
6
ByLayer
370
18
48
1
60
0
100
AcDbLine
10
-22.500473
20
13.497518
30
0
11
-22.500473
21
-13.497518
31
0
39
0
210
0
220
0
230
1
0
LINE
5
77
100
AcDbEntity
8
SK1
62
256
6
ByLayer
370
18
48
1
60
0
100
AcDbLine
10
-24
20
-12.579541
30
0
11
-24
21
12.580508
31
0
39
0
210
0
220
0
230
1
0
LINE
5
78
100
AcDbEntity
8
1
62
256
6
ByLayer
370
18
48
1
60
0
100
AcDbLine
10
9.076795
20
5.85989
30
0
11
9.076795
21
19.122283
31
0
39
0
210
0
220
0
230
1
0
LINE
5
79
100
AcDbEntity
8
1
62
256
6
ByLayer
370
18
48
1
60
0
100
AcDbLine
10
6.923205
20
5.85989
30
0
11
6.923205
21
19.122283
31
0
39
0
210
0
220
0
230
1
0
LINE
5
7A
100
AcDbEntity
8
1
62
256
6
ByLayer
370
18
48
1
60
0
100
AcDbLine
10
9.076795
20
-5.85989
30
0
11
9.076795
21
-19.122283
31
0
39
0
210
0
220
0
230
1
0
LINE
5
7B
100
AcDbEntity
8
1
62
256
6
ByLayer
370
18
48
1
60
0
100
AcDbLine
10
6.923205
20
-5.85989
30
0
11
6.923205
21
-19.122283
31
0
39
0
210
0
220
0
230
1
0
LINE
5
7C
100
AcDbEntity
8
1
62
256
6
ByLayer
370
18
48
1
60
0
100
AcDbLine
10
0
20
-19.7
30
0
11
0.3
21
-20
31
0
39
0
210
0
220
0
230
1
0
LINE
5
7D
100
AcDbEntity
8
1
62
256
6
ByLayer
370
18
48
1
60
0
100
AcDbLine
10
0.3
20
20
30
0
11
0
21
19.7
31
0
39
0
210
0
220
0
230
1
0
LINE
5
7E
100
AcDbEntity
8
1
62
256
6
ByLayer
370
18
48
1
60
0
100
AcDbLine
10
0
20
-19.7
30
0
11
0
21
19.7
31
0
39
0
210
0
220
0
230
1
0
LINE
5
7F
100
AcDbEntity
8
SK1
62
256
6
ByLayer
370
18
48
1
60
0
100
AcDbLine
10
0
20
-13.9
30
0
11
-1.699704
21
-13.9
31
0
39
0
210
0
220
0
230
1
0
LINE
5
80
100
AcDbEntity
8
SK1
62
256
6
ByLayer
370
18
48
1
60
0
100
AcDbLine
10
0
20
13.9
30
0
11
-1.699704
21
13.9
31
0
39
0
210
0
220
0
230
1
0
LINE
5
81
100
AcDbEntity
8
1
62
256
6
ByLayer
370
18
48
1
60
0
100
AcDbLine
10
28.5
20
-12.324519
30
0
11
28.5
21
-12
31
0
39
0
210
0
220
0
230
1
0
LINE
5
82
100
AcDbEntity
8
1
62
256
6
ByLayer
370
18
48
1
60
0
100
AcDbLine
10
31.471825
20
-18
30
0
11
31.471825
21
-22.5
31
0
39
0
210
0
220
0
230
1
0
LINE
5
83
100
AcDbEntity
8
1
62
256
6
ByLayer
370
18
48
1
60
0
100
AcDbLine
10
25.267527
20
12.68551
30
0
11
25.67053
21
12.628871
31
0
39
0
210
0
220
0
230
1
0
LINE
5
84
100
AcDbEntity
8
1
62
256
6
ByLayer
370
18
48
1
60
0
100
AcDbLine
10
39.971825
20
-22.5
30
0
11
39.971825
21
-18
31
0
39
0
210
0
220
0
230
1
0
LINE
5
85
100
AcDbEntity
8
1
62
256
6
ByLayer
370
18
48
1
60
0
100
AcDbLine
10
47.028175
20
-18
30
0
11
47.028175
21
-22.5
31
0
39
0
210
0
220
0
230
1
0
LINE
5
86
100
AcDbEntity
8
1
62
256
6
ByLayer
370
18
48
1
60
0
100
AcDbLine
10
55.528175
20
-22.5
30
0
11
55.528175
21
-18
31
0
39
0
210
0
220
0
230
1
0
LINE
5
87
100
AcDbEntity
8
1
62
256
6
ByLayer
370
18
48
1
60
0
100
AcDbLine
10
55.028175
20
-23
30
0
11
47.528175
21
-23
31
0
39
0
210
0
220
0
230
1
0
LINE
5
88
100
AcDbEntity
8
1
62
256
6
ByLayer
370
18
48
1
60
0
100
AcDbLine
10
55.528175
20
-18
30
0
11
47.028175
21
-18
31
0
39
0
210
0
220
0
230
1
0
LINE
5
89
100
AcDbEntity
8
1
62
256
6
ByLayer
370
18
48
1
60
0
100
AcDbLine
10
59.5
20
-12.324519
30
0
11
59.5
21
-12
31
0
39
0
210
0
220
0
230
1
0
LINE
5
8A
100
AcDbEntity
8
1
62
256
6
ByLayer
370
18
48
1
60
0
100
AcDbLine
10
59.8
20
-12
30
0
11
59.8
21
-4.073795
31
0
39
0
210
0
220
0
230
1
0
LINE
5
8B
100
AcDbEntity
8
1
62
256
6
ByLayer
370
18
48
1
60
0
100
AcDbLine
10
52.443827
20
8.86613
30
0
11
51.321169
21
9.023909
31
0
39
0
210
0
220
0
230
1
0
LINE
5
8C
100
AcDbEntity
8
1
62
256
6
ByLayer
370
18
48
1
60
0
100
AcDbLine
10
49.436098
20
-11.589219
30
0
11
26.7
21
-11.589219
31
0
39
0
210
0
220
0
230
1
0
LINE
5
8D
100
AcDbEntity
8
1
62
256
6
ByLayer
370
18
48
1
60
0
100
AcDbLine
10
25.67053
20
12.628871
30
0
11
51.321169
21
9.023909
31
0
39
0
210
0
220
0
230
1
0
LINE
5
8E
100
AcDbEntity
8
1
62
256
6
ByLayer
370
18
48
1
60
0
100
AcDbLine
10
26.7
20
11.462802
30
0
11
49.436098
21
8.264772
31
0
39
0
210
0
220
0
230
1
0
LINE
5
8F
100
AcDbEntity
8
1
62
256
6
ByLayer
370
18
48
1
60
0
100
AcDbLine
10
49.436098
20
8.264772
30
0
11
49.436098
21
-11.589219
31
0
39
0
210
0
220
0
230
1
0
LINE
5
90
100
AcDbEntity
8
1
62
256
6
ByLayer
370
18
48
1
60
0
100
AcDbLine
10
26.7
20
11.462802
30
0
11
26.7
21
-11.589219
31
0
39
0
210
0
220
0
230
1
0
LINE
5
91
100
AcDbEntity
8
1
62
256
6
ByLayer
370
18
48
1
60
0
100
AcDbLine
10
39.971825
20
-18
30
0
11
31.471825
21
-18
31
0
39
0
210
0
220
0
230
1
0
LINE
5
92
100
AcDbEntity
8
1
62
256
6
ByLayer
370
18
48
1
60
0
100
AcDbLine
10
39.471825
20
-23
30
0
11
31.971825
21
-23
31
0
39
0
210
0
220
0
230
1
0
LINE
5
93
100
AcDbEntity
8
1
62
256
6
ByLayer
370
18
48
1
60
0
100
AcDbLine
10
59.8
20
-4.073795
30
0
11
59.3
21
1.641231
31
0
39
0
210
0
220
0
230
1
0
LINE
5
94
100
AcDbEntity
8
1
62
256
6
ByLayer
370
18
48
1
60
0
100
AcDbLine
10
33.221825
20
-13.324519
30
0
11
33.221825
21
-18
31
0
39
0
210
0
220
0
230
1
0
LINE
5
95
100
AcDbEntity
8
1
62
256
6
ByLayer
370
18
48
1
60
0
100
AcDbLine
10
38.221825
20
-18
30
0
11
38.221825
21
-13.324519
31
0
39
0
210
0
220
0
230
1
0
LINE
5
96
100
AcDbEntity
8
1
62
256
6
ByLayer
370
18
48
1
60
0
100
AcDbLine
10
48.778175
20
-13.324519
30
0
11
48.778175
21
-18
31
0
39
0
210
0
220
0
230
1
0
LINE
5
97
100
AcDbEntity
8
1
62
256
6
ByLayer
370
18
48
1
60
0
100
AcDbLine
10
53.778175
20
-18
30
0
11
53.778175
21
-13.324519
31
0
39
0
210
0
220
0
230
1
0
LINE
5
98
100
AcDbEntity
8
1
62
256
6
ByLayer
370
18
48
1
60
0
100
AcDbLine
10
26.022499
20
-12
30
0
11
59.8
21
-12
31
0
39
0
210
0
220
0
230
1
0
LINE
5
99
100
AcDbEntity
8
1
62
256
6
ByLayer
370
18
48
1
60
0
100
AcDbLine
10
58.5
20
-13.324519
30
0
11
29.5
21
-13.324519
31
0
39
0
210
0
220
0
230
1
0
LINE
5
9A
100
AcDbEntity
8
1
62
256
6
ByLayer
370
18
48
1
60
0
100
AcDbLine
10
59.5
20
-12.324519
30
0
11
58.5
21
-13.324519
31
0
39
0
210
0
220
0
230
1
0
LINE
5
9B
100
AcDbEntity
8
1
62
256
6
ByLayer
370
18
48
1
60
0
100
AcDbLine
10
28.5
20
-12.324519
30
0
11
29.5
21
-13.324519
31
0
39
0
210
0
220
0
230
1
0
LINE
5
9C
100
AcDbEntity
8
1
62
256
6
ByLayer
370
18
48
1
60
0
100
AcDbLine
10
0.3
20
-20
30
0
11
13.01314
21
-20
31
0
39
0
210
0
220
0
230
1
0
LINE
5
9D
100
AcDbEntity
8
1
62
256
6
ByLayer
370
18
48
1
60
0
100
AcDbLine
10
17
20
20
30
0
11
0.3
21
20
31
0
39
0
210
0
220
0
230
1
0
LINE
5
9E
100
AcDbEntity
8
1
62
256
6
ByLayer
370
18
48
1
60
0
100
AcDbLine
10
44.654701
20
0
30
0
11
45.809401
21
2
31
0
39
0
210
0
220
0
230
1
0
LINE
5
9F
100
AcDbEntity
8
1
62
256
6
ByLayer
370
18
48
1
60
0
100
AcDbLine
10
45.809401
20
2
30
0
11
44.654701
21
4
31
0
39
0
210
0
220
0
230
1
0
LINE
5
A0
100
AcDbEntity
8
1
62
256
6
ByLayer
370
18
48
1
60
0
100
AcDbLine
10
42.345299
20
0
30
0
11
41.190599
21
2
31
0
39
0
210
0
220
0
230
1
0
LINE
5
A1
100
AcDbEntity
8
1
62
256
6
ByLayer
370
18
48
1
60
0
100
AcDbLine
10
44.654701
20
4
30
0
11
42.345299
21
4
31
0
39
0
210
0
220
0
230
1
0
LINE
5
A2
100
AcDbEntity
8
1
62
256
6
ByLayer
370
18
48
1
60
0
100
AcDbLine
10
42.345299
20
4
30
0
11
41.190599
21
2
31
0
39
0
210
0
220
0
230
1
0
LINE
5
A3
100
AcDbEntity
8
1
62
256
6
ByLayer
370
18
48
1
60
0
100
AcDbLine
10
42.345299
20
0
30
0
11
44.654701
21
0
31
0
39
0
210
0
220
0
230
1
0
LINE
5
A4
100
AcDbEntity
8
80
62
256
6
ByLayer
370
13
48
1
60
0
100
AcDbLine
10
0
20
0
30
0
11
-8
21
0
31
0
39
0
210
0
220
0
230
1
0
LINE
5
A5
100
AcDbEntity
8
81
62
256
6
ByLayer
370
13
48
1
60
0
100
AcDbLine
10
43.5
20
-13
30
0
11
43.5
21
-18
31
0
39
0
210
0
220
0
230
1
0
LINE
5
A6
100
AcDbEntity
8
SK4
62
256
6
ByLayer
370
13
48
0.05
60
0
100
AcDbLine
10
61.338658
20
0
30
0
11
-27
21
0
31
0
39
0
210
0
220
0
230
1
0
LINE
5
A8
100
AcDbEntity
8
4
62
256
6
ByLayer
370
13
48
0.05
60
0
100
AcDbLine
10
0
20
0
30
0
11
58.842029
21
0
31
0
39
0
210
0
220
0
230
1
0
MTEXT
5
CB
100
AcDbEntity
8
SK6
62
256
6
ByLayer
370
18
48
1
60
0
100
AcDbMText
10
3.028865
20
27.825051
30
0
210
0
220
0
230
1
1
\W0.7146;C4-570-32-LF
40
3.5
41
0
44
1.084337
50
0
71
7
72
5
7
iso_b_vert
0
DIMENSION
5
DA
100
AcDbEntity
8
SK2
62
256
6
ByLayer
370
13
48
1
60
0
100
AcDbDimension
2
DimnDraft3D1
10
-35.5
20
-20
30
0
11
-35.75
21
1.989474
31
0
70
33
71
5
72
1
41
1
210
0
220
0
230
1
3
Standard
100
AcDbAlignedDimension
13
-1.7
23
20
33
0
14
-1.7
24
-20
34
0
1001
ACAD
1000
DSTYLE
1002
{
1070
   279
1070
     0
1070
    74
1070
     0
1070
   173
1070
     1
1070
   340
1005
CC
1070
   271
1070
     3
1070
   272
1070
     3
1070
    77
1070
     1
1070
    73
1070
     0
1070
   171
1070
     3
1070
   274
1070
     3
1070
   177
1070
   254
1070
   176
1070
   254
1070
   178
1070
   254
1070
    78
1070
     8
1070
    41
1041
3.175
1070
   147
1041
1.5
1070
    42
1041
2.0
1070
    44
1041
2.0
1070
   140
1041
3.0
1070
   343
1005
0
1070
   344
1005
0
1002
}
0
DIMENSION
5
E4
100
AcDbEntity
8
SK2
62
256
6
ByLayer
370
13
48
1
60
0
100
AcDbDimension
2
DimnDraft3D2
10
-13
20
-71.5
30
0
11
-7.877632
21
-71.5
31
0
70
32
71
5
72
1
41
1
210
0
220
0
230
1
3
Standard
100
AcDbAlignedDimension
13
0
23
-60.842029
33
0
14
-13
24
-45.5
34
0
50
0
100
AcDbRotatedDimension
1001
ACAD
1000
DSTYLE
1002
{
1070
   279
1070
     0
1070
   172
1070
     1
1070
   173
1070
     1
1070
   340
1005
CC
1070
   271
1070
     3
1070
   272
1070
     3
1070
    77
1070
     1
1070
    73
1070
     0
1070
   171
1070
     3
1070
   274
1070
     3
1070
   177
1070
   254
1070
   176
1070
   254
1070
   178
1070
   254
1070
    78
1070
     8
1070
    41
1041
3.175
1070
   147
1041
1.5
1070
    42
1041
2.0
1070
    44
1041
2.0
1070
   140
1041
3.0
1070
   343
1005
0
1070
   344
1005
0
1002
}
0
DIMENSION
5
EF
100
AcDbEntity
8
2
62
256
6
ByLayer
370
13
48
1
60
0
100
AcDbDimension
2
DimnDraft3D3
10
43.5
20
-44.693336
30
0
11
18.071053
21
-44.693336
31
0
70
32
71
5
72
1
41
1
210
0
220
0
230
1
3
Standard
100
AcDbAlignedDimension
13
0
23
-21.7
33
0
14
43.5
24
-20
34
0
50
0
100
AcDbRotatedDimension
1001
ACAD
1000
DSTYLE
1002
{
1070
   279
1070
     0
1070
   172
1070
     1
1070
   173
1070
     1
1070
   340
1005
CC
1070
   271
1070
     3
1070
   272
1070
     3
1070
    77
1070
     1
1070
    73
1070
     0
1070
   171
1070
     3
1070
   274
1070
     3
1070
   177
1070
   254
1070
   176
1070
   254
1070
   178
1070
   254
1070
    78
1070
     8
1070
    41
1041
3.175
1070
   147
1041
1.5
1070
    42
1041
2.0
1070
    44
1041
2.0
1070
   140
1041
3.0
1070
   343
1005
0
1070
   344
1005
0
1002
}
0
DIMENSION
5
FA
100
AcDbEntity
8
SK2
62
256
6
ByLayer
370
13
48
1
60
0
100
AcDbDimension
2
DimnDraft3D4
10
59.5
20
-36.420703
30
0
11
46.107895
21
-32.170703
31
0
70
33
71
5
72
1
41
1
210
0
220
0
230
1
3
Standard
100
AcDbAlignedDimension
13
28.5
23
-14.324519
33
0
14
59.5
24
-14.324519
34
0
1001
ACAD
1000
DSTYLE
1002
{
1070
   279
1070
     0
1070
    74
1070
     0
1070
   173
1070
     1
1070
   340
1005
CC
1070
   271
1070
     3
1070
   272
1070
     3
1070
    77
1070
     1
1070
    73
1070
     0
1070
   171
1070
     3
1070
   274
1070
     3
1070
   177
1070
   254
1070
   176
1070
   254
1070
   178
1070
   254
1070
    78
1070
     8
1070
    41
1041
3.175
1070
   147
1041
1.5
1070
    42
1041
2.0
1070
    44
1041
2.0
1070
   140
1041
3.0
1070
   343
1005
0
1070
   344
1005
0
1002
}
0
ENDSEC
0
SECTION
2
OBJECTS
0
DICTIONARY
5
165
330
0
100
AcDbDictionary
280
0
281
1
3
ACAD_GROUP
350
166
3
ACAD_MLINESTYLE
350
167
0
DICTIONARY
5
166
330
0
100
AcDbDictionary
280
0
281
1
0
DICTIONARY
5
167
330
0
100
AcDbDictionary
280
0
281
1
3
Standard
350
18
0
MLINESTYLE
5
18
330
167
100
AcDbMlineStyle
2
Standard
70
0
3

62
256
51
90
52
90
71
2
49
-0.5
62
256
6
ByLayer
49
0.5
62
256
6
ByLayer
0
RASTERVARIABLES
5
153
330

100
AcDbRasterVariables
90
0
70
1
71
1
72
1
0
ENDSEC
0
EOF
