0
SECTION
2
HEADER
9
$ACADVER
1
AC1015
9
$DWGCODEPAGE
3
ANSI_1252
9
$HANDSEED
5
262
9
$ANGBASE
50
0
9
$ANGDIR
70
0
9
$ATTMODE
70
1
9
$AUNITS
70
0
9
$AUPREC
70
0
9
$CECOLOR
62
256
9
$CELTSCALE
40
1
9
$CELTYPE
6
ByLayer
9
$CELWEIGHT
370
18
9
$CLAYER
8
0
9
$CMLJUST
70
0
9
$CMLSCALE
40
1
9
$CMLSTYLE
2
Standard
9
$DIMSTYLE
2
Standard
9
$TEXTSIZE
40
0.2
9
$TEXTSTYLE
7
Standard
9
$LUNITS
70
2
9
$LUPREC
70
4
9
$EXTNAMES
290
1
9
$INSUNITS
70
4
9
$LTSCALE
40
1
9
$LWDISPLAY
290
1
9
$PDMODE
70
0
9
$PDSIZE
40
0
9
$PLINEGEN
70
0
0
ENDSEC
0
SECTION
2
CLASSES
0
CLASS
1
RASTERVARIABLES
2
AcDbRasterVariables
3
ISM
90
0
280
0
281
0
0
ENDSEC
0
SECTION
2
TABLES
0
TABLE
2
VPORT
5
258
100
AcDbSymbolTable
0
VPORT
5
1
100
AcDbSymbolTableRecord
100
AcDbViewportTableRecord
2
*Active
70
0
10
0
20
0
11
1
21
1
12
-1
22
1
13
0
23
0
14
0.5
24
0.5
15
10
25
10
16
0
26
0
36
1
17
0
27
0
37
0
0
ENDTAB
0
TABLE
2
LTYPE
5
259
100
AcDbSymbolTable
0
LTYPE
5
14
100
AcDbSymbolTableRecord
100
AcDbLinetypeTableRecord
70
0
2
ByBlock
3

72
65
73
0
40
0
0
LTYPE
5
15
100
AcDbSymbolTableRecord
100
AcDbLinetypeTableRecord
70
0
2
ByLayer
3

72
65
73
0
40
0
0
LTYPE
5
16
100
AcDbSymbolTableRecord
100
AcDbLinetypeTableRecord
70
0
2
CONTINUOUS
3
Solid line
72
65
73
0
40
0
0
LTYPE
5
6A
100
AcDbSymbolTableRecord
100
AcDbLinetypeTableRecord
70
0
2
CENTER
3
____ _ ____ _ ____ _ ____
72
65
73
4
40
47.5
49
22
74
0
49
-8.5
74
0
49
8.5
74
0
49
-8.5
74
0
0
LTYPE
5
6B
100
AcDbSymbolTableRecord
100
AcDbLinetypeTableRecord
70
0
2
DASHED
3
__ __ __ __ __ __ __ __ __
72
65
73
2
40
25.72
49
12.86
74
0
49
-12.86
74
0
0
ENDTAB
0
TABLE
2
LAYER
5
25a
100
AcDbSymbolTable
0
LAYER
5
10
100
AcDbSymbolTableRecord
100
AcDbLayerTableRecord
2
0
70
0
62
7
6
CONTINUOUS
290
1
370
-3
390
0
0
LAYER
5
6D
100
AcDbSymbolTableRecord
100
AcDbLayerTableRecord
2
80
70
0
62
-6
6
CONTINUOUS
290
1
370
-3
390
0
0
LAYER
5
6F
100
AcDbSymbolTableRecord
100
AcDbLayerTableRecord
2
81
70
0
62
-3
6
CONTINUOUS
290
1
370
-3
390
0
0
LAYER
5
76
100
AcDbSymbolTableRecord
100
AcDbLayerTableRecord
2
1
70
0
62
4
6
CONTINUOUS
290
1
370
-3
390
0
0
LAYER
5
91
100
AcDbSymbolTableRecord
100
AcDbLayerTableRecord
2
4
70
0
62
-2
6
CENTER
290
1
370
-3
390
0
0
LAYER
5
1CC
100
AcDbSymbolTableRecord
100
AcDbLayerTableRecord
2
2
70
0
62
7
6
CONTINUOUS
290
1
370
-3
390
0
0
LAYER
5
244
100
AcDbSymbolTableRecord
100
AcDbLayerTableRecord
2
SK2
70
0
62
7
6
CONTINUOUS
290
1
370
-3
390
0
0
LAYER
5
245
100
AcDbSymbolTableRecord
100
AcDbLayerTableRecord
2
SK4
70
0
62
2
6
CENTER
290
1
370
-3
390
0
0
LAYER
5
246
100
AcDbSymbolTableRecord
100
AcDbLayerTableRecord
2
SK1
70
0
62
4
6
CONTINUOUS
290
1
370
-3
390
0
0
LAYER
5
247
100
AcDbSymbolTableRecord
100
AcDbLayerTableRecord
2
SK6
70
0
62
5
6
CONTINUOUS
290
1
370
-3
390
0
0
ENDTAB
0
TABLE
2
STYLE
5
25b
100
AcDbSymbolTable
0
STYLE
5
11
100
AcDbSymbolTableRecord
100
AcDbTextStyleTableRecord
2
Standard
3
txt
70
0
71
0
40
0
41
1
42
0
50
0
0
STYLE
5
1B3
100
AcDbSymbolTableRecord
100
AcDbTextStyleTableRecord
2
iso_b_vert
3
simplex.shx
70
0
71
0
40
0
41
1
42
0
50
0
0
STYLE
5
1B4
100
AcDbSymbolTableRecord
100
AcDbTextStyleTableRecord
2
DWGDirectTextStyle
3
simplex
70
0
71
0
40
0
41
1
42
0
50
0
0
ENDTAB
0
TABLE
2
DIMSTYLE
5
25c
100
AcDbSymbolTable
100
AcDbDimStyleTable
0
DIMSTYLE
105
27
100
AcDbSymbolTableRecord
100
AcDbDimStyleTableRecord
2
Standard
70
0
3
<>
41
0.18
42
0.0625
44
0.18
140
0.18
147
0.09
73
0
74
0
77
1
271
2
275
0
278
52
280
0
340
11
0
ENDTAB
0
TABLE
2
VIEW
5
25d
100
AcDbSymbolTable
0
ENDTAB
0
TABLE
2
UCS
5
25e
100
AcDbSymbolTable
0
ENDTAB
0
TABLE
2
APPID
5
25f
100
AcDbSymbolTable
0
APPID
5
12
100
AcDbSymbolTableRecord
100
AcDbRegAppTableRecord
2
ACAD
70
0
0
ENDTAB
0
TABLE
2
BLOCK_RECORD
5
260
100
AcDbSymbolTable
0
BLOCK_RECORD
5
1F
100
AcDbSymbolTableRecord
100
AcDbBlockTableRecord
2
*Model_Space
340
0
70
0
0
BLOCK_RECORD
5
1B
100
AcDbSymbolTableRecord
100
AcDbBlockTableRecord
2
*Paper_Space
340
0
70
0
0
BLOCK_RECORD
5
23
100
AcDbSymbolTableRecord
100
AcDbBlockTableRecord
2
*Paper_Space0
340
0
70
0
0
BLOCK_RECORD
5
1B6
100
AcDbSymbolTableRecord
100
AcDbBlockTableRecord
2
DimnDraft3D1
340
0
70
0
0
BLOCK_RECORD
5
1C0
100
AcDbSymbolTableRecord
100
AcDbBlockTableRecord
2
DimnDraft3D2
340
0
70
0
0
BLOCK_RECORD
5
1CA
100
AcDbSymbolTableRecord
100
AcDbBlockTableRecord
2
DimnDraft3D3
340
0
70
0
0
BLOCK_RECORD
5
1D5
100
AcDbSymbolTableRecord
100
AcDbBlockTableRecord
2
DimnDraft3D4
340
0
70
0
0
BLOCK_RECORD
5
1E0
100
AcDbSymbolTableRecord
100
AcDbBlockTableRecord
2
DimnDraft3D5
340
0
70
0
0
ENDTAB
0
ENDSEC
0
SECTION
2
BLOCKS
0
BLOCK
5
20
100
AcDbEntity
8
0
100
AcDbBlockBegin
2
*Model_Space
70
0
10
0
20
0
30
0
3
*Model_Space
0
ENDBLK
5
21
100
AcDbEntity
8
0
100
AcDbBlockEnd
0
BLOCK
5
1C
100
AcDbEntity
8
0
100
AcDbBlockBegin
2
*Paper_Space
70
0
10
0
20
0
30
0
3
*Paper_Space
0
ENDBLK
5
1D
100
AcDbEntity
8
0
100
AcDbBlockEnd
0
BLOCK
5
24
100
AcDbEntity
8
0
100
AcDbBlockBegin
2
*Paper_Space0
70
0
10
0
20
0
30
0
3
*Paper_Space0
0
ENDBLK
5
25
100
AcDbEntity
8
0
100
AcDbBlockEnd
0
BLOCK
5
1BD
100
AcDbEntity
8
0
100
AcDbBlockBegin
2
DimnDraft3D1
70
0
10
0
20
0
30
0
3
DimnDraft3D1
0
MTEXT
5
1B7
100
AcDbEntity
8
SK2
62
256
6
ByLayer
370
18
48
1
60
0
100
AcDbMText
10
37.605234
20
27.475134
30
0
210
0
220
0
230
1
1
\W0.6563;31.2
40
3.5
41
0
44
1.084337
50
0
71
7
72
5
7
iso_b_vert
0
LINE
5
1B8
100
AcDbEntity
8
SK2
62
256
6
ByLayer
370
13
48
1
60
0
100
AcDbLine
10
24.8
20
13.5875
30
0
11
24.8
21
28.6
31
0
39
0
210
0
220
0
230
1
0
LINE
5
1B9
100
AcDbEntity
8
SK2
62
256
6
ByLayer
370
13
48
1
60
0
100
AcDbLine
10
56
20
13.5875
30
0
11
56
21
28.6
31
0
39
0
210
0
220
0
230
1
0
LINE
5
1BA
100
AcDbEntity
8
SK2
62
256
6
ByLayer
370
13
48
1
60
0
100
AcDbLine
10
24.8
20
26.6
30
0
11
56
21
26.6
31
0
39
0
210
0
220
0
230
1
0
SOLID
5
1BB
100
AcDbEntity
8
SK2
62
256
6
ByLayer
370
13
48
1
60
0
100
AcDbTrace
10
24.8
20
26.6
30
0
11
28.299998
21
27.060784
31
0
12
28.300002
22
26.139216
32
0
13
24.8
23
26.6
33
0
39
0
210
0
220
0
230
1
0
SOLID
5
1BC
100
AcDbEntity
8
SK2
62
256
6
ByLayer
370
13
48
1
60
0
100
AcDbTrace
10
56
20
26.6
30
0
11
52.500002
21
26.139216
31
0
12
52.499998
22
27.060784
32
0
13
56
23
26.6
33
0
39
0
210
0
220
0
230
1
0
ENDBLK
5
1BE
100
AcDbEntity
8
0
100
AcDbBlockEnd
0
BLOCK
5
1C7
100
AcDbEntity
8
0
100
AcDbBlockBegin
2
DimnDraft3D2
70
0
10
0
20
0
30
0
3
DimnDraft3D2
0
MTEXT
5
1C1
100
AcDbEntity
8
SK2
62
256
6
ByLayer
370
18
48
1
60
0
100
AcDbMText
10
75.020186
20
10.875
30
0
210
0
220
0
230
1
1
\W0.7610;4.0
40
3.5
41
0
44
1.084337
50
90
71
7
72
5
7
iso_b_vert
0
LINE
5
1C2
100
AcDbEntity
8
SK2
62
256
6
ByLayer
370
13
48
1
60
0
100
AcDbLine
10
57.5875
20
-4
30
0
11
77.895319
21
-4
31
0
39
0
210
0
220
0
230
1
0
LINE
5
1C3
100
AcDbEntity
8
SK2
62
256
6
ByLayer
370
13
48
1
60
0
100
AcDbLine
10
57.5875
20
0
30
0
11
77.895319
21
0
31
0
39
0
210
0
220
0
230
1
0
LINE
5
1C4
100
AcDbEntity
8
SK2
62
256
6
ByLayer
370
13
48
1
60
0
100
AcDbLine
10
75.895319
20
15.967465
30
0
11
75.895319
21
-12.75
31
0
39
0
210
0
220
0
230
1
0
SOLID
5
1C5
100
AcDbEntity
8
SK2
62
256
6
ByLayer
370
13
48
1
60
0
100
AcDbTrace
10
75.895319
20
-4
30
0
11
76.356103
21
-7.499998
31
0
12
75.434536
22
-7.500002
32
0
13
75.895319
23
-4
33
0
39
0
210
0
220
0
230
1
0
SOLID
5
1C6
100
AcDbEntity
8
SK2
62
256
6
ByLayer
370
13
48
1
60
0
100
AcDbTrace
10
75.895319
20
0
30
0
11
75.434536
21
3.499998
31
0
12
76.356103
22
3.500002
32
0
13
75.895319
23
0
33
0
39
0
210
0
220
0
230
1
0
ENDBLK
5
1C8
100
AcDbEntity
8
0
100
AcDbBlockEnd
0
BLOCK
5
1D2
100
AcDbEntity
8
0
100
AcDbBlockBegin
2
DimnDraft3D3
70
0
10
0
20
0
30
0
3
DimnDraft3D3
0
MTEXT
5
1CB
100
AcDbEntity
8
2
62
256
6
ByLayer
370
18
48
1
60
0
100
AcDbMText
10
24.767801
20
37.475134
30
0
210
0
220
0
230
1
1
\W0.7346;56.0
40
3.5
41
0
44
1.084337
50
0
71
7
72
5
7
iso_b_vert
0
LINE
5
1CD
100
AcDbEntity
8
2
62
256
6
ByLayer
370
13
48
1
60
0
100
AcDbLine
10
0
20
21.5875
30
0
11
0
21
38.6
31
0
39
0
210
0
220
0
230
1
0
LINE
5
1CE
100
AcDbEntity
8
2
62
256
6
ByLayer
370
13
48
1
60
0
100
AcDbLine
10
56
20
13.5875
30
0
11
56
21
38.6
31
0
39
0
210
0
220
0
230
1
0
LINE
5
1CF
100
AcDbEntity
8
2
62
256
6
ByLayer
370
13
48
1
60
0
100
AcDbLine
10
0
20
36.6
30
0
11
56
21
36.6
31
0
39
0
210
0
220
0
230
1
0
SOLID
5
1D0
100
AcDbEntity
8
2
62
256
6
ByLayer
370
13
48
1
60
0
100
AcDbTrace
10
0
20
36.6
30
0
11
3.499998
21
37.060784
31
0
12
3.500002
22
36.139216
32
0
13
0
23
36.6
33
0
39
0
210
0
220
0
230
1
0
SOLID
5
1D1
100
AcDbEntity
8
2
62
256
6
ByLayer
370
13
48
1
60
0
100
AcDbTrace
10
56
20
36.6
30
0
11
52.500002
21
36.139216
31
0
12
52.499998
22
37.060784
32
0
13
56
23
36.6
33
0
39
0
210
0
220
0
230
1
0
ENDBLK
5
1D3
100
AcDbEntity
8
0
100
AcDbBlockEnd
0
BLOCK
5
1DD
100
AcDbEntity
8
0
100
AcDbBlockBegin
2
DimnDraft3D4
70
0
10
0
20
0
30
0
3
DimnDraft3D4
0
MTEXT
5
1D6
100
AcDbEntity
8
SK2
62
256
6
ByLayer
370
18
48
1
60
0
100
AcDbMText
10
-47.350134
20
2.975267
30
0
210
0
220
0
230
1
1
\W0.7361;40
40
3.5
41
0
44
1.084337
50
90
71
7
72
5
7
iso_b_vert
0
MTEXT
5
1D7
100
AcDbEntity
8
SK2
62
256
6
ByLayer
370
18
48
1
60
0
100
AcDbMText
10
-47.350134
20
-3.997389
30
0
210
0
220
0
230
1
1
%%c
40
3.5
41
0
44
1.084337
50
90
71
7
72
5
7
iso_b_vert
0
LINE
5
1D8
100
AcDbEntity
8
SK2
62
256
6
ByLayer
370
13
48
1
60
0
100
AcDbLine
10
-1.5875
20
20
30
0
11
-47.6
21
20
31
0
39
0
210
0
220
0
230
1
0
LINE
5
1D9
100
AcDbEntity
8
SK2
62
256
6
ByLayer
370
13
48
1
60
0
100
AcDbLine
10
-1.5875
20
-20
30
0
11
-47.6
21
-20
31
0
39
0
210
0
220
0
230
1
0
LINE
5
1DA
100
AcDbEntity
8
SK2
62
256
6
ByLayer
370
13
48
1
60
0
100
AcDbLine
10
-45.6
20
20
30
0
11
-45.6
21
-20
31
0
39
0
210
0
220
0
230
1
0
SOLID
5
1DB
100
AcDbEntity
8
SK2
62
256
6
ByLayer
370
13
48
1
60
0
100
AcDbTrace
10
-45.6
20
20
30
0
11
-45.139216
21
16.500002
31
0
12
-46.060784
22
16.499998
32
0
13
-45.6
23
20
33
0
39
0
210
0
220
0
230
1
0
SOLID
5
1DC
100
AcDbEntity
8
SK2
62
256
6
ByLayer
370
13
48
1
60
0
100
AcDbTrace
10
-45.6
20
-20
30
0
11
-46.060784
21
-16.500002
31
0
12
-45.139216
22
-16.499998
32
0
13
-45.6
23
-20
33
0
39
0
210
0
220
0
230
1
0
ENDBLK
5
1DE
100
AcDbEntity
8
0
100
AcDbBlockEnd
0
BLOCK
5
1E8
100
AcDbEntity
8
0
100
AcDbBlockBegin
2
DimnDraft3D5
70
0
10
0
20
0
30
0
3
DimnDraft3D5
0
MTEXT
5
1E1
100
AcDbEntity
8
SK2
62
256
6
ByLayer
370
18
48
1
60
0
100
AcDbMText
10
84.145186
20
-0.840466
30
0
210
0
220
0
230
1
1
\W0.6740;32
40
3.5
41
0
44
1.084337
50
90
71
7
72
5
7
iso_b_vert
0
MTEXT
5
1E2
100
AcDbEntity
8
SK2
62
256
6
ByLayer
370
18
48
1
60
0
100
AcDbMText
10
84.145186
20
-7.813122
30
0
210
0
220
0
230
1
1
%%c
40
3.5
41
0
44
1.084337
50
90
71
7
72
5
7
iso_b_vert
0
LINE
5
1E3
100
AcDbEntity
8
SK2
62
256
6
ByLayer
370
13
48
1
60
0
100
AcDbLine
10
57.5875
20
12
30
0
11
87.895319
21
12
31
0
39
0
210
0
220
0
230
1
0
LINE
5
1E4
100
AcDbEntity
8
SK2
62
256
6
ByLayer
370
13
48
1
60
0
100
AcDbLine
10
57.5875
20
-20
30
0
11
87.895319
21
-20
31
0
39
0
210
0
220
0
230
1
0
LINE
5
1E5
100
AcDbEntity
8
SK2
62
256
6
ByLayer
370
13
48
1
60
0
100
AcDbLine
10
85.895319
20
12
30
0
11
85.895319
21
-20
31
0
39
0
210
0
220
0
230
1
0
SOLID
5
1E6
100
AcDbEntity
8
SK2
62
256
6
ByLayer
370
13
48
1
60
0
100
AcDbTrace
10
85.895319
20
12
30
0
11
86.356103
21
8.500002
31
0
12
85.434536
22
8.499998
32
0
13
85.895319
23
12
33
0
39
0
210
0
220
0
230
1
0
SOLID
5
1E7
100
AcDbEntity
8
SK2
62
256
6
ByLayer
370
13
48
1
60
0
100
AcDbTrace
10
85.895319
20
-20
30
0
11
85.434536
21
-16.500002
31
0
12
86.356103
22
-16.499998
32
0
13
85.895319
23
-20
33
0
39
0
210
0
220
0
230
1
0
ENDBLK
5
1E9
100
AcDbEntity
8
0
100
AcDbBlockEnd
0
ENDSEC
0
SECTION
2
ENTITIES
0
ARC
5
105
100
AcDbEntity
8
1
62
256
6
ByLayer
370
18
48
1
60
0
100
AcDbCircle
39
0
10
-24.8
20
16
30
0
40
4
210
0
220
0
230
-1
100
AcDbArc
50
270
51
349.611142
0
ARC
5
106
100
AcDbEntity
8
1
62
256
6
ByLayer
370
18
48
1
60
0
100
AcDbCircle
39
0
10
65.0855
20
7.528175
30
0
40
0.5
210
0
220
0
230
1
100
AcDbArc
50
0
51
90
0
ARC
5
107
100
AcDbEntity
8
1
62
256
6
ByLayer
370
18
48
1
60
0
100
AcDbCircle
39
0
10
65.0855
20
0.028175
30
0
40
0.5
210
0
220
0
230
1
100
AcDbArc
50
270
51
0
0
ARC
5
108
100
AcDbEntity
8
1
62
256
6
ByLayer
370
18
48
1
60
0
100
AcDbCircle
39
0
10
-60.4755
20
6.478175
30
0
40
0.2
210
0
220
0
230
-1
100
AcDbArc
50
180
51
270
0
ARC
5
109
100
AcDbEntity
8
1
62
256
6
ByLayer
370
18
48
1
60
0
100
AcDbCircle
39
0
10
-60.4755
20
1.078175
30
0
40
0.2
210
0
220
0
230
-1
100
AcDbArc
50
90
51
180
0
ARC
5
10A
100
AcDbEntity
8
1
62
256
6
ByLayer
370
18
48
1
60
0
100
AcDbCircle
39
0
10
65.0855
20
-8.028175
30
0
40
0.5
210
0
220
0
230
1
100
AcDbArc
50
0
51
90
0
ARC
5
10B
100
AcDbEntity
8
1
62
256
6
ByLayer
370
18
48
1
60
0
100
AcDbCircle
39
0
10
65.0855
20
-15.528175
30
0
40
0.5
210
0
220
0
230
1
100
AcDbArc
50
270
51
0
0
ARC
5
10C
100
AcDbEntity
8
1
62
256
6
ByLayer
370
18
48
1
60
0
100
AcDbCircle
39
0
10
-60.4755
20
-9.078175
30
0
40
0.2
210
0
220
0
230
-1
100
AcDbArc
50
180
51
270
0
ARC
5
10D
100
AcDbEntity
8
1
62
256
6
ByLayer
370
18
48
1
60
0
100
AcDbCircle
39
0
10
-60.4755
20
-14.478175
30
0
40
0.2
210
0
220
0
230
-1
100
AcDbArc
50
90
51
180
0
ARC
5
10E
100
AcDbEntity
8
1
62
256
6
ByLayer
370
18
48
1
60
0
100
AcDbCircle
39
0
10
65.0855
20
7.528175
30
0
40
0.5
210
0
220
0
230
1
100
AcDbArc
50
0
51
90
0
ARC
5
10F
100
AcDbEntity
8
1
62
256
6
ByLayer
370
18
48
1
60
0
100
AcDbCircle
39
0
10
65.0855
20
0.028175
30
0
40
0.5
210
0
220
0
230
1
100
AcDbArc
50
270
51
0
0
ARC
5
110
100
AcDbEntity
8
1
62
256
6
ByLayer
370
18
48
1
60
0
100
AcDbCircle
39
0
10
-60.4755
20
6.478175
30
0
40
0.2
210
0
220
0
230
-1
100
AcDbArc
50
180
51
270
0
ARC
5
111
100
AcDbEntity
8
1
62
256
6
ByLayer
370
18
48
1
60
0
100
AcDbCircle
39
0
10
-60.4755
20
1.078175
30
0
40
0.2
210
0
220
0
230
-1
100
AcDbArc
50
90
51
180
0
ELLIPSE
5
112
100
AcDbEntity
8
1
62
256
6
ByLayer
370
18
48
1
60
0
100
AcDbEllipse
10
16.948929
20
0
30
0
11
9.3674178797811
21
-19.7417491527494
31
0
210
0
220
0
230
-1
40
0.341999
41
2.04527312608986
42
2.98886640869144
0
ELLIPSE
5
113
100
AcDbEntity
8
1
62
256
6
ByLayer
370
18
48
1
60
0
100
AcDbEllipse
10
-0.948929
20
0
30
0
11
9.36741787978252
21
19.7417491527505
31
0
210
0
220
0
230
-1
40
0.341999
41
0.15272624489834
42
1.09631952749988
0
ELLIPSE
5
114
100
AcDbEntity
8
1
62
256
6
ByLayer
370
18
48
1
60
0
100
AcDbEllipse
10
-0.948929
20
0
30
0
11
9.36741787978306
21
-19.7417491527512
31
0
210
0
220
0
230
-1
40
0.341999
41
-1.09631952749985
42
-0.152726244898338
0
ELLIPSE
5
115
100
AcDbEntity
8
1
62
256
6
ByLayer
370
18
48
1
60
0
100
AcDbEllipse
10
16.948929
20
0
30
0
11
9.36741787978159
21
19.74174915275
31
0
210
0
220
0
230
-1
40
0.341999
41
-2.98886640869144
42
-2.04527312608988
0
POINT
5
6C
100
AcDbEntity
8
80
62
256
6
ByLayer
370
18
48
1
60
0
100
AcDbPoint
10
0
20
0
30
0
39
0
210
0
220
0
230
1
50
360
0
POINT
5
6E
100
AcDbEntity
8
81
62
256
6
ByLayer
370
18
48
1
60
0
100
AcDbPoint
10
56
20
-4
30
0
39
0
210
0
220
0
230
1
50
360
0
POINT
5
70
100
AcDbEntity
8
SK2
62
256
6
ByLayer
370
18
48
1
60
1
100
AcDbPoint
10
0
20
20
30
0
39
0
210
0
220
0
230
1
50
360
0
POINT
5
72
100
AcDbEntity
8
SK2
62
256
6
ByLayer
370
18
48
1
60
1
100
AcDbPoint
10
0
20
-20
30
0
39
0
210
0
220
0
230
1
50
360
0
POINT
5
73
100
AcDbEntity
8
SK2
62
256
6
ByLayer
370
18
48
1
60
1
100
AcDbPoint
10
56
20
12
30
0
39
0
210
0
220
0
230
1
50
360
0
POINT
5
74
100
AcDbEntity
8
SK2
62
256
6
ByLayer
370
18
48
1
60
1
100
AcDbPoint
10
56
20
-20
30
0
39
0
210
0
220
0
230
1
50
360
0
SPLINE
5
116
100
AcDbEntity
8
SK1
62
256
6
ByLayer
370
18
48
1
60
0
100
AcDbSpline
70
4
71
2
72
6
73
3
40
0
40
0
40
0
40
1
40
1
40
1
41
1
10
-22.5
20
-13.4936010331935
30
0
41
1
10
-12.0999999986036
20
-13.7547063780669
30
0
41
1
10
-1.69999999999999
20
-14.0158108591592
30
0
0
SPLINE
5
117
100
AcDbEntity
8
SK1
62
256
6
ByLayer
370
18
48
1
60
0
100
AcDbSpline
70
4
71
2
72
6
73
3
40
0
40
0
40
0
40
1
40
1
40
1
41
1
10
-1.69999999999999
20
14.0158106259661
30
0
41
1
10
-12.0999999986039
20
13.7547061446862
30
0
41
1
10
-22.5
20
13.4936007996938
30
0
0
SPLINE
5
118
100
AcDbEntity
8
SK1
62
256
6
ByLayer
370
18
48
1
60
0
100
AcDbSpline
70
4
71
3
72
13
73
9
40
0
40
0
40
0
40
0
40
0.239505895683991
40
0.3684264449288
40
0.500072183930361
40
0.63170593478759
40
0.760593415031946
40
1
40
1
40
1
40
1
41
1
10
-1.49503997793928
20
13.825267079015
30
0
41
1
10
-1.52110926510645
20
13.8248649608707
30
0
41
1
10
-1.55883864920247
20
13.8310345631992
30
0
41
1
10
-1.60627567894031
20
13.8540679479737
30
0
41
1
10
-1.63886244004755
20
13.8792239231524
30
0
41
1
10
-1.6656349077962
20
13.9104916208042
30
0
41
1
10
-1.69103207618372
20
13.9566898348375
30
0
41
1
10
-1.69909121850787
20
13.9940471489176
30
0
41
1
10
-1.69999999999999
20
14.0200943498873
30
0
0
SPLINE
5
119
100
AcDbEntity
8
SK1
62
256
6
ByLayer
370
18
48
1
60
0
100
AcDbSpline
70
4
71
3
72
13
73
9
40
0
40
0
40
0
40
0
40
0.239406584356309
40
0.368294064402705
40
0.49992781519548
40
0.631573554280459
40
0.760494103733154
40
1
40
1
40
1
40
1
41
1
10
-1.69999999999999
20
-14.020094440518
30
0
41
1
10
-1.69909121849832
20
-13.9940472396764
30
0
41
1
10
-1.69103207617425
20
-13.956689925787
30
0
41
1
10
-1.66563490778341
20
-13.9104917120148
30
0
41
1
10
-1.63886244003064
20
-13.8792240145368
30
0
41
1
10
-1.60627567892243
20
-13.8540680395026
30
0
41
1
10
-1.55883864918061
20
-13.8310346548635
30
0
41
1
10
-1.52110926509482
20
-13.8248650525742
30
0
41
1
10
-1.49503997793928
20
-13.8252671707288
30
0
0
SPLINE
5
11A
100
AcDbEntity
8
SK1
62
256
6
ByLayer
370
18
48
1
60
0
100
AcDbSpline
70
4
71
2
72
6
73
3
40
0
40
0
40
0
40
1
40
1
40
1
41
1
10
-24
20
-12.63171569075
30
0
41
1
10
-23.2499999368976
20
-13.0645340070691
30
0
41
1
10
-22.5
20
-13.4973518870616
30
0
0
SPLINE
5
11B
100
AcDbEntity
8
SK1
62
256
6
ByLayer
370
18
48
1
60
0
100
AcDbSpline
70
4
71
2
72
6
73
3
40
0
40
0
40
0
40
1
40
1
40
1
41
1
10
-22.5
20
13.4973518251592
30
0
41
1
10
-23.249999936895
20
13.0645339427607
30
0
41
1
10
-24
20
12.6317156240216
30
0
0
SPLINE
5
11C
100
AcDbEntity
8
SK1
62
256
6
ByLayer
370
18
48
1
60
0
100
AcDbSpline
70
4
71
2
72
6
73
3
40
0
40
0
40
0
40
1
40
1
40
1
41
1
10
-1.49503997793928
20
-13.713017019049
30
0
41
1
10
-0.944976888873896
20
-13.7267324097107
30
0
41
1
10
-0.394913799811292
20
-13.7404477916605
30
0
0
SPLINE
5
11D
100
AcDbEntity
8
SK1
62
256
6
ByLayer
370
18
48
1
60
0
100
AcDbSpline
70
4
71
2
72
6
73
3
40
0
40
0
40
0
40
1
40
1
40
1
41
1
10
-0.394913799811292
20
13.740447551665
30
0
41
1
10
-0.944976888873896
20
13.7267321696587
30
0
41
1
10
-1.49503997793928
20
13.7130167789402
30
0
0
SPLINE
5
11E
100
AcDbEntity
8
SK1
62
256
6
ByLayer
370
18
48
1
60
0
100
AcDbSpline
70
4
71
3
72
8
73
4
40
0
40
0
40
0
40
0
40
1
40
1
40
1
40
1
41
0.980125716641701
10
-0.200000000000002
20
5.67845201644864
30
0
41
0.980125716641701
10
-0.200000000000002
20
5.70585523578354
30
0
41
0.980125716641701
10
-0.200000000000002
20
5.73319824959821
30
0
41
0.980125716641701
10
-0.200000000000002
20
5.76048101644863
30
0
0
SPLINE
5
11F
100
AcDbEntity
8
1
62
256
6
ByLayer
370
18
48
1
60
0
100
AcDbSpline
70
4
71
3
72
58
73
54
40
0
40
0
40
0
40
0
40
0.0625003571272923
40
0.0625003571272923
40
0.125000714254585
40
0.125000714254585
40
0.156250892818231
40
0.156250892818231
40
0.171875982100054
40
0.171875982100054
40
0.187501071381877
40
0.187501071381877
40
0.250001428509169
40
0.250001428509169
40
0.312501785636462
40
0.312501785636462
40
0.343751964200108
40
0.343751964200108
40
0.359377053481931
40
0.359377053481931
40
0.375002142763754
40
0.375002142763754
40
0.437502499891046
40
0.437502499891046
40
0.500002857018339
40
0.500002857018339
40
0.531253035581985
40
0.531253035581985
40
0.546878124863808
40
0.546878124863808
40
0.562503214145631
40
0.562503214145631
40
0.625003571272924
40
0.625003571272924
40
0.687503928400217
40
0.687503928400217
40
0.718754106963863
40
0.718754106963863
40
0.734379196245686
40
0.734379196245686
40
0.750004285527509
40
0.750004285527509
40
0.812504642654802
40
0.812504642654802
40
0.875004999782095
40
0.875004999782095
40
0.906255178345741
40
0.906255178345741
40
0.921880267627564
40
0.921880267627564
40
0.937505356909387
40
0.937505356909387
40
1
40
1
40
1
40
1
41
1
10
20.8655737704918
20
-5.54152109647941
30
0
41
1
10
20.8371183243114
20
-4.79345243683545
30
0
41
1
10
20.8088105404208
20
-4.04023259553503
30
0
41
1
10
20.7524841403441
20
-2.52388056799913
30
0
41
1
10
20.7244654261324
20
-1.76074714764641
30
0
41
1
10
20.6826392065913
20
-0.6085983542539
30
0
41
1
10
20.6687306785597
20
-0.223304275914273
30
0
41
1
10
20.6479154809658
20
0.356533417079135
30
0
41
1
10
20.6409850082008
20
0.550128946048346
30
0
41
1
10
20.6271393878744
20
0.937960107046194
30
0
41
1
10
20.6202128422229
20
1.1325173642393
30
0
41
1
10
20.5857889564635
20
2.102077412889
30
0
41
1
10
20.558911857216
20
2.86752611163308
30
0
41
1
10
20.5063765968054
20
4.37872684197302
30
0
41
1
10
20.4807186628052
20
5.12447688140523
30
0
41
1
10
20.4430963697267
20
6.22824860185801
30
0
41
1
10
20.4306999843267
20
6.59369089599272
30
0
41
1
10
20.4123181895597
20
7.13806533118626
30
0
41
1
10
20.4062264054027
20
7.31889156679895
30
0
41
1
10
20.3941133735428
20
7.67926398503789
30
0
41
1
10
20.388092088574
20
7.8588130186009
30
0
41
1
10
20.3583570153901
20
8.74744185531094
30
0
41
1
10
20.3355920800984
20
9.43405863179373
30
0
41
1
10
20.291958427002
20
10.7602340181955
30
0
41
1
10
20.2710900908615
20
11.3997889467694
30
0
41
1
10
20.2411564607151
20
12.3235207586982
30
0
41
1
10
20.2314073005541
20
12.6254834363704
30
0
41
1
10
20.2171250664545
20
13.0693307458426
30
0
41
1
10
20.2124212755348
20
13.2157627405762
30
0
41
1
10
20.2031277857127
20
13.505550874945
30
0
41
1
10
20.1985604958054
20
13.648208201021
30
0
41
1
10
20.1761179646831
20
14.3502950046952
30
0
41
1
10
20.1594143195474
20
14.8764182440045
30
0
41
1
10
20.1283583210498
20
15.859559351758
30
0
41
1
10
20.1140063344996
20
16.3165733684822
30
0
41
1
10
20.0942088936537
20
16.9496452581633
30
0
41
1
10
20.0878989478048
20
17.1519063357404
30
0
41
1
10
20.0788708445782
20
17.4418731792882
30
0
41
1
10
20.0759296733947
20
17.536439836695
30
0
41
1
10
20.07022197668
20
17.7201348268479
30
0
41
1
10
20.0674552589829
20
17.8092688840409
30
0
41
1
10
20.0540495328079
20
18.2415429834119
30
0
41
1
10
20.0446891784601
20
18.5446311039746
30
0
41
1
10
20.028579852169
20
19.0674558187519
30
0
41
1
10
20.0218311106789
20
19.2871896379033
30
0
41
1
10
20.013668895161
20
19.5533216651822
30
0
41
1
10
20.0112758782734
20
19.6314283384893
30
0
41
1
10
20.0081867652393
20
19.7323148175818
30
0
41
1
10
20.0072409297208
20
19.7632163827726
30
0
41
1
10
20.0055283141731
20
19.8191842886121
30
0
41
1
10
20.0047597291976
20
19.8443095687228
30
0
41
1
10
20.0013498488881
20
19.9558022298271
30
0
41
1
10
20.00000170508
20
19.9999441935606
30
0
41
1
10
20.0000000016118
20
19.9999999472496
30
0
0
SPLINE
5
120
100
AcDbEntity
8
1
62
256
6
ByLayer
370
18
48
1
60
0
100
AcDbSpline
70
4
71
3
72
18
73
14
40
0
40
0
40
0
40
0
40
0.249999999999998
40
0.249999999999998
40
0.499999999999995
40
0.499999999999995
40
0.624999999999996
40
0.624999999999996
40
0.749999999999998
40
0.749999999999998
40
0.874999999999999
40
0.874999999999999
40
1
40
1
40
1
40
1
41
1
10
6.66339745962154
20
19.0245744101322
30
0
41
1
10
6.67278813956517
20
19.0356144845436
30
0
41
1
10
6.68402554771032
20
19.0463346141653
30
0
41
1
10
6.71147628110015
20
19.0670039094876
30
0
41
1
10
6.7277377534439
20
19.0770249518318
30
0
41
1
10
6.75782269201741
20
19.0910025433169
30
0
41
1
10
6.76873667859329
20
19.0954500347066
30
0
41
1
10
6.79300367428576
20
19.1037856168331
30
0
41
1
10
6.80627546886026
20
19.1076382714245
30
0
41
1
10
6.83531224553022
20
19.1142934541629
30
0
41
1
10
6.85147043998148
20
19.1171636549363
30
0
41
1
10
6.88591789325287
20
19.1211519083817
30
0
41
1
10
6.90444386417642
20
19.1222825906926
30
0
41
1
10
6.92320508075687
20
19.1222825906926
30
0
0
SPLINE
5
121
100
AcDbEntity
8
1
62
256
6
ByLayer
370
18
48
1
60
0
100
AcDbSpline
70
4
71
3
72
16
73
12
40
0
40
0
40
0
40
0
40
0.124999999999997
40
0.124999999999997
40
0.249999999999993
40
0.249999999999993
40
0.499999999999996
40
0.499999999999996
40
0.749999999999998
40
0.749999999999998
40
1
40
1
40
1
40
1
41
1
10
6.92320508075687
20
5.85988980456941
30
0
41
1
10
6.90441904704289
20
5.85988980456941
30
0
41
1
10
6.88615093812098
20
5.8635044647273
30
0
41
1
10
6.85140047601269
20
5.87658838136369
30
0
41
1
10
6.83557582658116
20
5.88571770958595
30
0
41
1
10
6.79136513419885
20
5.91854200832063
30
0
41
1
10
6.7678647176848
20
5.94612987812175
30
0
41
1
10
6.72774154010145
20
6.00566371121207
30
0
41
1
10
6.71161954962213
20
6.03712755983028
30
0
41
1
10
6.68411546052437
20
6.10206728171738
30
0
41
1
10
6.67279157843183
20
6.1356751045312
30
0
41
1
10
6.66339745962154
20
6.16973001948574
30
0
0
SPLINE
5
122
100
AcDbEntity
8
1
62
256
6
ByLayer
370
18
48
1
60
0
100
AcDbSpline
70
4
71
3
72
18
73
14
40
0
40
0
40
0
40
0
40
0.250000000000003
40
0.250000000000003
40
0.500000000000006
40
0.500000000000006
40
0.625000000000005
40
0.625000000000005
40
0.750000000000003
40
0.750000000000003
40
0.875000000000002
40
0.875000000000002
40
1
40
1
40
1
40
1
41
1
10
9.33660254037858
20
6.16973001948577
30
0
41
1
10
9.32721186043497
20
6.13568757087472
30
0
41
1
10
9.31597445228977
20
6.10231901184949
30
0
41
1
10
9.28852371889997
20
6.03742672607433
30
0
41
1
10
9.27226224655621
20
6.00567161829611
30
0
41
1
10
9.2421773079827
20
5.96102885758611
30
0
41
1
10
9.23126332140683
20
5.94676259304853
30
0
41
1
10
9.20699632571436
20
5.9199301070316
30
0
41
1
10
9.19372453113988
20
5.90747721696036
30
0
41
1
10
9.1646877544699
20
5.88590801224899
30
0
41
1
10
9.14852956001863
20
5.87657212596483
30
0
41
1
10
9.11408210674728
20
5.8635821694487
30
0
41
1
10
9.0955561358237
20
5.85988980456941
30
0
41
1
10
9.07679491924327
20
5.85988980456941
30
0
0
SPLINE
5
123
100
AcDbEntity
8
1
62
256
6
ByLayer
370
18
48
1
60
0
100
AcDbSpline
70
4
71
3
72
16
73
12
40
0
40
0
40
0
40
0
40
0.125000000000002
40
0.125000000000002
40
0.250000000000003
40
0.250000000000003
40
0.500000000000002
40
0.500000000000002
40
0.750000000000001
40
0.750000000000001
40
1
40
1
40
1
40
1
41
1
10
9.07679491924327
20
19.1222825906925
30
0
41
1
10
9.09558095295722
20
19.1222825906925
30
0
41
1
10
9.11384906187917
20
19.1211757542148
30
0
41
1
10
9.14859952398743
20
19.1171586755843
30
0
41
1
10
9.16442417341895
20
19.1143521510704
30
0
41
1
10
9.20863486580126
20
19.1042242696216
30
0
41
1
10
9.23213528231531
20
19.0956673725615
30
0
41
1
10
9.27225845989867
20
19.0770274497583
30
0
41
1
10
9.28838045037799
20
19.06709867989
30
0
41
1
10
9.31588453947575
20
19.0464153092313
30
0
41
1
10
9.32720842156832
20
19.0356185274184
30
0
41
1
10
9.33660254037861
20
19.0245744101322
30
0
0
SPLINE
5
124
100
AcDbEntity
8
1
62
256
6
ByLayer
370
18
48
1
60
0
100
AcDbSpline
70
4
71
3
72
55
73
51
40
0
40
0
40
0
40
0
40
0.001953125
40
0.001953125
40
0.00390625
40
0.00390625
40
0.0078125
40
0.0156250000000001
40
0.0312500000000001
40
0.0625000000000003
40
0.0625000000000003
40
0.125
40
0.187500000000001
40
0.187500000000001
40
0.250000000000001
40
0.250000000000001
40
0.265625000000001
40
0.265625000000001
40
0.281250000000001
40
0.281250000000001
40
0.312500000000001
40
0.312500000000001
40
0.375
40
0.4375
40
0.4375
40
0.5
40
0.5
40
0.53125
40
0.53125
40
0.546875
40
0.546875
40
0.5625
40
0.5625
40
0.625
40
0.625
40
0.6875
40
0.6875
40
0.750000000000001
40
0.750000000000001
40
0.781250000000001
40
0.781250000000001
40
0.796875000000001
40
0.796875000000001
40
0.812500000000001
40
0.812500000000001
40
0.875
40
0.875
40
0.9375
40
0.9375
40
1
40
1
40
1
40
1
41
1
10
24.8
20
-20
30
0
41
1
10
24.7963068293016
20
-20
30
0
41
1
10
24.7926136646165
20
-19.9999795407448
30
0
41
1
10
24.7852273472727
20
-19.9998977037468
30
0
41
1
10
24.7814463879071
20
-19.9998348934185
30
0
41
1
10
24.7702114205282
20
-19.9995843644951
30
0
41
1
10
24.7477511330829
20
-19.9988310563131
30
0
41
1
10
24.6954119589557
20
-19.9953118696749
30
0
41
1
10
24.5910113463165
20
-19.9812599429404
30
0
41
1
10
24.5020187275807
20
-19.9572959113784
30
0
41
1
10
24.3247393354739
20
-19.8936768027765
30
0
41
1
10
24.0902483314266
20
-19.7670590528259
30
0
41
1
10
23.8600478714868
20
-19.5577427675946
30
0
41
1
10
23.6322725239843
20
-19.3067151984165
30
0
41
1
10
23.5195971657879
20
-19.1603481806698
30
0
41
1
10
23.3804567259521
20
-18.9505731016212
30
0
41
1
10
23.3527138892322
20
-18.9072751031307
30
0
41
1
10
23.2974037016809
20
-18.8179654409539
30
0
41
1
10
23.2698157965707
20
-18.7719154387487
30
0
41
1
10
23.1876813835804
20
-18.6302830296743
30
0
41
1
10
23.1336588728892
20
-18.5310591629567
30
0
41
1
10
22.9737940832109
20
-18.2191842493171
30
0
41
1
10
22.7665114279738
20
-17.765521508547
30
0
41
1
10
22.5710749970982
20
-17.2372244761623
30
0
41
1
10
22.3816748080302
20
-16.6714020926552
30
0
41
1
10
22.2899924937404
20
-16.3697299618601
30
0
41
1
10
22.1571305795261
20
-15.8883706650187
30
0
41
1
10
22.1136207501877
20
-15.7231031496483
30
0
41
1
10
22.0495445805662
20
-15.4678346801432
30
0
41
1
10
22.0283647373968
20
-15.3814360105466
30
0
41
1
10
21.986496315935
20
-15.2065334869633
30
0
41
1
10
21.9658366737454
20
-15.1181547773318
30
0
41
1
10
21.8638983218378
20
-14.6716619627643
30
0
41
1
10
21.7866940886075
20
-14.299773067797
30
0
41
1
10
21.6407298429828
20
-13.5272001211103
30
0
41
1
10
21.5719700405773
20
-13.1265150494881
30
0
41
1
10
21.4427720880002
20
-12.2963761877739
30
0
41
1
10
21.382333748198
20
-11.866923212737
30
0
41
1
10
21.2979189974032
20
-11.2007678210168
30
0
41
1
10
21.2708221995025
20
-10.9750489193247
30
0
41
1
10
21.2317488593779
20
-10.6308774532056
30
0
41
1
10
21.2189864573195
20
-10.5152211382917
30
0
41
1
10
21.1939882112881
20
-10.2820242748269
30
0
41
1
10
21.1817407160843
20
-10.164367059899
30
0
41
1
10
21.1219778435039
20
-9.57281899392765
30
0
41
1
10
21.0789909659732
20
-9.09039847297811
30
0
41
1
10
21.0022972508789
20
-8.10750175575933
30
0
41
1
10
20.9685907754574
20
-7.60702516663179
30
0
41
1
10
20.910268516952
20
-6.58796105139604
30
0
41
1
10
20.8856525423101
20
-6.0693743526258
30
0
41
1
10
20.8655737704918
20
-5.54152109647941
30
0
0
SPLINE
5
125
100
AcDbEntity
8
1
62
256
6
ByLayer
370
18
48
1
60
0
100
AcDbSpline
70
4
71
3
72
18
73
14
40
0
40
0
40
0
40
0
40
0.249999999999998
40
0.249999999999998
40
0.499999999999996
40
0.499999999999996
40
0.624999999999997
40
0.624999999999997
40
0.749999999999998
40
0.749999999999998
40
0.874999999999999
40
0.874999999999999
40
1
40
1
40
1
40
1
41
1
10
9.33660254037866
20
-19.0245744101321
30
0
41
1
10
9.32721186043506
20
-19.0356144845435
30
0
41
1
10
9.31597445228979
20
-19.0463346141653
30
0
41
1
10
9.2885237189
20
-19.0670039094875
30
0
41
1
10
9.27226224655624
20
-19.0770249518318
30
0
41
1
10
9.2421773079827
20
-19.0910025433169
30
0
41
1
10
9.23126332140686
20
-19.0954500347066
30
0
41
1
10
9.20699632571439
20
-19.1037856168331
30
0
41
1
10
9.19372453113991
20
-19.1076382714245
30
0
41
1
10
9.16468775446992
20
-19.1142934541629
30
0
41
1
10
9.14852956001866
20
-19.1171636549363
30
0
41
1
10
9.11408210674728
20
-19.1211519083817
30
0
41
1
10
9.0955561358237
20
-19.1222825906925
30
0
41
1
10
9.07679491924327
20
-19.1222825906926
30
0
0
SPLINE
5
126
100
AcDbEntity
8
1
62
256
6
ByLayer
370
18
48
1
60
0
100
AcDbSpline
70
4
71
3
72
16
73
12
40
0
40
0
40
0
40
0
40
0.125000000000003
40
0.125000000000003
40
0.250000000000007
40
0.250000000000007
40
0.500000000000005
40
0.500000000000005
40
0.750000000000002
40
0.750000000000002
40
1
40
1
40
1
40
1
41
1
10
9.07679491924327
20
-5.85988980456941
30
0
41
1
10
9.09558095295722
20
-5.85988980456941
30
0
41
1
10
9.11384906187917
20
-5.86350446472733
30
0
41
1
10
9.14859952398746
20
-5.87658838136372
30
0
41
1
10
9.16442417341895
20
-5.88571770958598
30
0
41
1
10
9.20863486580129
20
-5.91854200832069
30
0
41
1
10
9.23213528231534
20
-5.94612987812178
30
0
41
1
10
9.27225845989869
20
-6.00566371121209
30
0
41
1
10
9.28838045037801
20
-6.03712755983031
30
0
41
1
10
9.31588453947577
20
-6.10206728171744
30
0
41
1
10
9.3272084215684
20
-6.13567510453154
30
0
41
1
10
9.33660254037869
20
-6.16973001948608
30
0
0
SPLINE
5
127
100
AcDbEntity
8
1
62
256
6
ByLayer
370
18
48
1
60
0
100
AcDbSpline
70
4
71
3
72
18
73
14
40
0
40
0
40
0
40
0
40
0.250000000000004
40
0.250000000000004
40
0.500000000000008
40
0.500000000000008
40
0.625000000000006
40
0.625000000000006
40
0.750000000000004
40
0.750000000000004
40
0.875000000000002
40
0.875000000000002
40
1
40
1
40
1
40
1
41
1
10
6.66339745962154
20
-6.16973001948571
30
0
41
1
10
6.67278813956517
20
-6.13568757087464
30
0
41
1
10
6.68402554771035
20
-6.10231901184946
30
0
41
1
10
6.71147628110015
20
-6.0374267260743
30
0
41
1
10
6.72773775344393
20
-6.00567161829605
30
0
41
1
10
6.75782269201744
20
-5.96102885758609
30
0
41
1
10
6.76873667859329
20
-5.9467625930485
30
0
41
1
10
6.79300367428576
20
-5.91993010703158
30
0
41
1
10
6.80627546886026
20
-5.9074772169603
30
0
41
1
10
6.83531224553022
20
-5.88590801224896
30
0
41
1
10
6.85147043998148
20
-5.8765721259648
30
0
41
1
10
6.88591789325287
20
-5.86358216944865
30
0
41
1
10
6.90444386417642
20
-5.85988980456935
30
0
41
1
10
6.92320508075687
20
-5.85988980456935
30
0
0
SPLINE
5
128
100
AcDbEntity
8
1
62
256
6
ByLayer
370
18
48
1
60
0
100
AcDbSpline
70
4
71
3
72
16
73
12
40
0
40
0
40
0
40
0
40
0.125000000000003
40
0.125000000000003
40
0.250000000000006
40
0.250000000000006
40
0.500000000000004
40
0.500000000000004
40
0.750000000000002
40
0.750000000000002
40
1
40
1
40
1
40
1
41
1
10
6.92320508075687
20
-19.1222825906925
30
0
41
1
10
6.90441904704289
20
-19.1222825906925
30
0
41
1
10
6.88615093812098
20
-19.1211757542148
30
0
41
1
10
6.85140047601269
20
-19.1171586755844
30
0
41
1
10
6.83557582658116
20
-19.1143521510704
30
0
41
1
10
6.79136513419885
20
-19.1042242696216
30
0
41
1
10
6.7678647176848
20
-19.0956673725615
30
0
41
1
10
6.72774154010145
20
-19.0770274497583
30
0
41
1
10
6.71161954962213
20
-19.06709867989
30
0
41
1
10
6.68411546052437
20
-19.0464153092313
30
0
41
1
10
6.67279157843183
20
-19.0356185274184
30
0
41
1
10
6.66339745962154
20
-19.0245744101322
30
0
0
SPLINE
5
129
100
AcDbEntity
8
1
62
256
6
ByLayer
370
18
48
1
60
0
100
AcDbSpline
70
4
71
3
72
24
73
20
40
0
40
0
40
0
40
0
40
0.250000000000013
40
0.250000000000013
40
0.500000000000026
40
0.500000000000026
40
0.62500000000002
40
0.62500000000002
40
0.687500000000016
40
0.687500000000016
40
0.750000000000013
40
0.750000000000013
40
0.81250000000001
40
0.81250000000001
40
0.875000000000007
40
0.875000000000007
40
0.937500000000003
40
0.937500000000003
40
1
40
1
40
1
40
1
41
1
10
56.3245000000001
20
-8.36430128929462
30
0
41
1
10
56.3245000000001
20
-8.34075100487212
30
0
41
1
10
56.3240058753211
20
-8.31732566239094
30
0
41
1
10
56.321458489008
20
-8.27117804393635
30
0
41
1
10
56.3194828325135
20
-8.24839436697567
30
0
41
1
10
56.3139936623765
20
-8.21531057375989
30
0
41
1
10
56.3117179633607
20
-8.2043672367013
30
0
41
1
10
56.3070529089917
20
-8.18906189571689
30
0
41
1
10
56.305288063206
20
-8.18414169883812
30
0
41
1
10
56.3010352228235
20
-8.17493065908158
30
0
41
1
10
56.298523775894
20
-8.1705913193943
30
0
41
1
10
56.2923932276941
20
-8.16373499233825
30
0
41
1
10
56.2886108613299
20
-8.16118624172503
30
0
41
1
10
56.2801378671503
20
-8.16014524351266
30
0
41
1
10
56.2755740167096
20
-8.16171387523929
30
0
41
1
10
56.2671124917708
20
-8.16745050184548
30
0
41
1
10
56.2631632743611
20
-8.17149371210934
30
0
41
1
10
56.255928809143
20
-8.18033280021973
30
0
41
1
10
56.2526285978214
20
-8.18513717421018
30
0
41
1
10
56.2495
20
-8.19015052554306
30
0
0
SPLINE
5
12A
100
AcDbEntity
8
1
62
256
6
ByLayer
370
18
48
1
60
0
100
AcDbSpline
70
4
71
3
72
12
73
8
40
0
40
0
40
0
40
0
40
0.499999999999995
40
0.499999999999995
40
0.749999999999997
40
0.749999999999997
40
1
40
1
40
1
40
1
41
1
10
56.2495000000005
20
-9.54276118758736
30
0
41
1
10
56.2719654923217
20
-9.44885480738171
30
0
41
1
10
56.2894866931703
20
-9.35482616559477
30
0
41
1
10
56.3090138371483
20
-9.21356844296508
30
0
41
1
10
56.3143440367861
20
-9.16652855982841
30
0
41
1
10
56.3220441941806
20
-9.07312164983645
30
0
41
1
10
56.3245
20
-9.02666935501233
30
0
41
1
10
56.3245
20
-8.98070765025392
30
0
0
SPLINE
5
12B
100
AcDbEntity
8
1
62
256
6
ByLayer
370
18
48
1
60
0
100
AcDbSpline
70
4
71
3
72
8
73
4
40
0
40
0
40
0
40
0
40
1
40
1
40
1
40
1
41
1
10
56.2495000000001
20
-9.54276118758739
30
0
41
1
10
56.0666055459679
20
-10.3072650716885
30
0
41
1
10
55.8503984452163
20
-11.0590969347419
30
0
41
1
10
55.6055
20
-11.8000147048982
30
0
0
SPLINE
5
12C
100
AcDbEntity
8
1
62
256
6
ByLayer
370
18
48
1
60
0
100
AcDbSpline
70
4
71
3
72
24
73
20
40
0
40
0
40
0
40
0
40
0.249999999999991
40
0.249999999999991
40
0.499999999999981
40
0.499999999999981
40
0.62499999999998
40
0.62499999999998
40
0.749999999999979
40
0.749999999999979
40
0.812499999999983
40
0.812499999999983
40
0.874999999999988
40
0.874999999999988
40
0.90624999999999
40
0.90624999999999
40
0.937499999999993
40
0.937499999999993
40
1
40
1
40
1
40
1
41
1
10
55.6054999999998
20
-11.8000147048982
30
0
41
1
10
55.5879867809472
20
-11.8529993418456
30
0
41
1
10
55.5727382518921
20
-11.9056921680163
30
0
41
1
10
55.5467914163629
20
-12.0104735059847
30
0
41
1
10
55.5360118982865
20
-12.0625705972023
30
0
41
1
10
55.5251151537234
20
-12.1400622205545
30
0
41
1
10
55.5223820049023
20
-12.1658826832464
30
0
41
1
10
55.5199531850072
20
-12.2156566802494
30
0
41
1
10
55.5200832096761
20
-12.2398274236305
30
0
41
1
10
55.5250398587167
20
-12.2736257554621
30
0
41
1
10
55.5274756658929
20
-12.2842183568059
30
0
41
1
10
55.535170778308
20
-12.3028208854752
30
0
41
1
10
55.5405053612523
20
-12.3108478152085
30
0
41
1
10
55.5518063449278
20
-12.3173899866934
30
0
41
1
10
55.5560881702045
20
-12.3185933391319
30
0
41
1
10
55.565449138091
20
-12.3186473902526
30
0
41
1
10
55.570448088906
20
-12.3175005183567
30
0
41
1
10
55.5857402502633
20
-12.3111140143905
30
0
41
1
10
55.5959233873071
20
-12.3032428058708
30
0
41
1
10
55.6055000000006
20
-12.2939943696266
30
0
0
SPLINE
5
12D
100
AcDbEntity
8
1
62
256
6
ByLayer
370
18
48
1
60
0
100
AcDbSpline
70
4
71
3
72
8
73
4
40
0
40
0
40
0
40
0
40
1
40
1
40
1
40
1
41
1
10
55.6055
20
-12.2939943696249
30
0
41
1
10
55.8211953437772
20
-12.0856905884359
30
0
41
1
10
56.0359354469354
20
-11.8760830358333
30
0
41
1
10
56.2495
20
-11.6648710198349
30
0
0
SPLINE
5
12E
100
AcDbEntity
8
1
62
256
6
ByLayer
370
18
48
1
60
0
100
AcDbSpline
70
4
71
3
72
18
73
14
40
0
40
0
40
0
40
0
40
0.25
40
0.25
40
0.5
40
0.5
40
0.625
40
0.625
40
0.75
40
0.75
40
0.875
40
0.875
40
1
40
1
40
1
40
1
41
1
10
56.3245
20
-11.7362976051876
30
0
41
1
10
56.3245
20
-11.7218429292899
30
0
41
1
10
56.3237870724261
20
-11.7077826677058
30
0
41
1
10
56.3198500409476
20
-11.681075905156
30
0
41
1
10
56.3167405816158
20
-11.668512349575
30
0
41
1
10
56.3081058304445
20
-11.6535058102467
30
0
41
1
10
56.3046260591323
20
-11.6493315404071
30
0
41
1
10
56.2957683537229
20
-11.643729972993
30
0
41
1
10
56.2904867554595
20
-11.6425401335823
30
0
41
1
10
56.2790222022847
20
-11.644037356761
30
0
41
1
10
56.2728515927768
20
-11.6467098444103
30
0
41
1
10
56.2609747993835
20
-11.6543378226247
30
0
41
1
10
56.2550919606135
20
-11.6593406578995
30
0
41
1
10
56.2494999999995
20
-11.6648710198334
30
0
0
SPLINE
5
12F
100
AcDbEntity
8
1
62
256
6
ByLayer
370
18
48
1
60
0
100
AcDbSpline
70
4
71
3
72
12
73
8
40
0
40
0
40
0
40
0
40
0.500000000000006
40
0.500000000000006
40
0.750000000000003
40
0.750000000000003
40
1
40
1
40
1
40
1
41
1
10
56.2495000000002
20
-12.3981733286846
30
0
41
1
10
56.2709168268861
20
-12.3412970670325
30
0
41
1
10
56.2883123214796
20
-12.2846503893892
30
0
41
1
10
56.3081813848248
20
-12.200002777253
30
0
41
1
10
56.313761770269
20
-12.1716882149206
30
0
41
1
10
56.3218859548331
20
-12.1159924061635
30
0
41
1
10
56.3245
20
-12.0887207098709
30
0
41
1
10
56.3245
20
-12.0625227940767
30
0
0
SPLINE
5
130
100
AcDbEntity
8
1
62
256
6
ByLayer
370
18
48
1
60
0
100
AcDbSpline
70
4
71
3
72
8
73
4
40
0
40
0
40
0
40
0
40
1
40
1
40
1
40
1
41
1
10
56.2495
20
-12.3981733286846
30
0
41
1
10
56.0485705188501
20
-12.9317779473509
30
0
41
1
10
55.8332755239774
20
-13.4575675752646
30
0
41
1
10
55.6055
20
-13.9765676639092
30
0
0
SPLINE
5
131
100
AcDbEntity
8
1
62
256
6
ByLayer
370
18
48
1
60
0
100
AcDbSpline
70
4
71
3
72
24
73
20
40
0
40
0
40
0
40
0
40
0.249999999999998
40
0.249999999999998
40
0.499999999999996
40
0.499999999999996
40
0.624999999999998
40
0.624999999999998
40
0.687499999999998
40
0.687499999999998
40
0.749999999999998
40
0.749999999999998
40
0.812499999999999
40
0.812499999999999
40
0.874999999999999
40
0.874999999999999
40
0.9375
40
0.9375
40
1
40
1
40
1
40
1
41
1
10
55.6055
20
-13.9765676639092
30
0
41
1
10
55.5871798910664
20
-14.0183111225324
30
0
41
1
10
55.5712116281801
20
-14.0598230274814
30
0
41
1
10
55.5442448678504
20
-14.1423338694694
30
0
41
1
10
55.5330974947957
20
-14.1837302350407
30
0
41
1
10
55.5231172424616
20
-14.2424448734935
30
0
41
1
10
55.520881742774
20
-14.2616330904373
30
0
41
1
10
55.5203735268098
20
-14.2888154531627
30
0
41
1
10
55.5206879385433
20
-14.2975056830653
30
0
41
1
10
55.5226554903738
20
-14.3138685989044
30
0
41
1
10
55.5243309659136
20
-14.3216346318268
30
0
41
1
10
55.5296236232373
20
-14.3350898297096
30
0
41
1
10
55.5332701674035
20
-14.340847507557
30
0
41
1
10
55.5431970204705
20
-14.348746561468
30
0
41
1
10
55.5495394952628
20
-14.3507641377659
30
0
41
1
10
55.5640797062506
20
-14.349887849218
30
0
41
1
10
55.5723113146981
20
-14.3470063547565
30
0
41
1
10
55.588819538971
20
-14.3379397582797
30
0
41
1
10
55.5973025137125
20
-14.3317103014986
30
0
41
1
10
55.6055000000001
20
-14.3246631735595
30
0
0
SPLINE
5
132
100
AcDbEntity
8
1
62
256
6
ByLayer
370
18
48
1
60
0
100
AcDbSpline
70
4
71
3
72
8
73
4
40
0
40
0
40
0
40
0
40
1
40
1
40
1
40
1
41
1
10
55.6055
20
-14.3246631735587
30
0
41
1
10
55.8203794218738
20
-14.1399379145854
30
0
41
1
10
56.0350577211803
20
-13.9549015807693
30
0
41
1
10
56.2495
20
-13.769500195747
30
0
0
SPLINE
5
133
100
AcDbEntity
8
1
62
256
6
ByLayer
370
18
48
1
60
0
100
AcDbSpline
70
4
71
3
72
16
73
12
40
0
40
0
40
0
40
0
40
0.250000000000019
40
0.250000000000019
40
0.500000000000038
40
0.500000000000038
40
0.625000000000043
40
0.625000000000043
40
0.750000000000048
40
0.750000000000048
40
1
40
1
40
1
40
1
41
1
10
56.3245000000016
20
-13.8057878586221
30
0
41
1
10
56.3245000000016
20
-13.7943233943913
30
0
41
1
10
56.3235753271722
20
-13.7835400079979
30
0
41
1
10
56.3185303945735
20
-13.7643529154585
30
0
41
1
10
56.314382390026
20
-13.7561089478128
30
0
41
1
10
56.3044326430874
20
-13.7488901419273
30
0
41
1
10
56.300470474293
20
-13.7473853874035
30
0
41
1
10
56.2915612701954
20
-13.746674702854
30
0
41
1
10
56.2865760468594
20
-13.7474702565081
30
0
41
1
10
56.2710425830605
20
-13.7528952486125
30
0
41
1
10
56.2600338082371
20
-13.7603929308568
30
0
41
1
10
56.2494999999999
20
-13.7695001957464
30
0
0
SPLINE
5
134
100
AcDbEntity
8
1
62
256
6
ByLayer
370
18
48
1
60
0
100
AcDbSpline
70
4
71
3
72
12
73
8
40
0
40
0
40
0
40
0
40
0.499999999999994
40
0.499999999999994
40
0.749999999999997
40
0.749999999999997
40
1
40
1
40
1
40
1
41
1
10
56.2495
20
-14.2876833609241
30
0
41
1
10
56.2704036408553
20
-14.2441256344044
30
0
41
1
10
56.2880478435166
20
-14.2001482970996
30
0
41
1
10
56.3080124871787
20
-14.1361403677178
30
0
41
1
10
56.3135979453878
20
-14.1150820310287
30
0
41
1
10
56.3218355217092
20
-14.0737358009227
30
0
41
1
10
56.3245
20
-14.0535086186836
30
0
41
1
10
56.3245
20
-14.034993717622
30
0
0
SPLINE
5
135
100
AcDbEntity
8
1
62
256
6
ByLayer
370
18
48
1
60
0
100
AcDbSpline
70
4
71
3
72
8
73
4
40
0
40
0
40
0
40
0
40
1
40
1
40
1
40
1
41
1
10
56.2495
20
-14.2876833609241
30
0
41
1
10
56.0427804369158
20
-14.7184329254335
30
0
41
1
10
55.8277685085049
20
-15.1436031744423
30
0
41
1
10
55.6055
20
-15.5638910107493
30
0
0
SPLINE
5
136
100
AcDbEntity
8
1
62
256
6
ByLayer
370
18
48
1
60
0
100
AcDbSpline
70
4
71
3
72
26
73
22
40
0
40
0
40
0
40
0
40
0.125000000000008
40
0.125000000000008
40
0.250000000000016
40
0.250000000000016
40
0.375000000000024
40
0.375000000000024
40
0.500000000000032
40
0.500000000000032
40
0.62500000000004
40
0.62500000000004
40
0.687500000000033
40
0.687500000000033
40
0.750000000000026
40
0.750000000000026
40
0.81250000000002
40
0.81250000000002
40
0.875000000000013
40
0.875000000000013
40
1
40
1
40
1
40
1
41
1
10
55.6055
20
-15.5638910107493
30
0
41
1
10
55.5960493295775
20
-15.5817612967841
30
0
41
1
10
55.5871814269742
20
-15.5996025503992
30
0
41
1
10
55.5706253943952
20
-15.6352220144038
30
0
41
1
10
55.5629184114111
20
-15.6530546184183
30
0
41
1
10
55.5490591808351
20
-15.6880742622174
30
0
41
1
10
55.5428724205169
20
-15.7053203764696
30
0
41
1
10
55.5323054810601
20
-15.7391727389531
30
0
41
1
10
55.5278851986168
20
-15.7559124325496
30
0
41
1
10
55.5217790680737
20
-15.7878552058963
30
0
41
1
10
55.520061806801
20
-15.8029393669193
30
0
41
1
10
55.520856800308
20
-15.8233513255689
30
0
41
1
10
55.5217056690621
20
-15.8296845211236
30
0
41
1
10
55.5249196991535
20
-15.8408280079046
30
0
41
1
10
55.5273336886007
20
-15.84573403173
30
0
41
1
10
55.5340693015642
20
-15.8531086434014
30
0
41
1
10
55.5384805347243
20
-15.8556083094396
30
0
41
1
10
55.5490084006567
20
-15.8574114046452
30
0
41
1
10
55.5552471053831
20
-15.8567354425203
30
0
41
1
10
55.5754564096506
20
-15.8503173468116
30
0
41
1
10
55.5906709186585
20
-15.8404421540852
30
0
41
1
10
55.6055
20
-15.8282288061873
30
0
0
SPLINE
5
137
100
AcDbEntity
8
1
62
256
6
ByLayer
370
18
48
1
60
0
100
AcDbSpline
70
4
71
3
72
8
73
4
40
0
40
0
40
0
40
0
40
1
40
1
40
1
40
1
41
1
10
55.6055
20
-15.8282288061869
30
0
41
1
10
55.8201958861166
20
-15.6514035876184
30
0
41
1
10
56.0348639249866
20
-15.4745332759798
30
0
41
1
10
56.2495
20
-15.2976112695869
30
0
0
SPLINE
5
138
100
AcDbEntity
8
1
62
256
6
ByLayer
370
18
48
1
60
0
100
AcDbSpline
70
4
71
3
72
14
73
10
40
0
40
0
40
0
40
0
40
0.25
40
0.25
40
0.5
40
0.5
40
0.75
40
0.75
40
1
40
1
40
1
40
1
41
1
10
56.3245
20
-15.3117925379056
30
0
41
1
10
56.3245
20
-15.3022737101784
30
0
41
1
10
56.3233318074938
20
-15.2936444727467
30
0
41
1
10
56.3174234147178
20
-15.2798827003035
30
0
41
1
10
56.3124953438838
20
-15.2747976904737
30
0
41
1
10
56.2985522443744
20
-15.271350662108
30
0
41
1
10
56.2894699974785
20
-15.2730825694772
30
0
41
1
10
56.2701153004324
20
-15.2820591512471
30
0
41
1
10
56.2596744834381
20
-15.2892245618826
30
0
41
1
10
56.2495
20
-15.2976112695866
30
0
0
SPLINE
5
139
100
AcDbEntity
8
1
62
256
6
ByLayer
370
18
48
1
60
0
100
AcDbSpline
70
4
71
3
72
14
73
10
40
0
40
0
40
0
40
0
40
0.25
40
0.25
40
0.5
40
0.5
40
0.75
40
0.75
40
1
40
1
40
1
40
1
41
1
10
56.2495
20
-15.6894628880304
30
0
41
1
10
56.259777257634
20
-15.6713772317817
30
0
41
1
10
56.2692719561185
20
-15.6533300874752
30
0
41
1
10
56.286638475468
20
-15.6173088202017
30
0
41
1
10
56.2944660562456
20
-15.5994126448605
30
0
41
1
10
56.3078858654049
20
-15.5645222591319
30
0
41
1
10
56.3135404938684
20
-15.5474348816546
30
0
41
1
10
56.3218832081918
20
-15.5142710929153
30
0
41
1
10
56.3245
20
-15.4985773286791
30
0
41
1
10
56.3245
20
-15.4846821471219
30
0
0
SPLINE
5
13A
100
AcDbEntity
8
1
62
256
6
ByLayer
370
18
48
1
60
0
100
AcDbSpline
70
4
71
3
72
8
73
4
40
0
40
0
40
0
40
0
40
1
40
1
40
1
40
1
41
1
10
56.2495
20
-15.6894628880304
30
0
41
1
10
56.0399891728598
20
-16.0581547059221
30
0
41
1
10
55.8251085260618
20
-16.4226315723511
30
0
41
1
10
55.6055
20
-16.7833973678525
30
0
0
SPLINE
5
13B
100
AcDbEntity
8
1
62
256
6
ByLayer
370
18
48
1
60
0
100
AcDbSpline
70
4
71
3
72
26
73
22
40
0
40
0
40
0
40
0
40
0.125000000000006
40
0.125000000000006
40
0.250000000000011
40
0.250000000000011
40
0.375000000000017
40
0.375000000000017
40
0.500000000000023
40
0.500000000000023
40
0.562500000000019
40
0.562500000000019
40
0.625000000000015
40
0.625000000000015
40
0.750000000000007
40
0.750000000000007
40
0.812500000000004
40
0.812500000000004
40
0.875
40
0.875
40
1
40
1
40
1
40
1
41
1
10
55.6055
20
-16.7833973678525
30
0
41
1
10
55.5958196882104
20
-16.7992998714853
30
0
41
1
10
55.5867119718737
20
-16.8151410965808
30
0
41
1
10
55.569686947017
20
-16.8466913036925
30
0
41
1
10
55.5617646247039
20
-16.8624225400771
30
0
41
1
10
55.5475953059455
20
-16.8930786011976
30
0
41
1
10
55.5412978426813
20
-16.9080832569108
30
0
41
1
10
55.5306869842944
20
-16.9372775482178
30
0
41
1
10
55.5263523278394
20
-16.9515707233827
30
0
41
1
10
55.5222623307521
20
-16.9712093195519
30
0
41
1
10
55.5212914759841
20
-16.9774830882788
30
0
41
1
10
55.5203456260816
20
-16.9893418571429
30
0
41
1
10
55.5203814606916
20
-16.9949406626692
30
0
41
1
10
55.5224213013725
20
-17.0097680476882
30
0
41
1
10
55.5264612862223
20
-17.0173614351735
30
0
41
1
10
55.5378369413517
20
-17.0219293778411
30
0
41
1
10
55.5424508085518
20
-17.0222907317337
30
0
41
1
10
55.5529361720567
20
-17.0206929918554
30
0
41
1
10
55.5589459803639
20
-17.0186917250436
30
0
41
1
10
55.5777643120644
20
-17.0099122184026
30
0
41
1
10
55.5917029983008
20
-17.0003139838399
30
0
41
1
10
55.6055
20
-16.9890462981539
30
0
0
SPLINE
5
13C
100
AcDbEntity
8
1
62
256
6
ByLayer
370
18
48
1
60
0
100
AcDbSpline
70
4
71
3
72
8
73
4
40
0
40
0
40
0
40
0
40
1
40
1
40
1
40
1
41
1
10
55.6055
20
-16.9890462981537
30
0
41
1
10
55.8201673316658
20
-16.8137325544141
30
0
41
1
10
56.0348340263955
20
-16.6384177707854
30
0
41
1
10
56.2495
20
-16.4631018098503
30
0
0
SPLINE
5
13D
100
AcDbEntity
8
1
62
256
6
ByLayer
370
18
48
1
60
0
100
AcDbSpline
70
4
71
3
72
14
73
10
40
0
40
0
40
0
40
0
40
0.25
40
0.25
40
0.5
40
0.5
40
0.75
40
0.75
40
1
40
1
40
1
40
1
41
1
10
56.3245
20
-16.4603300643647
30
0
41
1
10
56.3245
20
-16.4524473196041
30
0
41
1
10
56.3231472312391
20
-16.4457545015048
30
0
41
1
10
56.3165338839139
20
-16.4362607228493
30
0
41
1
10
56.3111988494931
20
-16.4337275802808
30
0
41
1
10
56.2971316331625
20
-16.4343290038086
30
0
41
1
10
56.2882919242977
20
-16.4374757114225
30
0
41
1
10
56.26950631544
20
-16.4478125892125
30
0
41
1
10
56.2594638972546
20
-16.4549643757123
30
0
41
1
10
56.2495
20
-16.4631018098501
30
0
0
SPLINE
5
13E
100
AcDbEntity
8
1
62
256
6
ByLayer
370
18
48
1
60
0
100
AcDbSpline
70
4
71
3
72
14
73
10
40
0
40
0
40
0
40
0
40
0.25
40
0.25
40
0.5
40
0.5
40
0.75
40
0.75
40
1
40
1
40
1
40
1
41
1
10
56.2495
20
-16.7652127395764
30
0
41
1
10
56.259626800595
20
-16.7495806838879
30
0
41
1
10
56.2690240669662
20
-16.7340760766623
30
0
41
1
10
56.2862804481997
20
-16.7033283558361
30
0
41
1
10
56.2941997373811
20
-16.6879584717938
30
0
41
1
10
56.307792910941
20
-16.658264685519
30
0
41
1
10
56.3134921289402
20
-16.6439479860331
30
0
41
1
10
56.3218710690002
20
-16.6167753053822
30
0
41
1
10
56.3245000000129
20
-16.6040416188809
30
0
41
1
10
56.3245000000139
20
-16.5934407184001
30
0
0
SPLINE
5
13F
100
AcDbEntity
8
1
62
256
6
ByLayer
370
18
48
1
60
0
100
AcDbSpline
70
4
71
3
72
8
73
4
40
0
40
0
40
0
40
0
40
1
40
1
40
1
40
1
41
1
10
56.2495
20
-16.7652127395764
30
0
41
1
10
56.0383838344783
20
-17.0910984549316
30
0
41
1
10
55.8235756476837
20
-17.4137098690188
30
0
41
1
10
55.6055
20
-17.7334235069173
30
0
0
SPLINE
5
140
100
AcDbEntity
8
1
62
256
6
ByLayer
370
18
48
1
60
0
100
AcDbSpline
70
4
71
3
72
24
73
20
40
0
40
0
40
0
40
0
40
0.25000000000003
40
0.25000000000003
40
0.375000000000036
40
0.375000000000036
40
0.500000000000042
40
0.500000000000042
40
0.625000000000048
40
0.625000000000048
40
0.687500000000048
40
0.687500000000048
40
0.750000000000048
40
0.750000000000048
40
0.875000000000028
40
0.875000000000028
40
0.937500000000014
40
0.937500000000014
40
1
40
1
40
1
40
1
41
1
10
55.6055
20
-17.7334235069173
30
0
41
1
10
55.5857014326439
20
-17.7624495447249
30
0
41
1
10
55.5679133955475
20
-17.7913814935874
30
0
41
1
10
55.5462427725416
20
-17.8323487813085
30
0
41
1
10
55.5398178337016
20
-17.8456634430008
30
0
41
1
10
55.5291417249985
20
-17.8713003739318
30
0
41
1
10
55.5250354428614
20
-17.8832523961617
30
0
41
1
10
55.5202702011357
20
-17.9047387152758
30
0
41
1
10
55.5196714735777
20
-17.9141769391694
30
0
41
1
10
55.5229148663141
20
-17.9243233789456
30
0
41
1
10
55.5247026602585
20
-17.9270192811119
30
0
41
1
10
55.5297563239097
20
-17.9306099500664
30
0
41
1
10
55.5331005307613
20
-17.9315267410002
30
0
41
1
10
55.5449992604031
20
-17.931338621963
30
0
41
1
10
55.5557640819959
20
-17.9272450817408
30
0
41
1
10
55.573543440271
20
-17.9169835136226
30
0
41
1
10
55.5798369618822
20
-17.9128428044454
30
0
41
1
10
55.592539514375
20
-17.9036964653503
30
0
41
1
10
55.5989822218976
20
-17.8986779252489
30
0
41
1
10
55.6055
20
-17.8932951735596
30
0
0
SPLINE
5
141
100
AcDbEntity
8
1
62
256
6
ByLayer
370
18
48
1
60
0
100
AcDbSpline
70
4
71
3
72
8
73
4
40
0
40
0
40
0
40
0
40
1
40
1
40
1
40
1
41
1
10
55.6055
20
-17.8932951735594
30
0
41
1
10
55.8201992608209
20
-17.7159843184299
30
0
41
1
10
56.0348672252561
20
-17.5386229220787
30
0
41
1
10
56.2495
20
-17.3612047752696
30
0
0
SPLINE
5
142
100
AcDbEntity
8
1
62
256
6
ByLayer
370
18
48
1
60
0
100
AcDbSpline
70
4
71
3
72
16
73
12
40
0
40
0
40
0
40
0
40
0.250000000000029
40
0.250000000000029
40
0.500000000000059
40
0.500000000000059
40
0.625000000000042
40
0.625000000000042
40
0.750000000000024
40
0.750000000000024
40
1
40
1
40
1
40
1
41
1
10
56.3245000000002
20
-17.3440248877615
30
0
41
1
10
56.3245000000002
20
-17.3376595306224
30
0
41
1
10
56.3229146038589
20
-17.3325991795629
30
0
41
1
10
56.3158401522479
20
-17.3269320790377
30
0
41
1
10
56.3102642210667
20
-17.3263649696745
30
0
41
1
10
56.2996424940577
20
-17.3291178545167
30
0
41
1
10
56.29565583939
20
-17.3306437571249
30
0
41
1
10
56.2872881296793
20
-17.3346490450637
30
0
41
1
10
56.2828807042835
20
-17.3371263174271
30
0
41
1
10
56.2690778203387
20
-17.345794578896
30
0
41
1
10
56.259328441041
20
-17.3530804624865
30
0
41
1
10
56.2495
20
-17.3612047752696
30
0
0
SPLINE
5
143
100
AcDbEntity
8
1
62
256
6
ByLayer
370
18
48
1
60
0
100
AcDbSpline
70
4
71
3
72
12
73
8
40
0
40
0
40
0
40
0
40
0.500000000000032
40
0.500000000000032
40
0.750000000000016
40
0.750000000000016
40
1
40
1
40
1
40
1
41
1
10
56.2495
20
-17.5925630387594
30
0
41
1
10
56.2695150228623
20
-17.5648229887937
30
0
41
1
10
56.2869943096373
20
-17.5377710623862
30
0
41
1
10
56.3077086767589
20
-17.4990219659647
30
0
41
1
10
56.3134656791867
20
-17.4867957085093
30
0
41
1
10
56.3218886844303
20
-17.464200433562
30
0
41
1
10
56.3245000000037
20
-17.4538868817872
30
0
41
1
10
56.324500000004
20
-17.4458757333149
30
0
0
SPLINE
5
144
100
AcDbEntity
8
1
62
256
6
ByLayer
370
18
48
1
60
0
100
AcDbSpline
70
4
71
3
72
8
73
4
40
0
40
0
40
0
40
0
40
1
40
1
40
1
40
1
41
1
10
56.2495
20
-17.5925630387594
30
0
41
1
10
56.0373626674526
20
-17.8865772022681
30
0
41
1
10
55.8225986716763
20
-18.1780125340789
30
0
41
1
10
55.6055
20
-18.467155704432
30
0
0
SPLINE
5
145
100
AcDbEntity
8
1
62
256
6
ByLayer
370
18
48
1
60
0
100
AcDbSpline
70
4
71
3
72
22
73
18
40
0
40
0
40
0
40
0
40
0.250000000000011
40
0.250000000000011
40
0.500000000000023
40
0.500000000000023
40
0.562500000000018
40
0.562500000000018
40
0.625000000000012
40
0.625000000000012
40
0.750000000000002
40
0.750000000000002
40
0.81250000000001
40
0.81250000000001
40
0.875000000000019
40
0.875000000000019
40
1
40
1
40
1
40
1
41
1
10
55.6055
20
-18.467155704432
30
0
41
1
10
55.58527553925
20
-18.4940916808467
30
0
41
1
10
55.5670591396717
20
-18.5206125550333
30
0
41
1
10
55.5375270047238
20
-18.5699249535706
30
0
41
1
10
55.5258167416482
20
-18.5933532343268
30
0
41
1
10
55.5208683205301
20
-18.6147433519966
30
0
41
1
10
55.5203921018052
20
-18.6185526327083
30
0
41
1
10
55.5206486777981
20
-18.6250695289775
30
0
41
1
10
55.521404966572
20
-18.627788513956
30
0
41
1
10
55.5257227142369
20
-18.6336278942287
30
0
41
1
10
55.5315311175299
20
-18.6344466988331
30
0
41
1
10
55.5436546036878
20
-18.6308210893545
30
0
41
1
10
55.5483422571655
20
-18.6288001895483
30
0
41
1
10
55.5584108665371
20
-18.6234853969643
30
0
41
1
10
55.5637907399353
20
-18.6202097216381
30
0
41
1
10
55.5808170244288
20
-18.60880235706
30
0
41
1
10
55.5930505226165
20
-18.5992924241023
30
0
41
1
10
55.6055
20
-18.5887620387654
30
0
0
SPLINE
5
146
100
AcDbEntity
8
1
62
256
6
ByLayer
370
18
48
1
60
0
100
AcDbSpline
70
4
71
3
72
8
73
4
40
0
40
0
40
0
40
0
40
1
40
1
40
1
40
1
41
1
10
55.6055
20
-18.5887620387653
30
0
41
1
10
55.8202658629212
20
-18.4071024217298
30
0
41
1
10
56.0349363755451
20
-18.225292382581
30
0
41
1
10
56.2495
20
-18.0433144011905
30
0
0
SPLINE
5
147
100
AcDbEntity
8
1
62
256
6
ByLayer
370
18
48
1
60
0
100
AcDbSpline
70
4
71
3
72
14
73
10
40
0
40
0
40
0
40
0
40
0.25
40
0.25
40
0.5
40
0.5
40
0.75
40
0.75
40
1
40
1
40
1
40
1
41
1
10
56.3245
20
-18.0130715796893
30
0
41
1
10
56.3245
20
-18.0080651383296
30
0
41
1
10
56.3227445414937
20
-18.0046872275606
30
0
41
1
10
56.315227641366
20
-18.0023651888155
30
0
41
1
10
56.3095865919249
20
-18.0034430797629
30
0
41
1
10
56.2952947677502
20
-18.0097191422157
30
0
41
1
10
56.286925940559
20
-18.014766182349
30
0
41
1
10
56.2687507800733
20
-18.0275439898635
30
0
41
1
10
56.2592436112319
20
-18.0350505460849
30
0
41
1
10
56.2495
20
-18.0433144011905
30
0
0
SPLINE
5
148
100
AcDbEntity
8
1
62
256
6
ByLayer
370
18
48
1
60
0
100
AcDbSpline
70
4
71
3
72
14
73
10
40
0
40
0
40
0
40
0
40
0.25
40
0.25
40
0.5
40
0.5
40
0.75
40
0.75
40
1
40
1
40
1
40
1
41
1
10
56.2495
20
-18.2149528187276
30
0
41
1
10
56.2594421157663
20
-18.2023824576009
30
0
41
1
10
56.2688604466112
20
-18.1899263187504
30
0
41
1
10
56.2860733291945
20
-18.1658822962868
30
0
41
1
10
56.2939309911731
20
-18.1542231365566
30
0
41
1
10
56.3077421095189
20
-18.1318198855193
30
0
41
1
10
56.3135644103324
20
-18.1212774923284
30
0
41
1
10
56.3219461335355
20
-18.102598620181
30
0
41
1
10
56.3245000000009
20
-18.0944054766572
30
0
41
1
10
56.3245000000009
20
-18.0885911056969
30
0
0
SPLINE
5
149
100
AcDbEntity
8
1
62
256
6
ByLayer
370
18
48
1
60
0
100
AcDbSpline
70
4
71
3
72
8
73
4
40
0
40
0
40
0
40
0
40
1
40
1
40
1
40
1
41
1
10
56.2495
20
-18.2149528187276
30
0
41
1
10
56.0366690653106
20
-18.4840466183653
30
0
41
1
10
55.8219338484439
20
-18.7511000100563
30
0
41
1
10
55.6055
20
-19.0163333451349
30
0
0
SPLINE
5
14A
100
AcDbEntity
8
1
62
256
6
ByLayer
370
18
48
1
60
0
100
AcDbSpline
70
4
71
3
72
22
73
18
40
0
40
0
40
0
40
0
40
0.249999999999981
40
0.249999999999981
40
0.374999999999977
40
0.374999999999977
40
0.499999999999973
40
0.499999999999973
40
0.62499999999997
40
0.62499999999997
40
0.687499999999971
40
0.687499999999971
40
0.749999999999972
40
0.749999999999972
40
0.874999999999986
40
0.874999999999986
40
1
40
1
40
1
40
1
41
1
10
55.6055
20
-19.0163333451349
30
0
41
1
10
55.5848938388945
20
-19.0415855913638
30
0
41
1
10
55.5660838750011
20
-19.0663600990457
30
0
41
1
10
55.5435446720046
20
-19.0997698501737
30
0
41
1
10
55.5368716828094
20
-19.1104596047056
30
0
41
1
10
55.5265286918552
20
-19.1294267701491
30
0
41
1
10
55.5227928890807
20
-19.1378172276995
30
0
41
1
10
55.5197317567559
20
-19.1506182317158
30
0
41
1
10
55.5205068030496
20
-19.1549334815141
30
0
41
1
10
55.5257130495559
20
-19.1569730699466
30
0
41
1
10
55.5281477755721
20
-19.1569315604486
30
0
41
1
10
55.5341877247795
20
-19.1553948558407
30
0
41
1
10
55.5377691855334
20
-19.1539252961955
30
0
41
1
10
55.550079815763
20
-19.1475663696834
30
0
41
1
10
55.560038950917
20
-19.1409011036832
30
0
41
1
10
55.5819530186579
20
-19.1243557876568
30
0
41
1
10
55.5935288070878
20
-19.1147807043242
30
0
41
1
10
55.6055
20
-19.104314114444
30
0
0
SPLINE
5
14B
100
AcDbEntity
8
1
62
256
6
ByLayer
370
18
48
1
60
0
100
AcDbSpline
70
4
71
3
72
8
73
4
40
0
40
0
40
0
40
0
40
1
40
1
40
1
40
1
41
1
10
55.6055
20
-19.1043141144439
30
0
41
1
10
55.8203606627147
20
-18.916458279648
30
0
41
1
10
56.035034489883
20
-18.7283182236773
30
0
41
1
10
56.2495
20
-18.5398612680685
30
0
0
SPLINE
5
14C
100
AcDbEntity
8
1
62
256
6
ByLayer
370
18
48
1
60
0
100
AcDbSpline
70
4
71
3
72
14
73
10
40
0
40
0
40
0
40
0
40
0.25
40
0.25
40
0.5
40
0.5
40
0.75
40
0.75
40
1
40
1
40
1
40
1
41
1
10
56.3245
20
-18.497218698419
30
0
41
1
10
56.3245
20
-18.4935619515478
30
0
41
1
10
56.3225747580154
20
-18.49179769191
30
0
41
1
10
56.314756697559
20
-18.4925854159393
30
0
41
1
10
56.3090311541528
20
-18.4950920713488
30
0
41
1
10
56.2947617336723
20
-18.5036534939647
30
0
41
1
10
56.2864996816712
20
-18.5095271302507
30
0
41
1
10
56.2685874880138
20
-18.5234746847632
30
0
41
1
10
56.2592035623053
20
-18.5313344713373
30
0
41
1
10
56.2495
20
-18.5398612680685
30
0
0
SPLINE
5
14D
100
AcDbEntity
8
1
62
256
6
ByLayer
370
18
48
1
60
0
100
AcDbSpline
70
4
71
3
72
12
73
8
40
0
40
0
40
0
40
0
40
0.499999999999977
40
0.499999999999977
40
0.749999999999988
40
0.749999999999988
40
1
40
1
40
1
40
1
41
1
10
56.2495
20
-18.6585127934132
30
0
41
1
10
56.2691752580471
20
-18.6355514544706
30
0
41
1
10
56.2870773639101
20
-18.6132323146513
30
0
41
1
10
56.3077389094137
20
-18.5840666360661
30
0
41
1
10
56.3136601331486
20
-18.574941859522
30
0
41
1
10
56.3220227856857
20
-18.5596152194333
30
0
41
1
10
56.3245000000001
20
-18.5533180764888
30
0
41
1
10
56.3245000000001
20
-18.5494063264192
30
0
0
SPLINE
5
14E
100
AcDbEntity
8
1
62
256
6
ByLayer
370
18
48
1
60
0
100
AcDbSpline
70
4
71
3
72
8
73
4
40
0
40
0
40
0
40
0
40
1
40
1
40
1
40
1
41
1
10
56.2495
20
-18.6585127934132
30
0
41
1
10
56.0361756971328
20
-18.9074656463368
30
0
41
1
10
55.8214601253758
20
-19.1548089105379
30
0
41
1
10
55.6055
20
-19.4007123240498
30
0
0
SPLINE
5
14F
100
AcDbEntity
8
1
62
256
6
ByLayer
370
18
48
1
60
0
100
AcDbSpline
70
4
71
3
72
22
73
18
40
0
40
0
40
0
40
0
40
0.249999999999996
40
0.249999999999996
40
0.374999999999991
40
0.374999999999991
40
0.499999999999985
40
0.499999999999985
40
0.562499999999983
40
0.562499999999983
40
0.624999999999982
40
0.624999999999982
40
0.749999999999988
40
0.749999999999988
40
0.874999999999994
40
0.874999999999994
40
1
40
1
40
1
40
1
41
1
10
55.6055
20
-19.4007123240498
30
0
41
1
10
55.5844487710631
20
-19.4246823465028
30
0
41
1
10
55.5651564635437
20
-19.4478271489152
30
0
41
1
10
55.5421483682988
20
-19.4780785389166
30
0
41
1
10
55.5354160580683
20
-19.4875088448807
30
0
41
1
10
55.5253331633762
20
-19.5033650289359
30
0
41
1
10
55.5218740451311
20
-19.5099807042089
30
0
41
1
10
55.5203167438937
20
-19.5163677412187
30
0
41
1
10
55.5203991340239
20
-19.5179369018527
30
0
41
1
10
55.5218505392975
20
-19.5197064978898
30
0
41
1
10
55.5232033922375
20
-19.5199349313541
30
0
41
1
10
55.529205069968
20
-19.518589858402
30
0
41
1
10
55.535687397215
20
-19.5149608219587
30
0
41
1
10
55.5520532093454
20
-19.5035500426185
30
0
41
1
10
55.5617198351167
20
-19.4959485093586
30
0
41
1
10
55.5827867426636
20
-19.4783109541659
30
0
41
1
10
55.5939163852577
20
-19.468508369745
30
0
41
1
10
55.6055
20
-19.4579633817609
30
0
0
SPLINE
5
150
100
AcDbEntity
8
1
62
256
6
ByLayer
370
18
48
1
60
0
100
AcDbSpline
70
4
71
3
72
8
73
4
40
0
40
0
40
0
40
0
40
1
40
1
40
1
40
1
41
1
10
55.6055
20
-19.4579633817609
30
0
41
1
10
55.8204845718489
20
-19.262255066409
30
0
41
1
10
56.0351628256359
20
-19.0660998220099
30
0
41
1
10
56.2495
20
-18.8694469304906
30
0
0
SPLINE
5
151
100
AcDbEntity
8
1
62
256
6
ByLayer
370
18
48
1
60
0
100
AcDbSpline
70
4
71
3
72
14
73
10
40
0
40
0
40
0
40
0
40
0.25
40
0.25
40
0.5
40
0.5
40
0.75
40
0.75
40
1
40
1
40
1
40
1
41
1
10
56.3245
20
-18.8146051206936
30
0
41
1
10
56.3245
20
-18.8123394090931
30
0
41
1
10
56.3224398714728
20
-18.8121342685845
30
0
41
1
10
56.3144191214464
20
-18.8158437620053
30
0
41
1
10
56.3085353513391
20
-18.8197296548517
30
0
41
1
10
56.2944025477758
20
-18.8303671160762
30
0
41
1
10
56.2861624186444
20
-18.8371020110641
30
0
41
1
10
56.2684926224885
20
-18.8522554632202
30
0
41
1
10
56.2591815631082
20
-18.8605641625559
30
0
41
1
10
56.2495
20
-18.8694469304906
30
0
0
SPLINE
5
152
100
AcDbEntity
8
SK1
62
256
6
ByLayer
370
18
48
1
60
0
100
AcDbSpline
70
4
71
3
72
17
73
13
40
0
40
0
40
0
40
0
40
0.0421873368484342
40
0.12297759878498
40
0.284558122658071
40
0.365348384594616
40
0.446138646531162
40
0.607719170404253
40
0.769299694277345
40
0.85008995621389
40
0.930880218150436
40
1
40
1
40
1
40
1
41
1
10
-0.199999999999989
20
-5.72778130128842
30
0
41
1
10
-0.199999999999989
20
-5.92516046675928
30
0
41
1
10
-0.199999999999989
20
-6.49136818680859
30
0
41
1
10
-0.199999999999989
20
-7.73942948440458
30
0
41
1
10
-0.199999999999989
20
-9.01842193523453
30
0
41
1
10
-0.199999999999989
20
-10.1531439090037
30
0
41
1
10
-0.199999999999989
20
-11.190178426912
30
0
41
1
10
-0.199999999999989
20
-12.2979981524201
30
0
41
1
10
-0.199999999999989
20
-13.13423545176
30
0
41
1
10
-0.199999999999989
20
-13.6197110427926
30
0
41
1
10
-0.199999999999989
20
-13.8722047207609
30
0
41
1
10
-0.199999999999989
20
-13.9739667699685
30
0
41
1
10
-0.199999999999989
20
-14.0062758716595
30
0
0
SPLINE
5
153
100
AcDbEntity
8
1
62
256
6
ByLayer
370
18
48
1
60
0
100
AcDbSpline
70
4
71
3
72
14
73
10
40
0
40
0
40
0
40
0
40
0.25
40
0.25
40
0.5
40
0.5
40
0.75
40
0.75
40
1
40
1
40
1
40
1
41
1
10
56.2495
20
-18.9391803988928
30
0
41
1
10
56.2592688422695
20
-18.9285604883658
30
0
41
1
10
56.268549517462
20
-18.9182714615189
30
0
41
1
10
56.285948126181
20
-18.8984727358577
30
0
41
1
10
56.2939811056153
20
-18.8890552087862
30
0
41
1
10
56.3078292065754
20
-18.8720613820255
30
0
41
1
10
56.3137760629922
20
-18.8643141815311
30
0
41
1
10
56.322094334401
20
-18.8520614403499
30
0
41
1
10
56.3245
20
-18.8474829490225
30
0
41
1
10
56.3245
20
-18.8452702757127
30
0
0
SPLINE
5
154
100
AcDbEntity
8
1
62
256
6
ByLayer
370
18
48
1
60
0
100
AcDbSpline
70
4
71
3
72
8
73
4
40
0
40
0
40
0
40
0
40
1
40
1
40
1
40
1
41
1
10
56.2495
20
-18.9391803988928
30
0
41
1
10
56.0358125818042
20
-19.1714844119366
30
0
41
1
10
55.8211109108127
20
-19.4025322035561
30
0
41
1
10
55.6055
20
-19.6324538394991
30
0
0
SPLINE
5
155
100
AcDbEntity
8
1
62
256
6
ByLayer
370
18
48
1
60
0
100
AcDbSpline
70
4
71
3
72
18
73
14
40
0
40
0
40
0
40
0
40
0.243605503045464
40
0.243605503045464
40
0.487211006090929
40
0.487211006090929
40
0.730816509136393
40
0.730816509136393
40
0.852619260659121
40
0.852619260659121
40
0.974422012181848
40
0.974422012181848
40
1
40
1
40
1
40
1
41
1
10
55.6055
20
-19.6324538394991
30
0
41
1
10
55.5946982947576
20
-19.6439724854291
30
0
41
1
10
55.5844118441375
20
-19.6551023216108
30
0
41
1
10
55.5652650923032
20
-19.6761950701127
30
0
41
1
10
55.5562610520449
20
-19.6863191384373
30
0
41
1
10
55.5405980113183
20
-19.7044823911575
30
0
41
1
10
55.5339244419284
20
-19.7125331287251
30
0
41
1
10
55.5265411751117
20
-19.7221714627658
30
0
41
1
10
55.5245651189416
20
-19.7249175304988
30
0
41
1
10
55.5216978030223
20
-19.729365066138
30
0
41
1
10
55.5208174105651
20
-19.7310603772658
30
0
41
1
10
55.5205212560847
20
-19.7323266079737
30
0
41
1
10
55.5204985135444
20
-19.7325178567685
30
0
41
1
10
55.5205040357484
20
-19.7326807860343
30
0
0
SPLINE
5
156
100
AcDbEntity
8
1
62
256
6
ByLayer
370
18
48
1
60
0
100
AcDbSpline
70
4
71
3
72
14
73
10
40
0
40
0
40
0
40
0
40
0.128054604071327
40
0.128054604071327
40
0.418703069380885
40
0.418703069380885
40
0.709351534690442
40
0.709351534690442
40
1
40
1
40
1
40
1
41
1
10
55.5221323466631
20
-19.7332199945726
30
0
41
1
10
55.5231514302727
20
-19.7328897369007
30
0
41
1
10
55.5246384297944
20
-19.7320750599444
30
0
41
1
10
55.5309361387282
20
-19.7278724377559
30
0
41
1
10
55.5376527692821
20
-19.7224962412466
30
0
41
1
10
55.5537652778246
20
-19.7086701136376
30
0
41
1
10
55.5633339952465
20
-19.7000809858593
30
0
41
1
10
55.5835331513508
20
-19.6814873386053
30
0
41
1
10
55.5942615311644
20
-19.6714017814226
30
0
41
1
10
55.6055
20
-19.6606819441533
30
0
0
SPLINE
5
157
100
AcDbEntity
8
1
62
256
6
ByLayer
370
18
48
1
60
0
100
AcDbSpline
70
4
71
3
72
8
73
4
40
0
40
0
40
0
40
0
40
1
40
1
40
1
40
1
41
1
10
55.6055
20
-19.6606819441533
30
0
41
1
10
55.8206432773138
20
-19.4554670740397
30
0
41
1
10
56.0353272741426
20
-19.2496136869222
30
0
41
1
10
56.2495
20
-19.0430495027661
30
0
0
SPLINE
5
158
100
AcDbEntity
8
1
62
256
6
ByLayer
370
18
48
1
60
0
100
AcDbSpline
70
4
71
3
72
14
73
10
40
0
40
0
40
0
40
0
40
0.25
40
0.25
40
0.5
40
0.5
40
0.75
40
0.75
40
1
40
1
40
1
40
1
41
1
10
56.3245
20
-18.9758371977788
30
0
41
1
10
56.3245
20
-18.975010151807
30
0
41
1
10
56.322284241245
20
-18.9763656213643
30
0
41
1
10
56.3141413209643
20
-18.9828977215668
30
0
41
1
10
56.3081754435487
20
-18.9880969690085
30
0
41
1
10
56.294114874461
20
-19.0008084921357
30
0
41
1
10
56.2858499281061
20
-19.0084721201479
30
0
41
1
10
56.2684278986169
20
-19.0248841894914
30
0
41
1
10
56.2591822534426
20
-19.0337112138913
30
0
41
1
10
56.2495
20
-19.0430495027661
30
0
0
SPLINE
5
159
100
AcDbEntity
8
1
62
256
6
ByLayer
370
18
48
1
60
0
100
AcDbSpline
70
4
71
3
72
14
73
10
40
0
40
0
40
0
40
0
40
0.25
40
0.25
40
0.5
40
0.5
40
0.75
40
0.75
40
1
40
1
40
1
40
1
41
1
10
56.2495
20
-19.0660620158908
30
0
41
1
10
56.2592166204734
20
-19.0561463656865
30
0
41
1
10
56.2684720146339
20
-19.0466489518061
30
0
41
1
10
56.2858690552033
20
-19.0286546331068
30
0
41
1
10
56.2940267270367
20
-19.0201387406935
30
0
41
1
10
56.3079660685478
20
-19.0053613830818
30
0
41
1
10
56.3139294881319
20
-18.9989051291788
30
0
41
1
10
56.3221800478486
20
-18.9895483664142
30
0
41
1
10
56.3245
20
-18.9866030081846
30
0
41
1
10
56.3245
20
-18.9859559143441
30
0
0
SPLINE
5
15A
100
AcDbEntity
8
1
62
256
6
ByLayer
370
18
48
1
60
0
100
AcDbSpline
70
4
71
3
72
8
73
4
40
0
40
0
40
0
40
0
40
1
40
1
40
1
40
1
41
1
10
56.2495
20
-19.0660620158908
30
0
41
1
10
56.0355383552333
20
-19.2844063293729
30
0
41
1
10
55.8208468077431
20
-19.5017897467223
30
0
41
1
10
55.6055
20
-19.718310532624
30
0
0
SPLINE
5
15B
100
AcDbEntity
8
1
62
256
6
ByLayer
370
18
48
1
60
0
100
AcDbSpline
70
4
71
3
72
18
73
14
40
0
40
0
40
0
40
0
40
0.249739343947562
40
0.249739343947562
40
0.499478687895124
40
0.499478687895124
40
0.749218031842685
40
0.749218031842685
40
0.874087703816466
40
0.874087703816466
40
0.998957375790247
40
0.998957375790247
40
1
40
1
40
1
40
1
41
1
10
55.6055
20
-19.718310532624
30
0
41
1
10
55.5944754996679
20
-19.7293951337895
30
0
41
1
10
55.5838078688338
20
-19.7401326622104
30
0
41
1
10
55.5640893453649
20
-19.7599977126049
30
0
41
1
10
55.5550223235927
20
-19.7691413037976
30
0
41
1
10
55.5390096076375
20
-19.7852999128294
30
0
41
1
10
55.5323333626195
20
-19.7920430117566
30
0
41
1
10
55.5253372180741
20
-19.7991113050268
30
0
41
1
10
55.523538259436
20
-19.8009292985165
30
0
41
1
10
55.5211013483995
20
-19.8033921482608
30
0
41
1
10
55.5204830275985
20
-19.8040171549694
30
0
41
1
10
55.5205000179885
20
-19.803999981818
30
0
41
1
10
55.5205007213681
20
-19.8039992708628
30
0
41
1
10
55.5205014247287
20
-19.803998559889
30
0
0
SPLINE
5
15C
100
AcDbEntity
8
1
62
256
6
ByLayer
370
18
48
1
60
0
100
AcDbSpline
70
4
71
3
72
14
73
10
40
0
40
0
40
0
40
0
40
0.249787810776428
40
0.249787810776428
40
0.499858540517619
40
0.499858540517619
40
0.749929270258809
40
0.749929270258809
40
1
40
1
40
1
40
1
41
1
10
55.5205004918179
20
11.80399950289
30
0
41
1
10
55.5205409760921
20
11.803958582102
30
0
41
1
10
55.5231637642198
20
11.8013071252238
30
0
41
1
10
55.5325154208193
20
11.7918591255599
30
0
41
1
10
55.5392913352132
20
11.7850155171327
30
0
41
1
10
55.555156423893
20
11.7690060856687
30
0
41
1
10
55.5644404254051
20
11.7596438308681
30
0
41
1
10
55.584094636967
20
11.7398439623325
30
0
41
1
10
55.5945399473858
20
11.7293303347303
30
0
41
1
10
55.6055
20
11.718310532624
30
0
0
SPLINE
5
15D
100
AcDbEntity
8
1
62
256
6
ByLayer
370
18
48
1
60
0
100
AcDbSpline
70
4
71
3
72
8
73
4
40
0
40
0
40
0
40
0
40
1
40
1
40
1
40
1
41
1
10
55.6055
20
11.718310532624
30
0
41
1
10
55.8208468077431
20
11.5017897467223
30
0
41
1
10
56.0355383552333
20
11.2844063293729
30
0
41
1
10
56.2495
20
11.0660620158908
30
0
0
SPLINE
5
15E
100
AcDbEntity
8
1
62
256
6
ByLayer
370
18
48
1
60
0
100
AcDbSpline
70
4
71
3
72
14
73
10
40
0
40
0
40
0
40
0
40
0.25
40
0.25
40
0.5
40
0.5
40
0.75
40
0.75
40
1
40
1
40
1
40
1
41
1
10
56.3245
20
10.9859559143441
30
0
41
1
10
56.3245
20
10.9866037881909
30
0
41
1
10
56.3221714238466
20
10.9895583980661
30
0
41
1
10
56.3139277494105
20
10.9989068493278
30
0
41
1
10
56.3079656550488
20
11.0053619807908
30
0
41
1
10
56.2940017220874
20
11.0201650892682
30
0
41
1
10
56.2858258606706
20
11.0286994782738
30
0
41
1
10
56.2684583541967
20
11.0466629130138
30
0
41
1
10
56.2592129025008
20
11.056150159816
30
0
41
1
10
56.2495
20
11.0660620158908
30
0
0
SPLINE
5
15F
100
AcDbEntity
8
1
62
256
6
ByLayer
370
18
48
1
60
0
100
AcDbSpline
70
4
71
3
72
14
73
10
40
0
40
0
40
0
40
0
40
0.25
40
0.25
40
0.5
40
0.5
40
0.75
40
0.75
40
1
40
1
40
1
40
1
41
1
10
56.2495
20
11.0430495027661
30
0
41
1
10
56.2592482878273
20
11.0336475253952
30
0
41
1
10
56.2685465544727
20
11.0247712727701
30
0
41
1
10
56.285982030222
20
11.0083488319076
30
0
41
1
10
56.2942152401408
20
11.0007164845316
30
0
41
1
10
56.3082186343778
20
10.988059206774
30
0
41
1
10
56.3141667305962
20
10.9828763154634
30
0
41
1
10
56.3222899299582
20
10.9763620848711
30
0
41
1
10
56.3245
20
10.9750110107122
30
0
41
1
10
56.3245
20
10.9758371977788
30
0
0
SPLINE
5
160
100
AcDbEntity
8
1
62
256
6
ByLayer
370
18
48
1
60
0
100
AcDbSpline
70
4
71
3
72
8
73
4
40
0
40
0
40
0
40
0
40
1
40
1
40
1
40
1
41
1
10
56.2495
20
11.0430495027661
30
0
41
1
10
56.0353272741426
20
11.2496136869222
30
0
41
1
10
55.8206432773138
20
11.4554670740397
30
0
41
1
10
55.6055
20
11.6606819441533
30
0
0
SPLINE
5
161
100
AcDbEntity
8
1
62
256
6
ByLayer
370
18
48
1
60
0
100
AcDbSpline
70
4
71
3
72
12
73
8
40
0
40
0
40
0
40
0
40
0.573509267101723
40
0.573509267101723
40
0.86026390065262
40
0.86026390065262
40
1
40
1
40
1
40
1
41
1
10
55.6055
20
11.6606819441533
30
0
41
1
10
55.5828740164312
20
11.6822637864365
30
0
41
1
10
55.5615785724027
20
11.7019823017567
30
0
41
1
10
55.5373661681723
20
11.7227335759311
30
0
41
1
10
55.5307180345657
20
11.7280413748142
30
0
41
1
10
55.5242744109112
20
11.7323058529334
30
0
41
1
10
55.5227154147643
20
11.733115050879
30
0
41
1
10
55.5217348857159
20
11.7333301965602
30
0
0
SPLINE
5
162
100
AcDbEntity
8
1
62
256
6
ByLayer
370
18
48
1
60
0
100
AcDbSpline
70
4
71
3
72
16
73
12
40
0
40
0
40
0
40
0
40
0.0248222770834495
40
0.0248222770834495
40
0.268616707812587
40
0.268616707812587
40
0.512411138541725
40
0.512411138541725
40
0.756205569270862
40
0.756205569270862
40
1
40
1
40
1
40
1
41
1
10
55.5205041303888
20
11.7326037808347
30
0
41
1
10
55.5205069809816
20
11.732438526094
30
0
41
1
10
55.5205360516331
20
11.7322471157282
30
0
41
1
10
55.5211369779532
20
11.7298921088132
30
0
41
1
10
55.5242117394882
20
11.7252031637545
30
0
41
1
10
55.5340008699192
20
11.7124427688096
30
0
41
1
10
55.54077200946
20
11.7042767702902
30
0
41
1
10
55.5563778393302
20
11.6861876297347
30
0
41
1
10
55.5654067401732
20
11.6760368388836
30
0
41
1
10
55.5845812524088
20
11.6549179180248
30
0
41
1
10
55.5947798678576
20
11.6438854980846
30
0
41
1
10
55.6055
20
11.6324538394991
30
0
0
SPLINE
5
163
100
AcDbEntity
8
1
62
256
6
ByLayer
370
18
48
1
60
0
100
AcDbSpline
70
4
71
3
72
8
73
4
40
0
40
0
40
0
40
0
40
1
40
1
40
1
40
1
41
1
10
55.6055
20
11.6324538394991
30
0
41
1
10
55.8211109108127
20
11.4025322035561
30
0
41
1
10
56.0358125818042
20
11.1714844119366
30
0
41
1
10
56.2495
20
10.9391803988928
30
0
0
SPLINE
5
164
100
AcDbEntity
8
1
62
256
6
ByLayer
370
18
48
1
60
0
100
AcDbSpline
70
4
71
3
72
14
73
10
40
0
40
0
40
0
40
0
40
0.25
40
0.25
40
0.5
40
0.5
40
0.75
40
0.75
40
1
40
1
40
1
40
1
41
1
10
56.3245
20
10.8452702757127
30
0
41
1
10
56.3245
20
10.8474896268639
30
0
41
1
10
56.3220763784451
20
10.85209027778
30
0
41
1
10
56.3137640620137
20
10.8643294617756
30
0
41
1
10
56.3078186277286
20
10.8720753006388
30
0
41
1
10
56.2939475664615
20
10.8890954270051
30
0
41
1
10
56.2858524647832
20
10.8985829276961
30
0
41
1
10
56.2685183220492
20
10.9183056164328
30
0
41
1
10
56.2592599624489
20
10.9285701418024
30
0
41
1
10
56.2495
20
10.9391803988928
30
0
0
SPLINE
5
165
100
AcDbEntity
8
1
62
256
6
ByLayer
370
18
48
1
60
0
100
AcDbSpline
70
4
71
3
72
14
73
10
40
0
40
0
40
0
40
0
40
0.25
40
0.25
40
0.5
40
0.5
40
0.75
40
0.75
40
1
40
1
40
1
40
1
41
1
10
56.2495
20
10.8694469304906
30
0
41
1
10
56.2592164064059
20
10.8605321940685
30
0
41
1
10
56.2686910938154
20
10.8520819869761
30
0
41
1
10
56.2862297992528
20
10.8370475450745
30
0
41
1
10
56.2944777938064
20
10.83030705375
30
0
41
1
10
56.3085971952312
20
10.8196865659095
30
0
41
1
10
56.3144901225729
20
10.8158058873362
30
0
41
1
10
56.3224223598941
20
10.8121474390756
30
0
41
1
10
56.3245
20
10.8123719240181
30
0
41
1
10
56.3245
20
10.8146051206936
30
0
0
SPLINE
5
166
100
AcDbEntity
8
1
62
256
6
ByLayer
370
18
48
1
60
0
100
AcDbSpline
70
4
71
3
72
8
73
4
40
0
40
0
40
0
40
0
40
1
40
1
40
1
40
1
41
1
10
56.2495
20
10.8694469304906
30
0
41
1
10
56.0351628256359
20
11.0660998220099
30
0
41
1
10
55.8204845718489
20
11.262255066409
30
0
41
1
10
55.6055
20
11.4579633817609
30
0
0
SPLINE
5
167
100
AcDbEntity
8
1
62
256
6
ByLayer
370
18
48
1
60
0
100
AcDbSpline
70
4
71
3
72
22
73
18
40
0
40
0
40
0
40
0
40
0.25
40
0.25
40
0.375
40
0.375
40
0.5
40
0.5
40
0.5625
40
0.5625
40
0.625
40
0.625
40
0.75
40
0.75
40
0.875
40
0.875
40
1
40
1
40
1
40
1
41
1
10
55.6055
20
11.4579633817609
30
0
41
1
10
55.582263425977
20
11.4791164845974
30
0
41
1
10
55.5600571063053
20
11.4979861196756
30
0
41
1
10
55.5356004480986
20
11.5150130275158
30
0
41
1
10
55.5291039397896
20
11.5186278790933
30
0
41
1
10
55.5212166421467
20
11.5203646678102
30
0
41
1
10
55.519795744961
20
11.5184659182163
30
0
41
1
10
55.5213682137262
20
11.5120748358367
30
0
41
1
10
55.5225019096432
20
11.5093305442332
30
0
41
1
10
55.5257546539313
20
11.5029841856744
30
0
41
1
10
55.5278673078737
20
11.4993780947692
30
0
41
1
10
55.5354600365086
20
11.4874432758273
30
0
41
1
10
55.5421827237264
20
11.4780317693818
30
0
41
1
10
55.5575174190538
20
11.4578726848728
30
0
41
1
10
55.5663064945326
20
11.4468918586348
30
0
41
1
10
55.5850325642714
20
11.4243125329395
30
0
41
1
10
55.5950016733861
20
11.4126662639081
30
0
41
1
10
55.6055
20
11.4007123240498
30
0
0
SPLINE
5
168
100
AcDbEntity
8
1
62
256
6
ByLayer
370
18
48
1
60
0
100
AcDbSpline
70
4
71
3
72
8
73
4
40
0
40
0
40
0
40
0
40
1
40
1
40
1
40
1
41
1
10
55.6055
20
11.4007123240498
30
0
41
1
10
55.8214601253758
20
11.1548089105379
30
0
41
1
10
56.0361756971328
20
10.9074656463368
30
0
41
1
10
56.2495
20
10.6585127934132
30
0
0
SPLINE
5
169
100
AcDbEntity
8
1
62
256
6
ByLayer
370
18
48
1
60
0
100
AcDbSpline
70
4
71
3
72
14
73
10
40
0
40
0
40
0
40
0
40
0.25
40
0.25
40
0.5
40
0.5
40
0.75
40
0.75
40
1
40
1
40
1
40
1
41
1
10
56.3245
20
10.5494063264194
30
0
41
1
10
56.3245
20
10.5533590303348
30
0
41
1
10
56.3220088954186
20
10.5596527303941
30
0
41
1
10
56.3135855874194
20
10.575066302088
30
0
41
1
10
56.3076971778658
20
10.5841317246029
30
0
41
1
10
56.2938373153333
20
10.6036837627801
30
0
41
1
10
56.2857800589614
20
10.6142824011503
30
0
41
1
10
56.2685646263829
20
10.6359067623047
30
0
41
1
10
56.259315111979
20
10.6470584016909
30
0
41
1
10
56.2495
20
10.6585127934132
30
0
0
SPLINE
5
16A
100
AcDbEntity
8
1
62
256
6
ByLayer
370
18
48
1
60
0
100
AcDbSpline
70
4
71
3
72
14
73
10
40
0
40
0
40
0
40
0
40
0.25
40
0.25
40
0.5
40
0.5
40
0.75
40
0.75
40
1
40
1
40
1
40
1
41
1
10
56.2495
20
10.5398612680685
30
0
41
1
10
56.2592240950433
20
10.5313164286353
30
0
41
1
10
56.2687784808572
20
10.5233216168232
30
0
41
1
10
56.2865180846811
20
10.5095172010961
30
0
41
1
10
56.2948468959951
20
10.5035991411728
30
0
41
1
10
56.309021750586
20
10.4951009875526
30
0
41
1
10
56.3148564932133
20
10.4925606678929
30
0
41
1
10
56.3225654882072
20
10.491813492071
30
0
41
1
10
56.3245
20
10.4936117517551
30
0
41
1
10
56.3245
20
10.497218698419
30
0
0
SPLINE
5
16B
100
AcDbEntity
8
1
62
256
6
ByLayer
370
18
48
1
60
0
100
AcDbSpline
70
4
71
3
72
8
73
4
40
0
40
0
40
0
40
0
40
1
40
1
40
1
40
1
41
1
10
56.2495
20
10.5398612680685
30
0
41
1
10
56.035034489883
20
10.7283182236773
30
0
41
1
10
55.8203606627147
20
10.916458279648
30
0
41
1
10
55.6055
20
11.1043141144439
30
0
0
SPLINE
5
16C
100
AcDbEntity
8
1
62
256
6
ByLayer
370
18
48
1
60
0
100
AcDbSpline
70
4
71
3
72
24
73
20
40
0
40
0
40
0
40
0
40
0.124999999999975
40
0.124999999999975
40
0.249999999999949
40
0.249999999999949
40
0.31249999999995
40
0.31249999999995
40
0.37499999999995
40
0.37499999999995
40
0.49999999999996
40
0.49999999999996
40
0.62499999999997
40
0.62499999999997
40
0.74999999999998
40
0.74999999999998
40
0.87499999999999
40
0.87499999999999
40
1
40
1
40
1
40
1
41
1
10
55.6055
20
11.1043141144439
30
0
41
1
10
55.5934632937873
20
11.1148379835654
30
0
41
1
10
55.5816731389021
20
11.1245746550669
30
0
41
1
10
55.5600245480421
20
11.1409043189285
30
0
41
1
10
55.5499145553487
20
11.1476664271501
30
0
41
1
10
55.537673048248
20
11.153967446024
30
0
41
1
10
55.5340195691033
20
11.1554547605258
30
0
41
1
10
55.5280334555837
20
11.1569426994495
30
0
41
1
10
55.5256596730595
20
11.1569732503846
30
0
41
1
10
55.5204429724318
20
11.1548652458193
30
0
41
1
10
55.5197313235776
20
11.150516213461
30
0
41
1
10
55.5228604713893
20
11.1376407193304
30
0
41
1
10
55.5266068542954
20
11.1292581336757
30
0
41
1
10
55.5370511584458
20
11.1101564134492
30
0
41
1
10
55.5436321073829
20
11.0996272579293
30
0
41
1
10
55.5588539646259
20
11.0770902678142
30
0
41
1
10
55.5673625711935
20
11.0652921980547
30
0
41
1
10
55.5855242840147
20
11.0412423492767
30
0
41
1
10
55.5952281516895
20
11.0289211940523
30
0
41
1
10
55.6055
20
11.0163333451349
30
0
0
SPLINE
5
16D
100
AcDbEntity
8
1
62
256
6
ByLayer
370
18
48
1
60
0
100
AcDbSpline
70
4
71
3
72
8
73
4
40
0
40
0
40
0
40
0
40
1
40
1
40
1
40
1
41
1
10
55.6055
20
11.0163333451349
30
0
41
1
10
55.8219338484439
20
10.7511000100563
30
0
41
1
10
56.0366690653106
20
10.4840466183653
30
0
41
1
10
56.2495
20
10.2149528187276
30
0
0
SPLINE
5
16E
100
AcDbEntity
8
1
62
256
6
ByLayer
370
18
48
1
60
0
100
AcDbSpline
70
4
71
3
72
14
73
10
40
0
40
0
40
0
40
0
40
0.25
40
0.25
40
0.5
40
0.5
40
0.75
40
0.75
40
1
40
1
40
1
40
1
41
1
10
56.3245
20
10.0885911056977
30
0
41
1
10
56.3245
20
10.0944762792782
30
0
41
1
10
56.3219646694255
20
10.1025730885475
30
0
41
1
10
56.313465769562
20
10.1214813899949
30
0
41
1
10
56.3076576638288
20
10.1319667983822
30
0
41
1
10
56.2938287565169
20
10.154378905963
30
0
41
1
10
56.2858501552656
20
10.1662050363976
30
0
41
1
10
56.2686706661525
20
10.1901801511552
30
0
41
1
10
56.2593959172503
20
10.2024408689132
30
0
41
1
10
56.2495
20
10.2149528187276
30
0
0
SPLINE
5
16F
100
AcDbEntity
8
1
62
256
6
ByLayer
370
18
48
1
60
0
100
AcDbSpline
70
4
71
3
72
14
73
10
40
0
40
0
40
0
40
0
40
0.25
40
0.25
40
0.5
40
0.5
40
0.75
40
0.75
40
1
40
1
40
1
40
1
41
1
10
56.2495
20
10.0433144011905
30
0
41
1
10
56.2592456998771
20
10.0350487746408
30
0
41
1
10
56.2687829184352
20
10.0275202919845
30
0
41
1
10
56.286929658101
20
10.0147646743886
30
0
41
1
10
56.2953844168923
20
10.0096743912255
30
0
41
1
10
56.3095811801607
20
10.0034508710611
30
0
41
1
10
56.3153166990107
20
10.0023753157994
30
0
41
1
10
56.3227268267543
20
10.0046993069554
30
0
41
1
10
56.3245
20
10.0080984772935
30
0
41
1
10
56.3245
20
10.0130715796893
30
0
0
SPLINE
5
170
100
AcDbEntity
8
1
62
256
6
ByLayer
370
18
48
1
60
0
100
AcDbSpline
70
4
71
3
72
8
73
4
40
0
40
0
40
0
40
0
40
1
40
1
40
1
40
1
41
1
10
56.2495
20
10.0433144011905
30
0
41
1
10
56.0349363755451
20
10.225292382581
30
0
41
1
10
55.8202658629212
20
10.4071024217297
30
0
41
1
10
55.6055
20
10.5887620387653
30
0
0
SPLINE
5
171
100
AcDbEntity
8
1
62
256
6
ByLayer
370
18
48
1
60
0
100
AcDbSpline
70
4
71
3
72
22
73
18
40
0
40
0
40
0
40
0
40
0.125000000000005
40
0.125000000000005
40
0.25000000000001
40
0.25000000000001
40
0.312500000000009
40
0.312500000000009
40
0.375000000000009
40
0.375000000000009
40
0.500000000000011
40
0.500000000000011
40
0.625000000000014
40
0.625000000000014
40
0.750000000000016
40
0.750000000000016
40
1
40
1
40
1
40
1
41
1
10
55.6055
20
10.5887620387653
30
0
41
1
10
55.5929845031714
20
10.5993482666228
30
0
41
1
10
55.5806879940926
20
10.6088941023579
30
0
41
1
10
55.5581074155187
20
10.6240121378288
30
0
41
1
10
55.5476913182949
20
10.6296362448251
30
0
41
1
10
55.5354071612165
20
10.6332761314102
30
0
41
1
10
55.5319337702328
20
10.6336780888104
30
0
41
1
10
55.5263533110019
20
10.6328644638049
30
0
41
1
10
55.5242053215013
20
10.631622156286
30
0
41
1
10
55.5199377739814
20
10.6257084033646
30
0
41
1
10
55.5199047753131
20
10.6188074918056
30
0
41
1
10
55.5238982521712
20
10.6017492602949
30
0
41
1
10
55.5279214212342
20
10.5914489173346
30
0
41
1
10
55.538474273465
20
10.5693096491524
30
0
41
1
10
55.5450386933838
20
10.5573625363887
30
0
41
1
10
55.5674538297115
20
10.5199933529968
30
0
41
1
10
55.5853599050208
20
10.4939793181766
30
0
41
1
10
55.6055
20
10.467155704432
30
0
0
SPLINE
5
172
100
AcDbEntity
8
1
62
256
6
ByLayer
370
18
48
1
60
0
100
AcDbSpline
70
4
71
3
72
8
73
4
40
0
40
0
40
0
40
0
40
1
40
1
40
1
40
1
41
1
10
55.6055
20
10.467155704432
30
0
41
1
10
55.8225986716763
20
10.1780125340789
30
0
41
1
10
56.0373626674526
20
9.88657720226814
30
0
41
1
10
56.2495
20
9.59256303875941
30
0
0
SPLINE
5
173
100
AcDbEntity
8
1
62
256
6
ByLayer
370
18
48
1
60
0
100
AcDbSpline
70
4
71
3
72
12
73
8
40
0
40
0
40
0
40
0
40
0.250000000000002
40
0.250000000000002
40
0.500000000000004
40
0.500000000000004
40
1
40
1
40
1
40
1
41
1
10
56.3245
20
9.44587573331825
30
0
41
1
10
56.3245
20
9.45396740305273
30
0
41
1
10
56.3219072687659
20
9.46415122849479
30
0
41
1
10
56.3134446310761
20
9.48685152260992
30
0
41
1
10
56.3076685378331
20
9.49910279915824
30
0
41
1
10
56.2869552366996
20
9.53783260836127
30
0
41
1
10
56.2694958530294
20
9.56484955744287
30
0
41
1
10
56.2495
20
9.59256303875941
30
0
0
SPLINE
5
174
100
AcDbEntity
8
1
62
256
6
ByLayer
370
18
48
1
60
0
100
AcDbSpline
70
4
71
3
72
14
73
10
40
0
40
0
40
0
40
0
40
0.25
40
0.25
40
0.5
40
0.5
40
0.75
40
0.75
40
1
40
1
40
1
40
1
41
1
10
56.2495
20
9.36120477526958
30
0
41
1
10
56.2593226313071
20
9.35308526488555
30
0
41
1
10
56.2689953447247
20
9.34584945112996
30
0
41
1
10
56.2874920421366
20
9.33422731515961
30
0
41
1
10
56.2961194102698
20
9.33002654004181
30
0
41
1
10
56.3102957488525
20
9.32636122303271
30
0
41
1
10
56.3158785041992
20
9.32695354638145
30
0
41
1
10
56.3229029927876
20
9.33259916869764
30
0
41
1
10
56.3245000000001
20
9.33765639346268
30
0
41
1
10
56.3245000000001
20
9.34402488776155
30
0
0
SPLINE
5
175
100
AcDbEntity
8
1
62
256
6
ByLayer
370
18
48
1
60
0
100
AcDbSpline
70
4
71
3
72
8
73
4
40
0
40
0
40
0
40
0
40
1
40
1
40
1
40
1
41
1
10
56.2495
20
9.36120477526964
30
0
41
1
10
56.0348672252561
20
9.53862292207867
30
0
41
1
10
55.8201992608209
20
9.71598431842992
30
0
41
1
10
55.6055
20
9.89329517355944
30
0
0
SPLINE
5
176
100
AcDbEntity
8
1
62
256
6
ByLayer
370
18
48
1
60
0
100
AcDbSpline
70
4
71
3
72
22
73
18
40
0
40
0
40
0
40
0
40
0.125000000000003
40
0.125000000000003
40
0.250000000000007
40
0.250000000000007
40
0.37500000000001
40
0.37500000000001
40
0.437500000000011
40
0.437500000000011
40
0.500000000000013
40
0.500000000000013
40
0.62500000000001
40
0.62500000000001
40
0.750000000000006
40
0.750000000000006
40
1
40
1
40
1
40
1
41
1
10
55.6055
20
9.89329517355944
30
0
41
1
10
55.5923897919611
20
9.9041223286666
30
0
41
1
10
55.5794532267683
20
9.91357904633642
30
0
41
1
10
55.5556664555314
20
9.92729496073542
30
0
41
1
10
55.5448178774582
20
9.93139547666232
30
0
41
1
10
55.5289697179716
20
9.931536873672
30
0
41
1
10
55.5239391821993
20
9.92761462470324
30
0
41
1
10
55.5207436371656
20
9.91748685234597
30
0
41
1
10
55.5203576388296
20
9.91337512265878
30
0
41
1
10
55.5207360312479
20
9.90424998613992
30
0
41
1
10
55.5214840531057
20
9.89923828546023
30
0
41
1
10
55.5250781219021
20
9.88311539218026
30
0
41
1
10
55.5292894226803
20
9.87091167507182
30
0
41
1
10
55.5399279896784
20
9.84543378512566
30
0
41
1
10
55.5464701116894
20
9.83188761053762
30
0
41
1
10
55.5683265272113
20
9.79066519302475
30
0
41
1
10
55.5857588597082
20
9.76236535276755
30
0
41
1
10
55.6055
20
9.73342350691732
30
0
0
SPLINE
5
177
100
AcDbEntity
8
1
62
256
6
ByLayer
370
18
48
1
60
0
100
AcDbSpline
70
4
71
3
72
8
73
4
40
0
40
0
40
0
40
0
40
1
40
1
40
1
40
1
41
1
10
55.6055
20
9.73342350691732
30
0
41
1
10
55.8235756476837
20
9.41370986901876
30
0
41
1
10
56.0383838344783
20
9.09109845493157
30
0
41
1
10
56.2495
20
8.76521273957641
30
0
0
SPLINE
5
178
100
AcDbEntity
8
1
62
256
6
ByLayer
370
18
48
1
60
0
100
AcDbSpline
70
4
71
3
72
12
73
8
40
0
40
0
40
0
40
0
40
0.249999999999996
40
0.249999999999996
40
0.499999999999992
40
0.499999999999992
40
1
40
1
40
1
40
1
41
1
10
56.3245000000063
20
8.5934407184059
30
0
41
1
10
56.3245000000059
20
8.60406094371365
30
0
41
1
10
56.3218483991439
20
8.61687029335209
30
0
41
1
10
56.3134516370154
20
8.64405766774644
30
0
41
1
10
56.3076715399339
20
8.65856204641531
30
0
41
1
10
56.2871295287574
20
8.70333738813036
30
0
41
1
10
56.2697437386086
20
8.73396385239803
30
0
41
1
10
56.2495
20
8.76521273957641
30
0
0
SPLINE
5
179
100
AcDbEntity
8
1
62
256
6
ByLayer
370
18
48
1
60
0
100
AcDbSpline
70
4
71
3
72
14
73
10
40
0
40
0
40
0
40
0
40
0.25
40
0.25
40
0.5
40
0.5
40
0.75
40
0.75
40
1
40
1
40
1
40
1
41
1
10
56.2495
20
8.46310180985026
30
0
41
1
10
56.2595285451955
20
8.45491157826297
30
0
41
1
10
56.2693787576544
20
8.44788685172981
30
0
41
1
10
56.2883493100186
20
8.43744007648567
30
0
41
1
10
56.297175431408
20
8.43431416742447
30
0
41
1
10
56.3112592682041
20
8.43373805724781
30
0
41
1
10
56.3165617376619
20
8.4363049691996
30
0
41
1
10
56.3231105804424
20
8.44569763228799
30
0
41
1
10
56.3245000000006
20
8.45250003941823
30
0
41
1
10
56.3245000000006
20
8.46033006436414
30
0
0
SPLINE
5
17A
100
AcDbEntity
8
1
62
256
6
ByLayer
370
18
48
1
60
0
100
AcDbSpline
70
4
71
3
72
8
73
4
40
0
40
0
40
0
40
0
40
1
40
1
40
1
40
1
41
1
10
56.2495
20
8.46310180985026
30
0
41
1
10
56.0348340263955
20
8.6384177707854
30
0
41
1
10
55.8201673316658
20
8.81373255441414
30
0
41
1
10
55.6055
20
8.98904629815368
30
0
0
SPLINE
5
17B
100
AcDbEntity
8
1
62
256
6
ByLayer
370
18
48
1
60
0
100
AcDbSpline
70
4
71
3
72
22
73
18
40
0
40
0
40
0
40
0
40
0.125000000000004
40
0.125000000000004
40
0.187500000000002
40
0.187500000000002
40
0.250000000000001
40
0.250000000000001
40
0.312499999999999
40
0.312499999999999
40
0.374999999999997
40
0.374999999999997
40
0.499999999999998
40
0.499999999999998
40
0.749999999999999
40
0.749999999999999
40
1
40
1
40
1
40
1
41
1
10
55.6055
20
8.98904629815368
30
0
41
1
10
55.5916227183265
20
9.00037954660016
30
0
41
1
10
55.5778149847256
20
9.00990580721233
30
0
41
1
10
55.5587640996215
20
9.01876785831757
30
0
41
1
10
55.5528778815587
20
9.02071573243569
30
0
41
1
10
55.5423005181068
20
9.02229949856672
30
0
41
1
10
55.5376805232072
20
9.02189048895701
30
0
41
1
10
55.5302189661989
20
9.0188458080784
30
0
41
1
10
55.5272609873016
20
9.01616215454396
30
0
41
1
10
55.5230323956632
20
9.00909930028612
30
0
41
1
10
55.5217153832485
20
9.00474616502424
30
0
41
1
10
55.5196904069084
20
8.9896936057726
30
0
41
1
10
55.5209009317693
20
8.97767397407651
30
0
41
1
10
55.5292113354176
20
8.93798918585546
30
0
41
1
10
55.5408135092951
20
8.90766423263207
30
0
41
1
10
55.5692151739163
20
8.84639210834106
30
0
41
1
10
55.5861723846302
20
8.81514815029749
30
0
41
1
10
55.6055
20
8.78339736785253
30
0
0
SPLINE
5
17C
100
AcDbEntity
8
1
62
256
6
ByLayer
370
18
48
1
60
0
100
AcDbSpline
70
4
71
3
72
8
73
4
40
0
40
0
40
0
40
0
40
1
40
1
40
1
40
1
41
1
10
55.6055
20
8.78339736785253
30
0
41
1
10
55.8251085260618
20
8.42263157235107
30
0
41
1
10
56.0399891728598
20
8.05815470592205
30
0
41
1
10
56.2495
20
7.68946288803036
30
0
0
SPLINE
5
17D
100
AcDbEntity
8
1
62
256
6
ByLayer
370
18
48
1
60
0
100
AcDbSpline
70
4
71
3
72
12
73
8
40
0
40
0
40
0
40
0
40
0.25
40
0.25
40
0.499999999999999
40
0.499999999999999
40
1
40
1
40
1
40
1
41
1
10
56.3245000000049
20
7.48468214711835
30
0
41
1
10
56.3245000000046
20
7.49861863926009
30
0
41
1
10
56.3218168192749
20
7.51458203617108
30
0
41
1
10
56.3134994891632
20
7.54755023489415
30
0
41
1
10
56.3077914383874
20
7.56481024495307
30
0
41
1
10
56.2874223644384
20
7.61763903059131
30
0
41
1
10
56.2700255746268
20
7.65334250453654
30
0
41
1
10
56.2495
20
7.68946288803036
30
0
0
SPLINE
5
17E
100
AcDbEntity
8
1
62
256
6
ByLayer
370
18
48
1
60
0
100
AcDbSpline
70
4
71
3
72
14
73
10
40
0
40
0
40
0
40
0
40
0.25
40
0.25
40
0.5
40
0.5
40
0.75
40
0.75
40
1
40
1
40
1
40
1
41
1
10
56.2495
20
7.29761126958667
30
0
41
1
10
56.2596835276341
20
7.28921710685768
30
0
41
1
10
56.2700881623099
20
7.2820602997862
30
0
41
1
10
56.2896412795497
20
7.27301465252233
30
0
41
1
10
56.2987161672675
20
7.27134275336965
30
0
41
1
10
56.3126080537397
20
7.27487496116962
30
0
41
1
10
56.3174509941179
20
7.27992760648175
30
0
41
1
10
56.3233327606758
20
7.29366611832552
30
0
41
1
10
56.3245000000032
20
7.30235367977733
30
0
41
1
10
56.324500000003
20
7.31179253790324
30
0
0
SPLINE
5
17F
100
AcDbEntity
8
1
62
256
6
ByLayer
370
18
48
1
60
0
100
AcDbSpline
70
4
71
3
72
8
73
4
40
0
40
0
40
0
40
0
40
1
40
1
40
1
40
1
41
1
10
56.2495
20
7.29761126958689
30
0
41
1
10
56.0348639249866
20
7.47453327597975
30
0
41
1
10
55.8201958861166
20
7.65140358761843
30
0
41
1
10
55.6055
20
7.8282288061869
30
0
0
SPLINE
5
180
100
AcDbEntity
8
1
62
256
6
ByLayer
370
18
48
1
60
0
100
AcDbSpline
70
4
71
3
72
20
73
16
40
0
40
0
40
0
40
0
40
0.125000000000006
40
0.125000000000006
40
0.187500000000009
40
0.187500000000009
40
0.250000000000012
40
0.250000000000012
40
0.375000000000014
40
0.375000000000014
40
0.500000000000016
40
0.500000000000016
40
0.750000000000008
40
0.750000000000008
40
1
40
1
40
1
40
1
41
1
10
55.6055
20
7.82822880618727
30
0
41
1
10
55.5906092734133
20
7.84049292559345
30
0
41
1
10
55.5751942192751
20
7.85048117845977
30
0
41
1
10
55.554890008181
20
7.85680709947729
30
0
41
1
10
55.5487346821652
20
7.85742971550826
30
0
41
1
10
55.5381321528146
20
7.85547952427962
30
0
41
1
10
55.5338980630895
20
7.85298992321535
30
0
41
1
10
55.523833683656
20
7.84175949617779
30
0
41
1
10
55.5210592914158
20
7.82964276800035
30
0
41
1
10
55.5200966597094
20
7.8027113601616
30
0
41
1
10
55.5217997890807
20
7.78770837776452
30
0
41
1
10
55.530979007161
20
7.73980528858147
30
0
41
1
10
55.5423114350604
20
7.70505517346544
30
0
41
1
10
55.5701098531134
20
7.63495368934758
30
0
41
1
10
55.5866332660355
20
7.59956614461984
30
0
41
1
10
55.6055
20
7.5638910107493
30
0
0
SPLINE
5
181
100
AcDbEntity
8
1
62
256
6
ByLayer
370
18
48
1
60
0
100
AcDbSpline
70
4
71
3
72
8
73
4
40
0
40
0
40
0
40
0
40
1
40
1
40
1
40
1
41
1
10
55.6055
20
7.5638910107493
30
0
41
1
10
55.8277685085049
20
7.14360317444235
30
0
41
1
10
56.0427804369158
20
6.71843292543352
30
0
41
1
10
56.2495
20
6.28768336092409
30
0
0
SPLINE
5
182
100
AcDbEntity
8
1
62
256
6
ByLayer
370
18
48
1
60
0
100
AcDbSpline
70
4
71
3
72
12
73
8
40
0
40
0
40
0
40
0
40
0.25
40
0.25
40
0.5
40
0.5
40
1
40
1
40
1
40
1
41
1
10
56.3245
20
6.03499371762203
30
0
41
1
10
56.3245
20
6.05358985970972
30
0
41
1
10
56.3218666312093
20
6.07354036576015
30
0
41
1
10
56.3136339039102
20
6.11494051845855
30
0
41
1
10
56.3079221542003
20
6.13647318209033
30
0
41
1
10
56.2878278136398
20
6.20076601798291
30
0
41
1
10
56.2704480558524
20
6.24403308515383
30
0
41
1
10
56.2495
20
6.28768336092409
30
0
0
SPLINE
5
183
100
AcDbEntity
8
1
62
256
6
ByLayer
370
18
48
1
60
0
100
AcDbSpline
70
4
71
3
72
14
73
10
40
0
40
0
40
0
40
0
40
0.25
40
0.25
40
0.5
40
0.5
40
0.75
40
0.75
40
1
40
1
40
1
40
1
41
1
10
56.2495
20
5.76950019574679
30
0
41
1
10
56.2600887480643
20
5.76034543126849
30
0
41
1
10
56.2711394646123
20
5.75281867950557
30
0
41
1
10
56.2920202054396
20
5.74561239157393
30
0
41
1
10
56.301227709581
20
5.74652136602657
30
0
41
1
10
56.3144353219523
20
5.75619140774603
30
0
41
1
10
56.3186242563821
20
5.76460347571751
30
0
41
1
10
56.3235888009734
20
5.78369998775332
30
0
41
1
10
56.3245
20
5.79441052495082
30
0
41
1
10
56.3245
20
5.80578785862332
30
0
0
SPLINE
5
184
100
AcDbEntity
8
1
62
256
6
ByLayer
370
18
48
1
60
0
100
AcDbSpline
70
4
71
3
72
8
73
4
40
0
40
0
40
0
40
0
40
1
40
1
40
1
40
1
41
1
10
56.2495
20
5.76950019574701
30
0
41
1
10
56.0350577211803
20
5.95490158076933
30
0
41
1
10
55.8203794218738
20
6.1399379145854
30
0
41
1
10
55.6055
20
6.32466317355869
30
0
0
SPLINE
5
185
100
AcDbEntity
8
1
62
256
6
ByLayer
370
18
48
1
60
0
100
AcDbSpline
70
4
71
3
72
24
73
20
40
0
40
0
40
0
40
0
40
0.0624999999999986
40
0.0624999999999986
40
0.124999999999997
40
0.124999999999997
40
0.187499999999996
40
0.187499999999996
40
0.249999999999994
40
0.249999999999994
40
0.374999999999994
40
0.374999999999994
40
0.499999999999994
40
0.499999999999994
40
0.624999999999994
40
0.624999999999994
40
0.749999999999994
40
0.749999999999994
40
1
40
1
40
1
40
1
41
1
10
55.6055000000003
20
6.32466317356028
30
0
41
1
10
55.5972908220626
20
6.33172035245289
30
0
41
1
10
55.5888294563666
20
6.3379434777722
30
0
41
1
10
55.572156336855
20
6.34708222484016
30
0
41
1
10
55.56390538009
20
6.3499327609477
30
0
41
1
10
55.5493813671578
20
6.35073846606835
30
0
41
1
10
55.5430580164789
20
6.34868645235454
30
0
41
1
10
55.5331440046893
20
6.34069525011782
30
0
41
1
10
55.5295379464697
20
6.33493164555867
30
0
41
1
10
55.5216517000027
20
6.31470170412587
30
0
41
1
10
55.520176950368
20
6.2973338809399
30
0
41
1
10
55.5209299083085
20
6.26111210462821
30
0
41
1
10
55.5231701003545
20
6.24201246998126
30
0
41
1
10
55.5299124700065
20
6.20259300211191
30
0
41
1
10
55.5344683999726
20
6.18224421244958
30
0
41
1
10
55.5450646287767
20
6.14163430238318
30
0
41
1
10
55.5511391063278
20
6.12121681005576
30
0
41
1
10
55.5712718337635
20
6.05968462189145
30
0
41
1
10
55.5871862607217
20
6.01829660889362
30
0
41
1
10
55.6055
20
5.97656766390918
30
0
0
SPLINE
5
186
100
AcDbEntity
8
1
62
256
6
ByLayer
370
18
48
1
60
0
100
AcDbSpline
70
4
71
3
72
8
73
4
40
0
40
0
40
0
40
0
40
1
40
1
40
1
40
1
41
1
10
55.6055
20
5.97656766390918
30
0
41
1
10
55.8332755239774
20
5.45756757526456
30
0
41
1
10
56.0485705188501
20
4.93177794735089
30
0
41
1
10
56.2495
20
4.39817332868461
30
0
0
SPLINE
5
187
100
AcDbEntity
8
1
62
256
6
ByLayer
370
18
48
1
60
0
100
AcDbSpline
70
4
71
3
72
12
73
8
40
0
40
0
40
0
40
0
40
0.250000000000005
40
0.250000000000005
40
0.500000000000009
40
0.500000000000009
40
1
40
1
40
1
40
1
41
1
10
56.3245
20
4.06252279407664
30
0
41
1
10
56.3245
20
4.08877438392983
30
0
41
1
10
56.3218617594051
20
4.11624626260732
30
0
41
1
10
56.3136794429824
20
4.17216347578736
30
0
41
1
10
56.3081312899982
20
4.20023384490867
30
0
41
1
10
56.2882979872325
20
4.28467600365437
30
0
41
1
10
56.2709276994985
20
4.34126819284222
30
0
41
1
10
56.2495000000004
20
4.39817332868458
30
0
0
SPLINE
5
188
100
AcDbEntity
8
1
62
256
6
ByLayer
370
18
48
1
60
0
100
AcDbSpline
70
4
71
3
72
18
73
14
40
0
40
0
40
0
40
0
40
0.125
40
0.125
40
0.25
40
0.25
40
0.375
40
0.375
40
0.5
40
0.5
40
0.75
40
0.75
40
1
40
1
40
1
40
1
41
1
10
56.2494999999997
20
3.66487101983378
30
0
41
1
10
56.2550825771808
20
3.65934993796893
30
0
41
1
10
56.2608400805829
20
3.65443123214692
30
0
41
1
10
56.2728878009919
20
3.6466797602871
30
0
41
1
10
56.2790379838132
20
3.64403531494773
30
0
41
1
10
56.290470788568
20
3.64254219960355
30
0
41
1
10
56.2957720298857
20
3.6437445464006
30
0
41
1
10
56.3045418797552
20
3.64926616914488
30
0
41
1
10
56.3080928103558
20
3.65350242879816
30
0
41
1
10
56.3166378240431
20
3.66829570395598
30
0
41
1
10
56.3198494486439
20
3.68107381810142
30
0
41
1
10
56.3237864855462
20
3.7077767562244
30
0
41
1
10
56.3245
20
3.72183870453068
30
0
41
1
10
56.3245
20
3.73629760518764
30
0
0
SPLINE
5
189
100
AcDbEntity
8
1
62
256
6
ByLayer
370
18
48
1
60
0
100
AcDbSpline
70
4
71
3
72
8
73
4
40
0
40
0
40
0
40
0
40
1
40
1
40
1
40
1
41
1
10
56.2495
20
3.66487101983489
30
0
41
1
10
56.0359354469354
20
3.87608303583332
30
0
41
1
10
55.8211953437772
20
4.08569058843585
30
0
41
1
10
55.6055
20
4.29399436962487
30
0
0
SPLINE
5
18A
100
AcDbEntity
8
1
62
256
6
ByLayer
370
18
48
1
60
0
100
AcDbSpline
70
4
71
3
72
26
73
22
40
0
40
0
40
0
40
0
40
0.0625000000000054
40
0.0625000000000054
40
0.0937500000000087
40
0.0937500000000087
40
0.125000000000012
40
0.125000000000012
40
0.187500000000013
40
0.187500000000013
40
0.250000000000015
40
0.250000000000015
40
0.375000000000013
40
0.375000000000013
40
0.500000000000012
40
0.500000000000012
40
0.62500000000001
40
0.62500000000001
40
0.750000000000009
40
0.750000000000009
40
1
40
1
40
1
40
1
41
1
10
55.605500000001
20
4.29399436962774
30
0
41
1
10
55.5959989241315
20
4.30316985758401
30
0
41
1
10
55.5858638857553
20
4.31101651749404
30
0
41
1
10
55.5706712189837
20
4.3174296237413
30
0
41
1
10
55.5657085906512
20
4.31860057097825
30
0
41
1
10
55.5564049528667
20
4.3186405785529
30
0
41
1
10
55.5521202378956
20
4.31749833255156
30
0
41
1
10
55.5408437021558
20
4.31118135248062
30
0
41
1
10
55.5354920144169
20
4.30336456768691
30
0
41
1
10
55.5276841395793
20
4.28493985169885
30
0
41
1
10
55.5251886418261
20
4.27430676989076
30
0
41
1
10
55.5201666391899
20
4.24102638198155
30
0
41
1
10
55.5199416735382
20
4.21682284496836
30
0
41
1
10
55.5222886504303
20
4.16690538917155
30
0
41
1
10
55.5249603294812
20
4.14138275077383
30
0
41
1
10
55.5321803867061
20
4.08960913654181
30
0
41
1
10
55.5367529648605
20
4.06339426308915
30
0
41
1
10
55.5472331069995
20
4.01102482569166
30
0
41
1
10
55.5531603578124
20
3.98477689180945
30
0
41
1
10
55.5726834417356
20
3.90586774237946
30
0
41
1
10
55.5879719682517
20
3.8530441562967
30
0
41
1
10
55.6055
20
3.80001470489816
30
0
0
SPLINE
5
18B
100
AcDbEntity
8
1
62
256
6
ByLayer
370
18
48
1
60
0
100
AcDbSpline
70
4
71
3
72
8
73
4
40
0
40
0
40
0
40
0
40
1
40
1
40
1
40
1
41
1
10
55.6055
20
3.80001470489819
30
0
41
1
10
55.8503984452163
20
3.05909693474186
30
0
41
1
10
56.0666055459679
20
2.30726507168848
30
0
41
1
10
56.2495000000001
20
1.54276118758739
30
0
0
SPLINE
5
18C
100
AcDbEntity
8
1
62
256
6
ByLayer
370
18
48
1
60
0
100
AcDbSpline
70
4
71
3
72
12
73
8
40
0
40
0
40
0
40
0
40
0.25
40
0.25
40
0.5
40
0.5
40
1
40
1
40
1
40
1
41
1
10
56.3245
20
0.980707650253919
30
0
41
1
10
56.3245
20
1.02669016522961
30
0
41
1
10
56.3220433117484
20
1.07311941250993
30
0
41
1
10
56.3143532365692
20
1.16642988937986
30
0
41
1
10
56.3090430784869
20
1.2133270529219
30
0
41
1
10
56.289529013447
20
1.35457951486452
30
0
41
1
10
56.2719698398409
20
1.44883663463014
30
0
41
1
10
56.2495000000002
20
1.54276118758736
30
0
0
SPLINE
5
18D
100
AcDbEntity
8
1
62
256
6
ByLayer
370
18
48
1
60
0
100
AcDbSpline
70
4
71
3
72
28
73
24
40
0
40
0
40
0
40
0
40
0.250000000000008
40
0.250000000000008
40
0.500000000000015
40
0.500000000000015
40
0.625000000000017
40
0.625000000000017
40
0.750000000000019
40
0.750000000000019
40
0.812500000000019
40
0.812500000000019
40
0.87500000000002
40
0.87500000000002
40
0.906250000000017
40
0.906250000000017
40
0.937500000000014
40
0.937500000000014
40
0.953125000000007
40
0.953125000000007
40
0.968750000000001
40
0.968750000000001
40
1
40
1
40
1
40
1
41
1
10
55.6055
20
-8.2010185003993
30
0
41
1
10
55.5900405903694
20
-8.29104498432039
30
0
41
1
10
55.5760739172364
20
-8.38095786881226
30
0
41
1
10
55.5514902680674
20
-8.56054854146487
30
0
41
1
10
55.5408029893666
20
-8.65044602078808
30
0
41
1
10
55.5288664119751
20
-8.78425606075132
30
0
41
1
10
55.5255810643421
20
-8.82864701256318
30
0
41
1
10
55.5211380016733
20
-8.9168328526282
30
0
41
1
10
55.5199116803131
20
-8.96064358770127
30
0
41
1
10
55.5211817497251
20
-9.02556265369731
30
0
41
1
10
55.5221342180721
20
-9.04716503765906
30
0
41
1
10
55.5259274289865
20
-9.08943503165477
30
0
41
1
10
55.5286398032354
20
-9.11005347888633
30
0
41
1
10
55.5360219597603
20
-9.13894769977219
30
0
41
1
10
55.5390810604021
20
-9.14832698046149
30
0
41
1
10
55.5473751324916
20
-9.16454996500997
30
0
41
1
10
55.5528351385155
20
-9.1717377132257
30
0
41
1
10
55.5637433641049
20
-9.17603079994498
30
0
41
1
10
55.5678321685478
20
-9.17626990861498
30
0
41
1
10
55.5760245443652
20
-9.17425723115451
30
0
41
1
10
55.5802058669296
20
-9.17203498860565
30
0
41
1
10
55.5920486089098
20
-9.16328508520687
30
0
41
1
10
55.5991058478889
20
-9.15494430088106
30
0
41
1
10
55.6055
20
-9.14606797072275
30
0
0
SPLINE
5
18E
100
AcDbEntity
8
1
62
256
6
ByLayer
370
18
48
1
60
0
100
AcDbSpline
70
4
71
3
72
24
73
20
40
0
40
0
40
0
40
0
40
0.0625000000000083
40
0.0625000000000083
40
0.125000000000017
40
0.125000000000017
40
0.187500000000025
40
0.187500000000025
40
0.250000000000033
40
0.250000000000033
40
0.312500000000042
40
0.312500000000042
40
0.37500000000005
40
0.37500000000005
40
0.50000000000004
40
0.50000000000004
40
0.75000000000002
40
0.75000000000002
40
1
40
1
40
1
40
1
41
1
10
56.2494999999986
20
0.190150525541583
30
0
41
1
10
56.252650479603
20
0.185102110236556
30
0
41
1
10
56.2559980984989
20
0.180241067087564
30
0
41
1
10
56.2631903026624
20
0.17146785932988
30
0
41
1
10
56.2671256027575
20
0.167443536821509
30
0
41
1
10
56.2755433272005
20
0.161732761913896
30
0
41
1
10
56.2801295898292
20
0.16014218404635
30
0
41
1
10
56.288632245568
20
0.161190914667571
30
0
41
1
10
56.2923300996017
20
0.163682083983446
30
0
41
1
10
56.2984842085366
20
0.170529667418236
30
0
41
1
10
56.3009877466847
20
0.174848519662874
30
0
41
1
10
56.3052204195655
20
0.18397506082411
30
0
41
1
10
56.3069865523199
20
0.188869225077923
30
0
41
1
10
56.3116624731072
20
0.204136593328542
30
0
41
1
10
56.3139401583552
20
0.21503076315571
30
0
41
1
10
56.3194736840518
20
0.248255231710118
30
0
41
1
10
56.3214624331313
20
0.271219714593741
30
0
41
1
10
56.3240095526549
20
0.317422148752826
30
0
41
1
10
56.3245
20
0.340783864458501
30
0
41
1
10
56.3245
20
0.364301289294644
30
0
0
SPLINE
5
18F
100
AcDbEntity
8
1
62
256
6
ByLayer
370
18
48
1
60
0
100
AcDbSpline
70
4
71
3
72
8
73
4
40
0
40
0
40
0
40
0
40
1
40
1
40
1
40
1
41
1
10
56.2495
20
0.190150525543089
30
0
41
1
10
56.0449699968897
20
0.517895036745017
30
0
41
1
10
55.8291937177712
20
0.83553746429007
30
0
41
1
10
55.6054999999937
20
1.14606797073154
30
0
0
SPLINE
5
190
100
AcDbEntity
8
1
62
256
6
ByLayer
370
18
48
1
60
0
100
AcDbSpline
70
4
71
3
72
28
73
24
40
0
40
0
40
0
40
0
40
0.0312499999999954
40
0.0312499999999954
40
0.0468749999999944
40
0.0468749999999944
40
0.0624999999999934
40
0.0624999999999934
40
0.0937499999999953
40
0.0937499999999953
40
0.124999999999997
40
0.124999999999997
40
0.187499999999998
40
0.187499999999998
40
0.249999999999999
40
0.249999999999999
40
0.374999999999999
40
0.374999999999999
40
0.499999999999999
40
0.499999999999999
40
0.749999999999999
40
0.749999999999999
40
1
40
1
40
1
40
1
41
1
10
55.6054999999982
20
1.14606797073716
30
0
41
1
10
55.5990607196723
20
1.15500694765876
30
0
41
1
10
55.5920487227007
20
1.16326749775448
30
0
41
1
10
55.5802994716362
20
1.17197447704595
30
0
41
1
10
55.5761587189381
20
1.17419754881263
30
0
41
1
10
55.5679779528108
20
1.17625991206865
30
0
41
1
10
55.5639122456636
20
1.17605253125507
30
0
41
1
10
55.5530624890174
20
1.17191324931269
30
0
41
1
10
55.5475688170393
20
1.16482839498312
30
0
41
1
10
55.5392321251935
20
1.14871879582535
30
0
41
1
10
55.536165465997
20
1.13940504498208
30
0
41
1
10
55.5287598614788
20
1.11072369469034
30
0
41
1
10
55.5260238660047
20
1.09020089867153
30
0
41
1
10
55.5221896601435
20
1.0480795930585
30
0
41
1
10
55.5212210441726
20
1.02660979314049
30
0
41
1
10
55.5198970504747
20
0.961749214082658
30
0
41
1
10
55.5211050214013
20
0.917699949187238
30
0
41
1
10
55.525548934381
20
0.829075304597382
30
0
41
1
10
55.5288395636416
20
0.784597927160775
30
0
41
1
10
55.5407635270371
20
0.650807085270969
30
0
41
1
10
55.5514182783238
20
0.561108867773754
30
0
41
1
10
55.5760447906576
20
0.381136367509129
30
0
41
1
10
55.5900307274928
20
0.291102419896646
30
0
41
1
10
55.6055
20
0.201018500399329
30
0
0
SPLINE
5
191
100
AcDbEntity
8
1
62
256
6
ByLayer
370
18
48
1
60
0
100
AcDbSpline
70
4
71
3
72
8
73
4
40
0
40
0
40
0
40
0
40
1
40
1
40
1
40
1
41
1
10
55.6055
20
-9.14606797072275
30
0
41
1
10
55.8291937177752
20
-8.83553746428407
30
0
41
1
10
56.0449699968917
20
-8.51789503674192
30
0
41
1
10
56.2495
20
-8.19015052554309
30
0
0
SPLINE
5
192
100
AcDbEntity
8
SK1
62
256
6
ByLayer
370
18
48
1
60
0
100
AcDbSpline
70
4
71
3
72
39
73
35
40
0
40
0
40
0
40
0
40
0.0170751859235833
40
0.0454824692954768
40
0.0738897526673704
40
0.102297036039264
40
0.159111602783051
40
0.215926169526838
40
0.244333452898732
40
0.272740736270625
40
0.329555303014412
40
0.357962586386306
40
0.3863698697582
40
0.414777153130093
40
0.443184436501987
40
0.47159171987388
40
0.485795361559827
40
0.499999003245774
40
0.514202644931721
40
0.528406286617668
40
0.556813569989561
40
0.585220853361455
40
0.613628136733348
40
0.642035420105242
40
0.670442703477135
40
0.727257270220922
40
0.755664553592816
40
0.78407183696471
40
0.840886403708497
40
0.897700970452284
40
0.926108253824178
40
0.954515537196071
40
0.982922820567965
40
1
40
1
40
1
40
1
41
1
10
-24
20
-12.6307589338252
30
0
41
1
10
-24
20
-12.6271435094829
30
0
41
1
10
-24
20
-12.5984157626769
30
0
41
1
10
-24
20
-12.4743692733745
30
0
41
1
10
-24
20
-12.2301460729139
30
0
41
1
10
-24
20
-11.7782448377075
30
0
41
1
10
-24
20
-11.0029089912388
30
0
41
1
10
-24
20
-9.97333275207072
30
0
41
1
10
-24
20
-9.00198709358406
30
0
41
1
10
-24
20
-7.94098139760015
30
0
41
1
10
-24
20
-6.76812911518888
30
0
41
1
10
-24
20
-5.45799609225455
30
0
41
1
10
-24
20
-4.4275375451636
30
0
41
1
10
-24
20
-3.35000208235886
30
0
41
1
10
-24
20
-2.23771697460671
30
0
41
1
10
-24
20
-1.30515943417129
30
0
41
1
10
-24
20
-0.551100895559586
30
0
41
1
10
-24
20
2.454147534E-07
30
0
41
1
10
-24
20
0.551100854738905
30
0
41
1
10
-24
20
1.30515932004789
30
0
41
1
10
-24
20
2.23771741989395
30
0
41
1
10
-24
20
3.35000222974924
30
0
41
1
10
-24
20
4.42753733029454
30
0
41
1
10
-24
20
5.4579963756465
30
0
41
1
10
-24
20
6.76812921007331
30
0
41
1
10
-24
20
7.94098140173097
30
0
41
1
10
-24
20
9.00198713477033
30
0
41
1
10
-24
20
9.97333247862687
30
0
41
1
10
-24
20
11.0029092636263
30
0
41
1
10
-24
20
11.778244241418
30
0
41
1
10
-24
20
12.230146179188
30
0
41
1
10
-24
20
12.4743689830171
30
0
41
1
10
-24
20
12.5984186702056
30
0
41
1
10
-24
20
12.6271458361312
30
0
41
1
10
-24
20
12.6307600659085
30
0
0
SPLINE
5
193
100
AcDbEntity
8
SK1
62
256
6
ByLayer
370
18
48
1
60
0
100
AcDbSpline
70
4
71
3
72
26
73
22
40
0
40
0
40
0
40
0
40
0.249999999999998
40
0.249999999999998
40
0.499999999999997
40
0.499999999999997
40
0.624999999999996
40
0.624999999999996
40
0.749999999999995
40
0.749999999999995
40
0.812499999999996
40
0.812499999999996
40
0.874999999999997
40
0.874999999999997
40
0.906249999999998
40
0.906249999999998
40
0.937499999999998
40
0.937499999999998
40
0.968749999999999
40
0.968749999999999
40
1
40
1
40
1
40
1
41
1
10
-0.199999999999932
20
-5.67845150387905
30
0
41
1
10
-0.200325582586942
20
-5.61546983788247
30
0
41
1
10
-0.201889292856663
20
-5.55215860520229
30
0
41
1
10
-0.208629038638975
20
-5.42477542924993
30
0
41
1
10
-0.213720374774766
20
-5.36066104812858
30
0
41
1
10
-0.226295439930396
20
-5.26391096452849
30
0
41
1
10
-0.231309806284685
20
-5.23164989232023
30
0
41
1
10
-0.244056027638663
20
-5.16717583038789
30
0
41
1
10
-0.251722151098562
20
-5.13489726407653
30
0
41
1
10
-0.267174521638538
20
-5.08763962812455
30
0
41
1
10
-0.272989810766745
20
-5.07205528846893
30
0
41
1
10
-0.28712155243386
20
-5.04154827938362
30
0
41
1
10
-0.295471476550745
20
-5.02627441682068
30
0
41
1
10
-0.312085221061721
20
-5.00607580183564
30
0
41
1
10
-0.318315705391456
20
-4.9998472840258
30
0
41
1
10
-0.332661412720256
20
-4.98993685341839
30
0
41
1
10
-0.340982791803327
20
-4.98634390547625
30
0
41
1
10
-0.357912543199376
20
-4.98422689625085
30
0
41
1
10
-0.366386332451668
20
-4.98566051007413
30
0
41
1
10
-0.381640470191996
20
-4.99162000800573
30
0
41
1
10
-0.388584021391466
20
-4.99606206531726
30
0
41
1
10
-0.394913799814617
20
-5.0011605625885
30
0
0
SPLINE
5
194
100
AcDbEntity
8
SK1
62
256
6
ByLayer
370
18
48
1
60
0
100
AcDbSpline
70
4
71
3
72
36
73
32
40
0
40
0
40
0
40
0
40
0.0312499999999997
40
0.0312499999999997
40
0.0624999999999993
40
0.0624999999999993
40
0.0781249999999994
40
0.0781249999999994
40
0.0937499999999995
40
0.0937499999999995
40
0.125
40
0.125
40
0.15625
40
0.15625
40
0.1875
40
0.1875
40
0.21875
40
0.21875
40
0.25
40
0.25
40
0.3125
40
0.3125
40
0.375
40
0.375
40
0.5
40
0.5
40
0.625
40
0.625
40
0.749999999999999
40
0.749999999999999
40
1
40
1
40
1
40
1
41
1
10
-0.394913799811292
20
-5.00116056259458
30
0
41
1
10
-0.410735023485529
20
-5.01390421021375
30
0
41
1
10
-0.427464692688261
20
-5.02563245238568
30
0
41
1
10
-0.463557658092554
20
-5.04617195191128
30
0
41
1
10
-0.482957659598299
20
-5.05493293700039
30
0
41
1
10
-0.513397366495212
20
-5.06428047819708
30
0
41
1
10
-0.523814898165284
20
-5.06678978581584
30
0
41
1
10
-0.545287446174797
20
-5.07038348981607
30
0
41
1
10
-0.556305436163996
20
-5.07144022363713
30
0
41
1
10
-0.589028412665215
20
-5.07217944541901
30
0
41
1
10
-0.611185322931533
20
-5.0693827809057
30
0
41
1
10
-0.653158736531111
20
-5.05828703241724
30
0
41
1
10
-0.67330444601464
20
-5.0499896480936
30
0
41
1
10
-0.710603681727861
20
-5.03020967742307
30
0
41
1
10
-0.727880800928972
20
-5.01875181168555
30
0
41
1
10
-0.760562866434555
20
-4.99368119602664
30
0
41
1
10
-0.775925116613081
20
-4.98006172499171
30
0
41
1
10
-0.804596803081779
20
-4.95193103238685
30
0
41
1
10
-0.818026122242202
20
-4.93731968624232
30
0
41
1
10
-0.856343638956815
20
-4.89227865326887
30
0
41
1
10
-0.879296662794275
20
-4.86066233046807
30
0
41
1
10
-0.922008240114707
20
-4.79538841352945
30
0
41
1
10
-0.941686145027546
20
-4.7617640347641
30
0
41
1
10
-0.996609762207925
20
-4.66001801709203
30
0
41
1
10
-1.02820118876016
20
-4.59048527940513
30
0
41
1
10
-1.08574263925291
20
-4.44915525031584
30
0
41
1
10
-1.11159177404087
20
-4.37733091027616
30
0
41
1
10
-1.15931218721946
20
-4.23182333008583
30
0
41
1
10
-1.18115763731677
20
-4.15813319978272
30
0
41
1
10
-1.24213713076213
20
-3.93459344202697
30
0
41
1
10
-1.27670549162997
20
-3.78259514832911
30
0
41
1
10
-1.30710678118751
20
-3.62853202212813
30
0
0
SPLINE
5
195
100
AcDbEntity
8
SK1
62
256
6
ByLayer
370
18
48
1
60
0
100
AcDbSpline
70
4
71
3
72
30
73
26
40
0
40
0
40
0
40
0
40
0.25
40
0.25
40
0.375
40
0.375
40
0.5
40
0.5
40
0.625
40
0.625
40
0.6875
40
0.6875
40
0.75
40
0.75
40
0.8125
40
0.8125
40
0.875
40
0.875
40
0.90625
40
0.90625
40
0.9375
40
0.9375
40
0.96875
40
0.96875
40
1
40
1
40
1
40
1
41
1
10
-1.30710678118655
20
3.62853433720642
30
0
41
1
10
-1.27666571440918
20
3.78279907073755
30
0
41
1
10
-1.24213371033556
20
3.93462763573851
30
0
41
1
10
-1.18109081197508
20
4.15837037912317
30
0
41
1
10
-1.15918165202706
20
4.23227919141883
30
0
41
1
10
-1.11116227833199
20
4.37858537053413
30
0
41
1
10
-1.08507948586984
20
4.45096090623949
30
0
41
1
10
-1.02706832630062
20
4.59308791137028
30
0
41
1
10
-0.99508474989355
20
4.66317059286271
30
0
41
1
10
-0.940052913520788
20
4.76461628090829
30
0
41
1
10
-0.920529370906081
20
4.79779601403041
30
0
41
1
10
-0.878053724810229
20
4.86240606869328
30
0
41
1
10
-0.855145617589443
20
4.89385654551648
30
0
41
1
10
-0.803680918974493
20
4.95400421215445
30
0
41
1
10
-0.775266891414162
20
4.98261066908682
30
0
41
1
10
-0.71031274046274
20
5.0320109742261
30
0
41
1
10
-0.672789603751426
20
5.05335078499468
30
0
41
1
10
-0.609788395540534
20
5.06961980113229
30
0
41
1
10
-0.588380278389167
20
5.07223202598755
30
0
41
1
10
-0.544642575651977
20
5.07110826896445
30
0
41
1
10
-0.52321086550154
20
5.06733848654443
30
0
41
1
10
-0.482319922293442
20
5.05469252919983
30
0
41
1
10
-0.463152856090033
20
5.04595940949179
30
0
41
1
10
-0.427444682539459
20
5.02560401094567
30
0
41
1
10
-0.410665386495026
20
5.01384862569722
30
0
41
1
10
-0.394913799811292
20
5.00116108217659
30
0
0
SPLINE
5
196
100
AcDbEntity
8
SK1
62
256
6
ByLayer
370
18
48
1
60
0
100
AcDbSpline
70
4
71
3
72
10
73
6
40
0
40
0
40
0
40
0
40
0.5
40
0.5
40
1
40
1
40
1
40
1
41
1
10
-0.199999999999989
20
-14.0062758716595
30
0
41
1
10
-0.157182679471191
20
-14.0145317664403
30
0
41
1
10
-0.121014546653214
20
-14.0220023344625
30
0
41
1
10
-0.0556377560763792
20
-14.0349846176618
30
0
41
1
10
-0.0266012172124306
20
-14.0405022588021
30
0
41
1
10
1.137E-13
20
-14.0449296999054
30
0
0
SPLINE
5
197
100
AcDbEntity
8
SK1
62
256
6
ByLayer
370
13
48
1
60
0
100
AcDbSpline
70
4
71
3
72
18
73
14
40
0
40
0
40
0
40
0
40
0.0047264100277832
40
0.0849223450638545
40
0.165118280099926
40
0.325510150172068
40
0.405706085208139
40
0.485902020244211
40
0.646293890316353
40
0.806685760388496
40
0.886881695424567
40
0.967077630460638
40
1
40
1
40
1
40
1
41
1
10
-0.394913799811292
20
-5.00116056259458
30
0
41
1
10
-0.394913799811292
20
-5.02384231960818
30
0
41
1
10
-0.394913799811292
20
-5.43069766105196
30
0
41
1
10
-0.394913799811292
20
-6.19788936064776
30
0
41
1
10
-0.394913799811292
20
-7.59985108367658
30
0
41
1
10
-0.394913799811292
20
-8.86359091499725
30
0
41
1
10
-0.394913799811292
20
-9.98771966705357
30
0
41
1
10
-0.394913799811292
20
-11.0153145242407
30
0
41
1
10
-0.394913799811292
20
-12.1118904563386
30
0
41
1
10
-0.394913799811292
20
-12.9393760577865
30
0
41
1
10
-0.394913799811292
20
-13.4200269261686
30
0
41
1
10
-0.394913799811292
20
-13.6307409909391
30
0
41
1
10
-0.39491379981132
20
-13.7183892159804
30
0
41
1
10
-0.39491379981132
20
-13.7407325625822
30
0
0
SPLINE
5
198
100
AcDbEntity
8
SK1
62
256
6
ByLayer
370
18
48
1
60
0
100
AcDbSpline
70
4
71
3
72
9
73
5
40
0
40
0
40
0
40
0
40
0.600451847208435
40
1
40
1
40
1
40
1
41
1
10
-0.39491379981132
20
-13.7407316983344
30
0
41
1
10
-0.39491379981132
20
-13.7728151424413
30
0
41
1
10
-0.394913799811292
20
-13.8153752757125
30
0
41
1
10
-0.394913799811292
20
-13.8386284705405
30
0
41
1
10
-0.394913799811292
20
-13.8446596982822
30
0
0
SPLINE
5
199
100
AcDbEntity
8
SK1
62
256
6
ByLayer
370
18
48
1
60
0
100
AcDbSpline
70
4
71
3
72
9
73
5
40
0
40
0
40
0
40
0
40
0.399549051474418
40
1
40
1
40
1
40
1
41
1
10
-0.394913799811292
20
13.8446595289407
30
0
41
1
10
-0.394913799811292
20
13.8386282511807
30
0
41
1
10
-0.394913799811292
20
13.8153749446156
30
0
41
1
10
-0.394913799811292
20
13.7728148586386
30
0
41
1
10
-0.394913799811292
20
13.7407315289408
30
0
0
SPLINE
5
19A
100
AcDbEntity
8
SK1
62
256
6
ByLayer
370
13
48
1
60
0
100
AcDbSpline
70
4
71
3
72
18
73
14
40
0
40
0
40
0
40
0
40
0.0329223023327518
40
0.113118245907637
40
0.193314189482523
40
0.353706076632294
40
0.514097963782066
40
0.594293907356951
40
0.674489850931837
40
0.834881738081608
40
0.915077681656494
40
0.995273625231379
40
1
40
1
40
1
40
1
41
1
10
-0.394913799811292
20
13.7407320821611
30
0
41
1
10
-0.394913799811292
20
13.7183887950629
30
0
41
1
10
-0.39491379981132
20
13.6307407318978
30
0
41
1
10
-0.394913799811292
20
13.4200270263956
30
0
41
1
10
-0.394913799811292
20
12.9393754432253
30
0
41
1
10
-0.394913799811292
20
12.1118907902116
30
0
41
1
10
-0.394913799811292
20
11.015314225612
30
0
41
1
10
-0.394913799811292
20
9.98771978618731
30
0
41
1
10
-0.394913799811292
20
8.86359092653058
30
0
41
1
10
-0.394913799811292
20
7.59985122616766
30
0
41
1
10
-0.394913799811292
20
6.19788950405021
30
0
41
1
10
-0.394913799811292
20
5.43069780454792
30
0
41
1
10
-0.394913799811292
20
5.02384266526144
30
0
41
1
10
-0.394913799811292
20
5.00116108217654
30
0
0
SPLINE
5
19B
100
AcDbEntity
8
SK1
62
256
6
ByLayer
370
18
48
1
60
0
100
AcDbSpline
70
4
71
3
72
26
73
22
40
0
40
0
40
0
40
0
40
0.250000000000002
40
0.250000000000002
40
0.500000000000003
40
0.500000000000003
40
0.625000000000003
40
0.625000000000003
40
0.750000000000003
40
0.750000000000003
40
0.812500000000002
40
0.812500000000002
40
0.875000000000001
40
0.875000000000001
40
0.906250000000001
40
0.906250000000001
40
0.937500000000001
40
0.937500000000001
40
0.96875
40
0.96875
40
1
40
1
40
1
40
1
41
1
10
-0.199999999999989
20
14.0005306290776
30
0
41
1
10
-0.200325526921631
20
13.992937784021
30
0
41
1
10
-0.201888714477093
20
13.9843134154885
30
0
41
1
10
-0.208628515439102
20
13.9645912547913
30
0
41
1
10
-0.213720500579399
20
13.9535077777846
30
0
41
1
10
-0.226297832831563
20
13.9343664914099
30
0
41
1
10
-0.231313142997891
20
13.9275805879124
30
0
41
1
10
-0.244061293421112
20
13.9129349686681
30
0
41
1
10
-0.251728467015681
20
13.9050753946242
30
0
41
1
10
-0.267181679795726
20
13.8922335922221
30
0
41
1
10
-0.272997114041203
20
13.887771829979
30
0
41
1
10
-0.287128669286204
20
13.8782791877473
30
0
41
1
10
-0.295478263319012
20
13.8731651598702
30
0
41
1
10
-0.312091372528243
20
13.8650224034849
30
0
41
1
10
-0.31832179766306
20
13.8622381003803
30
0
41
1
10
-0.332666868372428
20
13.8567559126218
30
0
41
1
10
-0.340987965989854
20
13.8540289822524
30
0
41
1
10
-0.357916858937614
20
13.8496085548522
30
0
41
1
10
-0.36638978335418
20
13.8479390392461
30
0
41
1
10
-0.381642090740314
20
13.8456762078259
30
0
41
1
10
-0.38858479258954
20
13.845025452913
30
0
41
1
10
-0.394913799814589
20
13.8446595289409
30
0
0
SPLINE
5
19C
100
AcDbEntity
8
SK1
62
256
6
ByLayer
370
18
48
1
60
0
100
AcDbSpline
70
4
71
3
72
26
73
22
40
0
40
0
40
0
40
0
40
0.0312499999999996
40
0.0312499999999996
40
0.0624999999999991
40
0.0624999999999991
40
0.0937499999999987
40
0.0937499999999987
40
0.124999999999998
40
0.124999999999998
40
0.1875
40
0.1875
40
0.250000000000001
40
0.250000000000001
40
0.375000000000001
40
0.375000000000001
40
0.500000000000001
40
0.500000000000001
40
0.75
40
0.75
40
1
40
1
40
1
40
1
41
1
10
-0.394913799811292
20
5.00116108217654
30
0
41
1
10
-0.388593077844178
20
4.9960698849118
30
0
41
1
10
-0.381696248959287
20
4.99164852029563
30
0
41
1
10
-0.366410571944329
20
4.98566435854278
30
0
41
1
10
-0.357950298206589
20
4.98423386424881
30
0
41
1
10
-0.341064499256646
20
4.98632315728017
30
0
41
1
10
-0.332737442838493
20
4.98989594405839
30
0
41
1
10
-0.318359831773961
20
4.99980634621772
30
0
41
1
10
-0.312107661781397
20
5.00605634377806
30
0
41
1
10
-0.295557308756486
20
5.0261560618294
30
0
41
1
10
-0.287201910927422
20
5.04137639572582
30
0
41
1
10
-0.272916655032191
20
5.07221259840796
30
0
41
1
10
-0.267068575155236
20
5.0879254663663
30
0
41
1
10
-0.251550533790692
20
5.13550128701098
30
0
41
1
10
-0.243883568597596
20
5.16792600720166
30
0
41
1
10
-0.231149880121421
20
5.23258507573857
30
0
41
1
10
-0.226165642229006
20
5.26480643303961
30
0
41
1
10
-0.213678908808845
20
5.3611913732602
30
0
41
1
10
-0.208609627305322
20
5.42507701724693
30
0
41
1
10
-0.201889470916569
20
5.55222154865822
30
0
41
1
10
-0.200325540023954
20
5.61547854140437
30
0
41
1
10
-0.199999999999989
20
5.67845201642962
30
0
0
SPLINE
5
19D
100
AcDbEntity
8
SK1
62
256
6
ByLayer
370
18
48
1
60
0
100
AcDbSpline
70
4
71
3
72
26
73
22
40
0
40
0
40
0
40
0
40
0.25
40
0.25
40
0.375
40
0.375
40
0.4375
40
0.4375
40
0.46875
40
0.46875
40
0.5
40
0.5
40
0.625
40
0.625
40
0.75
40
0.75
40
0.875
40
0.875
40
0.9375
40
0.9375
40
1
40
1
40
1
40
1
41
1
10
-1.69999999999999
20
-2.5837772973461
30
0
41
1
10
-1.76613065886878
20
-2.16784704245339
30
0
41
1
10
-1.82316215686583
20
-1.74568146733012
30
0
41
1
10
-1.88427766240593
20
-1.09995043784016
30
0
41
1
10
-1.90057185673112
20
-0.882620801089502
30
0
41
1
10
-1.91719408999322
20
-0.552958450347262
30
0
41
1
10
-1.92143351430278
20
-0.442459814342214
30
0
41
1
10
-1.92571062209052
20
-0.275747908317783
30
0
41
1
10
-1.92678890529305
20
-0.219949147197752
30
0
41
1
10
-1.92821915648835
20
-0.108715900509111
30
0
41
1
10
-1.92857376506791
20
-0.0532112388235646
30
0
41
1
10
-1.9285260192795
20
0.2237512458141
30
0
41
1
10
-1.92269285742202
20
0.443534065874189
30
0
41
1
10
-1.90073152159664
20
0.879827175945763
30
0
41
1
10
-1.88456941336776
20
1.09633072422011
30
0
41
1
10
-1.84395869573467
20
1.52647783394633
30
0
41
1
10
-1.8194991935238
20
1.74011907259901
30
0
41
1
10
-1.7779104307611
20
2.05868937391
30
0
41
1
10
-1.76321329032666
20
2.16467276723154
30
0
41
1
10
-1.73252928227532
20
2.37518275958954
30
0
41
1
10
-1.7165348045867
20
2.47978185665878
30
0
41
1
10
-1.69999999999999
20
2.58377808521786
30
0
0
SPLINE
5
19E
100
AcDbEntity
8
SK1
62
256
6
ByLayer
370
18
48
1
60
0
100
AcDbSpline
70
4
71
3
72
21
73
17
40
0
40
0
40
0
40
0
40
0.0053469552525448
40
0.0675241957906082
40
0.129701436328672
40
0.191878676866735
40
0.254055917404798
40
0.378410398480925
40
0.440587639018989
40
0.502764879557052
40
0.627119360633179
40
0.751473841709306
40
0.813651082247369
40
0.875828322785432
40
0.938005563323496
40
1
40
1
40
1
40
1
41
1
10
-1.69999999999999
20
-2.5837772973461
30
0
41
1
10
-1.69999999999999
20
-2.62111254506638
30
0
41
1
10
-1.69999999999999
20
-3.09163174208075
30
0
41
1
10
-1.69999999999999
20
-3.9713410474516
30
0
41
1
10
-1.69999999999999
20
-5.16941104441418
30
0
41
1
10
-1.69999999999999
20
-6.29922693017525
30
0
41
1
10
-1.69999999999999
20
-7.71376573381551
30
0
41
1
10
-1.69999999999999
20
-8.98995374340757
30
0
41
1
10
-1.69999999999999
20
-10.1227279817209
30
0
41
1
10
-1.69999999999999
20
-11.158026865053
30
0
41
1
10
-1.69999999999999
20
-12.2637792369573
30
0
41
1
10
-1.69999999999999
20
-13.0984073948343
30
0
41
1
10
-1.69999999999999
20
-13.5829958824317
30
0
41
1
10
-1.69999999999999
20
-13.8477064954836
30
0
41
1
10
-1.69999999999999
20
-14.0038773154252
30
0
41
1
10
-1.69999999999999
20
-14.0272530253974
30
0
41
1
10
-1.69999999999996
20
-14.0157839279897
30
0
0
SPLINE
5
19F
100
AcDbEntity
8
SK1
62
256
6
ByLayer
370
18
48
1
60
0
100
AcDbSpline
70
4
71
3
72
21
73
17
40
0
40
0
40
0
40
0
40
0.0619942548895016
40
0.124171509850076
40
0.186348764810651
40
0.248526019771226
40
0.372880529692376
40
0.497235039613525
40
0.5594122945741
40
0.621589549534675
40
0.745944059455824
40
0.808121314416399
40
0.870298569376974
40
0.932475824337549
40
0.994653079298124
40
1
40
1
40
1
40
1
41
1
10
-1.70000000000002
20
14.0157839585016
30
0
41
1
10
-1.70000000000002
20
14.0272529169695
30
0
41
1
10
-1.69999999999999
20
14.0038766524918
30
0
41
1
10
-1.69999999999999
20
13.8477062499051
30
0
41
1
10
-1.69999999999999
20
13.5829959818305
30
0
41
1
10
-1.69999999999999
20
13.0984067777707
30
0
41
1
10
-1.69999999999999
20
12.2637795792515
30
0
41
1
10
-1.69999999999999
20
11.1580265629749
30
0
41
1
10
-1.69999999999999
20
10.1227281115305
30
0
41
1
10
-1.69999999999999
20
8.98995375595479
30
0
41
1
10
-1.69999999999999
20
7.71376588282689
30
0
41
1
10
-1.69999999999999
20
6.29922705440435
30
0
41
1
10
-1.69999999999999
20
5.16941096177055
30
0
41
1
10
-1.69999999999999
20
3.97134131573904
30
0
41
1
10
-1.69999999999999
20
3.09163207213675
30
0
41
1
10
-1.69999999999999
20
2.6211130853342
30
0
41
1
10
-1.69999999999999
20
2.58377808521786
30
0
0
SPLINE
5
1A0
100
AcDbEntity
8
SK1
62
256
6
ByLayer
370
18
48
1
60
0
100
AcDbSpline
70
4
71
3
72
8
73
4
40
0
40
0
40
0
40
0
40
1
40
1
40
1
40
1
41
1
10
-1.49503997793928
20
2.59572959682802
30
0
41
1
10
-1.4372004972023
20
2.94804273884375
30
0
41
1
10
-1.37356947571646
20
3.29172452904802
30
0
41
1
10
-1.30710678118655
20
3.62853433720642
30
0
0
SPLINE
5
1A1
100
AcDbEntity
8
SK1
62
256
6
ByLayer
370
18
48
1
60
0
100
AcDbSpline
70
4
71
3
72
39
73
35
40
0
40
0
40
0
40
0
40
0.0163354623886572
40
0.044786320739605
40
0.0732371790905528
40
0.101688037441501
40
0.158589754143396
40
0.215491470845292
40
0.24394232919624
40
0.272393187547187
40
0.329294904249083
40
0.357745762600031
40
0.386196620950979
40
0.414647479301926
40
0.443098337652874
40
0.471549196003822
40
0.485774625179296
40
0.50000005435477
40
0.514225483530243
40
0.528450912705718
40
0.556901771056665
40
0.585352629407613
40
0.613803487758561
40
0.642254346109509
40
0.670705204460457
40
0.727606921162352
40
0.7560577795133
40
0.784508637864248
40
0.841410354566143
40
0.898312071268039
40
0.926762929618987
40
0.955213787969934
40
0.983664646320882
40
1
40
1
40
1
40
1
41
1
10
-22.5
20
13.4958164727765
30
0
41
1
10
-22.5
20
13.4915511893571
30
0
41
1
10
-22.5
20
13.4607341137942
30
0
41
1
10
-22.5
20
13.3308793310681
30
0
41
1
10
-22.5
20
13.0738790940806
30
0
41
1
10
-22.5
20
12.6015910628856
30
0
41
1
10
-22.5
20
11.7892772585257
30
0
41
1
10
-22.5
20
10.7121915826386
30
0
41
1
10
-22.5
20
9.70096055319001
30
0
41
1
10
-22.5
20
8.59519482612015
30
0
41
1
10
-22.5
20
7.35789518762178
30
0
41
1
10
-22.5
20
5.98264738368823
30
0
41
1
10
-22.5
20
4.89022224945154
30
0
41
1
10
-22.5
20
3.73751327283389
30
0
41
1
10
-22.5
20
2.52988151772914
30
0
41
1
10
-22.5
20
1.48826017841199
30
0
41
1
10
-22.5
20
0.63722566300541
30
0
41
1
10
-22.5
20
1.013002304E-07
30
0
41
1
10
-22.5
20
-0.637225639727404
30
0
41
1
10
-22.5
20
-1.48826022368627
30
0
41
1
10
-22.5
20
-2.52988134516508
30
0
41
1
10
-22.5
20
-3.73751305004353
30
0
41
1
10
-22.5
20
-4.89022238185544
30
0
41
1
10
-22.5
20
-5.98264719956148
30
0
41
1
10
-22.5
20
-7.35789505897992
30
0
41
1
10
-22.5
20
-8.59519481674027
30
0
41
1
10
-22.5
20
-9.70096045673193
30
0
41
1
10
-22.5
20
-10.7121918739408
30
0
41
1
10
-22.5
20
-11.7892769425394
30
0
41
1
10
-22.5
20
-12.6015916721314
30
0
41
1
10
-22.5
20
-13.0738789920944
30
0
41
1
10
-22.5
20
-13.3308795934982
30
0
41
1
10
-22.5
20
-13.4607343744012
30
0
41
1
10
-22.5
20
-13.491551241365
30
0
41
1
10
-22.5
20
-13.4958165272344
30
0
0
SPLINE
5
1A2
100
AcDbEntity
8
SK1
62
256
6
ByLayer
370
18
48
1
60
0
100
AcDbSpline
70
4
71
3
72
8
73
4
40
0
40
0
40
0
40
0
40
1
40
1
40
1
40
1
41
1
10
-1.30710678118655
20
-3.62853202213307
30
0
41
1
10
-1.37356940710902
20
-3.29172262772462
30
0
41
1
10
-1.43720046286526
20
-2.94804131885388
30
0
41
1
10
-1.49503997793928
20
-2.59572866974995
30
0
0
SPLINE
5
1A3
100
AcDbEntity
8
SK1
62
256
6
ByLayer
370
18
48
1
60
0
100
AcDbSpline
70
4
71
3
72
36
73
32
40
0
40
0
40
0
40
0
40
0.250000000000004
40
0.250000000000004
40
0.375000000000006
40
0.375000000000006
40
0.437500000000007
40
0.437500000000007
40
0.468750000000006
40
0.468750000000006
40
0.500000000000006
40
0.500000000000006
40
0.515625000000006
40
0.515625000000006
40
0.531250000000006
40
0.531250000000006
40
0.546875000000006
40
0.546875000000006
40
0.562500000000006
40
0.562500000000006
40
0.593750000000005
40
0.593750000000005
40
0.625000000000005
40
0.625000000000005
40
0.687500000000004
40
0.687500000000004
40
0.750000000000004
40
0.750000000000004
40
0.875000000000002
40
0.875000000000002
40
1
40
1
40
1
40
1
41
1
10
-1.49503997793928
20
-2.59572866980207
30
0
41
1
10
-1.51026123722426
20
-2.50301277869454
30
0
41
1
10
-1.52651109107333
20
-2.41049873555426
30
0
41
1
10
-1.55477059605045
20
-2.27328358340645
30
0
41
1
10
-1.56481458786161
20
-2.22773052667011
30
0
41
1
10
-1.58228349561361
20
-2.16081267675358
30
0
41
1
10
-1.58850203306017
20
-2.13871110702209
30
0
41
1
10
-1.59920684184669
20
-2.10654042134601
30
0
41
1
10
-1.60299914819271
20
-2.09599696577917
30
0
41
1
10
-1.61148455352219
20
-2.07564920040716
30
0
41
1
10
-1.61613906919172
20
-2.06569139229708
30
0
41
1
10
-1.62477195539671
20
-2.05301401466033
30
0
41
1
10
-1.62793524211693
20
-2.0491181738077
30
0
41
1
10
-1.63551376705203
20
-2.04375885060364
30
0
41
1
10
-1.64013457652257
20
-2.04268510019753
30
0
41
1
10
-1.64864678477991
20
-2.04701800620327
30
0
41
1
10
-1.6522026415935
20
-2.05183497913649
30
0
41
1
10
-1.65780271049223
20
-2.06209889338817
30
0
41
1
10
-1.66005581238065
20
-2.06781172737584
30
0
41
1
10
-1.66591854409185
20
-2.08507186161106
30
0
41
1
10
-1.66875252659077
20
-2.09702122709587
30
0
41
1
10
-1.67370679113645
20
-2.12121687034789
30
0
41
1
10
-1.67575012136609
20
-2.13342095957745
30
0
41
1
10
-1.68115380351307
20
-2.16993349213513
30
0
41
1
10
-1.68382251839569
20
-2.19430149785691
30
0
41
1
10
-1.68832031406805
20
-2.24305704289927
30
0
41
1
10
-1.69011547560277
20
-2.26744567235369
30
0
41
1
10
-1.69465688317243
20
-2.34062742639421
30
0
41
1
10
-1.69657077641125
20
-2.38945991149208
30
0
41
1
10
-1.69915633746155
20
-2.48678291130116
30
0
41
1
10
-1.69980436369318
20
-2.53532682713819
30
0
41
1
10
-1.69999999999999
20
-2.5837772973461
30
0
0
SPLINE
5
1A4
100
AcDbEntity
8
SK1
62
256
6
ByLayer
370
18
48
1
60
0
100
AcDbSpline
70
4
71
3
72
36
73
32
40
0
40
0
40
0
40
0
40
0.125000000000004
40
0.125000000000004
40
0.250000000000007
40
0.250000000000007
40
0.312500000000009
40
0.312500000000009
40
0.37500000000001
40
0.37500000000001
40
0.406250000000011
40
0.406250000000011
40
0.437500000000012
40
0.437500000000012
40
0.453125000000012
40
0.453125000000012
40
0.468750000000013
40
0.468750000000013
40
0.484375000000013
40
0.484375000000013
40
0.500000000000013
40
0.500000000000013
40
0.531250000000013
40
0.531250000000013
40
0.562500000000013
40
0.562500000000013
40
0.625000000000012
40
0.625000000000012
40
0.750000000000008
40
0.750000000000008
40
1
40
1
40
1
40
1
41
1
10
-1.69999999999999
20
2.58377808521789
30
0
41
1
10
-1.69980283176193
20
2.53494813104047
30
0
41
1
10
-1.69914629015307
20
2.48605219520374
30
0
41
1
10
-1.6965250123217
20
2.3880984807798
30
0
41
1
10
-1.69458987013772
20
2.33904299616381
30
0
41
1
10
-1.68996451253318
20
2.26528111364416
30
0
41
1
10
-1.68813273270561
20
2.24066381962874
30
0
41
1
10
-1.68351230038934
20
2.19134004598647
30
0
41
1
10
-1.68075232756112
20
2.16659121971119
30
0
41
1
10
-1.67515949014827
20
2.12981712457943
30
0
41
1
10
-1.67305217630931
20
2.11760538297756
30
0
41
1
10
-1.66788896083378
20
2.09336191022135
30
0
41
1
10
-1.66489176376317
20
2.08121679809398
30
0
41
1
10
-1.65853679929683
20
2.06399527606439
30
0
41
1
10
-1.65615085025269
20
2.05848683766223
30
0
41
1
10
-1.64990007736389
20
2.04874689378931
30
0
41
1
10
-1.64585244680006
20
2.04467800309138
30
0
41
1
10
-1.63700800605236
20
2.04294931985959
30
0
41
1
10
-1.63274291390576
20
2.04525125497796
30
0
41
1
10
-1.62570082643228
20
2.05168607565295
30
0
41
1
10
-1.62266900676482
20
2.05586039978229
30
0
41
1
10
-1.6144350577683
20
2.06908624517177
30
0
41
1
10
-1.60998566242182
20
2.07897687949222
30
0
41
1
10
-1.60173135359554
20
2.09941136011861
30
0
41
1
10
-1.59800183776929
20
2.11000295822529
30
0
41
1
10
-1.58752132339205
20
2.14206819971619
30
0
41
1
10
-1.58141440210613
20
2.16398299410503
30
0
41
1
10
-1.56421680497164
20
2.23037341461648
30
0
41
1
10
-1.55428878410447
20
2.27552014353583
30
0
41
1
10
-1.52628507611217
20
2.41180980880418
30
0
41
1
10
-1.51015162966559
20
2.50368116498208
30
0
41
1
10
-1.49503997793928
20
2.59572959682799
30
0
0
SPLINE
5
1A5
100
AcDbEntity
8
SK1
62
256
6
ByLayer
370
18
48
1
60
0
100
AcDbSpline
70
4
71
3
72
10
73
6
40
0
40
0
40
0
40
0
40
0.5
40
0.5
40
1
40
1
40
1
40
1
41
1
10
0
20
14.0449295131766
30
0
41
1
10
-0.0266012285184161
20
14.0405020558765
30
0
41
1
10
-0.0556377796240781
20
14.0349844024444
30
0
41
1
10
-0.12101457846947
20
14.0220021118348
30
0
41
1
10
-0.15718270641517
20
14.0145315496191
30
0
41
1
10
-0.19999999999726
20
14.006275669192
30
0
0
SPLINE
5
1A6
100
AcDbEntity
8
1
62
256
6
ByLayer
370
18
48
1
60
0
100
AcDbSpline
70
4
71
3
72
18
73
14
40
0
40
0
40
0
40
0
40
0.125
40
0.125
40
0.1875
40
0.1875
40
0.25
40
0.25
40
0.5
40
0.5
40
0.75
40
0.75
40
1
40
1
40
1
40
1
41
1
10
55.6055
20
0.201018500399329
30
0
41
1
10
55.6653563685371
20
-0.147549687418859
30
0
41
1
10
55.7181483814523
20
-0.497513454865384
30
0
41
1
10
55.7863367406577
20
-1.02463211408698
30
0
41
1
10
55.8072166984995
20
-1.20059930603722
30
0
41
1
10
55.8451469744491
20
-1.55215745409936
30
0
41
1
10
55.8622142434029
20
-1.72787576972905
30
0
41
1
10
55.9380409431601
20
-2.60616290598907
30
0
41
1
10
55.9682355588567
20
-3.30781725228917
30
0
41
1
10
55.9677439738684
20
-4.70917690571042
30
0
41
1
10
55.9370590393873
20
-5.40888225336781
30
0
41
1
10
55.8157677485281
20
-6.80637462357004
30
0
41
1
10
55.7251647191855
20
-7.50416175262663
30
0
41
1
10
55.6055
20
-8.2010185003993
30
0
0
SPLINE
5
1A7
100
AcDbEntity
8
SK1
62
256
6
ByLayer
370
18
48
1
60
0
100
AcDbSpline
70
4
71
3
72
9
73
5
40
0
40
0
40
0
40
0
40
0.562952132851421
40
1
40
1
40
1
40
1
41
1
10
-1.49503997793928
20
13.8252659418421
30
0
41
1
10
-1.49503997793928
20
13.825414775472
30
0
41
1
10
-1.49503997793928
20
13.8034442486728
30
0
41
1
10
-1.49503997793928
20
13.7458810356779
30
0
41
1
10
-1.49503997793926
20
13.714341596886
30
0
0
SPLINE
5
1A8
100
AcDbEntity
8
SK1
62
256
6
ByLayer
370
13
48
1
60
0
100
AcDbSpline
70
4
71
3
72
20
73
16
40
0
40
0
40
0
40
0
40
0.0288653963883712
40
0.0980945835734581
40
0.167323770758545
40
0.305782145128719
40
0.444240519498893
40
0.51346970668398
40
0.582698893869067
40
0.72115726823924
40
0.790386455424327
40
0.859615642609414
40
0.928844829794501
40
0.998074016979588
40
1
40
1
40
1
40
1
41
1
10
-1.49503997793926
20
13.7143415968849
30
0
41
1
10
-1.49503997793926
20
13.6917867678007
30
0
41
1
10
-1.49503997793928
20
13.6040468045
30
0
41
1
10
-1.49503997793928
20
13.3930994871677
30
0
41
1
10
-1.49503997793928
20
12.9130985214152
30
0
41
1
10
-1.49503997793928
20
12.0867940390283
30
0
41
1
10
-1.49503997793928
20
10.9917337096027
30
0
41
1
10
-1.49503997793928
20
9.96541221253273
30
0
41
1
10
-1.49503997793928
20
8.84271185764783
30
0
41
1
10
-1.49503997793928
20
7.5810289825223
30
0
41
1
10
-1.49503997793928
20
6.18114538947242
30
0
41
1
10
-1.49503997793928
20
5.0652758228772
30
0
41
1
10
-1.49503997793928
20
3.88412534084222
30
0
41
1
10
-1.49503997793928
20
3.04345481646686
30
0
41
1
10
-1.49503997793928
20
2.6075359189918
30
0
41
1
10
-1.49503997793928
20
2.59572959682799
30
0
0
SPLINE
5
1A9
100
AcDbEntity
8
SK1
62
256
6
ByLayer
370
13
48
1
60
0
100
AcDbSpline
70
4
71
3
72
20
73
16
40
0
40
0
40
0
40
0
40
0.0019260293167621
40
0.0711552211338046
40
0.140384412950847
40
0.20961360476789
40
0.278842796584932
40
0.417301180219017
40
0.486530372036059
40
0.555759563853102
40
0.694217947487187
40
0.832676331121272
40
0.901905522938314
40
0.971134714755357
40
1
40
1
40
1
40
1
41
1
10
-1.49503997793928
20
-2.59572866980207
30
0
41
1
10
-1.49503997793928
20
-2.60753527399984
30
0
41
1
10
-1.49503997793928
20
-3.04345441166049
30
0
41
1
10
-1.49503997793928
20
-3.88412508952482
30
0
41
1
10
-1.49503997793928
20
-5.06527592408099
30
0
41
1
10
-1.49503997793928
20
-6.18114524290195
30
0
41
1
10
-1.49503997793928
20
-7.58102884110858
30
0
41
1
10
-1.49503997793928
20
-8.84271184628201
30
0
41
1
10
-1.49503997793928
20
-9.96541209516295
30
0
41
1
10
-1.49503997793928
20
-10.9917340076615
30
0
41
1
10
-1.49503997793928
20
-12.0867937065467
30
0
41
1
10
-1.49503997793928
20
-12.9130991355629
30
0
41
1
10
-1.49503997793928
20
-13.3930993868039
30
0
41
1
10
-1.49503997793928
20
-13.6040468453536
30
0
41
1
10
-1.49503997793928
20
-13.6917868783279
30
0
41
1
10
-1.49503997793928
20
-13.7143416696078
30
0
0
SPLINE
5
1AA
100
AcDbEntity
8
SK1
62
256
6
ByLayer
370
18
48
1
60
0
100
AcDbSpline
70
4
71
3
72
9
73
5
40
0
40
0
40
0
40
0
40
0.436839476593731
40
1
40
1
40
1
40
1
41
1
10
-1.49503997793928
20
-13.7143420942405
30
0
41
1
10
-1.49503997793928
20
-13.7458814932513
30
0
41
1
10
-1.49503997793928
20
-13.8034720642669
30
0
41
1
10
-1.49503997793928
20
-13.8254358268212
30
0
41
1
10
-1.49503997793928
20
-13.8252656282589
30
0
0
SPLINE
5
1AB
100
AcDbEntity
8
SK1
62
256
6
ByLayer
370
18
48
1
60
0
100
AcDbSpline
70
4
71
3
72
10
73
6
40
0
40
0
40
0
40
0
40
0.5
40
0.5
40
1
40
1
40
1
40
1
41
1
10
-0.199999999999989
20
5.72778184890603
30
0
41
1
10
-0.157172721739357
20
5.64514020005359
30
0
41
1
10
-0.121003677024532
20
5.56020239791641
30
0
41
1
10
-0.0556335917865454
20
5.38729149656763
30
0
41
1
10
-0.0266023831371172
20
5.29927497731066
30
0
41
1
10
1.137E-13
20
5.20997889399882
30
0
0
SPLINE
5
1AC
100
AcDbEntity
8
SK1
62
256
6
ByLayer
370
18
48
1
60
0
100
AcDbSpline
70
4
71
3
72
10
73
6
40
0
40
0
40
0
40
0
40
0.5
40
0.5
40
1
40
1
40
1
40
1
41
1
10
0
20
-5.20997845408499
30
0
41
1
10
-0.0266023652104934
20
-5.29927453248274
30
0
41
1
10
-0.0556335640952739
20
-5.38729103925675
30
0
41
1
10
-0.121003648185194
20
-5.56020190378439
30
0
41
1
10
-0.157172701231701
20
-5.64513968165718
30
0
41
1
10
-0.19999999999726
20
-5.72778130128899
30
0
0
SPLINE
5
1AD
100
AcDbEntity
8
SK1
62
256
6
ByLayer
370
18
48
1
60
0
100
AcDbSpline
70
4
71
3
72
26
73
22
40
0
40
0
40
0
40
0
40
0.03125
40
0.03125
40
0.0624999999999999
40
0.0624999999999999
40
0.0937499999999999
40
0.0937499999999999
40
0.125
40
0.125
40
0.187499999999999
40
0.187499999999999
40
0.249999999999998
40
0.249999999999998
40
0.374999999999998
40
0.374999999999998
40
0.499999999999997
40
0.499999999999997
40
0.749999999999999
40
0.749999999999999
40
1
40
1
40
1
40
1
41
1
10
-0.394913799811292
20
-13.8446596982821
30
0
41
1
10
-0.388593885243012
20
-13.8450250955503
30
0
41
1
10
-0.381697986923029
20
-13.8456694438159
30
0
41
1
10
-0.366414150147989
20
-13.8479342360846
30
0
41
1
10
-0.357954764476204
20
-13.8496012556341
30
0
41
1
10
-0.341070083536834
20
-13.8540052897844
30
0
41
1
10
-0.332743293280913
20
-13.8567292113688
30
0
41
1
10
-0.318366184722322
20
-13.8622189843533
30
0
41
1
10
-0.312114202499345
20
-13.8650128625779
30
0
41
1
10
-0.295564457536216
20
-13.8731201398341
30
0
41
1
10
-0.287209208096499
20
-13.878225468905
30
0
41
1
10
-0.272924030069333
20
-13.8878208927885
30
0
41
1
10
-0.267075773720649
20
-13.8923152006563
30
0
41
1
10
-0.251556816304287
20
-13.9052316346871
30
0
41
1
10
-0.24388876929018
20
-13.913115040607
30
0
41
1
10
-0.231153161037895
20
-13.9277833881154
30
0
41
1
10
-0.226167999261975
20
-13.9345502713768
30
0
41
1
10
-0.213679061265964
20
-13.9535995966933
30
0
41
1
10
-0.208609119240776
20
-13.9646403216358
30
0
41
1
10
-0.20188889975347
20
-13.984321015747
30
0
41
1
10
-0.200325484931824
20
-13.9929389755075
30
0
41
1
10
-0.199999999999989
20
-14.0005308360297
30
0
0
SPLINE
5
1AE
100
AcDbEntity
8
SK1
62
256
6
ByLayer
370
18
48
1
60
0
100
AcDbSpline
70
4
71
3
72
8
73
4
40
0
40
0
40
0
40
0
40
1
40
1
40
1
40
1
41
0.980125716641696
10
-0.199999999999974
20
-5.69634850387555
30
0
41
0.980125716641696
10
-0.199999999999974
20
-5.69038569356271
30
0
41
0.980125716641696
10
-0.199999999999974
20
-5.68442002675529
30
0
41
0.980125716641696
10
-0.200000000000003
20
-5.67845150388107
30
0
0
SPLINE
5
1AF
100
AcDbEntity
8
1
62
256
6
ByLayer
370
18
48
1
60
0
100
AcDbSpline
70
4
71
3
72
12
73
8
40
0
40
0
40
0
40
0
40
0.356300697179848
40
0.356300697179848
40
0.712601394359696
40
0.712601394359696
40
1
40
1
40
1
40
1
41
1
10
56.3245
20
6.34588819626413
30
0
41
1
10
56.3245
20
6.33199416710985
30
0
41
1
10
56.3216805955784
20
6.3159343004304
30
0
41
1
10
56.3129783121616
20
6.2817669754765
30
0
41
1
10
56.3071643812386
20
6.26405354292268
30
0
41
1
10
56.2949070164543
20
6.23126847637084
30
0
41
1
10
56.2887575120049
20
6.21627954222635
30
0
41
1
10
56.2820999296464
20
6.20117099964077
30
0
0
SPLINE
5
1B0
100
AcDbEntity
8
1
62
256
6
ByLayer
370
18
48
1
60
0
100
AcDbSpline
70
4
71
3
72
12
73
8
40
0
40
0
40
0
40
0
40
0.275696765768988
40
0.275696765768988
40
0.637848382884494
40
0.637848382884494
40
1
40
1
40
1
40
1
41
1
10
56.2831077647049
20
-14.2033854986437
30
0
41
1
10
56.2892895965334
20
-14.2175292684662
30
0
41
1
10
56.2950150914874
20
-14.231581777627
30
0
41
1
10
56.3071017294411
20
-14.263854882178
30
0
41
1
10
56.3129474804952
20
-14.2816796727485
30
0
41
1
10
56.3216283001468
20
-14.3156955475607
30
0
41
1
10
56.3245
20
-14.3319833604656
30
0
41
1
10
56.3245
20
-14.3458881962641
30
0
0
SPLINE
5
1B1
100
AcDbEntity
8
SK1
62
256
6
ByLayer
370
18
48
1
60
0
100
AcDbSpline
70
4
71
3
72
17
73
13
40
0
40
0
40
0
40
0
40
0.0691198910348733
40
0.149910146721569
40
0.230700402408266
40
0.392280913781658
40
0.553861425155051
40
0.634651680841747
40
0.715441936528443
40
0.877022447901836
40
0.957812703588532
40
1
40
1
40
1
40
1
41
1
10
-0.199999999999989
20
14.006275669192
30
0
41
1
10
-0.199999999999989
20
13.9739665357243
30
0
41
1
10
-0.199999999999989
20
13.8722046182929
30
0
41
1
10
-0.199999999999989
20
13.6197111420048
30
0
41
1
10
-0.199999999999989
20
13.1342348341326
30
0
41
1
10
-0.199999999999989
20
12.2979984966115
30
0
41
1
10
-0.199999999999989
20
11.1901781240568
30
0
41
1
10
-0.199999999999989
20
10.1531440412185
30
0
41
1
10
-0.199999999999989
20
9.01842194801014
30
0
41
1
10
-0.199999999999989
20
7.73942963488494
30
0
41
1
10
-0.199999999999989
20
6.49136847341111
30
0
41
1
10
-0.199999999999989
20
5.92516085301048
30
0
41
1
10
-0.199999999999989
20
5.72778184890603
30
0
0
LINE
5
75
100
AcDbEntity
8
1
62
256
6
ByLayer
370
18
48
1
60
0
100
AcDbLine
10
60.6755
20
-16.028175
30
0
11
65.0855
21
-16.028175
31
0
39
0
210
0
220
0
230
1
0
LINE
5
77
100
AcDbEntity
8
1
62
256
6
ByLayer
370
18
48
1
60
0
100
AcDbLine
10
20.865574
20
15.278689
30
0
11
20
21
20
31
0
39
0
210
0
220
0
230
1
0
LINE
5
78
100
AcDbEntity
8
1
62
256
6
ByLayer
370
18
48
1
60
0
100
AcDbLine
10
0.3
20
-20
30
0
11
24.8
21
-20
31
0
39
0
210
0
220
0
230
1
0
LINE
5
79
100
AcDbEntity
8
1
62
256
6
ByLayer
370
18
48
1
60
0
100
AcDbLine
10
20.000025
20
20
30
0
11
0.3
21
20
31
0
39
0
210
0
220
0
230
1
0
LINE
5
7A
100
AcDbEntity
8
1
62
256
6
ByLayer
370
18
48
1
60
0
100
AcDbLine
10
65.0855
20
-7.528175
30
0
11
60.6755
21
-7.528175
31
0
39
0
210
0
220
0
230
1
0
LINE
5
7B
100
AcDbEntity
8
1
62
256
6
ByLayer
370
18
48
1
60
0
100
AcDbLine
10
56.32436
20
1.278175
30
0
11
60.4755
21
1.278175
31
0
39
0
210
0
220
0
230
1
0
LINE
5
7C
100
AcDbEntity
8
1
62
256
6
ByLayer
370
18
48
1
60
0
100
AcDbLine
10
60.4755
20
6.278175
30
0
11
56.309634
21
6.278175
31
0
39
0
210
0
220
0
230
1
0
LINE
5
7D
100
AcDbEntity
8
1
62
256
6
ByLayer
370
18
48
1
60
0
100
AcDbLine
10
60.6755
20
-0.471825
30
0
11
65.0855
21
-0.471825
31
0
39
0
210
0
220
0
230
1
0
LINE
5
7E
100
AcDbEntity
8
1
62
256
6
ByLayer
370
18
48
1
60
0
100
AcDbLine
10
65.0855
20
8.028175
30
0
11
60.6755
21
8.028175
31
0
39
0
210
0
220
0
230
1
0
LINE
5
7F
100
AcDbEntity
8
1
62
256
6
ByLayer
370
18
48
1
60
0
100
AcDbLine
10
55.3245
20
12
30
0
11
24.8
21
12
31
0
39
0
210
0
220
0
230
1
0
LINE
5
80
100
AcDbEntity
8
1
62
256
6
ByLayer
370
18
48
1
60
0
100
AcDbLine
10
24.8
20
-20
30
0
11
55.3245
21
-20
31
0
39
0
210
0
220
0
230
1
0
LINE
5
81
100
AcDbEntity
8
1
62
256
6
ByLayer
370
18
48
1
60
0
100
AcDbLine
10
55.521894
20
11.802606
30
0
11
55.3245
21
12
31
0
39
0
210
0
220
0
230
1
0
LINE
5
82
100
AcDbEntity
8
1
62
256
6
ByLayer
370
18
48
1
60
0
100
AcDbLine
10
55.3245
20
-20
30
0
11
55.521894
21
-19.802606
31
0
39
0
210
0
220
0
230
1
0
LINE
5
83
100
AcDbEntity
8
1
62
256
6
ByLayer
370
18
48
1
60
0
100
AcDbLine
10
0
20
-19.7
30
0
11
0.3
21
-20
31
0
39
0
210
0
220
0
230
1
0
LINE
5
84
100
AcDbEntity
8
1
62
256
6
ByLayer
370
18
48
1
60
0
100
AcDbLine
10
0.3
20
20
30
0
11
0
21
19.7
31
0
39
0
210
0
220
0
230
1
0
LINE
5
85
100
AcDbEntity
8
1
62
256
6
ByLayer
370
18
48
1
60
0
100
AcDbLine
10
60.4755
20
-9.278175
30
0
11
56.32436
21
-9.278175
31
0
39
0
210
0
220
0
230
1
0
LINE
5
86
100
AcDbEntity
8
1
62
256
6
ByLayer
370
18
48
1
60
0
100
AcDbLine
10
56.309989
20
-14.278175
30
0
11
60.4755
21
-14.278175
31
0
39
0
210
0
220
0
230
1
0
LINE
5
87
100
AcDbEntity
8
1
62
256
6
ByLayer
370
18
48
1
60
0
100
AcDbLine
10
65.0855
20
8.028175
30
0
11
60.6755
21
8.028175
31
0
39
0
210
0
220
0
230
1
0
LINE
5
88
100
AcDbEntity
8
1
62
256
6
ByLayer
370
18
48
1
60
0
100
AcDbLine
10
60.6755
20
-0.471825
30
0
11
65.0855
21
-0.471825
31
0
39
0
210
0
220
0
230
1
0
LINE
5
89
100
AcDbEntity
8
1
62
256
6
ByLayer
370
18
48
1
60
0
100
AcDbLine
10
60.4755
20
6.278175
30
0
11
56.309634
21
6.278175
31
0
39
0
210
0
220
0
230
1
0
LINE
5
8A
100
AcDbEntity
8
1
62
256
6
ByLayer
370
18
48
1
60
0
100
AcDbLine
10
56.32436
20
1.278175
30
0
11
60.4755
21
1.278175
31
0
39
0
210
0
220
0
230
1
0
LINE
5
8B
100
AcDbEntity
8
1
62
256
6
ByLayer
370
13
48
1
60
0
100
AcDbLine
10
56.324481
20
5.833175
30
0
11
60.4755
21
5.833175
31
0
39
0
210
0
220
0
230
1
0
LINE
5
8C
100
AcDbEntity
8
1
62
256
6
ByLayer
370
13
48
1
60
0
100
AcDbLine
10
56.324481
20
1.723175
30
0
11
60.4755
21
1.723175
31
0
39
0
210
0
220
0
230
1
0
LINE
5
8D
100
AcDbEntity
8
1
62
256
6
ByLayer
370
18
48
1
60
0
100
AcDbLine
10
60.4755
20
5.496612
30
0
11
60.4755
21
1.278175
31
0
39
0
210
0
220
0
230
1
0
LINE
5
8E
100
AcDbEntity
8
80
62
256
6
ByLayer
370
18
48
1
60
0
100
AcDbLine
10
0
20
0
30
0
11
-5
21
0
31
0
39
0
210
0
220
0
230
1
0
LINE
5
8F
100
AcDbEntity
8
81
62
256
6
ByLayer
370
18
48
1
60
0
100
AcDbLine
10
56
20
-4
30
0
11
61
21
-4
31
0
39
0
210
0
220
0
230
1
0
LINE
5
90
100
AcDbEntity
8
4
62
256
6
ByLayer
370
18
48
0.05
60
0
100
AcDbLine
10
0
20
0
30
0
11
56
21
0
31
0
39
0
210
0
220
0
230
1
0
LINE
5
92
100
AcDbEntity
8
SK4
62
256
6
ByLayer
370
18
48
0.05
60
0
100
AcDbLine
10
-29
20
0
30
0
11
61
21
0
31
0
39
0
210
0
220
0
230
1
0
LINE
5
94
100
AcDbEntity
8
1
62
256
6
ByLayer
370
13
48
1
60
0
100
AcDbLine
10
20.865574
20
15.278689
30
0
11
20.865574
21
-5.541521
31
0
39
0
210
0
220
0
230
1
0
LINE
5
95
100
AcDbEntity
8
1
62
256
6
ByLayer
370
18
48
1
60
0
100
AcDbLine
10
6.923205
20
19.122283
30
0
11
9.076795
21
19.122283
31
0
39
0
210
0
220
0
230
1
0
LINE
5
96
100
AcDbEntity
8
1
62
256
6
ByLayer
370
18
48
1
60
0
100
AcDbLine
10
9.076795
20
5.85989
30
0
11
6.923205
21
5.85989
31
0
39
0
210
0
220
0
230
1
0
LINE
5
97
100
AcDbEntity
8
1
62
256
6
ByLayer
370
18
48
1
60
0
100
AcDbLine
10
0.3
20
-20
30
0
11
0.3
21
20
31
0
39
0
210
0
220
0
230
1
0
LINE
5
98
100
AcDbEntity
8
1
62
256
6
ByLayer
370
18
48
1
60
0
100
AcDbLine
10
9.076795
20
-19.122283
30
0
11
6.923205
21
-19.122283
31
0
39
0
210
0
220
0
230
1
0
LINE
5
99
100
AcDbEntity
8
1
62
256
6
ByLayer
370
18
48
1
60
0
100
AcDbLine
10
6.923205
20
-5.85989
30
0
11
9.076795
21
-5.85989
31
0
39
0
210
0
220
0
230
1
0
LINE
5
9A
100
AcDbEntity
8
1
62
256
6
ByLayer
370
13
48
1
60
0
100
AcDbLine
10
24.8
20
12
30
0
11
24.8
21
-20
31
0
39
0
210
0
220
0
230
1
0
LINE
5
9B
100
AcDbEntity
8
1
62
256
6
ByLayer
370
13
48
1
60
0
100
AcDbLine
10
6.923205
20
-5.85989
30
0
11
6.923205
21
-19.122283
31
0
39
0
210
0
220
0
230
1
0
LINE
5
9C
100
AcDbEntity
8
1
62
256
6
ByLayer
370
13
48
1
60
0
100
AcDbLine
10
6.663397
20
-6.16973
30
0
11
6.663397
21
-19.024574
31
0
39
0
210
0
220
0
230
1
0
LINE
5
9D
100
AcDbEntity
8
1
62
256
6
ByLayer
370
13
48
1
60
0
100
AcDbLine
10
9.336603
20
19.024574
30
0
11
9.336603
21
6.16973
31
0
39
0
210
0
220
0
230
1
0
LINE
5
9E
100
AcDbEntity
8
1
62
256
6
ByLayer
370
13
48
1
60
0
100
AcDbLine
10
9.076795
20
19.122283
30
0
11
9.076795
21
5.85989
31
0
39
0
210
0
220
0
230
1
0
LINE
5
9F
100
AcDbEntity
8
1
62
256
6
ByLayer
370
13
48
1
60
0
100
AcDbLine
10
9.336603
20
-6.16973
30
0
11
9.336603
21
-19.024574
31
0
39
0
210
0
220
0
230
1
0
LINE
5
A0
100
AcDbEntity
8
1
62
256
6
ByLayer
370
13
48
1
60
0
100
AcDbLine
10
9.076795
20
-5.85989
30
0
11
9.076795
21
-19.122283
31
0
39
0
210
0
220
0
230
1
0
LINE
5
A1
100
AcDbEntity
8
1
62
256
6
ByLayer
370
13
48
1
60
0
100
AcDbLine
10
6.923205
20
19.122283
30
0
11
6.923205
21
5.85989
31
0
39
0
210
0
220
0
230
1
0
LINE
5
A2
100
AcDbEntity
8
1
62
256
6
ByLayer
370
13
48
1
60
0
100
AcDbLine
10
6.663397
20
19.024574
30
0
11
6.663397
21
6.16973
31
0
39
0
210
0
220
0
230
1
0
LINE
5
A3
100
AcDbEntity
8
1
62
256
6
ByLayer
370
18
48
1
60
0
100
AcDbLine
10
0
20
-19.7
30
0
11
0
21
19.7
31
0
39
0
210
0
220
0
230
1
0
LINE
5
A4
100
AcDbEntity
8
1
62
256
6
ByLayer
370
18
48
1
60
0
100
AcDbLine
10
56.3245
20
-8.364301
30
0
11
56.3245
21
-8.980708
31
0
39
0
210
0
220
0
230
1
0
LINE
5
A5
100
AcDbEntity
8
1
62
256
6
ByLayer
370
18
48
1
60
0
100
AcDbLine
10
56.3245
20
-11.736298
30
0
11
56.3245
21
-12.062523
31
0
39
0
210
0
220
0
230
1
0
LINE
5
A6
100
AcDbEntity
8
1
62
256
6
ByLayer
370
18
48
1
60
0
100
AcDbLine
10
56.3245
20
-13.805788
30
0
11
56.3245
21
-14.034994
31
0
39
0
210
0
220
0
230
1
0
LINE
5
A7
100
AcDbEntity
8
1
62
256
6
ByLayer
370
18
48
1
60
0
100
AcDbLine
10
56.3245
20
-15.311793
30
0
11
56.3245
21
-15.484682
31
0
39
0
210
0
220
0
230
1
0
LINE
5
A8
100
AcDbEntity
8
1
62
256
6
ByLayer
370
18
48
1
60
0
100
AcDbLine
10
56.3245
20
-16.46033
30
0
11
56.3245
21
-16.593441
31
0
39
0
210
0
220
0
230
1
0
LINE
5
A9
100
AcDbEntity
8
1
62
256
6
ByLayer
370
18
48
1
60
0
100
AcDbLine
10
56.3245
20
-17.344025
30
0
11
56.3245
21
-17.445876
31
0
39
0
210
0
220
0
230
1
0
LINE
5
AA
100
AcDbEntity
8
1
62
256
6
ByLayer
370
18
48
1
60
0
100
AcDbLine
10
56.3245
20
-18.013072
30
0
11
56.3245
21
-18.088591
31
0
39
0
210
0
220
0
230
1
0
LINE
5
AB
100
AcDbEntity
8
1
62
256
6
ByLayer
370
18
48
1
60
0
100
AcDbLine
10
56.3245
20
-18.497219
30
0
11
56.3245
21
-18.549406
31
0
39
0
210
0
220
0
230
1
0
LINE
5
AC
100
AcDbEntity
8
1
62
256
6
ByLayer
370
18
48
1
60
0
100
AcDbLine
10
56.3245
20
-18.814605
30
0
11
56.3245
21
-18.84527
31
0
39
0
210
0
220
0
230
1
0
LINE
5
AD
100
AcDbEntity
8
1
62
256
6
ByLayer
370
18
48
1
60
0
100
AcDbLine
10
56.3245
20
-18.975837
30
0
11
56.3245
21
-18.985956
31
0
39
0
210
0
220
0
230
1
0
LINE
5
AE
100
AcDbEntity
8
1
62
256
6
ByLayer
370
18
48
1
60
0
100
AcDbLine
10
56.3245
20
9.344025
30
0
11
56.3245
21
8.593438
31
0
39
0
210
0
220
0
230
1
0
LINE
5
AF
100
AcDbEntity
8
1
62
256
6
ByLayer
370
18
48
1
60
0
100
AcDbLine
10
56.3245
20
10.985956
30
0
11
56.3245
21
10.975837
31
0
39
0
210
0
220
0
230
1
0
LINE
5
B0
100
AcDbEntity
8
1
62
256
6
ByLayer
370
18
48
1
60
0
100
AcDbLine
10
56.3245
20
10.84527
30
0
11
56.3245
21
10.814605
31
0
39
0
210
0
220
0
230
1
0
LINE
5
B1
100
AcDbEntity
8
1
62
256
6
ByLayer
370
18
48
1
60
0
100
AcDbLine
10
56.3245
20
10.549406
30
0
11
56.3245
21
10.497219
31
0
39
0
210
0
220
0
230
1
0
LINE
5
B2
100
AcDbEntity
8
1
62
256
6
ByLayer
370
18
48
1
60
0
100
AcDbLine
10
56.3245
20
10.088591
30
0
11
56.3245
21
10.013072
31
0
39
0
210
0
220
0
230
1
0
LINE
5
B3
100
AcDbEntity
8
1
62
256
6
ByLayer
370
18
48
1
60
0
100
AcDbLine
10
56.3245
20
9.445876
30
0
11
56.3245
21
9.344025
31
0
39
0
210
0
220
0
230
1
0
LINE
5
B4
100
AcDbEntity
8
1
62
256
6
ByLayer
370
18
48
1
60
0
100
AcDbLine
10
56.3245
20
8.593441
30
0
11
56.3245
21
8.46033
31
0
39
0
210
0
220
0
230
1
0
LINE
5
B5
100
AcDbEntity
8
1
62
256
6
ByLayer
370
18
48
1
60
0
100
AcDbLine
10
56.3245
20
7.484682
30
0
11
56.3245
21
7.311793
31
0
39
0
210
0
220
0
230
1
0
LINE
5
B6
100
AcDbEntity
8
1
62
256
6
ByLayer
370
18
48
1
60
0
100
AcDbLine
10
56.3245
20
6.034994
30
0
11
56.3245
21
5.805788
31
0
39
0
210
0
220
0
230
1
0
LINE
5
B7
100
AcDbEntity
8
1
62
256
6
ByLayer
370
18
48
1
60
0
100
AcDbLine
10
56.3245
20
4.062523
30
0
11
56.3245
21
3.736298
31
0
39
0
210
0
220
0
230
1
0
LINE
5
B8
100
AcDbEntity
8
1
62
256
6
ByLayer
370
18
48
1
60
0
100
AcDbLine
10
56.3245
20
0.980708
30
0
11
56.3245
21
0.364301
31
0
39
0
210
0
220
0
230
1
0
LINE
5
B9
100
AcDbEntity
8
1
62
256
6
ByLayer
370
18
48
1
60
0
100
AcDbLine
10
55.3245
20
12
30
0
11
55.3245
21
-20
31
0
39
0
210
0
220
0
230
1
0
LINE
5
BA
100
AcDbEntity
8
SK1
62
256
6
ByLayer
370
13
48
1
60
0
100
AcDbLine
10
-1.307107
20
3.628534
30
0
11
-1.307107
21
-3.628532
31
0
39
0
210
0
220
0
230
1
0
LINE
5
BC
100
AcDbEntity
8
SK1
62
256
6
ByLayer
370
18
48
1
60
0
100
AcDbLine
10
-0.2
20
-5.678452
30
0
11
-0.2
21
-5.727781
31
0
39
0
210
0
220
0
230
1
0
LINE
5
BD
100
AcDbEntity
8
1
62
256
6
ByLayer
370
13
48
1
60
0
100
AcDbLine
10
55.6055
20
1.146068
30
0
11
55.6055
21
0.20096
31
0
39
0
210
0
220
0
230
1
0
LINE
5
BE
100
AcDbEntity
8
1
62
256
6
ByLayer
370
13
48
1
60
0
100
AcDbLine
10
55.6055
20
-8.20096
30
0
11
55.6055
21
-9.146068
31
0
39
0
210
0
220
0
230
1
0
LINE
5
BF
100
AcDbEntity
8
1
62
256
6
ByLayer
370
18
48
1
60
0
100
AcDbLine
10
56.3245
20
-16.593438
30
0
11
56.3245
21
-17.344025
31
0
39
0
210
0
220
0
230
1
0
LINE
5
C0
100
AcDbEntity
8
1
62
256
6
ByLayer
370
13
48
1
60
0
100
AcDbLine
10
56.2495
20
-8.190151
30
0
11
56.2495
21
0.190151
31
0
39
0
210
0
220
0
230
1
0
LINE
5
C1
100
AcDbEntity
8
SK1
62
256
6
ByLayer
370
18
48
1
60
0
100
AcDbLine
10
-0.2
20
5.727782
30
0
11
-0.2
21
5.678452
31
0
39
0
210
0
220
0
230
1
0
LINE
5
C2
100
AcDbEntity
8
1
62
256
6
ByLayer
370
13
48
1
60
0
100
AcDbLine
10
55.6055
20
4.293994
30
0
11
55.6055
21
3.799983
31
0
39
0
210
0
220
0
230
1
0
LINE
5
C3
100
AcDbEntity
8
1
62
256
6
ByLayer
370
13
48
1
60
0
100
AcDbLine
10
55.6055
20
-11.799983
30
0
11
55.6055
21
-12.293994
31
0
39
0
210
0
220
0
230
1
0
LINE
5
C4
100
AcDbEntity
8
1
62
256
6
ByLayer
370
13
48
1
60
0
100
AcDbLine
10
56.2495
20
-11.664871
30
0
11
56.2495
21
-9.54266
31
0
39
0
210
0
220
0
230
1
0
LINE
5
C5
100
AcDbEntity
8
1
62
256
6
ByLayer
370
13
48
1
60
0
100
AcDbLine
10
56.2495
20
1.54266
30
0
11
56.2495
21
3.664871
31
0
39
0
210
0
220
0
230
1
0
LINE
5
C6
100
AcDbEntity
8
1
62
256
6
ByLayer
370
13
48
1
60
0
100
AcDbLine
10
55.6055
20
6.324663
30
0
11
55.6055
21
5.976528
31
0
39
0
210
0
220
0
230
1
0
LINE
5
C7
100
AcDbEntity
8
1
62
256
6
ByLayer
370
13
48
1
60
0
100
AcDbLine
10
55.6055
20
-13.976528
30
0
11
55.6055
21
-14.324663
31
0
39
0
210
0
220
0
230
1
0
LINE
5
C8
100
AcDbEntity
8
1
62
256
6
ByLayer
370
13
48
1
60
0
100
AcDbLine
10
56.2495
20
-13.7695
30
0
11
56.2495
21
-12.398107
31
0
39
0
210
0
220
0
230
1
0
LINE
5
C9
100
AcDbEntity
8
1
62
256
6
ByLayer
370
13
48
1
60
0
100
AcDbLine
10
56.2495
20
4.398107
30
0
11
56.2495
21
5.7695
31
0
39
0
210
0
220
0
230
1
0
LINE
5
CA
100
AcDbEntity
8
1
62
256
6
ByLayer
370
18
48
1
60
0
100
AcDbLine
10
56.3245
20
-14.278229
30
0
11
56.3245
21
-14.3459
31
0
39
0
210
0
220
0
230
1
0
LINE
5
CB
100
AcDbEntity
8
1
62
256
6
ByLayer
370
18
48
1
60
0
100
AcDbLine
10
56.3245
20
-17.445834
30
0
11
56.3245
21
-18.013072
31
0
39
0
210
0
220
0
230
1
0
LINE
5
CC
100
AcDbEntity
8
1
62
256
6
ByLayer
370
13
48
1
60
0
100
AcDbLine
10
55.6055
20
-15.563846
30
0
11
55.6055
21
-15.828229
31
0
39
0
210
0
220
0
230
1
0
LINE
5
CD
100
AcDbEntity
8
1
62
256
6
ByLayer
370
13
48
1
60
0
100
AcDbLine
10
56.2495
20
-15.297611
30
0
11
56.2495
21
-14.287691
31
0
39
0
210
0
220
0
230
1
0
LINE
5
CE
100
AcDbEntity
8
1
62
256
6
ByLayer
370
18
48
1
60
0
100
AcDbLine
10
56.3245
20
0.364301
30
0
11
56.3245
21
-8.364301
31
0
39
0
210
0
220
0
230
1
0
LINE
5
CF
100
AcDbEntity
8
1
62
256
6
ByLayer
370
13
48
1
60
0
100
AcDbLine
10
55.6055
20
7.828229
30
0
11
55.6055
21
7.563846
31
0
39
0
210
0
220
0
230
1
0
LINE
5
D0
100
AcDbEntity
8
1
62
256
6
ByLayer
370
13
48
1
60
0
100
AcDbLine
10
56.2495
20
6.287691
30
0
11
56.2495
21
7.297611
31
0
39
0
210
0
220
0
230
1
0
LINE
5
D1
100
AcDbEntity
8
1
62
256
6
ByLayer
370
18
48
1
60
0
100
AcDbLine
10
56.3245
20
3.736298
30
0
11
56.3245
21
0.980483
31
0
39
0
210
0
220
0
230
1
0
LINE
5
D2
100
AcDbEntity
8
1
62
256
6
ByLayer
370
18
48
1
60
0
100
AcDbLine
10
56.3245
20
-8.980483
30
0
11
56.3245
21
-11.736298
31
0
39
0
210
0
220
0
230
1
0
LINE
5
D3
100
AcDbEntity
8
1
62
256
6
ByLayer
370
18
48
1
60
0
100
AcDbLine
10
56.3245
20
5.805788
30
0
11
56.3245
21
4.062503
31
0
39
0
210
0
220
0
230
1
0
LINE
5
D4
100
AcDbEntity
8
1
62
256
6
ByLayer
370
18
48
1
60
0
100
AcDbLine
10
56.3245
20
-12.062503
30
0
11
56.3245
21
-13.805788
31
0
39
0
210
0
220
0
230
1
0
LINE
5
D5
100
AcDbEntity
8
1
62
256
6
ByLayer
370
13
48
1
60
0
100
AcDbLine
10
55.6055
20
8.989046
30
0
11
55.6055
21
8.78336
31
0
39
0
210
0
220
0
230
1
0
LINE
5
D6
100
AcDbEntity
8
1
62
256
6
ByLayer
370
13
48
1
60
0
100
AcDbLine
10
55.6055
20
-16.78336
30
0
11
55.6055
21
-16.989046
31
0
39
0
210
0
220
0
230
1
0
LINE
5
D7
100
AcDbEntity
8
1
62
256
6
ByLayer
370
13
48
1
60
0
100
AcDbLine
10
56.2495
20
-16.463102
30
0
11
56.2495
21
-15.689484
31
0
39
0
210
0
220
0
230
1
0
LINE
5
D8
100
AcDbEntity
8
1
62
256
6
ByLayer
370
13
48
1
60
0
100
AcDbLine
10
56.2495
20
7.689484
30
0
11
56.2495
21
8.463102
31
0
39
0
210
0
220
0
230
1
0
LINE
5
D9
100
AcDbEntity
8
1
62
256
6
ByLayer
370
13
48
1
60
0
100
AcDbLine
10
55.6055
20
9.893295
30
0
11
55.6055
21
9.733396
31
0
39
0
210
0
220
0
230
1
0
LINE
5
DA
100
AcDbEntity
8
1
62
256
6
ByLayer
370
13
48
1
60
0
100
AcDbLine
10
55.6055
20
-17.733396
30
0
11
55.6055
21
-17.893295
31
0
39
0
210
0
220
0
230
1
0
LINE
5
DB
100
AcDbEntity
8
1
62
256
6
ByLayer
370
13
48
1
60
0
100
AcDbLine
10
56.2495
20
-17.361205
30
0
11
56.2495
21
-16.765188
31
0
39
0
210
0
220
0
230
1
0
LINE
5
DC
100
AcDbEntity
8
1
62
256
6
ByLayer
370
13
48
1
60
0
100
AcDbLine
10
56.2495
20
8.765188
30
0
11
56.2495
21
9.361205
31
0
39
0
210
0
220
0
230
1
0
LINE
5
DD
100
AcDbEntity
8
1
62
256
6
ByLayer
370
18
48
1
60
0
100
AcDbLine
10
56.3245
20
-14.345888
30
0
11
56.3245
21
-15.311793
31
0
39
0
210
0
220
0
230
1
0
LINE
5
DE
100
AcDbEntity
8
1
62
256
6
ByLayer
370
18
48
1
60
0
100
AcDbLine
10
56.3245
20
8.46033
30
0
11
56.3245
21
7.484691
31
0
39
0
210
0
220
0
230
1
0
LINE
5
DF
100
AcDbEntity
8
1
62
256
6
ByLayer
370
13
48
1
60
0
100
AcDbLine
10
55.6055
20
-18.467117
30
0
11
55.6055
21
-18.588762
31
0
39
0
210
0
220
0
230
1
0
LINE
5
E0
100
AcDbEntity
8
1
62
256
6
ByLayer
370
13
48
1
60
0
100
AcDbLine
10
55.6055
20
10.588762
30
0
11
55.6055
21
10.467117
31
0
39
0
210
0
220
0
230
1
0
LINE
5
E1
100
AcDbEntity
8
1
62
256
6
ByLayer
370
13
48
1
60
0
100
AcDbLine
10
56.2495
20
9.592505
30
0
11
56.2495
21
10.043314
31
0
39
0
210
0
220
0
230
1
0
LINE
5
E2
100
AcDbEntity
8
1
62
256
6
ByLayer
370
13
48
1
60
0
100
AcDbLine
10
56.2495
20
-18.043314
30
0
11
56.2495
21
-17.592505
31
0
39
0
210
0
220
0
230
1
0
LINE
5
E3
100
AcDbEntity
8
1
62
256
6
ByLayer
370
18
48
1
60
0
100
AcDbLine
10
56.3245
20
7.311793
30
0
11
56.3245
21
6.345888
31
0
39
0
210
0
220
0
230
1
0
LINE
5
E4
100
AcDbEntity
8
1
62
256
6
ByLayer
370
18
48
1
60
0
100
AcDbLine
10
56.3245
20
-15.484691
30
0
11
56.3245
21
-16.46033
31
0
39
0
210
0
220
0
230
1
0
LINE
5
E5
100
AcDbEntity
8
1
62
256
6
ByLayer
370
13
48
1
60
0
100
AcDbLine
10
55.6055
20
11.104314
30
0
11
55.6055
21
11.016235
31
0
39
0
210
0
220
0
230
1
0
LINE
5
E6
100
AcDbEntity
8
1
62
256
6
ByLayer
370
13
48
1
60
0
100
AcDbLine
10
55.6055
20
-19.016235
30
0
11
55.6055
21
-19.104314
31
0
39
0
210
0
220
0
230
1
0
LINE
5
E7
100
AcDbEntity
8
1
62
256
6
ByLayer
370
13
48
1
60
0
100
AcDbLine
10
56.2495
20
-18.539861
30
0
11
56.2495
21
-18.214869
31
0
39
0
210
0
220
0
230
1
0
LINE
5
E8
100
AcDbEntity
8
1
62
256
6
ByLayer
370
13
48
1
60
0
100
AcDbLine
10
56.2495
20
10.214869
30
0
11
56.2495
21
10.539861
31
0
39
0
210
0
220
0
230
1
0
LINE
5
E9
100
AcDbEntity
8
1
62
256
6
ByLayer
370
13
48
1
60
0
100
AcDbLine
10
55.6055
20
11.457963
30
0
11
55.6055
21
11.400639
31
0
39
0
210
0
220
0
230
1
0
LINE
5
EA
100
AcDbEntity
8
1
62
256
6
ByLayer
370
13
48
1
60
0
100
AcDbLine
10
55.6055
20
-19.400639
30
0
11
55.6055
21
-19.457963
31
0
39
0
210
0
220
0
230
1
0
LINE
5
EB
100
AcDbEntity
8
1
62
256
6
ByLayer
370
13
48
1
60
0
100
AcDbLine
10
56.2495
20
10.658425
30
0
11
56.2495
21
10.869447
31
0
39
0
210
0
220
0
230
1
0
LINE
5
EC
100
AcDbEntity
8
1
62
256
6
ByLayer
370
13
48
1
60
0
100
AcDbLine
10
56.2495
20
-18.869447
30
0
11
56.2495
21
-18.658425
31
0
39
0
210
0
220
0
230
1
0
LINE
5
ED
100
AcDbEntity
8
1
62
256
6
ByLayer
370
18
48
1
60
0
100
AcDbLine
10
56.3245
20
10.497219
30
0
11
56.3245
21
10.088558
31
0
39
0
210
0
220
0
230
1
0
LINE
5
EE
100
AcDbEntity
8
1
62
256
6
ByLayer
370
13
48
1
60
0
100
AcDbLine
10
55.6055
20
-19.632398
30
0
11
55.6055
21
-19.660682
31
0
39
0
210
0
220
0
230
1
0
LINE
5
EF
100
AcDbEntity
8
1
62
256
6
ByLayer
370
13
48
1
60
0
100
AcDbLine
10
55.6055
20
11.660682
30
0
11
55.6055
21
11.632398
31
0
39
0
210
0
220
0
230
1
0
LINE
5
F0
100
AcDbEntity
8
1
62
256
6
ByLayer
370
13
48
1
60
0
100
AcDbLine
10
56.2495
20
10.939166
30
0
11
56.2495
21
11.04305
31
0
39
0
210
0
220
0
230
1
0
LINE
5
F1
100
AcDbEntity
8
1
62
256
6
ByLayer
370
13
48
1
60
0
100
AcDbLine
10
56.2495
20
-19.04305
30
0
11
56.2495
21
-18.939166
31
0
39
0
210
0
220
0
230
1
0
LINE
5
F2
100
AcDbEntity
8
1
62
256
6
ByLayer
370
18
48
1
60
0
100
AcDbLine
10
56.3245
20
10.013072
30
0
11
56.3245
21
9.445834
31
0
39
0
210
0
220
0
230
1
0
LINE
5
F3
100
AcDbEntity
8
1
62
256
6
ByLayer
370
18
48
1
60
0
100
AcDbLine
10
56.3245
20
6.3459
30
0
11
56.3245
21
6.278229
31
0
39
0
210
0
220
0
230
1
0
LINE
5
F4
100
AcDbEntity
8
1
62
256
6
ByLayer
370
18
48
1
60
0
100
AcDbLine
10
56.3245
20
10.814605
30
0
11
56.3245
21
10.549342
31
0
39
0
210
0
220
0
230
1
0
LINE
5
F5
100
AcDbEntity
8
1
62
256
6
ByLayer
370
18
48
1
60
0
100
AcDbLine
10
56.3245
20
-18.088558
30
0
11
56.3245
21
-18.497219
31
0
39
0
210
0
220
0
230
1
0
LINE
5
F6
100
AcDbEntity
8
1
62
256
6
ByLayer
370
18
48
1
60
0
100
AcDbLine
10
56.3245
20
-18.549342
30
0
11
56.3245
21
-18.814605
31
0
39
0
210
0
220
0
230
1
0
LINE
5
F7
100
AcDbEntity
8
1
62
256
6
ByLayer
370
18
48
1
60
0
100
AcDbLine
10
56.3245
20
10.975837
30
0
11
56.3245
21
10.845261
31
0
39
0
210
0
220
0
230
1
0
LINE
5
F8
100
AcDbEntity
8
1
62
256
6
ByLayer
370
18
48
1
60
0
100
AcDbLine
10
56.3245
20
-18.845261
30
0
11
56.3245
21
-18.975837
31
0
39
0
210
0
220
0
230
1
0
LINE
5
F9
100
AcDbEntity
8
1
62
256
6
ByLayer
370
18
48
1
60
0
100
AcDbLine
10
65.5855
20
7.528175
30
0
11
65.5855
21
0.028175
31
0
39
0
210
0
220
0
230
1
0
LINE
5
FA
100
AcDbEntity
8
1
62
256
6
ByLayer
370
18
48
1
60
0
100
AcDbLine
10
60.6755
20
8.028175
30
0
11
60.6755
21
-0.471825
31
0
39
0
210
0
220
0
230
1
0
LINE
5
FB
100
AcDbEntity
8
1
62
256
6
ByLayer
370
18
48
1
60
0
100
AcDbLine
10
65.5855
20
-15.528175
30
0
11
65.5855
21
-8.028175
31
0
39
0
210
0
220
0
230
1
0
LINE
5
FC
100
AcDbEntity
8
1
62
256
6
ByLayer
370
13
48
1
60
0
100
AcDbLine
10
65.0855
20
8.028175
30
0
11
65.0855
21
-0.471825
31
0
39
0
210
0
220
0
230
1
0
LINE
5
FD
100
AcDbEntity
8
1
62
256
6
ByLayer
370
18
48
1
60
0
100
AcDbLine
10
65.5855
20
7.528175
30
0
11
65.5855
21
0.028175
31
0
39
0
210
0
220
0
230
1
0
LINE
5
FE
100
AcDbEntity
8
1
62
256
6
ByLayer
370
13
48
1
60
0
100
AcDbLine
10
60.4755
20
6.278175
30
0
11
60.4755
21
1.278175
31
0
39
0
210
0
220
0
230
1
0
LINE
5
FF
100
AcDbEntity
8
1
62
256
6
ByLayer
370
18
48
1
60
0
100
AcDbLine
10
60.6755
20
8.028175
30
0
11
60.6755
21
-0.471825
31
0
39
0
210
0
220
0
230
1
0
LINE
5
100
100
AcDbEntity
8
1
62
256
6
ByLayer
370
13
48
1
60
0
100
AcDbLine
10
65.0855
20
-7.528175
30
0
11
65.0855
21
-16.028175
31
0
39
0
210
0
220
0
230
1
0
LINE
5
101
100
AcDbEntity
8
1
62
256
6
ByLayer
370
18
48
1
60
0
100
AcDbLine
10
60.6755
20
-16.028175
30
0
11
60.6755
21
-7.528175
31
0
39
0
210
0
220
0
230
1
0
LINE
5
102
100
AcDbEntity
8
1
62
256
6
ByLayer
370
13
48
1
60
0
100
AcDbLine
10
60.4755
20
-9.278175
30
0
11
60.4755
21
-14.278175
31
0
39
0
210
0
220
0
230
1
0
LINE
5
103
100
AcDbEntity
8
1
62
256
6
ByLayer
370
13
48
1
60
0
100
AcDbLine
10
65.0855
20
8.028175
30
0
11
65.0855
21
-0.471825
31
0
39
0
210
0
220
0
230
1
0
LINE
5
104
100
AcDbEntity
8
1
62
256
6
ByLayer
370
13
48
1
60
0
100
AcDbLine
10
60.4755
20
6.278175
30
0
11
60.4755
21
1.278175
31
0
39
0
210
0
220
0
230
1
0
MTEXT
5
1B2
100
AcDbEntity
8
SK6
62
256
6
ByLayer
370
18
48
1
60
0
100
AcDbMText
10
0.875
20
-30.874866
30
0
210
0
220
0
230
1
1
\W0.7290;C4-570-2C 32 056L
40
3.5
41
0
44
1.084337
50
0
71
7
72
5
7
iso_b_vert
0
DIMENSION
5
1BF
100
AcDbEntity
8
SK2
62
256
6
ByLayer
370
13
48
1
60
0
100
AcDbDimension
2
DimnDraft3D1
10
56
20
26.6
30
0
11
36.730234
21
26.6
31
0
70
32
71
5
72
1
41
1
210
0
220
0
230
1
3
Standard
100
AcDbAlignedDimension
13
24.8
23
13.5875
33
0
14
56
24
13.5875
34
0
50
0
100
AcDbRotatedDimension
1001
ACAD
1000
DSTYLE
1002
{
1070
   279
1070
     0
1070
   172
1070
     1
1070
   173
1070
     1
1070
   340
1005
1B3
1070
   271
1070
     2
1070
   272
1070
     2
1070
    77
1070
     1
1070
    73
1070
     0
1070
   171
1070
     3
1070
   274
1070
     4
1070
   177
1070
     2
1070
   176
1070
     2
1070
   178
1070
     2
1070
    78
1070
     8
1070
    48
1040
-0.005
1070
    41
1041
3.5
1070
   147
1041
1.75
1070
    42
1041
1.5875
1070
    44
1041
2.0
1070
   140
1041
3.5
1070
   343
1005
0
1070
   344
1005
0
1002
}
0
DIMENSION
5
1C9
100
AcDbEntity
8
SK2
62
256
6
ByLayer
370
13
48
1
60
0
100
AcDbDimension
2
DimnDraft3D2
10
75.895319
20
0
30
0
11
75.895319
21
10
31
0
70
32
71
5
72
1
41
1
210
0
220
0
230
1
3
Standard
100
AcDbAlignedDimension
13
57.5875
23
-4
33
0
14
57.5875
24
0
34
0
50
90
100
AcDbRotatedDimension
1001
ACAD
1000
DSTYLE
1002
{
1070
    74
1070
     0
1070
   279
1070
     0
1070
   172
1070
     1
1070
   173
1070
     1
1070
   340
1005
1B3
1070
   271
1070
     2
1070
   272
1070
     2
1070
    77
1070
     1
1070
    73
1070
     0
1070
   171
1070
     3
1070
   274
1070
     4
1070
   177
1070
     2
1070
   176
1070
     2
1070
   178
1070
     2
1070
    78
1070
     8
1070
    48
1040
-0.005
1070
    41
1041
3.5
1070
   147
1041
1.75
1070
    42
1041
1.5875
1070
    44
1041
2.0
1070
   140
1041
3.5
1070
   343
1005
0
1070
   344
1005
0
1002
}
0
DIMENSION
5
1D4
100
AcDbEntity
8
2
62
256
6
ByLayer
370
13
48
1
60
0
100
AcDbDimension
2
DimnDraft3D3
10
56
20
36.6
30
0
11
23.892801
21
36.6
31
0
70
32
71
5
72
1
41
1
210
0
220
0
230
1
3
Standard
100
AcDbAlignedDimension
13
0
23
21.5875
33
0
14
56
24
13.5875
34
0
50
0
100
AcDbRotatedDimension
1001
ACAD
1000
DSTYLE
1002
{
1070
   279
1070
     0
1070
   172
1070
     1
1070
   173
1070
     1
1070
   340
1005
1B3
1070
   271
1070
     2
1070
   272
1070
     2
1070
    77
1070
     1
1070
    73
1070
     0
1070
   171
1070
     3
1070
   274
1070
     4
1070
   177
1070
     2
1070
   176
1070
     2
1070
   178
1070
     2
1070
    78
1070
     8
1070
    48
1040
-0.005
1070
    41
1041
3.5
1070
   147
1041
1.75
1070
    42
1041
1.5875
1070
    44
1041
2.0
1070
   140
1041
3.5
1070
   343
1005
0
1070
   344
1005
0
1002
}
0
DIMENSION
5
1DF
100
AcDbEntity
8
SK2
62
256
6
ByLayer
370
13
48
1
60
0
100
AcDbDimension
2
DimnDraft3D4
10
-47.6
20
-20
30
0
11
-48.225
21
2.100267
31
0
70
33
71
5
72
1
41
1
210
0
220
0
230
1
3
Standard
100
AcDbAlignedDimension
13
-1.5875
23
20
33
0
14
-1.5875
24
-20
34
0
1001
ACAD
1000
DSTYLE
1002
{
1070
   279
1070
     0
1070
    74
1070
     0
1070
   173
1070
     1
1070
   340
1005
1B3
1070
   271
1070
     2
1070
   272
1070
     2
1070
    77
1070
     1
1070
    73
1070
     0
1070
   171
1070
     3
1070
   274
1070
     4
1070
   177
1070
     2
1070
   176
1070
     2
1070
   178
1070
     2
1070
    78
1070
     8
1070
    48
1040
-0.005
1070
    41
1041
3.5
1070
   147
1041
1.75
1070
    42
1041
1.5875
1070
    44
1041
2.0
1070
   140
1041
3.5
1070
   343
1005
0
1070
   344
1005
0
1002
}
0
DIMENSION
5
1EA
100
AcDbEntity
8
SK2
62
256
6
ByLayer
370
13
48
1
60
0
100
AcDbDimension
2
DimnDraft3D5
10
87.895319
20
-20
30
0
11
83.270319
21
-1.715466
31
0
70
33
71
5
72
1
41
1
210
0
220
0
230
1
3
Standard
100
AcDbAlignedDimension
13
57.5875
23
12
33
0
14
57.5875
24
-20
34
0
1001
ACAD
1000
DSTYLE
1002
{
1070
   279
1070
     0
1070
    74
1070
     0
1070
   173
1070
     1
1070
   340
1005
1B3
1070
   271
1070
     2
1070
   272
1070
     2
1070
    77
1070
     1
1070
    73
1070
     0
1070
   171
1070
     3
1070
   274
1070
     4
1070
   177
1070
     2
1070
   176
1070
     2
1070
   178
1070
     2
1070
    78
1070
     8
1070
    48
1040
-0.005
1070
    41
1041
3.5
1070
   147
1041
1.75
1070
    42
1041
1.5875
1070
    44
1041
2.0
1070
   140
1041
3.5
1070
   343
1005
0
1070
   344
1005
0
1002
}
0
ENDSEC
0
SECTION
2
OBJECTS
0
DICTIONARY
5
255
330
0
100
AcDbDictionary
280
0
281
1
3
ACAD_GROUP
350
256
3
ACAD_MLINESTYLE
350
257
0
DICTIONARY
5
256
330
0
100
AcDbDictionary
280
0
281
1
0
DICTIONARY
5
257
330
0
100
AcDbDictionary
280
0
281
1
3
Standard
350
18
0
MLINESTYLE
5
18
330
257
100
AcDbMlineStyle
2
Standard
70
0
3

62
256
51
90
52
90
71
2
49
-0.5
62
256
6
ByLayer
49
0.5
62
256
6
ByLayer
0
RASTERVARIABLES
5
243
330

100
AcDbRasterVariables
90
0
70
1
71
1
72
1
0
ENDSEC
0
EOF
